0
SECTION
2
HEADER
9
$ACADVER
1
AC1015
9
$DWGCODEPAGE
3
ANSI_1252
9
$HANDSEED
5
26e
9
$ANGBASE
50
0
9
$ANGDIR
70
0
9
$ATTMODE
70
1
9
$AUNITS
70
0
9
$AUPREC
70
0
9
$CECOLOR
62
256
9
$CELTSCALE
40
1
9
$CELTYPE
6
ByLayer
9
$CELWEIGHT
370
18
9
$CLAYER
8
0
9
$CMLJUST
70
0
9
$CMLSCALE
40
1
9
$CMLSTYLE
2
Standard
9
$DIMSTYLE
2
Standard
9
$TEXTSIZE
40
0.2
9
$TEXTSTYLE
7
Standard
9
$LUNITS
70
2
9
$LUPREC
70
4
9
$EXTNAMES
290
1
9
$INSUNITS
70
4
9
$LTSCALE
40
1
9
$LWDISPLAY
290
1
9
$PDMODE
70
0
9
$PDSIZE
40
0
9
$PLINEGEN
70
0
0
ENDSEC
0
SECTION
2
CLASSES
0
CLASS
1
RASTERVARIABLES
2
AcDbRasterVariables
3
ISM
90
0
280
0
281
0
0
ENDSEC
0
SECTION
2
TABLES
0
TABLE
2
VPORT
5
264
100
AcDbSymbolTable
0
VPORT
5
1
100
AcDbSymbolTableRecord
100
AcDbViewportTableRecord
2
*Active
70
0
10
0
20
0
11
1
21
1
12
-1
22
1
13
0
23
0
14
0.5
24
0.5
15
10
25
10
16
0
26
0
36
1
17
0
27
0
37
0
0
ENDTAB
0
TABLE
2
LTYPE
5
265
100
AcDbSymbolTable
0
LTYPE
5
14
100
AcDbSymbolTableRecord
100
AcDbLinetypeTableRecord
70
0
2
ByBlock
3

72
65
73
0
40
0
0
LTYPE
5
15
100
AcDbSymbolTableRecord
100
AcDbLinetypeTableRecord
70
0
2
ByLayer
3

72
65
73
0
40
0
0
LTYPE
5
16
100
AcDbSymbolTableRecord
100
AcDbLinetypeTableRecord
70
0
2
CONTINUOUS
3
Solid line
72
65
73
0
40
0
0
LTYPE
5
6A
100
AcDbSymbolTableRecord
100
AcDbLinetypeTableRecord
70
0
2
CENTER
3
____ _ ____ _ ____ _ ____
72
65
73
4
40
47.5
49
22
74
0
49
-8.5
74
0
49
8.5
74
0
49
-8.5
74
0
0
LTYPE
5
6B
100
AcDbSymbolTableRecord
100
AcDbLinetypeTableRecord
70
0
2
DASHED
3
__ __ __ __ __ __ __ __ __
72
65
73
2
40
25.72
49
12.86
74
0
49
-12.86
74
0
0
ENDTAB
0
TABLE
2
LAYER
5
266
100
AcDbSymbolTable
0
LAYER
5
10
100
AcDbSymbolTableRecord
100
AcDbLayerTableRecord
2
0
70
0
62
7
6
CONTINUOUS
290
1
370
-3
390
0
0
LAYER
5
6D
100
AcDbSymbolTableRecord
100
AcDbLayerTableRecord
2
81
70
0
62
-3
6
CONTINUOUS
290
1
370
-3
390
0
0
LAYER
5
6F
100
AcDbSymbolTableRecord
100
AcDbLayerTableRecord
2
80
70
0
62
-6
6
CONTINUOUS
290
1
370
-3
390
0
0
LAYER
5
71
100
AcDbSymbolTableRecord
100
AcDbLayerTableRecord
2
1
70
0
62
4
6
CONTINUOUS
290
1
370
-3
390
0
0
LAYER
5
DB
100
AcDbSymbolTableRecord
100
AcDbLayerTableRecord
2
4
70
0
62
-2
6
CENTER
290
1
370
-3
390
0
0
LAYER
5
1CF
100
AcDbSymbolTableRecord
100
AcDbLayerTableRecord
2
2
70
0
62
7
6
CONTINUOUS
290
1
370
-3
390
0
0
LAYER
5
250
100
AcDbSymbolTableRecord
100
AcDbLayerTableRecord
2
SK1
70
0
62
4
6
CONTINUOUS
290
1
370
-3
390
0
0
LAYER
5
251
100
AcDbSymbolTableRecord
100
AcDbLayerTableRecord
2
SK4
70
0
62
2
6
CENTER
290
1
370
-3
390
0
0
LAYER
5
252
100
AcDbSymbolTableRecord
100
AcDbLayerTableRecord
2
SK6
70
0
62
5
6
CONTINUOUS
290
1
370
-3
390
0
0
LAYER
5
253
100
AcDbSymbolTableRecord
100
AcDbLayerTableRecord
2
SK2
70
0
62
7
6
CONTINUOUS
290
1
370
-3
390
0
0
ENDTAB
0
TABLE
2
STYLE
5
267
100
AcDbSymbolTable
0
STYLE
5
11
100
AcDbSymbolTableRecord
100
AcDbTextStyleTableRecord
2
Standard
3
txt
70
0
71
0
40
0
41
1
42
0
50
0
0
STYLE
5
1B4
100
AcDbSymbolTableRecord
100
AcDbTextStyleTableRecord
2
iso_b_vert
3
simplex.shx
70
0
71
0
40
0
41
1
42
0
50
0
0
STYLE
5
1B5
100
AcDbSymbolTableRecord
100
AcDbTextStyleTableRecord
2
DWGDirectTextStyle
3
simplex
70
0
71
0
40
0
41
1
42
0
50
0
0
ENDTAB
0
TABLE
2
DIMSTYLE
5
268
100
AcDbSymbolTable
100
AcDbDimStyleTable
0
DIMSTYLE
105
27
100
AcDbSymbolTableRecord
100
AcDbDimStyleTableRecord
2
Standard
70
0
3
<>
41
0.18
42
0.0625
44
0.18
140
0.18
147
0.09
73
0
74
0
77
1
271
2
275
0
278
52
280
0
340
11
0
ENDTAB
0
TABLE
2
VIEW
5
269
100
AcDbSymbolTable
0
ENDTAB
0
TABLE
2
UCS
5
26a
100
AcDbSymbolTable
0
ENDTAB
0
TABLE
2
APPID
5
26b
100
AcDbSymbolTable
0
APPID
5
12
100
AcDbSymbolTableRecord
100
AcDbRegAppTableRecord
2
ACAD
70
0
0
ENDTAB
0
TABLE
2
BLOCK_RECORD
5
26c
100
AcDbSymbolTable
0
BLOCK_RECORD
5
1F
100
AcDbSymbolTableRecord
100
AcDbBlockTableRecord
2
*Model_Space
340
0
70
0
0
BLOCK_RECORD
5
1B
100
AcDbSymbolTableRecord
100
AcDbBlockTableRecord
2
*Paper_Space
340
0
70
0
0
BLOCK_RECORD
5
23
100
AcDbSymbolTableRecord
100
AcDbBlockTableRecord
2
*Paper_Space0
340
0
70
0
0
BLOCK_RECORD
5
1B7
100
AcDbSymbolTableRecord
100
AcDbBlockTableRecord
2
DimnDraft3D1
340
0
70
0
0
BLOCK_RECORD
5
1C6
100
AcDbSymbolTableRecord
100
AcDbBlockTableRecord
2
_CLOSED
340
0
70
0
0
BLOCK_RECORD
5
1CD
100
AcDbSymbolTableRecord
100
AcDbBlockTableRecord
2
DimnDraft3D2
340
0
70
0
0
BLOCK_RECORD
5
1DC
100
AcDbSymbolTableRecord
100
AcDbBlockTableRecord
2
DimnDraft3D3
340
0
70
0
0
BLOCK_RECORD
5
1EA
100
AcDbSymbolTableRecord
100
AcDbBlockTableRecord
2
DimnDraft3D4
340
0
70
0
0
ENDTAB
0
ENDSEC
0
SECTION
2
BLOCKS
0
BLOCK
5
20
100
AcDbEntity
8
0
100
AcDbBlockBegin
2
*Model_Space
70
0
10
0
20
0
30
0
3
*Model_Space
0
ENDBLK
5
21
100
AcDbEntity
8
0
100
AcDbBlockEnd
0
BLOCK
5
1C
100
AcDbEntity
8
0
100
AcDbBlockBegin
2
*Paper_Space
70
0
10
0
20
0
30
0
3
*Paper_Space
0
ENDBLK
5
1D
100
AcDbEntity
8
0
100
AcDbBlockEnd
0
BLOCK
5
24
100
AcDbEntity
8
0
100
AcDbBlockBegin
2
*Paper_Space0
70
0
10
0
20
0
30
0
3
*Paper_Space0
0
ENDBLK
5
25
100
AcDbEntity
8
0
100
AcDbBlockEnd
0
BLOCK
5
1C3
100
AcDbEntity
8
0
100
AcDbBlockBegin
2
DimnDraft3D1
70
0
10
0
20
0
30
0
3
DimnDraft3D1
0
MTEXT
5
1B8
100
AcDbEntity
8
SK2
62
256
6
ByLayer
370
18
48
1
60
0
100
AcDbMText
10
-63.789481
20
-5.194737
30
0
210
0
220
0
230
1
1
\W1.2949;%%c80
40
3.5
41
0
44
1.084337
50
90
71
7
72
5
7
iso_b_vert
0
LINE
5
1BA
100
AcDbEntity
8
SK2
62
256
6
ByLayer
370
13
48
1
60
0
100
AcDbLine
10
-2
20
-40
30
0
11
-64.039481
21
-40
31
0
39
0
210
0
220
0
230
1
0
LINE
5
1BB
100
AcDbEntity
8
SK2
62
256
6
ByLayer
370
13
48
1
60
0
100
AcDbLine
10
-2
20
40
30
0
11
-64.039481
21
40
31
0
39
0
210
0
220
0
230
1
0
LINE
5
1BC
100
AcDbEntity
8
SK2
62
256
6
ByLayer
370
13
48
1
60
0
100
AcDbLine
10
-62.039481
20
-40
30
0
11
-62.039481
21
40
31
0
39
0
210
0
220
0
230
1
0
LINE
5
1BD
100
AcDbEntity
8
SK2
62
256
6
ByLayer
370
13
48
1
60
0
100
AcDbLine
10
-62.039481
20
-40
30
0
11
-62.457478
21
-36.825002
31
0
39
0
210
0
220
0
230
1
0
LINE
5
1BE
100
AcDbEntity
8
SK2
62
256
6
ByLayer
370
13
48
1
60
0
100
AcDbLine
10
-62.039481
20
-40
30
0
11
-61.621484
21
-36.824998
31
0
39
0
210
0
220
0
230
1
0
LINE
5
1BF
100
AcDbEntity
8
SK2
62
256
6
ByLayer
370
13
48
1
60
0
100
AcDbLine
10
-62.457478
20
-36.825002
30
0
11
-61.621484
21
-36.824998
31
0
39
0
210
0
220
0
230
1
0
LINE
5
1C0
100
AcDbEntity
8
SK2
62
256
6
ByLayer
370
13
48
1
60
0
100
AcDbLine
10
-62.039481
20
40
30
0
11
-61.621484
21
36.825002
31
0
39
0
210
0
220
0
230
1
0
LINE
5
1C1
100
AcDbEntity
8
SK2
62
256
6
ByLayer
370
13
48
1
60
0
100
AcDbLine
10
-62.039481
20
40
30
0
11
-62.457478
21
36.824998
31
0
39
0
210
0
220
0
230
1
0
LINE
5
1C2
100
AcDbEntity
8
SK2
62
256
6
ByLayer
370
13
48
1
60
0
100
AcDbLine
10
-61.621484
20
36.825002
30
0
11
-62.457478
21
36.824998
31
0
39
0
210
0
220
0
230
1
0
ENDBLK
5
1C4
100
AcDbEntity
8
0
100
AcDbBlockEnd
0
BLOCK
5
1C7
100
AcDbEntity
8
0
100
AcDbBlockBegin
2
_CLOSED
70
0
10
0
20
0
30
0
3
_CLOSED
0
LINE
5
1C9
100
AcDbEntity
8
0
62
256
6
ByLayer
370
-2
48
1
60
0
100
AcDbLine
10
-1
20
0.166667
30
0
11
0
21
0
31
0
39
0
210
0
220
0
230
1
0
LINE
5
1CA
100
AcDbEntity
8
0
62
256
6
ByLayer
370
-2
48
1
60
0
100
AcDbLine
10
0
20
0
30
0
11
-1
21
-0.166667
31
0
39
0
210
0
220
0
230
1
0
LINE
5
1CB
100
AcDbEntity
8
0
62
256
6
ByLayer
370
-2
48
1
60
0
100
AcDbLine
10
-1
20
0.166667
30
0
11
-1
21
-0.166667
31
0
39
0
210
0
220
0
230
1
0
LINE
5
1CC
100
AcDbEntity
8
0
62
256
6
ByLayer
370
-2
48
1
60
0
100
AcDbLine
10
0
20
0
30
0
11
-1
21
0
31
0
39
0
210
0
220
0
230
1
0
ENDBLK
5
1C8
100
AcDbEntity
8
0
100
AcDbBlockEnd
0
BLOCK
5
1D9
100
AcDbEntity
8
0
100
AcDbBlockBegin
2
DimnDraft3D2
70
0
10
0
20
0
30
0
3
DimnDraft3D2
0
MTEXT
5
1CE
100
AcDbEntity
8
2
62
256
6
ByLayer
370
18
48
1
60
0
100
AcDbMText
10
97.718663
20
26.330263
30
0
210
0
220
0
230
1
1
\W0.6563;55
40
3.5
41
0
44
1.084337
50
90
71
7
72
5
7
iso_b_vert
0
LINE
5
1D0
100
AcDbEntity
8
2
62
256
6
ByLayer
370
13
48
1
60
0
100
AcDbLine
10
81.7441
20
0
30
0
11
100.593663
21
0
31
0
39
0
210
0
220
0
230
1
0
LINE
5
1D1
100
AcDbEntity
8
2
62
256
6
ByLayer
370
13
48
1
60
0
100
AcDbLine
10
82
20
55
30
0
11
100.593663
21
55
31
0
39
0
210
0
220
0
230
1
0
LINE
5
1D2
100
AcDbEntity
8
2
62
256
6
ByLayer
370
13
48
1
60
0
100
AcDbLine
10
98.593663
20
0
30
0
11
98.593663
21
55
31
0
39
0
210
0
220
0
230
1
0
LINE
5
1D3
100
AcDbEntity
8
2
62
256
6
ByLayer
370
13
48
1
60
0
100
AcDbLine
10
98.593663
20
0
30
0
11
98.175667
21
3.174998
31
0
39
0
210
0
220
0
230
1
0
LINE
5
1D4
100
AcDbEntity
8
2
62
256
6
ByLayer
370
13
48
1
60
0
100
AcDbLine
10
98.593663
20
0
30
0
11
99.01166
21
3.175002
31
0
39
0
210
0
220
0
230
1
0
LINE
5
1D5
100
AcDbEntity
8
2
62
256
6
ByLayer
370
13
48
1
60
0
100
AcDbLine
10
98.175667
20
3.174998
30
0
11
99.01166
21
3.175002
31
0
39
0
210
0
220
0
230
1
0
LINE
5
1D6
100
AcDbEntity
8
2
62
256
6
ByLayer
370
13
48
1
60
0
100
AcDbLine
10
98.593663
20
55
30
0
11
99.01166
21
51.825002
31
0
39
0
210
0
220
0
230
1
0
LINE
5
1D7
100
AcDbEntity
8
2
62
256
6
ByLayer
370
13
48
1
60
0
100
AcDbLine
10
98.593663
20
55
30
0
11
98.175667
21
51.824998
31
0
39
0
210
0
220
0
230
1
0
LINE
5
1D8
100
AcDbEntity
8
2
62
256
6
ByLayer
370
13
48
1
60
0
100
AcDbLine
10
99.01166
20
51.825002
30
0
11
98.175667
21
51.824998
31
0
39
0
210
0
220
0
230
1
0
ENDBLK
5
1DA
100
AcDbEntity
8
0
100
AcDbBlockEnd
0
BLOCK
5
1E7
100
AcDbEntity
8
0
100
AcDbBlockBegin
2
DimnDraft3D3
70
0
10
0
20
0
30
0
3
DimnDraft3D3
0
MTEXT
5
1DD
100
AcDbEntity
8
2
62
256
6
ByLayer
370
18
48
1
60
0
100
AcDbMText
10
38.830263
20
81.929623
30
0
210
0
220
0
230
1
1
\W0.6563;80
40
3.5
41
0
44
1.084337
50
0
71
7
72
5
7
iso_b_vert
0
LINE
5
1DE
100
AcDbEntity
8
2
62
256
6
ByLayer
370
13
48
1
60
0
100
AcDbLine
10
80
20
57
30
0
11
80
21
83.054623
31
0
39
0
210
0
220
0
230
1
0
LINE
5
1DF
100
AcDbEntity
8
2
62
256
6
ByLayer
370
13
48
1
60
0
100
AcDbLine
10
0
20
42
30
0
11
0
21
83.054623
31
0
39
0
210
0
220
0
230
1
0
LINE
5
1E0
100
AcDbEntity
8
2
62
256
6
ByLayer
370
13
48
1
60
0
100
AcDbLine
10
80
20
81.054623
30
0
11
0
21
81.054623
31
0
39
0
210
0
220
0
230
1
0
LINE
5
1E1
100
AcDbEntity
8
2
62
256
6
ByLayer
370
13
48
1
60
0
100
AcDbLine
10
80
20
81.054623
30
0
11
76.825002
21
80.636627
31
0
39
0
210
0
220
0
230
1
0
LINE
5
1E2
100
AcDbEntity
8
2
62
256
6
ByLayer
370
13
48
1
60
0
100
AcDbLine
10
80
20
81.054623
30
0
11
76.824998
21
81.47262
31
0
39
0
210
0
220
0
230
1
0
LINE
5
1E3
100
AcDbEntity
8
2
62
256
6
ByLayer
370
13
48
1
60
0
100
AcDbLine
10
76.825002
20
80.636627
30
0
11
76.824998
21
81.47262
31
0
39
0
210
0
220
0
230
1
0
LINE
5
1E4
100
AcDbEntity
8
2
62
256
6
ByLayer
370
13
48
1
60
0
100
AcDbLine
10
0
20
81.054623
30
0
11
3.174998
21
81.47262
31
0
39
0
210
0
220
0
230
1
0
LINE
5
1E5
100
AcDbEntity
8
2
62
256
6
ByLayer
370
13
48
1
60
0
100
AcDbLine
10
0
20
81.054623
30
0
11
3.175002
21
80.636627
31
0
39
0
210
0
220
0
230
1
0
LINE
5
1E6
100
AcDbEntity
8
2
62
256
6
ByLayer
370
13
48
1
60
0
100
AcDbLine
10
3.174998
20
81.47262
30
0
11
3.175002
21
80.636627
31
0
39
0
210
0
220
0
230
1
0
ENDBLK
5
1E8
100
AcDbEntity
8
0
100
AcDbBlockEnd
0
BLOCK
5
1F4
100
AcDbEntity
8
0
100
AcDbBlockBegin
2
DimnDraft3D4
70
0
10
0
20
0
30
0
3
DimnDraft3D4
0
MTEXT
5
1EB
100
AcDbEntity
8
2
62
256
6
ByLayer
370
18
48
1
60
0
100
AcDbMText
10
65.629782
20
61.030824
30
0
210
0
220
0
230
1
1
\W0.7959;94%%d41'
40
3.5
41
0
44
1.084337
50
47.3457231613513
71
7
72
5
7
iso_b_vert
0
LINE
5
1EC
100
AcDbEntity
8
2
62
256
6
ByLayer
370
13
48
1
60
0
100
AcDbLine
10
80
20
57
30
0
11
80
21
70.812937
31
0
39
0
210
0
220
0
230
1
0
ARC
5
1ED
100
AcDbEntity
8
2
62
256
6
ByLayer
370
13
48
1
60
0
100
AcDbCircle
39
0
10
80
20
55.102217
30
0
40
13.7107196466952
210
0
220
0
230
1
100
AcDbArc
50
90
51
184.691446
0
LINE
5
1EE
100
AcDbEntity
8
2
62
256
6
ByLayer
370
13
48
1
60
0
100
AcDbLine
10
80
20
68.812937
30
0
11
76.854352
21
68.212741
31
0
39
0
210
0
220
0
230
1
0
LINE
5
1EF
100
AcDbEntity
8
2
62
256
6
ByLayer
370
13
48
1
60
0
100
AcDbLine
10
80
20
68.812937
30
0
11
76.806192
21
69.047346
31
0
39
0
210
0
220
0
230
1
0
LINE
5
1F0
100
AcDbEntity
8
2
62
256
6
ByLayer
370
13
48
1
60
0
100
AcDbLine
10
76.854352
20
68.212741
30
0
11
76.806192
21
69.047346
31
0
39
0
210
0
220
0
230
1
0
LINE
5
1F1
100
AcDbEntity
8
2
62
256
6
ByLayer
370
13
48
1
60
0
100
AcDbLine
10
66.335217
20
53.980821
30
0
11
65.840372
21
57.144753
31
0
39
0
210
0
220
0
230
1
0
LINE
5
1F2
100
AcDbEntity
8
2
62
256
6
ByLayer
370
13
48
1
60
0
100
AcDbLine
10
66.335217
20
53.980821
30
0
11
66.67612
21
57.165023
31
0
39
0
210
0
220
0
230
1
0
LINE
5
1F3
100
AcDbEntity
8
2
62
256
6
ByLayer
370
13
48
1
60
0
100
AcDbLine
10
65.840372
20
57.144753
30
0
11
66.67612
21
57.165023
31
0
39
0
210
0
220
0
230
1
0
ENDBLK
5
1F5
100
AcDbEntity
8
0
100
AcDbBlockEnd
0
ENDSEC
0
SECTION
2
ENTITIES
0
ELLIPSE
5
E0
100
AcDbEntity
8
1
62
256
6
ByLayer
370
18
48
1
60
0
100
AcDbEllipse
10
58.109533
20
35.901978
30
0
11
-0.318198051528042
21
0.318198051528042
31
0
210
0
220
0
230
1
40
0.989133
41
3.14159265358979
42
-2.42314011517072
0
ELLIPSE
5
E1
100
AcDbEntity
8
1
62
256
6
ByLayer
370
18
48
1
60
0
100
AcDbEllipse
10
52.342206
20
36.900953
30
0
11
-4.49946397804584
21
-3.16304029939382
31
0
210
0
220
0
230
1
40
0.02553
41
-1.21993674085792
42
-0.814517568977665
0
ELLIPSE
5
E2
100
AcDbEntity
8
1
62
256
6
ByLayer
370
18
48
1
60
0
100
AcDbEllipse
10
56.113975
20
37.216456
30
0
11
-0.353553390601812
21
0.353553390601812
31
0
210
0
220
0
230
1
40
0.989133
41
3.12127181598093
42
-2.64795183917906
0
ELLIPSE
5
E3
100
AcDbEntity
8
1
62
256
6
ByLayer
370
18
48
1
60
0
100
AcDbEllipse
10
57.832432
20
37.228236
30
0
11
-3.53553390839684
21
3.53553390839685
31
0
210
0
220
0
230
1
40
0.989133
41
2.96705972845372
42
3.14159265358979
0
ELLIPSE
5
E4
100
AcDbEntity
8
1
62
256
6
ByLayer
370
18
48
1
60
0
100
AcDbEllipse
10
59.619367
20
37.308493
30
0
11
-0.35355339058608
21
0.35355339058608
31
0
210
0
220
0
230
1
40
0.989133
41
-0.0203208376103141
42
0.613653576948183
0
ELLIPSE
5
E5
100
AcDbEntity
8
1
62
256
6
ByLayer
370
18
48
1
60
0
100
AcDbEllipse
10
57.702932
20
37.098735
30
0
11
-0.989949493661169
21
0.989949493661169
31
0
210
0
220
0
230
1
40
0.989133
41
-2.95198434248808
42
0
0
ELLIPSE
5
E6
100
AcDbEntity
8
1
62
256
6
ByLayer
370
18
48
1
60
0
100
AcDbEllipse
10
58.753121
20
39.057029
30
0
11
-0.353553390591437
21
0.353553390591437
31
0
210
0
220
0
230
1
40
0.989133
41
1.02687671358396
42
1.54083836561357
0
ELLIPSE
5
E7
100
AcDbEntity
8
1
62
256
6
ByLayer
370
18
48
1
60
0
100
AcDbEllipse
10
57.760111
20
37.155914
30
0
11
-0.98994949368286
21
0.98994949368286
31
0
210
0
220
0
230
1
40
0.989133
41
0
42
0.489116391096379
0
ELLIPSE
5
E8
100
AcDbEntity
8
1
62
256
6
ByLayer
370
18
48
1
60
0
100
AcDbEllipse
10
57.760111
20
37.155914
30
0
11
-0.989949493647455
21
0.989949493647456
31
0
210
0
220
0
230
1
40
0.989133
41
2.29109796136684
42
2.87545856921859
0
ELLIPSE
5
E9
100
AcDbEntity
8
1
62
256
6
ByLayer
370
18
48
1
60
0
100
AcDbEllipse
10
26.620897
20
34.073549
30
0
11
-0.868211998964779
21
2.021437093964
31
0
210
0
220
0
230
1
40
0.16715
41
-2.97123420899912
42
-0.170358444590676
0
ELLIPSE
5
EA
100
AcDbEntity
8
1
62
256
6
ByLayer
370
18
48
1
60
0
100
AcDbEllipse
10
59.310678
20
36.739671
30
0
11
-0.318198051534117
21
0.318198051534117
31
0
210
0
220
0
230
1
40
0.989133
41
2.07407426478369
42
3.14159265358979
0
ELLIPSE
5
EB
100
AcDbEntity
8
1
62
256
6
ByLayer
370
18
48
1
60
0
100
AcDbEllipse
10
56.614847
20
36.327909
30
0
11
-3.57369688963459
21
3.70825987035634
31
0
210
0
220
0
230
1
40
0.986455
41
-0.156280229132661
42
-0.0604910238356976
0
ELLIPSE
5
EC
100
AcDbEntity
8
1
62
256
6
ByLayer
370
18
48
1
60
0
100
AcDbEllipse
10
57.96873
20
37.364534
30
0
11
-0.989949529469943
21
0.989949460024824
31
0
210
0
220
0
230
1
40
0.989133
41
0.781063431816071
42
0.964265750024124
0
ELLIPSE
5
ED
100
AcDbEntity
8
1
62
256
6
ByLayer
370
18
48
1
60
0
100
AcDbEllipse
10
56.113975
20
37.216456
30
0
11
-0.353553390581666
21
0.353553390581666
31
0
210
0
220
0
230
1
40
0.989133
41
-1.88990421601864
42
-1.37594256397459
0
ELLIPSE
5
EE
100
AcDbEntity
8
1
62
256
6
ByLayer
370
18
48
1
60
0
100
AcDbEllipse
10
55.791671
20
31.994047
30
0
11
-4.49946397956136
21
-3.16304030041858
31
0
210
0
220
0
230
1
40
0.02553
41
-1.21993674068957
42
-0.814517568916987
0
ELLIPSE
5
EF
100
AcDbEntity
8
1
62
256
6
ByLayer
370
18
48
1
60
0
100
AcDbEllipse
10
57.973232
20
37.369036
30
0
11
-1.00762716333462
21
1.00762716333462
31
0
210
0
220
0
230
1
40
0.989133
41
0.74246772177958
42
1.00286153025432
0
ELLIPSE
5
F0
100
AcDbEntity
8
1
62
256
6
ByLayer
370
18
48
1
60
0
100
AcDbEllipse
10
57.96873
20
37.364534
30
0
11
-0.989949493057506
21
0.989949493057506
31
0
210
0
220
0
230
1
40
0.989133
41
2.87545856913615
42
3.05866088754505
0
ELLIPSE
5
F1
100
AcDbEntity
8
1
62
256
6
ByLayer
370
18
48
1
60
0
100
AcDbEllipse
10
57.96873
20
37.364534
30
0
11
-0.989949493845936
21
0.989949493845936
31
0
210
0
220
0
230
1
40
0.989133
41
1.82826101799313
42
2.01146333630677
0
ELLIPSE
5
F2
100
AcDbEntity
8
1
62
256
6
ByLayer
370
18
48
1
60
0
100
AcDbEllipse
10
59.097557
20
36.52655
30
0
11
-0.318198051533859
21
0.318198051533859
31
0
210
0
220
0
230
1
40
0.989133
41
-2.79832772903731
42
-1.37594256398099
0
ELLIPSE
5
F3
100
AcDbEntity
8
1
62
256
6
ByLayer
370
18
48
1
60
0
100
AcDbEllipse
10
56.422665
20
37.785279
30
0
11
-0.318198051534272
21
0.318198051534272
31
0
210
0
220
0
230
1
40
0.989133
41
-1.06751838880605
42
-0.359213893302262
0
ELLIPSE
5
F4
100
AcDbEntity
8
1
62
256
6
ByLayer
370
18
48
1
60
0
100
AcDbEllipse
10
57.96873
20
37.364534
30
0
11
-0.989949506438928
21
0.989949479859534
31
0
210
0
220
0
230
1
40
0.989133
41
-1.31333164903277
42
-1.13012933059708
0
ELLIPSE
5
F5
100
AcDbEntity
8
1
62
256
6
ByLayer
370
18
48
1
60
0
100
AcDbEllipse
10
56.680743
20
38.691328
30
0
11
-0.353553390586101
21
0.353553390586101
31
0
210
0
220
0
230
1
40
0.989133
41
2.07407426477672
42
2.70804867934049
0
ELLIPSE
5
F6
100
AcDbEntity
8
1
62
256
6
ByLayer
370
18
48
1
60
0
100
AcDbEllipse
10
57.973232
20
37.369036
30
0
11
-1.00762716308969
21
1.00762716308969
31
0
210
0
220
0
230
1
40
0.989133
41
-0.304729829470321
42
-0.0443360209406984
0
ELLIPSE
5
F7
100
AcDbEntity
8
1
62
256
6
ByLayer
370
18
48
1
60
0
100
AcDbEllipse
10
65.247055
20
52.701935
30
0
11
-0.84216417639253
21
0.84216417639253
31
0
210
0
220
0
230
1
40
0.989133
41
-0.698131700795748
42
0
0
ELLIPSE
5
F8
100
AcDbEntity
8
1
62
256
6
ByLayer
370
18
48
1
60
0
100
AcDbEllipse
10
57.760111
20
37.155914
30
0
11
-0.989949493651852
21
0.989949493651852
31
0
210
0
220
0
230
1
40
0.989133
41
1.0628884240976
42
1.66485908048239
0
ELLIPSE
5
F9
100
AcDbEntity
8
1
62
256
6
ByLayer
370
18
48
1
60
0
100
AcDbEllipse
10
66.478416
20
36.966404
30
0
11
-2.36914480391377
21
2.36914480391377
31
0
210
0
220
0
230
1
40
0.989133
41
2.62753109184572
42
-3.06322861112632
0
ELLIPSE
5
FA
100
AcDbEntity
8
1
62
256
6
ByLayer
370
18
48
1
60
0
100
AcDbEllipse
10
57.973232
20
37.369036
30
0
11
-1.00762718093586
21
1.00762714651744
31
0
210
0
220
0
230
1
40
0.989133
41
-2.39912494887832
42
-2.13873114046108
0
ELLIPSE
5
FB
100
AcDbEntity
8
1
62
256
6
ByLayer
370
18
48
1
60
0
100
AcDbEllipse
10
66.478416
20
36.966404
30
0
11
-2.36914480389771
21
2.36914480389771
31
0
210
0
220
0
230
1
40
0.989133
41
-3.06322861112658
42
-2.44346095278721
0
ELLIPSE
5
FC
100
AcDbEntity
8
1
62
256
6
ByLayer
370
18
48
1
60
0
100
AcDbEllipse
10
65.158103
20
35.646091
30
0
11
-2.47363954423533
21
2.47363954423533
31
0
210
0
220
0
230
1
40
0.989133
41
-2.78714155123332
42
-2.47973047828047
0
ELLIPSE
5
FD
100
AcDbEntity
8
1
62
256
6
ByLayer
370
18
48
1
60
0
100
AcDbEllipse
10
78.815419
20
53.815419
30
0
11
-0.842164176393072
21
0.842164176393073
31
0
210
0
220
0
230
1
40
0.989133
41
-2.44346095278989
42
-0.698131700795255
0
ELLIPSE
5
FE
100
AcDbEntity
8
1
62
256
6
ByLayer
370
18
48
1
60
0
100
AcDbEllipse
10
58.753121
20
39.057029
30
0
11
-0.353553390578888
21
0.353553390578888
31
0
210
0
220
0
230
1
40
0.989133
41
2.29888598876442
42
2.81284764080748
0
ELLIPSE
5
FF
100
AcDbEntity
8
1
62
256
6
ByLayer
370
18
48
1
60
0
100
AcDbEllipse
10
12
20
30.743242
30
0
11
-2.00000000000003
21
2.02127811016476E-15
31
0
210
0
220
0
230
1
40
0.5
41
-2.65815742282283
42
-0.483435230767445
0
ELLIPSE
5
100
100
AcDbEntity
8
1
62
256
6
ByLayer
370
18
48
1
60
0
100
AcDbEllipse
10
56.772087
20
36.531342
30
0
11
-0.318198051533941
21
0.318198051533941
31
0
210
0
220
0
230
1
40
0.989133
41
-0.0203208376098644
42
2.81284764080537
0
ELLIPSE
5
101
100
AcDbEntity
8
1
62
256
6
ByLayer
370
18
48
1
60
0
100
AcDbEllipse
10
57.973232
20
37.369036
30
0
11
-1.00762715613634
21
1.00762717080431
31
0
210
0
220
0
230
1
40
0.989133
41
-1.35192737334174
42
-1.09153356489133
0
ELLIPSE
5
102
100
AcDbEntity
8
1
62
256
6
ByLayer
370
18
48
1
60
0
100
AcDbEllipse
10
59.310678
20
36.739671
30
0
11
-0.318198051534022
21
0.318198051534022
31
0
210
0
220
0
230
1
40
0.989133
41
3.14159265358979
42
-1.37594256398125
0
ELLIPSE
5
103
100
AcDbEntity
8
1
62
256
6
ByLayer
370
18
48
1
60
0
100
AcDbEllipse
10
58.387973
20
37.563306
30
0
11
-3.57369703919132
21
3.7082596284612
31
0
210
0
220
0
230
1
40
0.986455
41
3.13124736220583
42
-0.156280282980954
0
ELLIPSE
5
104
100
AcDbEntity
8
1
62
256
6
ByLayer
370
18
48
1
60
0
100
AcDbEllipse
10
58.839478
20
35.6205
30
0
11
-0.353553390592113
21
0.353553390592113
31
0
210
0
220
0
230
1
40
0.989133
41
0.0844781238606454
42
0.718452538413292
0
ELLIPSE
5
105
100
AcDbEntity
8
1
62
256
6
ByLayer
370
18
48
1
60
0
100
AcDbEllipse
10
48.699647
20
38.123385
30
0
11
-2.08176534199485
21
2.16015111684368
31
0
210
0
220
0
230
1
40
0.986455
41
2.98531232350839
42
3.08110153003468
0
ELLIPSE
5
106
100
AcDbEntity
8
1
62
256
6
ByLayer
370
18
48
1
60
0
100
AcDbEllipse
10
56.893865
20
38.904449
30
0
11
-0.353553390590984
21
0.353553390590984
31
0
210
0
220
0
230
1
40
0.989133
41
2.0740742647822
42
2.5880359168125
0
ELLIPSE
5
107
100
AcDbEntity
8
1
62
256
6
ByLayer
370
18
48
1
60
0
100
AcDbEllipse
10
57.973232
20
37.369036
30
0
11
-1.76776695296637
21
1.76776695296637
31
0
210
0
220
0
230
1
40
0.989133
41
0
42
6.28318530717959
0
ELLIPSE
5
108
100
AcDbEntity
8
1
62
256
6
ByLayer
370
18
48
1
60
0
100
AcDbEllipse
10
12
20
30.743242
30
0
11
-1.65000000000002
21
1.66755444088592E-15
31
0
210
0
220
0
230
1
40
0.5
41
-2.85835046320307
42
-0.276856489887167
0
ELLIPSE
5
109
100
AcDbEntity
8
1
62
256
6
ByLayer
370
18
48
1
60
0
100
AcDbEllipse
10
57.193343
20
35.681042
30
0
11
-0.353553390589418
21
0.353553390589418
31
0
210
0
220
0
230
1
40
0.989133
41
-2.11471594000872
42
-1.60075428797597
0
ELLIPSE
5
10A
100
AcDbEntity
8
1
62
256
6
ByLayer
370
18
48
1
60
0
100
AcDbEllipse
10
57.96873
20
37.364534
30
0
11
-0.989949494269019
21
0.989949494269019
31
0
210
0
220
0
230
1
40
0.989133
41
-0.266134084291305
42
-0.0829317659990739
0
ELLIPSE
5
10B
100
AcDbEntity
8
1
62
256
6
ByLayer
370
18
48
1
60
0
100
AcDbEllipse
10
57.96873
20
37.364534
30
0
11
-0.989949527816844
21
0.989949461568893
31
0
210
0
220
0
230
1
40
0.989133
41
-2.36052922015209
42
-2.17732690193812
0
ELLIPSE
5
10C
100
AcDbEntity
8
1
62
256
6
ByLayer
370
18
48
1
60
0
100
AcDbEllipse
10
59.832489
20
37.521615
30
0
11
-0.35355339059025
21
0.35355339059025
31
0
210
0
220
0
230
1
40
0.989133
41
-0.020320837609744
42
0.493640814419085
0
ELLIPSE
5
10D
100
AcDbEntity
8
1
62
256
6
ByLayer
370
18
48
1
60
0
100
AcDbEllipse
10
57.836932
20
38.836094
30
0
11
-0.318198051528853
21
0.318198051528853
31
0
210
0
220
0
230
1
40
0.989133
41
0
42
0.718452538418095
0
ELLIPSE
5
10E
100
AcDbEntity
8
1
62
256
6
ByLayer
370
18
48
1
60
0
100
AcDbEllipse
10
57.193343
20
35.681042
30
0
11
-0.353553390601604
21
0.353553390601604
31
0
210
0
220
0
230
1
40
0.989133
41
-0.84270666480298
42
-0.328745012785601
0
ELLIPSE
5
10F
100
AcDbEntity
8
1
62
256
6
ByLayer
370
18
48
1
60
0
100
AcDbEllipse
10
57.760111
20
37.155914
30
0
11
-0.989949493659704
21
0.989949493659705
31
0
210
0
220
0
230
1
40
0.989133
41
-2.17732686841617
42
-1.31333163556843
0
ELLIPSE
5
110
100
AcDbEntity
8
1
62
256
6
ByLayer
370
18
48
1
60
0
100
AcDbEllipse
10
65.142509
20
35.630496
30
0
11
-2.3675735269836
21
2.3675735269836
31
0
210
0
220
0
230
1
40
0.989133
41
-2.86061742395711
42
-2.57114761205886
0
ELLIPSE
5
111
100
AcDbEntity
8
1
62
256
6
ByLayer
370
18
48
1
60
0
100
AcDbEllipse
10
59.619367
20
37.308493
30
0
11
-0.353553390594428
21
0.353553390594428
31
0
210
0
220
0
230
1
40
0.989133
41
1.13167567505877
42
1.76565008960804
0
ELLIPSE
5
112
100
AcDbEntity
8
1
62
256
6
ByLayer
370
18
48
1
60
0
100
AcDbEllipse
10
71.474495
20
46.474495
30
0
11
-2.24506403026728
21
2.24506403026728
31
0
210
0
220
0
230
1
40
0.989133
41
-3.04159347654611
42
-0.451049295709723
0
ELLIPSE
5
113
100
AcDbEntity
8
1
62
256
6
ByLayer
370
18
48
1
60
0
100
AcDbEllipse
10
57.973232
20
37.369036
30
0
11
-1.00762716337776
21
1.00762716337776
31
0
210
0
220
0
230
1
40
0.989133
41
2.83686282416327
42
3.09725663265379
0
ELLIPSE
5
114
100
AcDbEntity
8
1
62
256
6
ByLayer
370
18
48
1
60
0
100
AcDbEllipse
10
58.54
20
38.843907
30
0
11
-0.353553390599891
21
0.353553390599891
31
0
210
0
220
0
230
1
40
0.989133
41
1.02687671359756
42
1.66085112813626
0
ELLIPSE
5
115
100
AcDbEntity
8
1
62
256
6
ByLayer
370
18
48
1
60
0
100
AcDbEllipse
10
57.760111
20
37.155914
30
0
11
-0.989949493661595
21
0.989949493661595
31
0
210
0
220
0
230
1
40
0.989133
41
-1.13012931721852
42
-0.2661340843726
0
ELLIPSE
5
116
100
AcDbEntity
8
1
62
256
6
ByLayer
370
18
48
1
60
0
100
AcDbEllipse
10
57.760111
20
37.155914
30
0
11
-0.989949493658762
21
0.989949493658762
31
0
210
0
220
0
230
1
40
0.989133
41
-2.96340116058253
42
-2.36052918676456
0
ELLIPSE
5
117
100
AcDbEntity
8
1
62
256
6
ByLayer
370
18
48
1
60
0
100
AcDbEllipse
10
56.635786
20
37.9984
30
0
11
-0.318198051536183
21
0.318198051536183
31
0
210
0
220
0
230
1
40
0.989133
41
-1.06751838880243
42
0
0
ELLIPSE
5
118
100
AcDbEntity
8
1
62
256
6
ByLayer
370
18
48
1
60
0
100
AcDbEllipse
10
57.62381
20
38.622972
30
0
11
-0.318198051534037
21
0.318198051534037
31
0
210
0
220
0
230
1
40
0.989133
41
-2.11471594000278
42
-0.360663445905102
0
ELLIPSE
5
119
100
AcDbEntity
8
1
62
256
6
ByLayer
370
18
48
1
60
0
100
AcDbEllipse
10
65.247055
20
52.701935
30
0
11
-0.84216417639352
21
0.84216417639352
31
0
210
0
220
0
230
1
40
0.989133
41
0
42
0.698131700799858
0
ELLIPSE
5
11A
100
AcDbEntity
8
1
62
256
6
ByLayer
370
18
48
1
60
0
100
AcDbEllipse
10
58.109533
20
35.901978
30
0
11
-0.318198051533964
21
0.318198051533964
31
0
210
0
220
0
230
1
40
0.989133
41
1.02687671358688
42
3.14159265358979
0
ELLIPSE
5
11B
100
AcDbEntity
8
1
62
256
6
ByLayer
370
18
48
1
60
0
100
AcDbEllipse
10
59.832489
20
37.521615
30
0
11
-0.353553390594443
21
0.353553390594443
31
0
210
0
220
0
230
1
40
0.989133
41
1.25168843758309
42
1.76565008960802
0
ELLIPSE
5
11C
100
AcDbEntity
8
1
62
256
6
ByLayer
370
18
48
1
60
0
100
AcDbEllipse
10
58.54
20
38.843907
30
0
11
-0.353553390592228
21
0.353553390592228
31
0
210
0
220
0
230
1
40
0.989133
41
2.17887322625283
42
2.81284764080608
0
ELLIPSE
5
11D
100
AcDbEntity
8
1
62
256
6
ByLayer
370
18
48
1
60
0
100
AcDbEllipse
10
26.620897
20
34.073549
30
0
11
-0.868211998177872
21
2.02143709205617
31
0
210
0
220
0
230
1
40
0.16715
41
-0.170358444673017
42
0
0
ELLIPSE
5
11E
100
AcDbEntity
8
1
62
256
6
ByLayer
370
18
48
1
60
0
100
AcDbEllipse
10
57.832432
20
37.228236
30
0
11
-3.53553390593273
21
3.53553390593273
31
0
210
0
220
0
230
1
40
0.989133
41
0
42
2.96705972839268
0
ELLIPSE
5
11F
100
AcDbEntity
8
1
62
256
6
ByLayer
370
18
48
1
60
0
100
AcDbEllipse
10
57.836932
20
38.836094
30
0
11
-0.318198051533952
21
0.318198051533952
31
0
210
0
220
0
230
1
40
0.989133
41
-2.11471594000294
42
0
0
ELLIPSE
5
120
100
AcDbEntity
8
1
62
256
6
ByLayer
370
18
48
1
60
0
100
AcDbEllipse
10
57.832432
20
37.228236
30
0
11
-3.53553390593274
21
3.53553390593274
31
0
210
0
220
0
230
1
40
0.989133
41
3.14159265358979
42
0
0
ELLIPSE
5
121
100
AcDbEntity
8
1
62
256
6
ByLayer
370
18
48
1
60
0
100
AcDbEllipse
10
59.0526
20
35.833622
30
0
11
-0.353553390588097
21
0.353553390588098
31
0
210
0
220
0
230
1
40
0.989133
41
-1.06751838880975
42
-0.553556736775392
0
ELLIPSE
5
122
100
AcDbEntity
8
1
62
256
6
ByLayer
370
18
48
1
60
0
100
AcDbEllipse
10
26.847374
20
34.170822
30
0
11
-0.769551544536958
21
1.79172833328625
31
0
210
0
220
0
230
1
40
0.16715
41
-2.97123420899912
42
-0.170358444590669
0
ELLIPSE
5
123
100
AcDbEntity
8
1
62
256
6
ByLayer
370
18
48
1
60
0
100
AcDbEllipse
10
77.701935
20
40.247055
30
0
11
-0.842164176385056
21
0.842164176385056
31
0
210
0
220
0
230
1
40
0.989133
41
3.14159265358979
42
-2.44346095278626
0
ELLIPSE
5
124
100
AcDbEntity
8
1
62
256
6
ByLayer
370
18
48
1
60
0
100
AcDbEllipse
10
58.961256
20
37.993608
30
0
11
-0.318198051533947
21
0.318198051533947
31
0
210
0
220
0
230
1
40
0.989133
41
3.12127181598006
42
-0.328745012784501
0
ELLIPSE
5
125
100
AcDbEntity
8
1
62
256
6
ByLayer
370
18
48
1
60
0
100
AcDbEllipse
10
56.635786
20
37.9984
30
0
11
-0.318198051533975
21
0.318198051533975
31
0
210
0
220
0
230
1
40
0.989133
41
0
42
1.76565008960857
0
ELLIPSE
5
126
100
AcDbEntity
8
1
62
256
6
ByLayer
370
18
48
1
60
0
100
AcDbEllipse
10
59.0526
20
35.833622
30
0
11
-0.353553390576723
21
0.353553390576723
31
0
210
0
220
0
230
1
40
0.989133
41
0.204490886385369
42
0.718452538428085
0
ELLIPSE
5
127
100
AcDbEntity
8
1
62
256
6
ByLayer
370
18
48
1
60
0
100
AcDbEllipse
10
59.174377
20
38.206729
30
0
11
-0.318198051533949
21
0.318198051533949
31
0
210
0
220
0
230
1
40
0.989133
41
3.12127181598006
42
-0.328745012784481
0
ELLIPSE
5
128
100
AcDbEntity
8
1
62
256
6
ByLayer
370
18
48
1
60
0
100
AcDbEllipse
10
56.893865
20
38.904449
30
0
11
-0.353553390585155
21
0.353553390585155
31
0
210
0
220
0
230
1
40
0.989133
41
-2.93710176720484
42
-2.42314011517002
0
ELLIPSE
5
129
100
AcDbEntity
8
1
62
256
6
ByLayer
370
18
48
1
60
0
100
AcDbEllipse
10
57.973232
20
37.369036
30
0
11
-1.00762716302488
21
1.00762716302488
31
0
210
0
220
0
230
1
40
0.989133
41
1.78966527295825
42
2.05005908152095
0
ELLIPSE
5
12A
100
AcDbEntity
8
1
62
256
6
ByLayer
370
18
48
1
60
0
100
AcDbEllipse
10
136.355253
20
0.032628
30
0
11
-382.501536796776
21
4.21603153341252
31
0
210
0
220
0
230
1
40
0.103906
41
-1.290391076284
42
-1.28815802575717
0
ELLIPSE
5
12B
100
AcDbEntity
8
1
62
256
6
ByLayer
370
18
48
1
60
0
100
AcDbEllipse
10
12
20
29.138703
30
0
11
-1.88914494152335
21
-3.41434906407381
31
0
210
0
220
0
230
1
40
0.192308
41
2.80708624052107
42
-2.97073855637779
0
ELLIPSE
5
12C
100
AcDbEntity
8
1
62
256
6
ByLayer
370
18
48
1
60
0
100
AcDbEllipse
10
30.763884
20
0
30
0
11
-18.7348357595625
21
39.4834983054986
31
0
210
0
220
0
230
1
40
0.341999
41
0.147307203811562
42
1.10173856858672
0
ELLIPSE
5
12D
100
AcDbEntity
8
1
62
256
6
ByLayer
370
18
48
1
60
0
100
AcDbEllipse
10
50.828615
20
38.904093
30
0
11
-4.63714380004257
21
-0.107271033124144
31
0
210
0
220
0
230
1
40
0.533782
41
-0.581107204639931
42
0.440551877963086
0
ELLIPSE
5
12E
100
AcDbEntity
8
1
62
256
6
ByLayer
370
18
48
1
60
0
100
AcDbEllipse
10
29.200495
20
0
30
0
11
-17.6446901784189
21
39.9063152961992
31
0
210
0
220
0
230
1
40
0.155064
41
-0.686324866491812
42
-0.35255148485708
0
ELLIPSE
5
12F
100
AcDbEntity
8
1
62
256
6
ByLayer
370
18
48
1
60
0
100
AcDbEllipse
10
54.486046
20
27.97638
30
0
11
-3.08205525309365
21
1.66308325896524
31
0
210
0
220
0
230
1
40
0.99535
41
1.10568333557471
42
2.27791816628677
0
ELLIPSE
5
130
100
AcDbEntity
8
1
62
256
6
ByLayer
370
18
48
1
60
0
100
AcDbEllipse
10
28.938086
20
-5E-06
30
0
11
-0.441818396738771
21
-39.9999785733356
31
0
210
0
220
0
230
1
40
0.103943
41
2.9413828422476
42
2.9658577558075
0
ELLIPSE
5
131
100
AcDbEntity
8
1
62
256
6
ByLayer
370
18
48
1
60
0
100
AcDbEllipse
10
12
20
31.856303
30
0
11
-2.00000000000005
21
2.02127811016478E-15
31
0
210
0
220
0
230
1
40
0.732051
41
-2.63623214330559
42
-0.505360510284205
0
ELLIPSE
5
132
100
AcDbEntity
8
1
62
256
6
ByLayer
370
18
48
1
60
0
100
AcDbEllipse
10
54.845025
20
22.693944
30
0
11
-4.60348651607265
21
-3.18394601548873
31
0
210
0
220
0
230
1
40
0.714389
41
1.87088665057303
42
-3.13614006881312
0
ELLIPSE
5
133
100
AcDbEntity
8
1
62
256
6
ByLayer
370
18
48
1
60
0
100
AcDbEllipse
10
12
20
31.856303
30
0
11
-2.00000000000001
21
2.02127811016474E-15
31
0
210
0
220
0
230
1
40
0.732051
41
0.505360510284166
42
2.63623214330564
0
ELLIPSE
5
134
100
AcDbEntity
8
1
62
256
6
ByLayer
370
18
48
1
60
0
100
AcDbEllipse
10
43.346809
20
39.050298
30
0
11
-4.60348651607407
21
-3.18394601548688
31
0
210
0
220
0
230
1
40
0.714389
41
-3.13614006881285
42
-1.85998148090283
0
ELLIPSE
5
135
100
AcDbEntity
8
1
62
256
6
ByLayer
370
18
48
1
60
0
100
AcDbEllipse
10
71.972037
20
46.937656
30
0
11
-2.50367503233662
21
1.35073548481497
31
0
210
0
220
0
230
1
40
0.787101
41
-1.97655749920071
42
-1.52684752318801
0
ELLIPSE
5
136
100
AcDbEntity
8
1
62
256
6
ByLayer
370
18
48
1
60
0
100
AcDbEllipse
10
24.464961
20
19.965313
30
0
11
-0.544074236453916
21
35.4043602953689
31
0
210
0
220
0
230
1
40
0.11193
41
1.3089811507046
42
1.34708834055465
0
ELLIPSE
5
137
100
AcDbEntity
8
1
62
256
6
ByLayer
370
18
48
1
60
0
100
AcDbEllipse
10
30.763884
20
0
30
0
11
-18.7348357595624
21
-39.4834983054985
31
0
210
0
220
0
230
1
40
0.341999
41
-1.10173856858673
42
-0.147307203811566
0
ELLIPSE
5
138
100
AcDbEntity
8
1
62
256
6
ByLayer
370
18
48
1
60
0
100
AcDbEllipse
10
12
20
29.138703
30
0
11
-1.88914494149416
21
3.41434906402317
31
0
210
0
220
0
230
1
40
0.192308
41
-0.170854097213237
42
0.334506413071297
0
ELLIPSE
5
139
100
AcDbEntity
8
1
62
256
6
ByLayer
370
18
48
1
60
0
100
AcDbEllipse
10
50.828615
20
38.904093
30
0
11
-4.63714381802541
21
-0.107271025842875
31
0
210
0
220
0
230
1
40
0.533782
41
-0.677420794108365
42
-0.581107202764977
0
ELLIPSE
5
13A
100
AcDbEntity
8
1
62
256
6
ByLayer
370
18
48
1
60
0
100
AcDbEllipse
10
-6.763884
20
0
30
0
11
-18.7348357595618
21
39.4834983054977
31
0
210
0
220
0
230
1
40
0.341999
41
-2.99428544977823
42
-2.03985408500305
0
ELLIPSE
5
13B
100
AcDbEntity
8
1
62
256
6
ByLayer
370
18
48
1
60
0
100
AcDbEllipse
10
57.004394
20
0
30
0
11
-25.7939423677988
21
-40.2940330202005
31
0
210
0
220
0
230
1
40
0.026885
41
0.0172085860189657
42
0.217047207227038
0
ELLIPSE
5
13C
100
AcDbEntity
8
1
62
256
6
ByLayer
370
18
48
1
60
0
100
AcDbEllipse
10
12
20
29.138703
30
0
11
-1.88914494148847
21
3.41434906401605
31
0
210
0
220
0
230
1
40
0.192308
41
0.334506413071586
42
0.839866923356889
0
ELLIPSE
5
13D
100
AcDbEntity
8
1
62
256
6
ByLayer
370
18
48
1
60
0
100
AcDbEllipse
10
57.003156
20
30.120731
30
0
11
-1.28250598833221
21
-4.64708230247797
31
0
210
0
220
0
230
1
40
0.556435
41
-0.527165213425935
42
0.590807460744613
0
ELLIPSE
5
13E
100
AcDbEntity
8
1
62
256
6
ByLayer
370
18
48
1
60
0
100
AcDbEllipse
10
48.311504
20
36.759742
30
0
11
-3.08205525304727
21
1.66308325905133
31
0
210
0
220
0
230
1
40
0.99535
41
-0.0665514951089504
42
1.10568333560293
0
ELLIPSE
5
13F
100
AcDbEntity
8
1
62
256
6
ByLayer
370
18
48
1
60
0
100
AcDbEllipse
10
24.464962
20
19.965312
30
0
11
-0.544074365216777
21
35.4043622928879
31
0
210
0
220
0
230
1
40
0.11193
41
1.01368007818327
42
1.16498153210244
0
ELLIPSE
5
140
100
AcDbEntity
8
1
62
256
6
ByLayer
370
18
48
1
60
0
100
AcDbEllipse
10
21.499547
20
0
30
0
11
2.44921270764475E-15
21
40
31
0
210
0
220
0
230
1
40
0.087489
41
0.617870028548465
42
2.84602344214365
0
ELLIPSE
5
141
100
AcDbEntity
8
1
62
256
6
ByLayer
370
18
48
1
60
0
100
AcDbEllipse
10
12
20
29.138703
30
0
11
-1.88914494152735
21
-3.41434906407093
31
0
210
0
220
0
230
1
40
0.192308
41
2.30172573024061
42
2.80708624052074
0
ELLIPSE
5
142
100
AcDbEntity
8
1
62
256
6
ByLayer
370
18
48
1
60
0
100
AcDbEllipse
10
-6.763884
20
0
30
0
11
-18.7348357595632
21
-39.4834983054994
31
0
210
0
220
0
230
1
40
0.341999
41
2.03985408500309
42
2.99428544977823
0
ELLIPSE
5
143
100
AcDbEntity
8
1
62
256
6
ByLayer
370
18
48
1
60
0
100
AcDbEllipse
10
71.972037
20
46.937656
30
0
11
-0.897950543969501
21
2.77148575036978
31
0
210
0
220
0
230
1
40
0.794417
41
-1.80970431868915
42
-1.35999434266738
0
ELLIPSE
5
144
100
AcDbEntity
8
1
62
256
6
ByLayer
370
18
48
1
60
0
100
AcDbEllipse
10
65.769657
20
46.485317
30
0
11
-0.942887805997599
21
3.82930736796145
31
0
210
0
220
0
230
1
40
0.533007
41
0.722279790601952
42
0.834873770501303
0
ELLIPSE
5
145
100
AcDbEntity
8
1
62
256
6
ByLayer
370
18
48
1
60
0
100
AcDbEllipse
10
129.792175
20
3E-06
30
0
11
-297.021673521089
21
4.61374963186299
31
0
210
0
220
0
230
1
40
0.133771
41
-1.19304043796632
42
-1.17109861735871
0
POINT
5
6C
100
AcDbEntity
8
81
62
256
6
ByLayer
370
18
48
1
60
0
100
AcDbPoint
10
80
20
55
30
0
39
0
210
0
220
0
230
1
50
360
0
POINT
5
6E
100
AcDbEntity
8
80
62
256
6
ByLayer
370
18
48
1
60
0
100
AcDbPoint
10
0
20
0
30
0
39
0
210
0
220
0
230
1
50
360
0
SPLINE
5
146
100
AcDbEntity
8
1
62
256
6
ByLayer
370
18
48
1
60
0
100
AcDbSpline
70
4
71
3
72
16
73
12
40
0
40
0
40
0
40
0
40
0.0502392147295121
40
0.151216764690279
40
0.252305038135744
40
0.4215982901684
40
0.591403854390571
40
0.760597548214833
40
0.880154690617011
40
0.999967903019903
40
1
40
1
40
1
40
1
41
1
10
40.4329637804763
20
32.7327262973318
30
0
41
1
10
40.3706606995842
20
32.8244582541234
30
0
41
1
10
40.1922924616185
20
33.1054436993983
30
0
41
1
10
39.9494363349526
20
33.6068151503097
30
0
41
1
10
39.6566929388084
20
34.3692447895967
30
0
41
1
10
39.3952868020276
20
35.3047057709055
30
0
41
1
10
39.1868087172645
20
36.3929087147838
30
0
41
1
10
39.2064612256475
20
37.4461884861035
30
0
41
1
10
39.0572083867935
20
38.2138260242789
30
0
41
1
10
39.5906237037112
20
39.0225781764371
30
0
41
1
10
39.3337015963198
20
39.0796467567755
30
0
41
1
10
39.3336039755858
20
39.0796684406935
30
0
0
SPLINE
5
147
100
AcDbEntity
8
1
62
256
6
ByLayer
370
18
48
1
60
0
100
AcDbSpline
70
4
71
1
72
4
73
2
40
0
40
0
40
1
40
1
41
1
10
61.7210415039519
20
33.6467349801956
30
0
41
1
10
61.5387073011
20
33.5133605050875
30
0
0
SPLINE
5
148
100
AcDbEntity
8
1
62
256
6
ByLayer
370
18
48
1
60
0
100
AcDbSpline
70
4
71
3
72
10
73
6
40
0
40
0
40
0
40
0
40
0.348659344257173
40
0.674323652132056
40
1
40
1
40
1
40
1
41
1
10
56.8891042801135
20
19.4212427520266
30
0
41
1
10
56.8668140963314
20
19.4104679570592
30
0
41
1
10
56.8236356570712
20
19.3897703059392
30
0
41
1
10
56.7594067896445
20
19.3594803090554
30
0
41
1
10
56.7174503764569
20
19.3400079584616
30
0
41
1
10
56.6964412141892
20
19.3303355764063
30
0
0
SPLINE
5
149
100
AcDbEntity
8
1
62
256
6
ByLayer
370
18
48
1
60
0
100
AcDbSpline
70
4
71
2
72
6
73
3
40
0
40
0
40
0
40
1
40
1
40
1
41
1
10
58.6635761872314
20
38.5635205183816
30
0
41
1
10
58.6967347464114
20
38.5598134117827
30
0
41
1
10
58.727350556258
20
38.5607174267276
30
0
0
SPLINE
5
14A
100
AcDbEntity
8
1
62
256
6
ByLayer
370
18
48
1
60
0
100
AcDbSpline
70
4
71
2
72
6
73
3
40
0
40
0
40
0
40
1
40
1
40
1
41
1
10
58.378770333893
20
20.4934302683626
30
0
41
1
10
57.8167400001496
20
19.8890632192303
30
0
41
1
10
57.0794482688523
20
19.5154488599279
30
0
0
SPLINE
5
14B
100
AcDbEntity
8
1
62
256
6
ByLayer
370
18
48
1
60
0
100
AcDbSpline
70
4
71
3
72
11
73
7
40
0
40
0
40
0
40
0
40
0.250000000000001
40
0.500000000000001
40
0.75
40
1
40
1
40
1
40
1
41
1
10
50.4127495833192
20
21.9394037869484
30
0
41
1
10
50.2457175848218
20
21.8303390769842
30
0
41
1
10
49.8782943819273
20
21.6826885814621
30
0
41
1
10
49.2090508364297
20
21.6751097958458
30
0
41
1
10
48.4757919201463
20
21.8740474145534
30
0
41
1
10
47.9803379756758
20
22.1394297276816
30
0
41
1
10
47.7279521494625
20
22.3057202234835
30
0
0
SPLINE
5
14C
100
AcDbEntity
8
1
62
256
6
ByLayer
370
18
48
1
60
0
100
AcDbSpline
70
4
71
1
72
4
73
2
40
0
40
0
40
1
40
1
41
1
10
72.3187042635497
20
40.1200828119762
30
0
41
1
10
71.9765599594088
20
39.7962173200909
30
0
0
SPLINE
5
14D
100
AcDbEntity
8
1
62
256
6
ByLayer
370
18
48
1
60
0
100
AcDbSpline
70
4
71
1
72
4
73
2
40
0
40
0
40
1
40
1
41
1
10
53.4530826448885
20
40.3994720271848
30
0
41
1
10
53.8362179811882
20
40.6948556727928
30
0
0
SPLINE
5
14E
100
AcDbEntity
8
1
62
256
6
ByLayer
370
18
48
1
60
0
100
AcDbSpline
70
4
71
2
72
6
73
3
40
0
40
0
40
0
40
1
40
1
40
1
41
1
10
56.5910249026695
20
37.0708178726432
30
0
41
1
10
56.596534007071
20
37.0951744525121
30
0
41
1
10
56.5999053675493
20
37.1242913311757
30
0
0
SPLINE
5
14F
100
AcDbEntity
8
1
62
256
6
ByLayer
370
18
48
1
60
0
100
AcDbSpline
70
4
71
3
72
16
73
12
40
0
40
0
40
0
40
0
40
0.106710449235807
40
0.213401716204671
40
0.336736720313616
40
0.460143959161155
40
0.593301403099268
40
0.726369811232023
40
0.832171375576821
40
0.937863836237408
40
1
40
1
40
1
40
1
41
1
10
55.8052028754106
20
42.0620886554937
30
0
41
1
10
56.0081656588909
20
42.1899074318267
30
0
41
1
10
56.427477322866
20
42.4170614749095
30
0
41
1
10
57.1385975199925
20
42.6872172693949
30
0
41
1
10
57.9168043436115
20
42.8657015706551
30
0
41
1
10
58.7680111471801
20
42.9383174100499
30
0
41
1
10
59.6386700152023
20
42.8818907319322
30
0
41
1
10
60.4514009676603
20
42.6944910224607
30
0
41
1
10
61.1677797706739
20
42.4004976950841
30
0
41
1
10
61.6988510196233
20
42.0816204051108
30
0
41
1
10
61.9935805133614
20
41.8463211173943
30
0
41
1
10
62.0991174321125
20
41.7536625236783
30
0
0
SPLINE
5
150
100
AcDbEntity
8
1
62
256
6
ByLayer
370
18
48
1
60
0
100
AcDbSpline
70
4
71
3
72
16
73
12
40
0
40
0
40
0
40
0
40
0.102432645582495
40
0.20598627748708
40
0.311166214104395
40
0.41855000222218
40
0.528649133150713
40
0.639960342020713
40
0.75524798035691
40
0.875012113914815
40
1
40
1
40
1
40
1
41
1
10
56.6964412141917
20
19.3303355764079
30
0
41
1
10
56.4867092657725
20
19.2594647183263
30
0
41
1
10
56.0548097362632
20
19.151581923933
30
0
41
1
10
55.3656885241423
20
19.0930600588979
30
0
41
1
10
54.6459369568498
20
19.1434822698378
30
0
41
1
10
53.9038995510878
20
19.3078302088965
30
0
41
1
10
53.1558551583343
20
19.5894170309206
30
0
41
1
10
52.414596164303
20
19.9913379180201
30
0
41
1
10
51.6952751979169
20
20.5141043431974
30
0
41
1
10
51.0099319382628
20
21.1644264826746
30
0
41
1
10
50.6050470468268
20
21.666215525145
30
0
41
1
10
50.4127495833169
20
21.9394037869517
30
0
0
SPLINE
5
151
100
AcDbEntity
8
1
62
256
6
ByLayer
370
18
48
1
60
0
100
AcDbSpline
70
4
71
3
72
16
73
12
40
0
40
0
40
0
40
0
40
0.102510678785586
40
0.206045862013973
40
0.311116433238794
40
0.418335687071907
40
0.528298646410842
40
0.639506458437849
40
0.754764161376687
40
0.874671452099915
40
1
40
1
40
1
40
1
41
1
10
57.0794482683937
20
19.5154488589275
30
0
41
1
10
56.8674090428871
20
19.4286661979091
30
0
41
1
10
56.4288023175372
20
19.2913755305724
30
0
41
1
10
55.7223866230757
20
19.1956181528194
30
0
41
1
10
54.9798385012141
20
19.2166806870429
30
0
41
1
10
54.2102594915299
20
19.3602065624758
30
0
41
1
10
53.431231028733
20
19.6302343111165
30
0
41
1
10
52.6568078359921
20
20.0304022282578
30
0
41
1
10
51.9038824815897
20
20.561861115389
30
0
41
1
10
51.1859748561813
20
21.2318266498519
30
0
41
1
10
50.7633269762963
20
21.7526969869989
30
0
41
1
10
50.5628590824056
20
22.0374188327411
30
0
0
SPLINE
5
152
100
AcDbEntity
8
1
62
256
6
ByLayer
370
18
48
1
60
0
100
AcDbSpline
70
4
71
2
72
6
73
3
40
0
40
0
40
0
40
1
40
1
40
1
41
1
10
41.1123860295246
20
42.2287925192459
30
0
41
1
10
41.7167290174152
20
42.7908466346003
30
0
41
1
10
42.4794636827092
20
43.11039078115
30
0
0
SPLINE
5
153
100
AcDbEntity
8
1
62
256
6
ByLayer
370
18
48
1
60
0
100
AcDbSpline
70
4
71
1
72
4
73
2
40
0
40
0
40
1
40
1
41
1
10
54.5571486540498
20
43.2600366458761
30
0
41
1
10
52.9647928532692
20
44.3931251976015
30
0
0
SPLINE
5
154
100
AcDbEntity
8
1
62
256
6
ByLayer
370
18
48
1
60
0
100
AcDbSpline
70
4
71
1
72
4
73
2
40
0
40
0
40
1
40
1
41
1
10
53.6126084226502
20
27.6744428569003
30
0
41
1
10
53.8708585763177
20
27.3689999299029
30
0
0
SPLINE
5
155
100
AcDbEntity
8
1
62
256
6
ByLayer
370
18
48
1
60
0
100
AcDbSpline
70
4
71
3
72
15
73
11
40
0
40
0
40
0
40
0
40
0.0051317049243634
40
0.159632571598831
40
0.314106649172983
40
0.462529721351308
40
0.610939485546952
40
0.755470528238337
40
0.899997009576181
40
1
40
1
40
1
40
1
41
1
10
20.8137074817418
20
38.6333508318955
30
0
41
1
10
20.8168558111075
20
38.6352392122246
30
0
41
1
10
20.9154199485302
20
38.6938425951851
30
0
41
1
10
21.1503383918186
20
38.8010019275332
30
0
41
1
10
21.5936153058551
20
38.9321411299182
30
0
41
1
10
22.1215198033087
20
39.0352170915732
30
0
41
1
10
22.7067404629786
20
39.1115709117499
30
0
41
1
10
23.3395827177952
20
39.1626220766764
30
0
41
1
10
23.9324010037014
20
39.1873697366718
30
0
41
1
10
24.3093537326911
20
39.1918500134351
30
0
41
1
10
24.4649619289016
20
39.1918358845308
30
0
0
SPLINE
5
156
100
AcDbEntity
8
1
62
256
6
ByLayer
370
18
48
1
60
0
100
AcDbSpline
70
4
71
3
72
13
73
9
40
0
40
0
40
0
40
0
40
0.0563758328103335
40
0.244667706604229
40
0.432815762071656
40
0.621794598248231
40
0.810787676669415
40
1
40
1
40
1
40
1
41
1
10
72.9241771239219
20
48.9657422752626
30
0
41
1
10
72.8895019037622
20
48.9801685034587
30
0
41
1
10
72.7380117029511
20
49.0411686977208
30
0
41
1
10
72.4602662831607
20
49.1379157990108
30
0
41
1
10
72.0873705391641
20
49.2363729429015
30
0
41
1
10
71.7145585856245
20
49.3003902389607
30
0
41
1
10
71.3530495843195
20
49.3287075211222
30
0
41
1
10
71.1300517541024
20
49.3234342509348
30
0
41
1
10
71.0221703624822
20
49.3147714858767
30
0
0
SPLINE
5
157
100
AcDbEntity
8
1
62
256
6
ByLayer
370
18
48
1
60
0
100
AcDbSpline
70
4
71
3
72
10
73
6
40
0
40
0
40
0
40
0
40
0.419320200747443
40
0.850977049530496
40
1
40
1
40
1
40
1
41
1
10
56.7778325237447
20
25.3522105247131
30
0
41
1
10
56.6029923965385
20
25.2174961112039
30
0
41
1
10
56.213092135096
20
24.9670448355614
30
0
41
1
10
55.6682344349696
20
24.7034539191075
30
0
41
1
10
55.3210668445799
20
24.5908102485793
30
0
41
1
10
55.2298440429947
20
24.5637706769568
30
0
0
SPLINE
5
158
100
AcDbEntity
8
1
62
256
6
ByLayer
370
18
48
1
60
0
100
AcDbSpline
70
4
71
3
72
10
73
6
40
0
40
0
40
0
40
0
40
0.355206539474766
40
0.687065685878784
40
1
40
1
40
1
40
1
41
1
10
70.1758363074371
20
49.5231733404689
30
0
41
1
10
69.6530404550339
20
49.5503700036116
30
0
41
1
10
68.6422560320758
20
49.5775879146763
30
0
41
1
10
67.1702831581268
20
49.5472471404694
30
0
41
1
10
66.2245059470454
20
49.4825318908288
30
0
41
1
10
65.7659770069695
20
49.4407146296602
30
0
0
SPLINE
5
159
100
AcDbEntity
8
1
62
256
6
ByLayer
370
18
48
1
60
0
100
AcDbSpline
70
4
71
1
72
4
73
2
40
0
40
0
40
1
40
1
41
1
10
51.2864850480323
20
23.3090777112259
30
0
41
1
10
51.1692650879846
20
22.8272881682715
30
0
0
SPLINE
5
15A
100
AcDbEntity
8
1
62
256
6
ByLayer
370
18
48
1
60
0
100
AcDbSpline
70
4
71
3
72
15
73
11
40
0
40
0
40
0
40
0
40
0.0944410954640035
40
0.188943056519601
40
0.317473551457137
40
0.446145231039843
40
0.576978553876766
40
0.707780318165759
40
0.854114400693051
40
1
40
1
40
1
40
1
41
1
10
63.555276576916
20
39.68225811587
30
0
41
1
10
63.6297438685883
20
39.4912835186359
30
0
41
1
10
63.7518754240608
20
39.103062177001
30
0
41
1
10
63.8666561553935
20
38.4231274100604
30
0
41
1
10
63.8762202110304
20
37.6610236763691
30
0
41
1
10
63.7543109541565
20
36.8322852196891
30
0
41
1
10
63.5067377242383
20
36.0268790852326
30
0
41
1
10
63.1283777603146
20
35.2294668333556
30
0
41
1
10
62.6068713995225
20
34.4691519695081
30
0
41
1
10
62.1677338905918
20
34.0207194107746
30
0
41
1
10
61.9275761426573
20
33.8136285801015
30
0
0
SPLINE
5
15B
100
AcDbEntity
8
1
62
256
6
ByLayer
370
18
48
1
60
0
100
AcDbSpline
70
4
71
2
72
6
73
3
40
0
40
0
40
0
40
1
40
1
40
1
41
1
10
56.5763175524167
20
37.3781763379228
30
0
41
1
10
56.567304292566
20
37.4099538983196
30
0
41
1
10
56.5569484733201
20
37.4375959929
30
0
0
SPLINE
5
15C
100
AcDbEntity
8
1
62
256
6
ByLayer
370
18
48
1
60
0
100
AcDbSpline
70
4
71
3
72
11
73
7
40
0
40
0
40
0
40
0
40
0.258240595936039
40
0.500000000000001
40
0.741759404063961
40
1
40
1
40
1
40
1
41
1
10
45.665389711001
20
33.1580985183576
30
0
41
1
10
45.4682670202303
20
33.4438577944861
30
0
41
1
10
45.0585760729987
20
33.9507818015407
30
0
41
1
10
44.3553463452752
20
34.6006299759794
30
0
41
1
10
43.6041577576038
20
35.0597710938509
30
0
41
1
10
43.1123662559873
20
35.2402245574967
30
0
41
1
10
42.8580776001494
20
35.2986649827314
30
0
0
SPLINE
5
15D
100
AcDbEntity
8
1
62
256
6
ByLayer
370
18
48
1
60
0
100
AcDbSpline
70
4
71
3
72
16
73
12
40
0
40
0
40
0
40
0
40
0.142874108787629
40
0.252545594032403
40
0.362221726124742
40
0.472393819476822
40
0.582576406956214
40
0.69433108266171
40
0.8061028358412
40
0.903046302363329
40
1
40
1
40
1
40
1
41
1
10
24.4649619288993
20
-39.1918358845308
30
0
41
1
10
24.173415630142
20
-39.1918817554167
30
0
41
1
10
23.6708241186364
20
-39.1806918984958
30
0
41
1
10
22.9725733639648
20
-39.13606633446
30
0
41
1
10
22.3805718875198
20
-39.0728945833416
30
0
41
1
10
21.8470511464631
20
-38.986006821795
30
0
41
1
10
21.3823168579794
20
-38.8756368391484
30
0
41
1
10
21.0031496830829
20
-38.7411070179574
30
0
41
1
10
20.7290175445823
20
-38.5914595489084
30
0
41
1
10
20.5552770651532
20
-38.4314998778191
30
0
41
1
10
20.4966148207131
20
-38.322238350216
30
0
41
1
10
20.4801831365321
20
-38.2654597950658
30
0
0
SPLINE
5
15E
100
AcDbEntity
8
1
62
256
6
ByLayer
370
18
48
1
60
0
100
AcDbSpline
70
4
71
3
72
15
73
11
40
0
40
0
40
0
40
0
40
0.168844406260329
40
0.338112901645275
40
0.448061316414474
40
0.558007865422697
40
0.671314201919501
40
0.784553545822868
40
0.891017892761629
40
1
40
1
40
1
40
1
41
1
10
70.5442967875972
20
43.0187716063754
30
0
41
1
10
70.7366554656223
20
42.9699774796898
30
0
41
1
10
71.123314699514
20
42.9010244970966
30
0
41
1
10
71.6400014579083
20
42.8562652180183
30
0
41
1
10
72.0909418874993
20
42.9146760770604
30
0
41
1
10
72.4755241653288
20
43.0257422194648
30
0
41
1
10
72.8601949120008
20
43.2006188446894
30
0
41
1
10
73.2325808241554
20
43.4468156709995
30
0
41
1
10
73.5884358858361
20
43.7689662023371
30
0
41
1
10
73.8006732345996
20
44.0548846565993
30
0
41
1
10
73.9037965002277
20
44.2166220203826
30
0
0
SPLINE
5
15F
100
AcDbEntity
8
1
62
256
6
ByLayer
370
18
48
1
60
0
100
AcDbSpline
70
4
71
2
72
6
73
3
40
0
40
0
40
0
40
1
40
1
40
1
41
1
10
54.8883609378108
20
31.4162096062215
30
0
41
1
10
54.4995110898277
20
31.2553873842807
30
0
41
1
10
54.1693476941414
20
31.0147685842574
30
0
0
SPLINE
5
160
100
AcDbEntity
8
1
62
256
6
ByLayer
370
18
48
1
60
0
100
AcDbSpline
70
4
71
3
72
10
73
6
40
0
40
0
40
0
40
0
40
0.340160854642366
40
0.688236432610497
40
1
40
1
40
1
40
1
41
1
10
51.9497688049169
20
37.7491852912833
30
0
41
1
10
51.9304487763205
20
37.630553789062
30
0
41
1
10
51.8735411812266
20
37.3942334785467
30
0
41
1
10
51.7365480384182
20
37.0562517994522
30
0
41
1
10
51.6154265991054
20
36.847000433821
30
0
41
1
10
51.5510592237088
20
36.7504066014354
30
0
0
SPLINE
5
161
100
AcDbEntity
8
1
62
256
6
ByLayer
370
18
48
1
60
0
100
AcDbSpline
70
4
71
3
72
16
73
12
40
0
40
0
40
0
40
0
40
0.102468554494704
40
0.206009614037345
40
0.311132370766808
40
0.418432957595272
40
0.528464785855486
40
0.63972483638844
40
0.754999832836605
40
0.874838449823062
40
1
40
1
40
1
40
1
41
1
10
56.8891042801156
20
19.4212427520272
30
0
41
1
10
56.6780977659915
20
19.3424971154046
30
0
41
1
10
56.2426271130486
20
19.220070868392
30
0
41
1
10
55.5446066171534
20
19.1431797051145
30
0
41
1
10
54.8132619269298
20
19.1791627576291
30
0
41
1
10
54.0573080474104
20
19.3333296690388
30
0
41
1
10
53.293670795669
20
19.6093394144288
30
0
41
1
10
52.5357679804173
20
20.0105658185771
30
0
41
1
10
51.7996148855343
20
20.5378229625875
30
0
41
1
10
51.0979772980851
20
21.1980694986435
30
0
41
1
10
50.6841951630763
20
21.7094432120449
30
0
41
1
10
50.4878043328613
20
21.9884113098464
30
0
0
SPLINE
5
162
100
AcDbEntity
8
1
62
256
6
ByLayer
370
18
48
1
60
0
100
AcDbSpline
70
4
71
3
72
16
73
12
40
0
40
0
40
0
40
0
40
0.0729858646049529
40
0.179928107431634
40
0.288504004051104
40
0.399329269532661
40
0.512975494020267
40
0.627890286215374
40
0.746951909850078
40
0.870727062764184
40
1
40
1
40
1
40
1
41
1
10
40.8318565394517
20
41.913714313495
30
0
41
1
10
40.7409044678511
20
41.7853575459061
30
0
41
1
10
40.5341187545741
20
41.4560713539578
30
0
41
1
10
40.2691800478974
20
40.8727224286357
30
0
41
1
10
40.0680658416848
20
40.1543703450762
30
0
41
1
10
39.9688125997652
20
39.3743933753947
30
0
41
1
10
39.9802038207533
20
38.5479097358018
30
0
41
1
10
40.1096851174553
20
37.6868228492083
30
0
41
1
10
40.3631442535925
20
36.8063438978854
30
0
41
1
10
40.751135550816
20
35.9165799874251
30
0
41
1
10
41.0932126451437
20
35.3527345609007
30
0
41
1
10
41.2892318538563
20
35.0734945210797
30
0
0
SPLINE
5
163
100
AcDbEntity
8
1
62
256
6
ByLayer
370
18
48
1
60
0
100
AcDbSpline
70
4
71
2
72
6
73
3
40
0
40
0
40
0
40
1
40
1
40
1
41
1
10
51.1692650879847
20
22.8272881682717
30
0
41
1
10
50.9780943607123
20
22.3085496076945
30
0
41
1
10
50.5628590824076
20
22.0374188327374
30
0
0
SPLINE
5
164
100
AcDbEntity
8
1
62
256
6
ByLayer
370
18
48
1
60
0
100
AcDbSpline
70
4
71
3
72
16
73
12
40
0
40
0
40
0
40
0
40
0.102510678782432
40
0.206045862011009
40
0.311116433239304
40
0.418335687078027
40
0.528298646421838
40
0.639506458452535
40
0.754764161392738
40
0.874671452111365
40
1
40
1
40
1
40
1
41
1
10
41.112386029525
20
42.2287925192464
30
0
41
1
10
40.9638311016198
20
42.0517026597402
30
0
41
1
10
40.6957397224983
20
41.6718518030966
30
0
41
1
10
40.3803379459561
20
41.0198722892828
30
0
41
1
10
40.161804405679
20
40.2955175971096
30
0
41
1
10
40.0482966449854
20
39.50577400211
30
0
41
1
10
40.0492012076374
20
38.6663373699989
30
0
41
1
10
40.1724022739831
20
37.789623669528
30
0
41
1
10
40.4243845932099
20
36.891588953565
30
0
41
1
10
40.8161820389419
20
35.982985289356
30
0
41
1
10
41.1642329678328
20
35.4075270315356
30
0
41
1
10
41.3642866034008
20
35.1225020439741
30
0
0
SPLINE
5
165
100
AcDbEntity
8
1
62
256
6
ByLayer
370
18
48
1
60
0
100
AcDbSpline
70
4
71
3
72
13
73
9
40
0
40
0
40
0
40
0
40
0.264501747229008
40
0.448386406949541
40
0.632293150443366
40
0.808287277690964
40
0.984397949906617
40
1
40
1
40
1
40
1
41
1
10
73.99641523076
20
45.0838713455759
30
0
41
1
10
74.0624498962109
20
45.2185584177626
30
0
41
1
10
74.1582470949187
20
45.4648198070451
30
0
41
1
10
74.2564854040146
20
45.8611154308027
30
0
41
1
10
74.3107426229946
20
46.2216131279469
30
0
41
1
10
74.3336349209862
20
46.5862346598403
30
0
41
1
10
74.3307240319656
20
46.8359747334279
30
0
41
1
10
74.3242672604632
20
46.9644435513819
30
0
41
1
10
74.3237079854893
20
46.9748923013026
30
0
0
SPLINE
5
166
100
AcDbEntity
8
1
62
256
6
ByLayer
370
18
48
1
60
0
100
AcDbSpline
70
4
71
3
72
14
73
10
40
0
40
0
40
0
40
0
40
0.0769266390129678
40
0.230772199177472
40
0.384617759341978
40
0.538463319506485
40
0.69230887967099
40
0.846154439835494
40
1
40
1
40
1
40
1
41
1
10
42.4794636828625
20
43.1103907811676
30
0
41
1
10
42.5642845032385
20
43.1202190368501
30
0
41
1
10
42.8244915987689
20
43.1328325927894
30
0
41
1
10
43.2937065719787
20
43.0688169501534
30
0
41
1
10
43.8865215747289
20
42.8587030115615
30
0
41
1
10
44.4879160458171
20
42.5232587126363
30
0
41
1
10
45.0738464237396
20
42.0760016203715
30
0
41
1
10
45.6239266373577
20
41.5317220341731
30
0
41
1
10
45.9475929478063
20
41.1241072393232
30
0
41
1
10
46.1002587885737
20
40.9074494137842
30
0
0
SPLINE
5
167
100
AcDbEntity
8
1
62
256
6
ByLayer
370
18
48
1
60
0
100
AcDbSpline
70
4
71
3
72
11
73
7
40
0
40
0
40
0
40
0
40
0.0813094153357022
40
0.422469168968237
40
0.763283460085967
40
1
40
1
40
1
40
1
41
1
10
39.4728367385525
20
39.6261123441296
30
0
41
1
10
39.4937623959482
20
39.6961446134447
30
0
41
1
10
39.6088780489524
20
40.0574164004709
30
0
41
1
10
39.87579848835
20
40.6910557898885
30
0
41
1
10
40.3161176131536
20
41.3933250053928
30
0
41
1
10
40.6565377141815
20
41.7819375028636
30
0
41
1
10
40.8067407018467
20
41.9336312377898
30
0
0
SPLINE
5
168
100
AcDbEntity
8
1
62
256
6
ByLayer
370
18
48
1
60
0
100
AcDbSpline
70
4
71
3
72
11
73
7
40
0
40
0
40
0
40
0
40
0.285829026671019
40
0.578637116264081
40
0.78742101161096
40
1
40
1
40
1
40
1
41
1
10
70.598138350304
20
38.0377540658543
30
0
41
1
10
70.7198939398873
20
38.2373883096783
30
0
41
1
10
70.9723599624947
20
38.6244641768925
30
0
41
1
10
71.3342385169219
20
39.1135839654192
30
0
41
1
10
71.6725535238797
20
39.5056380492415
30
0
41
1
10
71.8741160069989
20
39.7039440882387
30
0
41
1
10
71.9765599594097
20
39.7962173200917
30
0
0
SPLINE
5
169
100
AcDbEntity
8
1
62
256
6
ByLayer
370
18
48
1
60
0
100
AcDbSpline
70
4
71
2
72
6
73
3
40
0
40
0
40
0
40
1
40
1
40
1
41
1
10
57.0107694058939
20
38.4198467633702
30
0
41
1
10
57.0356269607081
20
38.4234834569311
30
0
41
1
10
57.0632963682356
20
38.4321940852487
30
0
0
SPLINE
5
16A
100
AcDbEntity
8
1
62
256
6
ByLayer
370
18
48
1
60
0
100
AcDbSpline
70
4
71
3
72
14
73
10
40
0
40
0
40
0
40
0
40
0.153845560191445
40
0.307691120382889
40
0.461536680574334
40
0.615382240765777
40
0.769227800957222
40
0.923073361148666
40
1
40
1
40
1
40
1
41
1
10
57.5984743873343
20
24.5510953997365
30
0
41
1
10
57.7506475948125
20
24.3341159058508
30
0
41
1
10
58.0234294749034
20
23.8932757668283
30
0
41
1
10
58.3439555154488
20
23.1991071801223
30
0
41
1
10
58.5576943013861
20
22.5088249884988
30
0
41
1
10
58.6579522201493
20
21.8461600778136
30
0
41
1
10
58.6406182587314
20
21.2376451118096
30
0
41
1
10
58.5283276932893
20
20.7939313666678
30
0
41
1
10
58.4196915988669
20
20.5657061858077
30
0
41
1
10
58.3787703342453
20
20.4934302689841
30
0
0
SPLINE
5
16B
100
AcDbEntity
8
1
62
256
6
ByLayer
370
18
48
1
60
0
100
AcDbSpline
70
4
71
3
72
11
73
7
40
0
40
0
40
0
40
0
40
0.0078578168666669
40
0.417986723929733
40
0.841480154300534
40
1
40
1
40
1
40
1
41
1
10
55.2239566070792
20
31.5256646105011
30
0
41
1
10
55.2267953233983
20
31.5263327996504
30
0
41
1
10
55.3778169745632
20
31.5616217181622
30
0
41
1
10
55.6868160834579
20
31.6060413467988
30
0
41
1
10
56.0492510172163
20
31.5927820434825
30
0
41
1
10
56.2538558509704
20
31.5589822279078
30
0
41
1
10
56.3092149644481
20
31.5478191681649
30
0
0
SPLINE
5
16C
100
AcDbEntity
8
1
62
256
6
ByLayer
370
18
48
1
60
0
100
AcDbSpline
70
4
71
3
72
13
73
9
40
0
40
0
40
0
40
0
40
0.191242723953691
40
0.38250965609072
40
0.57791302036804
40
0.773345337697938
40
0.886540373994358
40
1
40
1
40
1
40
1
41
1
10
70.598138350304
20
38.0377540658543
30
0
41
1
10
70.226038620346
20
37.4343091992405
30
0
41
1
10
69.442289951807
20
36.2564591963274
30
0
41
1
10
68.1393626860882
20
34.5587269058298
30
0
41
1
10
66.7042920009034
20
32.9508345919024
30
0
41
1
10
65.3499759159697
20
31.66711257285
30
0
41
1
10
64.1584633392583
20
30.6572655269715
30
0
41
1
10
63.4908503936206
20
30.1501810370004
30
0
41
1
10
63.150121793794
20
29.9043687057845
30
0
0
SPLINE
5
16D
100
AcDbEntity
8
1
62
256
6
ByLayer
370
18
48
1
60
0
100
AcDbSpline
70
4
71
2
72
6
73
3
40
0
40
0
40
0
40
1
40
1
40
1
41
1
10
51.5510592237091
20
36.7504066014358
30
0
41
1
10
51.4512413041577
20
36.6030797694864
30
0
41
1
10
51.3342792915041
20
36.4719347404836
30
0
0
SPLINE
5
16E
100
AcDbEntity
8
1
62
256
6
ByLayer
370
18
48
1
60
0
100
AcDbSpline
70
4
71
3
72
15
73
11
40
0
40
0
40
0
40
0
40
0.228435565827107
40
0.455268471850384
40
0.597059656971081
40
0.693578837374157
40
0.768481282605447
40
0.843713841304807
40
0.91329402040012
40
1
40
1
40
1
40
1
41
1
10
70.6484178257287
20
45.2014590061244
30
0
41
1
10
70.5729411827346
20
45.0443874801659
30
0
41
1
10
70.4405808893736
20
44.7105209911295
30
0
41
1
10
70.2970218824095
20
44.2225974999329
30
0
41
1
10
70.2367230332191
20
43.8026288280216
30
0
41
1
10
70.237868528195
20
43.5122818691302
30
0
41
1
10
70.2757892267834
20
43.3002112667388
30
0
41
1
10
70.3425324756297
20
43.1518288879398
30
0
41
1
10
70.4358943395082
20
43.0567272658446
30
0
41
1
10
70.5039089576559
20
43.0251283887476
30
0
41
1
10
70.5442967875979
20
43.0187716063753
30
0
0
SPLINE
5
16F
100
AcDbEntity
8
1
62
256
6
ByLayer
370
18
48
1
60
0
100
AcDbSpline
70
4
71
1
72
4
73
2
40
0
40
0
40
1
40
1
41
1
10
50.4878043328636
20
21.988411309843
30
0
41
1
10
50.4127495833199
20
21.9394037869489
30
0
0
SPLINE
5
170
100
AcDbEntity
8
1
62
256
6
ByLayer
370
18
48
1
60
0
100
AcDbSpline
70
4
71
1
72
4
73
2
40
0
40
0
40
1
40
1
41
1
10
47.438066646115
20
36.4578049624451
30
0
41
1
10
47.2368092675981
20
36.80601718776
30
0
0
SPLINE
5
171
100
AcDbEntity
8
1
62
256
6
ByLayer
370
18
48
1
60
0
100
AcDbSpline
70
4
71
2
72
6
73
3
40
0
40
0
40
0
40
1
40
1
40
1
41
1
10
57.5534876642079
20
36.0200066587088
30
0
41
1
10
57.5316454932239
20
36.0381092004376
30
0
41
1
10
57.5053394956424
20
36.0566311242588
30
0
0
SPLINE
5
172
100
AcDbEntity
8
1
62
256
6
ByLayer
370
18
48
1
60
0
100
AcDbSpline
70
4
71
2
72
6
73
3
40
0
40
0
40
0
40
1
40
1
40
1
41
1
10
51.3342792915042
20
36.4719347404837
30
0
41
1
10
51.1633146180369
20
36.2798235195819
30
0
41
1
10
50.9707909544244
20
36.1173699597191
30
0
0
SPLINE
5
173
100
AcDbEntity
8
1
62
256
6
ByLayer
370
18
48
1
60
0
100
AcDbSpline
70
4
71
2
72
6
73
3
40
0
40
0
40
0
40
1
40
1
40
1
41
1
10
69.8267138081318
20
46.3703431421835
30
0
41
1
10
70.5486842594842
20
46.4065577847384
30
0
41
1
10
71.2479576418879
20
46.4669428299596
30
0
0
SPLINE
5
174
100
AcDbEntity
8
1
62
256
6
ByLayer
370
18
48
1
60
0
100
AcDbSpline
70
4
71
1
72
4
73
2
40
0
40
0
40
1
40
1
41
1
10
50.9707909544246
20
36.1173699597193
30
0
41
1
10
50.719883014513
20
35.9216747884725
30
0
0
SPLINE
5
175
100
AcDbEntity
8
1
62
256
6
ByLayer
370
18
48
1
60
0
100
AcDbSpline
70
4
71
3
72
11
73
7
40
0
40
0
40
0
40
0
40
0.25819653457969
40
0.500000000000001
40
0.741803465420308
40
1
40
1
40
1
40
1
41
1
10
41.2141771043096
20
35.0244869981883
30
0
41
1
10
41.0379231060585
20
34.9154854130106
30
0
41
1
10
40.755772743341
20
34.6444707582129
30
0
41
1
10
40.4849061234289
20
34.0667243493032
30
0
41
1
10
40.4229640007017
20
33.3293997840875
30
0
41
1
10
40.4987522849462
20
32.7849888061043
30
0
41
1
10
40.5716708035294
20
32.485667314096
30
0
0
SPLINE
5
176
100
AcDbEntity
8
1
62
256
6
ByLayer
370
18
48
1
60
0
100
AcDbSpline
70
4
71
3
72
17
73
13
40
0
40
0
40
0
40
0
40
0.102992230007423
40
0.206635923500908
40
0.311441121829307
40
0.418095913428564
40
0.527437102017468
40
0.615762333387615
40
0.706637562657416
40
0.800696512127444
40
0.898286281849838
40
1
40
1
40
1
40
1
41
1
10
57.5984743873343
20
24.5510953997365
30
0
41
1
10
57.3870188498239
20
24.3966909832234
30
0
41
1
10
56.9394809705259
20
24.1336369615021
30
0
41
1
10
56.1854087981257
20
23.8751865922065
30
0
41
1
10
55.3691464779726
20
23.7646177108286
30
0
41
1
10
54.5035722043077
20
23.8104055758318
30
0
41
1
10
53.6725780641319
20
24.006375403407
30
0
41
1
10
52.8977028660247
20
24.3189758196238
30
0
41
1
10
52.1887455336527
20
24.7189167060028
30
0
41
1
10
51.4978432377464
20
25.2334754419771
30
0
41
1
10
50.8399243163394
20
25.8666533240618
30
0
41
1
10
50.4500589227344
20
26.3521386246654
30
0
41
1
10
50.264675950503
20
26.6155569127416
30
0
0
SPLINE
5
177
100
AcDbEntity
8
1
62
256
6
ByLayer
370
18
48
1
60
0
100
AcDbSpline
70
4
71
3
72
16
73
12
40
0
40
0
40
0
40
0
40
0.0637986609166953
40
0.12764291590032
40
0.26010549871166
40
0.363136258917889
40
0.466201155740997
40
0.572053271930382
40
0.677908717537029
40
0.838591252276261
40
1
40
1
40
1
40
1
41
1
10
70.1723021461465
20
49.5247189259605
30
0
41
1
10
70.0593707308882
20
49.5051048502032
30
0
41
1
10
69.8441627599267
20
49.4581512536392
30
0
41
1
10
69.4515797667515
20
49.3276820535382
30
0
41
1
10
69.06949862053
20
49.133742781197
30
0
41
1
10
68.7110056146283
20
48.8769473959828
30
0
41
1
10
68.4337334543475
20
48.6157269756373
30
0
41
1
10
68.204550345628
20
48.3311943347857
30
0
41
1
10
67.9946114968399
20
47.971662282577
30
0
41
1
10
67.847987804138
20
47.5275102592008
30
0
41
1
10
67.7667285377439
20
47.1856165616445
30
0
41
1
10
67.7380764549328
20
47.0106547649197
30
0
0
SPLINE
5
178
100
AcDbEntity
8
1
62
256
6
ByLayer
370
18
48
1
60
0
100
AcDbSpline
70
4
71
3
72
14
73
10
40
0
40
0
40
0
40
0
40
0.204637212697247
40
0.413088074458299
40
0.59784586489029
40
0.692590301247613
40
0.78731740088873
40
0.892990801006438
40
1
40
1
40
1
40
1
41
1
10
55.2239566070792
20
31.5256646105011
30
0
41
1
10
55.1824807127207
20
31.1262274969274
30
0
41
1
10
55.0965083559476
20
30.3356422170714
30
0
41
1
10
54.9638937496216
20
29.224445384117
30
0
41
1
10
54.8530542478158
20
28.3731929825101
30
0
41
1
10
54.7686305082054
20
27.7655686400546
30
0
41
1
10
54.7031549178567
20
27.3157247955552
30
0
41
1
10
54.6369916493419
20
26.8852308433311
30
0
41
1
10
54.5942281357446
20
26.6241096650473
30
0
41
1
10
54.5733468890359
20
26.5012860267296
30
0
0
SPLINE
5
179
100
AcDbEntity
8
1
62
256
6
ByLayer
370
18
48
1
60
0
100
AcDbSpline
70
4
71
1
72
4
73
2
40
0
40
0
40
1
40
1
41
1
10
33.847772296177
20
50.6298953631237
30
0
41
1
10
30.9207923799985
20
39.3914905391056
30
0
0
SPLINE
5
17A
100
AcDbEntity
8
1
62
256
6
ByLayer
370
18
48
1
60
0
100
AcDbSpline
70
4
71
1
72
4
73
2
40
0
40
0
40
1
40
1
41
1
10
46.6845255145739
20
37.7232320796663
30
0
41
1
10
46.6586592398485
20
37.7515338404205
30
0
0
SPLINE
5
17B
100
AcDbEntity
8
1
62
256
6
ByLayer
370
18
48
1
60
0
100
AcDbSpline
70
4
71
2
72
6
73
3
40
0
40
0
40
0
40
1
40
1
40
1
41
1
10
42.3502936798425
20
35.3724013743362
30
0
41
1
10
41.7795265971028
20
35.3936358978878
30
0
41
1
10
41.3642866033979
20
35.1225020439773
30
0
0
SPLINE
5
17C
100
AcDbEntity
8
1
62
256
6
ByLayer
370
18
48
1
60
0
100
AcDbSpline
70
4
71
3
72
10
73
6
40
0
40
0
40
0
40
0
40
0.349686433781837
40
0.674837355830738
40
1
40
1
40
1
40
1
41
1
10
57.0794482704141
20
19.5154488594572
30
0
41
1
10
57.0573651630516
20
19.5042625008126
30
0
41
1
10
57.0146783366443
20
19.4828133271305
30
0
41
1
10
56.9512218916624
20
19.4514243866014
30
0
41
1
10
56.9098312031039
20
19.4312618626917
30
0
41
1
10
56.889104280114
20
19.4212427520261
30
0
0
SPLINE
5
17D
100
AcDbEntity
8
1
62
256
6
ByLayer
370
18
48
1
60
0
100
AcDbSpline
70
4
71
2
72
6
73
3
40
0
40
0
40
0
40
1
40
1
40
1
41
1
10
54.5938908209019
20
26.4635686941458
30
0
41
1
10
54.5838844463312
20
26.4821628709089
30
0
41
1
10
54.5733468890362
20
26.5012860267313
30
0
0
SPLINE
5
17E
100
AcDbEntity
8
1
62
256
6
ByLayer
370
18
48
1
60
0
100
AcDbSpline
70
4
71
3
72
11
73
7
40
0
40
0
40
0
40
0
40
0.283766240604029
40
0.577212127289776
40
0.787246122736144
40
1
40
1
40
1
40
1
41
1
10
65.3339498347164
20
49.2454124446355
30
0
41
1
10
65.1661981221003
20
49.1643295102337
30
0
41
1
10
64.8030290813175
20
49.0101435311608
30
0
41
1
10
64.2357363314353
20
48.8302601029345
30
0
41
1
10
63.6886283323015
20
48.6893310526138
30
0
41
1
10
63.3559440460084
20
48.616284535021
30
0
41
1
10
63.1855946877914
20
48.5821891781764
30
0
0
SPLINE
5
17F
100
AcDbEntity
8
1
62
256
6
ByLayer
370
18
48
1
60
0
100
AcDbSpline
70
4
71
2
72
6
73
3
40
0
40
0
40
0
40
1
40
1
40
1
41
1
10
71.2479576419065
20
46.4669428299612
30
0
41
1
10
70.9402420573099
20
45.8493432820579
30
0
41
1
10
70.6484178257284
20
45.2014590061237
30
0
0
SPLINE
5
180
100
AcDbEntity
8
1
62
256
6
ByLayer
370
18
48
1
60
0
100
AcDbSpline
70
4
71
3
72
10
73
6
40
0
40
0
40
0
40
0
40
0.348659368687415
40
0.674323688947186
40
1
40
1
40
1
40
1
41
1
10
40.806740701845
20
41.9336312377878
30
0
41
1
10
40.8242030246639
20
41.9511407438911
30
0
41
1
10
40.8580865443881
20
41.9848930147209
30
0
41
1
10
40.9086534678415
20
42.0346260608272
30
0
41
1
10
40.9417870983752
20
42.0668164495476
30
0
41
1
10
40.9584038228724
20
42.0828613425217
30
0
0
SPLINE
5
181
100
AcDbEntity
8
1
62
256
6
ByLayer
370
18
48
1
60
0
100
AcDbSpline
70
4
71
3
72
10
73
6
40
0
40
0
40
0
40
0
40
0.399380182409847
40
0.799077324228459
40
1
40
1
40
1
40
1
41
1
10
56.6964412141917
20
19.3303355764079
30
0
41
1
10
56.4373165539633
20
19.2132619548809
30
0
41
1
10
55.9079838365064
20
19.022701019781
30
0
41
1
10
55.2076267107042
20
18.8965815260304
30
0
41
1
10
54.7843311395955
20
18.8675078409265
30
0
41
1
10
54.6417844627233
20
18.8631863351206
30
0
0
SPLINE
5
182
100
AcDbEntity
8
1
62
256
6
ByLayer
370
18
48
1
60
0
100
AcDbSpline
70
4
71
3
72
13
73
9
40
0
40
0
40
0
40
0
40
0.127184875645934
40
0.273253586308536
40
0.447674241578032
40
0.643202188315997
40
0.827263456704803
40
1
40
1
40
1
40
1
41
1
10
72.3186827994195
20
40.120101761708
30
0
41
1
10
72.3985201602717
20
40.2885812057087
30
0
41
1
10
72.566180975412
20
40.6522999395189
30
0
41
1
10
72.8252380910941
20
41.2553823190906
30
0
41
1
10
73.1105197849844
20
41.9561628939235
30
0
41
1
10
73.400985497887
20
42.7149597996354
30
0
41
1
10
73.6710573683384
20
43.4789172393145
30
0
41
1
10
73.8299667752819
20
43.9776658408719
30
0
41
1
10
73.9035495760271
20
44.2202966516354
30
0
0
SPLINE
5
183
100
AcDbEntity
8
1
62
256
6
ByLayer
370
18
48
1
60
0
100
AcDbSpline
70
4
71
3
72
11
73
7
40
0
40
0
40
0
40
0
40
0.274372063566573
40
0.548743888963174
40
0.772964608938923
40
1
40
1
40
1
40
1
41
1
10
62.0991174321099
20
41.7536625236806
30
0
41
1
10
62.2755236754633
20
41.5980961017128
30
0
41
1
10
62.6052188514375
20
41.2674860113516
30
0
41
1
10
63.0079438644216
20
40.7426205918127
30
0
41
1
10
63.3245874238523
20
40.2104191614486
30
0
41
1
10
63.4841911463204
20
39.8622227849912
30
0
41
1
10
63.5552765769165
20
39.6822581158688
30
0
0
SPLINE
5
184
100
AcDbEntity
8
1
62
256
6
ByLayer
370
18
48
1
60
0
100
AcDbSpline
70
4
71
3
72
13
73
9
40
0
40
0
40
0
40
0
40
0.236322744745058
40
0.471915530049523
40
0.657506231940605
40
0.844171875648264
40
0.957158437148348
40
1
40
1
40
1
40
1
41
1
10
54.5733468890362
20
26.5012860267313
30
0
41
1
10
54.5487257549348
20
26.5460462585229
30
0
41
1
10
54.4851974084732
20
26.6464241932472
30
0
41
1
10
54.3585140327702
20
26.8138898574865
30
0
41
1
10
54.2054738269484
20
26.9988762007278
30
0
41
1
10
54.0578676556704
20
27.1696143346279
30
0
41
1
10
53.9400771595415
20
27.2989416628495
30
0
41
1
10
53.8858858311486
20
27.3539714266969
30
0
41
1
10
53.8708585763171
20
27.3689999299035
30
0
0
SPLINE
5
185
100
AcDbEntity
8
1
62
256
6
ByLayer
370
18
48
1
60
0
100
AcDbSpline
70
4
71
3
72
10
73
6
40
0
40
0
40
0
40
0
40
0.349686470891513
40
0.674837395094114
40
1
40
1
40
1
40
1
41
1
10
40.9584038228726
20
42.0828613425209
30
0
41
1
10
40.9761932228044
20
42.1000385471012
30
0
41
1
10
41.010631222497
20
42.1330749342092
30
0
41
1
10
41.0619714227864
20
42.1817075820781
30
0
41
1
10
41.0955490563548
20
42.2131311107399
30
0
41
1
10
41.1123860295246
20
42.2287925192464
30
0
0
SPLINE
5
186
100
AcDbEntity
8
1
62
256
6
ByLayer
370
18
48
1
60
0
100
AcDbSpline
70
4
71
2
72
6
73
3
40
0
40
0
40
0
40
1
40
1
40
1
41
1
10
58.9356949289707
20
36.3182243355014
30
0
41
1
10
58.9057937511029
20
36.3095440188873
30
0
41
1
10
58.8741646244222
20
36.2968736714157
30
0
0
SPLINE
5
187
100
AcDbEntity
8
1
62
256
6
ByLayer
370
18
48
1
60
0
100
AcDbSpline
70
4
71
3
72
10
73
6
40
0
40
0
40
0
40
0
40
0.203405479459348
40
0.79556570431481
40
1
40
1
40
1
40
1
41
1
10
46.2350971310149
20
39.5886835555875
30
0
41
1
10
46.1717153325966
20
39.5354931233712
30
0
41
1
10
45.9267554668252
20
39.3176291493332
30
0
41
1
10
45.6200235595598
20
38.9972023217008
30
0
41
1
10
45.4014503089739
20
38.7015875554049
30
0
41
1
10
45.3463564674447
20
38.6231540908988
30
0
0
SPLINE
5
188
100
AcDbEntity
8
1
62
256
6
ByLayer
370
18
48
1
60
0
100
AcDbSpline
70
4
71
2
72
6
73
3
40
0
40
0
40
0
40
1
40
1
40
1
41
1
10
58.6662977493383
20
36.1519047786931
30
0
41
1
10
58.6480506321854
20
36.1297908256887
30
0
41
1
10
58.6353974727189
20
36.1087932286799
30
0
0
SPLINE
5
189
100
AcDbEntity
8
1
62
256
6
ByLayer
370
18
48
1
60
0
100
AcDbSpline
70
4
71
1
72
4
73
2
40
0
40
0
40
1
40
1
41
1
10
39.333603975589
20
39.0796684406928
30
0
41
1
10
39.4728367385525
20
39.6261123441299
30
0
0
SPLINE
5
18A
100
AcDbEntity
8
1
62
256
6
ByLayer
370
18
48
1
60
0
100
AcDbSpline
70
4
71
3
72
16
73
12
40
0
40
0
40
0
40
0
40
0.102432645582493
40
0.205986277487079
40
0.311166214104395
40
0.418550002222182
40
0.528649133150715
40
0.639960342020718
40
0.755247980356914
40
0.875012113914819
40
1
40
1
40
1
40
1
41
1
10
40.8067407018457
20
41.9336312377889
30
0
41
1
10
40.6736978129346
20
41.7536692433006
30
0
41
1
10
40.4350587632354
20
41.3708710242014
30
0
41
1
10
40.1597710263937
20
40.723665918155
30
0
41
1
10
39.9758038978979
20
40.0119281329721
30
0
41
1
10
39.8904578098953
20
39.2421245439992
30
0
41
1
10
39.912028223512
20
38.4289247776769
30
0
41
1
10
40.0474903514213
20
37.5836990167699
30
0
41
1
10
40.3021775141693
20
36.7209268219903
30
0
41
1
10
40.6861796778217
20
35.8500918604661
30
0
41
1
10
41.0222113150982
20
35.2979179697847
30
0
41
1
10
41.2141771043119
20
35.024486998185
30
0
0
SPLINE
5
18B
100
AcDbEntity
8
1
62
256
6
ByLayer
370
18
48
1
60
0
100
AcDbSpline
70
4
71
3
72
15
73
11
40
0
40
0
40
0
40
0
40
0.0867053084987773
40
0.173427834034997
40
0.352575907354719
40
0.4593590201073
40
0.566162424072927
40
0.676001668014179
40
0.785854580879623
40
1
40
1
40
1
40
1
41
1
10
46.684525514574
20
37.7232320796663
30
0
41
1
10
46.7795054258508
20
37.7113438803954
30
0
41
1
10
46.9811084264359
20
37.6840339698098
30
0
41
1
10
47.4411076139119
20
37.6137019718524
30
0
41
1
10
47.9945776075837
20
37.5175645686785
30
0
41
1
10
48.6299656833922
20
37.3962402997094
30
0
41
1
10
49.1794844483861
20
37.2853427591948
30
0
41
1
10
49.7550925655359
20
37.1634415839508
30
0
41
1
10
50.5423011366103
20
36.9894484350295
30
0
41
1
10
51.1450789688219
20
36.8485606391245
30
0
41
1
10
51.5510592237119
20
36.7504066014351
30
0
0
SPLINE
5
18C
100
AcDbEntity
8
1
62
256
6
ByLayer
370
18
48
1
60
0
100
AcDbSpline
70
4
71
3
72
17
73
13
40
0
40
0
40
0
40
0
40
0.0386259955015959
40
0.13285986302039
40
0.226874496667624
40
0.354690027718233
40
0.482973376212484
40
0.610952154873952
40
0.716270693745166
40
0.821728926772301
40
0.926863648139843
40
1
40
1
40
1
40
1
41
1
10
54.6417844627244
20
18.8631863351206
30
0
41
1
10
54.542392163699
20
18.8602206863058
30
0
41
1
10
54.2008171666832
20
18.8576378497986
30
0
41
1
10
53.6168511947042
20
18.8999989455801
30
0
41
1
10
52.8135920559711
20
19.0416955788561
30
0
41
1
10
51.9445830134143
20
19.2963712653561
30
0
41
1
10
51.02796027804
20
19.6801292010059
30
0
41
1
10
50.2066994228561
20
20.1288016568352
30
0
41
1
10
49.474077247961
20
20.6103688662723
30
0
41
1
10
48.8306849320495
20
21.1147976709028
30
0
41
1
10
48.2940954780955
20
21.6192569173119
30
0
41
1
10
48.0019207793604
20
21.9755416393343
30
0
41
1
10
47.8881864769678
20
22.1275797213432
30
0
0
SPLINE
5
18D
100
AcDbEntity
8
1
62
256
6
ByLayer
370
18
48
1
60
0
100
AcDbSpline
70
4
71
3
72
16
73
12
40
0
40
0
40
0
40
0
40
0.118546636851417
40
0.191014590194125
40
0.263713635625983
40
0.333764906153625
40
0.452008025544352
40
0.553339821228451
40
0.654921614862675
40
0.82728271261754
40
1
40
1
40
1
40
1
41
1
10
67.7380764549331
20
47.0106547649214
30
0
41
1
10
67.722674793608
20
46.9587001776844
30
0
41
1
10
67.7348536320156
20
46.8724207538908
30
0
41
1
10
67.8279197487207
20
46.7412306517458
30
0
41
1
10
67.964800332666
20
46.6410367850651
30
0
41
1
10
68.1735387296909
20
46.5411538791176
30
0
41
1
10
68.4320858372804
20
46.463215344616
30
0
41
1
10
68.717402485393
20
46.4087870163267
30
0
41
1
10
69.0440259378589
20
46.3709028422744
30
0
41
1
10
69.4176860378392
20
46.3564418305683
30
0
41
1
10
69.6926244046101
20
46.362167078769
30
0
41
1
10
69.826713808133
20
46.3703431421836
30
0
0
SPLINE
5
18E
100
AcDbEntity
8
1
62
256
6
ByLayer
370
18
48
1
60
0
100
AcDbSpline
70
4
71
2
72
6
73
3
40
0
40
0
40
0
40
1
40
1
40
1
41
1
10
59.3554394321951
20
37.6672532262284
30
0
41
1
10
59.3449330648345
20
37.6378993834005
30
0
41
1
10
59.3375556251088
20
37.6047764254894
30
0
0
SPLINE
5
18F
100
AcDbEntity
8
1
62
256
6
ByLayer
370
18
48
1
60
0
100
AcDbSpline
70
4
71
1
72
4
73
2
40
0
40
0
40
1
40
1
41
1
10
31.0011771377293
20
-39.4979746316187
30
0
41
1
10
30.92079238
20
-39.1918358845306
30
0
0
SPLINE
5
190
100
AcDbEntity
8
1
62
256
6
ByLayer
370
18
48
1
60
0
100
AcDbSpline
70
4
71
3
72
12
73
8
40
0
40
0
40
0
40
0
40
0.158767555627573
40
0.369075666720679
40
0.579383777813785
40
0.789691888906892
40
1
40
1
40
1
40
1
41
1
10
55.8052028754106
20
42.0620886554937
30
0
41
1
10
55.725693566935
20
42.1508725810459
30
0
41
1
10
55.5453959592381
20
42.3483251857268
30
0
41
1
10
55.2776797005559
20
42.6269561257102
30
0
41
1
10
55.0093285429561
20
42.887113583435
30
0
41
1
10
54.7664334699736
20
43.1017988053883
30
0
41
1
10
54.6238210393993
20
43.2125695990041
30
0
41
1
10
54.5571486540493
20
43.2600366458765
30
0
0
SPLINE
5
191
100
AcDbEntity
8
1
62
256
6
ByLayer
370
18
48
1
60
0
100
AcDbSpline
70
4
71
2
72
6
73
3
40
0
40
0
40
0
40
1
40
1
40
1
41
1
10
57.273884805426
20
36.1655472382842
30
0
41
1
10
57.2446914058376
20
36.1732195044711
30
0
41
1
10
57.2191137786067
20
36.1773536721441
30
0
0
SPLINE
5
192
100
AcDbEntity
8
1
62
256
6
ByLayer
370
18
48
1
60
0
100
AcDbSpline
70
4
71
3
72
18
73
14
40
0
40
0
40
0
40
0
40
0.0759799328441221
40
0.216950636843264
40
0.35642310148899
40
0.488469120205418
40
0.607076641018376
40
0.70890729693552
40
0.77331916481356
40
0.830732578780719
40
0.883746847658007
40
0.938130719748055
40
1
40
1
40
1
40
1
41
1
10
63.5552765768496
20
39.6822581158197
30
0
41
1
10
63.7502990761681
20
39.8298151027449
30
0
41
1
10
64.303789653504
20
40.2500502198344
30
0
41
1
10
65.1967242122689
20
40.9354518543434
30
0
41
1
10
66.2077833597513
20
41.7206649650511
30
0
41
1
10
67.1442059698965
20
42.4558812036875
30
0
41
1
10
67.9712451089595
20
43.1130998770072
30
0
41
1
10
68.6216850271804
20
43.6366019701809
30
0
41
1
10
69.1240983971497
20
44.0388919235707
30
0
41
1
10
69.5156928094295
20
44.3459562973351
30
0
41
1
10
69.8866050642225
20
44.626764259047
30
0
41
1
10
70.2628099072044
20
44.907937150646
30
0
41
1
10
70.5154147488044
20
45.0999601692826
30
0
41
1
10
70.6484178255912
20
45.2014590060189
30
0
0
SPLINE
5
193
100
AcDbEntity
8
1
62
256
6
ByLayer
370
18
48
1
60
0
100
AcDbSpline
70
4
71
1
72
4
73
2
40
0
40
0
40
1
40
1
41
1
10
40.9584038228731
20
42.0828613425216
30
0
41
1
10
40.8318565394517
20
41.9137143134949
30
0
0
SPLINE
5
194
100
AcDbEntity
8
1
62
256
6
ByLayer
370
18
48
1
60
0
100
AcDbSpline
70
4
71
3
72
12
73
8
40
0
40
0
40
0
40
0
40
0.237785744348146
40
0.499740897076321
40
0.770455776622676
40
0.956251311207268
40
1
40
1
40
1
40
1
41
1
10
51.9497688049169
20
37.7491852912833
30
0
41
1
10
51.9885720388775
20
37.9905346437097
30
0
41
1
10
52.1103134065454
20
38.483561204109
30
0
41
1
10
52.4261760586526
20
39.2021394127713
30
0
41
1
10
52.8540501489177
20
39.8179583529018
30
0
41
1
10
53.2291287729579
20
40.2038466478533
30
0
41
1
10
53.4167279370238
20
40.3685006991459
30
0
41
1
10
53.4530826448897
20
40.3994720271859
30
0
0
SPLINE
5
195
100
AcDbEntity
8
1
62
256
6
ByLayer
370
18
48
1
60
0
100
AcDbSpline
70
4
71
3
72
18
73
14
40
0
40
0
40
0
40
0
40
0.0759799328404153
40
0.216950636837054
40
0.356423101480454
40
0.488469120194708
40
0.607076641005628
40
0.708907296920896
40
0.773319164801296
40
0.830732578770266
40
0.883746847649595
40
0.938130719742848
40
1
40
1
40
1
40
1
41
1
10
62.0991174320397
20
41.7536625236364
30
0
41
1
10
62.3062245137203
20
41.8840290425563
30
0
41
1
10
62.8956928400809
20
42.2530853663157
30
0
41
1
10
63.8552767122398
20
42.84367752753
30
0
41
1
10
64.9523293496287
20
43.5065638344271
30
0
41
1
10
65.9775285429736
20
44.1154942845944
30
0
41
1
10
66.8918733488225
20
44.6485195662484
30
0
41
1
10
67.6185631877259
20
45.0635552034521
30
0
41
1
10
68.1786871945093
20
45.3837510616656
30
0
41
1
10
68.6094449958274
20
45.6351050298074
30
0
41
1
10
69.0081470196781
20
45.8763817011045
30
0
41
1
10
69.4095846354433
20
46.1216606611533
30
0
41
1
10
69.6825280874282
20
46.2847517548158
30
0
41
1
10
69.8267138081353
20
46.3703431421856
30
0
0
SPLINE
5
196
100
AcDbEntity
8
1
62
256
6
ByLayer
370
18
48
1
60
0
100
AcDbSpline
70
4
71
2
72
6
73
3
40
0
40
0
40
0
40
1
40
1
40
1
41
1
10
59.3611434402414
20
37.3508914187423
30
0
41
1
10
59.3741513344298
20
37.3231084926833
30
0
41
1
10
59.3895158615445
20
37.3004751059717
30
0
0
SPLINE
5
197
100
AcDbEntity
8
1
62
256
6
ByLayer
370
18
48
1
60
0
100
AcDbSpline
70
4
71
2
72
6
73
3
40
0
40
0
40
0
40
1
40
1
40
1
41
1
10
61.9275761426598
20
33.8136285801037
30
0
41
1
10
61.8264368297401
20
33.7274671894445
30
0
41
1
10
61.7210415039518
20
33.6467349801955
30
0
0
SPLINE
5
198
100
AcDbEntity
8
1
62
256
6
ByLayer
370
18
48
1
60
0
100
AcDbSpline
70
4
71
1
72
4
73
2
40
0
40
0
40
1
40
1
41
1
10
65.3339498347164
20
49.2454124446355
30
0
41
1
10
65.765339167341
20
49.4423257788134
30
0
0
SPLINE
5
199
100
AcDbEntity
8
1
62
256
6
ByLayer
370
18
48
1
60
0
100
AcDbSpline
70
4
71
3
72
13
73
9
40
0
40
0
40
0
40
0
40
0.144384137961536
40
0.288755721797823
40
0.43673204025957
40
0.58468374866894
40
0.790246154830234
40
1
40
1
40
1
40
1
41
1
10
51.3342792915042
20
36.4719347404837
30
0
41
1
10
51.1158919635811
20
36.4957517624628
30
0
41
1
10
50.6829994829771
20
36.5413652622741
30
0
41
1
10
50.0380167992745
20
36.6044571745862
30
0
41
1
10
49.4036422807912
20
36.6614065133838
30
0
41
1
10
48.7058146045409
20
36.7180184072481
30
0
41
1
10
47.9621408398784
20
36.7697436272071
30
0
41
1
10
47.4716950207575
20
36.7957920466887
30
0
41
1
10
47.2368092675966
20
36.8060171877599
30
0
0
SPLINE
5
19A
100
AcDbEntity
8
1
62
256
6
ByLayer
370
18
48
1
60
0
100
AcDbSpline
70
4
71
3
72
17
73
13
40
0
40
0
40
0
40
0
40
0.102992230007423
40
0.20663592350091
40
0.311441121829308
40
0.418095913428566
40
0.527437102017469
40
0.615762333387614
40
0.706637562657417
40
0.800696512127445
40
0.898286281849839
40
1
40
1
40
1
40
1
41
1
10
46.1002587885722
20
40.9074494137863
30
0
41
1
10
45.8891121395082
20
40.7526055996349
30
0
41
1
10
45.5014005801597
20
40.4044478972557
30
0
41
1
10
45.0196770528431
20
39.7585782091995
30
0
41
1
10
44.6553037512094
20
39.0051916054996
30
0
41
1
10
44.4202781713638
20
38.1540161486185
30
0
41
1
10
44.3357665709197
20
37.2881053234714
30
0
41
1
10
44.3775265494766
20
36.4390320925804
30
0
41
1
10
44.5215075533772
20
35.6256576379485
30
0
41
1
10
44.7776868868651
20
34.7929810331415
30
0
41
1
10
45.1545658467431
20
33.9541461203792
30
0
41
1
10
45.4802771623655
20
33.421714694705
30
0
41
1
10
45.6653897110037
20
33.1580985183538
30
0
0
SPLINE
5
19B
100
AcDbEntity
8
1
62
256
6
ByLayer
370
18
48
1
60
0
100
AcDbSpline
70
4
71
1
72
4
73
2
40
0
40
0
40
1
40
1
41
1
10
41.289231853854
20
35.0734945210829
30
0
41
1
10
41.2141771043096
20
35.0244869981883
30
0
0
SPLINE
5
19C
100
AcDbEntity
8
1
62
256
6
ByLayer
370
18
48
1
60
0
100
AcDbSpline
70
4
71
3
72
22
73
18
40
0
40
0
40
0
40
0
40
0.0398593159879889
40
0.0886431353159067
40
0.145182137750539
40
0.20822248642583
40
0.276480167267102
40
0.348665814073606
40
0.423501122453942
40
0.51238874050003
40
0.600607238340983
40
0.685540260576635
40
0.764545249691686
40
0.835054174446872
40
0.896263553347476
40
0.951870103079891
40
1
40
1
40
1
40
1
41
1
10
54.5571486540498
20
43.2600366458761
30
0
41
1
10
54.7201180368793
20
43.3490760634711
30
0
41
1
10
55.0873049821412
20
43.5370267427733
30
0
41
1
10
55.7117023463185
20
43.7986286814446
30
0
41
1
10
56.4454777370734
20
44.0754558535013
30
0
41
1
10
57.2736443172981
20
44.3583157015836
30
0
41
1
10
58.1775477796915
20
44.6431136773521
30
0
41
1
10
59.1393783696111
20
44.9242073992011
30
0
41
1
10
60.197641322389
20
45.2118858056308
30
0
41
1
10
61.3305471955207
20
45.4960141073169
30
0
41
1
10
62.508812356593
20
45.7719671140083
30
0
41
1
10
63.6404407440198
20
46.0230019645047
30
0
41
1
10
64.6880146156922
20
46.2469350523403
30
0
41
1
10
65.6230913441509
20
46.4408578453538
30
0
41
1
10
66.4413315089327
20
46.616192751526
30
0
41
1
10
67.1438186832496
20
46.7888119590309
30
0
41
1
10
67.5533479768762
20
46.9361165791948
30
0
41
1
10
67.7380764549389
20
47.0106547649237
30
0
0
SPLINE
5
19D
100
AcDbEntity
8
1
62
256
6
ByLayer
370
18
48
1
60
0
100
AcDbSpline
70
4
71
1
72
4
73
2
40
0
40
0
40
1
40
1
41
1
10
50.562859082408
20
22.0374188327377
30
0
41
1
10
50.4878043328638
20
21.9884113098432
30
0
0
SPLINE
5
19E
100
AcDbEntity
8
1
62
256
6
ByLayer
370
18
48
1
60
0
100
AcDbSpline
70
4
71
2
72
6
73
3
40
0
40
0
40
0
40
1
40
1
40
1
41
1
10
33.6239734618989
20
50.0884091391585
30
0
41
1
10
33.7039997199221
20
50.3563263671108
30
0
41
1
10
33.8477722961771
20
50.6298953631239
30
0
0
SPLINE
5
19F
100
AcDbEntity
8
1
62
256
6
ByLayer
370
18
48
1
60
0
100
AcDbSpline
70
4
71
2
72
6
73
3
40
0
40
0
40
0
40
1
40
1
40
1
41
1
10
57.2711632433196
20
38.5771629779718
30
0
41
1
10
57.293370079625
20
38.6032366501288
30
0
41
1
10
57.3110668621457
20
38.6292778701918
30
0
0
SPLINE
5
1A0
100
AcDbEntity
8
1
62
256
6
ByLayer
370
18
48
1
60
0
100
AcDbSpline
70
4
71
1
72
4
73
2
40
0
40
0
40
1
40
1
41
1
10
55.8052028755423
20
42.0620886555776
30
0
41
1
10
55.6171262677376
20
41.9368828223232
30
0
0
SPLINE
5
1A1
100
AcDbEntity
8
1
62
256
6
ByLayer
370
18
48
1
60
0
100
AcDbSpline
70
4
71
3
72
13
73
9
40
0
40
0
40
0
40
0
40
0.108097845296603
40
0.261062704054105
40
0.501857223970366
40
0.690308849357437
40
0.879123452890369
40
1
40
1
40
1
40
1
41
1
10
47.2368092675983
20
36.8060171877599
30
0
41
1
10
47.2125645550461
20
36.8560880758526
30
0
41
1
10
47.1542409490598
20
36.973188643198
30
0
41
1
10
47.0371924214816
20
37.1850131631356
30
0
41
1
10
46.9211549232838
20
37.3863543351862
30
0
41
1
10
46.8165251138551
20
37.5523419087403
30
0
41
1
10
46.7427684599678
20
37.6552195054403
30
0
41
1
10
46.7004143304773
20
37.7057097585236
30
0
41
1
10
46.684525514573
20
37.7232320796793
30
0
0
SPLINE
5
1A2
100
AcDbEntity
8
1
62
256
6
ByLayer
370
18
48
1
60
0
100
AcDbSpline
70
4
71
3
72
11
73
7
40
0
40
0
40
0
40
0
40
0.250000000000001
40
0.499999999999999
40
0.75
40
1
40
1
40
1
40
1
41
1
10
50.2646759505058
20
26.6155569127377
30
0
41
1
10
50.4570866532551
20
26.3418503064189
30
0
41
1
10
50.7901941528726
20
25.7873202174563
30
0
41
1
10
51.1416115238033
20
24.9118536891206
30
0
41
1
10
51.3240914987952
20
24.0596780636449
30
0
41
1
10
51.3193242065348
20
23.551729780398
30
0
41
1
10
51.2864850480321
20
23.3090777112245
30
0
0
SPLINE
5
1A3
100
AcDbEntity
8
1
62
256
6
ByLayer
370
18
48
1
60
0
100
AcDbSpline
70
4
71
3
72
12
73
8
40
0
40
0
40
0
40
0
40
0.158767531158603
40
0.369075648368952
40
0.5793837655793
40
0.789691882789651
40
1
40
1
40
1
40
1
41
1
10
61.7210415365738
20
33.6467349204462
30
0
41
1
10
61.7804732887542
20
33.5378734714483
30
0
41
1
10
61.9120421564293
20
33.291692158794
30
0
41
1
10
62.0953842225372
20
32.9286870537042
30
0
41
1
10
62.2633640576112
20
32.5681582734485
30
0
41
1
10
62.3982423236551
20
32.245456244563
30
0
41
1
10
62.4648203405615
20
32.0586510372806
30
0
41
1
10
62.4923802351034
20
31.9720714996009
30
0
0
SPLINE
5
1A4
100
AcDbEntity
8
1
62
256
6
ByLayer
370
18
48
1
60
0
100
AcDbSpline
70
4
71
1
72
4
73
2
40
0
40
0
40
1
40
1
41
1
10
42.8580776001508
20
35.2986649827311
30
0
41
1
10
42.3502936798423
20
35.3724013743363
30
0
0
SPLINE
5
1A5
100
AcDbEntity
8
1
62
256
6
ByLayer
370
18
48
1
60
0
100
AcDbSpline
70
4
71
3
72
22
73
18
40
0
40
0
40
0
40
0
40
0.0398593159906951
40
0.0886431353209845
40
0.145182137757599
40
0.208222486434421
40
0.276480167276716
40
0.348665814083663
40
0.423501122463802
40
0.512388740508842
40
0.600607238348101
40
0.685540260581718
40
0.764545249694692
40
0.835054174448037
40
0.896263553347136
40
0.951870103079797
40
1
40
1
40
1
40
1
41
1
10
62.4923802351032
20
31.9720714996015
30
0
41
1
10
62.6316449758866
20
32.0948310639461
30
0
41
1
10
62.9333938924165
20
32.3758681491553
30
0
41
1
10
63.3913299090865
20
32.8742634151773
30
0
41
1
10
63.9006424653532
20
33.4703917477486
30
0
41
1
10
64.447734473208
20
34.1530836542116
30
0
41
1
10
65.0226711410119
20
34.9058409672655
30
0
41
1
10
65.6143166581638
20
35.713527537293
30
0
41
1
10
66.2457356709114
20
36.6083967318878
30
0
41
1
10
66.9004070964454
20
37.5728194548449
30
0
41
1
10
67.5640379578641
20
38.5808461228962
30
0
41
1
10
68.189305934218
20
39.5521849258217
30
0
41
1
10
68.7612394915336
20
40.4527222482511
30
0
41
1
10
69.2672802372886
20
41.2569540372171
30
0
41
1
10
69.7167750460771
20
41.9568337765863
30
0
41
1
10
70.1250177635682
20
42.5480193660653
30
0
41
1
10
70.4085017319557
20
42.8746250215673
30
0
41
1
10
70.5442967876015
20
43.0187716063799
30
0
0
SPLINE
5
1A6
100
AcDbEntity
8
1
62
256
6
ByLayer
370
18
48
1
60
0
100
AcDbSpline
70
4
71
1
72
4
73
2
40
0
40
0
40
1
40
1
41
1
10
41.3642866033983
20
35.1225020439775
30
0
41
1
10
41.2892318538539
20
35.0734945210829
30
0
0
SPLINE
5
1A7
100
AcDbEntity
8
1
62
256
6
ByLayer
370
18
48
1
60
0
100
AcDbSpline
70
4
71
3
72
13
73
9
40
0
40
0
40
0
40
0
40
0.110370609553678
40
0.291589189013796
40
0.472931792514703
40
0.657295776210516
40
0.841748782765051
40
1
40
1
40
1
40
1
41
1
10
59.7577990145505
20
32.271333355557
30
0
41
1
10
59.6423468576684
20
32.1907582225002
30
0
41
1
10
59.332037613123
20
31.99341965621
30
0
41
1
10
58.8003246838317
20
31.738092544558
30
0
41
1
10
58.1660533724326
20
31.5427443174223
30
0
41
1
10
57.5188270351394
20
31.4497073372866
30
0
41
1
10
56.8967535090791
20
31.4538499564394
30
0
41
1
10
56.4946542165512
20
31.5101723063743
30
0
41
1
10
56.3092149644458
20
31.5478191681654
30
0
0
SPLINE
5
1A8
100
AcDbEntity
8
1
62
256
6
ByLayer
370
18
48
1
60
0
100
AcDbSpline
70
4
71
1
72
4
73
2
40
0
40
0
40
1
40
1
41
1
10
62.4923802351032
20
31.9720714996015
30
0
41
1
10
63.1501217937988
20
29.9043687057867
30
0
0
SPLINE
5
1A9
100
AcDbEntity
8
1
62
256
6
ByLayer
370
18
48
1
60
0
100
AcDbSpline
70
4
71
2
72
6
73
3
40
0
40
0
40
0
40
1
40
1
40
1
41
1
10
58.3929766706567
20
38.7180644401628
30
0
41
1
10
58.4098376680717
20
38.694980724865
30
0
41
1
10
58.4321214970157
20
38.6724366324063
30
0
0
SPLINE
5
1AA
100
AcDbEntity
8
1
62
256
6
ByLayer
370
18
48
1
60
0
100
AcDbSpline
70
4
71
3
72
13
73
9
40
0
40
0
40
0
40
0
40
0.125260205652591
40
0.250547093653018
40
0.379805671657662
40
0.509084240437051
40
0.752371685079522
40
1
40
1
40
1
40
1
41
1
10
53.8708585763176
20
27.368999929903
30
0
41
1
10
53.9083759606186
20
27.5073694949679
30
0
41
1
10
53.9853435966804
20
27.7942606083657
30
0
41
1
10
54.1086246774538
20
28.2624960336914
30
0
41
1
10
54.2376236269163
20
28.761771619963
30
0
41
1
10
54.4103954525591
20
29.4425968832609
30
0
41
1
10
54.6289962169159
20
30.3260383524105
30
0
41
1
10
54.8011955547822
20
31.0459004372474
30
0
41
1
10
54.8883609378113
20
31.4162096062238
30
0
0
SPLINE
5
1AB
100
AcDbEntity
8
1
62
256
6
ByLayer
370
18
48
1
60
0
100
AcDbSpline
70
4
71
2
72
6
73
3
40
0
40
0
40
0
40
1
40
1
40
1
41
1
10
54.8883609378108
20
31.4162096062215
30
0
41
1
10
55.0542655939079
20
31.4853180394309
30
0
41
1
10
55.2239566070794
20
31.5256646105012
30
0
0
SPLINE
5
1AC
100
AcDbEntity
8
1
62
256
6
ByLayer
370
18
48
1
60
0
100
AcDbSpline
70
4
71
3
72
15
73
11
40
0
40
0
40
0
40
0
40
0.129891227445043
40
0.259933892712575
40
0.389915445294388
40
0.523443522624368
40
0.657086560106935
40
0.790662289483957
40
0.89525930704581
40
1
40
1
40
1
40
1
41
1
10
52.9647928532699
20
44.393125197601
30
0
41
1
10
53.3622568495395
20
44.6645962190344
30
0
41
1
10
54.1723429301261
20
45.1830417539432
30
0
41
1
10
55.4379517981708
20
45.8796446711857
30
0
41
1
10
56.7471431402967
20
46.5208776716613
30
0
41
1
10
58.100757201397
20
47.0994635203525
30
0
41
1
10
59.4984979701723
20
47.6039270861798
30
0
41
1
10
60.8168700309307
20
48.0084454427117
30
0
41
1
10
62.0465973524664
20
48.3347551502094
30
0
41
1
10
62.8045379251061
20
48.5043612922303
30
0
41
1
10
63.1855946877981
20
48.5821891781777
30
0
0
SPLINE
5
1AD
100
AcDbEntity
8
1
62
256
6
ByLayer
370
18
48
1
60
0
100
AcDbSpline
70
4
71
2
72
6
73
3
40
0
40
0
40
0
40
1
40
1
40
1
41
0.503842357056135
10
58.3066582687347
20
35.505474067384
30
0
41
0.496157642943865
10
58.3382686514066
20
35.5776079002772
30
0
41
0.503842357056135
10
58.3431274015676
20
35.6564771068952
30
0
0
SPLINE
5
1AE
100
AcDbEntity
8
1
62
256
6
ByLayer
370
18
48
1
60
0
100
AcDbSpline
70
4
71
2
72
6
73
3
40
0
40
0
40
0
40
1
40
1
40
1
41
0.500214989038488
10
56.7701613098609
20
38.1458636791858
30
0
41
0.499785010961512
10
56.8107876432491
20
38.1864900125742
30
0
41
0.500214989038488
10
56.8546766754312
20
38.2235743924437
30
0
0
SPLINE
5
1AF
100
AcDbEntity
8
1
62
256
6
ByLayer
370
18
48
1
60
0
100
AcDbSpline
70
4
71
2
72
6
73
3
40
0
40
0
40
0
40
1
40
1
40
1
41
0.50001419296425
10
56.4230662364125
20
36.7817941114711
30
0
41
0.49998580703575
10
56.4189236985318
20
36.7960860587338
30
0
41
0.50001419296425
10
56.4150857100913
20
36.8104597138014
30
0
0
SPLINE
5
1B0
100
AcDbEntity
8
1
62
256
6
ByLayer
370
18
48
1
60
0
100
AcDbSpline
70
4
71
2
72
6
73
3
40
0
40
0
40
0
40
1
40
1
40
1
41
0.500040050285467
10
27.5265889222113
20
32.0898536558841
30
0
41
0.499959949714533
10
27.5304977544149
20
32.0972825606678
30
0
41
0.500040050285467
10
27.5338238034001
20
32.1059776632861
30
0
0
SPLINE
5
1B1
100
AcDbEntity
8
1
62
256
6
ByLayer
370
18
48
1
60
0
100
AcDbSpline
70
4
71
2
72
6
73
3
40
0
40
0
40
0
40
1
40
1
40
1
41
0.500029413795637
10
56.7778325237448
20
25.3522105247131
30
0
41
0.499970586204363
10
56.842152411893
20
25.399664907145
30
0
41
0.500029413795637
10
56.9046059097953
20
25.4458826935806
30
0
0
SPLINE
5
1B2
100
AcDbEntity
8
1
62
256
6
ByLayer
370
18
48
1
60
0
100
AcDbSpline
70
4
71
2
72
6
73
3
40
0
40
0
40
0
40
1
40
1
40
1
41
0.500062080579818
10
58.9079470106579
20
36.3552014032478
30
0
41
0.499937919420182
10
58.8903789672813
20
36.3298115714734
30
0
41
0.500062080579818
10
58.8716885193929
20
36.3052420948425
30
0
0
LINE
5
70
100
AcDbEntity
8
1
62
256
6
ByLayer
370
18
48
1
60
0
100
AcDbLine
10
48.759277
20
41.473696
30
0
11
48.786105
21
41.478858
31
0
39
0
210
0
220
0
230
1
0
LINE
5
72
100
AcDbEntity
8
1
62
256
6
ByLayer
370
18
48
1
60
0
100
AcDbLine
10
64.043139
20
53.05061
30
0
11
63.712877
21
49.026203
31
0
39
0
210
0
220
0
230
1
0
LINE
5
73
100
AcDbEntity
8
1
62
256
6
ByLayer
370
18
48
1
60
0
100
AcDbLine
10
78.09992
20
38.960712
30
0
11
78.5441
21
39.404891
31
0
39
0
210
0
220
0
230
1
0
LINE
5
74
100
AcDbEntity
8
1
62
256
6
ByLayer
370
18
48
1
60
0
100
AcDbLine
10
63.568746
20
48.666165
30
0
11
63.932508
21
53.098789
31
0
39
0
210
0
220
0
230
1
0
LINE
5
75
100
AcDbEntity
8
1
62
256
6
ByLayer
370
18
48
1
60
0
100
AcDbLine
10
50.719883
20
35.921675
30
0
11
50.424379
21
35.669932
31
0
39
0
210
0
220
0
230
1
0
LINE
5
76
100
AcDbEntity
8
1
62
256
6
ByLayer
370
18
48
1
60
0
100
AcDbLine
10
52.964793
20
44.393125
30
0
11
48.786105
21
41.478858
31
0
39
0
210
0
220
0
230
1
0
LINE
5
77
100
AcDbEntity
8
1
62
256
6
ByLayer
370
18
48
1
60
0
100
AcDbLine
10
10.25
20
-12.13309
30
0
11
13.75
21
-12.13309
31
0
39
0
210
0
220
0
230
1
0
LINE
5
78
100
AcDbEntity
8
1
62
256
6
ByLayer
370
18
48
1
60
0
100
AcDbLine
10
30.920792
20
40
30
0
11
0
21
40
31
0
39
0
210
0
220
0
230
1
0
LINE
5
79
100
AcDbEntity
8
1
62
256
6
ByLayer
370
18
48
1
60
0
100
AcDbLine
10
49.195847
20
34.813972
30
0
11
52.645311
21
29.907066
31
0
39
0
210
0
220
0
230
1
0
LINE
5
7A
100
AcDbEntity
8
1
62
256
6
ByLayer
370
18
48
1
60
0
100
AcDbLine
10
30.197944
20
39.191836
30
0
11
30.1
21
30.227617
31
0
39
0
210
0
220
0
230
1
0
LINE
5
7B
100
AcDbEntity
8
1
62
256
6
ByLayer
370
18
48
1
60
0
100
AcDbLine
10
0
20
-40
30
0
11
30.920792
21
-40
31
0
39
0
210
0
220
0
230
1
0
LINE
5
7C
100
AcDbEntity
8
1
62
256
6
ByLayer
370
18
48
1
60
0
100
AcDbLine
10
47.438067
20
36.457805
30
0
11
53.612608
21
27.674443
31
0
39
0
210
0
220
0
230
1
0
LINE
5
7D
100
AcDbEntity
8
1
62
256
6
ByLayer
370
18
48
1
60
0
100
AcDbLine
10
10.25
20
12.13309
30
0
11
10.25
21
31.147498
31
0
39
0
210
0
220
0
230
1
0
LINE
5
7E
100
AcDbEntity
8
1
62
256
6
ByLayer
370
18
48
1
60
0
100
AcDbLine
10
24.464962
20
39.191836
30
0
11
24.464962
21
35.541906
31
0
39
0
210
0
220
0
230
1
0
LINE
5
7F
100
AcDbEntity
8
1
62
256
6
ByLayer
370
18
48
1
60
0
100
AcDbLine
10
58.343127
20
35.656477
30
0
11
58.556249
21
35.869598
31
0
39
0
210
0
220
0
230
1
0
LINE
5
80
100
AcDbEntity
8
1
62
256
6
ByLayer
370
18
48
1
60
0
100
AcDbLine
10
54.296898
20
40.76377
30
0
11
54.125813
21
40.592685
31
0
39
0
210
0
220
0
230
1
0
LINE
5
81
100
AcDbEntity
8
1
62
256
6
ByLayer
370
18
48
1
60
0
100
AcDbLine
10
50.264676
20
26.615557
30
0
11
45.66539
21
33.158099
31
0
39
0
210
0
220
0
230
1
0
LINE
5
82
100
AcDbEntity
8
1
62
256
6
ByLayer
370
18
48
1
60
0
100
AcDbLine
10
63.932508
20
53.098789
30
0
11
33.847772
21
50.629895
31
0
39
0
210
0
220
0
230
1
0
LINE
5
83
100
AcDbEntity
8
1
62
256
6
ByLayer
370
18
48
1
60
0
100
AcDbLine
10
32.048928
20
-39.497975
30
0
11
58.485524
21
1.842094
31
0
39
0
210
0
220
0
230
1
0
LINE
5
84
100
AcDbEntity
8
1
62
256
6
ByLayer
370
18
48
1
60
0
100
AcDbLine
10
20.45712
20
25.475591
30
0
11
20.480183
21
27.760274
31
0
39
0
210
0
220
0
230
1
0
LINE
5
85
100
AcDbEntity
8
1
62
256
6
ByLayer
370
18
48
1
60
0
100
AcDbLine
10
55.617126
20
41.936883
30
0
11
55.427182
21
41.775068
31
0
39
0
210
0
220
0
230
1
0
LINE
5
86
100
AcDbEntity
8
1
62
256
6
ByLayer
370
18
48
1
60
0
100
AcDbLine
10
13.75
20
12.13309
30
0
11
13.75
21
31.147498
31
0
39
0
210
0
220
0
230
1
0
LINE
5
87
100
AcDbEntity
8
1
62
256
6
ByLayer
370
18
48
1
60
0
100
AcDbLine
10
58.454956
20
38.354901
30
0
11
58.663576
21
38.563521
31
0
39
0
210
0
220
0
230
1
0
LINE
5
88
100
AcDbEntity
8
1
62
256
6
ByLayer
370
18
48
1
60
0
100
AcDbLine
10
63.932508
20
53.098789
30
0
11
64.043139
21
53.05061
31
0
39
0
210
0
220
0
230
1
0
LINE
5
89
100
AcDbEntity
8
1
62
256
6
ByLayer
370
18
48
1
60
0
100
AcDbLine
10
24.464962
20
30.774878
30
0
11
24.464962
21
-39.191836
31
0
39
0
210
0
220
0
230
1
0
LINE
5
8A
100
AcDbEntity
8
1
62
256
6
ByLayer
370
18
48
1
60
0
100
AcDbLine
10
58.777808
20
26.832118
30
0
11
59.436041
21
25.895774
31
0
39
0
210
0
220
0
230
1
0
LINE
5
8B
100
AcDbEntity
8
1
62
256
6
ByLayer
370
18
48
1
60
0
100
AcDbLine
10
24.464962
20
39.191836
30
0
11
30.197944
21
39.191836
31
0
39
0
210
0
220
0
230
1
0
LINE
5
8C
100
AcDbEntity
8
1
62
256
6
ByLayer
370
18
48
1
60
0
100
AcDbLine
10
10.25
20
38.115458
30
0
11
13.75
21
38.115458
31
0
39
0
210
0
220
0
230
1
0
LINE
5
8D
100
AcDbEntity
8
1
62
256
6
ByLayer
370
18
48
1
60
0
100
AcDbLine
10
50.424379
20
35.669932
30
0
11
49.195847
21
34.813972
31
0
39
0
210
0
220
0
230
1
0
LINE
5
8E
100
AcDbEntity
8
SK1
62
256
6
ByLayer
370
18
48
1
60
0
100
AcDbLine
10
0
20
29.5
30
0
11
-48
21
28.5
31
0
39
0
210
0
220
0
230
1
0
LINE
5
90
100
AcDbEntity
8
1
62
256
6
ByLayer
370
18
48
1
60
0
100
AcDbLine
10
73.90454
20
44.223588
30
0
11
73.996415
21
45.083871
31
0
39
0
210
0
220
0
230
1
0
LINE
5
91
100
AcDbEntity
8
SK1
62
256
6
ByLayer
370
18
48
1
60
0
100
AcDbLine
10
-48
20
-28.5
30
0
11
0
21
-29.5
31
0
39
0
210
0
220
0
230
1
0
LINE
5
92
100
AcDbEntity
8
1
62
256
6
ByLayer
370
18
48
1
60
0
100
AcDbLine
10
26.139736
20
35.958421
30
0
11
25.822536
21
36.090327
31
0
39
0
210
0
220
0
230
1
0
LINE
5
93
100
AcDbEntity
8
1
62
256
6
ByLayer
370
18
48
1
60
0
100
AcDbLine
10
47.937825
20
42.252128
30
0
11
48.575264
21
41.345363
31
0
39
0
210
0
220
0
230
1
0
LINE
5
94
100
AcDbEntity
8
1
62
256
6
ByLayer
370
18
48
1
60
0
100
AcDbLine
10
78.705733
20
54.996004
30
0
11
65.13737
21
53.882521
31
0
39
0
210
0
220
0
230
1
0
LINE
5
95
100
AcDbEntity
8
1
62
256
6
ByLayer
370
18
48
1
60
0
100
AcDbLine
10
51.624168
20
25.980471
30
0
11
45.449626
21
34.763833
31
0
39
0
210
0
220
0
230
1
0
LINE
5
96
100
AcDbEntity
8
1
62
256
6
ByLayer
370
18
48
1
60
0
100
AcDbLine
10
30.920792
20
-40
30
0
11
31.001177
21
-40.3
31
0
39
0
210
0
220
0
230
1
0
LINE
5
97
100
AcDbEntity
8
1
62
256
6
ByLayer
370
18
48
1
60
0
100
AcDbLine
10
53.612608
20
27.674443
30
0
11
51.624168
21
25.980471
31
0
39
0
210
0
220
0
230
1
0
LINE
5
98
100
AcDbEntity
8
1
62
256
6
ByLayer
370
18
48
1
60
0
100
AcDbLine
10
48.759277
20
41.473696
30
0
11
47.1795
21
40.371941
31
0
39
0
210
0
220
0
230
1
0
LINE
5
99
100
AcDbEntity
8
1
62
256
6
ByLayer
370
18
48
1
60
0
100
AcDbLine
10
59.337556
20
37.604776
30
0
11
59.128936
21
37.396157
31
0
39
0
210
0
220
0
230
1
0
LINE
5
9A
100
AcDbEntity
8
1
62
256
6
ByLayer
370
18
48
1
60
0
100
AcDbLine
10
54.593891
20
26.463569
30
0
11
62.49238
21
31.972071
31
0
39
0
210
0
220
0
230
1
0
LINE
5
9B
100
AcDbEntity
8
1
62
256
6
ByLayer
370
18
48
1
60
0
100
AcDbLine
10
69.799594
20
36.657841
30
0
11
69.816356
21
36.862086
31
0
39
0
210
0
220
0
230
1
0
LINE
5
9C
100
AcDbEntity
8
1
62
256
6
ByLayer
370
18
48
1
60
0
100
AcDbLine
10
47.438067
20
36.457805
30
0
11
45.449626
21
34.763833
31
0
39
0
210
0
220
0
230
1
0
LINE
5
9D
100
AcDbEntity
8
1
62
256
6
ByLayer
370
18
48
1
60
0
100
AcDbLine
10
13.75
20
32.565108
30
0
11
13.75
21
38.115458
31
0
39
0
210
0
220
0
230
1
0
LINE
5
9E
100
AcDbEntity
8
1
62
256
6
ByLayer
370
18
48
1
60
0
100
AcDbLine
10
59.152524
20
37.142272
30
0
11
59.361143
21
37.350891
31
0
39
0
210
0
220
0
230
1
0
LINE
5
9F
100
AcDbEntity
8
1
62
256
6
ByLayer
370
18
48
1
60
0
100
AcDbLine
10
47.888186
20
22.12758
30
0
11
40.432964
21
32.732726
31
0
39
0
210
0
220
0
230
1
0
LINE
5
A0
100
AcDbEntity
8
1
62
256
6
ByLayer
370
18
48
1
60
0
100
AcDbLine
10
69.437227
20
36.246051
30
0
11
69.799594
21
36.657841
31
0
39
0
210
0
220
0
230
1
0
LINE
5
A1
100
AcDbEntity
8
1
62
256
6
ByLayer
370
18
48
1
60
0
100
AcDbLine
10
78.882521
20
40.13737
30
0
11
79.996004
21
53.705733
31
0
39
0
210
0
220
0
230
1
0
LINE
5
A2
100
AcDbEntity
8
1
62
256
6
ByLayer
370
18
48
1
60
0
100
AcDbLine
10
13.75
20
12.13309
30
0
11
10.25
21
12.13309
31
0
39
0
210
0
220
0
230
1
0
LINE
5
A3
100
AcDbEntity
8
1
62
256
6
ByLayer
370
18
48
1
60
0
100
AcDbLine
10
25.752685
20
36.094986
30
0
11
19.047067
21
33.214908
31
0
39
0
210
0
220
0
230
1
0
LINE
5
A4
100
AcDbEntity
8
1
62
256
6
ByLayer
370
18
48
1
60
0
100
AcDbLine
10
70.785689
20
38.325894
30
0
11
78.100916
21
38.958422
31
0
39
0
210
0
220
0
230
1
0
LINE
5
A5
100
AcDbEntity
8
1
62
256
6
ByLayer
370
18
48
1
60
0
100
AcDbLine
10
57.063296
20
38.432194
30
0
11
56.854677
21
38.223574
31
0
39
0
210
0
220
0
230
1
0
LINE
5
A6
100
AcDbEntity
8
1
62
256
6
ByLayer
370
18
48
1
60
0
100
AcDbLine
10
78.100916
20
38.958422
30
0
11
78.052748
21
39.069188
31
0
39
0
210
0
220
0
230
1
0
LINE
5
A7
100
AcDbEntity
8
1
62
256
6
ByLayer
370
18
48
1
60
0
100
AcDbLine
10
59.34473
20
36.896944
30
0
11
59.557852
21
37.110065
31
0
39
0
210
0
220
0
230
1
0
LINE
5
A8
100
AcDbEntity
8
1
62
256
6
ByLayer
370
18
48
1
60
0
100
AcDbLine
10
71.247958
20
46.466943
30
0
11
73.937121
21
48.215129
31
0
39
0
210
0
220
0
230
1
0
LINE
5
A9
100
AcDbEntity
8
1
62
256
6
ByLayer
370
18
48
1
60
0
100
AcDbLine
10
64.06647
20
52.811621
30
0
11
63.729296
21
48.702983
31
0
39
0
210
0
220
0
230
1
0
LINE
5
AA
100
AcDbEntity
8
1
62
256
6
ByLayer
370
18
48
1
60
0
100
AcDbLine
10
20.480183
20
27.760274
30
0
11
20.480183
21
-38.26546
31
0
39
0
210
0
220
0
230
1
0
LINE
5
AB
100
AcDbEntity
8
1
62
256
6
ByLayer
370
18
48
1
60
0
100
AcDbLine
10
64.06647
20
52.811621
30
0
11
64.019687
21
52.764838
31
0
39
0
210
0
220
0
230
1
0
LINE
5
AC
100
AcDbEntity
8
1
62
256
6
ByLayer
370
18
48
1
60
0
100
AcDbLine
10
59.478935
20
37.875168
30
0
11
59.265814
21
37.662047
31
0
39
0
210
0
220
0
230
1
0
LINE
5
AD
100
AcDbEntity
8
1
62
256
6
ByLayer
370
18
48
1
60
0
100
AcDbLine
10
20.45712
20
25.475591
30
0
11
19.472258
21
32.604568
31
0
39
0
210
0
220
0
230
1
0
LINE
5
AE
100
AcDbEntity
8
1
62
256
6
ByLayer
370
18
48
1
60
0
100
AcDbLine
10
59.436041
20
25.895774
30
0
11
57.598474
21
24.551095
31
0
39
0
210
0
220
0
230
1
0
LINE
5
AF
100
AcDbEntity
8
1
62
256
6
ByLayer
370
18
48
1
60
0
100
AcDbLine
10
19.990521
20
28.853095
30
0
11
27.526589
21
32.089854
31
0
39
0
210
0
220
0
230
1
0
LINE
5
B0
100
AcDbEntity
8
1
62
256
6
ByLayer
370
18
48
1
60
0
100
AcDbLine
10
57.062544
20
38.368543
30
0
11
57.271163
21
38.577163
31
0
39
0
210
0
220
0
230
1
0
LINE
5
B1
100
AcDbEntity
8
1
62
256
6
ByLayer
370
18
48
1
60
0
100
AcDbLine
10
58.057795
20
38.727626
30
0
11
58.270916
21
38.940747
31
0
39
0
210
0
220
0
230
1
0
LINE
5
B2
100
AcDbEntity
8
1
62
256
6
ByLayer
370
18
48
1
60
0
100
AcDbLine
10
50.648783
20
35.843038
30
0
11
50.973609
21
36.11976
31
0
39
0
210
0
220
0
230
1
0
LINE
5
B3
100
AcDbEntity
8
1
62
256
6
ByLayer
370
18
48
1
60
0
100
AcDbLine
10
46.658659
20
37.751534
30
0
11
54.557149
21
43.260037
31
0
39
0
210
0
220
0
230
1
0
LINE
5
B4
100
AcDbEntity
8
1
62
256
6
ByLayer
370
18
48
1
60
0
100
AcDbLine
10
33.624428
20
50.090104
30
0
11
30.920792
21
40
31
0
39
0
210
0
220
0
230
1
0
LINE
5
B5
100
AcDbEntity
8
1
62
256
6
ByLayer
370
18
48
1
60
0
100
AcDbLine
10
56.447559
20
36.843079
30
0
11
56.46035
21
36.85587
31
0
39
0
210
0
220
0
230
1
0
LINE
5
B6
100
AcDbEntity
8
1
62
256
6
ByLayer
370
18
48
1
60
0
100
AcDbLine
10
53.836218
20
40.694856
30
0
11
55.617126
21
41.936883
31
0
39
0
210
0
220
0
230
1
0
LINE
5
B7
100
AcDbEntity
8
1
62
256
6
ByLayer
370
18
48
1
60
0
100
AcDbLine
10
56.544913
20
38.21446
30
0
11
56.758034
21
38.427581
31
0
39
0
210
0
220
0
230
1
0
LINE
5
B8
100
AcDbEntity
8
1
62
256
6
ByLayer
370
18
48
1
60
0
100
AcDbLine
10
71.02217
20
49.314771
30
0
11
70.179435
21
49.522957
31
0
39
0
210
0
220
0
230
1
0
LINE
5
B9
100
AcDbEntity
8
1
62
256
6
ByLayer
370
18
48
1
60
0
100
AcDbLine
10
61.538707
20
33.513361
30
0
11
59.757799
21
32.271333
31
0
39
0
210
0
220
0
230
1
0
LINE
5
BA
100
AcDbEntity
8
1
62
256
6
ByLayer
370
18
48
1
60
0
100
AcDbLine
10
53.654056
20
40.53967
30
0
11
55.427182
21
41.775068
31
0
39
0
210
0
220
0
230
1
0
LINE
5
BB
100
AcDbEntity
8
1
62
256
6
ByLayer
370
18
48
1
60
0
100
AcDbLine
10
31.001177
20
-40.3
30
0
11
31.232913
21
-40.3
31
0
39
0
210
0
220
0
230
1
0
LINE
5
BC
100
AcDbEntity
8
1
62
256
6
ByLayer
370
18
48
1
60
0
100
AcDbLine
10
32.048928
20
-39.497975
30
0
11
31.001177
21
-39.497975
31
0
39
0
210
0
220
0
230
1
0
LINE
5
BD
100
AcDbEntity
8
1
62
256
6
ByLayer
370
18
48
1
60
0
100
AcDbLine
10
13.75
20
-38.115458
30
0
11
13.75
21
-12.13309
31
0
39
0
210
0
220
0
230
1
0
LINE
5
BE
100
AcDbEntity
8
1
62
256
6
ByLayer
370
18
48
1
60
0
100
AcDbLine
10
58.761714
20
38.396381
30
0
11
58.974835
21
38.609502
31
0
39
0
210
0
220
0
230
1
0
LINE
5
BF
100
AcDbEntity
8
1
62
256
6
ByLayer
370
18
48
1
60
0
100
AcDbLine
10
56.444736
20
36.84011
30
0
11
56.467529
21
36.862903
31
0
39
0
210
0
220
0
230
1
0
LINE
5
C0
100
AcDbEntity
8
1
62
256
6
ByLayer
370
18
48
1
60
0
100
AcDbLine
10
63.150122
20
29.904369
30
0
11
58.971434
21
26.990101
31
0
39
0
210
0
220
0
230
1
0
LINE
5
C1
100
AcDbEntity
8
1
62
256
6
ByLayer
370
18
48
1
60
0
100
AcDbLine
10
58.432121
20
38.672437
30
0
11
58.223502
21
38.463817
31
0
39
0
210
0
220
0
230
1
0
LINE
5
C2
100
AcDbEntity
8
1
62
256
6
ByLayer
370
18
48
1
60
0
100
AcDbLine
10
13.75
20
-38.115458
30
0
11
10.25
21
-38.115458
31
0
39
0
210
0
220
0
230
1
0
LINE
5
C3
100
AcDbEntity
8
1
62
256
6
ByLayer
370
18
48
1
60
0
100
AcDbLine
10
58.958194
20
26.96561
30
0
11
56.904606
21
25.445883
31
0
39
0
210
0
220
0
230
1
0
LINE
5
C4
100
AcDbEntity
8
1
62
256
6
ByLayer
370
18
48
1
60
0
100
AcDbLine
10
56.254408
20
36.649782
30
0
11
56.444736
21
36.84011
31
0
39
0
210
0
220
0
230
1
0
LINE
5
C5
100
AcDbEntity
8
1
62
256
6
ByLayer
370
18
48
1
60
0
100
AcDbLine
10
64.404891
20
53.5441
30
0
11
63.951367
21
53.090576
31
0
39
0
210
0
220
0
230
1
0
LINE
5
C6
100
AcDbEntity
8
1
62
256
6
ByLayer
370
18
48
1
60
0
100
AcDbLine
10
10.25
20
-38.115458
30
0
11
10.25
21
-12.13309
31
0
39
0
210
0
220
0
230
1
0
LINE
5
C7
100
AcDbEntity
8
1
62
256
6
ByLayer
370
18
48
1
60
0
100
AcDbLine
10
58.958194
20
26.96561
30
0
11
58.971434
21
26.990101
31
0
39
0
210
0
220
0
230
1
0
LINE
5
C8
100
AcDbEntity
8
1
62
256
6
ByLayer
370
18
48
1
60
0
100
AcDbLine
10
58.457678
20
35.943285
30
0
11
58.666298
21
36.151905
31
0
39
0
210
0
220
0
230
1
0
LINE
5
C9
100
AcDbEntity
8
1
62
256
6
ByLayer
370
18
48
1
60
0
100
AcDbLine
10
57.378418
20
25.863855
30
0
11
56.777833
21
25.352211
31
0
39
0
210
0
220
0
230
1
0
LINE
5
CA
100
AcDbEntity
8
1
62
256
6
ByLayer
370
18
48
1
60
0
100
AcDbLine
10
30.920792
20
-39.191836
30
0
11
24.464962
21
-39.191836
31
0
39
0
210
0
220
0
230
1
0
LINE
5
CB
100
AcDbEntity
8
1
62
256
6
ByLayer
370
18
48
1
60
0
100
AcDbLine
10
10.25
20
32.565108
30
0
11
10.25
21
38.115458
31
0
39
0
210
0
220
0
230
1
0
LINE
5
CC
100
AcDbEntity
8
1
62
256
6
ByLayer
370
18
48
1
60
0
100
AcDbLine
10
46.921201
20
40.173202
30
0
11
46.229127
21
39.583618
31
0
39
0
210
0
220
0
230
1
0
LINE
5
CD
100
AcDbEntity
8
1
62
256
6
ByLayer
370
18
48
1
60
0
100
AcDbLine
10
57.378418
20
25.863855
30
0
11
58.958194
21
26.96561
31
0
39
0
210
0
220
0
230
1
0
LINE
5
CE
100
AcDbEntity
8
1
62
256
6
ByLayer
370
18
48
1
60
0
100
AcDbLine
10
53.836218
20
40.694856
30
0
11
53.654056
21
40.53967
31
0
39
0
210
0
220
0
230
1
0
LINE
5
CF
100
AcDbEntity
8
1
62
256
6
ByLayer
370
18
48
1
60
0
100
AcDbLine
10
47.937825
20
42.252128
30
0
11
46.100259
21
40.907449
31
0
39
0
210
0
220
0
230
1
0
LINE
5
D0
100
AcDbEntity
8
1
62
256
6
ByLayer
370
18
48
1
60
0
100
AcDbLine
10
61.196881
20
33.521617
30
0
11
61.367966
21
33.692702
31
0
39
0
210
0
220
0
230
1
0
LINE
5
D1
100
AcDbEntity
8
1
62
256
6
ByLayer
370
18
48
1
60
0
100
AcDbLine
10
27.533824
20
32.105978
30
0
11
27.656559
21
32.426838
31
0
39
0
210
0
220
0
230
1
0
LINE
5
D2
100
AcDbEntity
8
1
62
256
6
ByLayer
370
18
48
1
60
0
100
AcDbLine
10
30.1
20
30.227617
30
0
11
58.485524
21
1.842094
31
0
39
0
210
0
220
0
230
1
0
LINE
5
D3
100
AcDbEntity
8
1
62
256
6
ByLayer
370
18
48
1
60
0
100
AcDbLine
10
77.523138
20
31.917907
30
0
11
58.485524
21
1.842094
31
0
39
0
210
0
220
0
230
1
0
LINE
5
D4
100
AcDbEntity
8
1
62
256
6
ByLayer
370
18
48
1
60
0
100
AcDbLine
10
77.523138
20
31.917907
30
0
11
78.100916
21
38.958422
31
0
39
0
210
0
220
0
230
1
0
LINE
5
D5
100
AcDbEntity
8
1
62
256
6
ByLayer
370
18
48
1
60
0
100
AcDbLine
10
0
20
40
30
0
11
0
21
-40
31
0
39
0
210
0
220
0
230
1
0
LINE
5
D6
100
AcDbEntity
8
1
62
256
6
ByLayer
370
18
48
1
60
0
100
AcDbLine
10
30.920792
20
39.391491
30
0
11
30.920792
21
40
31
0
39
0
210
0
220
0
230
1
0
LINE
5
D7
100
AcDbEntity
8
SK1
62
256
6
ByLayer
370
18
48
1
60
0
100
AcDbLine
10
-48
20
28.5
30
0
11
-48
21
-28.5
31
0
39
0
210
0
220
0
230
1
0
LINE
5
D8
100
AcDbEntity
8
1
62
256
6
ByLayer
370
18
48
1
60
0
100
AcDbLine
10
31.001177
20
-39.497975
30
0
11
31.001177
21
-40.3
31
0
39
0
210
0
220
0
230
1
0
LINE
5
D9
100
AcDbEntity
8
1
62
256
6
ByLayer
370
18
48
1
60
0
100
AcDbLine
10
30.920792
20
-40
30
0
11
30.920792
21
-39.191836
31
0
39
0
210
0
220
0
230
1
0
LINE
5
DA
100
AcDbEntity
8
4
62
256
6
ByLayer
370
13
48
0.05
60
0
100
AcDbLine
10
0
20
0
30
0
11
79.7441
21
0
31
0
39
0
210
0
220
0
230
1
0
LINE
5
DC
100
AcDbEntity
8
SK4
62
256
6
ByLayer
370
13
48
0.05
60
0
100
AcDbLine
10
103.692268
20
0
30
0
11
-55.1748
21
0
31
0
39
0
210
0
220
0
230
1
0
LINE
5
DE
100
AcDbEntity
8
80
62
256
6
ByLayer
370
18
48
1
60
0
100
AcDbLine
10
0
20
0
30
0
11
-18
21
0
31
0
39
0
210
0
220
0
230
1
0
LINE
5
DF
100
AcDbEntity
8
81
62
256
6
ByLayer
370
18
48
1
60
0
100
AcDbLine
10
98
20
55
30
0
11
80
21
55
31
0
39
0
210
0
220
0
230
1
0
MTEXT
5
1B3
100
AcDbEntity
8
SK6
62
256
6
ByLayer
370
18
48
1
60
0
100
AcDbMText
10
-17.466867
20
-76.254892
30
0
210
0
220
0
230
1
1
\W0.7177;C8-DCLNR-55080-16
40
4.5
41
0
44
1.084337
50
0
71
7
72
5
7
iso_b_vert
0
DIMENSION
5
1C5
100
AcDbEntity
8
SK2
62
256
6
ByLayer
370
13
48
1
60
0
100
AcDbDimension
2
DimnDraft3D1
10
40
20
62.039481
30
0
11
-6.069737
21
62.039481
31
0
70
32
71
5
72
1
41
1
210
0
220
0
230
1
3
Standard
100
AcDbAlignedDimension
13
-40
23
2
33
0
14
40
24
2
34
0
50
0
100
AcDbRotatedDimension
1001
ACAD
1000
DSTYLE
1002
{
1070
   279
1070
     0
1070
   172
1070
     1
1070
   173
1070
     1
1070
   340
1005
1B4
1070
    77
1070
     1
1070
    73
1070
     0
1070
   171
1070
     3
1070
   274
1070
     4
1070
   177
1070
     7
1070
   176
1070
     7
1070
   178
1070
     7
1070
    78
1070
     8
1070
    41
1041
3.175
1070
   147
1041
1.75
1070
    42
1041
2.0
1070
    44
1041
2.0
1070
   140
1041
3.5
1070
   343
1005
1C6
1070
   344
1005
1C6
1002
}
0
DIMENSION
5
1DB
100
AcDbEntity
8
2
62
256
6
ByLayer
370
13
48
1
60
0
100
AcDbDimension
2
DimnDraft3D2
10
55
20
-98.593663
30
0
11
25.455263
21
-98.593663
31
0
70
32
71
5
72
1
41
1
210
0
220
0
230
1
3
Standard
100
AcDbAlignedDimension
13
0
23
-81.7441
33
0
14
55
24
-82
34
0
50
0
100
AcDbRotatedDimension
1001
ACAD
1000
DSTYLE
1002
{
1070
   279
1070
     0
1070
   172
1070
     1
1070
   173
1070
     1
1070
   340
1005
1B4
1070
    77
1070
     1
1070
    73
1070
     0
1070
   171
1070
     3
1070
   274
1070
     4
1070
   177
1070
     7
1070
   176
1070
     7
1070
   178
1070
     7
1070
    78
1070
     8
1070
    41
1041
3.175
1070
   147
1041
1.75
1070
    42
1041
2.0
1070
    44
1041
2.0
1070
   140
1041
3.5
1070
   343
1005
1C6
1070
   344
1005
1C6
1002
}
0
DIMENSION
5
1E9
100
AcDbEntity
8
2
62
256
6
ByLayer
370
13
48
1
60
0
100
AcDbDimension
2
DimnDraft3D3
10
-81.054623
20
0
30
0
11
-81.054623
21
37.955263
31
0
70
32
71
5
72
1
41
1
210
0
220
0
230
1
3
Standard
100
AcDbAlignedDimension
13
-57
23
80
33
0
14
-42
24
0
34
0
50
90
100
AcDbRotatedDimension
1001
ACAD
1000
DSTYLE
1002
{
1070
    74
1070
     0
1070
   279
1070
     0
1070
   172
1070
     1
1070
   173
1070
     1
1070
   340
1005
1B4
1070
    77
1070
     1
1070
    73
1070
     0
1070
   171
1070
     3
1070
   274
1070
     4
1070
   177
1070
     7
1070
   176
1070
     7
1070
   178
1070
     7
1070
    78
1070
     8
1070
    41
1041
3.175
1070
   147
1041
1.75
1070
    42
1041
2.0
1070
    44
1041
2.0
1070
   140
1041
3.5
1070
   343
1005
1C6
1070
   344
1005
1C6
1002
}
0
DIMENSION
5
1F6
100
AcDbEntity
8
2
62
256
6
ByLayer
370
13
48
1
60
0
100
AcDbDimension
2
DimnDraft3D4
10
65.13737
20
53.882521
30
0
11
67.342281
21
66.763736
31
0
70
34
71
5
72
1
41
1
210
0
220
0
230
1
3
Standard
100
AcDb2LineAngularDimension
13
80
23
55
33
0
14
80
24
56
34
0
15
78.705733
25
54.996004
35
0
16
69.916375
26
64.39223
36
0
40
0
0
ENDSEC
0
SECTION
2
OBJECTS
0
DICTIONARY
5
261
330
0
100
AcDbDictionary
280
0
281
1
3
ACAD_GROUP
350
262
3
ACAD_MLINESTYLE
350
263
0
DICTIONARY
5
262
330
0
100
AcDbDictionary
280
0
281
1
0
DICTIONARY
5
263
330
0
100
AcDbDictionary
280
0
281
1
3
Standard
350
18
0
MLINESTYLE
5
18
330
263
100
AcDbMlineStyle
2
Standard
70
0
3

62
256
51
90
52
90
71
2
49
-0.5
62
256
6
ByLayer
49
0.5
62
256
6
ByLayer
0
RASTERVARIABLES
5
24f
330

100
AcDbRasterVariables
90
0
70
1
71
1
72
1
0
ENDSEC
0
EOF
