0
SECTION
2
HEADER
9
$ACADVER
1
AC1015
9
$DWGCODEPAGE
3
ANSI_1252
9
$HANDSEED
5
1a2
9
$ANGBASE
50
0
9
$ANGDIR
70
0
9
$ATTMODE
70
1
9
$AUNITS
70
0
9
$AUPREC
70
0
9
$CECOLOR
62
256
9
$CELTSCALE
40
1
9
$CELTYPE
6
ByLayer
9
$CELWEIGHT
370
18
9
$CLAYER
8
0
9
$CMLJUST
70
0
9
$CMLSCALE
40
1
9
$CMLSTYLE
2
Standard
9
$DIMSTYLE
2
Standard
9
$TEXTSIZE
40
0.2
9
$TEXTSTYLE
7
Standard
9
$LUNITS
70
2
9
$LUPREC
70
4
9
$EXTNAMES
290
1
9
$INSUNITS
70
4
9
$LTSCALE
40
1
9
$LWDISPLAY
290
1
9
$PDMODE
70
0
9
$PDSIZE
40
0
9
$PLINEGEN
70
0
0
ENDSEC
0
SECTION
2
CLASSES
0
CLASS
1
RASTERVARIABLES
2
AcDbRasterVariables
3
ISM
90
0
280
0
281
0
0
ENDSEC
0
SECTION
2
TABLES
0
TABLE
2
VPORT
5
198
100
AcDbSymbolTable
0
VPORT
5
1
100
AcDbSymbolTableRecord
100
AcDbViewportTableRecord
2
*Active
70
0
10
0
20
0
11
1
21
1
12
-1
22
1
13
0
23
0
14
0.5
24
0.5
15
10
25
10
16
0
26
0
36
1
17
0
27
0
37
0
0
ENDTAB
0
TABLE
2
LTYPE
5
199
100
AcDbSymbolTable
0
LTYPE
5
14
100
AcDbSymbolTableRecord
100
AcDbLinetypeTableRecord
70
0
2
ByBlock
3

72
65
73
0
40
0
0
LTYPE
5
15
100
AcDbSymbolTableRecord
100
AcDbLinetypeTableRecord
70
0
2
ByLayer
3

72
65
73
0
40
0
0
LTYPE
5
16
100
AcDbSymbolTableRecord
100
AcDbLinetypeTableRecord
70
0
2
CONTINUOUS
3
Solid line
72
65
73
0
40
0
0
LTYPE
5
6A
100
AcDbSymbolTableRecord
100
AcDbLinetypeTableRecord
70
0
2
CENTER
3
____ _ ____ _ ____ _ ____
72
65
73
4
40
47.5
49
22
74
0
49
-8.5
74
0
49
8.5
74
0
49
-8.5
74
0
0
LTYPE
5
6B
100
AcDbSymbolTableRecord
100
AcDbLinetypeTableRecord
70
0
2
DASHED
3
__ __ __ __ __ __ __ __ __
72
65
73
2
40
25.72
49
12.86
74
0
49
-12.86
74
0
0
ENDTAB
0
TABLE
2
LAYER
5
19a
100
AcDbSymbolTable
0
LAYER
5
10
100
AcDbSymbolTableRecord
100
AcDbLayerTableRecord
2
0
70
0
62
7
6
CONTINUOUS
290
1
370
-3
390
0
0
LAYER
5
6D
100
AcDbSymbolTableRecord
100
AcDbLayerTableRecord
2
81
70
0
62
-3
6
CONTINUOUS
290
1
370
-3
390
0
0
LAYER
5
6F
100
AcDbSymbolTableRecord
100
AcDbLayerTableRecord
2
80
70
0
62
-6
6
CONTINUOUS
290
1
370
-3
390
0
0
LAYER
5
71
100
AcDbSymbolTableRecord
100
AcDbLayerTableRecord
2
1
70
0
62
4
6
CONTINUOUS
290
1
370
-3
390
0
0
LAYER
5
B3
100
AcDbSymbolTableRecord
100
AcDbLayerTableRecord
2
4
70
0
62
-2
6
CENTER
290
1
370
-3
390
0
0
LAYER
5
11E
100
AcDbSymbolTableRecord
100
AcDbLayerTableRecord
2
2
70
0
62
7
6
CONTINUOUS
290
1
370
-3
390
0
0
LAYER
5
184
100
AcDbSymbolTableRecord
100
AcDbLayerTableRecord
2
SK1
70
0
62
4
6
CONTINUOUS
290
1
370
-3
390
0
0
LAYER
5
185
100
AcDbSymbolTableRecord
100
AcDbLayerTableRecord
2
SK4
70
0
62
2
6
CENTER
290
1
370
-3
390
0
0
LAYER
5
186
100
AcDbSymbolTableRecord
100
AcDbLayerTableRecord
2
SK6
70
0
62
5
6
CONTINUOUS
290
1
370
-3
390
0
0
LAYER
5
187
100
AcDbSymbolTableRecord
100
AcDbLayerTableRecord
2
SK2
70
0
62
7
6
CONTINUOUS
290
1
370
-3
390
0
0
ENDTAB
0
TABLE
2
STYLE
5
19b
100
AcDbSymbolTable
0
STYLE
5
11
100
AcDbSymbolTableRecord
100
AcDbTextStyleTableRecord
2
Standard
3
txt
70
0
71
0
40
0
41
1
42
0
50
0
0
STYLE
5
E7
100
AcDbSymbolTableRecord
100
AcDbTextStyleTableRecord
2
iso_b_vert
3
simplex.shx
70
0
71
0
40
0
41
1
42
0
50
0
0
STYLE
5
E8
100
AcDbSymbolTableRecord
100
AcDbTextStyleTableRecord
2
DWGDirectTextStyle
3
simplex
70
0
71
0
40
0
41
1
42
0
50
0
0
ENDTAB
0
TABLE
2
DIMSTYLE
5
19c
100
AcDbSymbolTable
100
AcDbDimStyleTable
0
DIMSTYLE
105
27
100
AcDbSymbolTableRecord
100
AcDbDimStyleTableRecord
2
Standard
70
0
3
<>
41
0.18
42
0.0625
44
0.18
140
0.18
147
0.09
73
0
74
0
77
1
271
2
275
0
278
52
280
0
340
11
0
ENDTAB
0
TABLE
2
VIEW
5
19d
100
AcDbSymbolTable
0
ENDTAB
0
TABLE
2
UCS
5
19e
100
AcDbSymbolTable
0
ENDTAB
0
TABLE
2
APPID
5
19f
100
AcDbSymbolTable
0
APPID
5
12
100
AcDbSymbolTableRecord
100
AcDbRegAppTableRecord
2
ACAD
70
0
0
ENDTAB
0
TABLE
2
BLOCK_RECORD
5
1a0
100
AcDbSymbolTable
0
BLOCK_RECORD
5
1F
100
AcDbSymbolTableRecord
100
AcDbBlockTableRecord
2
*Model_Space
340
0
70
0
0
BLOCK_RECORD
5
1B
100
AcDbSymbolTableRecord
100
AcDbBlockTableRecord
2
*Paper_Space
340
0
70
0
0
BLOCK_RECORD
5
23
100
AcDbSymbolTableRecord
100
AcDbBlockTableRecord
2
*Paper_Space0
340
0
70
0
0
BLOCK_RECORD
5
EA
100
AcDbSymbolTableRecord
100
AcDbBlockTableRecord
2
DimnDraft3D1
340
0
70
0
0
BLOCK_RECORD
5
F9
100
AcDbSymbolTableRecord
100
AcDbBlockTableRecord
2
_CLOSED
340
0
70
0
0
BLOCK_RECORD
5
100
100
AcDbSymbolTableRecord
100
AcDbBlockTableRecord
2
DimnDraft3D2
340
0
70
0
0
BLOCK_RECORD
5
10E
100
AcDbSymbolTableRecord
100
AcDbBlockTableRecord
2
DimnDraft3D3
340
0
70
0
0
BLOCK_RECORD
5
11C
100
AcDbSymbolTableRecord
100
AcDbBlockTableRecord
2
DimnDraft3D4
340
0
70
0
0
ENDTAB
0
ENDSEC
0
SECTION
2
BLOCKS
0
BLOCK
5
20
100
AcDbEntity
8
0
100
AcDbBlockBegin
2
*Model_Space
70
0
10
0
20
0
30
0
3
*Model_Space
0
ENDBLK
5
21
100
AcDbEntity
8
0
100
AcDbBlockEnd
0
BLOCK
5
1C
100
AcDbEntity
8
0
100
AcDbBlockBegin
2
*Paper_Space
70
0
10
0
20
0
30
0
3
*Paper_Space
0
ENDBLK
5
1D
100
AcDbEntity
8
0
100
AcDbBlockEnd
0
BLOCK
5
24
100
AcDbEntity
8
0
100
AcDbBlockBegin
2
*Paper_Space0
70
0
10
0
20
0
30
0
3
*Paper_Space0
0
ENDBLK
5
25
100
AcDbEntity
8
0
100
AcDbBlockEnd
0
BLOCK
5
F6
100
AcDbEntity
8
0
100
AcDbBlockBegin
2
DimnDraft3D1
70
0
10
0
20
0
30
0
3
DimnDraft3D1
0
MTEXT
5
EB
100
AcDbEntity
8
SK2
62
256
6
ByLayer
370
18
48
1
60
0
100
AcDbMText
10
-65.437753
20
-4.452632
30
0
210
0
220
0
230
1
1
\W1.2949;%%c80
40
3
41
0
44
1.084337
50
90
71
7
72
5
7
iso_b_vert
0
LINE
5
ED
100
AcDbEntity
8
SK2
62
256
6
ByLayer
370
13
48
1
60
0
100
AcDbLine
10
-1.7
20
-40
30
0
11
-65.937753
21
-40
31
0
39
0
210
0
220
0
230
1
0
LINE
5
EE
100
AcDbEntity
8
SK2
62
256
6
ByLayer
370
13
48
1
60
0
100
AcDbLine
10
-1.7
20
40
30
0
11
-65.937753
21
40
31
0
39
0
210
0
220
0
230
1
0
LINE
5
EF
100
AcDbEntity
8
SK2
62
256
6
ByLayer
370
13
48
1
60
0
100
AcDbLine
10
-63.937753
20
-40
30
0
11
-63.937753
21
40
31
0
39
0
210
0
220
0
230
1
0
LINE
5
F0
100
AcDbEntity
8
SK2
62
256
6
ByLayer
370
13
48
1
60
0
100
AcDbLine
10
-63.937753
20
-40
30
0
11
-64.35575
21
-36.825002
31
0
39
0
210
0
220
0
230
1
0
LINE
5
F1
100
AcDbEntity
8
SK2
62
256
6
ByLayer
370
13
48
1
60
0
100
AcDbLine
10
-63.937753
20
-40
30
0
11
-63.519757
21
-36.824998
31
0
39
0
210
0
220
0
230
1
0
LINE
5
F2
100
AcDbEntity
8
SK2
62
256
6
ByLayer
370
13
48
1
60
0
100
AcDbLine
10
-64.35575
20
-36.825002
30
0
11
-63.519757
21
-36.824998
31
0
39
0
210
0
220
0
230
1
0
LINE
5
F3
100
AcDbEntity
8
SK2
62
256
6
ByLayer
370
13
48
1
60
0
100
AcDbLine
10
-63.937753
20
40
30
0
11
-63.519757
21
36.825002
31
0
39
0
210
0
220
0
230
1
0
LINE
5
F4
100
AcDbEntity
8
SK2
62
256
6
ByLayer
370
13
48
1
60
0
100
AcDbLine
10
-63.937753
20
40
30
0
11
-64.35575
21
36.824998
31
0
39
0
210
0
220
0
230
1
0
LINE
5
F5
100
AcDbEntity
8
SK2
62
256
6
ByLayer
370
13
48
1
60
0
100
AcDbLine
10
-63.519757
20
36.825002
30
0
11
-64.35575
21
36.824998
31
0
39
0
210
0
220
0
230
1
0
ENDBLK
5
F7
100
AcDbEntity
8
0
100
AcDbBlockEnd
0
BLOCK
5
FA
100
AcDbEntity
8
0
100
AcDbBlockBegin
2
_CLOSED
70
0
10
0
20
0
30
0
3
_CLOSED
0
LINE
5
FC
100
AcDbEntity
8
0
62
256
6
ByLayer
370
-2
48
1
60
0
100
AcDbLine
10
-1
20
0.166667
30
0
11
0
21
0
31
0
39
0
210
0
220
0
230
1
0
LINE
5
FD
100
AcDbEntity
8
0
62
256
6
ByLayer
370
-2
48
1
60
0
100
AcDbLine
10
0
20
0
30
0
11
-1
21
-0.166667
31
0
39
0
210
0
220
0
230
1
0
LINE
5
FE
100
AcDbEntity
8
0
62
256
6
ByLayer
370
-2
48
1
60
0
100
AcDbLine
10
-1
20
0.166667
30
0
11
-1
21
-0.166667
31
0
39
0
210
0
220
0
230
1
0
LINE
5
FF
100
AcDbEntity
8
0
62
256
6
ByLayer
370
-2
48
1
60
0
100
AcDbLine
10
0
20
0
30
0
11
-1
21
0
31
0
39
0
210
0
220
0
230
1
0
ENDBLK
5
FB
100
AcDbEntity
8
0
100
AcDbBlockEnd
0
BLOCK
5
10B
100
AcDbEntity
8
0
100
AcDbBlockBegin
2
DimnDraft3D2
70
0
10
0
20
0
30
0
3
DimnDraft3D2
0
MTEXT
5
101
100
AcDbEntity
8
SK2
62
256
6
ByLayer
370
18
48
1
60
0
100
AcDbMText
10
151.664574
20
7.872224
30
0
210
0
220
0
230
1
1
\W0.5144;17
40
3
41
0
44
1.084337
50
90
71
7
72
5
7
iso_b_vert
0
LINE
5
102
100
AcDbEntity
8
SK2
62
256
6
ByLayer
370
13
48
1
60
0
100
AcDbLine
10
137.000289
20
16.999711
30
0
11
154.414574
21
16.999711
31
0
39
0
210
0
220
0
230
1
0
LINE
5
103
100
AcDbEntity
8
SK2
62
256
6
ByLayer
370
13
48
1
60
0
100
AcDbLine
10
141.391004
20
0
30
0
11
154.414574
21
0
31
0
39
0
210
0
220
0
230
1
0
LINE
5
104
100
AcDbEntity
8
SK2
62
256
6
ByLayer
370
13
48
1
60
0
100
AcDbLine
10
152.414574
20
16.999711
30
0
11
152.414574
21
0
31
0
39
0
210
0
220
0
230
1
0
LINE
5
105
100
AcDbEntity
8
SK2
62
256
6
ByLayer
370
13
48
1
60
0
100
AcDbLine
10
152.414574
20
16.999711
30
0
11
152.83257
21
13.824713
31
0
39
0
210
0
220
0
230
1
0
LINE
5
106
100
AcDbEntity
8
SK2
62
256
6
ByLayer
370
13
48
1
60
0
100
AcDbLine
10
152.414574
20
16.999711
30
0
11
151.996577
21
13.82471
31
0
39
0
210
0
220
0
230
1
0
LINE
5
107
100
AcDbEntity
8
SK2
62
256
6
ByLayer
370
13
48
1
60
0
100
AcDbLine
10
152.83257
20
13.824713
30
0
11
151.996577
21
13.82471
31
0
39
0
210
0
220
0
230
1
0
LINE
5
108
100
AcDbEntity
8
SK2
62
256
6
ByLayer
370
13
48
1
60
0
100
AcDbLine
10
152.414574
20
0
30
0
11
151.996577
21
3.174998
31
0
39
0
210
0
220
0
230
1
0
LINE
5
109
100
AcDbEntity
8
SK2
62
256
6
ByLayer
370
13
48
1
60
0
100
AcDbLine
10
152.414574
20
0
30
0
11
152.83257
21
3.175002
31
0
39
0
210
0
220
0
230
1
0
LINE
5
10A
100
AcDbEntity
8
SK2
62
256
6
ByLayer
370
13
48
1
60
0
100
AcDbLine
10
151.996577
20
3.174998
30
0
11
152.83257
21
3.175002
31
0
39
0
210
0
220
0
230
1
0
ENDBLK
5
10C
100
AcDbEntity
8
0
100
AcDbBlockEnd
0
BLOCK
5
119
100
AcDbEntity
8
0
100
AcDbBlockBegin
2
DimnDraft3D3
70
0
10
0
20
0
30
0
3
DimnDraft3D3
0
MTEXT
5
10F
100
AcDbEntity
8
SK2
62
256
6
ByLayer
370
18
48
1
60
0
100
AcDbMText
10
171.364741
20
18.072961
30
0
210
0
220
0
230
1
1
\W0.8425;45%%d0'
40
3
41
0
44
1.084337
50
112.5
71
7
72
5
7
iso_b_vert
0
LINE
5
110
100
AcDbEntity
8
SK2
62
256
6
ByLayer
370
13
48
1
60
0
100
AcDbLine
10
136.414502
20
18.413925
30
0
11
159.697449
21
41.696872
31
0
39
0
210
0
220
0
230
1
0
LINE
5
111
100
AcDbEntity
8
SK2
62
256
6
ByLayer
370
13
48
1
60
0
100
AcDbLine
10
141.391004
20
0
30
0
11
176.968859
21
0
31
0
39
0
210
0
220
0
230
1
0
ARC
5
112
100
AcDbEntity
8
SK2
62
256
6
ByLayer
370
13
48
1
60
0
100
AcDbCircle
39
0
10
118.000578
20
0
30
0
40
56.9682814280219
210
0
220
0
230
1
100
AcDbArc
50
0
51
45
0
LINE
5
113
100
AcDbEntity
8
SK2
62
256
6
ByLayer
370
13
48
1
60
0
100
AcDbLine
10
158.283236
20
40.282658
30
0
11
160.796466
21
38.297964
31
0
39
0
210
0
220
0
230
1
0
LINE
5
114
100
AcDbEntity
8
SK2
62
256
6
ByLayer
370
13
48
1
60
0
100
AcDbLine
10
158.283236
20
40.282658
30
0
11
160.197155
21
37.715116
31
0
39
0
210
0
220
0
230
1
0
LINE
5
115
100
AcDbEntity
8
SK2
62
256
6
ByLayer
370
13
48
1
60
0
100
AcDbLine
10
160.796466
20
38.297964
30
0
11
160.197155
21
37.715116
31
0
39
0
210
0
220
0
230
1
0
LINE
5
116
100
AcDbEntity
8
SK2
62
256
6
ByLayer
370
13
48
1
60
0
100
AcDbLine
10
174.968859
20
0
30
0
11
174.506678
21
3.168868
31
0
39
0
210
0
220
0
230
1
0
LINE
5
117
100
AcDbEntity
8
SK2
62
256
6
ByLayer
370
13
48
1
60
0
100
AcDbLine
10
174.968859
20
0
30
0
11
175.34259
21
3.180516
31
0
39
0
210
0
220
0
230
1
0
LINE
5
118
100
AcDbEntity
8
SK2
62
256
6
ByLayer
370
13
48
1
60
0
100
AcDbLine
10
174.506678
20
3.168868
30
0
11
175.34259
21
3.180516
31
0
39
0
210
0
220
0
230
1
0
ENDBLK
5
11A
100
AcDbEntity
8
0
100
AcDbBlockEnd
0
BLOCK
5
128
100
AcDbEntity
8
0
100
AcDbBlockBegin
2
DimnDraft3D4
70
0
10
0
20
0
30
0
3
DimnDraft3D4
0
MTEXT
5
11D
100
AcDbEntity
8
2
62
256
6
ByLayer
370
18
48
1
60
0
100
AcDbMText
10
65.711986
20
64.33907
30
0
210
0
220
0
230
1
1
\W0.6217;135
40
3
41
0
44
1.084337
50
0
71
7
72
5
7
iso_b_vert
0
LINE
5
11F
100
AcDbEntity
8
2
62
256
6
ByLayer
370
13
48
1
60
0
100
AcDbLine
10
0
20
41.7
30
0
11
0
21
65.58907
31
0
39
0
210
0
220
0
230
1
0
LINE
5
120
100
AcDbEntity
8
2
62
256
6
ByLayer
370
13
48
1
60
0
100
AcDbLine
10
135.000289
20
18.999711
30
0
11
135.000289
21
65.58907
31
0
39
0
210
0
220
0
230
1
0
LINE
5
121
100
AcDbEntity
8
2
62
256
6
ByLayer
370
13
48
1
60
0
100
AcDbLine
10
0
20
63.58907
30
0
11
135.000289
21
63.58907
31
0
39
0
210
0
220
0
230
1
0
LINE
5
122
100
AcDbEntity
8
2
62
256
6
ByLayer
370
13
48
1
60
0
100
AcDbLine
10
0
20
63.58907
30
0
11
3.174998
21
64.007067
31
0
39
0
210
0
220
0
230
1
0
LINE
5
123
100
AcDbEntity
8
2
62
256
6
ByLayer
370
13
48
1
60
0
100
AcDbLine
10
0
20
63.58907
30
0
11
3.175002
21
63.171073
31
0
39
0
210
0
220
0
230
1
0
LINE
5
124
100
AcDbEntity
8
2
62
256
6
ByLayer
370
13
48
1
60
0
100
AcDbLine
10
3.174998
20
64.007067
30
0
11
3.175002
21
63.171073
31
0
39
0
210
0
220
0
230
1
0
LINE
5
125
100
AcDbEntity
8
2
62
256
6
ByLayer
370
13
48
1
60
0
100
AcDbLine
10
135.000289
20
63.58907
30
0
11
131.82529
21
63.171073
31
0
39
0
210
0
220
0
230
1
0
LINE
5
126
100
AcDbEntity
8
2
62
256
6
ByLayer
370
13
48
1
60
0
100
AcDbLine
10
135.000289
20
63.58907
30
0
11
131.825287
21
64.007067
31
0
39
0
210
0
220
0
230
1
0
LINE
5
127
100
AcDbEntity
8
2
62
256
6
ByLayer
370
13
48
1
60
0
100
AcDbLine
10
131.82529
20
63.171073
30
0
11
131.825287
21
64.007067
31
0
39
0
210
0
220
0
230
1
0
ENDBLK
5
129
100
AcDbEntity
8
0
100
AcDbBlockEnd
0
ENDSEC
0
SECTION
2
ENTITIES
0
ARC
5
BB
100
AcDbEntity
8
SK1
62
256
6
ByLayer
370
18
48
1
60
0
100
AcDbCircle
39
0
10
-0.6
20
-29.6
30
0
40
1
210
0
220
0
230
1
100
AcDbArc
50
53.130102
51
66.421822
0
ARC
5
BC
100
AcDbEntity
8
SK1
62
256
6
ByLayer
370
18
48
1
60
0
100
AcDbCircle
39
0
10
-0.6
20
29.6
30
0
40
1
210
0
220
0
230
1
100
AcDbArc
50
293.578178
51
306.869898
0
ARC
5
BD
100
AcDbEntity
8
1
62
256
6
ByLayer
370
18
48
1
60
0
100
AcDbCircle
39
0
10
-60.400523
20
-34.972637
30
0
40
3.49729925561576
210
0
220
0
230
-1
100
AcDbArc
50
90
51
89.989383
0
ARC
5
BE
100
AcDbEntity
8
1
62
256
6
ByLayer
370
18
48
1
60
0
100
AcDbCircle
39
0
10
-89.038348
20
-6.334813
30
0
40
3.49729925561739
210
0
220
0
230
-1
100
AcDbArc
50
90
51
89.989383
0
ARC
5
BF
100
AcDbEntity
8
1
62
256
6
ByLayer
370
18
48
1
60
0
100
AcDbCircle
39
0
10
-117.676173
20
22.303012
30
0
40
3.49729925561615
210
0
220
0
230
-1
100
AcDbArc
50
90
51
89.989383
0
CIRCLE
5
B4
100
AcDbEntity
8
1
62
256
6
ByLayer
370
18
48
1
60
0
100
AcDbCircle
10
89.038348
20
-6.334813
30
0
40
4.9265
39
0
210
0
220
0
230
1
0
CIRCLE
5
B5
100
AcDbEntity
8
1
62
256
6
ByLayer
370
18
48
1
60
0
100
AcDbCircle
10
89.038348
20
-6.334813
30
0
40
6
39
0
210
0
220
0
230
1
0
CIRCLE
5
B6
100
AcDbEntity
8
1
62
256
6
ByLayer
370
18
48
1
60
0
100
AcDbCircle
10
20.010051
20
-0.031371
30
0
40
1.5
39
0
210
0
220
0
230
1
0
CIRCLE
5
B7
100
AcDbEntity
8
1
62
256
6
ByLayer
370
18
48
1
60
0
100
AcDbCircle
10
60.400523
20
-34.972637
30
0
40
4.9265
39
0
210
0
220
0
230
1
0
CIRCLE
5
B8
100
AcDbEntity
8
1
62
256
6
ByLayer
370
18
48
1
60
0
100
AcDbCircle
10
60.400523
20
-34.972637
30
0
40
6
39
0
210
0
220
0
230
1
0
CIRCLE
5
B9
100
AcDbEntity
8
1
62
256
6
ByLayer
370
18
48
1
60
0
100
AcDbCircle
10
117.676173
20
22.303012
30
0
40
4.9265
39
0
210
0
220
0
230
1
0
CIRCLE
5
BA
100
AcDbEntity
8
1
62
256
6
ByLayer
370
18
48
1
60
0
100
AcDbCircle
10
117.676173
20
22.303012
30
0
40
6
39
0
210
0
220
0
230
1
0
ELLIPSE
5
C0
100
AcDbEntity
8
1
62
256
6
ByLayer
370
18
48
1
60
0
100
AcDbEllipse
10
-6.763884
20
0
30
0
11
18.734835759565
21
-39.4834983055013
31
0
210
0
220
0
230
1
40
0.341999
41
0.161099005228938
42
1.08794676716928
0
ELLIPSE
5
C1
100
AcDbEntity
8
1
62
256
6
ByLayer
370
18
48
1
60
0
100
AcDbEllipse
10
30.763884
20
0
30
0
11
18.7348357595624
21
39.4834983054986
31
0
210
0
220
0
230
1
40
0.341999
41
2.05364588642046
42
2.98049364836084
0
ELLIPSE
5
C2
100
AcDbEntity
8
1
62
256
6
ByLayer
370
18
48
1
60
0
100
AcDbEllipse
10
-6.763884
20
0
30
0
11
18.7348357595632
21
39.4834983054991
31
0
210
0
220
0
230
1
40
0.341999
41
-1.08794676716932
42
-0.161099005228945
0
ELLIPSE
5
C3
100
AcDbEntity
8
1
62
256
6
ByLayer
370
18
48
1
60
0
100
AcDbEllipse
10
30.763884
20
0
30
0
11
18.7348357595628
21
-39.4834983054992
31
0
210
0
220
0
230
1
40
0.341999
41
-2.98049364836084
42
-2.05364588642047
0
POINT
5
6C
100
AcDbEntity
8
81
62
256
6
ByLayer
370
18
48
1
60
0
100
AcDbPoint
10
123.686583
20
28.313384
30
0
39
0
210
0
220
0
230
1
50
360
0
POINT
5
6E
100
AcDbEntity
8
80
62
256
6
ByLayer
370
18
48
1
60
0
100
AcDbPoint
10
0
20
0
30
0
39
0
210
0
220
0
230
1
50
360
0
SPLINE
5
C4
100
AcDbEntity
8
1
62
256
6
ByLayer
370
18
48
1
60
0
100
AcDbSpline
70
4
71
3
72
16
73
12
40
0
40
0
40
0
40
0
40
0.16802880027541
40
0.336051815140726
40
0.448333228404735
40
0.560623493395588
40
0.67289558057172
40
0.754595064166442
40
0.836293751890271
40
0.918147047189445
40
1
40
1
40
1
40
1
41
1
10
34.8485837570642
20
-42.1313152302583
30
0
41
1
10
34.3906154123975
20
-39.7964118612296
30
0
41
1
10
33.5226226431501
20
-35.1184484146792
30
0
41
1
10
32.4763911529101
20
-28.856805586062
30
0
41
1
10
31.6771673022617
20
-23.3556869594066
30
0
41
1
10
31.0859646297253
20
-18.6228692295801
30
0
41
1
10
30.6490321860338
20
-14.3082235392104
30
0
41
1
10
30.3454112711232
20
-10.4166869298909
30
0
41
1
10
30.1476501055752
20
-6.94966811854267
30
0
41
1
10
30.0271050996499
20
-3.47675157784089
30
0
41
1
10
30.0002186126794
20
-1.15915017191055
30
0
41
1
10
30
20
0
30
0
0
SPLINE
5
C5
100
AcDbEntity
8
1
62
256
6
ByLayer
370
18
48
1
60
0
100
AcDbSpline
70
4
71
3
72
17
73
13
40
0
40
0
40
0
40
0
40
0.0825843114127568
40
0.165184948568945
40
0.247772648146245
40
0.330804478436005
40
0.413847634728089
40
0.496884520268017
40
0.622587403469131
40
0.748294284900337
40
0.874146363138854
40
1
40
1
40
1
40
1
41
1
10
30
20
0
30
0
41
1
10
30.0006399107619
20
1.39065285449024
30
0
41
1
10
30.03949150109
20
4.17103970651443
30
0
41
1
10
30.2130113732524
20
8.33926624268005
30
0
41
1
10
30.4947263270092
20
12.5088122009734
30
0
41
1
10
30.8791507823053
20
16.6776293933688
30
0
41
1
10
31.3544888844838
20
20.8445683577378
30
0
41
1
10
32.0048353700403
20
25.713599549907
30
0
41
1
10
32.8660220875979
20
31.2781166009407
30
0
41
1
10
33.9628557055802
20
37.5340120488229
30
0
41
1
10
35.1580802350013
20
43.7743858814887
30
0
41
1
10
36.0031658192247
20
47.9265337896142
30
0
41
1
10
36.4391519873179
20
50
30
0
0
SPLINE
5
C6
100
AcDbEntity
8
1
62
256
6
ByLayer
370
18
48
1
60
0
100
AcDbSpline
70
4
71
3
72
13
73
9
40
0
40
0
40
0
40
0
40
0.256222331489472
40
0.595816960347169
40
0.756721547742888
40
0.892572489753424
40
0.999730652645833
40
1
40
1
40
1
40
1
41
1
10
13.8943375672974
20
-37.9445010117191
30
0
41
1
10
13.8795666910705
20
-37.9643151482468
30
0
41
1
10
13.8329277424199
20
-38.0081948789908
30
0
41
1
10
13.7467570243877
20
-38.0609637527947
30
0
41
1
10
13.6370470144323
20
-38.0963895308808
30
0
41
1
10
13.548928478308
20
-38.1121103029997
30
0
41
1
10
13.4880893034245
20
-38.1154544345317
30
0
41
1
10
13.4613918068659
20
-38.1154578593283
30
0
41
1
10
13.4613248654052
20
-38.1154578595254
30
0
0
SPLINE
5
C7
100
AcDbEntity
8
1
62
256
6
ByLayer
370
18
48
1
60
0
100
AcDbSpline
70
4
71
3
72
12
73
8
40
0
40
0
40
0
40
0
40
0.107090927408437
40
0.242566900788599
40
0.455432315408083
40
0.863255751650885
40
1
40
1
40
1
40
1
41
1
10
10.5386751345948
20
-38.1154578595255
30
0
41
1
10
10.5111569501375
20
-38.1152151562848
30
0
41
1
10
10.4519692068692
20
-38.1122888019998
30
0
41
1
10
10.3518152424398
20
-38.0944005955985
30
0
41
1
10
10.2275950958679
20
-38.0503633413166
30
0
41
1
10
10.1522095131338
20
-37.9957326993062
30
0
41
1
10
10.1138798044165
20
-37.9549695995298
30
0
41
1
10
10.1056624327026
20
-37.9445010117191
30
0
0
SPLINE
5
C8
100
AcDbEntity
8
1
62
256
6
ByLayer
370
18
48
1
60
0
100
AcDbSpline
70
4
71
3
72
13
73
9
40
0
40
0
40
0
40
0
40
0.256222331489357
40
0.59581696034712
40
0.756721547742844
40
0.892572489753384
40
0.999730652645795
40
1
40
1
40
1
40
1
41
1
10
10.1056624327026
20
-12.6576002058704
30
0
41
1
10
10.1204333089295
20
-12.598133733535
30
0
41
1
10
10.1670722575799
20
-12.4656679136691
30
0
41
1
10
10.253242975613
20
-12.3032744555839
30
0
41
1
10
10.3629529855664
20
-12.1928955703815
30
0
41
1
10
10.4510715216954
20
-12.1436124753755
30
0
41
1
10
10.5119106965696
20
-12.1331007202272
30
0
41
1
10
10.5386081931341
20
-12.133089968106
30
0
41
1
10
10.5386751345948
20
-12.1330899674706
30
0
0
SPLINE
5
C9
100
AcDbEntity
8
1
62
256
6
ByLayer
370
18
48
1
60
0
100
AcDbSpline
70
4
71
3
72
12
73
8
40
0
40
0
40
0
40
0
40
0.107090927408434
40
0.242566900788592
40
0.455432315408085
40
0.863255751650903
40
1
40
1
40
1
40
1
41
1
10
13.4613248654052
20
-12.1330899674707
30
0
41
1
10
13.4888430498624
20
-12.1338666389724
30
0
41
1
10
13.5480307931308
20
-12.1430431247033
30
0
41
1
10
13.6481847575601
20
-12.1991373298678
30
0
41
1
10
13.7724049041321
20
-12.3362292766509
30
0
41
1
10
13.8477904868662
20
-12.503543064498
30
0
41
1
10
13.8861201955835
20
-12.6262033054279
30
0
41
1
10
13.8943375672974
20
-12.6576002058703
30
0
0
SPLINE
5
CA
100
AcDbEntity
8
1
62
256
6
ByLayer
370
18
48
1
60
0
100
AcDbSpline
70
4
71
3
72
13
73
9
40
0
40
0
40
0
40
0
40
0.256222331489501
40
0.595816960347159
40
0.756721547742886
40
0.89257248975341
40
0.999730652645814
40
1
40
1
40
1
40
1
41
1
10
13.8943375672974
20
12.6576002058703
30
0
41
1
10
13.8795666910705
20
12.5981337335349
30
0
41
1
10
13.83292774242
20
12.4656679136685
30
0
41
1
10
13.7467570243874
20
12.3032744555858
30
0
41
1
10
13.6370470144329
20
12.1928955703784
30
0
41
1
10
13.5489284783063
20
12.1436124753841
30
0
41
1
10
13.4880893034274
20
12.1331007202125
30
0
41
1
10
13.4613918068658
20
12.1330899681061
30
0
41
1
10
13.4613248654052
20
12.1330899674707
30
0
0
SPLINE
5
CB
100
AcDbEntity
8
1
62
256
6
ByLayer
370
18
48
1
60
0
100
AcDbSpline
70
4
71
3
72
12
73
8
40
0
40
0
40
0
40
0
40
0.107090927408384
40
0.242566900788525
40
0.455432315407956
40
0.863255751650638
40
1
40
1
40
1
40
1
41
1
10
10.5386751345948
20
12.1330899674707
30
0
41
1
10
10.5111569501376
20
12.1338666389724
30
0
41
1
10
10.4519692068692
20
12.1430431247033
30
0
41
1
10
10.3518152424399
20
12.1991373298678
30
0
41
1
10
10.2275950958679
20
12.3362292766509
30
0
41
1
10
10.1522095131338
20
12.503543064498
30
0
41
1
10
10.1138798044165
20
12.6262033054279
30
0
41
1
10
10.1056624327026
20
12.6576002058703
30
0
0
SPLINE
5
CC
100
AcDbEntity
8
1
62
256
6
ByLayer
370
18
48
1
60
0
100
AcDbSpline
70
4
71
3
72
13
73
9
40
0
40
0
40
0
40
0
40
0.256222331489668
40
0.595816960347222
40
0.75672154774296
40
0.892572489753462
40
0.999730652645857
40
1
40
1
40
1
40
1
41
1
10
10.1056624327026
20
37.9445010117191
30
0
41
1
10
10.1204333089295
20
37.9643151482468
30
0
41
1
10
10.1670722575799
20
38.0081948789902
30
0
41
1
10
10.253242975613
20
38.060963752797
30
0
41
1
10
10.3629529855666
20
38.0963895308773
30
0
41
1
10
10.4510715216952
20
38.1121103030096
30
0
41
1
10
10.5119106965701
20
38.115454434515
30
0
41
1
10
10.5386081931341
20
38.1154578593284
30
0
41
1
10
10.5386751345948
20
38.1154578595255
30
0
0
SPLINE
5
CD
100
AcDbEntity
8
1
62
256
6
ByLayer
370
18
48
1
60
0
100
AcDbSpline
70
4
71
3
72
12
73
8
40
0
40
0
40
0
40
0
40
0.107090927408393
40
0.242566900788546
40
0.45543231540802
40
0.863255751650739
40
1
40
1
40
1
40
1
41
1
10
13.4613248654052
20
38.1154578595254
30
0
41
1
10
13.4888430498624
20
38.1152151562847
30
0
41
1
10
13.5480307931307
20
38.1122888019998
30
0
41
1
10
13.6481847575601
20
38.0944005955985
30
0
41
1
10
13.7724049041321
20
38.0503633413166
30
0
41
1
10
13.8477904868662
20
37.9957326993062
30
0
41
1
10
13.8861201955835
20
37.9549695995299
30
0
41
1
10
13.8943375672974
20
37.9445010117191
30
0
0
SPLINE
5
CE
100
AcDbEntity
8
1
62
256
6
ByLayer
370
18
48
1
60
0
100
AcDbSpline
70
2053
71
3
72
44
73
40
40
0
40
0
40
0
40
0
40
0.0267961573635473
40
0.0535925304604197
40
0.0803863471272028
40
0.107180472613258
40
0.134022029422436
40
0.160863508033146
40
0.187736844060345
40
0.214609834037655
40
0.241431616416927
40
0.268253325262355
40
0.295020899228999
40
0.321788781706079
40
0.348583609334593
40
0.375378648227376
40
0.4022398791577
40
0.42910089208884
40
0.455964387542986
40
0.48282757123293
40
0.509625147060812
40
0.53642280575302
40
0.56318930870928
40
0.589956154264335
40
0.616774759106044
40
0.64359343363052
40
0.670466096040651
40
0.697338443674948
40
0.724182868157663
40
0.751027084092161
40
0.777805256533457
40
0.804583648600937
40
0.831360682847747
40
0.858138020861228
40
0.884980615268997
40
0.91182312525342
40
0.938696269482482
40
0.965569065752347
40
1
40
1
40
1
40
1
41
1
10
20.0000000904222
20
-2.99958740116616
30
0
41
1
10
19.8300296236134
20
-2.99959681663288
30
0
41
1
10
19.4955749328056
20
-2.97116188652972
30
0
41
1
10
19.0035722408289
20
-2.84507583859005
30
0
41
1
10
18.5416372986514
20
-2.63721804775695
30
0
41
1
10
18.1196247007042
20
-2.35616340261143
30
0
41
1
10
17.7518093652684
20
-2.00691655020673
30
0
41
1
10
17.4460539050185
20
-1.60154017917326
30
0
41
1
10
17.2141490604047
20
-1.14949633118746
30
0
41
1
10
17.059799684135
20
-0.665448480763199
30
0
41
1
10
16.9907343043782
20
-0.162340699376019
30
0
41
1
10
17.0052561148758
20
0.344640776702494
30
0
41
1
10
17.1062182176044
20
0.841263000623953
30
0
41
1
10
17.287144253898
20
1.31434566758868
30
0
41
1
10
17.5462814970706
20
1.74959536862949
30
0
41
1
10
17.8736517620351
20
2.13681653631478
30
0
41
1
10
18.2627876205863
20
2.4625809204183
30
0
41
1
10
18.7006423210572
20
2.72016567704246
30
0
41
1
10
19.1763032659567
20
2.89892879070162
30
0
41
1
10
19.6746130859181
20
2.99693693249469
30
0
41
1
10
20.1819727553118
20
3.00811852535022
30
0
41
1
10
20.6836522459422
20
2.93594641146729
30
0
41
1
10
21.1653167040539
20
2.77915683843779
30
0
41
1
10
21.6147654299334
20
2.54551899271317
30
0
41
1
10
22.0178548056707
20
2.23835091018729
30
0
41
1
10
22.365470248264
20
1.86869411415158
30
0
41
1
10
22.6448711127818
20
1.44462724463592
30
0
41
1
10
22.8507932271044
20
0.980112293239553
30
0
41
1
10
22.9740160868202
20
0.487228108049278
30
0
41
1
10
23.0144712860902
20
-0.0186937132830858
30
0
41
1
10
22.9677551738874
20
-0.5236408598055
30
0
41
1
10
22.8389644421965
20
-1.01359723244043
30
0
41
1
10
22.6283885556232
20
-1.47421306300701
30
0
41
1
10
22.3449562833166
20
-1.89430350649294
30
0
41
1
10
21.9936270291352
20
-2.26000374116056
30
0
41
1
10
21.5863604203489
20
-2.56336099362424
30
0
41
1
10
21.133251260518
20
-2.79260224510097
30
0
41
1
10
20.6012543818781
20
-2.95836436752516
30
0
41
1
10
20.2196570200606
20
-2.99957523333164
30
0
41
1
10
20.0000000904222
20
-2.99958740116616
30
0
0
SPLINE
5
CF
100
AcDbEntity
8
1
62
256
6
ByLayer
370
18
48
1
60
0
100
AcDbSpline
70
4
71
1
72
4
73
2
40
0
40
0
40
1
40
1
41
1
10
30.5838519638923
20
-42.161891617685
30
0
41
1
10
30.5802438928163
20
-42.165499688761
30
0
0
SPLINE
5
D0
100
AcDbEntity
8
1
62
256
6
ByLayer
370
18
48
1
60
0
100
AcDbSpline
70
4
71
3
72
13
73
9
40
0
40
0
40
0
40
0
40
0.0033290064428105
40
0.266319159707349
40
0.527418128899528
40
0.761864269450053
40
0.961839653724839
40
1
40
1
40
1
40
1
41
1
10
30.8291435033673
20
-43.0479709281084
30
0
41
1
10
30.8287573675006
20
-43.0465282943844
30
0
41
1
10
30.7978739141238
20
-42.9311568802419
30
0
41
1
10
30.7357594578136
20
-42.7010011795939
30
0
41
1
10
30.6557080250143
20
-42.4097111288906
30
0
41
1
10
30.6021186330622
20
-42.2195518511651
30
0
41
1
10
30.5856100395197
20
-42.1648736750475
30
0
41
1
10
30.5839590256181
20
-42.161801018782
30
0
41
1
10
30.5838519638923
20
-42.161891617685
30
0
0
SPLINE
5
D1
100
AcDbEntity
8
1
62
256
6
ByLayer
370
18
48
1
60
0
100
AcDbSpline
70
4
71
1
72
4
73
2
40
0
40
0
40
1
40
1
41
1
10
31.3516489400386
20
-45
30
0
41
1
10
30.8291435033673
20
-43.0479709281084
30
0
0
SPLINE
5
D2
100
AcDbEntity
8
1
62
256
6
ByLayer
370
18
48
1
60
0
100
AcDbSpline
70
4
71
1
72
4
73
2
40
0
40
0
40
1
40
1
41
1
10
33.6267017667194
20
-45
30
0
41
1
10
33.3250829658324
20
-43.6548160214901
30
0
0
SPLINE
5
D3
100
AcDbEntity
8
SK1
62
256
6
ByLayer
370
18
48
1
60
0
100
AcDbSpline
70
4
71
2
72
6
73
3
40
0
40
0
40
0
40
1
40
1
40
1
41
1
10
-2.99999999999999
20
-27.500000000101
30
0
41
1
10
-24.7502365839479
20
-26.9535583508891
30
0
41
1
10
-46.5004731678958
20
-26.4071167016772
30
0
0
SPLINE
5
D4
100
AcDbEntity
8
SK1
62
256
6
ByLayer
370
18
48
1
60
0
100
AcDbSpline
70
4
71
2
72
6
73
3
40
0
40
0
40
0
40
1
40
1
40
1
41
1
10
-46.5004731678958
20
26.4071167016237
30
0
41
1
10
-24.7502365839479
20
26.9535583508345
30
0
41
1
10
-2.99999999999999
20
27.5000000000453
30
0
0
SPLINE
5
D5
100
AcDbEntity
8
SK1
62
256
6
ByLayer
370
18
48
1
60
0
100
AcDbSpline
70
4
71
3
72
16
73
12
40
0
40
0
40
0
40
0
40
0.0721970668559195
40
0.19511995078122
40
0.317828301303912
40
0.440532154257163
40
0.563232677489498
40
0.685930681727882
40
0.808626752139991
40
0.931321342130343
40
1
40
1
40
1
40
1
41
1
10
-2.19993682588036
20
27.5201003717167
30
0
41
1
10
-2.19994139324853
20
27.5198835533973
30
0
41
1
10
-2.19995287134112
20
27.5059026437411
30
0
41
1
10
-2.19996732554008
20
27.4216127677621
30
0
41
1
10
-2.19997951574157
20
27.2438017794426
30
0
41
1
10
-2.1999880345322
20
26.9910044540961
30
0
41
1
10
-2.1999937401009
20
26.6679419456387
30
0
41
1
10
-2.19999729067713
20
26.2783671939311
30
0
41
1
10
-2.19999923971754
20
25.8255283842765
30
0
41
1
10
-2.19999990245834
20
25.3873584266335
30
0
41
1
10
-2.20000000900743
20
25.0968894776219
30
0
41
1
10
-2.20000000000003
20
24.9895674792733
30
0
0
SPLINE
5
D6
100
AcDbEntity
8
SK1
62
256
6
ByLayer
370
18
48
1
60
0
100
AcDbSpline
70
4
71
2
72
6
73
3
40
0
40
0
40
0
40
1
40
1
40
1
41
1
10
-2.19488134370937
20
-27.52022738313
30
0
41
1
10
-2.59744067185468
20
-27.5101136916155
30
0
41
1
10
-2.99999999999999
20
-27.500000000101
30
0
0
SPLINE
5
D7
100
AcDbEntity
8
SK1
62
256
6
ByLayer
370
18
48
1
60
0
100
AcDbSpline
70
4
71
2
72
6
73
3
40
0
40
0
40
0
40
1
40
1
40
1
41
1
10
-2.99999999999999
20
27.5000000000453
30
0
41
1
10
-2.59744067185468
20
27.5101136915598
30
0
41
1
10
-2.19488134370937
20
27.5202273830743
30
0
0
SPLINE
5
D8
100
AcDbEntity
8
SK1
62
256
6
ByLayer
370
18
48
1
60
0
100
AcDbSpline
70
4
71
3
72
17
73
13
40
0
40
0
40
0
40
0
40
0.008377433672699
40
0.131073074899151
40
0.253870259917461
40
0.37666527673358
40
0.499365626719328
40
0.622068631447526
40
0.744775141328707
40
0.86765865800109
40
0.990532709220037
40
1
40
1
40
1
40
1
41
1
10
-2.20000000000003
20
-24.9895663958005
30
0
41
1
10
-2.20000000008858
20
-25.0026504115106
30
0
41
1
10
-2.19999999188586
20
-25.2066545141914
30
0
41
1
10
-2.19999974186017
20
-25.5807389761736
30
0
41
1
10
-2.19999842588538
20
-26.0639264373291
30
0
41
1
10
-2.19999571070133
20
-26.4851114987907
30
0
41
1
10
-2.19999113986926
20
-26.8412797098049
30
0
41
1
10
-2.19998409090048
20
-27.129010032334
30
0
41
1
10
-2.19997381330885
20
-27.344257886705
30
0
41
1
10
-2.19995942401596
20
-27.4819415537369
30
0
41
1
10
-2.19994578268363
20
-27.5188252678241
30
0
41
1
10
-2.19993756209747
20
-27.5200937214759
30
0
41
1
10
-2.19993625640027
20
-27.5201036388456
30
0
0
SPLINE
5
D9
100
AcDbEntity
8
SK1
62
256
6
ByLayer
370
18
48
1
60
0
100
AcDbSpline
70
4
71
3
72
16
73
12
40
0
40
0
40
0
40
0
40
0.484362133143214
40
0.672654027085911
40
0.809095459552931
40
0.877752097826847
40
0.901320737247528
40
0.925121024104723
40
0.945995399848299
40
0.971882270190261
40
1
40
1
40
1
40
1
41
1
10
-0.200000000000061
20
6.36525122554052
30
0
41
1
10
-0.195581000847973
20
6.23407776241331
30
0
41
1
10
-0.206768985511084
20
6.05285286800125
30
0
41
1
10
-0.240576655278792
20
5.83412744354332
30
0
41
1
10
-0.271009924337285
20
5.73008961132413
30
0
41
1
10
-0.303428989102393
20
5.67425820640264
30
0
41
1
10
-0.328239388270939
20
5.65376170934836
30
0
41
1
10
-0.346004555757938
20
5.64702125526228
30
0
41
1
10
-0.365212764831315
20
5.64796013775806
30
0
41
1
10
-0.383525191647852
20
5.65644060486828
30
0
41
1
10
-0.394703386845423
20
5.66509105982025
30
0
41
1
10
-0.400000000000065
20
5.67060688490521
30
0
0
SPLINE
5
DA
100
AcDbEntity
8
SK1
62
256
6
ByLayer
370
18
48
1
60
0
100
AcDbSpline
70
4
71
3
72
16
73
12
40
0
40
0
40
0
40
0
40
0.044962091481243
40
0.0903368815019514
40
0.123287996773759
40
0.1561959423137
40
0.206380327128447
40
0.302189466870393
40
0.465199895219155
40
0.628992158827395
40
1
40
1
40
1
40
1
41
1
10
-0.400000000000064
20
5.67060688490522
30
0
41
1
10
-0.420927174634189
20
5.69239446368434
30
0
41
1
10
-0.467485467566062
20
5.72851688005125
30
0
41
1
10
-0.544757012788335
20
5.76392327686634
30
0
41
1
10
-0.622034972988142
20
5.76840721477474
30
0
41
1
10
-0.699252754045671
20
5.74775039259255
30
0
41
1
10
-0.800267140719332
20
5.68134988910833
30
0
41
1
10
-0.926677638040195
20
5.52279599491439
30
0
41
1
10
-1.04851005422589
20
5.27936518655835
30
0
41
1
10
-1.18854873195446
20
4.85450503712938
30
0
41
1
10
-1.26941082007028
20
4.5199125709831
30
0
41
1
10
-1.30710678118653
20
4.28124408565428
30
0
0
SPLINE
5
DB
100
AcDbEntity
8
SK1
62
256
6
ByLayer
370
18
48
1
60
0
100
AcDbSpline
70
4
71
3
72
16
73
12
40
0
40
0
40
0
40
0
40
0.343118422828763
40
0.537367149428778
40
0.729775833568661
40
0.819562957589155
40
0.856762937236387
40
0.894277255197646
40
0.92769658096064
40
0.976105895378561
40
1
40
1
40
1
40
1
41
1
10
-1.30710678118653
20
-4.28124480528428
30
0
41
1
10
-1.27125472986789
20
-4.50155948290669
30
0
41
1
10
-1.1910772193131
20
-4.83813364123109
30
0
41
1
10
-1.0519066290344
20
-5.28466896893455
30
0
41
1
10
-0.90998094148059
20
-5.55804744815949
30
0
41
1
10
-0.763784692514059
20
-5.71273487789639
30
0
41
1
10
-0.662860730515536
20
-5.76100180217994
30
0
41
1
10
-0.587804203068135
20
-5.76985675523795
30
0
41
1
10
-0.50762848634381
20
-5.75082457326438
30
0
41
1
10
-0.446883466155753
20
-5.71269814454739
30
0
41
1
10
-0.41115480724073
20
-5.68172562296966
30
0
41
1
10
-0.400000000000065
20
-5.67060691171689
30
0
0
SPLINE
5
DC
100
AcDbEntity
8
SK1
62
256
6
ByLayer
370
18
48
1
60
0
100
AcDbSpline
70
4
71
3
72
16
73
12
40
0
40
0
40
0
40
0
40
0.031616499811615
40
0.0560460207737657
40
0.0756171221986856
40
0.0951959244130667
40
0.122531021194906
40
0.171855515565254
40
0.328145741063629
40
0.663365227866448
40
1
40
1
40
1
40
1
41
1
10
-0.400000000000064
20
-5.67060691171687
30
0
41
1
10
-0.394038052578533
20
-5.66431914550421
30
0
41
1
10
-0.382312554508241
20
-5.65553431284061
30
0
41
1
10
-0.363502762487288
20
-5.64766784076189
30
0
41
1
10
-0.346198557899679
20
-5.64729821251074
30
0
41
1
10
-0.328895214687349
20
-5.65334439405919
30
0
41
1
10
-0.307925994492049
20
-5.67013463423568
30
0
41
1
10
-0.271956932242586
20
-5.72440018902612
30
0
41
1
10
-0.23062422044359
20
-5.86926111680931
30
0
41
1
10
-0.203282826745896
20
-6.09335430168465
30
0
41
1
10
-0.197092167151619
20
-6.27443245898645
30
0
41
1
10
-0.20000000000063
20
-6.36525211459042
30
0
0
SPLINE
5
DD
100
AcDbEntity
8
SK1
62
256
6
ByLayer
370
18
48
1
60
0
100
AcDbSpline
70
4
71
3
72
13
73
9
40
0
40
0
40
0
40
0
40
0.239468190909062
40
0.368375774874006
40
0.500016471127545
40
0.631654429480287
40
0.760554462869758
40
1
40
1
40
1
40
1
41
1
10
-2.00000000000001
20
-27.3251512814302
30
0
41
1
10
-2.02607195688125
20
-27.3254043564699
30
0
41
1
10
-2.06363514552149
20
-27.3325216078568
30
0
41
1
10
-2.11047804957901
20
-27.3567471636424
30
0
41
1
10
-2.14242236365004
20
-27.3827224769008
30
0
41
1
10
-2.16840047364594
20
-27.4146634923699
30
0
41
1
10
-2.19262861825255
20
-27.4615013561305
30
0
41
1
10
-2.19974657432197
20
-27.4990612074137
30
0
41
1
10
-2.20000000000001
20
-27.5251310238059
30
0
0
SPLINE
5
DE
100
AcDbEntity
8
SK1
62
256
6
ByLayer
370
18
48
1
60
0
100
AcDbSpline
70
4
71
3
72
13
73
9
40
0
40
0
40
0
40
0
40
0.239445542786679
40
0.368345579137688
40
0.499983539651306
40
0.631624236626194
40
0.760531819312436
40
1
40
1
40
1
40
1
41
1
10
-2.20000000000001
20
27.5251310239642
30
0
41
1
10
-2.19974657432781
20
27.4990612076283
30
0
41
1
10
-2.19262861824383
20
27.4615013564006
30
0
41
1
10
-2.16840047371738
20
27.4146634928512
30
0
41
1
10
-2.14242236380986
20
27.3827224774726
30
0
41
1
10
-2.11047804983015
20
27.3567471642878
30
0
41
1
10
-2.06363514647054
20
27.3325216086765
30
0
41
1
10
-2.02607195733615
20
27.3254043572623
30
0
41
1
10
-2.00000000000001
20
27.3251512819252
30
0
0
SPLINE
5
DF
100
AcDbEntity
8
SK1
62
256
6
ByLayer
370
18
48
1
60
0
100
AcDbSpline
70
4
71
3
72
16
73
12
40
0
40
0
40
0
40
0
40
0.18242329736019
40
0.274928084243202
40
0.367413504339701
40
0.45889135668868
40
0.550362023076141
40
0.644313501080519
40
0.738284574641857
40
0.868701917084016
40
1
40
1
40
1
40
1
41
1
10
-1.30710678118653
20
-4.28124480528428
30
0
41
1
10
-1.39984244998149
20
-3.78091146535469
30
0
41
1
10
-1.51936159600287
20
-3.01487293807073
30
0
41
1
10
-1.6427376276444
20
-1.9660273398912
30
0
41
1
10
-1.70828320960621
20
-1.16601782963387
30
0
41
1
10
-1.74138079030999
20
-0.361358105764734
30
0
41
1
10
-1.73997377029127
20
0.450147153087707
30
0
41
1
10
-1.70174640633634
20
1.26570958560773
30
0
41
1
10
-1.62207987819127
20
2.18542295204632
30
0
41
1
10
-1.4913467285627
20
3.19577055212347
30
0
41
1
10
-1.37311832797839
20
3.92142190481239
30
0
41
1
10
-1.30710678118654
20
4.28124408565428
30
0
0
SPLINE
5
E0
100
AcDbEntity
8
SK1
62
256
6
ByLayer
370
18
48
1
60
0
100
AcDbSpline
70
4
71
2
72
6
73
3
40
0
40
0
40
0
40
1
40
1
40
1
41
1
10
-0.400000000000024
20
-27.3251512814302
30
0
41
1
10
-1.20000000000002
20
-27.3251512814302
30
0
41
1
10
-2.00000000000001
20
-27.3251512814302
30
0
0
SPLINE
5
E1
100
AcDbEntity
8
SK1
62
256
6
ByLayer
370
18
48
1
60
0
100
AcDbSpline
70
4
71
2
72
6
73
3
40
0
40
0
40
0
40
1
40
1
40
1
41
1
10
-2.00000000000001
20
27.3251512819252
30
0
41
1
10
-1.20000000000002
20
27.3251512819252
30
0
41
1
10
-0.400000000000024
20
27.3251512819252
30
0
0
SPLINE
5
E2
100
AcDbEntity
8
SK1
62
256
6
ByLayer
370
18
48
1
60
0
100
AcDbSpline
70
4
71
2
72
6
73
3
40
0
40
0
40
0
40
1
40
1
40
1
41
1
10
-46.5004657229079
20
-26.4070723719183
30
0
41
1
10
-47.2502328425844
20
-25.948716264935
30
0
41
1
10
-48
20
-25.49035990838
30
0
0
SPLINE
5
E3
100
AcDbEntity
8
SK1
62
256
6
ByLayer
370
18
48
1
60
0
100
AcDbSpline
70
4
71
2
72
6
73
3
40
0
40
0
40
0
40
1
40
1
40
1
41
1
10
-48
20
25.4903372289617
30
0
41
1
10
-47.2502396776064
20
25.9486795491991
30
0
41
1
10
-46.5004793682356
20
26.407021856008
30
0
0
SPLINE
5
E4
100
AcDbEntity
8
SK1
62
256
6
ByLayer
370
18
48
1
60
0
100
AcDbSpline
70
4
71
2
72
6
73
3
40
0
40
0
40
0
40
1
40
1
40
1
41
1
10
-0.200000000000023
20
-27.5127419688873
30
0
41
1
10
-0.214628642458621
20
-27.3447861394392
30
0
41
1
10
-0.400000000000024
20
-27.3251512814162
30
0
0
SPLINE
5
E5
100
AcDbEntity
8
SK1
62
256
6
ByLayer
370
18
48
1
60
0
100
AcDbSpline
70
4
71
2
72
6
73
3
40
0
40
0
40
0
40
1
40
1
40
1
41
1
10
-0.400000000000024
20
27.3251512818931
30
0
41
1
10
-0.214629265596189
20
27.3447858171555
30
0
41
1
10
-0.200000000000023
20
27.5127479889026
30
0
0
LINE
5
70
100
AcDbEntity
8
1
62
256
6
ByLayer
370
18
48
1
60
0
100
AcDbLine
10
116.6103
20
38.905596
30
0
11
116.868185
21
38.789427
31
0
39
0
210
0
220
0
230
1
0
LINE
5
72
100
AcDbEntity
8
1
62
256
6
ByLayer
370
18
48
1
60
0
100
AcDbLine
10
118.143633
20
35.42294
30
0
11
118.027464
21
35.165055
31
0
39
0
210
0
220
0
230
1
0
LINE
5
73
100
AcDbEntity
8
1
62
256
6
ByLayer
370
18
48
1
60
0
100
AcDbLine
10
118.027464
20
35.165055
30
0
11
117.162609
21
34.837391
31
0
39
0
210
0
220
0
230
1
0
LINE
5
74
100
AcDbEntity
8
1
62
256
6
ByLayer
370
18
48
1
60
0
100
AcDbLine
10
114.060454
20
37.939546
30
0
11
116.6103
21
38.905596
31
0
39
0
210
0
220
0
230
1
0
LINE
5
75
100
AcDbEntity
8
1
62
256
6
ByLayer
370
18
48
1
60
0
100
AcDbLine
10
0.3
20
-40
30
0
11
0
21
-39.7
31
0
39
0
210
0
220
0
230
1
0
LINE
5
76
100
AcDbEntity
8
1
62
256
6
ByLayer
370
18
48
1
60
0
100
AcDbLine
10
0
20
39.7
30
0
11
0.3
21
40
31
0
39
0
210
0
220
0
230
1
0
LINE
5
77
100
AcDbEntity
8
1
62
256
6
ByLayer
370
18
48
1
60
0
100
AcDbLine
10
30
20
-40
30
0
11
0.3
21
-40
31
0
39
0
210
0
220
0
230
1
0
LINE
5
78
100
AcDbEntity
8
1
62
256
6
ByLayer
370
18
48
1
60
0
100
AcDbLine
10
0.3
20
40
30
0
11
30
21
40
31
0
39
0
210
0
220
0
230
1
0
LINE
5
79
100
AcDbEntity
8
1
62
256
6
ByLayer
370
18
48
1
60
0
100
AcDbLine
10
10.538675
20
-38.115458
30
0
11
13.461325
21
-38.115458
31
0
39
0
210
0
220
0
230
1
0
LINE
5
7A
100
AcDbEntity
8
1
62
256
6
ByLayer
370
18
48
1
60
0
100
AcDbLine
10
13.461325
20
-12.13309
30
0
11
10.538675
21
-12.13309
31
0
39
0
210
0
220
0
230
1
0
LINE
5
7B
100
AcDbEntity
8
1
62
256
6
ByLayer
370
18
48
1
60
0
100
AcDbLine
10
10.538675
20
12.13309
30
0
11
13.461325
21
12.13309
31
0
39
0
210
0
220
0
230
1
0
LINE
5
7C
100
AcDbEntity
8
1
62
256
6
ByLayer
370
18
48
1
60
0
100
AcDbLine
10
13.461325
20
38.115458
30
0
11
10.538675
21
38.115458
31
0
39
0
210
0
220
0
230
1
0
LINE
5
7D
100
AcDbEntity
8
1
62
256
6
ByLayer
370
18
48
1
60
0
100
AcDbLine
10
30.578952
20
-42.160677
30
0
11
30
21
-40
31
0
39
0
210
0
220
0
230
1
0
LINE
5
7E
100
AcDbEntity
8
1
62
256
6
ByLayer
370
18
48
1
60
0
100
AcDbLine
10
30
20
40
30
0
11
32.679492
21
50
31
0
39
0
210
0
220
0
230
1
0
LINE
5
7F
100
AcDbEntity
8
1
62
256
6
ByLayer
370
18
48
1
60
0
100
AcDbLine
10
13.461325
20
-12.13309
30
0
11
13.461325
21
-38.115458
31
0
39
0
210
0
220
0
230
1
0
LINE
5
80
100
AcDbEntity
8
1
62
256
6
ByLayer
370
18
48
1
60
0
100
AcDbLine
10
13.894338
20
-12.6576
30
0
11
13.894338
21
-37.944501
31
0
39
0
210
0
220
0
230
1
0
LINE
5
81
100
AcDbEntity
8
1
62
256
6
ByLayer
370
18
48
1
60
0
100
AcDbLine
10
10.105662
20
37.944501
30
0
11
10.105662
21
12.6576
31
0
39
0
210
0
220
0
230
1
0
LINE
5
82
100
AcDbEntity
8
1
62
256
6
ByLayer
370
18
48
1
60
0
100
AcDbLine
10
10.538675
20
38.115458
30
0
11
10.538675
21
12.13309
31
0
39
0
210
0
220
0
230
1
0
LINE
5
83
100
AcDbEntity
8
1
62
256
6
ByLayer
370
18
48
1
60
0
100
AcDbLine
10
10.105662
20
-12.6576
30
0
11
10.105662
21
-37.944501
31
0
39
0
210
0
220
0
230
1
0
LINE
5
84
100
AcDbEntity
8
1
62
256
6
ByLayer
370
18
48
1
60
0
100
AcDbLine
10
10.538675
20
-12.13309
30
0
11
10.538675
21
-38.115458
31
0
39
0
210
0
220
0
230
1
0
LINE
5
85
100
AcDbEntity
8
1
62
256
6
ByLayer
370
18
48
1
60
0
100
AcDbLine
10
13.461325
20
38.115458
30
0
11
13.461325
21
12.13309
31
0
39
0
210
0
220
0
230
1
0
LINE
5
86
100
AcDbEntity
8
1
62
256
6
ByLayer
370
18
48
1
60
0
100
AcDbLine
10
13.894338
20
37.944501
30
0
11
13.894338
21
12.6576
31
0
39
0
210
0
220
0
230
1
0
LINE
5
87
100
AcDbEntity
8
1
62
256
6
ByLayer
370
18
48
1
60
0
100
AcDbLine
10
135.000289
20
16.999711
30
0
11
73.000578
21
-45
31
0
39
0
210
0
220
0
230
1
0
LINE
5
88
100
AcDbEntity
8
1
62
256
6
ByLayer
370
18
48
1
60
0
100
AcDbLine
10
90.786998
20
-9.363563
30
0
11
92.535647
21
-6.334813
31
0
39
0
210
0
220
0
230
1
0
LINE
5
89
100
AcDbEntity
8
1
62
256
6
ByLayer
370
18
48
1
60
0
100
AcDbLine
10
90.786998
20
-3.306063
30
0
11
92.535647
21
-6.334813
31
0
39
0
210
0
220
0
230
1
0
LINE
5
8A
100
AcDbEntity
8
1
62
256
6
ByLayer
370
18
48
1
60
0
100
AcDbLine
10
85.541049
20
-6.334813
30
0
11
87.289698
21
-3.306063
31
0
39
0
210
0
220
0
230
1
0
LINE
5
8B
100
AcDbEntity
8
1
62
256
6
ByLayer
370
18
48
1
60
0
100
AcDbLine
10
85.541049
20
-6.334813
30
0
11
87.289698
21
-9.363563
31
0
39
0
210
0
220
0
230
1
0
LINE
5
8C
100
AcDbEntity
8
1
62
256
6
ByLayer
370
18
48
1
60
0
100
AcDbLine
10
87.289698
20
-3.306063
30
0
11
90.786998
21
-3.306063
31
0
39
0
210
0
220
0
230
1
0
LINE
5
8D
100
AcDbEntity
8
1
62
256
6
ByLayer
370
18
48
1
60
0
100
AcDbLine
10
87.289698
20
-9.363563
30
0
11
90.786998
21
-9.363563
31
0
39
0
210
0
220
0
230
1
0
LINE
5
8E
100
AcDbEntity
8
1
62
256
6
ByLayer
370
18
48
1
60
0
100
AcDbLine
10
60.400523
20
-31.475338
30
0
11
63.429273
21
-33.223988
31
0
39
0
210
0
220
0
230
1
0
LINE
5
8F
100
AcDbEntity
8
1
62
256
6
ByLayer
370
18
48
1
60
0
100
AcDbLine
10
63.429273
20
-36.721287
30
0
11
60.400523
21
-38.469936
31
0
39
0
210
0
220
0
230
1
0
LINE
5
90
100
AcDbEntity
8
1
62
256
6
ByLayer
370
18
48
1
60
0
100
AcDbLine
10
57.371773
20
-36.721287
30
0
11
60.400523
21
-38.469936
31
0
39
0
210
0
220
0
230
1
0
LINE
5
91
100
AcDbEntity
8
1
62
256
6
ByLayer
370
18
48
1
60
0
100
AcDbLine
10
60.400523
20
-31.475338
30
0
11
57.371773
21
-33.223988
31
0
39
0
210
0
220
0
230
1
0
LINE
5
92
100
AcDbEntity
8
1
62
256
6
ByLayer
370
18
48
1
60
0
100
AcDbLine
10
63.429273
20
-33.223988
30
0
11
63.429273
21
-36.721287
31
0
39
0
210
0
220
0
230
1
0
LINE
5
93
100
AcDbEntity
8
1
62
256
6
ByLayer
370
18
48
1
60
0
100
AcDbLine
10
57.371773
20
-33.223988
30
0
11
57.371773
21
-36.721287
31
0
39
0
210
0
220
0
230
1
0
LINE
5
94
100
AcDbEntity
8
1
62
256
6
ByLayer
370
18
48
1
60
0
100
AcDbLine
10
117.676173
20
25.800311
30
0
11
120.704923
21
24.051662
31
0
39
0
210
0
220
0
230
1
0
LINE
5
95
100
AcDbEntity
8
1
62
256
6
ByLayer
370
18
48
1
60
0
100
AcDbLine
10
114.647423
20
20.554362
30
0
11
117.676173
21
18.805713
31
0
39
0
210
0
220
0
230
1
0
LINE
5
96
100
AcDbEntity
8
1
62
256
6
ByLayer
370
18
48
1
60
0
100
AcDbLine
10
120.704923
20
20.554362
30
0
11
117.676173
21
18.805713
31
0
39
0
210
0
220
0
230
1
0
LINE
5
97
100
AcDbEntity
8
1
62
256
6
ByLayer
370
18
48
1
60
0
100
AcDbLine
10
117.676173
20
25.800311
30
0
11
114.647423
21
24.051662
31
0
39
0
210
0
220
0
230
1
0
LINE
5
98
100
AcDbEntity
8
1
62
256
6
ByLayer
370
18
48
1
60
0
100
AcDbLine
10
120.704923
20
24.051662
30
0
11
120.704923
21
20.554362
31
0
39
0
210
0
220
0
230
1
0
LINE
5
99
100
AcDbEntity
8
1
62
256
6
ByLayer
370
18
48
1
60
0
100
AcDbLine
10
114.647423
20
24.051662
30
0
11
114.647423
21
20.554362
31
0
39
0
210
0
220
0
230
1
0
LINE
5
9A
100
AcDbEntity
8
SK1
62
256
6
ByLayer
370
18
48
1
60
0
100
AcDbLine
10
-3
20
27.5
30
0
11
-3
21
-27.5
31
0
39
0
210
0
220
0
230
1
0
LINE
5
9C
100
AcDbEntity
8
SK1
62
256
6
ByLayer
370
18
48
1
60
0
100
AcDbLine
10
-46.500473
20
-26.407117
30
0
11
-46.500473
21
26.407117
31
0
39
0
210
0
220
0
230
1
0
LINE
5
9D
100
AcDbEntity
8
SK1
62
256
6
ByLayer
370
18
48
1
60
0
100
AcDbLine
10
-2
20
-27.325145
30
0
11
-2
21
27.325145
31
0
39
0
210
0
220
0
230
1
0
LINE
5
9E
100
AcDbEntity
8
SK1
62
256
6
ByLayer
370
18
48
1
60
0
100
AcDbLine
10
-0.4
20
5.670607
30
0
11
-0.4
21
27.325111
31
0
39
0
210
0
220
0
230
1
0
LINE
5
9F
100
AcDbEntity
8
SK1
62
256
6
ByLayer
370
18
48
1
60
0
100
AcDbLine
10
-48
20
-25.499074
30
0
11
-48
21
25.498396
31
0
39
0
210
0
220
0
230
1
0
LINE
5
A0
100
AcDbEntity
8
SK1
62
256
6
ByLayer
370
18
48
1
60
0
100
AcDbLine
10
-0.4
20
-27.32511
30
0
11
-0.4
21
-5.670607
31
0
39
0
210
0
220
0
230
1
0
LINE
5
A1
100
AcDbEntity
8
1
62
256
6
ByLayer
370
18
48
1
60
0
100
AcDbLine
10
116.6103
20
38.905596
30
0
11
118.027464
21
35.165055
31
0
39
0
210
0
220
0
230
1
0
LINE
5
A2
100
AcDbEntity
8
1
62
256
6
ByLayer
370
18
48
1
60
0
100
AcDbLine
10
118.143633
20
35.42294
30
0
11
116.868185
21
38.789427
31
0
39
0
210
0
220
0
230
1
0
LINE
5
A3
100
AcDbEntity
8
1
62
256
6
ByLayer
370
18
48
1
60
0
100
AcDbLine
10
0.3
20
-40
30
0
11
0.3
21
40
31
0
39
0
210
0
220
0
230
1
0
LINE
5
A4
100
AcDbEntity
8
1
62
256
6
ByLayer
370
18
48
1
60
0
100
AcDbLine
10
0
20
39.7
30
0
11
0
21
-39.7
31
0
39
0
210
0
220
0
230
1
0
LINE
5
A5
100
AcDbEntity
8
SK1
62
256
6
ByLayer
370
18
48
1
60
0
100
AcDbLine
10
-0.2
20
-28.683485
30
0
11
-0.2
21
-6.365252
31
0
39
0
210
0
220
0
230
1
0
LINE
5
A6
100
AcDbEntity
8
SK1
62
256
6
ByLayer
370
18
48
1
60
0
100
AcDbLine
10
-1.307107
20
-4.281245
30
0
11
-1.307107
21
4.281244
31
0
39
0
210
0
220
0
230
1
0
LINE
5
A7
100
AcDbEntity
8
SK1
62
256
6
ByLayer
370
18
48
1
60
0
100
AcDbLine
10
-0.2
20
6.365251
30
0
11
-0.2
21
28.683485
31
0
39
0
210
0
220
0
230
1
0
LINE
5
A8
100
AcDbEntity
8
SK1
62
256
6
ByLayer
370
18
48
1
60
0
100
AcDbLine
10
-2.2
20
-24.989566
30
0
11
-2.2
21
24.989567
31
0
39
0
210
0
220
0
230
1
0
LINE
5
A9
100
AcDbEntity
8
1
62
256
6
ByLayer
370
18
48
1
60
0
100
AcDbLine
10
30
20
-40
30
0
11
30
21
40
31
0
39
0
210
0
220
0
230
1
0
LINE
5
AA
100
AcDbEntity
8
1
62
256
6
ByLayer
370
18
48
1
60
0
100
AcDbLine
10
33.325083
20
-43.654816
30
0
11
114.489949
21
37.510051
31
0
39
0
210
0
220
0
230
1
0
LINE
5
AB
100
AcDbEntity
8
1
62
256
6
ByLayer
370
18
48
1
60
0
100
AcDbLine
10
31.351649
20
-45
30
0
11
73.000578
21
-45
31
0
39
0
210
0
220
0
230
1
0
LINE
5
AC
100
AcDbEntity
8
1
62
256
6
ByLayer
370
18
48
1
60
0
100
AcDbLine
10
32.679492
20
50
30
0
11
102
21
50
31
0
39
0
210
0
220
0
230
1
0
LINE
5
AD
100
AcDbEntity
8
1
62
256
6
ByLayer
370
18
48
1
60
0
100
AcDbLine
10
102
20
50
30
0
11
135.000289
21
16.999711
31
0
39
0
210
0
220
0
230
1
0
LINE
5
AE
100
AcDbEntity
8
80
62
256
6
ByLayer
370
13
48
1
60
0
100
AcDbLine
10
0
20
0
30
0
11
-22.187348
21
0
31
0
39
0
210
0
220
0
230
1
0
LINE
5
AF
100
AcDbEntity
8
SK4
62
256
6
ByLayer
370
18
48
0.05
60
0
100
AcDbLine
10
-52.069602
20
0
30
0
11
139.391004
21
0
31
0
39
0
210
0
220
0
230
1
0
LINE
5
B1
100
AcDbEntity
8
81
62
256
6
ByLayer
370
13
48
1
60
0
100
AcDbLine
10
123.686583
20
28.313384
30
0
11
130.757651
21
35.384452
31
0
39
0
210
0
220
0
230
1
0
LINE
5
B2
100
AcDbEntity
8
4
62
256
6
ByLayer
370
13
48
0.05
60
0
100
AcDbLine
10
0
20
0
30
0
11
118.259246
21
0
31
0
39
0
210
0
220
0
230
1
0
MTEXT
5
E6
100
AcDbEntity
8
SK6
62
256
6
ByLayer
370
18
48
1
60
0
100
AcDbMText
10
5.848143
20
-61.900438
30
0
210
0
220
0
230
1
1
\W0.7407;C8-ASHR45-50135-32
40
3.5
41
0
44
1.084337
50
0
71
7
72
5
7
iso_b_vert
0
DIMENSION
5
F8
100
AcDbEntity
8
SK2
62
256
6
ByLayer
370
13
48
1
60
0
100
AcDbDimension
2
DimnDraft3D1
10
40
20
63.937753
30
0
11
5.202632
21
63.937753
31
0
70
32
71
5
72
1
41
1
210
0
220
0
230
1
3
Standard
100
AcDbAlignedDimension
13
-40
23
1.7
33
0
14
40
24
1.7
34
0
50
0
100
AcDbRotatedDimension
1001
ACAD
1000
DSTYLE
1002
{
1070
   279
1070
     0
1070
   172
1070
     1
1070
   173
1070
     1
1070
   340
1005
E7
1070
   271
1070
     2
1070
    77
1070
     1
1070
    73
1070
     0
1070
   171
1070
     3
1070
   274
1070
     3
1070
   177
1070
     7
1070
   176
1070
     7
1070
   178
1070
     7
1070
    78
1070
     8
1070
    41
1041
3.175
1070
   147
1041
1.5
1070
    42
1041
2.0
1070
    44
1041
2.0
1070
   140
1041
3.0
1070
   343
1005
F9
1070
   344
1005
F9
1002
}
0
DIMENSION
5
10D
100
AcDbEntity
8
SK2
62
256
6
ByLayer
370
13
48
1
60
0
100
AcDbDimension
2
DimnDraft3D2
10
0
20
-152.414574
30
0
11
9.877487
21
-152.414574
31
0
70
32
71
5
72
1
41
1
210
0
220
0
230
1
3
Standard
100
AcDbAlignedDimension
13
16.999711
23
-137.000289
33
0
14
0
24
-141.391004
34
0
50
0
100
AcDbRotatedDimension
1001
ACAD
1000
DSTYLE
1002
{
1070
   279
1070
     0
1070
   172
1070
     1
1070
   173
1070
     1
1070
   340
1005
E7
1070
   271
1070
     2
1070
    77
1070
     1
1070
    73
1070
     0
1070
   171
1070
     3
1070
   274
1070
     3
1070
   177
1070
     7
1070
   176
1070
     7
1070
   178
1070
     7
1070
    78
1070
     8
1070
    41
1041
3.175
1070
   147
1041
1.5
1070
    42
1041
2.0
1070
    44
1041
2.0
1070
   140
1041
3.0
1070
   343
1005
F9
1070
   344
1005
F9
1002
}
0
DIMENSION
5
11B
100
AcDbEntity
8
SK2
62
256
6
ByLayer
370
13
48
1
60
0
100
AcDbDimension
2
DimnDraft3D3
10
139.391004
20
0
30
0
11
20.652767
21
-167.860768
31
0
70
34
71
5
72
1
41
1
210
0
220
0
230
1
3
Standard
100
AcDb2LineAngularDimension
13
135.000289
23
16.999711
33
0
14
73.000578
24
-45
34
0
15
-52.069602
25
0
35
0
16
21.800817
26
-170.632407
36
0
40
0
0
DIMENSION
5
12A
100
AcDbEntity
8
2
62
256
6
ByLayer
370
13
48
1
60
0
100
AcDbDimension
2
DimnDraft3D4
10
135.000289
20
63.58907
30
0
11
64.961986
21
63.58907
31
0
70
32
71
5
72
1
41
1
210
0
220
0
230
1
3
Standard
100
AcDbAlignedDimension
13
0
23
41.7
33
0
14
135.000289
24
18.999711
34
0
50
0
100
AcDbRotatedDimension
1001
ACAD
1000
DSTYLE
1002
{
1070
   279
1070
     0
1070
   172
1070
     1
1070
   173
1070
     1
1070
   340
1005
E7
1070
   271
1070
     2
1070
    77
1070
     1
1070
    73
1070
     0
1070
   171
1070
     3
1070
   274
1070
     3
1070
   177
1070
     7
1070
   176
1070
     7
1070
   178
1070
     7
1070
    78
1070
     8
1070
    41
1041
3.175
1070
   147
1041
1.5
1070
    42
1041
2.0
1070
    44
1041
2.0
1070
   140
1041
3.0
1070
   343
1005
0
1070
   344
1005
0
1002
}
0
ENDSEC
0
SECTION
2
OBJECTS
0
DICTIONARY
5
195
330
0
100
AcDbDictionary
280
0
281
1
3
ACAD_GROUP
350
196
3
ACAD_MLINESTYLE
350
197
0
DICTIONARY
5
196
330
0
100
AcDbDictionary
280
0
281
1
0
DICTIONARY
5
197
330
0
100
AcDbDictionary
280
0
281
1
3
Standard
350
18
0
MLINESTYLE
5
18
330
197
100
AcDbMlineStyle
2
Standard
70
0
3

62
256
51
90
52
90
71
2
49
-0.5
62
256
6
ByLayer
49
0.5
62
256
6
ByLayer
0
RASTERVARIABLES
5
183
330

100
AcDbRasterVariables
90
0
70
1
71
1
72
1
0
ENDSEC
0
EOF
