0
SECTION
2
HEADER
9
$ACADVER
1
AC1015
9
$DWGCODEPAGE
3
ANSI_1252
9
$HANDSEED
5
1f4
9
$ANGBASE
50
0
9
$ANGDIR
70
0
9
$ATTMODE
70
1
9
$AUNITS
70
0
9
$AUPREC
70
0
9
$CECOLOR
62
256
9
$CELTSCALE
40
1
9
$CELTYPE
6
ByLayer
9
$CELWEIGHT
370
18
9
$CLAYER
8
0
9
$CMLJUST
70
0
9
$CMLSCALE
40
1
9
$CMLSTYLE
2
Standard
9
$DIMSTYLE
2
Standard
9
$TEXTSIZE
40
0.2
9
$TEXTSTYLE
7
Standard
9
$LUNITS
70
2
9
$LUPREC
70
4
9
$EXTNAMES
290
1
9
$INSUNITS
70
4
9
$LTSCALE
40
1
9
$LWDISPLAY
290
1
9
$PDMODE
70
0
9
$PDSIZE
40
0
9
$PLINEGEN
70
0
0
ENDSEC
0
SECTION
2
CLASSES
0
CLASS
1
RASTERVARIABLES
2
AcDbRasterVariables
3
ISM
90
0
280
0
281
0
0
ENDSEC
0
SECTION
2
TABLES
0
TABLE
2
VPORT
5
1ea
100
AcDbSymbolTable
0
VPORT
5
1
100
AcDbSymbolTableRecord
100
AcDbViewportTableRecord
2
*Active
70
0
10
0
20
0
11
1
21
1
12
-1
22
1
13
0
23
0
14
0.5
24
0.5
15
10
25
10
16
0
26
0
36
1
17
0
27
0
37
0
0
ENDTAB
0
TABLE
2
LTYPE
5
1eb
100
AcDbSymbolTable
0
LTYPE
5
14
100
AcDbSymbolTableRecord
100
AcDbLinetypeTableRecord
70
0
2
ByBlock
3

72
65
73
0
40
0
0
LTYPE
5
15
100
AcDbSymbolTableRecord
100
AcDbLinetypeTableRecord
70
0
2
ByLayer
3

72
65
73
0
40
0
0
LTYPE
5
16
100
AcDbSymbolTableRecord
100
AcDbLinetypeTableRecord
70
0
2
CONTINUOUS
3
Solid line
72
65
73
0
40
0
0
LTYPE
5
6A
100
AcDbSymbolTableRecord
100
AcDbLinetypeTableRecord
70
0
2
CENTER
3
____ _ ____ _ ____ _ ____
72
65
73
4
40
47.5
49
22
74
0
49
-8.5
74
0
49
8.5
74
0
49
-8.5
74
0
0
LTYPE
5
6B
100
AcDbSymbolTableRecord
100
AcDbLinetypeTableRecord
70
0
2
DASHED
3
__ __ __ __ __ __ __ __ __
72
65
73
2
40
25.72
49
12.86
74
0
49
-12.86
74
0
0
ENDTAB
0
TABLE
2
LAYER
5
1ec
100
AcDbSymbolTable
0
LAYER
5
10
100
AcDbSymbolTableRecord
100
AcDbLayerTableRecord
2
0
70
0
62
7
6
CONTINUOUS
290
1
370
-3
390
0
0
LAYER
5
6D
100
AcDbSymbolTableRecord
100
AcDbLayerTableRecord
2
81
70
0
62
-3
6
CONTINUOUS
290
1
370
-3
390
0
0
LAYER
5
6F
100
AcDbSymbolTableRecord
100
AcDbLayerTableRecord
2
80
70
0
62
-6
6
CONTINUOUS
290
1
370
-3
390
0
0
LAYER
5
71
100
AcDbSymbolTableRecord
100
AcDbLayerTableRecord
2
1
70
0
62
4
6
CONTINUOUS
290
1
370
-3
390
0
0
LAYER
5
B2
100
AcDbSymbolTableRecord
100
AcDbLayerTableRecord
2
4
70
0
62
-2
6
CENTER
290
1
370
-3
390
0
0
LAYER
5
16F
100
AcDbSymbolTableRecord
100
AcDbLayerTableRecord
2
2
70
0
62
7
6
CONTINUOUS
290
1
370
-3
390
0
0
LAYER
5
1d5
100
AcDbSymbolTableRecord
100
AcDbLayerTableRecord
2
SK1
70
0
62
4
6
CONTINUOUS
290
1
370
-3
390
0
0
LAYER
5
1d6
100
AcDbSymbolTableRecord
100
AcDbLayerTableRecord
2
SK3
70
0
62
1
6
DASHED
290
1
370
-3
390
0
0
LAYER
5
1d7
100
AcDbSymbolTableRecord
100
AcDbLayerTableRecord
2
SK4
70
0
62
2
6
CENTER
290
1
370
-3
390
0
0
LAYER
5
1d8
100
AcDbSymbolTableRecord
100
AcDbLayerTableRecord
2
SK6
70
0
62
5
6
CONTINUOUS
290
1
370
-3
390
0
0
LAYER
5
1d9
100
AcDbSymbolTableRecord
100
AcDbLayerTableRecord
2
SK2
70
0
62
7
6
CONTINUOUS
290
1
370
-3
390
0
0
ENDTAB
0
TABLE
2
STYLE
5
1ed
100
AcDbSymbolTable
0
STYLE
5
11
100
AcDbSymbolTableRecord
100
AcDbTextStyleTableRecord
2
Standard
3
txt
70
0
71
0
40
0
41
1
42
0
50
0
0
STYLE
5
100
100
AcDbSymbolTableRecord
100
AcDbTextStyleTableRecord
2
iso_b_vert
3
simplex.shx
70
0
71
0
40
0
41
1
42
0
50
0
0
STYLE
5
101
100
AcDbSymbolTableRecord
100
AcDbTextStyleTableRecord
2
DWGDirectTextStyle
3
simplex
70
0
71
0
40
0
41
1
42
0
50
0
0
ENDTAB
0
TABLE
2
DIMSTYLE
5
1ee
100
AcDbSymbolTable
100
AcDbDimStyleTable
0
DIMSTYLE
105
27
100
AcDbSymbolTableRecord
100
AcDbDimStyleTableRecord
2
Standard
70
0
3
<>
41
0.18
42
0.0625
44
0.18
140
0.18
147
0.09
73
0
74
0
77
1
271
2
275
0
278
52
280
0
340
11
0
ENDTAB
0
TABLE
2
VIEW
5
1ef
100
AcDbSymbolTable
0
ENDTAB
0
TABLE
2
UCS
5
1f0
100
AcDbSymbolTable
0
ENDTAB
0
TABLE
2
APPID
5
1f1
100
AcDbSymbolTable
0
APPID
5
12
100
AcDbSymbolTableRecord
100
AcDbRegAppTableRecord
2
ACAD
70
0
0
ENDTAB
0
TABLE
2
BLOCK_RECORD
5
1f2
100
AcDbSymbolTable
0
BLOCK_RECORD
5
1F
100
AcDbSymbolTableRecord
100
AcDbBlockTableRecord
2
*Model_Space
340
0
70
0
0
BLOCK_RECORD
5
1B
100
AcDbSymbolTableRecord
100
AcDbBlockTableRecord
2
*Paper_Space
340
0
70
0
0
BLOCK_RECORD
5
23
100
AcDbSymbolTableRecord
100
AcDbBlockTableRecord
2
*Paper_Space0
340
0
70
0
0
BLOCK_RECORD
5
103
100
AcDbSymbolTableRecord
100
AcDbBlockTableRecord
2
DimnDraft3D1
340
0
70
0
0
BLOCK_RECORD
5
112
100
AcDbSymbolTableRecord
100
AcDbBlockTableRecord
2
_CLOSED
340
0
70
0
0
BLOCK_RECORD
5
119
100
AcDbSymbolTableRecord
100
AcDbBlockTableRecord
2
DimnDraft3D2
340
0
70
0
0
BLOCK_RECORD
5
127
100
AcDbSymbolTableRecord
100
AcDbBlockTableRecord
2
DimnDraft3D3
340
0
70
0
0
BLOCK_RECORD
5
135
100
AcDbSymbolTableRecord
100
AcDbBlockTableRecord
2
DimnDraft3D4
340
0
70
0
0
BLOCK_RECORD
5
143
100
AcDbSymbolTableRecord
100
AcDbBlockTableRecord
2
DimnDraft3D5
340
0
70
0
0
BLOCK_RECORD
5
151
100
AcDbSymbolTableRecord
100
AcDbBlockTableRecord
2
DimnDraft3D6
340
0
70
0
0
BLOCK_RECORD
5
15F
100
AcDbSymbolTableRecord
100
AcDbBlockTableRecord
2
DimnDraft3D7
340
0
70
0
0
BLOCK_RECORD
5
16D
100
AcDbSymbolTableRecord
100
AcDbBlockTableRecord
2
DimnDraft3D8
340
0
70
0
0
ENDTAB
0
ENDSEC
0
SECTION
2
BLOCKS
0
BLOCK
5
20
100
AcDbEntity
8
0
100
AcDbBlockBegin
2
*Model_Space
70
0
10
0
20
0
30
0
3
*Model_Space
0
ENDBLK
5
21
100
AcDbEntity
8
0
100
AcDbBlockEnd
0
BLOCK
5
1C
100
AcDbEntity
8
0
100
AcDbBlockBegin
2
*Paper_Space
70
0
10
0
20
0
30
0
3
*Paper_Space
0
ENDBLK
5
1D
100
AcDbEntity
8
0
100
AcDbBlockEnd
0
BLOCK
5
24
100
AcDbEntity
8
0
100
AcDbBlockBegin
2
*Paper_Space0
70
0
10
0
20
0
30
0
3
*Paper_Space0
0
ENDBLK
5
25
100
AcDbEntity
8
0
100
AcDbBlockEnd
0
BLOCK
5
10F
100
AcDbEntity
8
0
100
AcDbBlockBegin
2
DimnDraft3D1
70
0
10
0
20
0
30
0
3
DimnDraft3D1
0
MTEXT
5
104
100
AcDbEntity
8
SK2
62
256
6
ByLayer
370
18
48
1
60
0
100
AcDbMText
10
-57.180843
20
-4.452632
30
0
210
0
220
0
230
1
1
\W1.2949;%%c80
40
3
41
0
44
1.084337
50
90
71
7
72
5
7
iso_b_vert
0
LINE
5
106
100
AcDbEntity
8
SK2
62
256
6
ByLayer
370
13
48
1
60
0
100
AcDbLine
10
-1.7
20
-40
30
0
11
-57.680843
21
-40
31
0
39
0
210
0
220
0
230
1
0
LINE
5
107
100
AcDbEntity
8
SK2
62
256
6
ByLayer
370
13
48
1
60
0
100
AcDbLine
10
-1.7
20
40
30
0
11
-57.680843
21
40
31
0
39
0
210
0
220
0
230
1
0
LINE
5
108
100
AcDbEntity
8
SK2
62
256
6
ByLayer
370
13
48
1
60
0
100
AcDbLine
10
-55.680843
20
-40
30
0
11
-55.680843
21
40
31
0
39
0
210
0
220
0
230
1
0
LINE
5
109
100
AcDbEntity
8
SK2
62
256
6
ByLayer
370
13
48
1
60
0
100
AcDbLine
10
-55.680843
20
-40
30
0
11
-56.09884
21
-36.825002
31
0
39
0
210
0
220
0
230
1
0
LINE
5
10A
100
AcDbEntity
8
SK2
62
256
6
ByLayer
370
13
48
1
60
0
100
AcDbLine
10
-55.680843
20
-40
30
0
11
-55.262847
21
-36.824998
31
0
39
0
210
0
220
0
230
1
0
LINE
5
10B
100
AcDbEntity
8
SK2
62
256
6
ByLayer
370
13
48
1
60
0
100
AcDbLine
10
-56.09884
20
-36.825002
30
0
11
-55.262847
21
-36.824998
31
0
39
0
210
0
220
0
230
1
0
LINE
5
10C
100
AcDbEntity
8
SK2
62
256
6
ByLayer
370
13
48
1
60
0
100
AcDbLine
10
-55.680843
20
40
30
0
11
-55.262847
21
36.825002
31
0
39
0
210
0
220
0
230
1
0
LINE
5
10D
100
AcDbEntity
8
SK2
62
256
6
ByLayer
370
13
48
1
60
0
100
AcDbLine
10
-55.680843
20
40
30
0
11
-56.09884
21
36.824998
31
0
39
0
210
0
220
0
230
1
0
LINE
5
10E
100
AcDbEntity
8
SK2
62
256
6
ByLayer
370
13
48
1
60
0
100
AcDbLine
10
-55.262847
20
36.825002
30
0
11
-56.09884
21
36.824998
31
0
39
0
210
0
220
0
230
1
0
ENDBLK
5
110
100
AcDbEntity
8
0
100
AcDbBlockEnd
0
BLOCK
5
113
100
AcDbEntity
8
0
100
AcDbBlockBegin
2
_CLOSED
70
0
10
0
20
0
30
0
3
_CLOSED
0
LINE
5
115
100
AcDbEntity
8
0
62
256
6
ByLayer
370
-2
48
1
60
0
100
AcDbLine
10
-1
20
0.166667
30
0
11
0
21
0
31
0
39
0
210
0
220
0
230
1
0
LINE
5
116
100
AcDbEntity
8
0
62
256
6
ByLayer
370
-2
48
1
60
0
100
AcDbLine
10
0
20
0
30
0
11
-1
21
-0.166667
31
0
39
0
210
0
220
0
230
1
0
LINE
5
117
100
AcDbEntity
8
0
62
256
6
ByLayer
370
-2
48
1
60
0
100
AcDbLine
10
-1
20
0.166667
30
0
11
-1
21
-0.166667
31
0
39
0
210
0
220
0
230
1
0
LINE
5
118
100
AcDbEntity
8
0
62
256
6
ByLayer
370
-2
48
1
60
0
100
AcDbLine
10
0
20
0
30
0
11
-1
21
0
31
0
39
0
210
0
220
0
230
1
0
ENDBLK
5
114
100
AcDbEntity
8
0
100
AcDbBlockEnd
0
BLOCK
5
124
100
AcDbEntity
8
0
100
AcDbBlockBegin
2
DimnDraft3D2
70
0
10
0
20
0
30
0
3
DimnDraft3D2
0
MTEXT
5
11A
100
AcDbEntity
8
SK2
62
256
6
ByLayer
370
18
48
1
60
0
100
AcDbMText
10
156.777977
20
4.098684
30
0
210
0
220
0
230
1
1
\W0.5211;8
40
3
41
0
44
1.084337
50
90
71
7
72
5
7
iso_b_vert
0
LINE
5
11B
100
AcDbEntity
8
SK2
62
256
6
ByLayer
370
13
48
1
60
0
100
AcDbLine
10
132
20
8
30
0
11
159.527977
21
8
31
0
39
0
210
0
220
0
230
1
0
LINE
5
11C
100
AcDbEntity
8
SK2
62
256
6
ByLayer
370
13
48
1
60
0
100
AcDbLine
10
147.73346
20
0
30
0
11
159.527977
21
0
31
0
39
0
210
0
220
0
230
1
0
LINE
5
11D
100
AcDbEntity
8
SK2
62
256
6
ByLayer
370
13
48
1
60
0
100
AcDbLine
10
157.527977
20
15.5
30
0
11
157.527977
21
-7.5
31
0
39
0
210
0
220
0
230
1
0
LINE
5
11E
100
AcDbEntity
8
SK2
62
256
6
ByLayer
370
13
48
1
60
0
100
AcDbLine
10
157.527977
20
8
30
0
11
157.10998
21
11.174998
31
0
39
0
210
0
220
0
230
1
0
LINE
5
11F
100
AcDbEntity
8
SK2
62
256
6
ByLayer
370
13
48
1
60
0
100
AcDbLine
10
157.527977
20
8
30
0
11
157.945974
21
11.175002
31
0
39
0
210
0
220
0
230
1
0
LINE
5
120
100
AcDbEntity
8
SK2
62
256
6
ByLayer
370
13
48
1
60
0
100
AcDbLine
10
157.10998
20
11.174998
30
0
11
157.945974
21
11.175002
31
0
39
0
210
0
220
0
230
1
0
LINE
5
121
100
AcDbEntity
8
SK2
62
256
6
ByLayer
370
13
48
1
60
0
100
AcDbLine
10
157.527977
20
0
30
0
11
157.945974
21
-3.174998
31
0
39
0
210
0
220
0
230
1
0
LINE
5
122
100
AcDbEntity
8
SK2
62
256
6
ByLayer
370
13
48
1
60
0
100
AcDbLine
10
157.527977
20
0
30
0
11
157.10998
21
-3.175002
31
0
39
0
210
0
220
0
230
1
0
LINE
5
123
100
AcDbEntity
8
SK2
62
256
6
ByLayer
370
13
48
1
60
0
100
AcDbLine
10
157.945974
20
-3.174998
30
0
11
157.10998
21
-3.175002
31
0
39
0
210
0
220
0
230
1
0
ENDBLK
5
125
100
AcDbEntity
8
0
100
AcDbBlockEnd
0
BLOCK
5
132
100
AcDbEntity
8
0
100
AcDbBlockBegin
2
DimnDraft3D3
70
0
10
0
20
0
30
0
3
DimnDraft3D3
0
MTEXT
5
128
100
AcDbEntity
8
SK2
62
256
6
ByLayer
370
18
48
1
60
0
100
AcDbMText
10
165.674426
20
18.839474
30
0
210
0
220
0
230
1
1
\W0.7183;40
40
3
41
0
44
1.084337
50
90
71
7
72
5
7
iso_b_vert
0
LINE
5
129
100
AcDbEntity
8
SK2
62
256
6
ByLayer
370
13
48
1
60
0
100
AcDbLine
10
147.73346
20
0
30
0
11
168.424426
21
0
31
0
39
0
210
0
220
0
230
1
0
LINE
5
12A
100
AcDbEntity
8
SK2
62
256
6
ByLayer
370
13
48
1
60
0
100
AcDbLine
10
142
20
40
30
0
11
168.424426
21
40
31
0
39
0
210
0
220
0
230
1
0
LINE
5
12B
100
AcDbEntity
8
SK2
62
256
6
ByLayer
370
13
48
1
60
0
100
AcDbLine
10
166.424426
20
0
30
0
11
166.424426
21
40
31
0
39
0
210
0
220
0
230
1
0
LINE
5
12C
100
AcDbEntity
8
SK2
62
256
6
ByLayer
370
13
48
1
60
0
100
AcDbLine
10
166.424426
20
0
30
0
11
166.006429
21
3.174998
31
0
39
0
210
0
220
0
230
1
0
LINE
5
12D
100
AcDbEntity
8
SK2
62
256
6
ByLayer
370
13
48
1
60
0
100
AcDbLine
10
166.424426
20
0
30
0
11
166.842422
21
3.175002
31
0
39
0
210
0
220
0
230
1
0
LINE
5
12E
100
AcDbEntity
8
SK2
62
256
6
ByLayer
370
13
48
1
60
0
100
AcDbLine
10
166.006429
20
3.174998
30
0
11
166.842422
21
3.175002
31
0
39
0
210
0
220
0
230
1
0
LINE
5
12F
100
AcDbEntity
8
SK2
62
256
6
ByLayer
370
13
48
1
60
0
100
AcDbLine
10
166.424426
20
40
30
0
11
166.842422
21
36.825002
31
0
39
0
210
0
220
0
230
1
0
LINE
5
130
100
AcDbEntity
8
SK2
62
256
6
ByLayer
370
13
48
1
60
0
100
AcDbLine
10
166.424426
20
40
30
0
11
166.006429
21
36.824998
31
0
39
0
210
0
220
0
230
1
0
LINE
5
131
100
AcDbEntity
8
SK2
62
256
6
ByLayer
370
13
48
1
60
0
100
AcDbLine
10
166.842422
20
36.825002
30
0
11
166.006429
21
36.824998
31
0
39
0
210
0
220
0
230
1
0
ENDBLK
5
133
100
AcDbEntity
8
0
100
AcDbBlockEnd
0
BLOCK
5
140
100
AcDbEntity
8
0
100
AcDbBlockBegin
2
DimnDraft3D4
70
0
10
0
20
0
30
0
3
DimnDraft3D4
0
MTEXT
5
136
100
AcDbEntity
8
SK2
62
256
6
ByLayer
370
18
48
1
60
0
100
AcDbMText
10
165.674426
20
-21.160526
30
0
210
0
220
0
230
1
1
\W0.7183;40
40
3
41
0
44
1.084337
50
90
71
7
72
5
7
iso_b_vert
0
LINE
5
137
100
AcDbEntity
8
SK2
62
256
6
ByLayer
370
13
48
1
60
0
100
AcDbLine
10
147.73346
20
0
30
0
11
168.424426
21
0
31
0
39
0
210
0
220
0
230
1
0
LINE
5
138
100
AcDbEntity
8
SK2
62
256
6
ByLayer
370
13
48
1
60
0
100
AcDbLine
10
97.757359
20
-40
30
0
11
168.424426
21
-40
31
0
39
0
210
0
220
0
230
1
0
LINE
5
139
100
AcDbEntity
8
SK2
62
256
6
ByLayer
370
13
48
1
60
0
100
AcDbLine
10
166.424426
20
0
30
0
11
166.424426
21
-40
31
0
39
0
210
0
220
0
230
1
0
LINE
5
13A
100
AcDbEntity
8
SK2
62
256
6
ByLayer
370
13
48
1
60
0
100
AcDbLine
10
166.424426
20
0
30
0
11
166.842422
21
-3.174998
31
0
39
0
210
0
220
0
230
1
0
LINE
5
13B
100
AcDbEntity
8
SK2
62
256
6
ByLayer
370
13
48
1
60
0
100
AcDbLine
10
166.424426
20
0
30
0
11
166.006429
21
-3.175002
31
0
39
0
210
0
220
0
230
1
0
LINE
5
13C
100
AcDbEntity
8
SK2
62
256
6
ByLayer
370
13
48
1
60
0
100
AcDbLine
10
166.842422
20
-3.174998
30
0
11
166.006429
21
-3.175002
31
0
39
0
210
0
220
0
230
1
0
LINE
5
13D
100
AcDbEntity
8
SK2
62
256
6
ByLayer
370
13
48
1
60
0
100
AcDbLine
10
166.424426
20
-40
30
0
11
166.006429
21
-36.825002
31
0
39
0
210
0
220
0
230
1
0
LINE
5
13E
100
AcDbEntity
8
SK2
62
256
6
ByLayer
370
13
48
1
60
0
100
AcDbLine
10
166.424426
20
-40
30
0
11
166.842422
21
-36.824998
31
0
39
0
210
0
220
0
230
1
0
LINE
5
13F
100
AcDbEntity
8
SK2
62
256
6
ByLayer
370
13
48
1
60
0
100
AcDbLine
10
166.006429
20
-36.825002
30
0
11
166.842422
21
-36.824998
31
0
39
0
210
0
220
0
230
1
0
ENDBLK
5
141
100
AcDbEntity
8
0
100
AcDbBlockEnd
0
BLOCK
5
14E
100
AcDbEntity
8
0
100
AcDbBlockBegin
2
DimnDraft3D5
70
0
10
0
20
0
30
0
3
DimnDraft3D5
0
MTEXT
5
144
100
AcDbEntity
8
SK2
62
256
6
ByLayer
370
18
48
1
60
0
100
AcDbMText
10
13.957895
20
55.776986
30
0
210
0
220
0
230
1
1
\W0.6740;30
40
3
41
0
44
1.084337
50
0
71
7
72
5
7
iso_b_vert
0
LINE
5
145
100
AcDbEntity
8
SK2
62
256
6
ByLayer
370
13
48
1
60
0
100
AcDbLine
10
0
20
41.7
30
0
11
0
21
57.026986
31
0
39
0
210
0
220
0
230
1
0
LINE
5
146
100
AcDbEntity
8
SK2
62
256
6
ByLayer
370
13
48
1
60
0
100
AcDbLine
10
30
20
42
30
0
11
30
21
57.026986
31
0
39
0
210
0
220
0
230
1
0
LINE
5
147
100
AcDbEntity
8
SK2
62
256
6
ByLayer
370
13
48
1
60
0
100
AcDbLine
10
0
20
55.026986
30
0
11
30
21
55.026986
31
0
39
0
210
0
220
0
230
1
0
LINE
5
148
100
AcDbEntity
8
SK2
62
256
6
ByLayer
370
13
48
1
60
0
100
AcDbLine
10
0
20
55.026986
30
0
11
3.174998
21
55.444982
31
0
39
0
210
0
220
0
230
1
0
LINE
5
149
100
AcDbEntity
8
SK2
62
256
6
ByLayer
370
13
48
1
60
0
100
AcDbLine
10
0
20
55.026986
30
0
11
3.175002
21
54.608989
31
0
39
0
210
0
220
0
230
1
0
LINE
5
14A
100
AcDbEntity
8
SK2
62
256
6
ByLayer
370
13
48
1
60
0
100
AcDbLine
10
3.174998
20
55.444982
30
0
11
3.175002
21
54.608989
31
0
39
0
210
0
220
0
230
1
0
LINE
5
14B
100
AcDbEntity
8
SK2
62
256
6
ByLayer
370
13
48
1
60
0
100
AcDbLine
10
30
20
55.026986
30
0
11
26.825002
21
54.608989
31
0
39
0
210
0
220
0
230
1
0
LINE
5
14C
100
AcDbEntity
8
SK2
62
256
6
ByLayer
370
13
48
1
60
0
100
AcDbLine
10
30
20
55.026986
30
0
11
26.824998
21
55.444982
31
0
39
0
210
0
220
0
230
1
0
LINE
5
14D
100
AcDbEntity
8
SK2
62
256
6
ByLayer
370
13
48
1
60
0
100
AcDbLine
10
26.825002
20
54.608989
30
0
11
26.824998
21
55.444982
31
0
39
0
210
0
220
0
230
1
0
ENDBLK
5
14F
100
AcDbEntity
8
0
100
AcDbBlockEnd
0
BLOCK
5
15C
100
AcDbEntity
8
0
100
AcDbBlockBegin
2
DimnDraft3D6
70
0
10
0
20
0
30
0
3
DimnDraft3D6
0
MTEXT
5
152
100
AcDbEntity
8
SK2
62
256
6
ByLayer
370
18
48
1
60
0
100
AcDbMText
10
16.457895
20
65.435974
30
0
210
0
220
0
230
1
1
\W0.6740;35
40
3
41
0
44
1.084337
50
0
71
7
72
5
7
iso_b_vert
0
LINE
5
153
100
AcDbEntity
8
SK2
62
256
6
ByLayer
370
13
48
1
60
0
100
AcDbLine
10
0
20
41.7
30
0
11
0
21
66.685974
31
0
39
0
210
0
220
0
230
1
0
LINE
5
154
100
AcDbEntity
8
SK2
62
256
6
ByLayer
370
13
48
1
60
0
100
AcDbLine
10
35
20
42
30
0
11
35
21
66.685974
31
0
39
0
210
0
220
0
230
1
0
LINE
5
155
100
AcDbEntity
8
SK2
62
256
6
ByLayer
370
13
48
1
60
0
100
AcDbLine
10
0
20
64.685974
30
0
11
35
21
64.685974
31
0
39
0
210
0
220
0
230
1
0
LINE
5
156
100
AcDbEntity
8
SK2
62
256
6
ByLayer
370
13
48
1
60
0
100
AcDbLine
10
0
20
64.685974
30
0
11
3.174998
21
65.103971
31
0
39
0
210
0
220
0
230
1
0
LINE
5
157
100
AcDbEntity
8
SK2
62
256
6
ByLayer
370
13
48
1
60
0
100
AcDbLine
10
0
20
64.685974
30
0
11
3.175002
21
64.267977
31
0
39
0
210
0
220
0
230
1
0
LINE
5
158
100
AcDbEntity
8
SK2
62
256
6
ByLayer
370
13
48
1
60
0
100
AcDbLine
10
3.174998
20
65.103971
30
0
11
3.175002
21
64.267977
31
0
39
0
210
0
220
0
230
1
0
LINE
5
159
100
AcDbEntity
8
SK2
62
256
6
ByLayer
370
13
48
1
60
0
100
AcDbLine
10
35
20
64.685974
30
0
11
31.825002
21
64.267977
31
0
39
0
210
0
220
0
230
1
0
LINE
5
15A
100
AcDbEntity
8
SK2
62
256
6
ByLayer
370
13
48
1
60
0
100
AcDbLine
10
35
20
64.685974
30
0
11
31.824998
21
65.103971
31
0
39
0
210
0
220
0
230
1
0
LINE
5
15B
100
AcDbEntity
8
SK2
62
256
6
ByLayer
370
13
48
1
60
0
100
AcDbLine
10
31.825002
20
64.267977
30
0
11
31.824998
21
65.103971
31
0
39
0
210
0
220
0
230
1
0
ENDBLK
5
15D
100
AcDbEntity
8
0
100
AcDbBlockEnd
0
BLOCK
5
16A
100
AcDbEntity
8
0
100
AcDbBlockBegin
2
DimnDraft3D7
70
0
10
0
20
0
30
0
3
DimnDraft3D7
0
MTEXT
5
160
100
AcDbEntity
8
SK2
62
256
6
ByLayer
370
18
48
1
60
0
100
AcDbMText
10
63.211842
20
75.318275
30
0
210
0
220
0
230
1
1
\W0.6217;130
40
3
41
0
44
1.084337
50
0
71
7
72
5
7
iso_b_vert
0
LINE
5
161
100
AcDbEntity
8
SK2
62
256
6
ByLayer
370
13
48
1
60
0
100
AcDbLine
10
0
20
41.7
30
0
11
0
21
76.568275
31
0
39
0
210
0
220
0
230
1
0
LINE
5
162
100
AcDbEntity
8
SK2
62
256
6
ByLayer
370
13
48
1
60
0
100
AcDbLine
10
130
20
39
30
0
11
130
21
76.568275
31
0
39
0
210
0
220
0
230
1
0
LINE
5
163
100
AcDbEntity
8
SK2
62
256
6
ByLayer
370
13
48
1
60
0
100
AcDbLine
10
0
20
74.568275
30
0
11
130
21
74.568275
31
0
39
0
210
0
220
0
230
1
0
LINE
5
164
100
AcDbEntity
8
SK2
62
256
6
ByLayer
370
13
48
1
60
0
100
AcDbLine
10
0
20
74.568275
30
0
11
3.174998
21
74.986272
31
0
39
0
210
0
220
0
230
1
0
LINE
5
165
100
AcDbEntity
8
SK2
62
256
6
ByLayer
370
13
48
1
60
0
100
AcDbLine
10
0
20
74.568275
30
0
11
3.175002
21
74.150278
31
0
39
0
210
0
220
0
230
1
0
LINE
5
166
100
AcDbEntity
8
SK2
62
256
6
ByLayer
370
13
48
1
60
0
100
AcDbLine
10
3.174998
20
74.986272
30
0
11
3.175002
21
74.150278
31
0
39
0
210
0
220
0
230
1
0
LINE
5
167
100
AcDbEntity
8
SK2
62
256
6
ByLayer
370
13
48
1
60
0
100
AcDbLine
10
130
20
74.568275
30
0
11
126.825002
21
74.150278
31
0
39
0
210
0
220
0
230
1
0
LINE
5
168
100
AcDbEntity
8
SK2
62
256
6
ByLayer
370
13
48
1
60
0
100
AcDbLine
10
130
20
74.568275
30
0
11
126.824998
21
74.986272
31
0
39
0
210
0
220
0
230
1
0
LINE
5
169
100
AcDbEntity
8
SK2
62
256
6
ByLayer
370
13
48
1
60
0
100
AcDbLine
10
126.825002
20
74.150278
30
0
11
126.824998
21
74.986272
31
0
39
0
210
0
220
0
230
1
0
ENDBLK
5
16B
100
AcDbEntity
8
0
100
AcDbBlockEnd
0
BLOCK
5
179
100
AcDbEntity
8
0
100
AcDbBlockBegin
2
DimnDraft3D8
70
0
10
0
20
0
30
0
3
DimnDraft3D8
0
MTEXT
5
16E
100
AcDbEntity
8
2
62
256
6
ByLayer
370
18
48
1
60
0
100
AcDbMText
10
68.053947
20
84.828369
30
0
210
0
220
0
230
1
1
\W0.6620;140
40
3
41
0
44
1.084337
50
0
71
7
72
5
7
iso_b_vert
0
LINE
5
170
100
AcDbEntity
8
2
62
256
6
ByLayer
370
13
48
1
60
0
100
AcDbLine
10
0
20
41.7
30
0
11
0
21
86.078369
31
0
39
0
210
0
220
0
230
1
0
LINE
5
171
100
AcDbEntity
8
2
62
256
6
ByLayer
370
13
48
1
60
0
100
AcDbLine
10
140
20
42
30
0
11
140
21
86.078369
31
0
39
0
210
0
220
0
230
1
0
LINE
5
172
100
AcDbEntity
8
2
62
256
6
ByLayer
370
13
48
1
60
0
100
AcDbLine
10
0
20
84.078369
30
0
11
140
21
84.078369
31
0
39
0
210
0
220
0
230
1
0
LINE
5
173
100
AcDbEntity
8
2
62
256
6
ByLayer
370
13
48
1
60
0
100
AcDbLine
10
0
20
84.078369
30
0
11
3.174998
21
84.496366
31
0
39
0
210
0
220
0
230
1
0
LINE
5
174
100
AcDbEntity
8
2
62
256
6
ByLayer
370
13
48
1
60
0
100
AcDbLine
10
0
20
84.078369
30
0
11
3.175002
21
83.660372
31
0
39
0
210
0
220
0
230
1
0
LINE
5
175
100
AcDbEntity
8
2
62
256
6
ByLayer
370
13
48
1
60
0
100
AcDbLine
10
3.174998
20
84.496366
30
0
11
3.175002
21
83.660372
31
0
39
0
210
0
220
0
230
1
0
LINE
5
176
100
AcDbEntity
8
2
62
256
6
ByLayer
370
13
48
1
60
0
100
AcDbLine
10
140
20
84.078369
30
0
11
136.825002
21
83.660372
31
0
39
0
210
0
220
0
230
1
0
LINE
5
177
100
AcDbEntity
8
2
62
256
6
ByLayer
370
13
48
1
60
0
100
AcDbLine
10
140
20
84.078369
30
0
11
136.824998
21
84.496366
31
0
39
0
210
0
220
0
230
1
0
LINE
5
178
100
AcDbEntity
8
2
62
256
6
ByLayer
370
13
48
1
60
0
100
AcDbLine
10
136.825002
20
83.660372
30
0
11
136.824998
21
84.496366
31
0
39
0
210
0
220
0
230
1
0
ENDBLK
5
17A
100
AcDbEntity
8
0
100
AcDbBlockEnd
0
ENDSEC
0
SECTION
2
ENTITIES
0
ARC
5
BA
100
AcDbEntity
8
1
62
256
6
ByLayer
370
18
48
1
60
0
100
AcDbCircle
39
0
10
-129.7
20
7.8
30
0
40
0.799999999999859
210
0
220
0
230
-1
100
AcDbArc
50
180
51
247.975687
0
ARC
5
BB
100
AcDbEntity
8
SK1
62
256
6
ByLayer
370
18
48
1
60
0
100
AcDbCircle
39
0
10
-0.6
20
29.6
30
0
40
1
210
0
220
0
230
1
100
AcDbArc
50
293.57902
51
306.870739
0
ARC
5
BC
100
AcDbEntity
8
1
62
256
6
ByLayer
370
18
48
1
60
0
100
AcDbCircle
39
0
10
51
20
24
30
0
40
3.49729925561599
210
0
220
0
230
1
100
AcDbArc
50
270
51
269.989383
0
ARC
5
BD
100
AcDbEntity
8
1
62
256
6
ByLayer
370
18
48
1
60
0
100
AcDbCircle
39
0
10
86
20
24
30
0
40
3.49729925561752
210
0
220
0
230
1
100
AcDbArc
50
270
51
269.989383
0
ARC
5
BE
100
AcDbEntity
8
1
62
256
6
ByLayer
370
18
48
1
60
0
100
AcDbCircle
39
0
10
121
20
24
30
0
40
3.49729925561686
210
0
220
0
230
1
100
AcDbArc
50
270
51
269.989383
0
ARC
5
BF
100
AcDbEntity
8
1
62
256
6
ByLayer
370
18
48
1
60
0
100
AcDbCircle
39
0
10
105
20
0
30
0
40
3
210
0
220
0
230
1
100
AcDbArc
50
270
51
269.989383
0
ARC
5
C0
100
AcDbEntity
8
SK1
62
256
6
ByLayer
370
18
48
1
60
0
100
AcDbCircle
39
0
10
-0.6
20
-29.6
30
0
40
1
210
0
220
0
230
1
100
AcDbArc
50
53.130944
51
66.422663
0
CIRCLE
5
B3
100
AcDbEntity
8
1
62
256
6
ByLayer
370
18
48
1
60
0
100
AcDbCircle
10
-86
20
24
30
0
40
4.9265
39
0
210
0
220
0
230
-1
0
CIRCLE
5
B4
100
AcDbEntity
8
1
62
256
6
ByLayer
370
18
48
1
60
0
100
AcDbCircle
10
-86
20
24
30
0
40
6
39
0
210
0
220
0
230
-1
0
CIRCLE
5
B5
100
AcDbEntity
8
1
62
256
6
ByLayer
370
18
48
1
60
0
100
AcDbCircle
10
-105
20
0
30
0
40
4
39
0
210
0
220
0
230
-1
0
CIRCLE
5
B6
100
AcDbEntity
8
1
62
256
6
ByLayer
370
18
48
1
60
0
100
AcDbCircle
10
-51
20
24
30
0
40
4.9265
39
0
210
0
220
0
230
-1
0
CIRCLE
5
B7
100
AcDbEntity
8
1
62
256
6
ByLayer
370
18
48
1
60
0
100
AcDbCircle
10
-51
20
24
30
0
40
6
39
0
210
0
220
0
230
-1
0
CIRCLE
5
B8
100
AcDbEntity
8
1
62
256
6
ByLayer
370
18
48
1
60
0
100
AcDbCircle
10
-121
20
24
30
0
40
4.9265
39
0
210
0
220
0
230
-1
0
CIRCLE
5
B9
100
AcDbEntity
8
1
62
256
6
ByLayer
370
18
48
1
60
0
100
AcDbCircle
10
-121
20
24
30
0
40
6
39
0
210
0
220
0
230
-1
0
ELLIPSE
5
C1
100
AcDbEntity
8
1
62
256
6
ByLayer
370
18
48
1
60
0
100
AcDbEllipse
10
131.564936
20
13.856777
30
0
11
1.32479816034678
21
-2.12012023999884
31
0
210
0
220
0
230
-1
40
0.173648
41
3.14159265358979
42
-2.96433894447597
0
ELLIPSE
5
C2
100
AcDbEntity
8
1
62
256
6
ByLayer
370
18
48
1
60
0
100
AcDbEllipse
10
131.564936
20
13.856777
30
0
11
1.32479816034331
21
-2.12012024002127
31
0
210
0
220
0
230
-1
40
0.173648
41
-0.177253709113202
42
0
0
ELLIPSE
5
C3
100
AcDbEntity
8
1
62
256
6
ByLayer
370
18
48
1
60
0
100
AcDbEllipse
10
131.564936
20
13.856777
30
0
11
1.32479816058302
21
-2.12012024039107
31
0
210
0
220
0
230
-1
40
0.173648
41
-2.96433894449276
42
-0.177253709097039
0
ELLIPSE
5
C4
100
AcDbEntity
8
1
62
256
6
ByLayer
370
18
48
1
60
0
100
AcDbEllipse
10
131.690211
20
13.935058
30
0
11
1.24531027094805
21
-1.99291302596761
31
0
210
0
220
0
230
-1
40
0.173648
41
-2.96433894449274
42
-0.177253709097051
0
ELLIPSE
5
C5
100
AcDbEntity
8
1
62
256
6
ByLayer
370
18
48
1
60
0
100
AcDbEllipse
10
30.763884
20
0
30
0
11
18.7348357595513
21
39.483498305485
31
0
210
0
220
0
230
-1
40
0.341999
41
-2.9804936483608
42
-2.05364588642019
0
ELLIPSE
5
C6
100
AcDbEntity
8
1
62
256
6
ByLayer
370
18
48
1
60
0
100
AcDbEllipse
10
-6.763884
20
0
30
0
11
18.7348357595683
21
-39.4834983055052
31
0
210
0
220
0
230
-1
40
0.341999
41
-1.0879467671692
42
-0.16109900522893
0
ELLIPSE
5
C7
100
AcDbEntity
8
1
62
256
6
ByLayer
370
18
48
1
60
0
100
AcDbEllipse
10
30.763884
20
0
30
0
11
18.7348357595642
21
-39.483498305501
31
0
210
0
220
0
230
-1
40
0.341999
41
2.0536458864205
42
2.98049364836085
0
ELLIPSE
5
C8
100
AcDbEntity
8
1
62
256
6
ByLayer
370
18
48
1
60
0
100
AcDbEllipse
10
-6.763884
20
0
30
0
11
18.734835759562
21
39.4834983054978
31
0
210
0
220
0
230
-1
40
0.341999
41
0.161099005228949
42
1.08794676716935
0
ELLIPSE
5
C9
100
AcDbEntity
8
1
62
256
6
ByLayer
370
18
48
1
60
0
100
AcDbEllipse
10
-6.763884
20
0
30
0
11
18.734835759558
21
39.4834983054926
31
0
210
0
220
0
230
-1
40
0.341999
41
0.161099005228963
42
1.08794676716945
0
ELLIPSE
5
CA
100
AcDbEntity
8
1
62
256
6
ByLayer
370
18
48
1
60
0
100
AcDbEllipse
10
30.763884
20
0
30
0
11
18.7348357595606
21
-39.4834983054965
31
0
210
0
220
0
230
-1
40
0.341999
41
2.05364588642042
42
2.98049364836083
0
ELLIPSE
5
CB
100
AcDbEntity
8
1
62
256
6
ByLayer
370
18
48
1
60
0
100
AcDbEllipse
10
-6.763884
20
0
30
0
11
18.7348357595585
21
-39.4834983054931
31
0
210
0
220
0
230
-1
40
0.341999
41
-1.08794676716944
42
-0.161099005228963
0
ELLIPSE
5
CC
100
AcDbEntity
8
1
62
256
6
ByLayer
370
18
48
1
60
0
100
AcDbEllipse
10
30.763884
20
0
30
0
11
18.7348357595608
21
39.4834983054967
31
0
210
0
220
0
230
-1
40
0.341999
41
-2.98049364836083
42
-2.05364588642042
0
POINT
5
6C
100
AcDbEntity
8
81
62
256
6
ByLayer
370
18
48
1
60
0
100
AcDbPoint
10
140
20
24
30
0
39
0
210
0
220
0
230
1
50
360
0
POINT
5
6E
100
AcDbEntity
8
80
62
256
6
ByLayer
370
18
48
1
60
0
100
AcDbPoint
10
0
20
0
30
0
39
0
210
0
220
0
230
1
50
360
0
SPLINE
5
CD
100
AcDbEntity
8
1
62
256
6
ByLayer
370
18
48
1
60
0
100
AcDbSpline
70
4
71
3
72
13
73
9
40
0
40
0
40
0
40
0
40
0.256222331489359
40
0.59581696034713
40
0.756721547742845
40
0.892572489753384
40
0.999730652645809
40
1
40
1
40
1
40
1
41
1
10
10.1056624327026
20
-12.6576002058706
30
0
41
1
10
10.1204333089295
20
-12.5981337335353
30
0
41
1
10
10.1670722575807
20
-12.4656679136694
30
0
41
1
10
10.2532429756099
20
-12.3032744555844
30
0
41
1
10
10.3629529855713
20
-12.1928955703816
30
0
41
1
10
10.4510715216814
20
-12.1436124753763
30
0
41
1
10
10.5119106965935
20
-12.1331007202266
30
0
41
1
10
10.538608193134
20
-12.1330899681063
30
0
41
1
10
10.5386751345948
20
-12.1330899674709
30
0
0
SPLINE
5
CE
100
AcDbEntity
8
1
62
256
6
ByLayer
370
18
48
1
60
0
100
AcDbSpline
70
4
71
3
72
12
73
8
40
0
40
0
40
0
40
0
40
0.107090927408443
40
0.242566900788605
40
0.455432315408092
40
0.863255751650884
40
1
40
1
40
1
40
1
41
1
10
10.5386751345949
20
-38.1154578595257
30
0
41
1
10
10.5111569501376
20
-38.1152151562851
30
0
41
1
10
10.4519692068693
20
-38.112288802
30
0
41
1
10
10.3518152424399
20
-38.0944005955987
30
0
41
1
10
10.2275950958679
20
-38.0503633413168
30
0
41
1
10
10.1522095131338
20
-37.9957326993065
30
0
41
1
10
10.1138798044165
20
-37.9549695995301
30
0
41
1
10
10.1056624327027
20
-37.9445010117194
30
0
0
SPLINE
5
CF
100
AcDbEntity
8
1
62
256
6
ByLayer
370
18
48
1
60
0
100
AcDbSpline
70
4
71
3
72
13
73
9
40
0
40
0
40
0
40
0
40
0.256222331489468
40
0.595816960347178
40
0.7567215477429
40
0.892572489753414
40
0.999730652645829
40
1
40
1
40
1
40
1
41
1
10
13.8943375672974
20
-37.9445010117194
30
0
41
1
10
13.8795666910705
20
-37.9643151482471
30
0
41
1
10
13.8329277424205
20
-38.008194878991
30
0
41
1
10
13.7467570243862
20
-38.0609637527953
30
0
41
1
10
13.6370470144349
20
-38.0963895308807
30
0
41
1
10
13.5489284783007
20
-38.1121103030011
30
0
41
1
10
13.4880893034371
20
-38.1154544345301
30
0
41
1
10
13.4613918068659
20
-38.1154578593286
30
0
41
1
10
13.4613248654053
20
-38.1154578595257
30
0
0
SPLINE
5
D0
100
AcDbEntity
8
1
62
256
6
ByLayer
370
18
48
1
60
0
100
AcDbSpline
70
4
71
3
72
12
73
8
40
0
40
0
40
0
40
0
40
0.107090927408428
40
0.24256690078859
40
0.455432315408076
40
0.863255751650905
40
1
40
1
40
1
40
1
41
1
10
13.4613248654052
20
-12.133089967471
30
0
41
1
10
13.4888430498625
20
-12.1338666389727
30
0
41
1
10
13.5480307931308
20
-12.1430431247035
30
0
41
1
10
13.6481847575601
20
-12.199137329868
30
0
41
1
10
13.7724049041321
20
-12.3362292766512
30
0
41
1
10
13.8477904868662
20
-12.5035430644983
30
0
41
1
10
13.8861201955835
20
-12.6262033054282
30
0
41
1
10
13.8943375672974
20
-12.6576002058705
30
0
0
SPLINE
5
D1
100
AcDbEntity
8
1
62
256
6
ByLayer
370
18
48
1
60
0
100
AcDbSpline
70
4
71
3
72
13
73
9
40
0
40
0
40
0
40
0
40
0.256222331489669
40
0.595816960347221
40
0.756721547742957
40
0.892572489753464
40
0.999730652645866
40
1
40
1
40
1
40
1
41
1
10
10.1056624327025
20
37.9445010117188
30
0
41
1
10
10.1204333089294
20
37.9643151482466
30
0
41
1
10
10.16707225758
20
38.0081948789903
30
0
41
1
10
10.2532429756124
20
38.0609637527953
30
0
41
1
10
10.3629529855673
20
38.0963895308791
30
0
41
1
10
10.4510715216928
20
38.1121103030032
30
0
41
1
10
10.5119106965739
20
38.115454434525
30
0
41
1
10
10.538608193134
20
38.1154578593281
30
0
41
1
10
10.5386751345947
20
38.1154578595252
30
0
0
SPLINE
5
D2
100
AcDbEntity
8
1
62
256
6
ByLayer
370
18
48
1
60
0
100
AcDbSpline
70
4
71
3
72
12
73
8
40
0
40
0
40
0
40
0
40
0.107090927408388
40
0.242566900788521
40
0.45543231540796
40
0.863255751650636
40
1
40
1
40
1
40
1
41
1
10
10.5386751345948
20
12.1330899674704
30
0
41
1
10
10.5111569501375
20
12.1338666389722
30
0
41
1
10
10.4519692068692
20
12.143043124703
30
0
41
1
10
10.3518152424399
20
12.1991373298675
30
0
41
1
10
10.2275950958679
20
12.3362292766506
30
0
41
1
10
10.1522095131338
20
12.5035430644977
30
0
41
1
10
10.1138798044165
20
12.6262033054276
30
0
41
1
10
10.1056624327025
20
12.6576002058701
30
0
0
SPLINE
5
D3
100
AcDbEntity
8
1
62
256
6
ByLayer
370
18
48
1
60
0
100
AcDbSpline
70
4
71
3
72
13
73
9
40
0
40
0
40
0
40
0
40
0.256222331489498
40
0.595816960347161
40
0.756721547742878
40
0.892572489753401
40
0.999730652645809
40
1
40
1
40
1
40
1
41
1
10
13.8943375672974
20
12.65760020587
30
0
41
1
10
13.8795666910704
20
12.5981337335346
30
0
41
1
10
13.8329277424201
20
12.4656679136682
30
0
41
1
10
13.7467570243867
20
12.3032744555855
30
0
41
1
10
13.6370470144339
20
12.1928955703782
30
0
41
1
10
13.5489284783032
20
12.1436124753838
30
0
41
1
10
13.4880893034325
20
12.1331007202123
30
0
41
1
10
13.4613918068658
20
12.1330899681058
30
0
41
1
10
13.4613248654051
20
12.1330899674704
30
0
0
SPLINE
5
D4
100
AcDbEntity
8
1
62
256
6
ByLayer
370
18
48
1
60
0
100
AcDbSpline
70
4
71
3
72
12
73
8
40
0
40
0
40
0
40
0
40
0.107090927408383
40
0.242566900788542
40
0.455432315408024
40
0.86325575165074
40
1
40
1
40
1
40
1
41
1
10
13.4613248654051
20
38.1154578595252
30
0
41
1
10
13.4888430498623
20
38.1152151562845
30
0
41
1
10
13.5480307931306
20
38.1122888019995
30
0
41
1
10
13.6481847575601
20
38.0944005955982
30
0
41
1
10
13.7724049041319
20
38.0503633413164
30
0
41
1
10
13.847790486866
20
37.9957326993059
30
0
41
1
10
13.8861201955834
20
37.9549695995296
30
0
41
1
10
13.8943375672973
20
37.9445010117188
30
0
0
SPLINE
5
D5
100
AcDbEntity
8
1
62
256
6
ByLayer
370
18
48
1
60
0
100
AcDbSpline
70
4
71
1
72
4
73
2
40
0
40
0
40
1
40
1
41
1
10
32.0455298839382
20
36.9999999999998
30
0
41
1
10
32.2131837088881
20
39.9999999999998
30
0
0
SPLINE
5
D6
100
AcDbEntity
8
1
62
256
6
ByLayer
370
18
48
1
60
0
100
AcDbSpline
70
4
71
2
72
6
73
3
40
0
40
0
40
0
40
1
40
1
40
1
41
1
10
32.0455298839382
20
36.9999999999998
30
0
41
1
10
30.9447523756435
20
31.7438931801891
30
0
41
1
10
29.9999999999999
20
26.4575131106457
30
0
0
SPLINE
5
D7
100
AcDbEntity
8
1
62
256
6
ByLayer
370
18
48
1
60
0
100
AcDbSpline
70
4
71
1
72
4
73
2
40
0
40
0
40
1
40
1
41
1
10
30
20
-26.4575131106462
30
0
41
1
10
30.0197011127421
20
-26.568542494924
30
0
0
SPLINE
5
D8
100
AcDbEntity
8
1
62
256
6
ByLayer
370
18
48
1
60
0
100
AcDbSpline
70
4
71
1
72
4
73
2
40
0
40
0
40
1
40
1
41
1
10
30.0000000000001
20
-28.2842712474622
30
0
41
1
10
30.0197011127421
20
-26.568542494924
30
0
0
SPLINE
5
D9
100
AcDbEntity
8
1
62
256
6
ByLayer
370
18
48
1
60
0
100
AcDbSpline
70
4
71
3
72
11
73
7
40
0
40
0
40
0
40
0
40
0.249684278715428
40
0.4993641587859
40
0.749683126095681
40
1
40
1
40
1
40
1
41
1
10
30.8830769412388
20
-40.0000000000002
30
0
41
1
10
30.7411224722685
20
-39.0280950120974
30
0
41
1
10
30.4905780357926
20
-37.0825186187267
30
0
41
1
10
30.2102742423152
20
-34.1557950344812
30
0
41
1
10
30.0388101533156
20
-31.2222825803648
30
0
41
1
10
30.0004398458445
20
-29.2638838028778
30
0
41
1
10
30.0000000000001
20
-28.2842712474622
30
0
0
SPLINE
5
DA
100
AcDbEntity
8
SK1
62
256
6
ByLayer
370
18
48
1
60
0
100
AcDbSpline
70
4
71
3
72
12
73
8
40
0
40
0
40
0
40
0
40
0.314860005967204
40
0.484351594107608
40
0.657436763569424
40
0.830518335049278
40
1
40
1
40
1
40
1
41
1
10
-2.00000000000006
20
27.3251512819249
30
0
41
1
10
-2.0260719573362
20
27.325404357262
30
0
41
1
10
-2.0636329732674
20
27.3325173576607
30
0
41
1
10
-2.11048200224187
20
27.3567548956229
30
0
41
1
10
-2.14240702227224
20
27.382692467801
30
0
41
1
10
-2.1684572481908
20
27.4147745497672
30
0
41
1
10
-2.18090590603276
20
27.4388362606388
30
0
41
1
10
-2.18595766012101
20
27.4515195384111
30
0
0
SPLINE
5
DB
100
AcDbEntity
8
SK1
62
256
6
ByLayer
370
18
48
1
60
0
100
AcDbSpline
70
4
71
3
72
12
73
8
40
0
40
0
40
0
40
0
40
0.169481662386603
40
0.34256322919821
40
0.515648395884565
40
0.685139983916852
40
1
40
1
40
1
40
1
41
1
10
-2.1859576603955
20
-27.4515195388138
30
0
41
1
10
-2.180905906227
20
-27.4388362607291
30
0
41
1
10
-2.16845724828983
20
-27.4147745494925
30
0
41
1
10
-2.14240702210856
20
-27.3826924672262
30
0
41
1
10
-2.11048200199161
20
-27.3567548949793
30
0
41
1
10
-2.06363297231764
20
-27.3325173568409
30
0
41
1
10
-2.02607195688122
20
-27.3254043564703
30
0
41
1
10
-1.99999999999994
20
-27.3251512814305
30
0
0
SPLINE
5
DC
100
AcDbEntity
8
SK1
62
256
6
ByLayer
370
18
48
1
60
0
100
AcDbSpline
70
4
71
2
72
6
73
3
40
0
40
0
40
0
40
1
40
1
40
1
41
1
10
-2.19904461431031
20
27.5201227872253
30
0
41
1
10
-2.59952230715518
20
27.5100613936352
30
0
41
1
10
-3.00000000000006
20
27.500000000045
30
0
0
SPLINE
5
DD
100
AcDbEntity
8
SK1
62
256
6
ByLayer
370
18
48
1
60
0
100
AcDbSpline
70
4
71
2
72
6
73
3
40
0
40
0
40
0
40
1
40
1
40
1
41
1
10
-2.99999999999994
20
-27.5000000001014
30
0
41
1
10
-2.59952230714455
20
-27.5100613936918
30
0
41
1
10
-2.19904461428922
20
-27.5201227872823
30
0
0
SPLINE
5
DE
100
AcDbEntity
8
SK1
62
256
6
ByLayer
370
18
48
1
60
0
100
AcDbSpline
70
4
71
1
72
4
73
2
40
0
40
0
40
1
40
1
41
1
10
-46.5004731083184
20
-26.4070765189772
30
0
41
1
10
-46.5004505873555
20
-26.4069665052874
30
0
0
SPLINE
5
DF
100
AcDbEntity
8
SK1
62
256
6
ByLayer
370
18
48
1
60
0
100
AcDbSpline
70
4
71
3
72
50
73
46
40
0
40
0
40
0
40
0
40
0.0277354076997086
40
0.0553159101709654
40
0.082850724082018
40
0.110278210934699
40
0.137619399824079
40
0.164871636166707
40
0.192186959919155
40
0.219631028390602
40
0.247052358740187
40
0.274301082950302
40
0.301575018570897
40
0.329062384266069
40
0.356631732037611
40
0.384195335099998
40
0.402608161045986
40
0.421146839685366
40
0.439898969924711
40
0.454059365322806
40
0.468238680159774
40
0.482566764152896
40
0.497244209390559
40
0.512007355252179
40
0.526536930038206
40
0.540934963006344
40
0.555225439427583
40
0.574074652362596
40
0.592768563157298
40
0.611388854188158
40
0.639115123398317
40
0.666648675428164
40
0.69416225464851
40
0.721783337923174
40
0.749375932411592
40
0.776798832568992
40
0.804132388855404
40
0.831450063707154
40
0.858899600203305
40
0.886491298481182
40
0.91409764096211
40
0.941611001467387
40
0.969199080367583
40
0.997117981667482
40
1
40
1
40
1
40
1
41
1
10
-46.5004505873555
20
-26.4069665052874
30
0
41
1
10
-46.500234920843
20
-26.400916931118
30
0
41
1
10
-46.4998366911663
20
-26.3178769175838
30
0
41
1
10
-46.4993415396204
20
-25.966561185884
30
0
41
1
10
-46.4989308345618
20
-25.4358079265706
30
0
41
1
10
-46.4985954668275
20
-24.7288419332974
30
0
41
1
10
-46.4983310388274
20
-23.8633113469931
30
0
41
1
10
-46.4981301373074
20
-22.8521820542408
30
0
41
1
10
-46.4979890808409
20
-21.6993395390258
30
0
41
1
10
-46.4979080208664
20
-20.4060417371085
30
0
41
1
10
-46.4978863986802
20
-18.9830144166386
30
0
41
1
10
-46.4979221614313
20
-17.4339351785292
30
0
41
1
10
-46.4980250435836
20
-15.7602653761203
30
0
41
1
10
-46.4981957311838
20
-13.9579615952672
30
0
41
1
10
-46.4984307521206
20
-12.0230678939522
30
0
41
1
10
-46.4986804400852
20
-10.1840854725432
30
0
41
1
10
-46.4989593254999
20
-8.4939554752399
30
0
41
1
10
-46.4992603817947
20
-6.98070516186311
30
0
41
1
10
-46.4995495480441
20
-5.5271843631633
30
0
41
1
10
-46.4998530343336
20
-4.15769009898054
30
0
41
1
10
-46.5001442669738
20
-2.88501511040165
30
0
41
1
10
-46.5003782432105
20
-1.56643979020001
30
0
41
1
10
-46.5005025275147
20
-0.209422493741359
30
0
41
1
10
-46.5004377597233
20
1.15734359440283
30
0
41
1
10
-46.5002218890907
20
2.4985088577383
30
0
41
1
10
-46.4999321277973
20
3.79702973571552
30
0
41
1
10
-46.4996211503993
20
5.18999510314039
30
0
41
1
10
-46.4993231451384
20
6.66474109460091
30
0
41
1
10
-46.4990095229364
20
8.20238590727502
30
0
41
1
10
-46.4987230129735
20
9.91855141121368
30
0
41
1
10
-46.498467543865
20
11.7812303427881
30
0
41
1
10
-46.4982213107777
20
13.7364781888922
30
0
41
1
10
-46.4980404175818
20
15.5591617348424
30
0
41
1
10
-46.497929599853
20
17.2589469365178
30
0
41
1
10
-46.4978866703584
20
18.8363996373013
30
0
41
1
10
-46.4979023021702
20
20.2767019990617
30
0
41
1
10
-46.4979786067419
20
21.5788779135125
30
0
41
1
10
-46.4981139042575
20
22.7464723903854
30
0
41
1
10
-46.4983094187474
20
23.7783037517328
30
0
41
1
10
-46.498570702917
20
24.6623489340144
30
0
41
1
10
-46.4989017857635
20
25.3863063680099
30
0
41
1
10
-46.4993072623608
20
25.9328656815246
30
0
41
1
10
-46.499797586708
20
26.2969090925413
30
0
41
1
10
-46.5002107710088
20
26.4026450972477
30
0
41
1
10
-46.5004505791443
20
26.4070421630927
30
0
41
1
10
-46.5004732014094
20
26.4070344919874
30
0
0
SPLINE
5
E0
100
AcDbEntity
8
SK1
62
256
6
ByLayer
370
18
48
1
60
0
100
AcDbSpline
70
4
71
2
72
6
73
3
40
0
40
0
40
0
40
1
40
1
40
1
41
1
10
-3.00000000000006
20
27.500000000045
30
0
41
1
10
-24.7502365839479
20
26.9535583508341
30
0
41
1
10
-46.5004731678958
20
26.4071167016232
30
0
0
SPLINE
5
E1
100
AcDbEntity
8
SK1
62
256
6
ByLayer
370
18
48
1
60
0
100
AcDbSpline
70
4
71
2
72
6
73
3
40
0
40
0
40
0
40
1
40
1
40
1
41
1
10
-46.5004731678957
20
-26.4071167016776
30
0
41
1
10
-24.7502365839478
20
-26.9535583508895
30
0
41
1
10
-2.99999999999994
20
-27.5000000001014
30
0
0
SPLINE
5
E2
100
AcDbEntity
8
SK1
62
256
6
ByLayer
370
18
48
1
60
0
100
AcDbSpline
70
4
71
2
72
6
73
3
40
0
40
0
40
0
40
1
40
1
40
1
41
1
10
-0.400000000000063
20
27.3251512819249
30
0
41
1
10
-1.20000000000005
20
27.3251512819249
30
0
41
1
10
-2.00000000000006
20
27.3251512819249
30
0
0
SPLINE
5
E3
100
AcDbEntity
8
SK1
62
256
6
ByLayer
370
18
48
1
60
0
100
AcDbSpline
70
4
71
2
72
6
73
3
40
0
40
0
40
0
40
1
40
1
40
1
41
1
10
-1.99999999999994
20
-27.3251512814305
30
0
41
1
10
-1.19999999999996
20
-27.3251512814305
30
0
41
1
10
-0.399999999999949
20
-27.3251512814305
30
0
0
SPLINE
5
E4
100
AcDbEntity
8
SK1
62
256
6
ByLayer
370
18
48
1
60
0
100
AcDbSpline
70
4
71
1
72
4
73
2
40
0
40
0
40
1
40
1
41
1
10
-48.0000000000001
20
25.4983776114474
30
0
41
1
10
-48.0000000000001
20
25.498396099076
30
0
0
SPLINE
5
E5
100
AcDbEntity
8
SK1
62
256
6
ByLayer
370
18
48
1
60
0
100
AcDbSpline
70
4
71
2
72
6
73
3
40
0
40
0
40
0
40
1
40
1
40
1
41
1
10
-48
20
-25.4903599083804
30
0
41
1
10
-47.2502328425843
20
-25.9487162649354
30
0
41
1
10
-46.5004657229078
20
-26.4070723719187
30
0
0
SPLINE
5
E6
100
AcDbEntity
8
SK1
62
256
6
ByLayer
370
18
48
1
60
0
100
AcDbSpline
70
4
71
2
72
6
73
3
40
0
40
0
40
0
40
1
40
1
40
1
41
1
10
-46.5004793682357
20
26.4070218560076
30
0
41
1
10
-47.2502396776065
20
25.9486795491987
30
0
41
1
10
-48.0000000000001
20
25.4903372289613
30
0
0
SPLINE
5
E7
100
AcDbEntity
8
SK1
62
256
6
ByLayer
370
18
48
1
60
0
100
AcDbSpline
70
4
71
2
72
6
73
3
40
0
40
0
40
0
40
1
40
1
40
1
41
1
10
-0.399999999999949
20
-27.3251512814165
30
0
41
1
10
-0.214628642458592
20
-27.3447861394395
30
0
41
1
10
-0.199999999999989
20
-27.5127419688876
30
0
0
SPLINE
5
E8
100
AcDbEntity
8
SK1
62
256
6
ByLayer
370
18
48
1
60
0
100
AcDbSpline
70
4
71
2
72
6
73
3
40
0
40
0
40
0
40
1
40
1
40
1
41
1
10
-0.200000000000102
20
27.5127479889022
30
0
41
1
10
-0.214629265596244
20
27.3447858171552
30
0
41
1
10
-0.400000000000063
20
27.3251512818928
30
0
0
SPLINE
5
E9
100
AcDbEntity
8
1
62
256
6
ByLayer
370
18
48
1
60
0
100
AcDbSpline
70
4
71
3
72
13
73
9
40
0
40
0
40
0
40
0
40
0.256222331489472
40
0.595816960347179
40
0.756721547742886
40
0.892572489753415
40
0.999730652645829
40
1
40
1
40
1
40
1
41
1
10
13.8943375672974
20
37.9445010117191
30
0
41
1
10
13.8795666910705
20
37.9643151482468
30
0
41
1
10
13.8329277424192
20
38.0081948789906
30
0
41
1
10
13.7467570243901
20
38.0609637527958
30
0
41
1
10
13.6370470144287
20
38.0963895308792
30
0
41
1
10
13.5489284783183
20
38.1121103030042
30
0
41
1
10
13.4880893034069
20
38.1154544345241
30
0
41
1
10
13.4613918068659
20
38.1154578593283
30
0
41
1
10
13.4613248654052
20
38.1154578595254
30
0
0
SPLINE
5
EA
100
AcDbEntity
8
1
62
256
6
ByLayer
370
18
48
1
60
0
100
AcDbSpline
70
4
71
3
72
12
73
8
40
0
40
0
40
0
40
0
40
0.107090927408443
40
0.242566900788605
40
0.455432315408092
40
0.863255751650884
40
1
40
1
40
1
40
1
41
1
10
10.5386751345948
20
38.1154578595255
30
0
41
1
10
10.5111569501375
20
38.1152151562848
30
0
41
1
10
10.4519692068692
20
38.1122888019998
30
0
41
1
10
10.3518152424398
20
38.0944005955985
30
0
41
1
10
10.2275950958678
20
38.0503633413166
30
0
41
1
10
10.1522095131337
20
37.9957326993062
30
0
41
1
10
10.1138798044165
20
37.9549695995298
30
0
41
1
10
10.1056624327026
20
37.9445010117191
30
0
0
SPLINE
5
EB
100
AcDbEntity
8
1
62
256
6
ByLayer
370
18
48
1
60
0
100
AcDbSpline
70
4
71
3
72
13
73
9
40
0
40
0
40
0
40
0
40
0.256222331489359
40
0.595816960347131
40
0.756721547742846
40
0.892572489753384
40
0.999730652645809
40
1
40
1
40
1
40
1
41
1
10
10.1056624327026
20
12.6576002058704
30
0
41
1
10
10.1204333089295
20
12.598133733535
30
0
41
1
10
10.1670722575807
20
12.465667913669
30
0
41
1
10
10.2532429756098
20
12.3032744555842
30
0
41
1
10
10.3629529855713
20
12.1928955703811
30
0
41
1
10
10.4510715216813
20
12.1436124753767
30
0
41
1
10
10.5119106965935
20
12.1331007202252
30
0
41
1
10
10.538608193134
20
12.133089968106
30
0
41
1
10
10.5386751345948
20
12.1330899674706
30
0
0
SPLINE
5
EC
100
AcDbEntity
8
1
62
256
6
ByLayer
370
18
48
1
60
0
100
AcDbSpline
70
4
71
3
72
12
73
8
40
0
40
0
40
0
40
0
40
0.107090927408427
40
0.242566900788591
40
0.455432315408076
40
0.863255751650905
40
1
40
1
40
1
40
1
41
1
10
13.4613248654052
20
12.1330899674707
30
0
41
1
10
13.4888430498624
20
12.1338666389724
30
0
41
1
10
13.5480307931308
20
12.1430431247033
30
0
41
1
10
13.6481847575601
20
12.1991373298678
30
0
41
1
10
13.7724049041321
20
12.3362292766509
30
0
41
1
10
13.8477904868662
20
12.503543064498
30
0
41
1
10
13.8861201955835
20
12.6262033054279
30
0
41
1
10
13.8943375672974
20
12.6576002058703
30
0
0
SPLINE
5
ED
100
AcDbEntity
8
1
62
256
6
ByLayer
370
18
48
1
60
0
100
AcDbSpline
70
4
71
3
72
13
73
9
40
0
40
0
40
0
40
0
40
0.256222331489499
40
0.595816960347162
40
0.75672154774288
40
0.892572489753401
40
0.999730652645809
40
1
40
1
40
1
40
1
41
1
10
13.8943375672974
20
-12.6576002058703
30
0
41
1
10
13.8795666910705
20
-12.5981337335349
30
0
41
1
10
13.8329277424202
20
-12.4656679136686
30
0
41
1
10
13.7467570243866
20
-12.3032744555854
30
0
41
1
10
13.6370470144339
20
-12.192895570379
30
0
41
1
10
13.5489284783032
20
-12.1436124753823
30
0
41
1
10
13.4880893034326
20
-12.1331007202155
30
0
41
1
10
13.4613918068658
20
-12.1330899681061
30
0
41
1
10
13.4613248654052
20
-12.1330899674707
30
0
0
SPLINE
5
EE
100
AcDbEntity
8
1
62
256
6
ByLayer
370
18
48
1
60
0
100
AcDbSpline
70
4
71
3
72
12
73
8
40
0
40
0
40
0
40
0
40
0.107090927408388
40
0.242566900788521
40
0.455432315407961
40
0.863255751650638
40
1
40
1
40
1
40
1
41
1
10
10.5386751345948
20
-12.1330899674707
30
0
41
1
10
10.5111569501376
20
-12.1338666389724
30
0
41
1
10
10.4519692068693
20
-12.1430431247033
30
0
41
1
10
10.3518152424399
20
-12.1991373298678
30
0
41
1
10
10.2275950958679
20
-12.3362292766508
30
0
41
1
10
10.1522095131337
20
-12.503543064498
30
0
41
1
10
10.1138798044165
20
-12.6262033054279
30
0
41
1
10
10.1056624327026
20
-12.6576002058703
30
0
0
SPLINE
5
EF
100
AcDbEntity
8
1
62
256
6
ByLayer
370
18
48
1
60
0
100
AcDbSpline
70
4
71
3
72
13
73
9
40
0
40
0
40
0
40
0
40
0.256222331489673
40
0.595816960347225
40
0.756721547742958
40
0.892572489753464
40
0.999730652645866
40
1
40
1
40
1
40
1
41
1
10
10.1056624327026
20
-37.9445010117191
30
0
41
1
10
10.1204333089295
20
-37.9643151482468
30
0
41
1
10
10.1670722575801
20
-38.0081948789906
30
0
41
1
10
10.2532429756124
20
-38.0609637527957
30
0
41
1
10
10.3629529855675
20
-38.0963895308793
30
0
41
1
10
10.4510715216925
20
-38.1121103030038
30
0
41
1
10
10.5119106965747
20
-38.1154544345247
30
0
41
1
10
10.5386081931341
20
-38.1154578593283
30
0
41
1
10
10.5386751345948
20
-38.1154578595255
30
0
0
SPLINE
5
F0
100
AcDbEntity
8
1
62
256
6
ByLayer
370
18
48
1
60
0
100
AcDbSpline
70
4
71
3
72
12
73
8
40
0
40
0
40
0
40
0
40
0.107090927408383
40
0.242566900788542
40
0.455432315408024
40
0.86325575165074
40
1
40
1
40
1
40
1
41
1
10
13.4613248654052
20
-38.1154578595254
30
0
41
1
10
13.4888430498624
20
-38.1152151562847
30
0
41
1
10
13.5480307931307
20
-38.1122888019998
30
0
41
1
10
13.6481847575601
20
-38.0944005955985
30
0
41
1
10
13.772404904132
20
-38.0503633413166
30
0
41
1
10
13.8477904868662
20
-37.9957326993062
30
0
41
1
10
13.8861201955835
20
-37.9549695995299
30
0
41
1
10
13.8943375672974
20
-37.9445010117191
30
0
0
SPLINE
5
F1
100
AcDbEntity
8
SK1
62
256
6
ByLayer
370
18
48
1
60
0
100
AcDbSpline
70
4
71
3
72
12
73
8
40
0
40
0
40
0
40
0
40
0.5
40
0.75
40
0.875
40
0.9375
40
1
40
1
40
1
40
1
41
1
10
-3.00000000000003
20
-27.5000000000452
30
0
41
1
10
-2.98912798564888
20
-18.3333397806442
30
0
41
1
10
-3.00142203612262
20
-4.58332512514664
30
0
41
1
10
-3.00194395119792
20
11.4583234388023
30
0
41
1
10
-2.99708407320313
20
19.4791815080544
30
0
41
1
10
-3.00583185359398
20
24.0624703176633
30
0
41
1
10
-2.98833629281518
20
26.3542260321097
30
0
41
1
10
-3
20
27.5000000001007
30
0
0
SPLINE
5
F2
100
AcDbEntity
8
SK1
62
256
6
ByLayer
370
18
48
1
60
0
100
AcDbSpline
70
4
71
2
72
6
73
3
40
0
40
0
40
0
40
1
40
1
40
1
41
1
10
-3
20
27.500000000101
30
0
41
1
10
-24.7502365839479
20
26.9535583508891
30
0
41
1
10
-46.5004731678958
20
26.4071167016772
30
0
0
SPLINE
5
F3
100
AcDbEntity
8
SK1
62
256
6
ByLayer
370
18
48
1
60
0
100
AcDbSpline
70
4
71
2
72
6
73
3
40
0
40
0
40
0
40
1
40
1
40
1
41
1
10
-46.5004731678958
20
-26.4071167016237
30
0
41
1
10
-24.7502365839479
20
-26.9535583508345
30
0
41
1
10
-3
20
-27.5000000000453
30
0
0
SPLINE
5
F4
100
AcDbEntity
8
SK1
62
256
6
ByLayer
370
18
48
1
60
0
100
AcDbSpline
70
4
71
2
72
6
73
3
40
0
40
0
40
0
40
1
40
1
40
1
41
1
10
-2.19488134370937
20
27.52022738313
30
0
41
1
10
-2.59744067185469
20
27.5101136916155
30
0
41
1
10
-3
20
27.500000000101
30
0
0
SPLINE
5
F5
100
AcDbEntity
8
SK1
62
256
6
ByLayer
370
18
48
1
60
0
100
AcDbSpline
70
4
71
2
72
6
73
3
40
0
40
0
40
0
40
1
40
1
40
1
41
1
10
-3
20
-27.5000000000453
30
0
41
1
10
-2.59744067185469
20
-27.5101136915598
30
0
41
1
10
-2.19488134370937
20
-27.5202273830743
30
0
0
SPLINE
5
F6
100
AcDbEntity
8
SK1
62
256
6
ByLayer
370
18
48
1
60
0
100
AcDbSpline
70
4
71
3
72
12
73
8
40
0
40
0
40
0
40
0
40
0.314860016985325
40
0.484351605503429
40
0.657436772685804
40
0.830518339993475
40
1
40
1
40
1
40
1
41
1
10
-2
20
27.3251512814302
30
0
41
1
10
-2.02607195688125
20
27.3254043564699
30
0
41
1
10
-2.06363297231764
20
27.3325173568406
30
0
41
1
10
-2.11048200199164
20
27.3567548949789
30
0
41
1
10
-2.14240702210881
20
27.3826924672262
30
0
41
1
10
-2.16845724814459
20
27.414774549313
30
0
41
1
10
-2.18090590601983
20
27.438836260328
30
0
41
1
10
-2.1859576601432
20
27.451519538176
30
0
0
SPLINE
5
F7
100
AcDbEntity
8
SK1
62
256
6
ByLayer
370
18
48
1
60
0
100
AcDbSpline
70
4
71
3
72
12
73
8
40
0
40
0
40
0
40
0
40
0.169481664950895
40
0.342563236430773
40
0.51564840589265
40
0.685139994032891
40
1
40
1
40
1
40
1
41
1
10
-2.18595766012095
20
-27.4515195384115
30
0
41
1
10
-2.18090590603282
20
-27.4388362606391
30
0
41
1
10
-2.16845724819069
20
-27.4147745497675
30
0
41
1
10
-2.14240702227224
20
-27.3826924678013
30
0
41
1
10
-2.11048200224175
20
-27.3567548956232
30
0
41
1
10
-2.06363297326737
20
-27.332517357661
30
0
41
1
10
-2.02607195733611
20
-27.3254043572623
30
0
41
1
10
-2.00000000000003
20
-27.3251512819252
30
0
0
SPLINE
5
F8
100
AcDbEntity
8
SK1
62
256
6
ByLayer
370
18
48
1
60
0
100
AcDbSpline
70
4
71
2
72
6
73
3
40
0
40
0
40
0
40
1
40
1
40
1
41
1
10
-0.400000000000006
20
27.3251512814302
30
0
41
1
10
-1.19999999999999
20
27.3251512814302
30
0
41
1
10
-2
20
27.3251512814302
30
0
0
SPLINE
5
F9
100
AcDbEntity
8
SK1
62
256
6
ByLayer
370
18
48
1
60
0
100
AcDbSpline
70
4
71
2
72
6
73
3
40
0
40
0
40
0
40
1
40
1
40
1
41
1
10
-2
20
-27.3251512819252
30
0
41
1
10
-1.19999999999999
20
-27.3251512819252
30
0
41
1
10
-0.400000000000006
20
-27.3251512819252
30
0
0
SPLINE
5
FA
100
AcDbEntity
8
SK1
62
256
6
ByLayer
370
18
48
1
60
0
100
AcDbSpline
70
4
71
2
72
6
73
3
40
0
40
0
40
0
40
1
40
1
40
1
41
1
10
-46.5004657229079
20
26.4070723719183
30
0
41
1
10
-47.2502328425844
20
25.948716264935
30
0
41
1
10
-48
20
25.49035990838
30
0
0
SPLINE
5
FB
100
AcDbEntity
8
SK1
62
256
6
ByLayer
370
18
48
1
60
0
100
AcDbSpline
70
4
71
2
72
6
73
3
40
0
40
0
40
0
40
1
40
1
40
1
41
1
10
-48
20
-25.4903372289617
30
0
41
1
10
-47.2502396776064
20
-25.9486795491991
30
0
41
1
10
-46.5004793682356
20
-26.407021856008
30
0
0
SPLINE
5
FC
100
AcDbEntity
8
SK1
62
256
6
ByLayer
370
18
48
1
60
0
100
AcDbSpline
70
4
71
2
72
6
73
3
40
0
40
0
40
0
40
1
40
1
40
1
41
1
10
-0.200000000000046
20
27.5127419688873
30
0
41
1
10
-0.214628642458649
20
27.3447861394392
30
0
41
1
10
-0.400000000000006
20
27.3251512814162
30
0
0
SPLINE
5
FD
100
AcDbEntity
8
SK1
62
256
6
ByLayer
370
18
48
1
60
0
100
AcDbSpline
70
4
71
2
72
6
73
3
40
0
40
0
40
0
40
1
40
1
40
1
41
1
10
-0.400000000000006
20
-27.3251512818931
30
0
41
1
10
-0.214629265596159
20
-27.3447858171555
30
0
41
1
10
-0.200000000000046
20
-27.5127479889026
30
0
0
SPLINE
5
FE
100
AcDbEntity
8
1
62
256
6
ByLayer
370
18
48
1
60
0
100
AcDbSpline
70
4
71
2
72
6
73
3
40
0
40
0
40
0
40
1
40
1
40
1
41
0.50000004309132
10
30
20
-28.3174652562908
30
0
41
0.49999995690868
10
30
20
-28.3008780080533
30
0
41
0.50000004309132
10
30
20
-28.284271247462
30
0
0
LINE
5
70
100
AcDbEntity
8
1
62
256
6
ByLayer
370
18
48
1
60
0
100
AcDbLine
10
130.240138
20
15.976898
30
0
11
130
21
15.826843
31
0
39
0
210
0
220
0
230
1
0
LINE
5
72
100
AcDbEntity
8
1
62
256
6
ByLayer
370
18
48
1
60
0
100
AcDbLine
10
130
20
9.930951
30
0
11
132.889734
21
11.736657
31
0
39
0
210
0
220
0
230
1
0
LINE
5
73
100
AcDbEntity
8
1
62
256
6
ByLayer
370
18
48
1
60
0
100
AcDbLine
10
132.933893
20
11.81044
30
0
11
132.97703
21
12.0115
31
0
39
0
210
0
220
0
230
1
0
LINE
5
74
100
AcDbEntity
8
1
62
256
6
ByLayer
370
18
48
1
60
0
100
AcDbLine
10
130.525433
20
15.934875
30
0
11
130.325811
21
15.984243
31
0
39
0
210
0
220
0
230
1
0
LINE
5
75
100
AcDbEntity
8
1
62
256
6
ByLayer
370
18
48
1
60
0
100
AcDbLine
10
32.04553
20
37
30
0
11
130
21
37
31
0
39
0
210
0
220
0
230
1
0
LINE
5
76
100
AcDbEntity
8
1
62
256
6
ByLayer
370
18
48
1
60
0
100
AcDbLine
10
109.188817
20
-26.568542
30
0
11
30.019701
21
-26.568542
31
0
39
0
210
0
220
0
230
1
0
LINE
5
77
100
AcDbEntity
8
1
62
256
6
ByLayer
370
18
48
1
60
0
100
AcDbLine
10
130.5
20
7.8
30
0
11
130
21
7.8
31
0
39
0
210
0
220
0
230
1
0
LINE
5
78
100
AcDbEntity
8
1
62
256
6
ByLayer
370
18
48
1
60
0
100
AcDbLine
10
130.5
20
-5.257359
30
0
11
130.5
21
7.8
31
0
39
0
210
0
220
0
230
1
0
LINE
5
79
100
AcDbEntity
8
1
62
256
6
ByLayer
370
18
48
1
60
0
100
AcDbLine
10
140
20
4.242641
30
0
11
140
21
40
31
0
39
0
210
0
220
0
230
1
0
LINE
5
7A
100
AcDbEntity
8
1
62
256
6
ByLayer
370
18
48
1
60
0
100
AcDbLine
10
86
20
27.497299
30
0
11
82.97125
21
25.74865
31
0
39
0
210
0
220
0
230
1
0
LINE
5
7B
100
AcDbEntity
8
1
62
256
6
ByLayer
370
18
48
1
60
0
100
AcDbLine
10
86
20
27.497299
30
0
11
89.02875
21
25.74865
31
0
39
0
210
0
220
0
230
1
0
LINE
5
7C
100
AcDbEntity
8
1
62
256
6
ByLayer
370
18
48
1
60
0
100
AcDbLine
10
82.97125
20
22.25135
30
0
11
86
21
20.502701
31
0
39
0
210
0
220
0
230
1
0
LINE
5
7D
100
AcDbEntity
8
1
62
256
6
ByLayer
370
18
48
1
60
0
100
AcDbLine
10
89.02875
20
22.25135
30
0
11
86
21
20.502701
31
0
39
0
210
0
220
0
230
1
0
LINE
5
7E
100
AcDbEntity
8
1
62
256
6
ByLayer
370
18
48
1
60
0
100
AcDbLine
10
89.02875
20
25.74865
30
0
11
89.02875
21
22.25135
31
0
39
0
210
0
220
0
230
1
0
LINE
5
7F
100
AcDbEntity
8
1
62
256
6
ByLayer
370
18
48
1
60
0
100
AcDbLine
10
82.97125
20
25.74865
30
0
11
82.97125
21
22.25135
31
0
39
0
210
0
220
0
230
1
0
LINE
5
80
100
AcDbEntity
8
SK1
62
256
6
ByLayer
370
18
48
1
60
0
100
AcDbLine
10
-3
20
27.5
30
0
11
-3
21
-27.5
31
0
39
0
210
0
220
0
230
1
0
LINE
5
82
100
AcDbEntity
8
SK1
62
256
6
ByLayer
370
18
48
1
60
0
100
AcDbLine
10
-2.194881
20
27.520227
30
0
11
-2.199045
21
27.520123
31
0
39
0
210
0
220
0
230
1
0
LINE
5
83
100
AcDbEntity
8
SK1
62
256
6
ByLayer
370
18
48
1
60
0
100
AcDbLine
10
-2.199045
20
-27.520123
30
0
11
-2.194881
21
-27.520227
31
0
39
0
210
0
220
0
230
1
0
LINE
5
84
100
AcDbEntity
8
1
62
256
6
ByLayer
370
18
48
1
60
0
100
AcDbLine
10
54.02875
20
22.25135
30
0
11
51
21
20.502701
31
0
39
0
210
0
220
0
230
1
0
LINE
5
85
100
AcDbEntity
8
1
62
256
6
ByLayer
370
18
48
1
60
0
100
AcDbLine
10
47.97125
20
22.25135
30
0
11
51
21
20.502701
31
0
39
0
210
0
220
0
230
1
0
LINE
5
86
100
AcDbEntity
8
1
62
256
6
ByLayer
370
18
48
1
60
0
100
AcDbLine
10
51
20
27.497299
30
0
11
47.97125
21
25.74865
31
0
39
0
210
0
220
0
230
1
0
LINE
5
87
100
AcDbEntity
8
1
62
256
6
ByLayer
370
18
48
1
60
0
100
AcDbLine
10
51
20
27.497299
30
0
11
54.02875
21
25.74865
31
0
39
0
210
0
220
0
230
1
0
LINE
5
88
100
AcDbEntity
8
1
62
256
6
ByLayer
370
18
48
1
60
0
100
AcDbLine
10
54.02875
20
25.74865
30
0
11
54.02875
21
22.25135
31
0
39
0
210
0
220
0
230
1
0
LINE
5
89
100
AcDbEntity
8
1
62
256
6
ByLayer
370
18
48
1
60
0
100
AcDbLine
10
47.97125
20
25.74865
30
0
11
47.97125
21
22.25135
31
0
39
0
210
0
220
0
230
1
0
LINE
5
8A
100
AcDbEntity
8
SK1
62
256
6
ByLayer
370
18
48
1
60
0
100
AcDbLine
10
-46.500473
20
26.407117
30
0
11
-46.500473
21
-26.407117
31
0
39
0
210
0
220
0
230
1
0
LINE
5
8B
100
AcDbEntity
8
1
62
256
6
ByLayer
370
18
48
1
60
0
100
AcDbLine
10
121
20
27.497299
30
0
11
124.02875
21
25.74865
31
0
39
0
210
0
220
0
230
1
0
LINE
5
8C
100
AcDbEntity
8
1
62
256
6
ByLayer
370
18
48
1
60
0
100
AcDbLine
10
124.02875
20
22.25135
30
0
11
121
21
20.502701
31
0
39
0
210
0
220
0
230
1
0
LINE
5
8D
100
AcDbEntity
8
1
62
256
6
ByLayer
370
18
48
1
60
0
100
AcDbLine
10
121
20
27.497299
30
0
11
117.97125
21
25.74865
31
0
39
0
210
0
220
0
230
1
0
LINE
5
8E
100
AcDbEntity
8
1
62
256
6
ByLayer
370
18
48
1
60
0
100
AcDbLine
10
117.97125
20
22.25135
30
0
11
121
21
20.502701
31
0
39
0
210
0
220
0
230
1
0
LINE
5
8F
100
AcDbEntity
8
1
62
256
6
ByLayer
370
18
48
1
60
0
100
AcDbLine
10
124.02875
20
25.74865
30
0
11
124.02875
21
22.25135
31
0
39
0
210
0
220
0
230
1
0
LINE
5
90
100
AcDbEntity
8
1
62
256
6
ByLayer
370
18
48
1
60
0
100
AcDbLine
10
117.97125
20
25.74865
30
0
11
117.97125
21
22.25135
31
0
39
0
210
0
220
0
230
1
0
LINE
5
91
100
AcDbEntity
8
1
62
256
6
ByLayer
370
18
48
1
60
0
100
AcDbLine
10
0.3
20
40
30
0
11
0
21
39.7
31
0
39
0
210
0
220
0
230
1
0
LINE
5
92
100
AcDbEntity
8
1
62
256
6
ByLayer
370
18
48
1
60
0
100
AcDbLine
10
13.894338
20
-12.6576
30
0
11
13.894338
21
-37.944501
31
0
39
0
210
0
220
0
230
1
0
LINE
5
93
100
AcDbEntity
8
SK1
62
256
6
ByLayer
370
18
48
1
60
0
100
AcDbLine
10
-0.2
20
-6.365251
30
0
11
-0.2
21
-28.683485
31
0
39
0
210
0
220
0
230
1
0
LINE
5
94
100
AcDbEntity
8
1
62
256
6
ByLayer
370
18
48
1
60
0
100
AcDbLine
10
10.538675
20
38.115458
30
0
11
10.538675
21
12.13309
31
0
39
0
210
0
220
0
230
1
0
LINE
5
95
100
AcDbEntity
8
1
62
256
6
ByLayer
370
18
48
1
60
0
100
AcDbLine
10
10.105662
20
37.944501
30
0
11
10.105662
21
12.6576
31
0
39
0
210
0
220
0
230
1
0
LINE
5
96
100
AcDbEntity
8
1
62
256
6
ByLayer
370
18
48
1
60
0
100
AcDbLine
10
13.461325
20
-12.13309
30
0
11
13.461325
21
-38.115458
31
0
39
0
210
0
220
0
230
1
0
LINE
5
97
100
AcDbEntity
8
1
62
256
6
ByLayer
370
18
48
1
60
0
100
AcDbLine
10
10.538675
20
-12.13309
30
0
11
10.538675
21
-38.115458
31
0
39
0
210
0
220
0
230
1
0
LINE
5
98
100
AcDbEntity
8
1
62
256
6
ByLayer
370
18
48
1
60
0
100
AcDbLine
10
10.105662
20
-12.6576
30
0
11
10.105662
21
-37.944501
31
0
39
0
210
0
220
0
230
1
0
LINE
5
99
100
AcDbEntity
8
1
62
256
6
ByLayer
370
18
48
1
60
0
100
AcDbLine
10
13.894338
20
37.944501
30
0
11
13.894338
21
12.6576
31
0
39
0
210
0
220
0
230
1
0
LINE
5
9A
100
AcDbEntity
8
1
62
256
6
ByLayer
370
18
48
1
60
0
100
AcDbLine
10
13.461325
20
38.115458
30
0
11
13.461325
21
12.13309
31
0
39
0
210
0
220
0
230
1
0
LINE
5
9B
100
AcDbEntity
8
SK1
62
256
6
ByLayer
370
18
48
1
60
0
100
AcDbLine
10
-0.2
20
28.683485
30
0
11
-0.2
21
6.365251
31
0
39
0
210
0
220
0
230
1
0
LINE
5
9C
100
AcDbEntity
8
1
62
256
6
ByLayer
370
18
48
1
60
0
100
AcDbLine
10
130
20
40
30
0
11
130
21
-5.757359
31
0
39
0
210
0
220
0
230
1
0
LINE
5
9D
100
AcDbEntity
8
1
62
256
6
ByLayer
370
18
48
1
60
0
100
AcDbLine
10
0
20
39.7
30
0
11
0
21
-39.7
31
0
39
0
210
0
220
0
230
1
0
LINE
5
9E
100
AcDbEntity
8
1
62
256
6
ByLayer
370
18
48
1
60
0
100
AcDbLine
10
0.3
20
40
30
0
11
0.3
21
-40
31
0
39
0
210
0
220
0
230
1
0
LINE
5
9F
100
AcDbEntity
8
SK1
62
256
6
ByLayer
370
18
48
1
60
0
100
AcDbLine
10
-2
20
27.325145
30
0
11
-2
21
-27.325145
31
0
39
0
210
0
220
0
230
1
0
LINE
5
A0
100
AcDbEntity
8
SK1
62
256
6
ByLayer
370
18
48
1
60
0
100
AcDbLine
10
-48
20
25.499074
30
0
11
-48
21
-25.499074
31
0
39
0
210
0
220
0
230
1
0
LINE
5
A1
100
AcDbEntity
8
1
62
256
6
ByLayer
370
18
48
1
60
0
100
AcDbLine
10
30
20
40
30
0
11
30
21
-40
31
0
39
0
210
0
220
0
230
1
0
LINE
5
A2
100
AcDbEntity
8
1
62
256
6
ByLayer
370
18
48
1
60
0
100
AcDbLine
10
0
20
-39.7
30
0
11
0.3
21
-40
31
0
39
0
210
0
220
0
230
1
0
LINE
5
A3
100
AcDbEntity
8
1
62
256
6
ByLayer
370
18
48
1
60
0
100
AcDbLine
10
10.538675
20
38.115458
30
0
11
13.461325
21
38.115458
31
0
39
0
210
0
220
0
230
1
0
LINE
5
A4
100
AcDbEntity
8
1
62
256
6
ByLayer
370
18
48
1
60
0
100
AcDbLine
10
10.538675
20
-12.13309
30
0
11
13.461325
21
-12.13309
31
0
39
0
210
0
220
0
230
1
0
LINE
5
A5
100
AcDbEntity
8
1
62
256
6
ByLayer
370
18
48
1
60
0
100
AcDbLine
10
0.3
20
40
30
0
11
140
21
40
31
0
39
0
210
0
220
0
230
1
0
LINE
5
A6
100
AcDbEntity
8
1
62
256
6
ByLayer
370
18
48
1
60
0
100
AcDbLine
10
10.538675
20
-38.115458
30
0
11
13.461325
21
-38.115458
31
0
39
0
210
0
220
0
230
1
0
LINE
5
A7
100
AcDbEntity
8
1
62
256
6
ByLayer
370
18
48
1
60
0
100
AcDbLine
10
10.538675
20
12.13309
30
0
11
13.461325
21
12.13309
31
0
39
0
210
0
220
0
230
1
0
LINE
5
A8
100
AcDbEntity
8
1
62
256
6
ByLayer
370
18
48
1
60
0
100
AcDbLine
10
0.3
20
-40
30
0
11
95.757359
21
-40
31
0
39
0
210
0
220
0
230
1
0
LINE
5
A9
100
AcDbEntity
8
1
62
256
6
ByLayer
370
18
48
1
60
0
100
AcDbLine
10
95.757359
20
-40
30
0
11
140
21
4.242641
31
0
39
0
210
0
220
0
230
1
0
LINE
5
AA
100
AcDbEntity
8
SK3
62
256
6
ByLayer
370
18
48
0.05
60
0
100
AcDbLine
10
35
20
8
30
0
11
130
21
8
31
0
39
0
210
0
220
0
230
1
0
LINE
5
AC
100
AcDbEntity
8
SK3
62
256
6
ByLayer
370
18
48
0.05
60
0
100
AcDbLine
10
35
20
8
30
0
11
35
21
40
31
0
39
0
210
0
220
0
230
1
0
LINE
5
AD
100
AcDbEntity
8
81
62
256
6
ByLayer
370
13
48
1
60
0
100
AcDbLine
10
140
20
24
30
0
11
150
21
24
31
0
39
0
210
0
220
0
230
1
0
LINE
5
AE
100
AcDbEntity
8
80
62
256
6
ByLayer
370
13
48
1
60
0
100
AcDbLine
10
0
20
0
30
0
11
-20.620007
21
0
31
0
39
0
210
0
220
0
230
1
0
LINE
5
AF
100
AcDbEntity
8
SK4
62
256
6
ByLayer
370
18
48
0.05
60
0
100
AcDbLine
10
-51.90807
20
0
30
0
11
145.73346
21
0
31
0
39
0
210
0
220
0
230
1
0
LINE
5
B1
100
AcDbEntity
8
4
62
256
6
ByLayer
370
13
48
0.05
60
0
100
AcDbLine
10
0
20
0
30
0
11
140
21
0
31
0
39
0
210
0
220
0
230
1
0
MTEXT
5
FF
100
AcDbEntity
8
SK6
62
256
6
ByLayer
370
18
48
1
60
0
100
AcDbMText
10
0.216987
20
-51.72191
30
0
210
0
220
0
230
1
1
\W0.7439;C8-ASHR-40140-32
40
3.5
41
0
44
1.084337
50
0
71
7
72
5
7
iso_b_vert
0
DIMENSION
5
111
100
AcDbEntity
8
SK2
62
256
6
ByLayer
370
13
48
1
60
0
100
AcDbDimension
2
DimnDraft3D1
10
40
20
55.680843
30
0
11
5.202632
21
55.680843
31
0
70
32
71
5
72
1
41
1
210
0
220
0
230
1
3
Standard
100
AcDbAlignedDimension
13
-40
23
1.7
33
0
14
40
24
1.7
34
0
50
0
100
AcDbRotatedDimension
1001
ACAD
1000
DSTYLE
1002
{
1070
   279
1070
     0
1070
   172
1070
     1
1070
   173
1070
     1
1070
   340
1005
100
1070
   271
1070
     0
1070
    77
1070
     1
1070
    73
1070
     0
1070
   171
1070
     3
1070
   274
1070
     4
1070
   177
1070
     7
1070
   176
1070
     7
1070
   178
1070
     7
1070
    78
1070
     8
1070
    41
1041
3.175
1070
   147
1041
1.5
1070
    42
1041
2.0
1070
    44
1041
2.0
1070
   140
1041
3.0
1070
   343
1005
112
1070
   344
1005
112
1002
}
0
DIMENSION
5
126
100
AcDbEntity
8
SK2
62
256
6
ByLayer
370
13
48
1
60
0
100
AcDbDimension
2
DimnDraft3D2
10
0
20
-157.527977
30
0
11
4.651316
21
-157.527977
31
0
70
32
71
5
72
1
41
1
210
0
220
0
230
1
3
Standard
100
AcDbAlignedDimension
13
8
23
-132
33
0
14
0
24
-147.73346
34
0
50
0
100
AcDbRotatedDimension
1001
ACAD
1000
DSTYLE
1002
{
1070
   279
1070
     0
1070
   172
1070
     1
1070
   173
1070
     1
1070
   340
1005
100
1070
    77
1070
     1
1070
    73
1070
     0
1070
   171
1070
     3
1070
   274
1070
     4
1070
   177
1070
     7
1070
   176
1070
     7
1070
   178
1070
     7
1070
    78
1070
     8
1070
    41
1041
3.175
1070
   147
1041
1.5
1070
    42
1041
2.0
1070
    44
1041
2.0
1070
   140
1041
3.0
1070
   343
1005
112
1070
   344
1005
112
1002
}
0
DIMENSION
5
134
100
AcDbEntity
8
SK2
62
256
6
ByLayer
370
13
48
1
60
0
100
AcDbDimension
2
DimnDraft3D3
10
40
20
-166.424426
30
0
11
-1.547595
21
-166.424426
31
0
70
32
71
5
72
1
41
1
210
0
220
0
230
1
3
Standard
100
AcDbAlignedDimension
13
0
23
-147.73346
33
0
14
40
24
-142
34
0
50
0
100
AcDbRotatedDimension
1001
ACAD
1000
DSTYLE
1002
{
1070
   279
1070
     0
1070
   172
1070
     1
1070
   173
1070
     1
1070
   340
1005
100
1070
   271
1070
     0
1070
    77
1070
     1
1070
    73
1070
     0
1070
   171
1070
     3
1070
   274
1070
     4
1070
   177
1070
     7
1070
   176
1070
     7
1070
   178
1070
     7
1070
    78
1070
     8
1070
    41
1041
3.175
1070
   147
1041
1.5
1070
    42
1041
2.0
1070
    44
1041
2.0
1070
   140
1041
3.0
1070
   343
1005
112
1070
   344
1005
112
1002
}
0
DIMENSION
5
142
100
AcDbEntity
8
SK2
62
256
6
ByLayer
370
13
48
1
60
0
100
AcDbDimension
2
DimnDraft3D4
10
-40
20
-166.424426
30
0
11
-18.089474
21
-166.424426
31
0
70
32
71
5
72
1
41
1
210
0
220
0
230
1
3
Standard
100
AcDbAlignedDimension
13
0
23
-147.73346
33
0
14
-40
24
-97.757359
34
0
50
0
100
AcDbRotatedDimension
1001
ACAD
1000
DSTYLE
1002
{
1070
   279
1070
     0
1070
   172
1070
     1
1070
   173
1070
     1
1070
   340
1005
100
1070
   271
1070
     0
1070
    77
1070
     1
1070
    73
1070
     0
1070
   171
1070
     3
1070
   274
1070
     4
1070
   177
1070
     7
1070
   176
1070
     7
1070
   178
1070
     7
1070
    78
1070
     8
1070
    41
1041
3.175
1070
   147
1041
1.5
1070
    42
1041
2.0
1070
    44
1041
2.0
1070
   140
1041
3.0
1070
   343
1005
112
1070
   344
1005
112
1002
}
0
DIMENSION
5
150
100
AcDbEntity
8
SK2
62
256
6
ByLayer
370
13
48
1
60
0
100
AcDbDimension
2
DimnDraft3D5
10
30
20
55.026986
30
0
11
13.207895
21
55.026986
31
0
70
32
71
5
72
1
41
1
210
0
220
0
230
1
3
Standard
100
AcDbAlignedDimension
13
0
23
41.7
33
0
14
30
24
42
34
0
50
0
100
AcDbRotatedDimension
1001
ACAD
1000
DSTYLE
1002
{
1070
   279
1070
     0
1070
   172
1070
     1
1070
   173
1070
     1
1070
   340
1005
100
1070
   271
1070
     0
1070
    77
1070
     1
1070
    73
1070
     0
1070
   171
1070
     3
1070
   274
1070
     4
1070
   177
1070
     7
1070
   176
1070
     7
1070
   178
1070
     7
1070
    78
1070
     8
1070
    41
1041
3.175
1070
   147
1041
1.5
1070
    42
1041
2.0
1070
    44
1041
2.0
1070
   140
1041
3.0
1070
   343
1005
0
1070
   344
1005
0
1002
}
0
DIMENSION
5
15E
100
AcDbEntity
8
SK2
62
256
6
ByLayer
370
13
48
1
60
0
100
AcDbDimension
2
DimnDraft3D6
10
35
20
64.685974
30
0
11
15.707895
21
64.685974
31
0
70
32
71
5
72
1
41
1
210
0
220
0
230
1
3
Standard
100
AcDbAlignedDimension
13
0
23
41.7
33
0
14
35
24
42
34
0
50
0
100
AcDbRotatedDimension
1001
ACAD
1000
DSTYLE
1002
{
1070
   279
1070
     0
1070
   172
1070
     1
1070
   173
1070
     1
1070
   340
1005
100
1070
    77
1070
     1
1070
    73
1070
     0
1070
   171
1070
     3
1070
   274
1070
     4
1070
   177
1070
     7
1070
   176
1070
     7
1070
   178
1070
     7
1070
    78
1070
     8
1070
    41
1041
3.175
1070
   147
1041
1.5
1070
    42
1041
2.0
1070
    44
1041
2.0
1070
   140
1041
3.0
1070
   343
1005
112
1070
   344
1005
112
1002
}
0
DIMENSION
5
16C
100
AcDbEntity
8
SK2
62
256
6
ByLayer
370
13
48
1
60
0
100
AcDbDimension
2
DimnDraft3D7
10
130
20
74.568275
30
0
11
62.461842
21
74.568275
31
0
70
32
71
5
72
1
41
1
210
0
220
0
230
1
3
Standard
100
AcDbAlignedDimension
13
0
23
41.7
33
0
14
130
24
39
34
0
50
0
100
AcDbRotatedDimension
1001
ACAD
1000
DSTYLE
1002
{
1070
   279
1070
     0
1070
   172
1070
     1
1070
   173
1070
     1
1070
   340
1005
100
1070
   271
1070
     0
1070
    77
1070
     1
1070
    73
1070
     0
1070
   171
1070
     3
1070
   274
1070
     4
1070
   177
1070
     7
1070
   176
1070
     7
1070
   178
1070
     7
1070
    78
1070
     8
1070
    41
1041
3.175
1070
   147
1041
1.5
1070
    42
1041
2.0
1070
    44
1041
2.0
1070
   140
1041
3.0
1070
   343
1005
0
1070
   344
1005
0
1002
}
0
DIMENSION
5
17B
100
AcDbEntity
8
2
62
256
6
ByLayer
370
13
48
1
60
0
100
AcDbDimension
2
DimnDraft3D8
10
140
20
84.078369
30
0
11
67.303947
21
84.078369
31
0
70
32
71
5
72
1
41
1
210
0
220
0
230
1
3
Standard
100
AcDbAlignedDimension
13
0
23
41.7
33
0
14
140
24
42
34
0
50
0
100
AcDbRotatedDimension
1001
ACAD
1000
DSTYLE
1002
{
1070
   279
1070
     0
1070
   172
1070
     1
1070
   173
1070
     1
1070
   340
1005
100
1070
   271
1070
     0
1070
    77
1070
     1
1070
    73
1070
     0
1070
   171
1070
     3
1070
   274
1070
     4
1070
   177
1070
     7
1070
   176
1070
     7
1070
   178
1070
     7
1070
    78
1070
     8
1070
    41
1041
3.175
1070
   147
1041
1.5
1070
    42
1041
2.0
1070
    44
1041
2.0
1070
   140
1041
3.0
1070
   343
1005
0
1070
   344
1005
0
1002
}
0
ENDSEC
0
SECTION
2
OBJECTS
0
DICTIONARY
5
1e7
330
0
100
AcDbDictionary
280
0
281
1
3
ACAD_GROUP
350
1e8
3
ACAD_MLINESTYLE
350
1e9
0
DICTIONARY
5
1e8
330
0
100
AcDbDictionary
280
0
281
1
0
DICTIONARY
5
1e9
330
0
100
AcDbDictionary
280
0
281
1
3
Standard
350
18
0
MLINESTYLE
5
18
330
1e9
100
AcDbMlineStyle
2
Standard
70
0
3

62
256
51
90
52
90
71
2
49
-0.5
62
256
6
ByLayer
49
0.5
62
256
6
ByLayer
0
RASTERVARIABLES
5
1d4
330

100
AcDbRasterVariables
90
0
70
1
71
1
72
1
0
ENDSEC
0
EOF
