0
SECTION
2
HEADER
9
$ACADVER
1
AC1015
9
$DWGCODEPAGE
3
ANSI_1252
9
$HANDSEED
5
175
9
$ANGBASE
50
0
9
$ANGDIR
70
0
9
$ATTMODE
70
1
9
$AUNITS
70
0
9
$AUPREC
70
0
9
$CECOLOR
62
256
9
$CELTSCALE
40
1
9
$CELTYPE
6
ByLayer
9
$CELWEIGHT
370
18
9
$CLAYER
8
0
9
$CMLJUST
70
0
9
$CMLSCALE
40
1
9
$CMLSTYLE
2
Standard
9
$DIMSTYLE
2
Standard
9
$TEXTSIZE
40
0.2
9
$TEXTSTYLE
7
Standard
9
$LUNITS
70
2
9
$LUPREC
70
4
9
$EXTNAMES
290
1
9
$INSUNITS
70
4
9
$LTSCALE
40
1
9
$LWDISPLAY
290
1
9
$PDMODE
70
0
9
$PDSIZE
40
0
9
$PLINEGEN
70
0
0
ENDSEC
0
SECTION
2
CLASSES
0
CLASS
1
RASTERVARIABLES
2
AcDbRasterVariables
3
ISM
90
0
280
0
281
0
0
ENDSEC
0
SECTION
2
TABLES
0
TABLE
2
VPORT
5
16b
100
AcDbSymbolTable
0
VPORT
5
1
100
AcDbSymbolTableRecord
100
AcDbViewportTableRecord
2
*Active
70
0
10
0
20
0
11
1
21
1
12
-1
22
1
13
0
23
0
14
0.5
24
0.5
15
10
25
10
16
0
26
0
36
1
17
0
27
0
37
0
0
ENDTAB
0
TABLE
2
LTYPE
5
16c
100
AcDbSymbolTable
0
LTYPE
5
14
100
AcDbSymbolTableRecord
100
AcDbLinetypeTableRecord
70
0
2
ByBlock
3

72
65
73
0
40
0
0
LTYPE
5
15
100
AcDbSymbolTableRecord
100
AcDbLinetypeTableRecord
70
0
2
ByLayer
3

72
65
73
0
40
0
0
LTYPE
5
16
100
AcDbSymbolTableRecord
100
AcDbLinetypeTableRecord
70
0
2
CONTINUOUS
3
Solid line
72
65
73
0
40
0
0
LTYPE
5
6A
100
AcDbSymbolTableRecord
100
AcDbLinetypeTableRecord
70
0
2
CENTER
3
____ _ ____ _ ____ _ ____
72
65
73
4
40
47.5
49
22
74
0
49
-8.5
74
0
49
8.5
74
0
49
-8.5
74
0
0
LTYPE
5
6B
100
AcDbSymbolTableRecord
100
AcDbLinetypeTableRecord
70
0
2
DASHED
3
__ __ __ __ __ __ __ __ __
72
65
73
2
40
25.72
49
12.86
74
0
49
-12.86
74
0
0
ENDTAB
0
TABLE
2
LAYER
5
16d
100
AcDbSymbolTable
0
LAYER
5
10
100
AcDbSymbolTableRecord
100
AcDbLayerTableRecord
2
0
70
0
62
7
6
CONTINUOUS
290
1
370
-3
390
0
0
LAYER
5
6D
100
AcDbSymbolTableRecord
100
AcDbLayerTableRecord
2
80
70
0
62
-6
6
CONTINUOUS
290
1
370
-3
390
0
0
LAYER
5
6F
100
AcDbSymbolTableRecord
100
AcDbLayerTableRecord
2
81
70
0
62
-3
6
CONTINUOUS
290
1
370
-3
390
0
0
LAYER
5
74
100
AcDbSymbolTableRecord
100
AcDbLayerTableRecord
2
1
70
0
62
4
6
CONTINUOUS
290
1
370
-3
390
0
0
LAYER
5
AB
100
AcDbSymbolTableRecord
100
AcDbLayerTableRecord
2
4
70
0
62
-2
6
CENTER
290
1
370
-3
390
0
0
LAYER
5
F5
100
AcDbSymbolTableRecord
100
AcDbLayerTableRecord
2
2
70
0
62
7
6
CONTINUOUS
290
1
370
-3
390
0
0
LAYER
5
157
100
AcDbSymbolTableRecord
100
AcDbLayerTableRecord
2
SK1
70
0
62
4
6
CONTINUOUS
290
1
370
-3
390
0
0
LAYER
5
158
100
AcDbSymbolTableRecord
100
AcDbLayerTableRecord
2
SK4
70
0
62
2
6
CENTER
290
1
370
-3
390
0
0
LAYER
5
159
100
AcDbSymbolTableRecord
100
AcDbLayerTableRecord
2
SK6
70
0
62
5
6
CONTINUOUS
290
1
370
-3
390
0
0
LAYER
5
15a
100
AcDbSymbolTableRecord
100
AcDbLayerTableRecord
2
SK2
70
0
62
7
6
CONTINUOUS
290
1
370
-3
390
0
0
ENDTAB
0
TABLE
2
STYLE
5
16e
100
AcDbSymbolTable
0
STYLE
5
11
100
AcDbSymbolTableRecord
100
AcDbTextStyleTableRecord
2
Standard
3
txt
70
0
71
0
40
0
41
1
42
0
50
0
0
STYLE
5
CF
100
AcDbSymbolTableRecord
100
AcDbTextStyleTableRecord
2
iso_b_vert
3
simplex.shx
70
0
71
0
40
0
41
1
42
0
50
0
0
STYLE
5
D0
100
AcDbSymbolTableRecord
100
AcDbTextStyleTableRecord
2
DWGDirectTextStyle
3
simplex
70
0
71
0
40
0
41
1
42
0
50
0
0
ENDTAB
0
TABLE
2
DIMSTYLE
5
16f
100
AcDbSymbolTable
100
AcDbDimStyleTable
0
DIMSTYLE
105
27
100
AcDbSymbolTableRecord
100
AcDbDimStyleTableRecord
2
Standard
70
0
3
<>
41
0.18
42
0.0625
44
0.18
140
0.18
147
0.09
73
0
74
0
77
1
271
2
275
0
278
52
280
0
340
11
0
ENDTAB
0
TABLE
2
VIEW
5
170
100
AcDbSymbolTable
0
ENDTAB
0
TABLE
2
UCS
5
171
100
AcDbSymbolTable
0
ENDTAB
0
TABLE
2
APPID
5
172
100
AcDbSymbolTable
0
APPID
5
12
100
AcDbSymbolTableRecord
100
AcDbRegAppTableRecord
2
ACAD
70
0
0
ENDTAB
0
TABLE
2
BLOCK_RECORD
5
173
100
AcDbSymbolTable
0
BLOCK_RECORD
5
1F
100
AcDbSymbolTableRecord
100
AcDbBlockTableRecord
2
*Model_Space
340
0
70
0
0
BLOCK_RECORD
5
1B
100
AcDbSymbolTableRecord
100
AcDbBlockTableRecord
2
*Paper_Space
340
0
70
0
0
BLOCK_RECORD
5
23
100
AcDbSymbolTableRecord
100
AcDbBlockTableRecord
2
*Paper_Space0
340
0
70
0
0
BLOCK_RECORD
5
D2
100
AcDbSymbolTableRecord
100
AcDbBlockTableRecord
2
DimnDraft3D1
340
0
70
0
0
BLOCK_RECORD
5
DE
100
AcDbSymbolTableRecord
100
AcDbBlockTableRecord
2
DimnDraft3D2
340
0
70
0
0
BLOCK_RECORD
5
E8
100
AcDbSymbolTableRecord
100
AcDbBlockTableRecord
2
DimnDraft3D3
340
0
70
0
0
BLOCK_RECORD
5
F3
100
AcDbSymbolTableRecord
100
AcDbBlockTableRecord
2
DimnDraft3D4
340
0
70
0
0
ENDTAB
0
ENDSEC
0
SECTION
2
BLOCKS
0
BLOCK
5
20
100
AcDbEntity
8
0
100
AcDbBlockBegin
2
*Model_Space
70
0
10
0
20
0
30
0
3
*Model_Space
0
ENDBLK
5
21
100
AcDbEntity
8
0
100
AcDbBlockEnd
0
BLOCK
5
1C
100
AcDbEntity
8
0
100
AcDbBlockBegin
2
*Paper_Space
70
0
10
0
20
0
30
0
3
*Paper_Space
0
ENDBLK
5
1D
100
AcDbEntity
8
0
100
AcDbBlockEnd
0
BLOCK
5
24
100
AcDbEntity
8
0
100
AcDbBlockBegin
2
*Paper_Space0
70
0
10
0
20
0
30
0
3
*Paper_Space0
0
ENDBLK
5
25
100
AcDbEntity
8
0
100
AcDbBlockEnd
0
BLOCK
5
DB
100
AcDbEntity
8
0
100
AcDbBlockBegin
2
DimnDraft3D1
70
0
10
0
20
0
30
0
3
DimnDraft3D1
0
MTEXT
5
D3
100
AcDbEntity
8
SK2
62
256
6
ByLayer
370
18
48
1
60
0
100
AcDbMText
10
-60
20
2.897368
30
0
210
0
220
0
230
1
1
\W0.6563;80
40
3
41
0
44
1.084337
50
90
71
7
72
5
7
iso_b_vert
0
MTEXT
5
D5
100
AcDbEntity
8
SK2
62
256
6
ByLayer
370
18
48
1
60
0
100
AcDbMText
10
-60
20
-3.379194
30
0
210
0
220
0
230
1
1
%%c
40
3
41
0
44
1.084337
50
90
71
7
72
5
7
iso_b_vert
0
LINE
5
D6
100
AcDbEntity
8
SK2
62
256
6
ByLayer
370
13
48
1
60
0
100
AcDbLine
10
-1.7
20
-40
30
0
11
-60.5
21
-40
31
0
39
0
210
0
220
0
230
1
0
LINE
5
D7
100
AcDbEntity
8
SK2
62
256
6
ByLayer
370
13
48
1
60
0
100
AcDbLine
10
-1.7
20
40
30
0
11
-60.5
21
40
31
0
39
0
210
0
220
0
230
1
0
LINE
5
D8
100
AcDbEntity
8
SK2
62
256
6
ByLayer
370
13
48
1
60
0
100
AcDbLine
10
-58.5
20
-40
30
0
11
-58.5
21
40
31
0
39
0
210
0
220
0
230
1
0
SOLID
5
D9
100
AcDbEntity
8
SK2
62
256
6
ByLayer
370
13
48
1
60
0
100
AcDbTrace
10
-58.5
20
-40
30
0
11
-58.833706
21
-36.825001
31
0
12
-58.166294
22
-36.824999
32
0
13
-58.5
23
-40
33
0
39
0
210
0
220
0
230
1
0
SOLID
5
DA
100
AcDbEntity
8
SK2
62
256
6
ByLayer
370
13
48
1
60
0
100
AcDbTrace
10
-58.5
20
40
30
0
11
-58.166294
21
36.825001
31
0
12
-58.833706
22
36.824999
32
0
13
-58.5
23
40
33
0
39
0
210
0
220
0
230
1
0
ENDBLK
5
DC
100
AcDbEntity
8
0
100
AcDbBlockEnd
0
BLOCK
5
E5
100
AcDbEntity
8
0
100
AcDbBlockBegin
2
DimnDraft3D2
70
0
10
0
20
0
30
0
3
DimnDraft3D2
0
MTEXT
5
DF
100
AcDbEntity
8
SK2
62
256
6
ByLayer
370
18
48
1
60
0
100
AcDbMText
10
80.75
20
19.714474
30
0
210
0
220
0
230
1
1
\W0.6880;41
40
3
41
0
44
1.084337
50
90
71
7
72
5
7
iso_b_vert
0
LINE
5
E0
100
AcDbEntity
8
SK2
62
256
6
ByLayer
370
13
48
1
60
0
100
AcDbLine
10
72.3
20
0
30
0
11
83.5
21
0
31
0
39
0
210
0
220
0
230
1
0
LINE
5
E1
100
AcDbEntity
8
SK2
62
256
6
ByLayer
370
13
48
1
60
0
100
AcDbLine
10
52
20
41
30
0
11
83.5
21
41
31
0
39
0
210
0
220
0
230
1
0
LINE
5
E2
100
AcDbEntity
8
SK2
62
256
6
ByLayer
370
13
48
1
60
0
100
AcDbLine
10
81.5
20
0
30
0
11
81.5
21
41
31
0
39
0
210
0
220
0
230
1
0
SOLID
5
E3
100
AcDbEntity
8
SK2
62
256
6
ByLayer
370
13
48
1
60
0
100
AcDbTrace
10
81.5
20
0
30
0
11
81.166294
21
3.174999
31
0
12
81.833706
22
3.175001
32
0
13
81.5
23
0
33
0
39
0
210
0
220
0
230
1
0
SOLID
5
E4
100
AcDbEntity
8
SK2
62
256
6
ByLayer
370
13
48
1
60
0
100
AcDbTrace
10
81.5
20
41
30
0
11
81.833706
21
37.825001
31
0
12
81.166294
22
37.824999
32
0
13
81.5
23
41
33
0
39
0
210
0
220
0
230
1
0
ENDBLK
5
E6
100
AcDbEntity
8
0
100
AcDbBlockEnd
0
BLOCK
5
F0
100
AcDbEntity
8
0
100
AcDbBlockBegin
2
DimnDraft3D3
70
0
10
0
20
0
30
0
3
DimnDraft3D3
0
MTEXT
5
E9
100
AcDbEntity
8
SK2
62
256
6
ByLayer
370
18
48
1
60
0
100
AcDbMText
10
53.2
20
62.436892
30
0
210
0
220
0
230
1
1
\W0.7361;40
40
3
41
0
44
1.084337
50
0
71
7
72
5
7
iso_b_vert
0
MTEXT
5
EA
100
AcDbEntity
8
SK2
62
256
6
ByLayer
370
18
48
1
60
0
100
AcDbMText
10
46.923437
20
62.436892
30
0
210
0
220
0
230
1
1
%%c
40
3
41
0
44
1.084337
50
0
71
7
72
5
7
iso_b_vert
0
LINE
5
EB
100
AcDbEntity
8
SK2
62
256
6
ByLayer
370
13
48
1
60
0
100
AcDbLine
10
31
20
42.324519
30
0
11
31
21
62.936892
31
0
39
0
210
0
220
0
230
1
0
LINE
5
EC
100
AcDbEntity
8
SK2
62
256
6
ByLayer
370
13
48
1
60
0
100
AcDbLine
10
70
20
42.324519
30
0
11
70
21
62.936892
31
0
39
0
210
0
220
0
230
1
0
LINE
5
ED
100
AcDbEntity
8
SK2
62
256
6
ByLayer
370
13
48
1
60
0
100
AcDbLine
10
31
20
60.936892
30
0
11
70
21
60.936892
31
0
39
0
210
0
220
0
230
1
0
SOLID
5
EE
100
AcDbEntity
8
SK2
62
256
6
ByLayer
370
13
48
1
60
0
100
AcDbTrace
10
31
20
60.936892
30
0
11
34.174999
21
61.270598
31
0
12
34.175001
22
60.603186
32
0
13
31
23
60.936892
33
0
39
0
210
0
220
0
230
1
0
SOLID
5
EF
100
AcDbEntity
8
SK2
62
256
6
ByLayer
370
13
48
1
60
0
100
AcDbTrace
10
70
20
60.936892
30
0
11
66.825001
21
60.603186
31
0
12
66.824999
22
61.270598
32
0
13
70
23
60.936892
33
0
39
0
210
0
220
0
230
1
0
ENDBLK
5
F1
100
AcDbEntity
8
0
100
AcDbBlockEnd
0
BLOCK
5
FB
100
AcDbEntity
8
0
100
AcDbBlockBegin
2
DimnDraft3D4
70
0
10
0
20
0
30
0
3
DimnDraft3D4
0
MTEXT
5
F4
100
AcDbEntity
8
2
62
256
6
ByLayer
370
18
48
1
60
0
100
AcDbMText
10
23.957895
20
73.915766
30
0
210
0
220
0
230
1
1
\W0.6740;50
40
3
41
0
44
1.084337
50
0
71
7
72
5
7
iso_b_vert
0
LINE
5
F6
100
AcDbEntity
8
2
62
256
6
ByLayer
370
13
48
1
60
0
100
AcDbLine
10
0
20
41.7
30
0
11
0
21
75.165766
31
0
39
0
210
0
220
0
230
1
0
LINE
5
F7
100
AcDbEntity
8
2
62
256
6
ByLayer
370
13
48
1
60
0
100
AcDbLine
10
50
20
43
30
0
11
50
21
75.165766
31
0
39
0
210
0
220
0
230
1
0
LINE
5
F8
100
AcDbEntity
8
2
62
256
6
ByLayer
370
13
48
1
60
0
100
AcDbLine
10
0
20
73.165766
30
0
11
50
21
73.165766
31
0
39
0
210
0
220
0
230
1
0
SOLID
5
F9
100
AcDbEntity
8
2
62
256
6
ByLayer
370
13
48
1
60
0
100
AcDbTrace
10
0
20
73.165766
30
0
11
3.174999
21
73.499472
31
0
12
3.175001
22
72.83206
32
0
13
0
23
73.165766
33
0
39
0
210
0
220
0
230
1
0
SOLID
5
FA
100
AcDbEntity
8
2
62
256
6
ByLayer
370
13
48
1
60
0
100
AcDbTrace
10
50
20
73.165766
30
0
11
46.825001
21
72.83206
31
0
12
46.824999
22
73.499472
32
0
13
50
23
73.165766
33
0
39
0
210
0
220
0
230
1
0
ENDBLK
5
FC
100
AcDbEntity
8
0
100
AcDbBlockEnd
0
ENDSEC
0
SECTION
2
ENTITIES
0
CIRCLE
5
AE
100
AcDbEntity
8
1
62
256
6
ByLayer
370
18
48
1
60
0
100
AcDbCircle
10
-50
20
19
30
0
40
4.14143307609568
39
0
210
0
220
0
230
-1
0
CIRCLE
5
AF
100
AcDbEntity
8
1
62
256
6
ByLayer
370
18
48
1
60
0
100
AcDbCircle
10
-50
20
19
30
0
40
3.17170746233157
39
0
210
0
220
0
230
-1
0
ELLIPSE
5
B0
100
AcDbEntity
8
1
62
256
6
ByLayer
370
18
48
1
60
0
100
AcDbEllipse
10
30.763884
20
0
30
0
11
-18.7348357595633
21
-39.4834983054999
31
0
210
0
220
0
230
-1
40
0.341999
41
0.161099005228951
42
1.08794676716931
0
ELLIPSE
5
B1
100
AcDbEntity
8
1
62
256
6
ByLayer
370
18
48
1
60
0
100
AcDbEllipse
10
-6.763884
20
0
30
0
11
-18.7348357595661
21
39.4834983055028
31
0
210
0
220
0
230
-1
40
0.341999
41
2.05364588642054
42
2.98049364836086
0
ELLIPSE
5
B2
100
AcDbEntity
8
1
62
256
6
ByLayer
370
18
48
1
60
0
100
AcDbEllipse
10
30.763884
20
0
30
0
11
-18.7348357595621
21
39.4834983054984
31
0
210
0
220
0
230
-1
40
0.341999
41
-1.08794676716934
42
-0.161099005228955
0
ELLIPSE
5
B3
100
AcDbEntity
8
1
62
256
6
ByLayer
370
18
48
1
60
0
100
AcDbEllipse
10
-6.763884
20
0
30
0
11
-18.7348357595656
21
-39.4834983055022
31
0
210
0
220
0
230
-1
40
0.341999
41
-2.98049364836086
42
-2.05364588642053
0
ELLIPSE
5
B4
100
AcDbEntity
8
1
62
256
6
ByLayer
370
18
48
1
60
0
100
AcDbEllipse
10
44.914548
20
-16.547179
30
0
11
3.24722796404952E-15
21
-17.6776695298257
31
0
210
0
220
0
230
-1
40
0.707107
41
2.64587371114557
42
2.82307006510169
0
ELLIPSE
5
B5
100
AcDbEntity
8
1
62
256
6
ByLayer
370
18
48
1
60
0
100
AcDbEllipse
10
50.487401
20
-18.499021
30
0
11
-9.00081125512925
21
17.8601624980847
31
0
210
0
220
0
230
-1
40
1
41
-0.0274375664675806
42
0.0304784431328854
0
ELLIPSE
5
B6
100
AcDbEntity
8
1
62
256
6
ByLayer
370
18
48
1
60
0
100
AcDbEllipse
10
32.059438
20
0
30
0
11
7.34763812293412E-15
21
-39.9999999999992
31
0
210
0
220
0
230
-1
40
0.176327
41
0.872183269637098
42
2.2694093839527
0
ELLIPSE
5
B7
100
AcDbEntity
8
1
62
256
6
ByLayer
370
18
48
1
60
0
100
AcDbEllipse
10
49.676106
20
25.257782
30
0
11
-17.9202998855179
21
-8.88047533774359
31
0
210
0
220
0
230
-1
40
1
41
-1.59513466650429
42
-1.54704419474321
0
ELLIPSE
5
B8
100
AcDbEntity
8
1
62
256
6
ByLayer
370
18
48
1
60
0
100
AcDbEllipse
10
48.3
20
-16.654446
30
0
11
-17.232318542271
21
-21.7125996704441
31
0
210
0
220
0
230
-1
40
0.629889
41
2.63735574384832
42
2.74906258178816
0
POINT
5
6C
100
AcDbEntity
8
80
62
256
6
ByLayer
370
18
48
1
60
0
100
AcDbPoint
10
0
20
0
30
0
39
0
210
0
220
0
230
1
50
360
0
POINT
5
6E
100
AcDbEntity
8
81
62
256
6
ByLayer
370
18
48
1
60
0
100
AcDbPoint
10
50
20
41
30
0
39
0
210
0
220
0
230
1
50
360
0
SPLINE
5
B9
100
AcDbEntity
8
SK1
62
256
6
ByLayer
370
18
48
1
60
0
100
AcDbSpline
70
4
71
2
72
6
73
3
40
0
40
0
40
0
40
1
40
1
40
1
41
1
10
-48
20
-25.4903372289558
30
0
41
1
10
-47.2502396776073
20
-25.9486795491928
30
0
41
1
10
-46.5004793682374
20
-26.4070218560013
30
0
0
SPLINE
5
BA
100
AcDbEntity
8
SK1
62
256
6
ByLayer
370
18
48
1
60
0
100
AcDbSpline
70
4
71
2
72
6
73
3
40
0
40
0
40
0
40
1
40
1
40
1
41
1
10
-46.5004657228993
20
26.4070723718956
30
0
41
1
10
-47.2502328425801
20
25.9487162649119
30
0
41
1
10
-48
20
25.4903599083565
30
0
0
SPLINE
5
BB
100
AcDbEntity
8
1
62
256
6
ByLayer
370
18
48
1
60
0
100
AcDbSpline
70
4
71
3
72
13
73
9
40
0
40
0
40
0
40
0
40
0.256222331489723
40
0.595816960347232
40
0.756721547742949
40
0.892572489753453
40
0.999730652645845
40
1
40
1
40
1
40
1
41
1
10
10.1056624327026
20
12.6576002058704
30
0
41
1
10
10.1204333089295
20
12.5981337335349
30
0
41
1
10
10.1670722575799
20
12.4656679136688
30
0
41
1
10
10.253242975613
20
12.3032744555844
30
0
41
1
10
10.3629529855667
20
12.1928955703805
30
0
41
1
10
10.4510715216951
20
12.1436124753782
30
0
41
1
10
10.5119106965702
20
12.1331007202225
30
0
41
1
10
10.5386081931342
20
12.133089968106
30
0
41
1
10
10.5386751345948
20
12.1330899674706
30
0
0
SPLINE
5
BC
100
AcDbEntity
8
1
62
256
6
ByLayer
370
18
48
1
60
0
100
AcDbSpline
70
4
71
3
72
12
73
8
40
0
40
0
40
0
40
0
40
0.107090927408347
40
0.2425669007885
40
0.455432315407896
40
0.863255751650496
40
1
40
1
40
1
40
1
41
1
10
13.4613248654052
20
38.1154578595254
30
0
41
1
10
13.4888430498624
20
38.1152151562848
30
0
41
1
10
13.5480307931307
20
38.1122888019999
30
0
41
1
10
13.6481847575601
20
38.0944005955984
30
0
41
1
10
13.772404904132
20
38.0503633413168
30
0
41
1
10
13.8477904868662
20
37.9957326993062
30
0
41
1
10
13.8861201955835
20
37.9549695995299
30
0
41
1
10
13.8943375672974
20
37.9445010117191
30
0
0
SPLINE
5
BD
100
AcDbEntity
8
1
62
256
6
ByLayer
370
18
48
1
60
0
100
AcDbSpline
70
4
71
3
72
13
73
9
40
0
40
0
40
0
40
0
40
0.256222331489114
40
0.595816960346999
40
0.75672154774271
40
0.89257248975327
40
0.999730652645697
40
1
40
1
40
1
40
1
41
1
10
13.8943375672974
20
12.6576002058703
30
0
41
1
10
13.8795666910705
20
12.598133733535
30
0
41
1
10
13.83292774242
20
12.4656679136683
30
0
41
1
10
13.7467570243875
20
12.3032744555871
30
0
41
1
10
13.6370470144329
20
12.1928955703768
30
0
41
1
10
13.5489284783066
20
12.1436124753888
30
0
41
1
10
13.4880893034271
20
12.1331007202044
30
0
41
1
10
13.4613918068659
20
12.1330899681061
30
0
41
1
10
13.4613248654052
20
12.1330899674707
30
0
0
SPLINE
5
BE
100
AcDbEntity
8
1
62
256
6
ByLayer
370
18
48
1
60
0
100
AcDbSpline
70
4
71
3
72
12
73
8
40
0
40
0
40
0
40
0
40
0.107090927408409
40
0.242566900788552
40
0.455432315408037
40
0.863255751650713
40
1
40
1
40
1
40
1
41
1
10
10.5386751345948
20
38.1154578595255
30
0
41
1
10
10.5111569501376
20
38.1152151562848
30
0
41
1
10
10.4519692068692
20
38.1122888019997
30
0
41
1
10
10.3518152424398
20
38.0944005955985
30
0
41
1
10
10.2275950958679
20
38.0503633413165
30
0
41
1
10
10.1522095131338
20
37.9957326993063
30
0
41
1
10
10.1138798044165
20
37.9549695995299
30
0
41
1
10
10.1056624327026
20
37.9445010117191
30
0
0
SPLINE
5
BF
100
AcDbEntity
8
1
62
256
6
ByLayer
370
18
48
1
60
0
100
AcDbSpline
70
4
71
3
72
12
73
8
40
0
40
0
40
0
40
0
40
0.107090927408438
40
0.242566900788603
40
0.455432315408114
40
0.863255751650939
40
1
40
1
40
1
40
1
41
1
10
13.4613248654052
20
-12.1330899674707
30
0
41
1
10
13.4888430498624
20
-12.1338666389724
30
0
41
1
10
13.5480307931308
20
-12.1430431247032
30
0
41
1
10
13.6481847575601
20
-12.1991373298678
30
0
41
1
10
13.7724049041321
20
-12.3362292766509
30
0
41
1
10
13.8477904868662
20
-12.503543064498
30
0
41
1
10
13.8861201955835
20
-12.6262033054279
30
0
41
1
10
13.8943375672974
20
-12.6576002058703
30
0
0
SPLINE
5
C0
100
AcDbEntity
8
1
62
256
6
ByLayer
370
18
48
1
60
0
100
AcDbSpline
70
4
71
3
72
12
73
8
40
0
40
0
40
0
40
0
40
0.107090927408393
40
0.242566900788534
40
0.455432315408016
40
0.863255751650781
40
1
40
1
40
1
40
1
41
1
10
10.5386751345948
20
-12.1330899674707
30
0
41
1
10
10.5111569501375
20
-12.1338666389724
30
0
41
1
10
10.4519692068692
20
-12.1430431247033
30
0
41
1
10
10.3518152424399
20
-12.1991373298677
30
0
41
1
10
10.2275950958679
20
-12.3362292766509
30
0
41
1
10
10.1522095131338
20
-12.503543064498
30
0
41
1
10
10.1138798044165
20
-12.6262033054279
30
0
41
1
10
10.1056624327026
20
-12.6576002058703
30
0
0
SPLINE
5
C1
100
AcDbEntity
8
1
62
256
6
ByLayer
370
18
48
1
60
0
100
AcDbSpline
70
4
71
3
72
13
73
9
40
0
40
0
40
0
40
0
40
0.256222331489132
40
0.595816960347043
40
0.756721547742744
40
0.892572489753298
40
0.999730652645726
40
1
40
1
40
1
40
1
41
1
10
13.8943375672974
20
-37.9445010117191
30
0
41
1
10
13.8795666910705
20
-37.9643151482468
30
0
41
1
10
13.83292774242
20
-38.008194878991
30
0
41
1
10
13.7467570243874
20
-38.0609637527938
30
0
41
1
10
13.6370470144331
20
-38.0963895308821
30
0
41
1
10
13.5489284783059
20
-38.1121103029958
30
0
41
1
10
13.4880893034283
20
-38.1154544345384
30
0
41
1
10
13.4613918068659
20
-38.1154578593283
30
0
41
1
10
13.4613248654052
20
-38.1154578595254
30
0
0
SPLINE
5
C2
100
AcDbEntity
8
1
62
256
6
ByLayer
370
18
48
1
60
0
100
AcDbSpline
70
4
71
3
72
13
73
9
40
0
40
0
40
0
40
0
40
0.25622233148955
40
0.59581696034719
40
0.756721547742904
40
0.892572489753435
40
0.999730652645819
40
1
40
1
40
1
40
1
41
1
10
10.1056624327026
20
-37.9445010117191
30
0
41
1
10
10.1204333089295
20
-37.9643151482468
30
0
41
1
10
10.1670722575799
20
-38.008194878991
30
0
41
1
10
10.2532429756131
20
-38.0609637527943
30
0
41
1
10
10.3629529855663
20
-38.0963895308814
30
0
41
1
10
10.451071521696
20
-38.1121103029979
30
0
41
1
10
10.5119106965687
20
-38.1154544345347
30
0
41
1
10
10.5386081931342
20
-38.1154578593283
30
0
41
1
10
10.5386751345948
20
-38.1154578595254
30
0
0
SPLINE
5
C3
100
AcDbEntity
8
SK1
62
256
6
ByLayer
370
18
48
1
60
0
100
AcDbSpline
70
4
71
2
72
6
73
3
40
0
40
0
40
0
40
1
40
1
40
1
41
1
10
-2.19993688395199
20
27.5201003703623
30
0
41
1
10
-24.3502050259239
20
26.9636085360197
30
0
41
1
10
-46.5004731678958
20
26.4071167016772
30
0
0
SPLINE
5
C4
100
AcDbEntity
8
SK1
62
256
6
ByLayer
370
18
48
1
60
0
100
AcDbSpline
70
4
71
3
72
17
73
13
40
0
40
0
40
0
40
0
40
0.726892953898444
40
0.760730680733004
40
0.794596411912757
40
0.828461545132936
40
0.862300570576877
40
0.896140328161333
40
0.92998105241753
40
0.963870592649492
40
0.997757522442937
40
1
40
1
40
1
40
1
41
1
10
-2.19614804162567
20
-27.5201000269845
30
0
41
1
10
-2.19995175769162
20
12.4588918838011
30
0
41
1
10
-2.20000257943554
20
21.3352042454195
30
0
41
1
10
-2.19999974186029
20
25.5807389778895
30
0
41
1
10
-2.19999842588475
20
26.0639264313219
30
0
41
1
10
-2.19999571070375
20
26.4851115211488
30
0
41
1
10
-2.19999113986022
20
26.8412796264964
30
0
41
1
10
-2.19998409093422
20
27.1290103432887
30
0
41
1
10
-2.19997381318288
20
27.344256725486
30
0
41
1
10
-2.19995942448684
20
27.4819458942961
30
0
41
1
10
-2.19994585303039
20
27.5186223827093
30
0
41
1
10
-2.19993759991587
20
27.5200708207353
30
0
41
1
10
-2.19993708276504
20
27.5200928730893
30
0
0
SPLINE
5
C5
100
AcDbEntity
8
SK1
62
256
6
ByLayer
370
18
48
1
60
0
100
AcDbSpline
70
4
71
2
72
6
73
3
40
0
40
0
40
0
40
1
40
1
40
1
41
1
10
-46.5004731678958
20
-26.4071167016237
30
0
41
1
10
-24.3483118040548
20
-26.9636561002882
30
0
41
1
10
-2.19615044021382
20
-27.5201954989527
30
0
0
SPLINE
5
C6
100
AcDbEntity
8
1
62
256
6
ByLayer
370
18
48
1
60
0
100
AcDbSpline
70
4
71
3
72
14
73
10
40
0
40
0
40
0
40
0
40
0.187243402699611
40
0.33943304994723
40
0.491600649660393
40
0.647594403006956
40
0.803557204246686
40
0.901781290295775
40
1
40
1
40
1
40
1
41
1
10
26.6586484770634
20
25.7262510227546
30
0
41
1
10
26.7196817797198
20
26.1495840813948
30
0
41
1
10
26.8662493225901
20
26.8983169167889
30
0
41
1
10
27.1684431780901
20
27.9361324603022
30
0
41
1
10
27.5388776037558
20
28.8621620808722
30
0
41
1
10
28.0091624341197
20
29.7432392303847
30
0
41
1
10
28.5175335805266
20
30.4700452127136
30
0
41
1
10
29.0229377741236
20
31.053530588947
30
0
41
1
10
29.3348585586271
20
31.3600183366506
30
0
41
1
10
29.4983102957912
20
31.5086604450363
30
0
0
SPLINE
5
C7
100
AcDbEntity
8
1
62
256
6
ByLayer
370
18
48
1
60
0
100
AcDbSpline
70
4
71
3
72
10
73
6
40
0
40
0
40
0
40
0
40
0.362773169020946
40
0.734233601016932
40
1
40
1
40
1
40
1
41
1
10
30.2091306063589
20
32.4062257584329
30
0
41
1
10
30.1353779875231
20
32.2727758352108
30
0
41
1
10
29.9772744596268
20
32.0210477452179
30
0
41
1
10
29.7322581351827
20
31.7256567666339
30
0
41
1
10
29.5684988148885
20
31.568899222358
30
0
41
1
10
29.4983102957912
20
31.5086604450363
30
0
0
SPLINE
5
C8
100
AcDbEntity
8
1
62
256
6
ByLayer
370
18
48
1
60
0
100
AcDbSpline
70
4
71
3
72
13
73
9
40
0
40
0
40
0
40
0
40
0.246001216587249
40
0.493441149787126
40
0.619610764382358
40
0.745778555578379
40
0.872890461724313
40
1
40
1
40
1
40
1
41
1
10
30.2091306063589
20
32.4062257584329
30
0
41
1
10
30.5586640023675
20
33.0483952770324
30
0
41
1
10
31.305239021252
20
34.3271056945273
30
0
41
1
10
32.361735404943
20
35.9098199218814
30
0
41
1
10
33.2783390247098
20
37.1711689001047
30
0
41
1
10
34.0059175530201
20
38.1209547047
30
0
41
1
10
34.7653829754171
20
39.0647249838436
30
0
41
1
10
35.2911915262675
20
39.6892463767366
30
0
41
1
10
35.5588155402112
20
40
30
0
0
SPLINE
5
C9
100
AcDbEntity
8
1
62
256
6
ByLayer
370
18
48
1
60
0
100
AcDbSpline
70
4
71
3
72
12
73
8
40
0
40
0
40
0
40
0
40
0.216139787164282
40
0.432316659027145
40
0.65357147019891
40
0.874831467724468
40
1
40
1
40
1
40
1
41
1
10
31
20
-14
30
0
41
1
10
31.1127863218398
20
-13.512984884189
30
0
41
1
10
31.3722981780189
20
-12.5533233597541
30
0
41
1
10
31.8687041863303
20
-11.1445214891026
30
0
41
1
10
32.4705128872787
20
-9.77270965997614
30
0
41
1
10
33.0760726622061
20
-8.6337590433215
30
0
41
1
10
33.4863874670979
20
-7.96119366763915
30
0
41
1
10
33.6399993087639
20
-7.7210321144194
30
0
0
SPLINE
5
CA
100
AcDbEntity
8
1
62
256
6
ByLayer
370
18
48
1
60
0
100
AcDbSpline
70
4
71
3
72
15
73
11
40
0
40
0
40
0
40
0
40
0.141599480082372
40
0.283199811787778
40
0.428741912845258
40
0.574282209241182
40
0.679874916303491
40
0.785466892775996
40
0.892733232520738
40
1
40
1
40
1
40
1
41
1
10
38.968745389716
20
-0.997423906435698
30
0
41
1
10
38.6381328654929
20
-1.24902680834719
30
0
41
1
10
37.9952140661691
20
-1.77087945494467
30
0
41
1
10
37.0715146276778
20
-2.61622476078016
30
0
41
1
10
36.2079302912321
20
-3.52946747212024
30
0
41
1
10
35.4873627772769
20
-4.42178387915947
30
0
41
1
10
34.9021918581664
20
-5.26654411932162
30
0
41
1
10
34.4286109075595
20
-6.05082437658912
30
0
41
1
10
34.0044479867481
20
-6.86863407686464
30
0
41
1
10
33.7556004706137
20
-7.43388529592565
30
0
41
1
10
33.6399993087639
20
-7.7210321144194
30
0
0
SPLINE
5
CB
100
AcDbEntity
8
1
62
256
6
ByLayer
370
18
48
1
60
0
100
AcDbSpline
70
4
71
3
72
15
73
11
40
0
40
0
40
0
40
0
40
0.105151844719403
40
0.217141322973608
40
0.329551304637536
40
0.441728547299045
40
0.589822096893967
40
0.738415280714555
40
0.886575650822723
40
1
40
1
40
1
40
1
41
1
10
33.6399993087639
20
-7.7210321144194
30
0
41
1
10
33.8014951908737
20
-7.46642961131909
30
0
41
1
10
34.1605543847292
20
-6.93366068348585
30
0
41
1
10
34.7908283655119
20
-6.0898910886304
30
0
41
1
10
35.5084417003604
20
-5.23203233701865
30
0
41
1
10
36.3770091022408
20
-4.30283361422592
30
0
41
1
10
37.4191890859424
20
-3.33440315997074
30
0
41
1
10
38.6443351943177
20
-2.3587601139091
30
0
41
1
10
39.8475385089123
20
-1.54471796052754
30
0
41
1
10
40.6467952813559
20
-1.08271086102979
30
0
41
1
10
41
20
-0.892510454322648
30
0
0
SPLINE
5
CC
100
AcDbEntity
8
1
62
256
6
ByLayer
370
18
48
1
60
0
100
AcDbSpline
70
4
71
3
72
10
73
6
40
0
40
0
40
0
40
0
40
0.185967513258752
40
0.591276834407705
40
1
40
1
40
1
40
1
41
1
10
27.5655625760768
20
-28.8761828434619
30
0
41
1
10
27.4814217173056
20
-28.6956958587406
30
0
41
1
10
27.2305193493765
20
-28.1130343134331
30
0
41
1
10
26.9028449708822
20
-27.0753637930859
30
0
41
1
10
26.7243443425523
20
-26.18553389633
30
0
41
1
10
26.6586484770634
20
-25.7262510227546
30
0
0
SPLINE
5
CD
100
AcDbEntity
8
1
62
256
6
ByLayer
370
18
48
1
60
0
100
AcDbSpline
70
4
71
3
72
21
73
17
40
0
40
0
40
0
40
0
40
0.0705996000352847
40
0.156336600021712
40
0.242377441601166
40
0.328503408179598
40
0.414356877598521
40
0.503464360167768
40
0.592928872202931
40
0.682461533326082
40
0.77180769798165
40
0.860815533953095
40
0.898472707625543
40
0.93615028864988
40
0.973739094937377
40
1
40
1
40
1
40
1
41
1
10
58.99005870672
20
7.55890438878534
30
0
41
1
10
59.4446907158902
20
7.79934068563947
30
0
41
1
10
60.4178286347454
20
8.35904612955613
30
0
41
1
10
61.8115079514447
20
9.32751819785801
30
0
41
1
10
63.1588600053638
20
10.4524523437432
30
0
41
1
10
64.3743570550933
20
11.6594131041256
30
0
41
1
10
65.4732420043158
20
12.9545549709108
30
0
41
1
10
66.4540076653734
20
14.3222125985285
30
0
41
1
10
67.3172852964792
20
15.7657225017909
30
0
41
1
10
68.0532586201257
20
17.2822470939212
30
0
41
1
10
68.6618101270874
20
18.8793721815156
30
0
41
1
10
69.0510794989958
20
20.2418180369833
30
0
41
1
10
69.2910179184295
20
21.3252270343369
30
0
41
1
10
69.4310949694435
20
22.1016838769855
30
0
41
1
10
69.5330864495795
20
22.8335388655482
30
0
41
1
10
69.5822006707167
20
23.3138533644398
30
0
41
1
10
69.6
20
23.5146676250537
30
0
0
LINE
5
70
100
AcDbEntity
8
SK1
62
256
6
ByLayer
370
18
48
1
60
0
100
AcDbLine
10
-46.500473
20
26.407117
30
0
11
-46.500473
21
-26.407117
31
0
39
0
210
0
220
0
230
1
0
LINE
5
72
100
AcDbEntity
8
SK1
62
256
6
ByLayer
370
18
48
1
60
0
100
AcDbLine
10
-48
20
-25.498401
30
0
11
-48
21
25.499098
31
0
39
0
210
0
220
0
230
1
0
LINE
5
73
100
AcDbEntity
8
1
62
256
6
ByLayer
370
18
48
1
60
0
100
AcDbLine
10
0
20
39.7
30
0
11
0
21
-39.7
31
0
39
0
210
0
220
0
230
1
0
LINE
5
75
100
AcDbEntity
8
1
62
256
6
ByLayer
370
18
48
1
60
0
100
AcDbLine
10
0
20
39.7
30
0
11
0.3
21
40
31
0
39
0
210
0
220
0
230
1
0
LINE
5
76
100
AcDbEntity
8
1
62
256
6
ByLayer
370
18
48
1
60
0
100
AcDbLine
10
0.3
20
-40
30
0
11
0
21
-39.7
31
0
39
0
210
0
220
0
230
1
0
LINE
5
77
100
AcDbEntity
8
1
62
256
6
ByLayer
370
18
48
1
60
0
100
AcDbLine
10
10.538675
20
38.115458
30
0
11
13.461325
21
38.115458
31
0
39
0
210
0
220
0
230
1
0
LINE
5
78
100
AcDbEntity
8
1
62
256
6
ByLayer
370
18
48
1
60
0
100
AcDbLine
10
10.538675
20
38.115458
30
0
11
10.538675
21
12.13309
31
0
39
0
210
0
220
0
230
1
0
LINE
5
79
100
AcDbEntity
8
1
62
256
6
ByLayer
370
18
48
1
60
0
100
AcDbLine
10
13.461325
20
38.115458
30
0
11
13.461325
21
12.13309
31
0
39
0
210
0
220
0
230
1
0
LINE
5
7A
100
AcDbEntity
8
1
62
256
6
ByLayer
370
18
48
1
60
0
100
AcDbLine
10
10.538675
20
12.13309
30
0
11
13.461325
21
12.13309
31
0
39
0
210
0
220
0
230
1
0
LINE
5
7B
100
AcDbEntity
8
1
62
256
6
ByLayer
370
18
48
1
60
0
100
AcDbLine
10
13.461325
20
-12.13309
30
0
11
10.538675
21
-12.13309
31
0
39
0
210
0
220
0
230
1
0
LINE
5
7C
100
AcDbEntity
8
1
62
256
6
ByLayer
370
18
48
1
60
0
100
AcDbLine
10
10.538675
20
-38.115458
30
0
11
13.461325
21
-38.115458
31
0
39
0
210
0
220
0
230
1
0
LINE
5
7D
100
AcDbEntity
8
1
62
256
6
ByLayer
370
18
48
1
60
0
100
AcDbLine
10
10.538675
20
-12.13309
30
0
11
10.538675
21
-38.115458
31
0
39
0
210
0
220
0
230
1
0
LINE
5
7E
100
AcDbEntity
8
1
62
256
6
ByLayer
370
18
48
1
60
0
100
AcDbLine
10
13.461325
20
-12.13309
30
0
11
13.461325
21
-38.115458
31
0
39
0
210
0
220
0
230
1
0
LINE
5
7F
100
AcDbEntity
8
SK1
62
256
6
ByLayer
370
18
48
1
60
0
100
AcDbLine
10
0
20
-27.3
30
0
11
-2.198602
21
-27.3
31
0
39
0
210
0
220
0
230
1
0
LINE
5
80
100
AcDbEntity
8
SK1
62
256
6
ByLayer
370
18
48
1
60
0
100
AcDbLine
10
0
20
27.3
30
0
11
-2.198602
21
27.3
31
0
39
0
210
0
220
0
230
1
0
LINE
5
81
100
AcDbEntity
8
1
62
256
6
ByLayer
370
18
48
1
60
0
100
AcDbLine
10
31
20
40
30
0
11
31
21
40.324519
31
0
39
0
210
0
220
0
230
1
0
LINE
5
82
100
AcDbEntity
8
1
62
256
6
ByLayer
370
18
48
1
60
0
100
AcDbLine
10
35.100505
20
51.5
30
0
11
35.600505
21
52
31
0
39
0
210
0
220
0
230
1
0
LINE
5
83
100
AcDbEntity
8
1
62
256
6
ByLayer
370
18
48
1
60
0
100
AcDbLine
10
35.100505
20
46
30
0
11
35.100505
21
51.5
31
0
39
0
210
0
220
0
230
1
0
LINE
5
84
100
AcDbEntity
8
1
62
256
6
ByLayer
370
18
48
1
60
0
100
AcDbLine
10
45.100505
20
51.5
30
0
11
45.100505
21
46
31
0
39
0
210
0
220
0
230
1
0
LINE
5
85
100
AcDbEntity
8
1
62
256
6
ByLayer
370
18
48
1
60
0
100
AcDbLine
10
44.600505
20
52
30
0
11
45.100505
21
51.5
31
0
39
0
210
0
220
0
230
1
0
LINE
5
86
100
AcDbEntity
8
1
62
256
6
ByLayer
370
18
48
1
60
0
100
AcDbLine
10
37.100505
20
41.324519
30
0
11
37.100505
21
46
31
0
39
0
210
0
220
0
230
1
0
LINE
5
87
100
AcDbEntity
8
1
62
256
6
ByLayer
370
18
48
1
60
0
100
AcDbLine
10
44.600505
20
52
30
0
11
35.600505
21
52
31
0
39
0
210
0
220
0
230
1
0
LINE
5
88
100
AcDbEntity
8
1
62
256
6
ByLayer
370
18
48
1
60
0
100
AcDbLine
10
45.100505
20
46
30
0
11
35.100505
21
46
31
0
39
0
210
0
220
0
230
1
0
LINE
5
89
100
AcDbEntity
8
1
62
256
6
ByLayer
370
18
48
1
60
0
100
AcDbLine
10
43.100505
20
46
30
0
11
43.100505
21
41.324519
31
0
39
0
210
0
220
0
230
1
0
LINE
5
8A
100
AcDbEntity
8
1
62
256
6
ByLayer
370
18
48
1
60
0
100
AcDbLine
10
24.997427
20
-40
30
0
11
27.565563
21
-28.876183
31
0
39
0
210
0
220
0
230
1
0
LINE
5
8B
100
AcDbEntity
8
1
62
256
6
ByLayer
370
18
48
1
60
0
100
AcDbLine
10
54.899495
20
46
30
0
11
54.899495
21
51.5
31
0
39
0
210
0
220
0
230
1
0
LINE
5
8C
100
AcDbEntity
8
1
62
256
6
ByLayer
370
18
48
1
60
0
100
AcDbLine
10
54.899495
20
51.5
30
0
11
55.399495
21
52
31
0
39
0
210
0
220
0
230
1
0
LINE
5
8D
100
AcDbEntity
8
1
62
256
6
ByLayer
370
18
48
1
60
0
100
AcDbLine
10
56.899495
20
41.324519
30
0
11
56.899495
21
46
31
0
39
0
210
0
220
0
230
1
0
LINE
5
8E
100
AcDbEntity
8
1
62
256
6
ByLayer
370
18
48
1
60
0
100
AcDbLine
10
64.899495
20
51.5
30
0
11
64.899495
21
46
31
0
39
0
210
0
220
0
230
1
0
LINE
5
8F
100
AcDbEntity
8
1
62
256
6
ByLayer
370
18
48
1
60
0
100
AcDbLine
10
64.399495
20
52
30
0
11
64.899495
21
51.5
31
0
39
0
210
0
220
0
230
1
0
LINE
5
90
100
AcDbEntity
8
1
62
256
6
ByLayer
370
18
48
1
60
0
100
AcDbLine
10
70.3
20
40
30
0
11
70.3
21
31.515704
31
0
39
0
210
0
220
0
230
1
0
LINE
5
91
100
AcDbEntity
8
1
62
256
6
ByLayer
370
18
48
1
60
0
100
AcDbLine
10
70
20
40.324519
30
0
11
70
21
40
31
0
39
0
210
0
220
0
230
1
0
LINE
5
92
100
AcDbEntity
8
1
62
256
6
ByLayer
370
18
48
1
60
0
100
AcDbLine
10
62.899495
20
46
30
0
11
62.899495
21
41.324519
31
0
39
0
210
0
220
0
230
1
0
LINE
5
93
100
AcDbEntity
8
1
62
256
6
ByLayer
370
18
48
1
60
0
100
AcDbLine
10
56.779976
20
7.600086
30
0
11
56.779976
21
40
31
0
39
0
210
0
220
0
230
1
0
LINE
5
94
100
AcDbEntity
8
1
62
256
6
ByLayer
370
18
48
1
60
0
100
AcDbLine
10
64.399495
20
52
30
0
11
55.399495
21
52
31
0
39
0
210
0
220
0
230
1
0
LINE
5
95
100
AcDbEntity
8
1
62
256
6
ByLayer
370
18
48
1
60
0
100
AcDbLine
10
64.899495
20
46
30
0
11
54.899495
21
46
31
0
39
0
210
0
220
0
230
1
0
LINE
5
96
100
AcDbEntity
8
1
62
256
6
ByLayer
370
18
48
1
60
0
100
AcDbLine
10
38.968745
20
-0.997424
30
0
11
38.968745
21
40
31
0
39
0
210
0
220
0
230
1
0
LINE
5
97
100
AcDbEntity
8
1
62
256
6
ByLayer
370
18
48
1
60
0
100
AcDbLine
10
27.565563
20
-28.876183
30
0
11
31
21
-14
31
0
39
0
210
0
220
0
230
1
0
LINE
5
98
100
AcDbEntity
8
1
62
256
6
ByLayer
370
18
48
1
60
0
100
AcDbLine
10
41
20
0.241289
30
0
11
56.779976
21
7.600086
31
0
39
0
210
0
220
0
230
1
0
LINE
5
99
100
AcDbEntity
8
1
62
256
6
ByLayer
370
18
48
1
60
0
100
AcDbLine
10
29.49831
20
31.50866
30
0
11
29.49831
21
40
31
0
39
0
210
0
220
0
230
1
0
LINE
5
9A
100
AcDbEntity
8
1
62
256
6
ByLayer
370
18
48
1
60
0
100
AcDbLine
10
58.128471
20
7.131627
30
0
11
42.035036
21
-0.372865
31
0
39
0
210
0
220
0
230
1
0
LINE
5
9B
100
AcDbEntity
8
1
62
256
6
ByLayer
370
18
48
1
60
0
100
AcDbLine
10
69.6
20
23.514668
30
0
11
70.3
21
31.515704
31
0
39
0
210
0
220
0
230
1
0
LINE
5
9C
100
AcDbEntity
8
1
62
256
6
ByLayer
370
18
48
1
60
0
100
AcDbLine
10
0.3
20
40
30
0
11
29.49831
21
40
31
0
39
0
210
0
220
0
230
1
0
LINE
5
9D
100
AcDbEntity
8
1
62
256
6
ByLayer
370
18
48
1
60
0
100
AcDbLine
10
51.154701
20
21
30
0
11
52.309401
21
19
31
0
39
0
210
0
220
0
230
1
0
LINE
5
9E
100
AcDbEntity
8
1
62
256
6
ByLayer
370
18
48
1
60
0
100
AcDbLine
10
52.309401
20
19
30
0
11
51.154701
21
17
31
0
39
0
210
0
220
0
230
1
0
LINE
5
9F
100
AcDbEntity
8
1
62
256
6
ByLayer
370
18
48
1
60
0
100
AcDbLine
10
48.845299
20
21
30
0
11
47.690599
21
19
31
0
39
0
210
0
220
0
230
1
0
LINE
5
A0
100
AcDbEntity
8
1
62
256
6
ByLayer
370
18
48
1
60
0
100
AcDbLine
10
51.154701
20
17
30
0
11
48.845299
21
17
31
0
39
0
210
0
220
0
230
1
0
LINE
5
A1
100
AcDbEntity
8
1
62
256
6
ByLayer
370
18
48
1
60
0
100
AcDbLine
10
48.845299
20
17
30
0
11
47.690599
21
19
31
0
39
0
210
0
220
0
230
1
0
LINE
5
A2
100
AcDbEntity
8
1
62
256
6
ByLayer
370
18
48
1
60
0
100
AcDbLine
10
48.845299
20
21
30
0
11
51.154701
21
21
31
0
39
0
210
0
220
0
230
1
0
LINE
5
A3
100
AcDbEntity
8
1
62
256
6
ByLayer
370
18
48
1
60
0
100
AcDbLine
10
29.49831
20
40
30
0
11
70.3
21
40
31
0
39
0
210
0
220
0
230
1
0
LINE
5
A4
100
AcDbEntity
8
1
62
256
6
ByLayer
370
18
48
1
60
0
100
AcDbLine
10
69
20
41.324519
30
0
11
70
21
40.324519
31
0
39
0
210
0
220
0
230
1
0
LINE
5
A5
100
AcDbEntity
8
1
62
256
6
ByLayer
370
18
48
1
60
0
100
AcDbLine
10
31
20
40.324519
30
0
11
32
21
41.324519
31
0
39
0
210
0
220
0
230
1
0
LINE
5
A6
100
AcDbEntity
8
1
62
256
6
ByLayer
370
18
48
1
60
0
100
AcDbLine
10
69
20
41.324519
30
0
11
32
21
41.324519
31
0
39
0
210
0
220
0
230
1
0
LINE
5
A7
100
AcDbEntity
8
1
62
256
6
ByLayer
370
18
48
1
60
0
100
AcDbLine
10
24.997427
20
-40
30
0
11
0.3
21
-40
31
0
39
0
210
0
220
0
230
1
0
LINE
5
A8
100
AcDbEntity
8
SK4
62
256
6
ByLayer
370
13
48
0.05
60
0
100
AcDbLine
10
73.524304
20
0
30
0
11
-51
21
0
31
0
39
0
210
0
220
0
230
1
0
LINE
5
AA
100
AcDbEntity
8
4
62
256
6
ByLayer
370
13
48
0.05
60
0
100
AcDbLine
10
0
20
0
30
0
11
70.3
21
0
31
0
39
0
210
0
220
0
230
1
0
LINE
5
AC
100
AcDbEntity
8
80
62
256
6
ByLayer
370
13
48
1
60
0
100
AcDbLine
10
0
20
0
30
0
11
-12
21
0
31
0
39
0
210
0
220
0
230
1
0
LINE
5
AD
100
AcDbEntity
8
81
62
256
6
ByLayer
370
13
48
1
60
0
100
AcDbLine
10
50
20
41
30
0
11
50
21
47
31
0
39
0
210
0
220
0
230
1
0
MTEXT
5
CE
100
AcDbEntity
8
SK6
62
256
6
ByLayer
370
18
48
1
60
0
100
AcDbMText
10
2.687564
20
-51.186908
30
0
210
0
220
0
230
1
1
\W0.7124;C8-570-40-RF
40
3.5
41
0
44
1.084337
50
0
71
7
72
5
7
iso_b_vert
0
DIMENSION
5
DD
100
AcDbEntity
8
SK2
62
256
6
ByLayer
370
13
48
1
60
0
100
AcDbDimension
2
DimnDraft3D1
10
-60.5
20
40
30
0
11
-60.75
21
2.147368
31
0
70
33
71
5
72
1
41
1
210
0
220
0
230
1
3
Standard
100
AcDbAlignedDimension
13
-1.7
23
-40
33
0
14
-1.7
24
40
34
0
1001
ACAD
1000
DSTYLE
1002
{
1070
   279
1070
     0
1070
    74
1070
     0
1070
   173
1070
     1
1070
   340
1005
CF
1070
   271
1070
     3
1070
   272
1070
     3
1070
    77
1070
     1
1070
    73
1070
     0
1070
   171
1070
     3
1070
   274
1070
     3
1070
   177
1070
   254
1070
   176
1070
   254
1070
   178
1070
   254
1070
    78
1070
     8
1070
    41
1041
3.175
1070
   147
1041
1.5
1070
    42
1041
2.0
1070
    44
1041
2.0
1070
   140
1041
3.0
1070
   343
1005
0
1070
   344
1005
0
1002
}
0
DIMENSION
5
E7
100
AcDbEntity
8
SK2
62
256
6
ByLayer
370
13
48
1
60
0
100
AcDbDimension
2
DimnDraft3D2
10
41
20
-81.5
30
0
11
22.035526
21
-81.5
31
0
70
32
71
5
72
1
41
1
210
0
220
0
230
1
3
Standard
100
AcDbAlignedDimension
13
0
23
-72.3
33
0
14
41
24
-52
34
0
50
0
100
AcDbRotatedDimension
1001
ACAD
1000
DSTYLE
1002
{
1070
   279
1070
     0
1070
   172
1070
     1
1070
   173
1070
     1
1070
   340
1005
CF
1070
   271
1070
     3
1070
   272
1070
     3
1070
    77
1070
     1
1070
    73
1070
     0
1070
   171
1070
     3
1070
   274
1070
     3
1070
   177
1070
   254
1070
   176
1070
   254
1070
   178
1070
   254
1070
    78
1070
     8
1070
    41
1041
3.175
1070
   147
1041
1.5
1070
    42
1041
2.0
1070
    44
1041
2.0
1070
   140
1041
3.0
1070
   343
1005
0
1070
   344
1005
0
1002
}
0
DIMENSION
5
F2
100
AcDbEntity
8
SK2
62
256
6
ByLayer
370
13
48
1
60
0
100
AcDbDimension
2
DimnDraft3D3
10
70
20
62.936892
30
0
11
52.45
21
63.186892
31
0
70
33
71
5
72
1
41
1
210
0
220
0
230
1
3
Standard
100
AcDbAlignedDimension
13
31
23
42.324519
33
0
14
70
24
42.324519
34
0
1001
ACAD
1000
DSTYLE
1002
{
1070
   279
1070
     0
1070
    74
1070
     0
1070
   173
1070
     1
1070
   340
1005
CF
1070
   271
1070
     3
1070
   272
1070
     3
1070
    77
1070
     1
1070
    73
1070
     0
1070
   171
1070
     3
1070
   274
1070
     3
1070
   177
1070
   254
1070
   176
1070
   254
1070
   178
1070
   254
1070
    78
1070
     8
1070
    41
1041
3.175
1070
   147
1041
1.5
1070
    42
1041
2.0
1070
    44
1041
2.0
1070
   140
1041
3.0
1070
   343
1005
0
1070
   344
1005
0
1002
}
0
DIMENSION
5
FD
100
AcDbEntity
8
2
62
256
6
ByLayer
370
13
48
1
60
0
100
AcDbDimension
2
DimnDraft3D4
10
50
20
73.165766
30
0
11
23.207895
21
73.165766
31
0
70
32
71
5
72
1
41
1
210
0
220
0
230
1
3
Standard
100
AcDbAlignedDimension
13
0
23
41.7
33
0
14
50
24
43
34
0
50
0
100
AcDbRotatedDimension
1001
ACAD
1000
DSTYLE
1002
{
1070
   279
1070
     0
1070
   172
1070
     1
1070
   173
1070
     1
1070
   340
1005
CF
1070
   271
1070
     3
1070
   272
1070
     3
1070
    77
1070
     1
1070
    73
1070
     0
1070
   171
1070
     3
1070
   274
1070
     3
1070
   177
1070
   254
1070
   176
1070
   254
1070
   178
1070
   254
1070
    78
1070
     8
1070
    41
1041
3.175
1070
   147
1041
1.5
1070
    42
1041
2.0
1070
    44
1041
2.0
1070
   140
1041
3.0
1070
   343
1005
0
1070
   344
1005
0
1002
}
0
ENDSEC
0
SECTION
2
OBJECTS
0
DICTIONARY
5
168
330
0
100
AcDbDictionary
280
0
281
1
3
ACAD_GROUP
350
169
3
ACAD_MLINESTYLE
350
16a
0
DICTIONARY
5
169
330
0
100
AcDbDictionary
280
0
281
1
0
DICTIONARY
5
16a
330
0
100
AcDbDictionary
280
0
281
1
3
Standard
350
18
0
MLINESTYLE
5
18
330
16a
100
AcDbMlineStyle
2
Standard
70
0
3

62
256
51
90
52
90
71
2
49
-0.5
62
256
6
ByLayer
49
0.5
62
256
6
ByLayer
0
RASTERVARIABLES
5
156
330

100
AcDbRasterVariables
90
0
70
1
71
1
72
1
0
ENDSEC
0
EOF
