0
SECTION
2
HEADER
9
$ACADVER
1
AC1015
9
$DWGCODEPAGE
3
ANSI_1252
9
$HANDSEED
5
2a2
9
$ANGBASE
50
0
9
$ANGDIR
70
0
9
$ATTMODE
70
1
9
$AUNITS
70
0
9
$AUPREC
70
0
9
$CECOLOR
62
256
9
$CELTSCALE
40
1
9
$CELTYPE
6
ByLayer
9
$CELWEIGHT
370
18
9
$CLAYER
8
0
9
$CMLJUST
70
0
9
$CMLSCALE
40
1
9
$CMLSTYLE
2
Standard
9
$DIMSTYLE
2
Standard
9
$TEXTSIZE
40
0.2
9
$TEXTSTYLE
7
Standard
9
$LUNITS
70
2
9
$LUPREC
70
4
9
$EXTNAMES
290
1
9
$INSUNITS
70
4
9
$LTSCALE
40
1
9
$LWDISPLAY
290
1
9
$PDMODE
70
0
9
$PDSIZE
40
0
9
$PLINEGEN
70
0
0
ENDSEC
0
SECTION
2
CLASSES
0
CLASS
1
RASTERVARIABLES
2
AcDbRasterVariables
3
ISM
90
0
280
0
281
0
0
ENDSEC
0
SECTION
2
TABLES
0
TABLE
2
VPORT
5
298
100
AcDbSymbolTable
0
VPORT
5
1
100
AcDbSymbolTableRecord
100
AcDbViewportTableRecord
2
*Active
70
0
10
0
20
0
11
1
21
1
12
-1
22
1
13
0
23
0
14
0.5
24
0.5
15
10
25
10
16
0
26
0
36
1
17
0
27
0
37
0
0
ENDTAB
0
TABLE
2
LTYPE
5
299
100
AcDbSymbolTable
0
LTYPE
5
14
100
AcDbSymbolTableRecord
100
AcDbLinetypeTableRecord
70
0
2
ByBlock
3

72
65
73
0
40
0
0
LTYPE
5
15
100
AcDbSymbolTableRecord
100
AcDbLinetypeTableRecord
70
0
2
ByLayer
3

72
65
73
0
40
0
0
LTYPE
5
16
100
AcDbSymbolTableRecord
100
AcDbLinetypeTableRecord
70
0
2
CONTINUOUS
3
Solid line
72
65
73
0
40
0
0
LTYPE
5
6A
100
AcDbSymbolTableRecord
100
AcDbLinetypeTableRecord
70
0
2
CENTER
3
____ _ ____ _ ____ _ ____
72
65
73
4
40
47.5
49
22
74
0
49
-8.5
74
0
49
8.5
74
0
49
-8.5
74
0
0
LTYPE
5
6B
100
AcDbSymbolTableRecord
100
AcDbLinetypeTableRecord
70
0
2
DASHED
3
__ __ __ __ __ __ __ __ __
72
65
73
2
40
25.72
49
12.86
74
0
49
-12.86
74
0
0
ENDTAB
0
TABLE
2
LAYER
5
29a
100
AcDbSymbolTable
0
LAYER
5
10
100
AcDbSymbolTableRecord
100
AcDbLayerTableRecord
2
0
70
0
62
7
6
CONTINUOUS
290
1
370
-3
390
0
0
LAYER
5
6D
100
AcDbSymbolTableRecord
100
AcDbLayerTableRecord
2
80
70
0
62
-6
6
CONTINUOUS
290
1
370
-3
390
0
0
LAYER
5
6F
100
AcDbSymbolTableRecord
100
AcDbLayerTableRecord
2
81
70
0
62
-3
6
CONTINUOUS
290
1
370
-3
390
0
0
LAYER
5
71
100
AcDbSymbolTableRecord
100
AcDbLayerTableRecord
2
82
70
0
62
-3
6
DASHED
290
1
370
-3
390
0
0
LAYER
5
74
100
AcDbSymbolTableRecord
100
AcDbLayerTableRecord
2
4
70
0
62
-2
6
CENTER
290
1
370
-3
390
0
0
LAYER
5
79
100
AcDbSymbolTableRecord
100
AcDbLayerTableRecord
2
1
70
0
62
4
6
CONTINUOUS
290
1
370
-3
390
0
0
LAYER
5
1E2
100
AcDbSymbolTableRecord
100
AcDbLayerTableRecord
2
2
70
0
62
7
6
CONTINUOUS
290
1
370
-3
390
0
0
LAYER
5
284
100
AcDbSymbolTableRecord
100
AcDbLayerTableRecord
2
SK4
70
0
62
2
6
CENTER
290
1
370
-3
390
0
0
LAYER
5
285
100
AcDbSymbolTableRecord
100
AcDbLayerTableRecord
2
SK1
70
0
62
4
6
CONTINUOUS
290
1
370
-3
390
0
0
LAYER
5
286
100
AcDbSymbolTableRecord
100
AcDbLayerTableRecord
2
SK6
70
0
62
5
6
CONTINUOUS
290
1
370
-3
390
0
0
LAYER
5
287
100
AcDbSymbolTableRecord
100
AcDbLayerTableRecord
2
SK2
70
0
62
7
6
CONTINUOUS
290
1
370
-3
390
0
0
ENDTAB
0
TABLE
2
STYLE
5
29b
100
AcDbSymbolTable
0
STYLE
5
11
100
AcDbSymbolTableRecord
100
AcDbTextStyleTableRecord
2
Standard
3
txt
70
0
71
0
40
0
41
1
42
0
50
0
0
STYLE
5
1DD
100
AcDbSymbolTableRecord
100
AcDbTextStyleTableRecord
2
iso_b_vert
3
simplex.shx
70
0
71
0
40
0
41
1
42
0
50
0
0
STYLE
5
1DE
100
AcDbSymbolTableRecord
100
AcDbTextStyleTableRecord
2
DWGDirectTextStyle
3
simplex
70
0
71
0
40
0
41
1
42
0
50
0
0
ENDTAB
0
TABLE
2
DIMSTYLE
5
29c
100
AcDbSymbolTable
100
AcDbDimStyleTable
0
DIMSTYLE
105
27
100
AcDbSymbolTableRecord
100
AcDbDimStyleTableRecord
2
Standard
70
0
3
<>
41
0.18
42
0.0625
44
0.18
140
0.18
147
0.09
73
0
74
0
77
1
271
2
275
0
278
52
280
0
340
11
0
ENDTAB
0
TABLE
2
VIEW
5
29d
100
AcDbSymbolTable
0
ENDTAB
0
TABLE
2
UCS
5
29e
100
AcDbSymbolTable
0
ENDTAB
0
TABLE
2
APPID
5
29f
100
AcDbSymbolTable
0
APPID
5
12
100
AcDbSymbolTableRecord
100
AcDbRegAppTableRecord
2
ACAD
70
0
0
ENDTAB
0
TABLE
2
BLOCK_RECORD
5
2a0
100
AcDbSymbolTable
0
BLOCK_RECORD
5
1F
100
AcDbSymbolTableRecord
100
AcDbBlockTableRecord
2
*Model_Space
340
0
70
0
0
BLOCK_RECORD
5
1B
100
AcDbSymbolTableRecord
100
AcDbBlockTableRecord
2
*Paper_Space
340
0
70
0
0
BLOCK_RECORD
5
23
100
AcDbSymbolTableRecord
100
AcDbBlockTableRecord
2
*Paper_Space0
340
0
70
0
0
BLOCK_RECORD
5
1E0
100
AcDbSymbolTableRecord
100
AcDbBlockTableRecord
2
DimnDraft3D1
340
0
70
0
0
BLOCK_RECORD
5
1EB
100
AcDbSymbolTableRecord
100
AcDbBlockTableRecord
2
DimnDraft3D2
340
0
70
0
0
BLOCK_RECORD
5
1F6
100
AcDbSymbolTableRecord
100
AcDbBlockTableRecord
2
DimnDraft3D3
340
0
70
0
0
BLOCK_RECORD
5
201
100
AcDbSymbolTableRecord
100
AcDbBlockTableRecord
2
DimnDraft3D4
340
0
70
0
0
BLOCK_RECORD
5
20C
100
AcDbSymbolTableRecord
100
AcDbBlockTableRecord
2
DimnDraft3D5
340
0
70
0
0
BLOCK_RECORD
5
216
100
AcDbSymbolTableRecord
100
AcDbBlockTableRecord
2
DimnDraft3D6
340
0
70
0
0
BLOCK_RECORD
5
220
100
AcDbSymbolTableRecord
100
AcDbBlockTableRecord
2
DimnDraft3D7
340
0
70
0
0
ENDTAB
0
ENDSEC
0
SECTION
2
BLOCKS
0
BLOCK
5
20
100
AcDbEntity
8
0
100
AcDbBlockBegin
2
*Model_Space
70
0
10
0
20
0
30
0
3
*Model_Space
0
ENDBLK
5
21
100
AcDbEntity
8
0
100
AcDbBlockEnd
0
BLOCK
5
1C
100
AcDbEntity
8
0
100
AcDbBlockBegin
2
*Paper_Space
70
0
10
0
20
0
30
0
3
*Paper_Space
0
ENDBLK
5
1D
100
AcDbEntity
8
0
100
AcDbBlockEnd
0
BLOCK
5
24
100
AcDbEntity
8
0
100
AcDbBlockBegin
2
*Paper_Space0
70
0
10
0
20
0
30
0
3
*Paper_Space0
0
ENDBLK
5
25
100
AcDbEntity
8
0
100
AcDbBlockEnd
0
BLOCK
5
1E8
100
AcDbEntity
8
0
100
AcDbBlockBegin
2
DimnDraft3D1
70
0
10
0
20
0
30
0
3
DimnDraft3D1
0
MTEXT
5
1E1
100
AcDbEntity
8
2
62
256
6
ByLayer
370
13
48
1
60
0
100
AcDbMText
10
301.710658
20
74.935862
30
0
210
0
220
0
230
1
1
\W0.7138;608
40
3.175
41
0
44
1.084337
50
0
71
7
72
5
7
iso_b_vert
0
LINE
5
1E3
100
AcDbEntity
8
2
62
256
6
ByLayer
370
13
48
1
60
0
100
AcDbLine
10
0
20
1.5875
30
0
11
0
21
77.317112
31
0
39
0
210
0
220
0
230
1
0
LINE
5
1E4
100
AcDbEntity
8
2
62
256
6
ByLayer
370
13
48
1
60
0
100
AcDbLine
10
608
20
21.5875
30
0
11
608
21
77.317112
31
0
39
0
210
0
220
0
230
1
0
LINE
5
1E5
100
AcDbEntity
8
2
62
256
6
ByLayer
370
13
48
1
60
0
100
AcDbLine
10
0
20
74.142112
30
0
11
608
21
74.142112
31
0
39
0
210
0
220
0
230
1
0
SOLID
5
1E6
100
AcDbEntity
8
2
62
256
6
ByLayer
370
13
48
1
60
0
100
AcDbTrace
10
0
20
74.142112
30
0
11
3.174998
21
74.560109
31
0
12
3.175002
22
73.724115
32
0
13
0
23
74.142112
33
0
39
0
210
0
220
0
230
1
0
SOLID
5
1E7
100
AcDbEntity
8
2
62
256
6
ByLayer
370
13
48
1
60
0
100
AcDbTrace
10
608
20
74.142112
30
0
11
604.825002
21
73.724115
31
0
12
604.824998
22
74.560109
32
0
13
608
23
74.142112
33
0
39
0
210
0
220
0
230
1
0
ENDBLK
5
1E9
100
AcDbEntity
8
0
100
AcDbBlockEnd
0
BLOCK
5
1F3
100
AcDbEntity
8
0
100
AcDbBlockBegin
2
DimnDraft3D2
70
0
10
0
20
0
30
0
3
DimnDraft3D2
0
MTEXT
5
1EC
100
AcDbEntity
8
SK2
62
256
6
ByLayer
370
13
48
1
60
0
100
AcDbMText
10
297.754013
20
-68.13118
30
0
210
0
220
0
230
1
1
\W0.7493;608,325
40
3.175
41
0
44
1.084337
50
0
71
7
72
5
7
iso_b_vert
0
LINE
5
1EE
100
AcDbEntity
8
SK2
62
256
6
ByLayer
370
13
48
1
60
0
100
AcDbLine
10
0
20
-41.2875
30
0
11
0
21
-72.09993
31
0
39
0
210
0
220
0
230
1
0
LINE
5
1EF
100
AcDbEntity
8
SK2
62
256
6
ByLayer
370
13
48
1
60
0
100
AcDbLine
10
608.325
20
-41.0875
30
0
11
608.325
21
-72.09993
31
0
39
0
210
0
220
0
230
1
0
LINE
5
1F0
100
AcDbEntity
8
SK2
62
256
6
ByLayer
370
13
48
1
60
0
100
AcDbLine
10
0
20
-68.92493
30
0
11
608.325
21
-68.92493
31
0
39
0
210
0
220
0
230
1
0
SOLID
5
1F1
100
AcDbEntity
8
SK2
62
256
6
ByLayer
370
13
48
1
60
0
100
AcDbTrace
10
0
20
-68.92493
30
0
11
3.174998
21
-68.506934
31
0
12
3.175002
22
-69.342927
32
0
13
0
23
-68.92493
33
0
39
0
210
0
220
0
230
1
0
SOLID
5
1F2
100
AcDbEntity
8
SK2
62
256
6
ByLayer
370
13
48
1
60
0
100
AcDbTrace
10
608.325
20
-68.92493
30
0
11
605.150002
21
-69.342927
31
0
12
605.149998
22
-68.506934
32
0
13
608.325
23
-68.92493
33
0
39
0
210
0
220
0
230
1
0
ENDBLK
5
1F4
100
AcDbEntity
8
0
100
AcDbBlockEnd
0
BLOCK
5
1FE
100
AcDbEntity
8
0
100
AcDbBlockBegin
2
DimnDraft3D3
70
0
10
0
20
0
30
0
3
DimnDraft3D3
0
MTEXT
5
1F7
100
AcDbEntity
8
SK2
62
256
6
ByLayer
370
13
48
1
60
0
100
AcDbMText
10
-86.295415
20
3.26273
30
0
210
0
220
0
230
1
1
\W0.6740;80
40
3.175
41
0
44
1.084337
50
90
71
7
72
5
7
iso_b_vert
0
MTEXT
5
1F8
100
AcDbEntity
8
SK2
62
256
6
ByLayer
370
13
48
1
60
0
100
AcDbMText
10
-86.295415
20
-3.856215
30
0
210
0
220
0
230
1
1
%%c
40
3.175
41
0
44
1.084337
50
90
71
7
72
5
7
iso_b_vert
0
LINE
5
1F9
100
AcDbEntity
8
SK2
62
256
6
ByLayer
370
13
48
1
60
0
100
AcDbLine
10
-1.2875
20
40
30
0
11
-87.882915
21
40
31
0
39
0
210
0
220
0
230
1
0
LINE
5
1FA
100
AcDbEntity
8
SK2
62
256
6
ByLayer
370
13
48
1
60
0
100
AcDbLine
10
-1.2875
20
-40
30
0
11
-87.882915
21
-40
31
0
39
0
210
0
220
0
230
1
0
LINE
5
1FB
100
AcDbEntity
8
SK2
62
256
6
ByLayer
370
13
48
1
60
0
100
AcDbLine
10
-84.707915
20
40
30
0
11
-84.707915
21
-40
31
0
39
0
210
0
220
0
230
1
0
SOLID
5
1FC
100
AcDbEntity
8
SK2
62
256
6
ByLayer
370
13
48
1
60
0
100
AcDbTrace
10
-84.707915
20
40
30
0
11
-84.289919
21
36.825002
31
0
12
-85.125912
22
36.824998
32
0
13
-84.707915
23
40
33
0
39
0
210
0
220
0
230
1
0
SOLID
5
1FD
100
AcDbEntity
8
SK2
62
256
6
ByLayer
370
13
48
1
60
0
100
AcDbTrace
10
-84.707915
20
-40
30
0
11
-85.125912
21
-36.825002
31
0
12
-84.289919
22
-36.824998
32
0
13
-84.707915
23
-40
33
0
39
0
210
0
220
0
230
1
0
ENDBLK
5
1FF
100
AcDbEntity
8
0
100
AcDbBlockEnd
0
BLOCK
5
209
100
AcDbEntity
8
0
100
AcDbBlockBegin
2
DimnDraft3D4
70
0
10
0
20
0
30
0
3
DimnDraft3D4
0
MTEXT
5
202
100
AcDbEntity
8
SK2
62
256
6
ByLayer
370
13
48
1
60
0
100
AcDbMText
10
694.868127
20
-16.904375
30
0
210
0
220
0
230
1
1
\W0.7361;40
40
3.175
41
0
44
1.084337
50
90
71
7
72
5
7
iso_b_vert
0
MTEXT
5
203
100
AcDbEntity
8
SK2
62
256
6
ByLayer
370
13
48
1
60
0
100
AcDbMText
10
694.868127
20
-24.02332
30
0
210
0
220
0
230
1
1
%%c
40
3.175
41
0
44
1.084337
50
90
71
7
72
5
7
iso_b_vert
0
LINE
5
204
100
AcDbEntity
8
SK2
62
256
6
ByLayer
370
13
48
1
60
0
100
AcDbLine
10
614.4125
20
0
30
0
11
699.630627
21
0
31
0
39
0
210
0
220
0
230
1
0
LINE
5
205
100
AcDbEntity
8
SK2
62
256
6
ByLayer
370
13
48
1
60
0
100
AcDbLine
10
614.4125
20
-40
30
0
11
699.630627
21
-40
31
0
39
0
210
0
220
0
230
1
0
LINE
5
206
100
AcDbEntity
8
SK2
62
256
6
ByLayer
370
13
48
1
60
0
100
AcDbLine
10
696.455627
20
0
30
0
11
696.455627
21
-40
31
0
39
0
210
0
220
0
230
1
0
SOLID
5
207
100
AcDbEntity
8
SK2
62
256
6
ByLayer
370
13
48
1
60
0
100
AcDbTrace
10
696.455627
20
0
30
0
11
696.873623
21
-3.174998
31
0
12
696.03763
22
-3.175002
32
0
13
696.455627
23
0
33
0
39
0
210
0
220
0
230
1
0
SOLID
5
208
100
AcDbEntity
8
SK2
62
256
6
ByLayer
370
13
48
1
60
0
100
AcDbTrace
10
696.455627
20
-40
30
0
11
696.03763
21
-36.825002
31
0
12
696.873623
22
-36.824998
32
0
13
696.455627
23
-40
33
0
39
0
210
0
220
0
230
1
0
ENDBLK
5
20A
100
AcDbEntity
8
0
100
AcDbBlockEnd
0
BLOCK
5
213
100
AcDbEntity
8
0
100
AcDbBlockBegin
2
DimnDraft3D5
70
0
10
0
20
0
30
0
3
DimnDraft3D5
0
MTEXT
5
20D
100
AcDbEntity
8
SK2
62
256
6
ByLayer
370
13
48
1
60
0
100
AcDbMText
10
677.666567
20
8.897105
30
0
210
0
220
0
230
1
1
\W0.6740;20
40
3.175
41
0
44
1.084337
50
90
71
7
72
5
7
iso_b_vert
0
LINE
5
20E
100
AcDbEntity
8
SK2
62
256
6
ByLayer
370
13
48
1
60
0
100
AcDbLine
10
609.5875
20
20
30
0
11
681.635317
21
20
31
0
39
0
210
0
220
0
230
1
0
LINE
5
20F
100
AcDbEntity
8
SK2
62
256
6
ByLayer
370
13
48
1
60
0
100
AcDbLine
10
609.5875
20
0
30
0
11
681.635317
21
0
31
0
39
0
210
0
220
0
230
1
0
LINE
5
210
100
AcDbEntity
8
SK2
62
256
6
ByLayer
370
13
48
1
60
0
100
AcDbLine
10
678.460317
20
20
30
0
11
678.460317
21
0
31
0
39
0
210
0
220
0
230
1
0
SOLID
5
211
100
AcDbEntity
8
SK2
62
256
6
ByLayer
370
13
48
1
60
0
100
AcDbTrace
10
678.460317
20
20
30
0
11
678.878313
21
16.825002
31
0
12
678.04232
22
16.824998
32
0
13
678.460317
23
20
33
0
39
0
210
0
220
0
230
1
0
SOLID
5
212
100
AcDbEntity
8
SK2
62
256
6
ByLayer
370
13
48
1
60
0
100
AcDbTrace
10
678.460317
20
0
30
0
11
678.04232
21
3.174998
31
0
12
678.878313
22
3.175002
32
0
13
678.460317
23
0
33
0
39
0
210
0
220
0
230
1
0
ENDBLK
5
214
100
AcDbEntity
8
0
100
AcDbBlockEnd
0
BLOCK
5
21D
100
AcDbEntity
8
0
100
AcDbBlockBegin
2
DimnDraft3D6
70
0
10
0
20
0
30
0
3
DimnDraft3D6
0
MTEXT
5
217
100
AcDbEntity
8
SK2
62
256
6
ByLayer
370
13
48
1
60
0
100
AcDbMText
10
677.632565
20
-11.102895
30
0
210
0
220
0
230
1
1
\W0.6740;20
40
3.175
41
0
44
1.084337
50
90
71
7
72
5
7
iso_b_vert
0
LINE
5
218
100
AcDbEntity
8
SK2
62
256
6
ByLayer
370
13
48
1
60
0
100
AcDbLine
10
609.5875
20
0
30
0
11
681.601315
21
0
31
0
39
0
210
0
220
0
230
1
0
LINE
5
219
100
AcDbEntity
8
SK2
62
256
6
ByLayer
370
13
48
1
60
0
100
AcDbLine
10
614.9125
20
-20
30
0
11
681.601315
21
-20
31
0
39
0
210
0
220
0
230
1
0
LINE
5
21A
100
AcDbEntity
8
SK2
62
256
6
ByLayer
370
13
48
1
60
0
100
AcDbLine
10
678.426315
20
0
30
0
11
678.426315
21
-20
31
0
39
0
210
0
220
0
230
1
0
SOLID
5
21B
100
AcDbEntity
8
SK2
62
256
6
ByLayer
370
13
48
1
60
0
100
AcDbTrace
10
678.426315
20
0
30
0
11
678.844312
21
-3.174998
31
0
12
678.008319
22
-3.175002
32
0
13
678.426315
23
0
33
0
39
0
210
0
220
0
230
1
0
SOLID
5
21C
100
AcDbEntity
8
SK2
62
256
6
ByLayer
370
13
48
1
60
0
100
AcDbTrace
10
678.426315
20
-20
30
0
11
678.008319
21
-16.825002
31
0
12
678.844312
22
-16.824998
32
0
13
678.426315
23
-20
33
0
39
0
210
0
220
0
230
1
0
ENDBLK
5
21E
100
AcDbEntity
8
0
100
AcDbBlockEnd
0
BLOCK
5
228
100
AcDbEntity
8
0
100
AcDbBlockBegin
2
DimnDraft3D7
70
0
10
0
20
0
30
0
3
DimnDraft3D7
0
MTEXT
5
221
100
AcDbEntity
8
SK2
62
256
6
ByLayer
370
13
48
1
60
0
100
AcDbMText
10
694.953972
20
22.32068
30
0
210
0
220
0
230
1
1
\W0.7361;40
40
3.175
41
0
44
1.084337
50
90
71
7
72
5
7
iso_b_vert
0
MTEXT
5
222
100
AcDbEntity
8
SK2
62
256
6
ByLayer
370
13
48
1
60
0
100
AcDbMText
10
694.953972
20
15.201735
30
0
210
0
220
0
230
1
1
%%c
40
3.175
41
0
44
1.084337
50
90
71
7
72
5
7
iso_b_vert
0
LINE
5
223
100
AcDbEntity
8
SK2
62
256
6
ByLayer
370
13
48
1
60
0
100
AcDbLine
10
609.5875
20
0
30
0
11
699.716472
21
0
31
0
39
0
210
0
220
0
230
1
0
LINE
5
224
100
AcDbEntity
8
SK2
62
256
6
ByLayer
370
13
48
1
60
0
100
AcDbLine
10
608.9125
20
40
30
0
11
699.716472
21
40
31
0
39
0
210
0
220
0
230
1
0
LINE
5
225
100
AcDbEntity
8
SK2
62
256
6
ByLayer
370
13
48
1
60
0
100
AcDbLine
10
696.541472
20
0
30
0
11
696.541472
21
40
31
0
39
0
210
0
220
0
230
1
0
SOLID
5
226
100
AcDbEntity
8
SK2
62
256
6
ByLayer
370
13
48
1
60
0
100
AcDbTrace
10
696.541472
20
0
30
0
11
696.123475
21
3.174998
31
0
12
696.959469
22
3.175002
32
0
13
696.541472
23
0
33
0
39
0
210
0
220
0
230
1
0
SOLID
5
227
100
AcDbEntity
8
SK2
62
256
6
ByLayer
370
13
48
1
60
0
100
AcDbTrace
10
696.541472
20
40
30
0
11
696.959469
21
36.825002
31
0
12
696.123475
22
36.824998
32
0
13
696.541472
23
40
33
0
39
0
210
0
220
0
230
1
0
ENDBLK
5
229
100
AcDbEntity
8
0
100
AcDbBlockEnd
0
ENDSEC
0
SECTION
2
ENTITIES
0
ARC
5
11B
100
AcDbEntity
8
1
62
256
6
ByLayer
370
18
48
1
60
0
100
AcDbCircle
39
0
10
602.25
20
39.75
30
0
40
0.25
210
0
220
0
230
1
100
AcDbArc
50
90
51
180
0
ARC
5
11C
100
AcDbEntity
8
1
62
256
6
ByLayer
370
18
48
1
60
0
100
AcDbCircle
39
0
10
602.25
20
-39.75
30
0
40
0.25
210
0
220
0
230
1
100
AcDbArc
50
180
51
270
0
ARC
5
11D
100
AcDbEntity
8
1
62
256
6
ByLayer
370
18
48
1
60
0
100
AcDbCircle
39
0
10
601.7
20
-39.7
30
0
40
0.3
210
0
220
0
230
1
100
AcDbArc
50
270
51
0
0
ARC
5
11E
100
AcDbEntity
8
1
62
256
6
ByLayer
370
18
48
1
60
0
100
AcDbCircle
39
0
10
601.7
20
39.7
30
0
40
0.3
210
0
220
0
230
1
100
AcDbArc
50
0
51
90
0
CIRCLE
5
11F
100
AcDbEntity
8
1
62
256
6
ByLayer
370
18
48
1
60
0
100
AcDbCircle
10
594
20
0
30
0
40
2
39
0
210
0
220
0
230
1
0
ELLIPSE
5
120
100
AcDbEntity
8
1
62
256
6
ByLayer
370
18
48
1
60
0
100
AcDbEllipse
10
605.5
20
-38.995312
30
0
11
0.499999999997215
21
0
31
0
210
0
220
0
230
1
40
0.926601
41
1.5707963267949
42
3.14159265358979
0
ELLIPSE
5
121
100
AcDbEntity
8
1
62
256
6
ByLayer
370
18
48
1
60
0
100
AcDbEllipse
10
605.5
20
-6.557377
30
0
11
0.499999999997324
21
0
31
0
210
0
220
0
230
1
40
0.655738
41
3.14159265358979
42
-1.5707963267949
0
ELLIPSE
5
122
100
AcDbEntity
8
1
62
256
6
ByLayer
370
18
48
1
60
0
100
AcDbEllipse
10
605.5
20
6.557377
30
0
11
0.499999999997324
21
0
31
0
210
0
220
0
230
1
40
0.655738
41
1.5707963267949
42
3.14159265358979
0
ELLIPSE
5
123
100
AcDbEntity
8
1
62
256
6
ByLayer
370
18
48
1
60
0
100
AcDbEllipse
10
605.5
20
38.995312
30
0
11
0.499999999997484
21
0
31
0
210
0
220
0
230
1
40
0.926601
41
3.14159265358979
42
-1.5707963267949
0
ELLIPSE
5
124
100
AcDbEntity
8
1
62
256
6
ByLayer
370
18
48
1
60
0
100
AcDbEllipse
10
-6.763884
20
0
30
0
11
18.7348357595625
21
39.4834983054985
31
0
210
0
220
0
230
1
40
0.341999
41
-1.08794676716929
42
-0.161099005228996
0
ELLIPSE
5
125
100
AcDbEntity
8
1
62
256
6
ByLayer
370
18
48
1
60
0
100
AcDbEllipse
10
30.763884
20
0
30
0
11
-18.7348357595643
21
39.4834983055009
31
0
210
0
220
0
230
1
40
0.341999
41
0.161099005228995
42
1.08794676716924
0
ELLIPSE
5
126
100
AcDbEntity
8
1
62
256
6
ByLayer
370
18
48
1
60
0
100
AcDbEllipse
10
-6.763884
20
0
30
0
11
-18.7348357595655
21
39.4834983055024
31
0
210
0
220
0
230
1
40
0.341999
41
-2.98049364836081
42
-2.05364588642058
0
ELLIPSE
5
127
100
AcDbEntity
8
1
62
256
6
ByLayer
370
18
48
1
60
0
100
AcDbEllipse
10
30.763884
20
0
30
0
11
18.7348357595644
21
39.483498305501
31
0
210
0
220
0
230
1
40
0.341999
41
2.05364588642056
42
2.9804936483608
0
POINT
5
6C
100
AcDbEntity
8
80
62
256
6
ByLayer
370
18
48
1
60
0
100
AcDbPoint
10
0
20
0
30
0
39
0
210
0
220
0
230
1
50
360
0
POINT
5
6E
100
AcDbEntity
8
81
62
256
6
ByLayer
370
18
48
1
60
0
100
AcDbPoint
10
608
20
20
30
0
39
0
210
0
220
0
230
1
50
360
0
POINT
5
70
100
AcDbEntity
8
82
62
256
6
ByLayer
370
18
48
1
60
0
100
AcDbPoint
10
608
20
-20
30
0
39
0
210
0
220
0
230
1
50
360
0
SPLINE
5
128
100
AcDbEntity
8
1
62
256
6
ByLayer
370
18
48
1
60
0
100
AcDbSpline
70
4
71
3
72
14
73
10
40
0
40
0
40
0
40
0
40
0.189510435626588
40
0.36057944209187
40
0.53165048767202
40
0.704118522733708
40
0.876587104629371
40
0.994869659292619
40
1
40
1
40
1
40
1
41
1
10
605
20
38.9953125000002
30
0
41
1
10
604.998708852985
20
39.1217532951453
30
0
41
1
10
604.989451659785
20
39.3397294359064
30
0
41
1
10
604.953611540527
20
39.5978972403912
30
0
41
1
10
604.907424187066
20
39.7892021259563
30
0
41
1
10
604.853110898448
20
39.9216608055692
30
0
41
1
10
604.799988336174
20
39.9870015274426
30
0
41
1
10
604.765144661414
20
39.9997870496073
30
0
41
1
10
604.750604581383
20
40.000000000114
30
0
41
1
10
604.75
20
40
30
0
0
SPLINE
5
129
100
AcDbEntity
8
1
62
256
6
ByLayer
370
18
48
1
60
0
100
AcDbSpline
70
4
71
3
72
14
73
10
40
0
40
0
40
0
40
0
40
0.005130340792819
40
0.123412897425899
40
0.294490535861207
40
0.465567648232425
40
0.638029652486773
40
0.810489561217401
40
1
40
1
40
1
40
1
41
1
10
604.75
20
-40
30
0
41
1
10
604.750604581383
20
-40.000000000114
30
0
41
1
10
604.765144660062
20
-39.9997870505318
30
0
41
1
10
604.799824685628
20
-39.9870615294776
30
0
41
1
10
604.852634069684
20
-39.9223293817104
30
0
41
1
10
604.906871019109
20
-39.790947752427
30
0
41
1
10
604.953311970117
20
-39.5998431748936
30
0
41
1
10
604.989414379307
20
-39.3405703523821
30
0
41
1
10
604.998704971331
20
-39.121753533281
30
0
41
1
10
605
20
-38.9953125
30
0
0
SPLINE
5
12A
100
AcDbEntity
8
1
62
256
6
ByLayer
370
18
48
1
60
0
100
AcDbSpline
70
4
71
3
72
14
73
10
40
0
40
0
40
0
40
0
40
0.0052607827145721
40
0.0634205206653772
40
0.247821498500698
40
0.433153535371339
40
0.621495522837475
40
0.810973920412137
40
1
40
1
40
1
40
1
41
1
10
604.75
20
40
30
0
41
1
10
604.751855208578
20
40.0000000003745
30
0
41
1
10
604.774217608348
20
39.9998360662235
30
0
41
1
10
604.861586351482
20
39.9914750647149
30
0
41
1
10
605.010741491448
20
39.9260238389021
30
0
41
1
10
605.191901759539
20
39.7393322189577
30
0
41
1
10
605.348264536273
20
39.4479404074675
30
0
41
1
10
605.46694942306
20
39.050114546912
30
0
41
1
10
605.495993693201
20
38.7160404204111
30
0
41
1
10
605.5
20
38.5320121951224
30
0
0
SPLINE
5
12B
100
AcDbEntity
8
1
62
256
6
ByLayer
370
18
48
1
60
0
100
AcDbSpline
70
4
71
3
72
14
73
10
40
0
40
0
40
0
40
0
40
0.189025950383533
40
0.373246907855007
40
0.558582950941575
40
0.747077503177946
40
0.936579522684244
40
0.994739220881312
40
1
40
1
40
1
40
1
41
1
10
605.5
20
-38.532012195122
30
0
41
1
10
605.496034908089
20
-38.716038712257
30
0
41
1
10
605.467363599321
20
-39.0454748192792
30
0
41
1
10
605.351331871636
20
-39.4389045053879
30
0
41
1
10
605.197605213414
20
-39.7313438257184
30
0
41
1
10
605.015387745031
20
-39.9234926732224
30
0
41
1
10
604.863384462586
20
-39.9913030760391
30
0
41
1
10
604.774217611544
20
-39.9998360649659
30
0
41
1
10
604.751855208579
20
-40.0000000003746
30
0
41
1
10
604.75
20
-40
30
0
0
SPLINE
5
12C
100
AcDbEntity
8
1
62
256
6
ByLayer
370
18
48
1
60
0
100
AcDbSpline
70
4
71
3
72
12
73
8
40
0
40
0
40
0
40
0
40
0.0814684080198291
40
0.282954387161829
40
0.496494800032724
40
0.831758491133038
40
1
40
1
40
1
40
1
41
1
10
607.555
20
-39.77
30
0
41
1
10
607.555015582329
20
-39.7699841495472
30
0
41
1
10
607.556077393944
20
-39.7689115960186
30
0
41
1
10
607.564760637255
20
-39.7601387505968
30
0
41
1
10
607.589381414209
20
-39.7352841727275
30
0
41
1
10
607.622628100026
20
-39.7017721569451
30
0
41
1
10
607.648254823464
20
-39.6759963201806
30
0
41
1
10
607.657250000005
20
-39.6669526077322
30
0
0
SPLINE
5
12D
100
AcDbEntity
8
1
62
256
6
ByLayer
370
18
48
1
60
0
100
AcDbSpline
70
4
71
2
72
6
73
3
40
0
40
0
40
0
40
1
40
1
40
1
41
1
10
607.65725
20
-27.5108818292089
30
0
41
1
10
608.083894802745
20
-25.8059612581617
30
0
41
1
10
608.325
20
-24.0532515062547
30
0
0
SPLINE
5
12E
100
AcDbEntity
8
1
62
256
6
ByLayer
370
18
48
1
60
0
100
AcDbSpline
70
4
71
3
72
14
73
10
40
0
40
0
40
0
40
0
40
0.108418701022181
40
0.180167597011129
40
0.252422528712273
40
0.317844072553498
40
0.418649479187961
40
0.607004012534527
40
1
40
1
40
1
40
1
41
1
10
607.657250000027
20
-28.3165319633417
30
0
41
1
10
607.64997141586
20
-28.3252661533819
30
0
41
1
10
607.637423488915
20
-28.3367232035545
30
0
41
1
10
607.6181585045
20
-28.3474656485804
30
0
41
1
10
607.602527381033
20
-28.3486467044095
30
0
41
1
10
607.587727804689
20
-28.3412071876311
30
0
41
1
10
607.572043538821
20
-28.3193318484152
30
0
41
1
10
607.557258581185
20
-28.2613586317057
30
0
41
1
10
607.552549383968
20
-28.2080249944438
30
0
41
1
10
607.555038128083
20
-28.1675712688107
30
0
0
SPLINE
5
12F
100
AcDbEntity
8
1
62
256
6
ByLayer
370
18
48
1
60
0
100
AcDbSpline
70
4
71
1
72
4
73
2
40
0
40
0
40
1
40
1
41
1
10
608.325
20
-27.5457307174572
30
0
41
1
10
607.65725
20
-28.3165319633644
30
0
0
SPLINE
5
130
100
AcDbEntity
8
1
62
256
6
ByLayer
370
18
48
1
60
0
100
AcDbSpline
70
4
71
1
72
4
73
2
40
0
40
0
40
1
40
1
41
1
10
607.65725
20
-30.4256727570724
30
0
41
1
10
608.325
20
-28.3586321419794
30
0
0
SPLINE
5
131
100
AcDbEntity
8
1
62
256
6
ByLayer
370
18
48
1
60
0
100
AcDbSpline
70
4
71
3
72
14
73
10
40
0
40
0
40
0
40
0
40
0.078382987138474
40
0.215707446420742
40
0.317812290822779
40
0.419869148103338
40
0.563517127420414
40
0.809794822448939
40
1
40
1
40
1
40
1
41
1
10
607.65725000001
20
-30.9719368077072
30
0
41
1
10
607.652444151996
20
-30.9765324929058
30
0
41
1
10
607.639151691486
20
-30.9877108997616
30
0
41
1
10
607.618336548231
20
-31.0001173756791
30
0
41
1
10
607.597444554273
20
-31.0028007933593
30
0
41
1
10
607.580149715048
20
-30.9953555751339
30
0
41
1
10
607.563926018898
20
-30.9720067645132
30
0
41
1
10
607.556259895161
20
-30.9328510655048
30
0
41
1
10
607.554587480467
20
-30.901180037617
30
0
41
1
10
607.555017244399
20
-30.8864398912317
30
0
0
SPLINE
5
132
100
AcDbEntity
8
1
62
256
6
ByLayer
370
18
48
1
60
0
100
AcDbSpline
70
4
71
1
72
4
73
2
40
0
40
0
40
1
40
1
41
1
10
608.325
20
-30.3440885798799
30
0
41
1
10
607.65725
20
-30.9719368077128
30
0
0
SPLINE
5
133
100
AcDbEntity
8
1
62
256
6
ByLayer
370
18
48
1
60
0
100
AcDbSpline
70
4
71
1
72
4
73
2
40
0
40
0
40
1
40
1
41
1
10
607.65725
20
-32.5090350955932
30
0
41
1
10
608.325
20
-30.899752969536
30
0
0
SPLINE
5
134
100
AcDbEntity
8
1
62
256
6
ByLayer
370
18
48
1
60
0
100
AcDbSpline
70
4
71
3
72
13
73
9
40
0
40
0
40
0
40
0
40
0.110242213151871
40
0.282557275529358
40
0.412606166268898
40
0.542428032765956
40
0.733732087688869
40
1
40
1
40
1
40
1
41
1
10
607.657250000004
20
-32.9267973886488
30
0
41
1
10
607.650803050241
20
-32.9324740321066
30
0
41
1
10
607.634460670417
20
-32.9449728016786
30
0
41
1
10
607.609769049183
20
-32.9576961890999
30
0
41
1
10
607.587437063048
20
-32.9584727781845
30
0
41
1
10
607.569985716961
20
-32.9480918057826
30
0
41
1
10
607.557500913942
20
-32.9211431497262
30
0
41
1
10
607.554230160885
20
-32.8950860188413
30
0
41
1
10
607.555002425298
20
-32.8772250208737
30
0
0
SPLINE
5
135
100
AcDbEntity
8
1
62
256
6
ByLayer
370
18
48
1
60
0
100
AcDbSpline
70
4
71
1
72
4
73
2
40
0
40
0
40
1
40
1
41
1
10
608.325
20
-32.3516106251948
30
0
41
1
10
607.65725
20
-32.9267973886505
30
0
0
SPLINE
5
136
100
AcDbEntity
8
1
62
256
6
ByLayer
370
18
48
1
60
0
100
AcDbSpline
70
4
71
1
72
4
73
2
40
0
40
0
40
1
40
1
41
1
10
607.65725
20
-34.1335510614992
30
0
41
1
10
608.325
20
-32.7766387719495
30
0
0
SPLINE
5
137
100
AcDbEntity
8
1
62
256
6
ByLayer
370
18
48
1
60
0
100
AcDbSpline
70
4
71
3
72
13
73
9
40
0
40
0
40
0
40
0
40
0.138853390640003
40
0.341511995921568
40
0.518494759973336
40
0.669260172088958
40
0.905494557461835
40
1
40
1
40
1
40
1
41
1
10
607.657250000002
20
-34.4679225924795
30
0
41
1
10
607.64930360173
20
-34.4746550714136
30
0
41
1
10
607.63025527438
20
-34.4886415791471
30
0
41
1
10
607.60109405941
20
-34.502844162702
30
0
41
1
10
607.577380561363
20
-34.5015211440535
30
0
41
1
10
607.561214372378
20
-34.4866340293344
30
0
41
1
10
607.55569115143
20
-34.4645423845891
30
0
41
1
10
607.554915850398
20
-34.4472215794256
30
0
41
1
10
607.555003412463
20
-34.4419827618974
30
0
0
SPLINE
5
138
100
AcDbEntity
8
1
62
256
6
ByLayer
370
18
48
1
60
0
100
AcDbSpline
70
4
71
1
72
4
73
2
40
0
40
0
40
1
40
1
41
1
10
608.325
20
-33.9148985452446
30
0
41
1
10
607.65725
20
-34.4679225924802
30
0
0
SPLINE
5
139
100
AcDbEntity
8
1
62
256
6
ByLayer
370
18
48
1
60
0
100
AcDbSpline
70
4
71
1
72
4
73
2
40
0
40
0
40
1
40
1
41
1
10
607.65725
20
-35.4446939818575
30
0
41
1
10
608.325
20
-34.2541356041276
30
0
0
SPLINE
5
13A
100
AcDbEntity
8
1
62
256
6
ByLayer
370
18
48
1
60
0
100
AcDbSpline
70
4
71
3
72
13
73
9
40
0
40
0
40
0
40
0
40
0.166242911182732
40
0.360375890724897
40
0.555799720089246
40
0.724316208407299
40
0.963610848020911
40
1
40
1
40
1
40
1
41
1
10
607.657250000001
20
-35.7174895437142
30
0
41
1
10
607.647934269861
20
-35.7252528119712
30
0
41
1
10
607.628418910791
20
-35.739446680958
30
0
41
1
10
607.598923790555
20
-35.7545791493184
30
0
41
1
10
607.575130693617
20
-35.756077901086
30
0
41
1
10
607.559249471884
20
-35.7435020486445
30
0
41
1
10
607.555257148099
20
-35.7256644826508
30
0
41
1
10
607.554989085092
20
-35.712940665717
30
0
41
1
10
607.555000472764
20
-35.7112166191105
30
0
0
SPLINE
5
13B
100
AcDbEntity
8
1
62
256
6
ByLayer
370
18
48
1
60
0
100
AcDbSpline
70
4
71
1
72
4
73
2
40
0
40
0
40
1
40
1
41
1
10
608.325
20
-35.1718989586826
30
0
41
1
10
607.65725
20
-35.7174895437145
30
0
0
SPLINE
5
13C
100
AcDbEntity
8
1
62
256
6
ByLayer
370
18
48
1
60
0
100
AcDbSpline
70
4
71
1
72
4
73
2
40
0
40
0
40
1
40
1
41
1
10
607.65725
20
-36.5172600263618
30
0
41
1
10
608.325
20
-35.4472737184539
30
0
0
SPLINE
5
13D
100
AcDbEntity
8
1
62
256
6
ByLayer
370
18
48
1
60
0
100
AcDbSpline
70
4
71
3
72
12
73
8
40
0
40
0
40
0
40
0
40
0.191366235578204
40
0.400705424394501
40
0.611426159911646
40
0.793354321085239
40
1
40
1
40
1
40
1
41
1
10
607.65725
20
-36.7409130865538
30
0
41
1
10
607.646627503721
20
-36.7497667997621
30
0
41
1
10
607.625380799525
20
-36.7653795144078
30
0
41
1
10
607.594288505919
20
-36.7819777186297
30
0
41
1
10
607.570624438789
20
-36.7844723098295
30
0
41
1
10
607.557467676365
20
-36.772957705561
30
0
41
1
10
607.554735111693
20
-36.7597810462401
30
0
41
1
10
607.555000725937
20
-36.7508635079355
30
0
0
SPLINE
5
13E
100
AcDbEntity
8
1
62
256
6
ByLayer
370
18
48
1
60
0
100
AcDbSpline
70
4
71
1
72
4
73
2
40
0
40
0
40
1
40
1
41
1
10
608.325
20
-36.1940925803361
30
0
41
1
10
607.65725
20
-36.740913086554
30
0
0
SPLINE
5
13F
100
AcDbEntity
8
1
62
256
6
ByLayer
370
18
48
1
60
0
100
AcDbSpline
70
4
71
1
72
4
73
2
40
0
40
0
40
1
40
1
41
1
10
607.65725
20
-37.3954357623967
30
0
41
1
10
608.325
20
-36.4181652094505
30
0
0
SPLINE
5
140
100
AcDbEntity
8
1
62
256
6
ByLayer
370
18
48
1
60
0
100
AcDbSpline
70
4
71
3
72
12
73
8
40
0
40
0
40
0
40
0
40
0.215086515550262
40
0.43743863671447
40
0.661293538621181
40
0.853843971396781
40
1
40
1
40
1
40
1
41
1
10
607.65725
20
-37.57773774939
30
0
41
1
10
607.645373678305
20
-37.5877389163179
30
0
41
1
10
607.622562049811
20
-37.6048994976594
30
0
41
1
10
607.590147318654
20
-37.6233332368948
30
0
41
1
10
607.566888680885
20
-37.6271121694883
30
0
41
1
10
607.556591726899
20
-37.6176023962012
30
0
41
1
10
607.554873954984
20
-37.607528238927
30
0
41
1
10
607.55500147232
20
-37.6022405721771
30
0
0
SPLINE
5
141
100
AcDbEntity
8
1
62
256
6
ByLayer
370
18
48
1
60
0
100
AcDbSpline
70
4
71
1
72
4
73
2
40
0
40
0
40
1
40
1
41
1
10
608.325
20
-37.0238289168013
30
0
41
1
10
607.65725
20
-37.5777377493901
30
0
0
SPLINE
5
142
100
AcDbEntity
8
1
62
256
6
ByLayer
370
18
48
1
60
0
100
AcDbSpline
70
4
71
1
72
4
73
2
40
0
40
0
40
1
40
1
41
1
10
607.65725
20
-38.1075258373112
30
0
41
1
10
608.325
20
-37.204477102103
30
0
0
SPLINE
5
143
100
AcDbEntity
8
1
62
256
6
ByLayer
370
18
48
1
60
0
100
AcDbSpline
70
4
71
3
72
12
73
8
40
0
40
0
40
0
40
0
40
0.238383637776326
40
0.472578322840626
40
0.708422830413693
40
0.909970655360732
40
1
40
1
40
1
40
1
41
1
10
607.65725
20
-38.2536450551967
30
0
41
1
10
607.644154353144
20
-38.264869634683
30
0
41
1
10
607.619908768226
20
-38.2837252912934
30
0
41
1
10
607.586411318166
20
-38.3043177379196
30
0
41
1
10
607.563744385307
20
-38.3097189328798
30
0
41
1
10
607.555900889281
20
-38.3020816888985
30
0
41
1
10
607.554957692868
20
-38.2945959471498
30
0
41
1
10
607.555000724703
20
-38.2919300405605
30
0
0
SPLINE
5
144
100
AcDbEntity
8
1
62
256
6
ByLayer
370
18
48
1
60
0
100
AcDbSpline
70
4
71
1
72
4
73
2
40
0
40
0
40
1
40
1
41
1
10
608.325
20
-37.6882126704918
30
0
41
1
10
607.65725
20
-38.2536450551968
30
0
0
SPLINE
5
145
100
AcDbEntity
8
1
62
256
6
ByLayer
370
18
48
1
60
0
100
AcDbSpline
70
4
71
1
72
4
73
2
40
0
40
0
40
1
40
1
41
1
10
607.65725
20
-38.6725412982302
30
0
41
1
10
608.325
20
-37.8306454136905
30
0
0
SPLINE
5
146
100
AcDbEntity
8
1
62
256
6
ByLayer
370
18
48
1
60
0
100
AcDbSpline
70
4
71
3
72
12
73
8
40
0
40
0
40
0
40
0
40
0.261192139426367
40
0.505956728872237
40
0.752535483089987
40
0.961563574782016
40
1
40
1
40
1
40
1
41
1
10
607.65725
20
-38.786012115824
30
0
41
1
10
607.64295433266
20
-38.798555389981
30
0
41
1
10
607.617380061952
20
-38.8192714267596
30
0
41
1
10
607.583004380813
20
-38.8423427456429
30
0
41
1
10
607.561085004117
20
-38.8496710722452
30
0
41
1
10
607.555355221632
20
-38.8437531907419
30
0
41
1
10
607.554994103838
20
-38.8383826837501
30
0
41
1
10
607.555000075114
20
-38.8374837408245
30
0
0
SPLINE
5
147
100
AcDbEntity
8
1
62
256
6
ByLayer
370
18
48
1
60
0
100
AcDbSpline
70
4
71
1
72
4
73
2
40
0
40
0
40
1
40
1
41
1
10
608.325
20
-38.2053559142514
30
0
41
1
10
607.65725
20
-38.7860121158241
30
0
0
SPLINE
5
148
100
AcDbEntity
8
1
62
256
6
ByLayer
370
18
48
1
60
0
100
AcDbSpline
70
4
71
1
72
4
73
2
40
0
40
0
40
1
40
1
41
1
10
607.65725
20
-39.1035364558329
30
0
41
1
10
608.325
20
-38.3131045806204
30
0
0
SPLINE
5
149
100
AcDbEntity
8
1
62
256
6
ByLayer
370
18
48
1
60
0
100
AcDbSpline
70
4
71
3
72
12
73
8
40
0
40
0
40
0
40
0
40
0.282977018566851
40
0.53655399936424
40
0.750837094272316
40
0.965613435476458
40
1
40
1
40
1
40
1
41
1
10
607.65725
20
-39.1867908893245
30
0
41
1
10
607.641760186522
20
-39.2007697381244
30
0
41
1
10
607.614943225208
20
-39.2235385350738
30
0
41
1
10
607.581692039333
20
-39.248055497566
30
0
41
1
10
607.561024500697
20
-39.2581756177889
30
0
41
1
10
607.555340370391
20
-39.2556494640045
30
0
41
1
10
607.554996731975
20
-39.2516310044636
30
0
41
1
10
607.555000030128
20
-39.2510233429179
30
0
0
SPLINE
5
14A
100
AcDbEntity
8
1
62
256
6
ByLayer
370
18
48
1
60
0
100
AcDbSpline
70
4
71
1
72
4
73
2
40
0
40
0
40
1
40
1
41
1
10
608.325
20
-38.587552298584
30
0
41
1
10
607.65725
20
-39.1867908893245
30
0
0
SPLINE
5
14B
100
AcDbEntity
8
1
62
256
6
ByLayer
370
18
48
1
60
0
100
AcDbSpline
70
4
71
1
72
4
73
2
40
0
40
0
40
1
40
1
41
1
10
607.65725
20
-39.4094413032565
30
0
41
1
10
608.325
20
-38.6630030512968
30
0
0
SPLINE
5
14C
100
AcDbEntity
8
1
62
256
6
ByLayer
370
18
48
1
60
0
100
AcDbSpline
70
4
71
3
72
11
73
7
40
0
40
0
40
0
40
0
40
0.304632312554396
40
0.566084194491919
40
0.78488009866817
40
1
40
1
40
1
40
1
41
1
10
607.65725
20
-39.4641115400998
30
0
41
1
10
607.64055915088
20
-39.4796684885192
30
0
41
1
10
607.612558144472
20
-39.5047063539097
30
0
41
1
10
607.578899199237
20
-39.5321569777169
30
0
41
1
10
607.559153228532
20
-39.5445727998412
30
0
41
1
10
607.555154530637
20
-39.5435466217527
30
0
41
1
10
607.555000003065
20
-39.5410513391963
30
0
0
SPLINE
5
14D
100
AcDbEntity
8
1
62
256
6
ByLayer
370
18
48
1
60
0
100
AcDbSpline
70
4
71
1
72
4
73
2
40
0
40
0
40
1
40
1
41
1
10
608.325
20
-38.8430150703283
30
0
41
1
10
607.65725
20
-39.4641115400998
30
0
0
SPLINE
5
14E
100
AcDbEntity
8
1
62
256
6
ByLayer
370
18
48
1
60
0
100
AcDbSpline
70
4
71
1
72
4
73
2
40
0
40
0
40
1
40
1
41
1
10
607.65725
20
-39.5961148774388
30
0
41
1
10
608.325
20
-38.8877094006841
30
0
0
SPLINE
5
14F
100
AcDbEntity
8
1
62
256
6
ByLayer
370
18
48
1
60
0
100
AcDbSpline
70
4
71
3
72
11
73
7
40
0
40
0
40
0
40
0
40
0.372996890536442
40
0.628682077128685
40
0.886371579237561
40
1
40
1
40
1
40
1
41
1
10
607.65725
20
-39.6232090000648
30
0
41
1
10
607.636507587212
20
-39.6432655346522
30
0
41
1
10
607.606116904081
20
-39.6719382822497
30
0
41
1
10
607.57095169087
20
-39.7034254966986
30
0
41
1
10
607.556864851728
20
-39.7140265710948
30
0
41
1
10
607.555025968661
20
-39.7136706022193
30
0
41
1
10
607.555000044758
20
-39.7130031276509
30
0
0
SPLINE
5
150
100
AcDbEntity
8
1
62
256
6
ByLayer
370
18
48
1
60
0
100
AcDbSpline
70
4
71
1
72
4
73
2
40
0
40
0
40
1
40
1
41
1
10
608.325
20
-38.9768631082337
30
0
41
1
10
607.65725
20
-39.6232090000648
30
0
0
SPLINE
5
151
100
AcDbEntity
8
1
62
256
6
ByLayer
370
18
48
1
60
0
100
AcDbSpline
70
4
71
1
72
4
73
2
40
0
40
0
40
1
40
1
41
1
10
607.65725
20
-39.6669526077377
30
0
41
1
10
608.325
20
-38.991667907708
30
0
0
SPLINE
5
152
100
AcDbEntity
8
1
62
256
6
ByLayer
370
18
48
1
60
0
100
AcDbSpline
70
4
71
2
72
6
73
3
40
0
40
0
40
0
40
1
40
1
40
1
41
1
10
607.65725
20
-7.49096490440674
30
0
41
1
10
607.56449452426
20
-7.29236373095749
30
0
41
1
10
607.555002402522
20
-7.1227694834114
30
0
0
SPLINE
5
153
100
AcDbEntity
8
1
62
256
6
ByLayer
370
18
48
1
60
0
100
AcDbSpline
70
4
71
1
72
4
73
2
40
0
40
0
40
1
40
1
41
1
10
608.325
20
-9.10024703046404
30
0
41
1
10
607.65725
20
-7.49096490440675
30
0
0
SPLINE
5
154
100
AcDbEntity
8
1
62
256
6
ByLayer
370
18
48
1
60
0
100
AcDbSpline
70
4
71
1
72
4
73
2
40
0
40
0
40
1
40
1
41
1
10
607.65725
20
-9.02806319228725
30
0
41
1
10
608.325
20
-9.65591142012013
30
0
0
SPLINE
5
155
100
AcDbEntity
8
1
62
256
6
ByLayer
370
18
48
1
60
0
100
AcDbSpline
70
4
71
2
72
6
73
3
40
0
40
0
40
0
40
1
40
1
40
1
41
1
10
607.65725
20
-9.57432724292758
30
0
41
1
10
607.564248120374
20
-9.3312052252334
30
0
41
1
10
607.555011360507
20
-9.11279128502383
30
0
0
SPLINE
5
156
100
AcDbEntity
8
1
62
256
6
ByLayer
370
18
48
1
60
0
100
AcDbSpline
70
4
71
1
72
4
73
2
40
0
40
0
40
1
40
1
41
1
10
608.325
20
-11.6413678580205
30
0
41
1
10
607.65725
20
-9.57432724292759
30
0
0
SPLINE
5
157
100
AcDbEntity
8
1
62
256
6
ByLayer
370
18
48
1
60
0
100
AcDbSpline
70
4
71
1
72
4
73
2
40
0
40
0
40
1
40
1
41
1
10
607.65725
20
-11.6834680366272
30
0
41
1
10
608.325
20
-12.4542692825428
30
0
0
SPLINE
5
158
100
AcDbEntity
8
1
62
256
6
ByLayer
370
18
48
1
60
0
100
AcDbSpline
70
4
71
3
72
10
73
6
40
0
40
0
40
0
40
0
40
0.532327471744193
40
0.833599534488218
40
1
40
1
40
1
40
1
41
1
10
607.65725
20
-12.4891181707911
30
0
41
1
10
607.627311546927
20
-12.3705241093763
30
0
41
1
10
607.591106560034
20
-12.1867674435768
30
0
41
1
10
607.558371562559
20
-11.9660765132828
30
0
41
1
10
607.55512048653
20
-11.8666810065205
30
0
41
1
10
607.55503138987
20
-11.8316060267775
30
0
0
SPLINE
5
159
100
AcDbEntity
8
1
62
256
6
ByLayer
370
18
48
1
60
0
100
AcDbSpline
70
4
71
2
72
6
73
3
40
0
40
0
40
0
40
1
40
1
40
1
41
1
10
608.325
20
-15.9467484937453
30
0
41
1
10
608.083904837031
20
-14.1940495235237
30
0
41
1
10
607.65725
20
-12.4891181707911
30
0
0
SPLINE
5
15A
100
AcDbEntity
8
1
62
256
6
ByLayer
370
18
48
1
60
0
100
AcDbSpline
70
4
71
2
72
6
73
3
40
0
40
0
40
0
40
1
40
1
40
1
41
1
10
607.65725
20
-16.3331197888554
30
0
41
1
10
608.10370184491
20
-17.3486368297957
30
0
41
1
10
608.325
20
-18.4585929893916
30
0
0
SPLINE
5
15B
100
AcDbEntity
8
1
62
256
6
ByLayer
370
18
48
1
60
0
100
AcDbSpline
70
4
71
3
72
18
73
14
40
0
40
0
40
0
40
0
40
0.0092762998849774
40
0.0685629894867888
40
0.0951304196349205
40
0.117592414024203
40
0.13354035273423
40
0.149529937929094
40
0.169950422027843
40
0.205700982073004
40
0.318776697936075
40
0.839906372191677
40
1
40
1
40
1
40
1
41
1
10
607.657249999995
20
-23.6668802111564
30
0
41
1
10
607.656530488485
20
-23.6685631789347
30
0
41
1
10
607.651090051694
20
-23.6808852222424
30
0
41
1
10
607.642732472879
20
-23.6976015414617
30
0
41
1
10
607.630691624417
20
-23.713569544821
30
0
41
1
10
607.622113310392
20
-23.7207104323244
30
0
41
1
10
607.614212181307
20
-23.7231127764667
30
0
41
1
10
607.606874679365
20
-23.7215233840356
30
0
41
1
10
607.598465296463
20
-23.7143767022243
30
0
41
1
10
607.584596086649
20
-23.688883314597
30
0
41
1
10
607.558360975622
20
-23.5639060542454
30
0
41
1
10
607.556219231416
20
-23.4050532787709
30
0
41
1
10
607.554724613401
20
-23.2697515585734
30
0
41
1
10
607.555022756186
20
-23.2377482372663
30
0
0
SPLINE
5
15C
100
AcDbEntity
8
1
62
256
6
ByLayer
370
18
48
1
60
0
100
AcDbSpline
70
4
71
2
72
6
73
3
40
0
40
0
40
0
40
1
40
1
40
1
41
1
10
608.325
20
-21.5414070106084
30
0
41
1
10
608.103860243446
20
-22.6512945594242
30
0
41
1
10
607.65725
20
-23.6668802111593
30
0
0
SPLINE
5
15D
100
AcDbEntity
8
1
62
256
6
ByLayer
370
18
48
1
60
0
100
AcDbSpline
70
4
71
2
72
6
73
3
40
0
40
0
40
0
40
1
40
1
40
1
41
1
10
607.65725
20
12.4891181707911
30
0
41
1
10
608.083894802745
20
14.1940387418383
30
0
41
1
10
608.325
20
15.9467484937453
30
0
0
SPLINE
5
15E
100
AcDbEntity
8
1
62
256
6
ByLayer
370
18
48
1
60
0
100
AcDbSpline
70
4
71
3
72
14
73
10
40
0
40
0
40
0
40
0
40
0.108418701022179
40
0.180167597011121
40
0.252422528712259
40
0.317844072553486
40
0.418649479187952
40
0.607004012534529
40
1
40
1
40
1
40
1
41
1
10
607.657250000027
20
11.6834680366583
30
0
41
1
10
607.64997141586
20
11.6747338466181
30
0
41
1
10
607.637423488915
20
11.6632767964455
30
0
41
1
10
607.6181585045
20
11.6525343514196
30
0
41
1
10
607.602527381033
20
11.6513532955905
30
0
41
1
10
607.587727804689
20
11.6587928123689
30
0
41
1
10
607.57204353882
20
11.6806681515848
30
0
41
1
10
607.557258581185
20
11.7386413682943
30
0
41
1
10
607.552549383968
20
11.7919750055563
30
0
41
1
10
607.555038128083
20
11.8324287311893
30
0
0
SPLINE
5
15F
100
AcDbEntity
8
1
62
256
6
ByLayer
370
18
48
1
60
0
100
AcDbSpline
70
4
71
1
72
4
73
2
40
0
40
0
40
1
40
1
41
1
10
608.325
20
12.4542692825428
30
0
41
1
10
607.65725
20
11.6834680366356
30
0
0
SPLINE
5
160
100
AcDbEntity
8
1
62
256
6
ByLayer
370
18
48
1
60
0
100
AcDbSpline
70
4
71
1
72
4
73
2
40
0
40
0
40
1
40
1
41
1
10
607.65725
20
9.57432724292759
30
0
41
1
10
608.325
20
11.6413678580205
30
0
0
SPLINE
5
161
100
AcDbEntity
8
1
62
256
6
ByLayer
370
18
48
1
60
0
100
AcDbSpline
70
4
71
3
72
14
73
10
40
0
40
0
40
0
40
0
40
0.078382987138491
40
0.215707446420776
40
0.317812290822819
40
0.419869148103389
40
0.563517127420476
40
0.809794822449027
40
1
40
1
40
1
40
1
41
1
10
607.65725000001
20
9.02806319229278
30
0
41
1
10
607.652444151996
20
9.02346750709418
30
0
41
1
10
607.639151691486
20
9.01228910023843
30
0
41
1
10
607.618336548231
20
8.99988262432095
30
0
41
1
10
607.597444554273
20
8.99719920664071
30
0
41
1
10
607.580149715047
20
9.00464442486614
30
0
41
1
10
607.563926018899
20
9.02799323548685
30
0
41
1
10
607.556259895161
20
9.06714893449515
30
0
41
1
10
607.554587480467
20
9.09881996238301
30
0
41
1
10
607.555017244399
20
9.1135601087683
30
0
0
SPLINE
5
162
100
AcDbEntity
8
1
62
256
6
ByLayer
370
18
48
1
60
0
100
AcDbSpline
70
4
71
1
72
4
73
2
40
0
40
0
40
1
40
1
41
1
10
608.325
20
9.65591142012013
30
0
41
1
10
607.65725
20
9.02806319228725
30
0
0
SPLINE
5
163
100
AcDbEntity
8
1
62
256
6
ByLayer
370
18
48
1
60
0
100
AcDbSpline
70
4
71
1
72
4
73
2
40
0
40
0
40
1
40
1
41
1
10
607.65725
20
7.49096490440675
30
0
41
1
10
608.325
20
9.10024703046404
30
0
0
SPLINE
5
164
100
AcDbEntity
8
1
62
256
6
ByLayer
370
18
48
1
60
0
100
AcDbSpline
70
4
71
3
72
10
73
6
40
0
40
0
40
0
40
0
40
0.0486430810205403
40
0.446391302748169
40
1
40
1
40
1
40
1
41
1
10
607.575581557728
20
7.04956167719898
30
0
41
1
10
607.574788164584
20
7.05024052504531
30
0
41
1
10
607.56772434085
20
7.05672272622734
30
0
41
1
10
607.557500487992
20
7.07890047533827
30
0
41
1
10
607.554230160885
20
7.1049139811587
30
0
41
1
10
607.555002425298
20
7.12277497912625
30
0
0
SPLINE
5
165
100
AcDbEntity
8
1
62
256
6
ByLayer
370
18
48
1
60
0
100
AcDbSpline
70
4
71
3
72
11
73
7
40
0
40
0
40
0
40
0
40
0.363787721949904
40
0.633109824668488
40
0.856330372739837
40
1
40
1
40
1
40
1
41
1
10
607.65725
20
39.6669526077377
30
0
41
1
10
607.637106503078
20
39.6872119969315
30
0
41
1
10
607.606499723285
20
39.7180158423595
30
0
41
1
10
607.572549591026
20
39.7522724919801
30
0
41
1
10
607.557491476118
20
39.767482940721
30
0
41
1
10
607.555088777225
20
39.7699097409186
30
0
41
1
10
607.555
20
39.77
30
0
0
SPLINE
5
166
100
AcDbEntity
8
1
62
256
6
ByLayer
370
18
48
1
60
0
100
AcDbSpline
70
4
71
1
72
4
73
2
40
0
40
0
40
1
40
1
41
1
10
608.325
20
38.991667907708
30
0
41
1
10
607.65725
20
39.6669526077377
30
0
0
SPLINE
5
167
100
AcDbEntity
8
1
62
256
6
ByLayer
370
18
48
1
60
0
100
AcDbSpline
70
4
71
1
72
4
73
2
40
0
40
0
40
1
40
1
41
1
10
607.65725
20
39.6232090000648
30
0
41
1
10
608.325
20
38.9768631082337
30
0
0
SPLINE
5
168
100
AcDbEntity
8
1
62
256
6
ByLayer
370
18
48
1
60
0
100
AcDbSpline
70
4
71
3
72
11
73
7
40
0
40
0
40
0
40
0
40
0.353544895004719
40
0.637649992213694
40
0.866481616419205
40
1
40
1
40
1
40
1
41
1
10
607.65725
20
39.5961148774388
30
0
41
1
10
607.637736231931
20
39.6166212011108
30
0
41
1
10
607.606877005414
20
39.649762420808
30
0
41
1
10
607.572532958045
20
39.6884341492299
30
0
41
1
10
607.557376965567
20
39.7075135390098
30
0
41
1
10
607.555102572038
20
39.7120495720826
30
0
41
1
10
607.555000029089
20
39.7130051391009
30
0
0
SPLINE
5
169
100
AcDbEntity
8
1
62
256
6
ByLayer
370
18
48
1
60
0
100
AcDbSpline
70
4
71
1
72
4
73
2
40
0
40
0
40
1
40
1
41
1
10
608.325
20
38.8877094006841
30
0
41
1
10
607.65725
20
39.5961148774388
30
0
0
SPLINE
5
16A
100
AcDbEntity
8
1
62
256
6
ByLayer
370
18
48
1
60
0
100
AcDbSpline
70
4
71
1
72
4
73
2
40
0
40
0
40
1
40
1
41
1
10
607.65725
20
39.4641115400998
30
0
41
1
10
608.325
20
38.8430150703283
30
0
0
SPLINE
5
16B
100
AcDbEntity
8
1
62
256
6
ByLayer
370
18
48
1
60
0
100
AcDbSpline
70
4
71
3
72
11
73
7
40
0
40
0
40
0
40
0
40
0.342011787836882
40
0.642198228721813
40
0.87672535104749
40
1
40
1
40
1
40
1
41
1
10
607.65725
20
39.4094413032565
30
0
41
1
10
607.638405962704
20
39.4302315216882
30
0
41
1
10
607.607246454178
20
39.4659783235363
30
0
41
1
10
607.572478698652
20
39.5093812544871
30
0
41
1
10
607.557238712117
20
39.5326216917595
30
0
41
1
10
607.555107377871
20
39.5393112426375
30
0
41
1
10
607.555000074588
20
39.5410298872621
30
0
0
SPLINE
5
16C
100
AcDbEntity
8
1
62
256
6
ByLayer
370
18
48
1
60
0
100
AcDbSpline
70
4
71
1
72
4
73
2
40
0
40
0
40
1
40
1
41
1
10
608.325
20
38.6630030512968
30
0
41
1
10
607.65725
20
39.4094413032565
30
0
0
SPLINE
5
16D
100
AcDbEntity
8
1
62
256
6
ByLayer
370
18
48
1
60
0
100
AcDbSpline
70
4
71
1
72
4
73
2
40
0
40
0
40
1
40
1
41
1
10
607.65725
20
39.1867908893245
30
0
41
1
10
608.325
20
38.587552298584
30
0
0
SPLINE
5
16E
100
AcDbEntity
8
1
62
256
6
ByLayer
370
18
48
1
60
0
100
AcDbSpline
70
4
71
3
72
11
73
7
40
0
40
0
40
0
40
0
40
0.329250067109414
40
0.647313353418191
40
0.887590104473836
40
1
40
1
40
1
40
1
41
1
10
607.65725
20
39.1035364558329
30
0
41
1
10
607.639125826007
20
39.1246406317614
30
0
41
1
10
607.60760557301
20
39.1633405571413
30
0
41
1
10
607.572379703214
20
39.2119075998364
30
0
41
1
10
607.557086797367
20
39.2396890076993
30
0
41
1
10
607.555109283244
20
39.2486011368986
30
0
41
1
10
607.555000241862
20
39.250975551376
30
0
0
SPLINE
5
16F
100
AcDbEntity
8
1
62
256
6
ByLayer
370
18
48
1
60
0
100
AcDbSpline
70
4
71
1
72
4
73
2
40
0
40
0
40
1
40
1
41
1
10
608.325
20
38.3131045806204
30
0
41
1
10
607.65725
20
39.1035364558329
30
0
0
SPLINE
5
170
100
AcDbEntity
8
1
62
256
6
ByLayer
370
18
48
1
60
0
100
AcDbSpline
70
4
71
1
72
4
73
2
40
0
40
0
40
1
40
1
41
1
10
607.65725
20
38.7860121158241
30
0
41
1
10
608.325
20
38.2053559142514
30
0
0
SPLINE
5
171
100
AcDbEntity
8
1
62
256
6
ByLayer
370
18
48
1
60
0
100
AcDbSpline
70
4
71
3
72
11
73
7
40
0
40
0
40
0
40
0
40
0.44183992056
40
0.734050487714992
40
0.96186750083931
40
1
40
1
40
1
40
1
41
1
10
607.65725
20
38.6725412982303
30
0
41
1
10
607.632309326615
20
38.7032457165448
30
0
41
1
10
607.597979001521
20
38.7497389857026
30
0
41
1
10
607.564594625595
20
38.8046483170383
30
0
41
1
10
607.555573313105
20
38.8285226969549
30
0
41
1
10
607.555015021058
20
38.8363594717354
30
0
41
1
10
607.555000312325
20
38.8374254774193
30
0
0
SPLINE
5
172
100
AcDbEntity
8
1
62
256
6
ByLayer
370
18
48
1
60
0
100
AcDbSpline
70
4
71
1
72
4
73
2
40
0
40
0
40
1
40
1
41
1
10
608.325
20
37.8306454136905
30
0
41
1
10
607.65725
20
38.6725412982302
30
0
0
SPLINE
5
173
100
AcDbEntity
8
1
62
256
6
ByLayer
370
18
48
1
60
0
100
AcDbSpline
70
4
71
1
72
4
73
2
40
0
40
0
40
1
40
1
41
1
10
607.65725
20
38.2536450551968
30
0
41
1
10
608.325
20
37.6882126704918
30
0
0
SPLINE
5
174
100
AcDbEntity
8
1
62
256
6
ByLayer
370
18
48
1
60
0
100
AcDbSpline
70
4
71
3
72
11
73
7
40
0
40
0
40
0
40
0
40
0.469351758654487
40
0.761993777863485
40
0.988709287791803
40
1
40
1
40
1
40
1
41
1
10
607.65725
20
38.1075258373112
30
0
41
1
10
607.630514136621
20
38.1426232148382
30
0
41
1
10
607.595252507036
20
38.1949484938443
30
0
41
1
10
607.562509008141
20
38.257086338131
30
0
41
1
10
607.55516056767
20
38.2829901513206
30
0
41
1
10
607.555001680442
20
38.2916794237046
30
0
41
1
10
607.555000066086
20
38.292086575487
30
0
0
SPLINE
5
175
100
AcDbEntity
8
1
62
256
6
ByLayer
370
18
48
1
60
0
100
AcDbSpline
70
4
71
1
72
4
73
2
40
0
40
0
40
1
40
1
41
1
10
608.325
20
37.204477102103
30
0
41
1
10
607.65725
20
38.1075258373112
30
0
0
SPLINE
5
176
100
AcDbEntity
8
1
62
256
6
ByLayer
370
18
48
1
60
0
100
AcDbSpline
70
4
71
1
72
4
73
2
40
0
40
0
40
1
40
1
41
1
10
607.65725
20
37.5777377493901
30
0
41
1
10
608.325
20
37.0238289168013
30
0
0
SPLINE
5
177
100
AcDbEntity
8
1
62
256
6
ByLayer
370
18
48
1
60
0
100
AcDbSpline
70
4
71
3
72
10
73
6
40
0
40
0
40
0
40
0
40
0.500655634822276
40
0.790172015434904
40
1
40
1
40
1
40
1
41
1
10
607.65725
20
37.3954357623967
30
0
41
1
10
607.628459400728
20
37.4360513359831
30
0
41
1
10
607.592593064923
20
37.495054100592
30
0
41
1
10
607.560646526087
20
37.565410693159
30
0
41
1
10
607.555617495467
20
37.5922713314739
30
0
41
1
10
607.555000081396
20
37.602545625745
30
0
0
SPLINE
5
178
100
AcDbEntity
8
1
62
256
6
ByLayer
370
18
48
1
60
0
100
AcDbSpline
70
4
71
1
72
4
73
2
40
0
40
0
40
1
40
1
41
1
10
608.325
20
36.4181652094505
30
0
41
1
10
607.65725
20
37.3954357623967
30
0
0
SPLINE
5
179
100
AcDbEntity
8
1
62
256
6
ByLayer
370
18
48
1
60
0
100
AcDbSpline
70
4
71
1
72
4
73
2
40
0
40
0
40
1
40
1
41
1
10
607.65725
20
36.740913086554
30
0
41
1
10
608.325
20
36.1940925803361
30
0
0
SPLINE
5
17A
100
AcDbEntity
8
1
62
256
6
ByLayer
370
18
48
1
60
0
100
AcDbSpline
70
4
71
3
72
10
73
6
40
0
40
0
40
0
40
0
40
0.538057462057293
40
0.818130138821941
40
1
40
1
40
1
40
1
41
1
10
607.65725
20
36.5172600263618
30
0
41
1
10
607.626027033555
20
36.5650666634061
30
0
41
1
10
607.589523572285
20
36.6324796523194
30
0
41
1
10
607.559690658731
20
36.7107563317592
30
0
41
1
10
607.55549982106
20
36.7400235417015
30
0
41
1
10
607.555000929875
20
36.7508182535806
30
0
0
SPLINE
5
17B
100
AcDbEntity
8
1
62
256
6
ByLayer
370
18
48
1
60
0
100
AcDbSpline
70
4
71
1
72
4
73
2
40
0
40
0
40
1
40
1
41
1
10
608.325
20
35.4472737184539
30
0
41
1
10
607.65725
20
36.5172600263618
30
0
0
SPLINE
5
17C
100
AcDbEntity
8
1
62
256
6
ByLayer
370
18
48
1
60
0
100
AcDbSpline
70
4
71
1
72
4
73
2
40
0
40
0
40
1
40
1
41
1
10
607.65725
20
35.7174895437145
30
0
41
1
10
608.325
20
35.1718989586826
30
0
0
SPLINE
5
17D
100
AcDbEntity
8
1
62
256
6
ByLayer
370
18
48
1
60
0
100
AcDbSpline
70
4
71
3
72
10
73
6
40
0
40
0
40
0
40
0
40
0.547301222737594
40
0.825627972936654
40
1
40
1
40
1
40
1
41
1
10
607.65725
20
35.4446939818576
30
0
41
1
10
607.625542403747
20
35.4982707951335
30
0
41
1
10
607.588937240184
20
35.5744018380708
30
0
41
1
10
607.559737360317
20
35.6632659657322
30
0
41
1
10
607.555569917055
20
35.6975178942071
30
0
41
1
10
607.555008535533
20
35.7101151220354
30
0
0
SPLINE
5
17E
100
AcDbEntity
8
1
62
256
6
ByLayer
370
18
48
1
60
0
100
AcDbSpline
70
4
71
1
72
4
73
2
40
0
40
0
40
1
40
1
41
1
10
608.325
20
34.2541356041277
30
0
41
1
10
607.65725
20
35.4446939818576
30
0
0
SPLINE
5
17F
100
AcDbEntity
8
1
62
256
6
ByLayer
370
18
48
1
60
0
100
AcDbSpline
70
4
71
1
72
4
73
2
40
0
40
0
40
1
40
1
41
1
10
607.65725
20
34.4679225924802
30
0
41
1
10
608.325
20
33.9148985452446
30
0
0
SPLINE
5
180
100
AcDbEntity
8
1
62
256
6
ByLayer
370
18
48
1
60
0
100
AcDbSpline
70
4
71
3
72
10
73
6
40
0
40
0
40
0
40
0
40
0.613007207669782
40
0.839592277898153
40
1
40
1
40
1
40
1
41
1
10
607.65725
20
34.1335510614992
30
0
41
1
10
607.621142460231
20
34.2019619258119
30
0
41
1
10
607.584893743717
20
34.290744278793
30
0
41
1
10
607.558712646654
20
34.3926061992163
30
0
41
1
10
607.555429709201
20
34.4278624777635
30
0
41
1
10
607.555003423148
20
34.4419810199694
30
0
0
SPLINE
5
181
100
AcDbEntity
8
1
62
256
6
ByLayer
370
18
48
1
60
0
100
AcDbSpline
70
4
71
1
72
4
73
2
40
0
40
0
40
1
40
1
41
1
10
608.325
20
32.7766387719495
30
0
41
1
10
607.65725
20
34.1335510614992
30
0
0
SPLINE
5
182
100
AcDbEntity
8
1
62
256
6
ByLayer
370
18
48
1
60
0
100
AcDbSpline
70
4
71
1
72
4
73
2
40
0
40
0
40
1
40
1
41
1
10
607.65725
20
32.9267973886505
30
0
41
1
10
608.325
20
32.3516106251948
30
0
0
SPLINE
5
183
100
AcDbEntity
8
1
62
256
6
ByLayer
370
18
48
1
60
0
100
AcDbSpline
70
4
71
2
72
6
73
3
40
0
40
0
40
0
40
1
40
1
40
1
41
1
10
607.65725
20
32.5090350955933
30
0
41
1
10
607.564494524259
20
32.7076362690425
30
0
41
1
10
607.555002402522
20
32.8772305165886
30
0
0
SPLINE
5
184
100
AcDbEntity
8
1
62
256
6
ByLayer
370
18
48
1
60
0
100
AcDbSpline
70
4
71
1
72
4
73
2
40
0
40
0
40
1
40
1
41
1
10
608.325
20
30.899752969536
30
0
41
1
10
607.65725
20
32.5090350955932
30
0
0
SPLINE
5
185
100
AcDbEntity
8
1
62
256
6
ByLayer
370
18
48
1
60
0
100
AcDbSpline
70
4
71
1
72
4
73
2
40
0
40
0
40
1
40
1
41
1
10
607.65725
20
30.9719368077128
30
0
41
1
10
608.325
20
30.3440885798799
30
0
0
SPLINE
5
186
100
AcDbEntity
8
1
62
256
6
ByLayer
370
18
48
1
60
0
100
AcDbSpline
70
4
71
2
72
6
73
3
40
0
40
0
40
0
40
1
40
1
40
1
41
1
10
607.65725
20
30.4256727570724
30
0
41
1
10
607.564248120375
20
30.6687947747666
30
0
41
1
10
607.555011360507
20
30.8872087149762
30
0
0
SPLINE
5
187
100
AcDbEntity
8
1
62
256
6
ByLayer
370
18
48
1
60
0
100
AcDbSpline
70
4
71
1
72
4
73
2
40
0
40
0
40
1
40
1
41
1
10
608.325
20
28.3586321419795
30
0
41
1
10
607.65725
20
30.4256727570724
30
0
0
SPLINE
5
188
100
AcDbEntity
8
1
62
256
6
ByLayer
370
18
48
1
60
0
100
AcDbSpline
70
4
71
1
72
4
73
2
40
0
40
0
40
1
40
1
41
1
10
607.65725
20
28.3165319633729
30
0
41
1
10
608.325
20
27.5457307174572
30
0
0
SPLINE
5
189
100
AcDbEntity
8
1
62
256
6
ByLayer
370
18
48
1
60
0
100
AcDbSpline
70
4
71
3
72
10
73
6
40
0
40
0
40
0
40
0
40
0.532327471744193
40
0.833599534488223
40
1
40
1
40
1
40
1
41
1
10
607.65725
20
27.5108818292089
30
0
41
1
10
607.627311546927
20
27.6294758906237
30
0
41
1
10
607.591106560034
20
27.8132325564232
30
0
41
1
10
607.558371562559
20
28.0339234867172
30
0
41
1
10
607.55512048653
20
28.1333189934795
30
0
41
1
10
607.55503138987
20
28.1683939732225
30
0
0
SPLINE
5
18A
100
AcDbEntity
8
1
62
256
6
ByLayer
370
18
48
1
60
0
100
AcDbSpline
70
4
71
2
72
6
73
3
40
0
40
0
40
0
40
1
40
1
40
1
41
1
10
608.325
20
24.0532515062548
30
0
41
1
10
608.083904837031
20
25.8059504764764
30
0
41
1
10
607.65725
20
27.5108818292089
30
0
0
SPLINE
5
18B
100
AcDbEntity
8
1
62
256
6
ByLayer
370
18
48
1
60
0
100
AcDbSpline
70
4
71
2
72
6
73
3
40
0
40
0
40
0
40
1
40
1
40
1
41
1
10
607.65725
20
23.6668802111446
30
0
41
1
10
608.10370184491
20
22.6513631702044
30
0
41
1
10
608.325
20
21.5414070106084
30
0
0
SPLINE
5
18C
100
AcDbEntity
8
1
62
256
6
ByLayer
370
18
48
1
60
0
100
AcDbSpline
70
4
71
3
72
18
73
14
40
0
40
0
40
0
40
0
40
0.0092762998663864
40
0.0685629894693008
40
0.0951304196179421
40
0.117592414007649
40
0.133540352718114
40
0.149529937913164
40
0.169950422012407
40
0.205700982058195
40
0.318776697923565
40
0.839906372189605
40
1
40
1
40
1
40
1
41
1
10
607.657249999991
20
16.3331197888334
30
0
41
1
10
607.656530488482
20
16.3314368210585
30
0
41
1
10
607.651090051693
20
16.3191147777542
30
0
41
1
10
607.642732472879
20
16.3023984585383
30
0
41
1
10
607.630691624417
20
16.286430455179
30
0
41
1
10
607.622113310393
20
16.2792895676756
30
0
41
1
10
607.614212181307
20
16.2768872235333
30
0
41
1
10
607.606874679365
20
16.2784766159644
30
0
41
1
10
607.598465296463
20
16.2856232977756
30
0
41
1
10
607.584596086649
20
16.3111166854032
30
0
41
1
10
607.558360975622
20
16.4360939457546
30
0
41
1
10
607.556219231416
20
16.5949467212293
30
0
41
1
10
607.554724613401
20
16.7302484414267
30
0
41
1
10
607.555022756186
20
16.7622517627335
30
0
0
SPLINE
5
18D
100
AcDbEntity
8
1
62
256
6
ByLayer
370
18
48
1
60
0
100
AcDbSpline
70
4
71
2
72
6
73
3
40
0
40
0
40
0
40
1
40
1
40
1
41
1
10
608.325
20
18.4585929893916
30
0
41
1
10
608.103860243443
20
17.3487054405711
30
0
41
1
10
607.65725
20
16.333119788828
30
0
0
SPLINE
5
18E
100
AcDbEntity
8
1
62
256
6
ByLayer
370
18
48
1
60
0
100
AcDbSpline
70
4
71
3
72
18
73
14
40
0
40
0
40
0
40
0
40
0.0395444285209911
40
0.678020344591088
40
0.73843085752736
40
0.801710634751741
40
0.823803287777235
40
0.846100958297528
40
0.862570653667689
40
0.879008358513509
40
0.905141278306308
40
0.957073783435269
40
1
40
1
40
1
40
1
41
1
10
607.55502714837
20
-16.7240623206445
30
0
41
1
10
607.553140836076
20
-16.7167801463674
30
0
41
1
10
607.522476480555
20
-16.5921336340518
30
0
41
1
10
607.55577747225
20
-16.4500855868214
30
0
41
1
10
607.583529798869
20
-16.3192729427489
30
0
41
1
10
607.592010013278
20
-16.2957898021736
30
0
41
1
10
607.601643329807
20
-16.2824848629651
30
0
41
1
10
607.608716698739
20
-16.2775993517717
30
0
41
1
10
607.616167497367
20
-16.2771710410009
30
0
41
1
10
607.62410507474
20
-16.2805553027009
30
0
41
1
10
607.635418046784
20
-16.291302432749
30
0
41
1
10
607.64665838332
20
-16.310142027513
30
0
41
1
10
607.654218463864
20
-16.3256523804403
30
0
41
1
10
607.65725
20
-16.3331197888554
30
0
0
SPLINE
5
18F
100
AcDbEntity
8
1
62
256
6
ByLayer
370
18
48
1
60
0
100
AcDbSpline
70
4
71
3
72
13
73
9
40
0
40
0
40
0
40
0
40
0.0811644644497648
40
0.177297495012223
40
0.433856160873215
40
0.690627755602121
40
0.946967123449296
40
1
40
1
40
1
40
1
41
1
10
607.555022756186
20
-23.2377482372663
30
0
41
1
10
607.556685354627
20
-23.0629443615126
30
0
41
1
10
607.563432827021
20
-22.6803535592428
30
0
41
1
10
607.615581614573
20
-21.7386196864401
30
0
41
1
10
607.637544089998
20
-20.4124671722327
30
0
41
1
10
607.612774682816
20
-18.7361192543149
30
0
41
1
10
607.56595767677
20
-17.5047794464901
30
0
41
1
10
607.556512388559
20
-16.8382162432149
30
0
41
1
10
607.55502714837
20
-16.7240623206445
30
0
0
SPLINE
5
190
100
AcDbEntity
8
1
62
256
6
ByLayer
370
18
48
1
60
0
100
AcDbSpline
70
4
71
3
72
18
73
14
40
0
40
0
40
0
40
0
40
0.0395444285287094
40
0.678020344591751
40
0.73843085752931
40
0.801710634754406
40
0.823803287779388
40
0.846100958299212
40
0.862570653669304
40
0.879008358515119
40
0.905141278308835
40
0.9570737834409
40
1
40
1
40
1
40
1
41
1
10
607.55502714837
20
23.2759376793544
30
0
41
1
10
607.553140836076
20
23.2832198536331
30
0
41
1
10
607.52247648056
20
23.4078663659511
30
0
41
1
10
607.555777472251
20
23.5499144131801
30
0
41
1
10
607.583529798869
20
23.6807270572518
30
0
41
1
10
607.592010013279
20
23.7042101978273
30
0
41
1
10
607.601643329808
20
23.7175151370356
30
0
41
1
10
607.60871669874
20
23.7224006482286
30
0
41
1
10
607.616167497368
20
23.7228289589989
30
0
41
1
10
607.624105074741
20
23.7194446972986
30
0
41
1
10
607.635418046785
20
23.7086975672497
30
0
41
1
10
607.64665838332
20
23.6898579724858
30
0
41
1
10
607.654218463866
20
23.6743476195587
30
0
41
1
10
607.65725
20
23.6668802111446
30
0
0
SPLINE
5
191
100
AcDbEntity
8
1
62
256
6
ByLayer
370
18
48
1
60
0
100
AcDbSpline
70
4
71
3
72
13
73
9
40
0
40
0
40
0
40
0
40
0.0811644644499677
40
0.177297495012542
40
0.433856160873852
40
0.690627755603074
40
0.94696712345056
40
1
40
1
40
1
40
1
41
1
10
607.555022756186
20
16.7622517627335
30
0
41
1
10
607.556685354627
20
16.9370556384877
30
0
41
1
10
607.563432827021
20
17.3196464407581
30
0
41
1
10
607.615581614573
20
18.2613803135621
30
0
41
1
10
607.637544089998
20
19.5875328277709
30
0
41
1
10
607.612774682815
20
21.2638807456906
30
0
41
1
10
607.565957676769
20
22.4952205535137
30
0
41
1
10
607.556512388558
20
23.1617837567868
30
0
41
1
10
607.55502714837
20
23.2759376793544
30
0
0
SPLINE
5
192
100
AcDbEntity
8
1
62
256
6
ByLayer
370
18
48
1
60
0
100
AcDbSpline
70
4
71
3
72
10
73
6
40
0
40
0
40
0
40
0
40
0.0927554397803593
40
0.545697818068565
40
1
40
1
40
1
40
1
41
1
10
607.555038128083
20
-28.1675712688107
30
0
41
1
10
607.555388989701
20
-28.1479841945512
30
0
41
1
10
607.559039956352
20
-28.0323212615753
30
0
41
1
10
607.588693640007
20
-27.8116779316101
30
0
41
1
10
607.630758281869
20
-27.6119288053594
30
0
41
1
10
607.65725
20
-27.5108818292089
30
0
0
SPLINE
5
193
100
AcDbEntity
8
1
62
256
6
ByLayer
370
18
48
1
60
0
100
AcDbSpline
70
4
71
3
72
14
73
10
40
0
40
0
40
0
40
0
40
0.287575987658946
40
0.59005608826016
40
0.679730591783112
40
0.750554707098916
40
0.821712627395232
40
0.902192848614493
40
1
40
1
40
1
40
1
41
1
10
607.55503138987
20
-11.8316060267775
30
0
41
1
10
607.553750469308
20
-11.802741503892
30
0
41
1
10
607.557233909261
20
-11.7482752801731
30
0
41
1
10
607.567713507383
20
-11.6861430856819
30
0
41
1
10
607.588436644206
20
-11.658307857314
30
0
41
1
10
607.60287063449
20
-11.6512087724161
30
0
41
1
10
607.619472193805
20
-11.6528607765231
30
0
41
1
10
607.638437550162
20
-11.6641908228321
30
0
41
1
10
607.650736120677
20
-11.6757007862954
30
0
41
1
10
607.657249999996
20
-11.6834680366314
30
0
0
SPLINE
5
194
100
AcDbEntity
8
1
62
256
6
ByLayer
370
18
48
1
60
0
100
AcDbSpline
70
4
71
3
72
14
73
10
40
0
40
0
40
0
40
0
40
0.28757598765897
40
0.590056088260173
40
0.679730591783127
40
0.750554707098929
40
0.821712627395245
40
0.90219284861451
40
1
40
1
40
1
40
1
41
1
10
607.55503138987
20
28.1683939732225
30
0
41
1
10
607.553750469308
20
28.197258496108
30
0
41
1
10
607.557233909261
20
28.2517247198269
30
0
41
1
10
607.567713507382
20
28.3138569143181
30
0
41
1
10
607.588436644206
20
28.341692142686
30
0
41
1
10
607.60287063449
20
28.3487912275839
30
0
41
1
10
607.619472193805
20
28.3471392234769
30
0
41
1
10
607.638437550162
20
28.3358091771679
30
0
41
1
10
607.650736120678
20
28.3242992137047
30
0
41
1
10
607.657249999996
20
28.3165319633686
30
0
0
SPLINE
5
195
100
AcDbEntity
8
1
62
256
6
ByLayer
370
18
48
1
60
0
100
AcDbSpline
70
4
71
3
72
10
73
6
40
0
40
0
40
0
40
0
40
0.0927554397803751
40
0.545697818068573
40
1
40
1
40
1
40
1
41
1
10
607.555038128083
20
11.8324287311893
30
0
41
1
10
607.555388989701
20
11.8520158054487
30
0
41
1
10
607.559039956352
20
11.9676787384247
30
0
41
1
10
607.588693640006
20
12.1883220683899
30
0
41
1
10
607.630758281869
20
12.3880711946406
30
0
41
1
10
607.65725
20
12.4891181707911
30
0
0
SPLINE
5
196
100
AcDbEntity
8
1
62
256
6
ByLayer
370
18
48
1
60
0
100
AcDbSpline
70
4
71
3
72
14
73
10
40
0
40
0
40
0
40
0
40
0.134830546589649
40
0.432278571174377
40
0.556416845271588
40
0.681679785607331
40
0.7938591503605
40
0.921826329766775
40
1
40
1
40
1
40
1
41
1
10
607.555011360507
20
30.8872087149762
30
0
41
1
10
607.554794910831
20
30.8975213538896
30
0
41
1
10
607.555917857637
20
30.929116645489
30
0
41
1
10
607.562018268893
20
30.9678387965234
30
0
41
1
10
607.579160760749
20
30.9943615848696
30
0
41
1
10
607.596635088183
20
31.0032599089764
30
0
41
1
10
607.619157766394
20
30.9997522682053
30
0
41
1
10
607.639812086508
20
30.9871545656547
30
0
41
1
10
607.652478051636
20
30.9764938403014
30
0
41
1
10
607.65725
20
30.9719368077127
30
0
0
SPLINE
5
197
100
AcDbEntity
8
1
62
256
6
ByLayer
370
18
48
1
60
0
100
AcDbSpline
70
4
71
3
72
10
73
6
40
0
40
0
40
0
40
0
40
0.183048331564797
40
0.85951570581791
40
1
40
1
40
1
40
1
41
1
10
607.555017244399
20
9.1135601087683
30
0
41
1
10
607.555942472327
20
9.14001560236498
30
0
41
1
10
607.564464988637
20
9.2653349275987
30
0
41
1
10
607.606509813794
20
9.42503042025334
30
0
41
1
10
607.649401846817
20
9.55234118250392
30
0
41
1
10
607.65725
20
9.57432724292738
30
0
0
SPLINE
5
198
100
AcDbEntity
8
1
62
256
6
ByLayer
370
18
48
1
60
0
100
AcDbSpline
70
4
71
3
72
14
73
10
40
0
40
0
40
0
40
0
40
0.13483054658968
40
0.432278571174437
40
0.556416845271644
40
0.681679785607372
40
0.793859150360824
40
0.921826329766816
40
1
40
1
40
1
40
1
41
1
10
607.555011360507
20
-9.11279128502383
30
0
41
1
10
607.554794910831
20
-9.10247864611041
30
0
41
1
10
607.555917857636
20
-9.07088335451097
30
0
41
1
10
607.562018268893
20
-9.03216120347653
30
0
41
1
10
607.579160760749
20
-9.00563841513042
30
0
41
1
10
607.596635088183
20
-8.99674009102361
30
0
41
1
10
607.619157766394
20
-9.0002477317947
30
0
41
1
10
607.639812086508
20
-9.01284543434529
30
0
41
1
10
607.652478051636
20
-9.02350615969855
30
0
41
1
10
607.65725
20
-9.02806319228726
30
0
0
SPLINE
5
199
100
AcDbEntity
8
1
62
256
6
ByLayer
370
18
48
1
60
0
100
AcDbSpline
70
4
71
3
72
10
73
6
40
0
40
0
40
0
40
0
40
0.183048331564747
40
0.859515705817882
40
1
40
1
40
1
40
1
41
1
10
607.555017244399
20
-30.8864398912317
30
0
41
1
10
607.555942472327
20
-30.859984397635
30
0
41
1
10
607.564464988637
20
-30.7346650724013
30
0
41
1
10
607.606509813794
20
-30.5749695797467
30
0
41
1
10
607.649401846817
20
-30.4476588174961
30
0
41
1
10
607.65725
20
-30.4256727570726
30
0
0
SPLINE
5
19A
100
AcDbEntity
8
1
62
256
6
ByLayer
370
18
48
1
60
0
100
AcDbSpline
70
4
71
3
72
10
73
6
40
0
40
0
40
0
40
0
40
0.0340274245101486
40
0.415044787859046
40
1
40
1
40
1
40
1
41
1
10
607.555002425298
20
-32.8772250208738
30
0
41
1
10
607.555036900651
20
-32.8735391069519
30
0
41
1
10
607.55598463012
20
-32.8283224309487
30
0
41
1
10
607.58089688564
20
-32.7052962332343
30
0
41
1
10
607.622322050846
20
-32.5852936659418
30
0
41
1
10
607.65725
20
-32.5090350955932
30
0
0
SPLINE
5
19B
100
AcDbEntity
8
1
62
256
6
ByLayer
370
18
48
1
60
0
100
AcDbSpline
70
4
71
3
72
11
73
7
40
0
40
0
40
0
40
0
40
0.128311085595833
40
0.54710143920923
40
0.969095861979841
40
1
40
1
40
1
40
1
41
1
10
607.555002402522
20
-7.1227694834114
30
0
41
1
10
607.554969421878
20
-7.11885544971189
30
0
41
1
10
607.555293339987
20
-7.10252760639214
30
0
41
1
10
607.558582733861
20
-7.07544980701446
30
0
41
1
10
607.567823401084
20
-7.0564579234209
30
0
41
1
10
607.575076756177
20
-7.04999136251343
30
0
41
1
10
607.575581557728
20
-7.04956167719898
30
0
0
SPLINE
5
19C
100
AcDbEntity
8
1
62
256
6
ByLayer
370
18
48
1
60
0
100
AcDbSpline
70
4
71
2
72
6
73
3
40
0
40
0
40
0
40
1
40
1
40
1
41
1
10
607.575581557728
20
-7.04956167719898
30
0
41
1
10
607.583022351826
20
-7.04313914652489
30
0
41
1
10
607.593496480041
20
-7.04227609653668
30
0
0
SPLINE
5
19D
100
AcDbEntity
8
1
62
256
6
ByLayer
370
18
48
1
60
0
100
AcDbSpline
70
4
71
3
72
10
73
6
40
0
40
0
40
0
40
0
40
0.311665621621195
40
0.657057584629305
40
1
40
1
40
1
40
1
41
1
10
607.593496480041
20
-7.04227609653668
30
0
41
1
10
607.599407654689
20
-7.04197216995768
30
0
41
1
10
607.61235216468
20
-7.04364972255138
30
0
41
1
10
607.634722380321
20
-7.05512213307564
30
0
41
1
10
607.64969861899
20
-7.06635137050535
30
0
41
1
10
607.65725
20
-7.07303023419908
30
0
0
SPLINE
5
19E
100
AcDbEntity
8
1
62
256
6
ByLayer
370
18
48
1
60
0
100
AcDbSpline
70
4
71
3
72
14
73
10
40
0
40
0
40
0
40
0
40
0.0617078890034277
40
0.263114248683754
40
0.466061522331056
40
0.602372188178405
40
0.739176880902282
40
0.869036933416544
40
1
40
1
40
1
40
1
41
1
10
607.555002402522
20
32.8772305165886
30
0
41
1
10
607.554969421878
20
32.8811445502881
30
0
41
1
10
607.555292053417
20
32.8974714445143
30
0
41
1
10
607.55859860252
20
32.9245618991857
30
0
41
1
10
607.57045100136
20
32.9490076024356
30
0
41
1
10
607.589461027341
20
32.9591205707449
30
0
41
1
10
607.610946039811
20
32.9568307474429
30
0
41
1
10
607.634417727209
20
32.9448783803617
30
0
41
1
10
607.649564454984
20
32.9335762274619
30
0
41
1
10
607.65725
20
32.9267973886505
30
0
0
SPLINE
5
19F
100
AcDbEntity
8
1
62
256
6
ByLayer
370
18
48
1
60
0
100
AcDbSpline
70
4
71
3
72
10
73
6
40
0
40
0
40
0
40
0
40
0.0340274245101935
40
0.415044787859156
40
1
40
1
40
1
40
1
41
1
10
607.555002425298
20
7.12277497912625
30
0
41
1
10
607.555036900651
20
7.12646089304814
30
0
41
1
10
607.555984630121
20
7.17167756905128
30
0
41
1
10
607.58089688564
20
7.29470376676571
30
0
41
1
10
607.622322050846
20
7.41470633405819
30
0
41
1
10
607.65725
20
7.49096490440674
30
0
0
SPLINE
5
1A0
100
AcDbEntity
8
1
62
256
6
ByLayer
370
18
48
1
60
0
100
AcDbSpline
70
4
71
3
72
11
73
7
40
0
40
0
40
0
40
0
40
0.210736275899254
40
0.541159001209643
40
0.791776549734752
40
1
40
1
40
1
40
1
41
1
10
607.65725
20
7.07303023419907
30
0
41
1
10
607.650858257019
20
7.06738542179421
30
0
41
1
10
607.634611946717
20
7.05493287291342
30
0
41
1
10
607.610007142752
20
7.04218656160543
30
0
41
1
10
607.588718332016
20
7.04155755746573
30
0
41
1
10
607.57933372073
20
7.04631629289352
30
0
41
1
10
607.575581557728
20
7.04956167719897
30
0
0
SPLINE
5
1A1
100
AcDbEntity
8
1
62
256
6
ByLayer
370
18
48
1
60
0
100
AcDbSpline
70
4
71
1
72
4
73
2
40
0
40
0
40
1
40
1
41
1
10
607.80379947275
20
7.19921276901628
30
0
41
1
10
607.65725
20
7.07303023419907
30
0
0
SPLINE
5
1A2
100
AcDbEntity
8
1
62
256
6
ByLayer
370
18
48
1
60
0
100
AcDbSpline
70
4
71
1
72
4
73
2
40
0
40
0
40
1
40
1
41
1
10
607.65725
20
5.46937827944305
30
0
41
1
10
608.325
20
7.20327711016558
30
0
0
SPLINE
5
1A3
100
AcDbEntity
8
1
62
256
6
ByLayer
370
18
48
1
60
0
100
AcDbSpline
70
4
71
3
72
14
73
10
40
0
40
0
40
0
40
0
40
0.114517319051419
40
0.192590736210519
40
0.271181733946182
40
0.342743640547131
40
0.456761550956488
40
0.673413931945526
40
1
40
1
40
1
40
1
41
1
10
607.657250000025
20
4.81300077611142
30
0
41
1
10
607.649750676414
20
4.80434672087207
30
0
41
1
10
607.636770321844
20
4.79290682808765
30
0
41
1
10
607.616904668838
20
4.78235071984817
30
0
41
1
10
607.600798290943
20
4.78159286509403
30
0
41
1
10
607.585508673429
20
4.78978130391128
30
0
41
1
10
607.569269044526
20
4.81372152470785
30
0
41
1
10
607.557084466148
20
4.86697480264781
30
0
41
1
10
607.55350995468
20
4.91388601688971
30
0
41
1
10
607.555047549691
20
4.94481422963568
30
0
0
SPLINE
5
1A4
100
AcDbEntity
8
1
62
256
6
ByLayer
370
18
48
1
60
0
100
AcDbSpline
70
4
71
1
72
4
73
2
40
0
40
0
40
1
40
1
41
1
10
608.325
20
5.51780972776323
30
0
41
1
10
607.65725
20
4.81300077609142
30
0
0
SPLINE
5
1A5
100
AcDbEntity
8
1
62
256
6
ByLayer
370
18
48
1
60
0
100
AcDbSpline
70
4
71
3
72
15
73
11
40
0
40
0
40
0
40
0
40
0.140300924305746
40
0.281515753299741
40
0.425980963469107
40
0.571722414313691
40
0.67786893947272
40
0.784021060272466
40
0.892005716764451
40
1
40
1
40
1
40
1
41
1
10
608.325
20
-4.76902621085212
30
0
41
1
10
608.206247889183
20
-4.33576205025282
30
0
41
1
10
607.999738072922
20
-3.45853468255494
30
0
41
1
10
607.779333642272
20
-2.10365459272564
30
0
41
1
10
607.664206117226
20
-0.714207763082746
30
0
41
1
10
607.663283688555
20
0.568502852681476
30
0
41
1
10
607.745173828237
20
1.72232114097597
30
0
41
1
10
607.878061369999
20
2.74644514151308
30
0
41
1
10
608.070189796385
20
3.76430206027218
30
0
41
1
10
608.233977743302
20
4.43578354950004
30
0
41
1
10
608.325
20
4.76902621085212
30
0
0
SPLINE
5
1A6
100
AcDbEntity
8
1
62
256
6
ByLayer
370
18
48
1
60
0
100
AcDbSpline
70
4
71
1
72
4
73
2
40
0
40
0
40
1
40
1
41
1
10
607.65725
20
-4.8130007761125
30
0
41
1
10
608.325
20
-5.51780972776323
30
0
0
SPLINE
5
1A7
100
AcDbEntity
8
1
62
256
6
ByLayer
370
18
48
1
60
0
100
AcDbSpline
70
4
71
3
72
10
73
6
40
0
40
0
40
0
40
0
40
0.664553918372281
40
0.978337115184608
40
1
40
1
40
1
40
1
41
1
10
607.65725
20
-5.46937827944304
30
0
41
1
10
607.615502767853
20
-5.34882882036644
30
0
41
1
10
607.574087850201
20
-5.17502628502838
30
0
41
1
10
607.55547734723
20
-4.99819598991121
30
0
41
1
10
607.555013153617
20
-4.94119802359576
30
0
41
1
10
607.555001127644
20
-4.93752232027764
30
0
0
SPLINE
5
1A8
100
AcDbEntity
8
1
62
256
6
ByLayer
370
18
48
1
60
0
100
AcDbSpline
70
4
71
1
72
4
73
2
40
0
40
0
40
1
40
1
41
1
10
608.325
20
-7.20327711016558
30
0
41
1
10
607.65725
20
-5.46937827944305
30
0
0
SPLINE
5
1A9
100
AcDbEntity
8
1
62
256
6
ByLayer
370
18
48
1
60
0
100
AcDbSpline
70
4
71
1
72
4
73
2
40
0
40
0
40
1
40
1
41
1
10
607.65725
20
-7.07303023419907
30
0
41
1
10
607.80379947275
20
-7.19921276901633
30
0
0
SPLINE
5
1AA
100
AcDbEntity
8
1
62
256
6
ByLayer
370
18
48
1
60
0
100
AcDbSpline
70
4
71
1
72
4
73
2
40
0
40
0
40
1
40
1
41
1
10
607.80379947275
20
-7.19921276901633
30
0
41
1
10
608.325
20
-7.64838937480519
30
0
0
SPLINE
5
1AB
100
AcDbEntity
8
1
62
256
6
ByLayer
370
18
48
1
60
0
100
AcDbSpline
70
4
71
1
72
4
73
2
40
0
40
0
40
1
40
1
41
1
10
608.325
20
7.64838937480519
30
0
41
1
10
607.80379947275
20
7.19921276901628
30
0
0
SPLINE
5
1AC
100
AcDbEntity
8
1
62
256
6
ByLayer
370
18
48
1
60
0
100
AcDbSpline
70
4
71
3
72
15
73
11
40
0
40
0
40
0
40
0
40
0.319727879552996
40
0.485407857017997
40
0.623041639428342
40
0.70566455377867
40
0.788898258944663
40
0.862534629610812
40
0.979618724108983
40
1
40
1
40
1
40
1
41
1
10
607.555001127644
20
-4.93752232027764
30
0
41
1
10
607.554009647566
20
-4.90835465672832
30
0
41
1
10
607.557253901722
20
-4.86737077930465
30
0
41
1
10
607.568316279944
20
-4.81864429222417
30
0
41
1
10
607.581423949897
20
-4.79383949483489
30
0
41
1
10
607.597363518602
20
-4.78237531749591
30
0
41
1
10
607.6134534244
20
-4.78156976836659
30
0
41
1
10
607.632961239221
20
-4.79003170773789
30
0
41
1
10
607.647298506821
20
-4.80246557071404
30
0
41
1
10
607.655974750356
20
-4.81160524050877
30
0
41
1
10
607.657250000009
20
-4.81300077610131
30
0
0
SPLINE
5
1AD
100
AcDbEntity
8
1
62
256
6
ByLayer
370
18
48
1
60
0
100
AcDbSpline
70
4
71
3
72
10
73
6
40
0
40
0
40
0
40
0
40
0.192958189275786
40
0.662877134872691
40
1
40
1
40
1
40
1
41
1
10
607.555003412463
20
-34.4419827618974
30
0
41
1
10
607.555775357579
20
-34.424746853521
30
0
41
1
10
607.562247184345
20
-34.3638370838713
30
0
41
1
10
607.599082328815
20
-34.2562196219806
30
0
41
1
10
607.638177661418
20
-34.170320730928
30
0
41
1
10
607.65725
20
-34.1335510614992
30
0
0
SPLINE
5
1AE
100
AcDbEntity
8
1
62
256
6
ByLayer
370
18
48
1
60
0
100
AcDbSpline
70
4
71
2
72
6
73
3
40
0
40
0
40
0
40
1
40
1
40
1
41
1
10
607.555047549691
20
4.94481422963568
30
0
41
1
10
607.562139304288
20
5.1991392037468
30
0
41
1
10
607.657249999999
20
5.46937827944303
30
0
0
SPLINE
5
1AF
100
AcDbEntity
8
1
62
256
6
ByLayer
370
18
48
1
60
0
100
AcDbSpline
70
4
71
3
72
13
73
9
40
0
40
0
40
0
40
0
40
0.106322020951442
40
0.308092026541359
40
0.511861720183997
40
0.687387669813941
40
0.838178876361505
40
1
40
1
40
1
40
1
41
1
10
607.555003423148
20
34.4419810199694
30
0
41
1
10
607.554902748484
20
34.4478807434842
30
0
41
1
10
607.5557309423
20
34.4639528573803
30
0
41
1
10
607.561449200834
20
34.4873359995496
30
0
41
1
10
607.578391104751
20
34.5028448339463
30
0
41
1
10
607.603424866665
20
34.501489161909
30
0
41
1
10
607.630477830277
20
34.4883501757057
30
0
41
1
10
607.647958903935
20
34.4758016130345
30
0
41
1
10
607.65725
20
34.4679225924802
30
0
0
SPLINE
5
1B0
100
AcDbEntity
8
1
62
256
6
ByLayer
370
18
48
1
60
0
100
AcDbSpline
70
4
71
3
72
13
73
9
40
0
40
0
40
0
40
0
40
0.156938698583338
40
0.349316531427618
40
0.543113493975752
40
0.714312677860554
40
0.93058997577233
40
1
40
1
40
1
40
1
41
1
10
607.555008535533
20
35.7101151220354
30
0
41
1
10
607.554764424077
20
35.7178825742427
30
0
41
1
10
607.556326840231
20
35.7330199523803
30
0
41
1
10
607.565117235662
20
35.7510191699904
30
0
41
1
10
607.58431428651
20
35.7571096349773
30
0
41
1
10
607.612372194197
20
35.74899564906
30
0
41
1
10
607.63767922616
20
35.7329360348717
30
0
41
1
10
607.653396743984
20
35.72066053656
30
0
41
1
10
607.657250000002
20
35.717489543714
30
0
0
SPLINE
5
1B1
100
AcDbEntity
8
1
62
256
6
ByLayer
370
18
48
1
60
0
100
AcDbSpline
70
4
71
3
72
10
73
6
40
0
40
0
40
0
40
0
40
0.230543928053044
40
0.670249368460766
40
1
40
1
40
1
40
1
41
1
10
607.555000472764
20
-35.7112166191105
30
0
41
1
10
607.555973870088
20
-35.6941926951022
30
0
41
1
10
607.563390370997
20
-35.6424094026311
30
0
41
1
10
607.601280134767
20
-35.5483980008888
30
0
41
1
10
607.638677503405
20
-35.4764629670544
30
0
41
1
10
607.65725
20
-35.4446939818576
30
0
0
SPLINE
5
1B2
100
AcDbEntity
8
1
62
256
6
ByLayer
370
18
48
1
60
0
100
AcDbSpline
70
4
71
3
72
13
73
9
40
0
40
0
40
0
40
0
40
0.0632694644460104
40
0.276663840458838
40
0.4916671908607
40
0.676297285291996
40
0.911346290098626
40
1
40
1
40
1
40
1
41
1
10
607.555000929875
20
36.7508182535806
30
0
41
1
10
607.554969985234
20
36.7534297023435
30
0
41
1
10
607.55550091994
20
36.7641829123098
30
0
41
1
10
607.560935326727
20
36.779474812584
30
0
41
1
10
607.579425426929
20
36.7851478318844
30
0
41
1
10
607.607960906402
20
36.7759274024369
30
0
41
1
10
607.635043745723
20
36.7584802199496
30
0
41
1
10
607.652419939031
20
36.744896680266
30
0
41
1
10
607.657250000005
20
36.7409130865523
30
0
0
SPLINE
5
1B3
100
AcDbEntity
8
1
62
256
6
ByLayer
370
18
48
1
60
0
100
AcDbSpline
70
4
71
3
72
11
73
7
40
0
40
0
40
0
40
0
40
0.0302362271658544
40
0.300567593954874
40
0.740596753790156
40
1
40
1
40
1
40
1
41
1
10
607.555000725937
20
-36.7508635079355
30
0
41
1
10
607.555017361135
20
-36.7491477519593
30
0
41
1
10
607.555575568673
20
-36.7318046022458
30
0
41
1
10
607.569149254963
20
-36.6789954170122
30
0
41
1
10
607.607837049872
20
-36.5985027415872
30
0
41
1
10
607.642867396602
20
-36.5396035419021
30
0
41
1
10
607.65725
20
-36.5172600263618
30
0
0
SPLINE
5
1B4
100
AcDbEntity
8
1
62
256
6
ByLayer
370
18
48
1
60
0
100
AcDbSpline
70
4
71
3
72
13
73
9
40
0
40
0
40
0
40
0
40
0.0212809377380834
40
0.238561386112246
40
0.457168607694757
40
0.649648659773674
40
0.90350849712661
40
1
40
1
40
1
40
1
41
1
10
607.555000081396
20
37.602545625745
30
0
41
1
10
607.55499712244
20
37.6032852321386
30
0
41
1
10
607.555161987585
20
37.6113772392832
30
0
41
1
10
607.559253003597
20
37.6236047693758
30
0
41
1
10
607.57688156024
20
37.6269244451722
30
0
41
1
10
607.605349565434
20
37.6158580447934
30
0
41
1
10
607.633524661658
20
37.5968329280773
30
0
41
1
10
607.652052428589
20
37.5820731962957
30
0
41
1
10
607.657250000005
20
37.5777377493884
30
0
0
SPLINE
5
1B5
100
AcDbEntity
8
1
62
256
6
ByLayer
370
18
48
1
60
0
100
AcDbSpline
70
4
71
3
72
11
73
7
40
0
40
0
40
0
40
0
40
0.0812329922284233
40
0.361133281662897
40
0.796537058091678
40
1
40
1
40
1
40
1
41
1
10
607.55500147232
20
-37.6022405721771
30
0
41
1
10
607.555099462372
20
-37.5984504549655
30
0
41
1
10
607.556719074077
20
-37.580709703447
30
0
41
1
10
607.574802179399
20
-37.5294836558493
30
0
41
1
10
607.613632517066
20
-37.4603267694138
30
0
41
1
10
607.646115482642
20
-37.4113458694242
30
0
41
1
10
607.65725
20
-37.3954357623967
30
0
0
SPLINE
5
1B6
100
AcDbEntity
8
1
62
256
6
ByLayer
370
18
48
1
60
0
100
AcDbSpline
70
4
71
3
72
12
73
8
40
0
40
0
40
0
40
0
40
0.203982101215728
40
0.422892038301091
40
0.621225759785596
40
0.890379488772492
40
1
40
1
40
1
40
1
41
1
10
607.555000066086
20
38.292086575487
30
0
41
1
10
607.554897963952
20
38.2983003785211
30
0
41
1
10
607.558176529177
20
38.3071735753694
30
0
41
1
10
607.574243124086
20
38.3084735293176
30
0
41
1
10
607.602275393741
20
38.2955987473305
30
0
41
1
10
607.631553976018
20
38.2748245964976
30
0
41
1
10
607.651377526233
20
38.2586384717641
30
0
41
1
10
607.657250000007
20
38.2536450551943
30
0
0
SPLINE
5
1B7
100
AcDbEntity
8
1
62
256
6
ByLayer
370
18
48
1
60
0
100
AcDbSpline
70
4
71
3
72
11
73
7
40
0
40
0
40
0
40
0
40
0.130632392229603
40
0.415548682631186
40
0.84341341881072
40
1
40
1
40
1
40
1
41
1
10
607.555000724703
20
-38.2919300405605
30
0
41
1
10
607.555219444984
20
-38.2869735895815
30
0
41
1
10
607.55799512545
20
-38.2695849031442
30
0
41
1
10
607.580249725645
20
-38.2201944449455
30
0
41
1
10
607.618700276632
20
-38.1601189387494
30
0
41
1
10
607.648761892695
20
-38.1187907830027
30
0
41
1
10
607.65725
20
-38.1075258373112
30
0
0
SPLINE
5
1B8
100
AcDbEntity
8
1
62
256
6
ByLayer
370
18
48
1
60
0
100
AcDbSpline
70
4
71
3
72
11
73
7
40
0
40
0
40
0
40
0
40
0.143406160135614
40
0.416179409660909
40
0.813457131819903
40
1
40
1
40
1
40
1
41
1
10
607.555000075114
20
-38.8374837408245
30
0
41
1
10
607.555218734815
20
-38.8332559112073
30
0
41
1
10
607.558158421244
20
-38.8190743086719
30
0
41
1
10
607.579864871635
20
-38.7772067985676
30
0
41
1
10
607.617427602226
20
-38.7232747229727
30
0
41
1
10
607.647143977536
20
-38.685075854437
30
0
41
1
10
607.65725
20
-38.6725412982299
30
0
0
SPLINE
5
1B9
100
AcDbEntity
8
1
62
256
6
ByLayer
370
18
48
1
60
0
100
AcDbSpline
70
4
71
3
72
12
73
8
40
0
40
0
40
0
40
0
40
0.171820385506501
40
0.389124108028938
40
0.59167811471983
40
0.873622739350531
40
1
40
1
40
1
40
1
41
1
10
607.555000312325
20
38.8374254774193
30
0
41
1
10
607.554945951919
20
38.8415859421234
30
0
41
1
10
607.557566085497
20
38.8479456508417
30
0
41
1
10
607.571645644364
20
38.8471547875957
30
0
41
1
10
607.598948282838
20
38.8325246100649
30
0
41
1
10
607.629289303415
20
38.8097517340527
30
0
41
1
10
607.65049089334
20
38.7919055473377
30
0
41
1
10
607.657250000011
20
38.7860121158196
30
0
0
SPLINE
5
1BA
100
AcDbEntity
8
1
62
256
6
ByLayer
370
18
48
1
60
0
100
AcDbSpline
70
4
71
3
72
11
73
7
40
0
40
0
40
0
40
0
40
0.151510210552028
40
0.411847092875847
40
0.780628591293014
40
1
40
1
40
1
40
1
41
1
10
607.555000030128
20
-39.2510233429179
30
0
41
1
10
607.555213291713
20
-39.2477351167947
30
0
41
1
10
607.558226651057
20
-39.2366590343581
30
0
41
1
10
607.579017327131
20
-39.2017481251854
30
0
41
1
10
607.61576248758
20
-39.1531383553434
30
0
41
1
10
607.645364287079
20
-39.1174078722661
30
0
41
1
10
607.65725
20
-39.1035364558304
30
0
0
SPLINE
5
1BB
100
AcDbEntity
8
1
62
256
6
ByLayer
370
18
48
1
60
0
100
AcDbSpline
70
4
71
3
72
12
73
8
40
0
40
0
40
0
40
0
40
0.0937750043520545
40
0.315079293964232
40
0.520086113400783
40
0.799364997268456
40
1
40
1
40
1
40
1
41
1
10
607.555000241862
20
39.250975551376
30
0
41
1
10
607.554980723118
20
39.252660330552
30
0
41
1
10
607.556166673441
20
39.2569820460955
30
0
41
1
10
607.56547045096
20
39.256718152267
30
0
41
1
10
607.589775411851
20
39.2426519312952
30
0
41
1
10
607.621987058705
20
39.2176386678643
30
0
41
1
10
607.646436280983
20
39.1965225182805
30
0
41
1
10
607.65725
20
39.1867908893245
30
0
0
SPLINE
5
1BC
100
AcDbEntity
8
1
62
256
6
ByLayer
370
18
48
1
60
0
100
AcDbSpline
70
4
71
3
72
12
73
8
40
0
40
0
40
0
40
0
40
0.0805814427706034
40
0.294856636486507
40
0.501424598236093
40
0.795507813486186
40
1
40
1
40
1
40
1
41
1
10
607.555000074588
20
39.5410298872621
30
0
41
1
10
607.554994909587
20
39.5419980562034
30
0
41
1
10
607.555997909948
20
39.5444659198811
30
0
41
1
10
607.564538790173
20
39.541741577563
30
0
41
1
10
607.588322652416
20
39.524900506125
30
0
41
1
10
607.620983720609
20
39.4972337835865
30
0
41
1
10
607.646251711464
20
39.4743399506937
30
0
41
1
10
607.65725
20
39.4641115400998
30
0
0
SPLINE
5
1BD
100
AcDbEntity
8
1
62
256
6
ByLayer
370
18
48
1
60
0
100
AcDbSpline
70
4
71
3
72
12
73
8
40
0
40
0
40
0
40
0
40
0.0040678379005909
40
0.193259184993774
40
0.453930994611789
40
0.816503936930411
40
1
40
1
40
1
40
1
41
1
10
607.555000003065
20
-39.5410513391963
30
0
41
1
10
607.555000102346
20
-39.540998898705
30
0
41
1
10
607.555041908083
20
-39.5384715788751
30
0
41
1
10
607.559763366213
20
-39.5278958526447
30
0
41
1
10
607.583394766296
20
-39.494953440049
30
0
41
1
10
607.61968179993
20
-39.4515850423524
30
0
41
1
10
607.64738507519
20
-39.4203496943217
30
0
41
1
10
607.657250000001
20
-39.4094413032536
30
0
0
SPLINE
5
1BE
100
AcDbEntity
8
1
62
256
6
ByLayer
370
18
48
1
60
0
100
AcDbSpline
70
4
71
3
72
12
73
8
40
0
40
0
40
0
40
0
40
0.101897259976099
40
0.309477308976332
40
0.520977748882539
40
0.843702230847002
40
1
40
1
40
1
40
1
41
1
10
607.555000029089
20
39.7130051391009
30
0
41
1
10
607.555013028712
20
39.7136125625675
30
0
41
1
10
607.556404817248
20
39.7140568873087
30
0
41
1
10
607.566369579928
20
39.7070410064692
30
0
41
1
10
607.591854792125
20
39.6849792726466
30
0
41
1
10
607.624433074224
20
39.6546523938096
30
0
41
1
10
607.648908641859
20
39.6312544707722
30
0
41
1
10
607.657250000007
20
39.6232090000593
30
0
0
SPLINE
5
1BF
100
AcDbEntity
8
1
62
256
6
ByLayer
370
18
48
1
60
0
100
AcDbSpline
70
4
71
3
72
12
73
8
40
0
40
0
40
0
40
0
40
0.101523682145545
40
0.298670259603591
40
0.579960061486682
40
0.971009684659155
40
1
40
1
40
1
40
1
41
1
10
607.555000044758
20
-39.7130031276509
30
0
41
1
10
607.555046733675
20
-39.7123126748356
30
0
41
1
10
607.556492157932
20
-39.7090003075641
30
0
41
1
10
607.567719690897
20
-39.6941913394474
30
0
41
1
10
607.599047395786
20
-39.6582641268285
30
0
41
1
10
607.633679505403
20
-39.6209690724058
30
0
41
1
10
607.655717722444
20
-39.5977282863562
30
0
41
1
10
607.65725
20
-39.5961148774388
30
0
0
SPLINE
5
1C0
100
AcDbEntity
8
1
62
256
6
ByLayer
370
18
48
1
60
0
100
AcDbSpline
70
4
71
3
72
12
73
8
40
0
40
0
40
0
40
0
40
0.461496606459209
40
0.644603598368424
40
0.82913508473064
40
0.943881603054101
40
1
40
1
40
1
40
1
41
1
10
13.8943375672976
20
12.6576002058722
30
0
41
1
10
13.8701993920775
20
12.5472081556624
30
0
41
1
10
13.8103873525191
20
12.4071457443544
30
0
41
1
10
13.6939055914889
20
12.244005768398
30
0
41
1
10
13.6020076979314
20
12.167289441475
30
0
41
1
10
13.5176052461322
20
12.1366767581902
30
0
41
1
10
13.4754647845541
20
12.1331987498299
30
0
41
1
10
13.4613248654054
20
12.1330899674723
30
0
0
SPLINE
5
1C1
100
AcDbEntity
8
1
62
256
6
ByLayer
370
18
48
1
60
0
100
AcDbSpline
70
4
71
3
72
12
73
8
40
0
40
0
40
0
40
0
40
0.111846568705909
40
0.249849579957838
40
0.468129172257741
40
0.889393220033103
40
1
40
1
40
1
40
1
41
1
10
13.4613248654054
20
38.1154578595249
30
0
41
1
10
13.4901161707262
20
38.11518022131
30
0
41
1
10
13.551003362885
20
38.1120412852885
30
0
41
1
10
13.6530511696465
20
38.093173961065
30
0
41
1
10
13.7786253284998
20
38.0473472461927
30
0
41
1
10
13.8510872152817
20
37.9928971102792
30
0
41
1
10
13.8876421136685
20
37.9529549354051
30
0
41
1
10
13.8943375672977
20
37.9445010117185
30
0
0
SPLINE
5
1C2
100
AcDbEntity
8
1
62
256
6
ByLayer
370
18
48
1
60
0
100
AcDbSpline
70
4
71
3
72
12
73
8
40
0
40
0
40
0
40
0
40
0.461496606459155
40
0.644603598368382
40
0.829135084730608
40
0.943881603054074
40
1
40
1
40
1
40
1
41
1
10
10.1056624327028
20
37.9445010117185
30
0
41
1
10
10.1298006079228
20
37.9812146884706
30
0
41
1
10
10.1896126474812
20
38.0273449690879
30
0
41
1
10
10.3060944085114
20
38.0800194568855
30
0
41
1
10
10.3979923020689
20
38.1045677833546
30
0
41
1
10
10.4823947538681
20
38.1143154797898
30
0
41
1
10
10.5245352154463
20
38.1154239008457
30
0
41
1
10
10.538675134595
20
38.115457859525
30
0
0
SPLINE
5
1C3
100
AcDbEntity
8
1
62
256
6
ByLayer
370
18
48
1
60
0
100
AcDbSpline
70
4
71
3
72
12
73
8
40
0
40
0
40
0
40
0
40
0.111846568705909
40
0.249849579957822
40
0.468129172257707
40
0.889393220033043
40
1
40
1
40
1
40
1
41
1
10
10.538675134595
20
12.1330899674725
30
0
41
1
10
10.5098838292742
20
12.1339783930284
30
0
41
1
10
10.4489966371153
20
12.143820768978
30
0
41
1
10
10.3469488303539
20
12.2029755047059
30
0
41
1
10
10.2213746715005
20
12.3455702428987
30
0
41
1
10
10.1489127847187
20
12.5121443240368
30
0
41
1
10
10.1123578863319
20
12.6322484461453
30
0
41
1
10
10.1056624327027
20
12.6576002058722
30
0
0
SPLINE
5
1C4
100
AcDbEntity
8
1
62
256
6
ByLayer
370
18
48
1
60
0
100
AcDbSpline
70
4
71
3
72
12
73
8
40
0
40
0
40
0
40
0
40
0.461496606459195
40
0.644603598368404
40
0.829135084730615
40
0.943881603054079
40
1
40
1
40
1
40
1
41
1
10
13.8943375672976
20
-37.9445010117185
30
0
41
1
10
13.8701993920775
20
-37.9812146884707
30
0
41
1
10
13.8103873525191
20
-38.0273449690879
30
0
41
1
10
13.6939055914889
20
-38.0800194568856
30
0
41
1
10
13.6020076979314
20
-38.1045677833546
30
0
41
1
10
13.5176052461322
20
-38.1143154797899
30
0
41
1
10
13.4754647845541
20
-38.1154239008457
30
0
41
1
10
13.4613248654054
20
-38.115457859525
30
0
0
SPLINE
5
1C5
100
AcDbEntity
8
1
62
256
6
ByLayer
370
18
48
1
60
0
100
AcDbSpline
70
4
71
3
72
12
73
8
40
0
40
0
40
0
40
0
40
0.111846568705904
40
0.249849579957835
40
0.468129172257707
40
0.889393220033025
40
1
40
1
40
1
40
1
41
1
10
13.4613248654054
20
-12.1330899674725
30
0
41
1
10
13.4901161707262
20
-12.1339783930285
30
0
41
1
10
13.551003362885
20
-12.143820768978
30
0
41
1
10
13.6530511696465
20
-12.2029755047059
30
0
41
1
10
13.7786253284998
20
-12.3455702428987
30
0
41
1
10
13.8510872152817
20
-12.5121443240368
30
0
41
1
10
13.8876421136685
20
-12.6322484461452
30
0
41
1
10
13.8943375672977
20
-12.6576002058722
30
0
0
SPLINE
5
1C6
100
AcDbEntity
8
1
62
256
6
ByLayer
370
18
48
1
60
0
100
AcDbSpline
70
4
71
3
72
12
73
8
40
0
40
0
40
0
40
0
40
0.461496606459186
40
0.644603598368396
40
0.829135084730604
40
0.943881603054073
40
1
40
1
40
1
40
1
41
1
10
10.1056624327028
20
-12.6576002058722
30
0
41
1
10
10.1298006079228
20
-12.5472081556624
30
0
41
1
10
10.1896126474812
20
-12.4071457443544
30
0
41
1
10
10.3060944085114
20
-12.244005768398
30
0
41
1
10
10.3979923020689
20
-12.167289441475
30
0
41
1
10
10.4823947538681
20
-12.1366767581902
30
0
41
1
10
10.5245352154462
20
-12.1331987498298
30
0
41
1
10
10.538675134595
20
-12.1330899674723
30
0
0
SPLINE
5
1C7
100
AcDbEntity
8
1
62
256
6
ByLayer
370
18
48
1
60
0
100
AcDbSpline
70
4
71
3
72
12
73
8
40
0
40
0
40
0
40
0
40
0.111846568705916
40
0.249849579957839
40
0.468129172257725
40
0.889393220033077
40
1
40
1
40
1
40
1
41
1
10
10.538675134595
20
-38.1154578595249
30
0
41
1
10
10.5098838292742
20
-38.11518022131
30
0
41
1
10
10.4489966371153
20
-38.1120412852885
30
0
41
1
10
10.3469488303539
20
-38.093173961065
30
0
41
1
10
10.2213746715005
20
-38.0473472461926
30
0
41
1
10
10.1489127847186
20
-37.9928971102792
30
0
41
1
10
10.1123578863319
20
-37.9529549354051
30
0
41
1
10
10.1056624327027
20
-37.9445010117185
30
0
0
SPLINE
5
1C8
100
AcDbEntity
8
SK1
62
256
6
ByLayer
370
18
48
1
60
0
100
AcDbSpline
70
4
71
3
72
17
73
13
40
0
40
0
40
0
40
0
40
0.133673145737177
40
0.166416748781638
40
0.193969420316679
40
0.213290783396535
40
0.232673387572736
40
0.256634647056682
40
0.297434595218469
40
0.420206979694088
40
0.936917290464195
40
1
40
1
40
1
40
1
41
1
10
-0.194976888875296
20
5.5948667006311
30
0
41
1
10
-0.182913600808012
20
5.56350914858246
30
0
41
1
10
-0.161565302065766
20
5.53231138090554
30
0
41
1
10
-0.12921756136618
20
5.50352264256351
30
0
41
1
10
-0.113273464842676
20
5.49627283916142
30
0
41
1
10
-0.0986781333282018
20
5.49590599707246
30
0
41
1
10
-0.0852857263688545
20
5.50132759775725
30
0
41
1
10
-0.0702846620114327
20
5.51519491897514
30
0
41
1
10
-0.0466142791975308
20
5.55595934767639
30
0
41
1
10
-0.0048155225654066
20
5.72393392836074
30
0
41
1
10
-0.0011085216244294
20
5.8989468841876
30
0
41
1
10
5.04964266355E-05
20
6.04122171282079
30
0
41
1
10
-1.23E-14
20
6.05669444010717
30
0
0
SPLINE
5
1C9
100
AcDbEntity
8
SK1
62
256
6
ByLayer
370
18
48
1
60
0
100
AcDbSpline
70
4
71
3
72
18
73
14
40
0
40
0
40
0
40
0
40
0.532221401015547
40
0.615319818419842
40
0.699019092113502
40
0.7294586878028
40
0.760142636780113
40
0.779506411021453
40
0.798941163611353
40
0.822446594589558
40
0.861767666547869
40
0.976320248418026
40
1
40
1
40
1
40
1
41
1
10
1.5E-15
20
-6.05669285502369
30
0
41
1
10
0.0081351968893909
20
-5.92429351735365
30
0
41
1
10
-0.0025796035708054
20
-5.77236575360418
30
0
41
1
10
-0.0351944238987708
20
-5.60029693160818
30
0
41
1
10
-0.0498070971152584
20
-5.5524138318528
30
0
41
1
10
-0.066897941019144
20
-5.52058619561516
30
0
41
1
10
-0.0797541584219715
20
-5.50531936543215
30
0
41
1
10
-0.0938826357831601
20
-5.49717119976534
30
0
41
1
10
-0.107712314103436
20
-5.49539103008414
30
0
41
1
10
-0.124972819301854
20
-5.50058841151751
30
0
41
1
10
-0.156029280620515
20
-5.52526194310577
30
0
41
1
10
-0.177648573858187
20
-5.56125121077164
30
0
41
1
10
-0.192544308648973
20
-5.5898518596761
30
0
41
1
10
-0.194976888875294
20
-5.59486561641272
30
0
0
SPLINE
5
1CA
100
AcDbEntity
8
SK1
62
256
6
ByLayer
370
18
48
1
60
0
100
AcDbSpline
70
4
71
3
72
18
73
14
40
0
40
0
40
0
40
0
40
0.0822840815473484
40
0.165184243157868
40
0.197603461296578
40
0.230326770421473
40
0.259492370855927
40
0.296226660227179
40
0.360784564494509
40
0.460596153293557
40
0.56089116583717
40
0.780281604549142
40
1
40
1
40
1
40
1
41
1
10
-0.194976888875294
20
-5.59486561641273
30
0
41
1
10
-0.221164337156674
20
-5.65419596918022
30
0
41
1
10
-0.287465275432922
20
-5.76292531272652
30
0
41
1
10
-0.38876307771861
20
-5.88521752119781
30
0
41
1
10
-0.493350922304168
20
-5.94594241277858
30
0
41
1
10
-0.571461197973746
20
-5.96286309886481
30
0
41
1
10
-0.654141997363758
20
-5.94959228212615
30
0
41
1
10
-0.749699209135473
20
-5.89802603336533
30
0
41
1
10
-0.861673768093372
20
-5.78006778642881
30
0
41
1
10
-0.969719085430396
20
-5.60118699906606
30
0
41
1
10
-1.09654412810573
20
-5.29862282213723
30
0
41
1
10
-1.21690365872587
20
-4.89345578116357
30
0
41
1
10
-1.28819979875485
20
-4.55577988074133
30
0
41
1
10
-1.31543506509628
20
-4.38400264074475
30
0
0
SPLINE
5
1CB
100
AcDbEntity
8
SK1
62
256
6
ByLayer
370
18
48
1
60
0
100
AcDbSpline
70
4
71
3
72
18
73
14
40
0
40
0
40
0
40
0
40
0.291142137642064
40
0.440055583691032
40
0.58838349442622
40
0.659859387914568
40
0.713308793025355
40
0.745063016132205
40
0.77710605503017
40
0.804531655270307
40
0.846603347304398
40
0.927483156922141
40
1
40
1
40
1
40
1
41
1
10
-1.31543506509498
20
4.38399907131387
30
0
41
1
10
-1.27895665006202
20
4.61185009663366
30
0
41
1
10
-1.20137909449514
20
4.94867321839063
30
0
41
1
10
-1.06624522989727
20
5.38816877914464
30
0
41
1
10
-0.944921859647112
20
5.65155779267696
30
0
41
1
10
-0.820409978884582
20
5.82866609219688
30
0
41
1
10
-0.725490807836915
20
5.91406164622855
30
0
41
1
10
-0.636684202623266
20
5.95489055331495
30
0
41
1
10
-0.558950086756
20
5.96168033662422
30
0
41
1
10
-0.476959378105457
20
5.93941683609414
30
0
41
1
10
-0.374371025758006
20
5.87154535722608
30
0
41
1
10
-0.2788583979745
20
5.74886197058725
30
0
41
1
10
-0.218510257469896
20
5.64665493162712
30
0
41
1
10
-0.194976888875292
20
5.59486670063108
30
0
0
SPLINE
5
1CC
100
AcDbEntity
8
SK1
62
256
6
ByLayer
370
18
48
1
60
0
100
AcDbSpline
70
4
71
2
72
6
73
3
40
0
40
0
40
0
40
1
40
1
40
1
41
1
10
-46.5
20
-26.394212124955
30
0
41
1
10
-24.2499999944402
20
-26.952715334999
30
0
41
1
10
-2
20
-27.5112150367565
30
0
0
SPLINE
5
1CD
100
AcDbEntity
8
SK1
62
256
6
ByLayer
370
18
48
1
60
0
100
AcDbSpline
70
4
71
2
72
6
73
3
40
0
40
0
40
0
40
1
40
1
40
1
41
1
10
-2
20
27.5112149532762
30
0
41
1
10
-24.2499999944407
20
26.9527152505114
30
0
41
1
10
-46.5
20
26.3942120396769
30
0
0
SPLINE
5
1CE
100
AcDbEntity
8
SK1
62
256
6
ByLayer
370
18
48
1
60
0
100
AcDbSpline
70
4
71
3
72
13
73
9
40
0
40
0
40
0
40
0
40
0.239404237444287
40
0.36829093522726
40
0.499924386713466
40
0.631570377730932
40
0.760491679444806
40
1
40
1
40
1
40
1
41
1
10
-2
20
-27.5251040814075
30
0
41
1
10
-1.99909118353403
20
-27.4990573435654
30
0
41
1
10
-1.99103204131601
20
-27.4617007168947
30
0
41
1
10
-1.96563486157077
20
-27.4155034456482
30
0
41
1
10
-1.93886237725951
20
-27.3842363671185
30
0
41
1
10
-1.90627560879
20
-27.3590808959353
30
0
41
1
10
-1.85883853102165
20
-27.3360479605508
30
0
41
1
10
-1.82110920461694
20
-27.329878461637
30
0
41
1
10
-1.7950399779393
20
-27.3302805958679
30
0
0
SPLINE
5
1CF
100
AcDbEntity
8
SK1
62
256
6
ByLayer
370
18
48
1
60
0
100
AcDbSpline
70
4
71
3
72
13
73
9
40
0
40
0
40
0
40
0
40
0.254381975481603
40
0.391309391341557
40
0.531130701844089
40
0.670938694090938
40
0.807829357062308
40
1
40
1
40
1
40
1
41
1
10
-1.7950399779393
20
27.3302805930529
30
0
41
1
10
-1.82110920461648
20
27.3298784588218
30
0
41
1
10
-1.85883841967206
20
27.3360476820692
30
0
41
1
10
-1.90627581128067
20
27.3590813944149
30
0
41
1
10
-1.93886159135564
20
27.3842344186371
30
0
41
1
10
-1.96563776964737
20
27.4155106422798
30
0
41
1
10
-1.98804925040449
20
27.4562668929218
30
0
41
1
10
-1.99630190402027
20
27.4873739846874
30
0
41
1
10
-1.99867431701415
20
27.5066074789234
30
0
0
SPLINE
5
1D0
100
AcDbEntity
8
SK1
62
256
6
ByLayer
370
18
48
1
60
0
100
AcDbSpline
70
4
71
1
72
4
73
2
40
0
40
0
40
1
40
1
41
1
10
-1.99867431701415
20
27.5066074789234
30
0
41
1
10
-2
20
27.5251040785232
30
0
0
SPLINE
5
1D1
100
AcDbEntity
8
SK1
62
256
6
ByLayer
370
18
48
1
60
0
100
AcDbSpline
70
4
71
3
72
16
73
12
40
0
40
0
40
0
40
0
40
0.178207137373739
40
0.268493794667233
40
0.35876339185006
40
0.448113296168023
40
0.537457198575903
40
0.629126702287974
40
0.720814988356587
40
0.859857691927022
40
1
40
1
40
1
40
1
41
1
10
-1.31543506509498
20
-4.38400264074457
30
0
41
1
10
-1.40665535548262
20
-3.88349121622109
30
0
41
1
10
-1.52493085547611
20
-3.11767179249471
30
0
41
1
10
-1.64849525796376
20
-2.06987741307127
30
0
41
1
10
-1.71577582201635
20
-1.2709852605425
30
0
41
1
10
-1.75205518872623
20
-0.467031350821477
30
0
41
1
10
-1.75529319755501
20
0.34422491053244
30
0
41
1
10
-1.72274392448593
20
1.16015508625462
30
0
41
1
10
-1.64698290664896
20
2.11587819772588
30
0
41
1
10
-1.51307078970782
20
3.19728765529858
30
0
41
1
10
-1.38672237214732
20
3.99062662151239
30
0
41
1
10
-1.31543506509471
20
4.38399907131379
30
0
0
SPLINE
5
1D2
100
AcDbEntity
8
SK1
62
256
6
ByLayer
370
18
48
1
60
0
100
AcDbSpline
70
4
71
2
72
6
73
3
40
0
40
0
40
0
40
1
40
1
40
1
41
1
10
-1.7950399779393
20
-27.3302802805384
30
0
41
1
10
-0.996910846537403
20
-27.3503227678278
30
0
41
1
10
-0.198781715168956
20
-27.3703652560205
30
0
0
SPLINE
5
1D3
100
AcDbEntity
8
SK1
62
256
6
ByLayer
370
18
48
1
60
0
100
AcDbSpline
70
4
71
1
72
4
73
2
40
0
40
0
40
1
40
1
41
1
10
-0.198781715168956
20
-27.3703652560205
30
0
41
1
10
-0.194976888875294
20
-27.3704608021961
30
0
0
SPLINE
5
1D4
100
AcDbEntity
8
SK1
62
256
6
ByLayer
370
18
48
1
60
0
100
AcDbSpline
70
4
71
1
72
4
73
2
40
0
40
0
40
1
40
1
41
1
10
-0.194976888875294
20
27.3704607993535
30
0
41
1
10
-0.198781404681507
20
27.3703652609749
30
0
0
SPLINE
5
1D5
100
AcDbEntity
8
SK1
62
256
6
ByLayer
370
18
48
1
60
0
100
AcDbSpline
70
4
71
2
72
6
73
3
40
0
40
0
40
0
40
1
40
1
40
1
41
1
10
-0.198781404681507
20
27.3703652609749
30
0
41
1
10
-0.996910691293679
20
27.3503227688908
30
0
41
1
10
-1.7950399779393
20
27.3302802777101
30
0
0
SPLINE
5
1D6
100
AcDbEntity
8
SK1
62
256
6
ByLayer
370
18
48
1
60
0
100
AcDbSpline
70
4
71
2
72
6
73
3
40
0
40
0
40
0
40
1
40
1
40
1
41
1
10
-0.194976888875294
20
-27.3704560263776
30
0
41
1
10
-0.0158835701384905
20
-27.3911039656939
30
0
41
1
10
0
20
-27.5605398197733
30
0
0
SPLINE
5
1D7
100
AcDbEntity
8
1
62
256
6
ByLayer
370
18
48
1
60
0
100
AcDbSpline
70
4
71
1
72
4
73
2
40
0
40
0
40
1
40
1
41
1
10
0
20
27.560544023175
30
0
41
1
10
-0.0009797382477582
20
27.5420613020385
30
0
0
SPLINE
5
1D8
100
AcDbEntity
8
SK1
62
256
6
ByLayer
370
18
48
1
60
0
100
AcDbSpline
70
4
71
2
72
6
73
3
40
0
40
0
40
0
40
1
40
1
40
1
41
1
10
-0.0009797382477582
20
27.5420613020385
30
0
41
1
10
-0.0293008439344142
20
27.3873444734268
30
0
41
1
10
-0.194976888875294
20
27.3704560266407
30
0
0
SPLINE
5
1D9
100
AcDbEntity
8
SK1
62
256
6
ByLayer
370
18
48
1
60
0
100
AcDbSpline
70
4
71
2
72
6
73
3
40
0
40
0
40
0
40
1
40
1
40
1
41
1
10
-48
20
-25.5419663287411
30
0
41
1
10
-47.2499999132885
20
-25.9747784724424
30
0
41
1
10
-46.5
20
-26.4075907397313
30
0
0
SPLINE
5
1DA
100
AcDbEntity
8
SK1
62
256
6
ByLayer
370
18
48
1
60
0
100
AcDbSpline
70
4
71
1
72
4
73
2
40
0
40
0
40
1
40
1
41
1
10
-46.5
20
26.4075907442629
30
0
41
1
10
-46.5143836075488
20
26.3992902076335
30
0
0
SPLINE
5
1DB
100
AcDbEntity
8
SK1
62
256
6
ByLayer
370
18
48
1
60
0
100
AcDbSpline
70
4
71
2
72
6
73
3
40
0
40
0
40
0
40
1
40
1
40
1
41
1
10
-46.5143836075488
20
26.3992902076335
30
0
41
1
10
-47.2571917187136
20
25.9706282100947
30
0
41
1
10
-48
20
25.5419663338579
30
0
0
LINE
5
72
100
AcDbEntity
8
81
62
256
6
ByLayer
370
18
48
1
60
0
100
AcDbLine
10
608
20
20
30
0
11
668.8
21
20
31
0
39
0
210
0
220
0
230
1
0
LINE
5
73
100
AcDbEntity
8
4
62
256
6
ByLayer
370
18
48
0.05
60
0
100
AcDbLine
10
0
20
0
30
0
11
608
21
0
31
0
39
0
210
0
220
0
230
1
0
LINE
5
75
100
AcDbEntity
8
SK4
62
256
6
ByLayer
370
18
48
0.05
60
0
100
AcDbLine
10
-5
20
0
30
0
11
613
21
0
31
0
39
0
210
0
220
0
230
1
0
LINE
5
77
100
AcDbEntity
8
80
62
256
6
ByLayer
370
18
48
1
60
0
100
AcDbLine
10
0
20
0
30
0
11
-60.8
21
0
31
0
39
0
210
0
220
0
230
1
0
LINE
5
78
100
AcDbEntity
8
1
62
256
6
ByLayer
370
18
48
1
60
0
100
AcDbLine
10
602.25
20
-40
30
0
11
604.75
21
-40
31
0
39
0
210
0
220
0
230
1
0
LINE
5
7A
100
AcDbEntity
8
1
62
256
6
ByLayer
370
18
48
1
60
0
100
AcDbLine
10
604.75
20
40
30
0
11
602.25
21
40
31
0
39
0
210
0
220
0
230
1
0
LINE
5
7B
100
AcDbEntity
8
1
62
256
6
ByLayer
370
18
48
1
60
0
100
AcDbLine
10
607.325
20
40
30
0
11
604.75
21
40
31
0
39
0
210
0
220
0
230
1
0
LINE
5
7C
100
AcDbEntity
8
1
62
256
6
ByLayer
370
18
48
1
60
0
100
AcDbLine
10
605.5
20
6.885246
30
0
11
607.325
21
6.885246
31
0
39
0
210
0
220
0
230
1
0
LINE
5
7D
100
AcDbEntity
8
1
62
256
6
ByLayer
370
18
48
1
60
0
100
AcDbLine
10
604.75
20
-40
30
0
11
607.325
21
-40
31
0
39
0
210
0
220
0
230
1
0
LINE
5
7E
100
AcDbEntity
8
1
62
256
6
ByLayer
370
18
48
1
60
0
100
AcDbLine
10
605.5
20
-6.885246
30
0
11
607.325
21
-6.885246
31
0
39
0
210
0
220
0
230
1
0
LINE
5
7F
100
AcDbEntity
8
1
62
256
6
ByLayer
370
18
48
1
60
0
100
AcDbLine
10
607.325
20
-40
30
0
11
607.556678
21
-39.768322
31
0
39
0
210
0
220
0
230
1
0
LINE
5
80
100
AcDbEntity
8
1
62
256
6
ByLayer
370
18
48
1
60
0
100
AcDbLine
10
607.575582
20
-7.049562
30
0
11
607.325
21
-6.885246
31
0
39
0
210
0
220
0
230
1
0
LINE
5
81
100
AcDbEntity
8
1
62
256
6
ByLayer
370
18
48
1
60
0
100
AcDbLine
10
607.556678
20
39.768322
30
0
11
607.325
21
40
31
0
39
0
210
0
220
0
230
1
0
LINE
5
82
100
AcDbEntity
8
1
62
256
6
ByLayer
370
18
48
1
60
0
100
AcDbLine
10
607.325
20
6.885246
30
0
11
607.575582
21
7.049562
31
0
39
0
210
0
220
0
230
1
0
LINE
5
83
100
AcDbEntity
8
1
62
256
6
ByLayer
370
18
48
1
60
0
100
AcDbLine
10
607.65725
20
-23.66688
30
0
11
607.65725
21
-16.33312
31
0
39
0
210
0
220
0
230
1
0
LINE
5
84
100
AcDbEntity
8
1
62
256
6
ByLayer
370
18
48
1
60
0
100
AcDbLine
10
607.65725
20
16.33312
30
0
11
607.65725
21
23.66688
31
0
39
0
210
0
220
0
230
1
0
LINE
5
85
100
AcDbEntity
8
1
62
256
6
ByLayer
370
18
48
1
60
0
100
AcDbLine
10
608.325
20
18.458593
30
0
11
608.325
21
21.541407
31
0
39
0
210
0
220
0
230
1
0
LINE
5
86
100
AcDbEntity
8
1
62
256
6
ByLayer
370
18
48
1
60
0
100
AcDbLine
10
607.65725
20
-28.316532
30
0
11
607.65725
21
-27.510882
31
0
39
0
210
0
220
0
230
1
0
LINE
5
87
100
AcDbEntity
8
1
62
256
6
ByLayer
370
18
48
1
60
0
100
AcDbLine
10
607.65725
20
-12.489118
30
0
11
607.65725
21
-11.683468
31
0
39
0
210
0
220
0
230
1
0
LINE
5
88
100
AcDbEntity
8
1
62
256
6
ByLayer
370
18
48
1
60
0
100
AcDbLine
10
607.65725
20
11.683468
30
0
11
607.65725
21
12.489118
31
0
39
0
210
0
220
0
230
1
0
LINE
5
89
100
AcDbEntity
8
1
62
256
6
ByLayer
370
18
48
1
60
0
100
AcDbLine
10
607.65725
20
27.510882
30
0
11
607.65725
21
28.316532
31
0
39
0
210
0
220
0
230
1
0
LINE
5
8A
100
AcDbEntity
8
1
62
256
6
ByLayer
370
18
48
1
60
0
100
AcDbLine
10
608.325
20
12.454269
30
0
11
608.325
21
15.946748
31
0
39
0
210
0
220
0
230
1
0
LINE
5
8B
100
AcDbEntity
8
1
62
256
6
ByLayer
370
18
48
1
60
0
100
AcDbLine
10
608.325
20
24.053252
30
0
11
608.325
21
27.545731
31
0
39
0
210
0
220
0
230
1
0
LINE
5
8C
100
AcDbEntity
8
1
62
256
6
ByLayer
370
18
48
1
60
0
100
AcDbLine
10
607.65725
20
9.028063
30
0
11
607.65725
21
9.574327
31
0
39
0
210
0
220
0
230
1
0
LINE
5
8D
100
AcDbEntity
8
1
62
256
6
ByLayer
370
18
48
1
60
0
100
AcDbLine
10
607.65725
20
30.425673
30
0
11
607.65725
21
30.971937
31
0
39
0
210
0
220
0
230
1
0
LINE
5
8E
100
AcDbEntity
8
1
62
256
6
ByLayer
370
18
48
1
60
0
100
AcDbLine
10
607.65725
20
-30.971937
30
0
11
607.65725
21
-30.425673
31
0
39
0
210
0
220
0
230
1
0
LINE
5
8F
100
AcDbEntity
8
1
62
256
6
ByLayer
370
18
48
1
60
0
100
AcDbLine
10
607.65725
20
-9.574327
30
0
11
607.65725
21
-9.028063
31
0
39
0
210
0
220
0
230
1
0
LINE
5
90
100
AcDbEntity
8
1
62
256
6
ByLayer
370
18
48
1
60
0
100
AcDbLine
10
608.325
20
9.655911
30
0
11
608.325
21
11.641368
31
0
39
0
210
0
220
0
230
1
0
LINE
5
91
100
AcDbEntity
8
1
62
256
6
ByLayer
370
18
48
1
60
0
100
AcDbLine
10
608.325
20
28.358632
30
0
11
608.325
21
30.344089
31
0
39
0
210
0
220
0
230
1
0
LINE
5
92
100
AcDbEntity
8
1
62
256
6
ByLayer
370
18
48
1
60
0
100
AcDbLine
10
607.65725
20
-32.926797
30
0
11
607.65725
21
-32.509035
31
0
39
0
210
0
220
0
230
1
0
LINE
5
93
100
AcDbEntity
8
1
62
256
6
ByLayer
370
18
48
1
60
0
100
AcDbLine
10
607.65725
20
-7.490965
30
0
11
607.65725
21
-7.07303
31
0
39
0
210
0
220
0
230
1
0
LINE
5
94
100
AcDbEntity
8
1
62
256
6
ByLayer
370
18
48
1
60
0
100
AcDbLine
10
607.65725
20
7.07303
30
0
11
607.65725
21
7.490965
31
0
39
0
210
0
220
0
230
1
0
LINE
5
95
100
AcDbEntity
8
1
62
256
6
ByLayer
370
18
48
1
60
0
100
AcDbLine
10
607.65725
20
32.509035
30
0
11
607.65725
21
32.926797
31
0
39
0
210
0
220
0
230
1
0
LINE
5
96
100
AcDbEntity
8
1
62
256
6
ByLayer
370
18
48
1
60
0
100
AcDbLine
10
607.803799
20
7.199213
30
0
11
608.325
21
7.540984
31
0
39
0
210
0
220
0
230
1
0
LINE
5
97
100
AcDbEntity
8
1
62
256
6
ByLayer
370
18
48
1
60
0
100
AcDbLine
10
608.325
20
-7.540984
30
0
11
607.803799
21
-7.199213
31
0
39
0
210
0
220
0
230
1
0
LINE
5
98
100
AcDbEntity
8
1
62
256
6
ByLayer
370
18
48
1
60
0
100
AcDbLine
10
608.325
20
7.648389
30
0
11
608.325
21
9.100247
31
0
39
0
210
0
220
0
230
1
0
LINE
5
99
100
AcDbEntity
8
1
62
256
6
ByLayer
370
18
48
1
60
0
100
AcDbLine
10
608.325
20
30.899753
30
0
11
608.325
21
32.351611
31
0
39
0
210
0
220
0
230
1
0
LINE
5
9A
100
AcDbEntity
8
1
62
256
6
ByLayer
370
18
48
1
60
0
100
AcDbLine
10
607.65725
20
-34.467923
30
0
11
607.65725
21
-34.133551
31
0
39
0
210
0
220
0
230
1
0
LINE
5
9B
100
AcDbEntity
8
1
62
256
6
ByLayer
370
18
48
1
60
0
100
AcDbLine
10
607.65725
20
-5.469378
30
0
11
607.65725
21
-4.813001
31
0
39
0
210
0
220
0
230
1
0
LINE
5
9C
100
AcDbEntity
8
1
62
256
6
ByLayer
370
18
48
1
60
0
100
AcDbLine
10
607.65725
20
4.813001
30
0
11
607.65725
21
5.469378
31
0
39
0
210
0
220
0
230
1
0
LINE
5
9D
100
AcDbEntity
8
1
62
256
6
ByLayer
370
18
48
1
60
0
100
AcDbLine
10
607.65725
20
34.133551
30
0
11
607.65725
21
34.467923
31
0
39
0
210
0
220
0
230
1
0
LINE
5
9E
100
AcDbEntity
8
1
62
256
6
ByLayer
370
18
48
1
60
0
100
AcDbLine
10
608.325
20
32.776639
30
0
11
608.325
21
33.914899
31
0
39
0
210
0
220
0
230
1
0
LINE
5
9F
100
AcDbEntity
8
1
62
256
6
ByLayer
370
18
48
1
60
0
100
AcDbLine
10
608.325
20
5.51781
30
0
11
608.325
21
7.203277
31
0
39
0
210
0
220
0
230
1
0
LINE
5
A0
100
AcDbEntity
8
1
62
256
6
ByLayer
370
18
48
1
60
0
100
AcDbLine
10
607.65725
20
35.444694
30
0
11
607.65725
21
35.71749
31
0
39
0
210
0
220
0
230
1
0
LINE
5
A1
100
AcDbEntity
8
1
62
256
6
ByLayer
370
18
48
1
60
0
100
AcDbLine
10
607.65725
20
-35.71749
30
0
11
607.65725
21
-35.444694
31
0
39
0
210
0
220
0
230
1
0
LINE
5
A2
100
AcDbEntity
8
1
62
256
6
ByLayer
370
18
48
1
60
0
100
AcDbLine
10
608.325
20
-4.769026
30
0
11
608.325
21
-4.206441
31
0
39
0
210
0
220
0
230
1
0
LINE
5
A3
100
AcDbEntity
8
1
62
256
6
ByLayer
370
18
48
1
60
0
100
AcDbLine
10
608.325
20
-4.206441
30
0
11
608.325
21
4.769026
31
0
39
0
210
0
220
0
230
1
0
LINE
5
A4
100
AcDbEntity
8
1
62
256
6
ByLayer
370
18
48
1
60
0
100
AcDbLine
10
608.325
20
34.254136
30
0
11
608.325
21
35.171899
31
0
39
0
210
0
220
0
230
1
0
LINE
5
A5
100
AcDbEntity
8
1
62
256
6
ByLayer
370
18
48
1
60
0
100
AcDbLine
10
607.65725
20
36.51726
30
0
11
607.65725
21
36.740913
31
0
39
0
210
0
220
0
230
1
0
LINE
5
A6
100
AcDbEntity
8
1
62
256
6
ByLayer
370
18
48
1
60
0
100
AcDbLine
10
607.65725
20
-36.740913
30
0
11
607.65725
21
-36.51726
31
0
39
0
210
0
220
0
230
1
0
LINE
5
A7
100
AcDbEntity
8
1
62
256
6
ByLayer
370
18
48
1
60
0
100
AcDbLine
10
608.325
20
35.447274
30
0
11
608.325
21
36.194093
31
0
39
0
210
0
220
0
230
1
0
LINE
5
A8
100
AcDbEntity
8
1
62
256
6
ByLayer
370
18
48
1
60
0
100
AcDbLine
10
607.65725
20
37.395436
30
0
11
607.65725
21
37.577738
31
0
39
0
210
0
220
0
230
1
0
LINE
5
A9
100
AcDbEntity
8
1
62
256
6
ByLayer
370
18
48
1
60
0
100
AcDbLine
10
607.65725
20
-37.577738
30
0
11
607.65725
21
-37.395436
31
0
39
0
210
0
220
0
230
1
0
LINE
5
AA
100
AcDbEntity
8
1
62
256
6
ByLayer
370
18
48
1
60
0
100
AcDbLine
10
608.325
20
36.418165
30
0
11
608.325
21
37.023829
31
0
39
0
210
0
220
0
230
1
0
LINE
5
AB
100
AcDbEntity
8
1
62
256
6
ByLayer
370
18
48
1
60
0
100
AcDbLine
10
607.65725
20
38.107526
30
0
11
607.65725
21
38.253645
31
0
39
0
210
0
220
0
230
1
0
LINE
5
AC
100
AcDbEntity
8
1
62
256
6
ByLayer
370
18
48
1
60
0
100
AcDbLine
10
607.65725
20
-38.253645
30
0
11
607.65725
21
-38.107526
31
0
39
0
210
0
220
0
230
1
0
LINE
5
AD
100
AcDbEntity
8
1
62
256
6
ByLayer
370
18
48
1
60
0
100
AcDbLine
10
608.325
20
37.204477
30
0
11
608.325
21
37.688213
31
0
39
0
210
0
220
0
230
1
0
LINE
5
AE
100
AcDbEntity
8
1
62
256
6
ByLayer
370
18
48
1
60
0
100
AcDbLine
10
607.65725
20
-38.786012
30
0
11
607.65725
21
-38.672541
31
0
39
0
210
0
220
0
230
1
0
LINE
5
AF
100
AcDbEntity
8
1
62
256
6
ByLayer
370
18
48
1
60
0
100
AcDbLine
10
607.65725
20
38.672541
30
0
11
607.65725
21
38.786012
31
0
39
0
210
0
220
0
230
1
0
LINE
5
B0
100
AcDbEntity
8
1
62
256
6
ByLayer
370
18
48
1
60
0
100
AcDbLine
10
608.325
20
37.830645
30
0
11
608.325
21
38.205356
31
0
39
0
210
0
220
0
230
1
0
LINE
5
B1
100
AcDbEntity
8
1
62
256
6
ByLayer
370
18
48
1
60
0
100
AcDbLine
10
607.65725
20
-39.186791
30
0
11
607.65725
21
-39.103536
31
0
39
0
210
0
220
0
230
1
0
LINE
5
B2
100
AcDbEntity
8
1
62
256
6
ByLayer
370
18
48
1
60
0
100
AcDbLine
10
607.65725
20
39.103536
30
0
11
607.65725
21
39.186791
31
0
39
0
210
0
220
0
230
1
0
LINE
5
B3
100
AcDbEntity
8
1
62
256
6
ByLayer
370
18
48
1
60
0
100
AcDbLine
10
608.325
20
38.313105
30
0
11
608.325
21
38.587552
31
0
39
0
210
0
220
0
230
1
0
LINE
5
B4
100
AcDbEntity
8
1
62
256
6
ByLayer
370
18
48
1
60
0
100
AcDbLine
10
607.65725
20
39.409441
30
0
11
607.65725
21
39.464112
31
0
39
0
210
0
220
0
230
1
0
LINE
5
B5
100
AcDbEntity
8
1
62
256
6
ByLayer
370
18
48
1
60
0
100
AcDbLine
10
607.65725
20
-39.464112
30
0
11
607.65725
21
-39.409441
31
0
39
0
210
0
220
0
230
1
0
LINE
5
B6
100
AcDbEntity
8
1
62
256
6
ByLayer
370
18
48
1
60
0
100
AcDbLine
10
608.325
20
38.663003
30
0
11
608.325
21
38.843015
31
0
39
0
210
0
220
0
230
1
0
LINE
5
B7
100
AcDbEntity
8
1
62
256
6
ByLayer
370
18
48
1
60
0
100
AcDbLine
10
607.65725
20
39.596115
30
0
11
607.65725
21
39.623209
31
0
39
0
210
0
220
0
230
1
0
LINE
5
B8
100
AcDbEntity
8
1
62
256
6
ByLayer
370
18
48
1
60
0
100
AcDbLine
10
607.65725
20
-39.623209
30
0
11
607.65725
21
-39.596115
31
0
39
0
210
0
220
0
230
1
0
LINE
5
B9
100
AcDbEntity
8
1
62
256
6
ByLayer
370
18
48
1
60
0
100
AcDbLine
10
608.325
20
38.887709
30
0
11
608.325
21
38.976863
31
0
39
0
210
0
220
0
230
1
0
LINE
5
BA
100
AcDbEntity
8
SK1
62
256
6
ByLayer
370
18
48
1
60
0
100
AcDbLine
10
619.325
20
-24.899495
30
0
11
613.325
21
-24.899495
31
0
39
0
210
0
220
0
230
1
0
LINE
5
BC
100
AcDbEntity
8
SK1
62
256
6
ByLayer
370
18
48
1
60
0
100
AcDbLine
10
613.325
20
-34.899495
30
0
11
619.325
21
-34.899495
31
0
39
0
210
0
220
0
230
1
0
LINE
5
BD
100
AcDbEntity
8
SK1
62
256
6
ByLayer
370
18
48
1
60
0
100
AcDbLine
10
619.325
20
-5.100505
30
0
11
613.325
21
-5.100505
31
0
39
0
210
0
220
0
230
1
0
LINE
5
BE
100
AcDbEntity
8
SK1
62
256
6
ByLayer
370
18
48
1
60
0
100
AcDbLine
10
613.325
20
-15.100505
30
0
11
619.325
21
-15.100505
31
0
39
0
210
0
220
0
230
1
0
LINE
5
BF
100
AcDbEntity
8
1
62
256
6
ByLayer
370
18
48
1
60
0
100
AcDbLine
10
0.3
20
40
30
0
11
0
21
39.7
31
0
39
0
210
0
220
0
230
1
0
LINE
5
C0
100
AcDbEntity
8
1
62
256
6
ByLayer
370
18
48
1
60
0
100
AcDbLine
10
0
20
-39.7
30
0
11
0.3
21
-40
31
0
39
0
210
0
220
0
230
1
0
LINE
5
C1
100
AcDbEntity
8
1
62
256
6
ByLayer
370
18
48
1
60
0
100
AcDbLine
10
601.7
20
40
30
0
11
0.3
21
40
31
0
39
0
210
0
220
0
230
1
0
LINE
5
C2
100
AcDbEntity
8
1
62
256
6
ByLayer
370
18
48
1
60
0
100
AcDbLine
10
0.3
20
-40
30
0
11
601.7
21
-40
31
0
39
0
210
0
220
0
230
1
0
LINE
5
C3
100
AcDbEntity
8
1
62
256
6
ByLayer
370
18
48
1
60
0
100
AcDbLine
10
13.461325
20
12.13309
30
0
11
10.538675
21
12.13309
31
0
39
0
210
0
220
0
230
1
0
LINE
5
C4
100
AcDbEntity
8
1
62
256
6
ByLayer
370
18
48
1
60
0
100
AcDbLine
10
10.538675
20
38.115458
30
0
11
13.461325
21
38.115458
31
0
39
0
210
0
220
0
230
1
0
LINE
5
C5
100
AcDbEntity
8
1
62
256
6
ByLayer
370
18
48
1
60
0
100
AcDbLine
10
13.461325
20
-38.115458
30
0
11
10.538675
21
-38.115458
31
0
39
0
210
0
220
0
230
1
0
LINE
5
C6
100
AcDbEntity
8
1
62
256
6
ByLayer
370
18
48
1
60
0
100
AcDbLine
10
10.538675
20
-12.13309
30
0
11
13.461325
21
-12.13309
31
0
39
0
210
0
220
0
230
1
0
LINE
5
C7
100
AcDbEntity
8
1
62
256
6
ByLayer
370
18
48
1
60
0
100
AcDbLine
10
10.538675
20
-38.115458
30
0
11
10.538675
21
-12.13309
31
0
39
0
210
0
220
0
230
1
0
LINE
5
C8
100
AcDbEntity
8
1
62
256
6
ByLayer
370
18
48
1
60
0
100
AcDbLine
10
10.105662
20
-37.944501
30
0
11
10.105662
21
-12.6576
31
0
39
0
210
0
220
0
230
1
0
LINE
5
C9
100
AcDbEntity
8
1
62
256
6
ByLayer
370
18
48
1
60
0
100
AcDbLine
10
13.894338
20
12.6576
30
0
11
13.894338
21
37.944501
31
0
39
0
210
0
220
0
230
1
0
LINE
5
CA
100
AcDbEntity
8
1
62
256
6
ByLayer
370
18
48
1
60
0
100
AcDbLine
10
13.461325
20
12.13309
30
0
11
13.461325
21
38.115458
31
0
39
0
210
0
220
0
230
1
0
LINE
5
CB
100
AcDbEntity
8
1
62
256
6
ByLayer
370
18
48
1
60
0
100
AcDbLine
10
10.538675
20
12.13309
30
0
11
10.538675
21
38.115458
31
0
39
0
210
0
220
0
230
1
0
LINE
5
CC
100
AcDbEntity
8
1
62
256
6
ByLayer
370
18
48
1
60
0
100
AcDbLine
10
10.105662
20
12.6576
30
0
11
10.105662
21
37.944501
31
0
39
0
210
0
220
0
230
1
0
LINE
5
CD
100
AcDbEntity
8
1
62
256
6
ByLayer
370
18
48
1
60
0
100
AcDbLine
10
13.894338
20
-37.944501
30
0
11
13.894338
21
-12.6576
31
0
39
0
210
0
220
0
230
1
0
LINE
5
CE
100
AcDbEntity
8
1
62
256
6
ByLayer
370
18
48
1
60
0
100
AcDbLine
10
13.461325
20
-38.115458
30
0
11
13.461325
21
-12.13309
31
0
39
0
210
0
220
0
230
1
0
LINE
5
CF
100
AcDbEntity
8
SK1
62
256
6
ByLayer
370
18
48
1
60
0
100
AcDbLine
10
619.325
20
34.899495
30
0
11
613.325
21
34.899495
31
0
39
0
210
0
220
0
230
1
0
LINE
5
D0
100
AcDbEntity
8
SK1
62
256
6
ByLayer
370
18
48
1
60
0
100
AcDbLine
10
613.325
20
24.899495
30
0
11
619.325
21
24.899495
31
0
39
0
210
0
220
0
230
1
0
LINE
5
D1
100
AcDbEntity
8
SK1
62
256
6
ByLayer
370
18
48
1
60
0
100
AcDbLine
10
613.325
20
32.899495
30
0
11
608.325
21
32.899495
31
0
39
0
210
0
220
0
230
1
0
LINE
5
D2
100
AcDbEntity
8
SK1
62
256
6
ByLayer
370
18
48
1
60
0
100
AcDbLine
10
608.325
20
26.899495
30
0
11
613.325
21
26.899495
31
0
39
0
210
0
220
0
230
1
0
LINE
5
D3
100
AcDbEntity
8
SK1
62
256
6
ByLayer
370
18
48
1
60
0
100
AcDbLine
10
619.325
20
15.100505
30
0
11
613.325
21
15.100505
31
0
39
0
210
0
220
0
230
1
0
LINE
5
D4
100
AcDbEntity
8
SK1
62
256
6
ByLayer
370
18
48
1
60
0
100
AcDbLine
10
613.325
20
5.100505
30
0
11
619.325
21
5.100505
31
0
39
0
210
0
220
0
230
1
0
LINE
5
D5
100
AcDbEntity
8
SK1
62
256
6
ByLayer
370
18
48
1
60
0
100
AcDbLine
10
613.325
20
13.100505
30
0
11
608.325
21
13.100505
31
0
39
0
210
0
220
0
230
1
0
LINE
5
D6
100
AcDbEntity
8
SK1
62
256
6
ByLayer
370
18
48
1
60
0
100
AcDbLine
10
608.325
20
7.100505
30
0
11
613.325
21
7.100505
31
0
39
0
210
0
220
0
230
1
0
LINE
5
D7
100
AcDbEntity
8
SK1
62
256
6
ByLayer
370
18
48
1
60
0
100
AcDbLine
10
608.825
20
0
30
0
11
608.325
21
-0.5
31
0
39
0
210
0
220
0
230
1
0
LINE
5
D8
100
AcDbEntity
8
SK1
62
256
6
ByLayer
370
18
48
1
60
0
100
AcDbLine
10
608.325
20
-39.5
30
0
11
608.825
21
-40
31
0
39
0
210
0
220
0
230
1
0
LINE
5
D9
100
AcDbEntity
8
SK1
62
256
6
ByLayer
370
18
48
1
60
0
100
AcDbLine
10
608.825
20
-40
30
0
11
612.825
21
-40
31
0
39
0
210
0
220
0
230
1
0
LINE
5
DA
100
AcDbEntity
8
SK1
62
256
6
ByLayer
370
18
48
1
60
0
100
AcDbLine
10
612.825
20
0
30
0
11
608.825
21
0
31
0
39
0
210
0
220
0
230
1
0
LINE
5
DB
100
AcDbEntity
8
SK1
62
256
6
ByLayer
370
18
48
1
60
0
100
AcDbLine
10
612.825
20
-40
30
0
11
613.325
21
-39.5
31
0
39
0
210
0
220
0
230
1
0
LINE
5
DC
100
AcDbEntity
8
SK1
62
256
6
ByLayer
370
18
48
1
60
0
100
AcDbLine
10
613.325
20
-0.5
30
0
11
612.825
21
0
31
0
39
0
210
0
220
0
230
1
0
LINE
5
DD
100
AcDbEntity
8
1
62
256
6
ByLayer
370
18
48
1
60
0
100
AcDbLine
10
604.75
20
39.75
30
0
11
604.75
21
40
31
0
39
0
210
0
220
0
230
1
0
LINE
5
DE
100
AcDbEntity
8
1
62
256
6
ByLayer
370
18
48
1
60
0
100
AcDbLine
10
605
20
38.995313
30
0
11
605
21
-38.995313
31
0
39
0
210
0
220
0
230
1
0
LINE
5
DF
100
AcDbEntity
8
1
62
256
6
ByLayer
370
18
48
1
60
0
100
AcDbLine
10
604.75
20
-40
30
0
11
604.75
21
39.75
31
0
39
0
210
0
220
0
230
1
0
LINE
5
E0
100
AcDbEntity
8
1
62
256
6
ByLayer
370
18
48
1
60
0
100
AcDbLine
10
602
20
-39.75
30
0
11
602
21
39.75
31
0
39
0
210
0
220
0
230
1
0
LINE
5
E1
100
AcDbEntity
8
1
62
256
6
ByLayer
370
18
48
1
60
0
100
AcDbLine
10
602.25
20
40
30
0
11
602.25
21
-40
31
0
39
0
210
0
220
0
230
1
0
LINE
5
E2
100
AcDbEntity
8
1
62
256
6
ByLayer
370
18
48
1
60
0
100
AcDbLine
10
605.5
20
-6.885246
30
0
11
605.5
21
-38.532012
31
0
39
0
210
0
220
0
230
1
0
LINE
5
E3
100
AcDbEntity
8
1
62
256
6
ByLayer
370
18
48
1
60
0
100
AcDbLine
10
605.5
20
38.532012
30
0
11
605.5
21
6.885246
31
0
39
0
210
0
220
0
230
1
0
LINE
5
E4
100
AcDbEntity
8
1
62
256
6
ByLayer
370
18
48
1
60
0
100
AcDbLine
10
607.325
20
6.885246
30
0
11
607.325
21
40
31
0
39
0
210
0
220
0
230
1
0
LINE
5
E5
100
AcDbEntity
8
1
62
256
6
ByLayer
370
18
48
1
60
0
100
AcDbLine
10
607.325
20
-40
30
0
11
607.325
21
-6.885246
31
0
39
0
210
0
220
0
230
1
0
LINE
5
E6
100
AcDbEntity
8
1
62
256
6
ByLayer
370
18
48
1
60
0
100
AcDbLine
10
608.325
20
12.454269
30
0
11
608.325
21
11.641368
31
0
39
0
210
0
220
0
230
1
0
LINE
5
E7
100
AcDbEntity
8
1
62
256
6
ByLayer
370
18
48
1
60
0
100
AcDbLine
10
608.325
20
9.655911
30
0
11
608.325
21
9.100247
31
0
39
0
210
0
220
0
230
1
0
LINE
5
E8
100
AcDbEntity
8
1
62
256
6
ByLayer
370
18
48
1
60
0
100
AcDbLine
10
608.325
20
38.991668
30
0
11
608.325
21
38.976863
31
0
39
0
210
0
220
0
230
1
0
LINE
5
E9
100
AcDbEntity
8
1
62
256
6
ByLayer
370
18
48
1
60
0
100
AcDbLine
10
608.325
20
38.887709
30
0
11
608.325
21
38.843015
31
0
39
0
210
0
220
0
230
1
0
LINE
5
EA
100
AcDbEntity
8
1
62
256
6
ByLayer
370
18
48
1
60
0
100
AcDbLine
10
608.325
20
38.663003
30
0
11
608.325
21
38.587552
31
0
39
0
210
0
220
0
230
1
0
LINE
5
EB
100
AcDbEntity
8
1
62
256
6
ByLayer
370
18
48
1
60
0
100
AcDbLine
10
608.325
20
38.313105
30
0
11
608.325
21
38.205356
31
0
39
0
210
0
220
0
230
1
0
LINE
5
EC
100
AcDbEntity
8
1
62
256
6
ByLayer
370
18
48
1
60
0
100
AcDbLine
10
608.325
20
37.830645
30
0
11
608.325
21
37.688213
31
0
39
0
210
0
220
0
230
1
0
LINE
5
ED
100
AcDbEntity
8
1
62
256
6
ByLayer
370
18
48
1
60
0
100
AcDbLine
10
608.325
20
37.204477
30
0
11
608.325
21
37.023829
31
0
39
0
210
0
220
0
230
1
0
LINE
5
EE
100
AcDbEntity
8
1
62
256
6
ByLayer
370
18
48
1
60
0
100
AcDbLine
10
608.325
20
36.418165
30
0
11
608.325
21
36.194093
31
0
39
0
210
0
220
0
230
1
0
LINE
5
EF
100
AcDbEntity
8
1
62
256
6
ByLayer
370
18
48
1
60
0
100
AcDbLine
10
608.325
20
35.447274
30
0
11
608.325
21
35.171899
31
0
39
0
210
0
220
0
230
1
0
LINE
5
F0
100
AcDbEntity
8
1
62
256
6
ByLayer
370
18
48
1
60
0
100
AcDbLine
10
608.325
20
34.254136
30
0
11
608.325
21
33.914899
31
0
39
0
210
0
220
0
230
1
0
LINE
5
F1
100
AcDbEntity
8
1
62
256
6
ByLayer
370
18
48
1
60
0
100
AcDbLine
10
608.325
20
32.776639
30
0
11
608.325
21
32.351611
31
0
39
0
210
0
220
0
230
1
0
LINE
5
F2
100
AcDbEntity
8
1
62
256
6
ByLayer
370
18
48
1
60
0
100
AcDbLine
10
608.325
20
30.899753
30
0
11
608.325
21
30.344089
31
0
39
0
210
0
220
0
230
1
0
LINE
5
F3
100
AcDbEntity
8
1
62
256
6
ByLayer
370
18
48
1
60
0
100
AcDbLine
10
608.325
20
28.358632
30
0
11
608.325
21
27.545731
31
0
39
0
210
0
220
0
230
1
0
LINE
5
F4
100
AcDbEntity
8
1
62
256
6
ByLayer
370
18
48
1
60
0
100
AcDbLine
10
608.325
20
24.053252
30
0
11
608.325
21
21.541407
31
0
39
0
210
0
220
0
230
1
0
LINE
5
F5
100
AcDbEntity
8
1
62
256
6
ByLayer
370
18
48
1
60
0
100
AcDbLine
10
608.325
20
18.458593
30
0
11
608.325
21
15.946748
31
0
39
0
210
0
220
0
230
1
0
LINE
5
F6
100
AcDbEntity
8
1
62
256
6
ByLayer
370
18
48
1
60
0
100
AcDbLine
10
605.5
20
6.885246
30
0
11
605.5
21
-6.885246
31
0
39
0
210
0
220
0
230
1
0
LINE
5
F7
100
AcDbEntity
8
1
62
256
6
ByLayer
370
18
48
1
60
0
100
AcDbLine
10
607.325
20
-6.885246
30
0
11
607.325
21
6.885246
31
0
39
0
210
0
220
0
230
1
0
LINE
5
F8
100
AcDbEntity
8
1
62
256
6
ByLayer
370
18
48
1
60
0
100
AcDbLine
10
608.325
20
7.540984
30
0
11
608.325
21
7.203277
31
0
39
0
210
0
220
0
230
1
0
LINE
5
F9
100
AcDbEntity
8
1
62
256
6
ByLayer
370
18
48
1
60
0
100
AcDbLine
10
608.325
20
5.51781
30
0
11
608.325
21
4.769026
31
0
39
0
210
0
220
0
230
1
0
LINE
5
FA
100
AcDbEntity
8
1
62
256
6
ByLayer
370
18
48
1
60
0
100
AcDbLine
10
608.325
20
-4.769026
30
0
11
608.325
21
-5.314034
31
0
39
0
210
0
220
0
230
1
0
LINE
5
FB
100
AcDbEntity
8
1
62
256
6
ByLayer
370
18
48
1
60
0
100
AcDbLine
10
608.325
20
-5.314034
30
0
11
608.325
21
-5.51781
31
0
39
0
210
0
220
0
230
1
0
LINE
5
FC
100
AcDbEntity
8
1
62
256
6
ByLayer
370
18
48
1
60
0
100
AcDbLine
10
608.325
20
7.648389
30
0
11
608.325
21
7.540984
31
0
39
0
210
0
220
0
230
1
0
LINE
5
FD
100
AcDbEntity
8
SK1
62
256
6
ByLayer
370
18
48
1
60
0
100
AcDbLine
10
619.325
20
-24.899495
30
0
11
619.325
21
-34.899495
31
0
39
0
210
0
220
0
230
1
0
LINE
5
FE
100
AcDbEntity
8
SK1
62
256
6
ByLayer
370
18
48
1
60
0
100
AcDbLine
10
619.325
20
-5.100505
30
0
11
619.325
21
-15.100505
31
0
39
0
210
0
220
0
230
1
0
LINE
5
FF
100
AcDbEntity
8
1
62
256
6
ByLayer
370
18
48
1
60
0
100
AcDbLine
10
0
20
-39.7
30
0
11
0
21
0
31
0
39
0
210
0
220
0
230
1
0
LINE
5
100
100
AcDbEntity
8
1
62
256
6
ByLayer
370
18
48
1
60
0
100
AcDbLine
10
0.3
20
-40
30
0
11
0.3
21
0
31
0
39
0
210
0
220
0
230
1
0
LINE
5
101
100
AcDbEntity
8
1
62
256
6
ByLayer
370
18
48
1
60
0
100
AcDbLine
10
0
20
0
30
0
11
0
21
39.7
31
0
39
0
210
0
220
0
230
1
0
LINE
5
102
100
AcDbEntity
8
1
62
256
6
ByLayer
370
18
48
1
60
0
100
AcDbLine
10
0.3
20
0
30
0
11
0.3
21
40
31
0
39
0
210
0
220
0
230
1
0
LINE
5
103
100
AcDbEntity
8
1
62
256
6
ByLayer
370
18
48
1
60
0
100
AcDbLine
10
601.7
20
-40
30
0
11
601.7
21
0
31
0
39
0
210
0
220
0
230
1
0
LINE
5
104
100
AcDbEntity
8
1
62
256
6
ByLayer
370
18
48
1
60
0
100
AcDbLine
10
601.7
20
0
30
0
11
601.7
21
40
31
0
39
0
210
0
220
0
230
1
0
LINE
5
105
100
AcDbEntity
8
SK1
62
256
6
ByLayer
370
18
48
1
60
0
100
AcDbLine
10
-1.315435
20
-4.384003
30
0
11
-1.315435
21
4.383999
31
0
39
0
210
0
220
0
230
1
0
LINE
5
106
100
AcDbEntity
8
SK1
62
256
6
ByLayer
370
18
48
1
60
0
100
AcDbLine
10
619.325
20
34.899495
30
0
11
619.325
21
24.899495
31
0
39
0
210
0
220
0
230
1
0
LINE
5
107
100
AcDbEntity
8
SK1
62
256
6
ByLayer
370
18
48
1
60
0
100
AcDbLine
10
613.325
20
34.899495
30
0
11
613.325
21
24.899495
31
0
39
0
210
0
220
0
230
1
0
LINE
5
108
100
AcDbEntity
8
SK1
62
256
6
ByLayer
370
18
48
1
60
0
100
AcDbLine
10
613.325
20
15.100505
30
0
11
613.325
21
5.100505
31
0
39
0
210
0
220
0
230
1
0
LINE
5
109
100
AcDbEntity
8
SK1
62
256
6
ByLayer
370
18
48
1
60
0
100
AcDbLine
10
619.325
20
15.100505
30
0
11
619.325
21
5.100505
31
0
39
0
210
0
220
0
230
1
0
LINE
5
10A
100
AcDbEntity
8
1
62
256
6
ByLayer
370
18
48
1
60
0
100
AcDbLine
10
608.325
20
-39.5
30
0
11
608.325
21
-20
31
0
39
0
210
0
220
0
230
1
0
LINE
5
10B
100
AcDbEntity
8
SK1
62
256
6
ByLayer
370
18
48
1
60
0
100
AcDbLine
10
608.825
20
-40
30
0
11
608.825
21
-20
31
0
39
0
210
0
220
0
230
1
0
LINE
5
10C
100
AcDbEntity
8
1
62
256
6
ByLayer
370
18
48
1
60
0
100
AcDbLine
10
608.325
20
-20
30
0
11
608.325
21
-5.314034
31
0
39
0
210
0
220
0
230
1
0
LINE
5
10D
100
AcDbEntity
8
1
62
256
6
ByLayer
370
18
48
1
60
0
100
AcDbLine
10
608.325
20
-5.314034
30
0
11
608.325
21
-4.769026
31
0
39
0
210
0
220
0
230
1
0
LINE
5
10E
100
AcDbEntity
8
1
62
256
6
ByLayer
370
18
48
1
60
0
100
AcDbLine
10
608.325
20
-4.769026
30
0
11
608.325
21
-4.206441
31
0
39
0
210
0
220
0
230
1
0
LINE
5
10F
100
AcDbEntity
8
SK1
62
256
6
ByLayer
370
18
48
1
60
0
100
AcDbLine
10
608.825
20
-20
30
0
11
608.825
21
0
31
0
39
0
210
0
220
0
230
1
0
LINE
5
110
100
AcDbEntity
8
SK1
62
256
6
ByLayer
370
18
48
1
60
0
100
AcDbLine
10
612.825
20
-40
30
0
11
612.825
21
-20
31
0
39
0
210
0
220
0
230
1
0
LINE
5
111
100
AcDbEntity
8
SK1
62
256
6
ByLayer
370
18
48
1
60
0
100
AcDbLine
10
612.825
20
-20
30
0
11
612.825
21
0
31
0
39
0
210
0
220
0
230
1
0
LINE
5
112
100
AcDbEntity
8
SK1
62
256
6
ByLayer
370
18
48
1
60
0
100
AcDbLine
10
613.325
20
-39.5
30
0
11
613.325
21
-20
31
0
39
0
210
0
220
0
230
1
0
LINE
5
113
100
AcDbEntity
8
SK1
62
256
6
ByLayer
370
18
48
1
60
0
100
AcDbLine
10
613.325
20
-20
30
0
11
613.325
21
-0.5
31
0
39
0
210
0
220
0
230
1
0
LINE
5
114
100
AcDbEntity
8
SK1
62
256
6
ByLayer
370
18
48
1
60
0
100
AcDbLine
10
-2
20
27.511215
30
0
11
-2
21
-27.511216
31
0
39
0
210
0
220
0
230
1
0
LINE
5
115
100
AcDbEntity
8
SK1
62
256
6
ByLayer
370
18
48
1
60
0
100
AcDbLine
10
-46.5
20
26.394266
30
0
11
-46.5
21
-26.394266
31
0
39
0
210
0
220
0
230
1
0
LINE
5
116
100
AcDbEntity
8
SK1
62
256
6
ByLayer
370
18
48
1
60
0
100
AcDbLine
10
-1.79504
20
27.330281
30
0
11
-1.79504
21
-27.330281
31
0
39
0
210
0
220
0
230
1
0
LINE
5
117
100
AcDbEntity
8
SK1
62
256
6
ByLayer
370
18
48
1
60
0
100
AcDbLine
10
-0.194977
20
-5.594866
30
0
11
-0.194977
21
-27.370363
31
0
39
0
210
0
220
0
230
1
0
LINE
5
118
100
AcDbEntity
8
SK1
62
256
6
ByLayer
370
18
48
1
60
0
100
AcDbLine
10
-0.194977
20
27.370363
30
0
11
-0.194977
21
5.594867
31
0
39
0
210
0
220
0
230
1
0
LINE
5
119
100
AcDbEntity
8
SK1
62
256
6
ByLayer
370
18
48
1
60
0
100
AcDbLine
10
-48
20
25.541968
30
0
11
-48
21
-25.541968
31
0
39
0
210
0
220
0
230
1
0
LINE
5
11A
100
AcDbEntity
8
82
62
256
6
ByLayer
370
18
48
0.05
60
0
100
AcDbLine
10
608
20
-20
30
0
11
668.8
21
-20
31
0
39
0
210
0
220
0
230
1
0
MTEXT
5
1DC
100
AcDbEntity
8
SK6
62
256
6
ByLayer
370
13
48
1
60
0
100
AcDbMText
10
22.243615
20
81.518844
30
0
210
0
220
0
230
1
1
\W0.7175;C8-570-3C 80 608-40-2
40
3.175
41
0
44
1.084337
50
0
71
7
72
5
7
iso_b_vert
0
DIMENSION
5
1EA
100
AcDbEntity
8
2
62
256
6
ByLayer
370
13
48
1
60
0
100
AcDbDimension
2
DimnDraft3D1
10
608
20
74.142112
30
0
11
300.916908
21
74.142112
31
0
70
32
71
5
72
1
41
1
210
0
220
0
230
1
3
Standard
100
AcDbAlignedDimension
13
0
23
1.5875
33
0
14
608
24
21.5875
34
0
50
0
100
AcDbRotatedDimension
1001
ACAD
1000
DSTYLE
1002
{
1070
   279
1070
     0
1070
   173
1070
     1
1070
   340
1005
1DD
1070
   271
1070
     1
1070
   272
1070
     2
1070
    77
1070
     1
1070
    73
1070
     0
1070
   171
1070
     3
1070
   274
1070
     4
1070
   177
1070
     7
1070
   176
1070
     7
1070
   178
1070
     7
1070
    78
1070
     8
1070
    48
1040
-0.005
1070
    41
1041
3.175
1070
   147
1041
1.5875
1070
    42
1041
1.5875
1070
    44
1041
3.175
1070
   140
1041
3.175
1070
   343
1005
0
1070
   344
1005
0
1002
}
0
DIMENSION
5
1F5
100
AcDbEntity
8
SK2
62
256
6
ByLayer
370
13
48
1
60
0
100
AcDbDimension
2
DimnDraft3D2
10
608.325
20
-68.92493
30
0
11
296.960263
21
-68.92493
31
0
70
32
71
5
72
1
41
1
210
0
220
0
230
1
3
Standard
100
AcDbAlignedDimension
13
0
23
-41.2875
33
0
14
608.325
24
-41.0875
34
0
50
0
100
AcDbRotatedDimension
1001
ACAD
1000
DSTYLE
1002
{
1070
   279
1070
     0
1070
   173
1070
     1
1070
   340
1005
1DD
1070
   271
1070
     3
1070
   272
1070
     2
1070
    77
1070
     1
1070
    73
1070
     0
1070
   171
1070
     3
1070
   274
1070
     4
1070
   177
1070
     7
1070
   176
1070
     7
1070
   178
1070
     7
1070
    78
1070
     8
1070
    48
1040
-0.005
1070
    41
1041
3.175
1070
   147
1041
1.5875
1070
    42
1041
1.5875
1070
    44
1041
3.175
1070
   140
1041
3.175
1070
   343
1005
0
1070
   344
1005
0
1002
}
0
DIMENSION
5
200
100
AcDbEntity
8
SK2
62
256
6
ByLayer
370
13
48
1
60
0
100
AcDbDimension
2
DimnDraft3D3
10
-87.882915
20
-40
30
0
11
-87.089165
21
2.46898
31
0
70
33
71
5
72
1
41
1
210
0
220
0
230
1
3
Standard
100
AcDbAlignedDimension
13
-1.2875
23
40
33
0
14
-1.2875
24
-40
34
0
1001
ACAD
1000
DSTYLE
1002
{
1070
   279
1070
     0
1070
    74
1070
     0
1070
   173
1070
     1
1070
   340
1005
1DD
1070
   271
1070
     1
1070
   272
1070
     2
1070
    77
1070
     1
1070
    73
1070
     0
1070
   171
1070
     3
1070
   274
1070
     4
1070
   177
1070
     7
1070
   176
1070
     7
1070
   178
1070
     7
1070
    78
1070
     8
1070
    48
1040
-0.005
1070
    41
1041
3.175
1070
   147
1041
1.5875
1070
    42
1041
1.5875
1070
    44
1041
3.175
1070
   140
1041
3.175
1070
   343
1005
0
1070
   344
1005
0
1002
}
0
DIMENSION
5
20B
100
AcDbEntity
8
SK2
62
256
6
ByLayer
370
13
48
1
60
0
100
AcDbDimension
2
DimnDraft3D4
10
699.630627
20
-40
30
0
11
694.074377
21
-17.698125
31
0
70
33
71
5
72
1
41
1
210
0
220
0
230
1
3
Standard
100
AcDbAlignedDimension
13
614.4125
23
0
33
0
14
614.4125
24
-40
34
0
1001
ACAD
1000
DSTYLE
1002
{
1070
   279
1070
     0
1070
    74
1070
     0
1070
   173
1070
     1
1070
   340
1005
1DD
1070
   271
1070
     1
1070
   272
1070
     2
1070
    77
1070
     1
1070
    73
1070
     0
1070
   171
1070
     3
1070
   274
1070
     4
1070
   177
1070
     7
1070
   176
1070
     7
1070
   178
1070
     7
1070
    78
1070
     8
1070
    48
1040
-0.005
1070
    41
1041
3.175
1070
   147
1041
1.5875
1070
    42
1041
1.5875
1070
    44
1041
3.175
1070
   140
1041
3.175
1070
   343
1005
0
1070
   344
1005
0
1002
}
0
DIMENSION
5
215
100
AcDbEntity
8
SK2
62
256
6
ByLayer
370
13
48
1
60
0
100
AcDbDimension
2
DimnDraft3D5
10
678.460317
20
0
30
0
11
678.460317
21
8.103355
31
0
70
32
71
5
72
1
41
1
210
0
220
0
230
1
3
Standard
100
AcDbAlignedDimension
13
609.5875
23
20
33
0
14
609.5875
24
0
34
0
50
90
100
AcDbRotatedDimension
1001
ACAD
1000
DSTYLE
1002
{
1070
    74
1070
     0
1070
   279
1070
     0
1070
   173
1070
     1
1070
   340
1005
1DD
1070
   271
1070
     1
1070
   272
1070
     2
1070
    77
1070
     1
1070
    73
1070
     0
1070
   171
1070
     3
1070
   274
1070
     4
1070
   177
1070
     7
1070
   176
1070
     7
1070
   178
1070
     7
1070
    78
1070
     8
1070
    48
1040
-0.005
1070
    41
1041
3.175
1070
   147
1041
1.5875
1070
    42
1041
1.5875
1070
    44
1041
3.175
1070
   140
1041
3.175
1070
   343
1005
0
1070
   344
1005
0
1002
}
0
DIMENSION
5
21F
100
AcDbEntity
8
SK2
62
256
6
ByLayer
370
13
48
1
60
0
100
AcDbDimension
2
DimnDraft3D6
10
678.426315
20
-20
30
0
11
678.426315
21
-11.896645
31
0
70
32
71
5
72
1
41
1
210
0
220
0
230
1
3
Standard
100
AcDbAlignedDimension
13
609.5875
23
0
33
0
14
614.9125
24
-20
34
0
50
90
100
AcDbRotatedDimension
1001
ACAD
1000
DSTYLE
1002
{
1070
    74
1070
     0
1070
   279
1070
     0
1070
   173
1070
     1
1070
   340
1005
1DD
1070
   271
1070
     1
1070
   272
1070
     2
1070
    77
1070
     1
1070
    73
1070
     0
1070
   171
1070
     3
1070
   274
1070
     4
1070
   177
1070
     7
1070
   176
1070
     7
1070
   178
1070
     7
1070
    78
1070
     8
1070
    48
1040
-0.005
1070
    41
1041
3.175
1070
   147
1041
1.5875
1070
    42
1041
1.5875
1070
    44
1041
3.175
1070
   140
1041
3.175
1070
   343
1005
0
1070
   344
1005
0
1002
}
0
DIMENSION
5
22A
100
AcDbEntity
8
SK2
62
256
6
ByLayer
370
13
48
1
60
0
100
AcDbDimension
2
DimnDraft3D7
10
699.716472
20
40
30
0
11
694.160222
21
21.52693
31
0
70
33
71
5
72
1
41
1
210
0
220
0
230
1
3
Standard
100
AcDbAlignedDimension
13
609.5875
23
0
33
0
14
608.9125
24
40
34
0
1001
ACAD
1000
DSTYLE
1002
{
1070
   279
1070
     0
1070
    74
1070
     0
1070
   173
1070
     1
1070
   340
1005
1DD
1070
   271
1070
     1
1070
   272
1070
     2
1070
    77
1070
     1
1070
    73
1070
     0
1070
   171
1070
     3
1070
   274
1070
     4
1070
   177
1070
     7
1070
   176
1070
     7
1070
   178
1070
     7
1070
    78
1070
     8
1070
    48
1040
-0.005
1070
    41
1041
3.175
1070
   147
1041
1.5875
1070
    42
1041
1.5875
1070
    44
1041
3.175
1070
   140
1041
3.175
1070
   343
1005
0
1070
   344
1005
0
1002
}
0
ENDSEC
0
SECTION
2
OBJECTS
0
DICTIONARY
5
295
330
0
100
AcDbDictionary
280
0
281
1
3
ACAD_GROUP
350
296
3
ACAD_MLINESTYLE
350
297
0
DICTIONARY
5
296
330
0
100
AcDbDictionary
280
0
281
1
0
DICTIONARY
5
297
330
0
100
AcDbDictionary
280
0
281
1
3
Standard
350
18
0
MLINESTYLE
5
18
330
297
100
AcDbMlineStyle
2
Standard
70
0
3

62
256
51
90
52
90
71
2
49
-0.5
62
256
6
ByLayer
49
0.5
62
256
6
ByLayer
0
RASTERVARIABLES
5
283
330

100
AcDbRasterVariables
90
0
70
1
71
1
72
1
0
ENDSEC
0
EOF
