0
SECTION
2
HEADER
9
$ACADVER
1
AC1015
9
$DWGCODEPAGE
3
ANSI_1252
9
$HANDSEED
5
17b
9
$ANGBASE
50
0
9
$ANGDIR
70
0
9
$ATTMODE
70
1
9
$AUNITS
70
0
9
$AUPREC
70
0
9
$CECOLOR
62
256
9
$CELTSCALE
40
1
9
$CELTYPE
6
ByLayer
9
$CELWEIGHT
370
18
9
$CLAYER
8
0
9
$CMLJUST
70
0
9
$CMLSCALE
40
1
9
$CMLSTYLE
2
Standard
9
$DIMSTYLE
2
Standard
9
$TEXTSIZE
40
0.2
9
$TEXTSTYLE
7
Standard
9
$LUNITS
70
2
9
$LUPREC
70
4
9
$EXTNAMES
290
1
9
$INSUNITS
70
4
9
$LTSCALE
40
1
9
$LWDISPLAY
290
1
9
$PDMODE
70
0
9
$PDSIZE
40
0
9
$PLINEGEN
70
0
0
ENDSEC
0
SECTION
2
CLASSES
0
CLASS
1
RASTERVARIABLES
2
AcDbRasterVariables
3
ISM
90
0
280
0
281
0
0
ENDSEC
0
SECTION
2
TABLES
0
TABLE
2
VPORT
5
171
100
AcDbSymbolTable
0
VPORT
5
1
100
AcDbSymbolTableRecord
100
AcDbViewportTableRecord
2
*Active
70
0
10
0
20
0
11
1
21
1
12
-1
22
1
13
0
23
0
14
0.5
24
0.5
15
10
25
10
16
0
26
0
36
1
17
0
27
0
37
0
0
ENDTAB
0
TABLE
2
LTYPE
5
172
100
AcDbSymbolTable
0
LTYPE
5
14
100
AcDbSymbolTableRecord
100
AcDbLinetypeTableRecord
70
0
2
ByBlock
3

72
65
73
0
40
0
0
LTYPE
5
15
100
AcDbSymbolTableRecord
100
AcDbLinetypeTableRecord
70
0
2
ByLayer
3

72
65
73
0
40
0
0
LTYPE
5
16
100
AcDbSymbolTableRecord
100
AcDbLinetypeTableRecord
70
0
2
CONTINUOUS
3
Solid line
72
65
73
0
40
0
0
LTYPE
5
6A
100
AcDbSymbolTableRecord
100
AcDbLinetypeTableRecord
70
0
2
CENTER
3
____ _ ____ _ ____ _ ____
72
65
73
4
40
47.5
49
22
74
0
49
-8.5
74
0
49
8.5
74
0
49
-8.5
74
0
0
LTYPE
5
6B
100
AcDbSymbolTableRecord
100
AcDbLinetypeTableRecord
70
0
2
DASHED
3
__ __ __ __ __ __ __ __ __
72
65
73
2
40
25.72
49
12.86
74
0
49
-12.86
74
0
0
ENDTAB
0
TABLE
2
LAYER
5
173
100
AcDbSymbolTable
0
LAYER
5
10
100
AcDbSymbolTableRecord
100
AcDbLayerTableRecord
2
0
70
0
62
7
6
CONTINUOUS
290
1
370
-3
390
0
0
LAYER
5
6D
100
AcDbSymbolTableRecord
100
AcDbLayerTableRecord
2
80
70
0
62
-6
6
CONTINUOUS
290
1
370
-3
390
0
0
LAYER
5
6F
100
AcDbSymbolTableRecord
100
AcDbLayerTableRecord
2
81
70
0
62
-3
6
CONTINUOUS
290
1
370
-3
390
0
0
LAYER
5
74
100
AcDbSymbolTableRecord
100
AcDbLayerTableRecord
2
1
70
0
62
4
6
CONTINUOUS
290
1
370
-3
390
0
0
LAYER
5
A9
100
AcDbSymbolTableRecord
100
AcDbLayerTableRecord
2
4
70
0
62
-2
6
CENTER
290
1
370
-3
390
0
0
LAYER
5
F0
100
AcDbSymbolTableRecord
100
AcDbLayerTableRecord
2
2
70
0
62
7
6
CONTINUOUS
290
1
370
-3
390
0
0
LAYER
5
15d
100
AcDbSymbolTableRecord
100
AcDbLayerTableRecord
2
SK1
70
0
62
4
6
CONTINUOUS
290
1
370
-3
390
0
0
LAYER
5
15e
100
AcDbSymbolTableRecord
100
AcDbLayerTableRecord
2
SK4
70
0
62
2
6
CENTER
290
1
370
-3
390
0
0
LAYER
5
15f
100
AcDbSymbolTableRecord
100
AcDbLayerTableRecord
2
SK6
70
0
62
5
6
CONTINUOUS
290
1
370
-3
390
0
0
LAYER
5
160
100
AcDbSymbolTableRecord
100
AcDbLayerTableRecord
2
SK2
70
0
62
7
6
CONTINUOUS
290
1
370
-3
390
0
0
ENDTAB
0
TABLE
2
STYLE
5
174
100
AcDbSymbolTable
0
STYLE
5
11
100
AcDbSymbolTableRecord
100
AcDbTextStyleTableRecord
2
Standard
3
txt
70
0
71
0
40
0
41
1
42
0
50
0
0
STYLE
5
D5
100
AcDbSymbolTableRecord
100
AcDbTextStyleTableRecord
2
iso_b_vert
3
simplex.shx
70
0
71
0
40
0
41
1
42
0
50
0
0
STYLE
5
D6
100
AcDbSymbolTableRecord
100
AcDbTextStyleTableRecord
2
DWGDirectTextStyle
3
simplex
70
0
71
0
40
0
41
1
42
0
50
0
0
ENDTAB
0
TABLE
2
DIMSTYLE
5
175
100
AcDbSymbolTable
100
AcDbDimStyleTable
0
DIMSTYLE
105
27
100
AcDbSymbolTableRecord
100
AcDbDimStyleTableRecord
2
Standard
70
0
3
<>
41
0.18
42
0.0625
44
0.18
140
0.18
147
0.09
73
0
74
0
77
1
271
2
275
0
278
52
280
0
340
11
0
ENDTAB
0
TABLE
2
VIEW
5
176
100
AcDbSymbolTable
0
ENDTAB
0
TABLE
2
UCS
5
177
100
AcDbSymbolTable
0
ENDTAB
0
TABLE
2
APPID
5
178
100
AcDbSymbolTable
0
APPID
5
12
100
AcDbSymbolTableRecord
100
AcDbRegAppTableRecord
2
ACAD
70
0
0
ENDTAB
0
TABLE
2
BLOCK_RECORD
5
179
100
AcDbSymbolTable
0
BLOCK_RECORD
5
1F
100
AcDbSymbolTableRecord
100
AcDbBlockTableRecord
2
*Model_Space
340
0
70
0
0
BLOCK_RECORD
5
1B
100
AcDbSymbolTableRecord
100
AcDbBlockTableRecord
2
*Paper_Space
340
0
70
0
0
BLOCK_RECORD
5
23
100
AcDbSymbolTableRecord
100
AcDbBlockTableRecord
2
*Paper_Space0
340
0
70
0
0
BLOCK_RECORD
5
D8
100
AcDbSymbolTableRecord
100
AcDbBlockTableRecord
2
DimnDraft3D1
340
0
70
0
0
BLOCK_RECORD
5
E4
100
AcDbSymbolTableRecord
100
AcDbBlockTableRecord
2
DimnDraft3D2
340
0
70
0
0
BLOCK_RECORD
5
EE
100
AcDbSymbolTableRecord
100
AcDbBlockTableRecord
2
DimnDraft3D3
340
0
70
0
0
BLOCK_RECORD
5
F9
100
AcDbSymbolTableRecord
100
AcDbBlockTableRecord
2
DimnDraft3D4
340
0
70
0
0
ENDTAB
0
ENDSEC
0
SECTION
2
BLOCKS
0
BLOCK
5
20
100
AcDbEntity
8
0
100
AcDbBlockBegin
2
*Model_Space
70
0
10
0
20
0
30
0
3
*Model_Space
0
ENDBLK
5
21
100
AcDbEntity
8
0
100
AcDbBlockEnd
0
BLOCK
5
1C
100
AcDbEntity
8
0
100
AcDbBlockBegin
2
*Paper_Space
70
0
10
0
20
0
30
0
3
*Paper_Space
0
ENDBLK
5
1D
100
AcDbEntity
8
0
100
AcDbBlockEnd
0
BLOCK
5
24
100
AcDbEntity
8
0
100
AcDbBlockBegin
2
*Paper_Space0
70
0
10
0
20
0
30
0
3
*Paper_Space0
0
ENDBLK
5
25
100
AcDbEntity
8
0
100
AcDbBlockEnd
0
BLOCK
5
E1
100
AcDbEntity
8
0
100
AcDbBlockBegin
2
DimnDraft3D1
70
0
10
0
20
0
30
0
3
DimnDraft3D1
0
MTEXT
5
D9
100
AcDbEntity
8
SK2
62
256
6
ByLayer
370
18
48
1
60
0
100
AcDbMText
10
-60
20
2.897368
30
0
210
0
220
0
230
1
1
\W0.6563;80
40
3
41
0
44
1.084337
50
90
71
7
72
5
7
iso_b_vert
0
MTEXT
5
DB
100
AcDbEntity
8
SK2
62
256
6
ByLayer
370
18
48
1
60
0
100
AcDbMText
10
-60
20
-3.379194
30
0
210
0
220
0
230
1
1
%%c
40
3
41
0
44
1.084337
50
90
71
7
72
5
7
iso_b_vert
0
LINE
5
DC
100
AcDbEntity
8
SK2
62
256
6
ByLayer
370
13
48
1
60
0
100
AcDbLine
10
-1.7
20
-40
30
0
11
-60.5
21
-40
31
0
39
0
210
0
220
0
230
1
0
LINE
5
DD
100
AcDbEntity
8
SK2
62
256
6
ByLayer
370
13
48
1
60
0
100
AcDbLine
10
-1.7
20
40
30
0
11
-60.5
21
40
31
0
39
0
210
0
220
0
230
1
0
LINE
5
DE
100
AcDbEntity
8
SK2
62
256
6
ByLayer
370
13
48
1
60
0
100
AcDbLine
10
-58.5
20
-40
30
0
11
-58.5
21
40
31
0
39
0
210
0
220
0
230
1
0
SOLID
5
DF
100
AcDbEntity
8
SK2
62
256
6
ByLayer
370
13
48
1
60
0
100
AcDbTrace
10
-58.5
20
-40
30
0
11
-58.833706
21
-36.825001
31
0
12
-58.166294
22
-36.824999
32
0
13
-58.5
23
-40
33
0
39
0
210
0
220
0
230
1
0
SOLID
5
E0
100
AcDbEntity
8
SK2
62
256
6
ByLayer
370
13
48
1
60
0
100
AcDbTrace
10
-58.5
20
40
30
0
11
-58.166294
21
36.825001
31
0
12
-58.833706
22
36.824999
32
0
13
-58.5
23
40
33
0
39
0
210
0
220
0
230
1
0
ENDBLK
5
E2
100
AcDbEntity
8
0
100
AcDbBlockEnd
0
BLOCK
5
EB
100
AcDbEntity
8
0
100
AcDbBlockBegin
2
DimnDraft3D2
70
0
10
0
20
0
30
0
3
DimnDraft3D2
0
MTEXT
5
E5
100
AcDbEntity
8
SK2
62
256
6
ByLayer
370
18
48
1
60
0
100
AcDbMText
10
75.75
20
19.714474
30
0
210
0
220
0
230
1
1
\W0.6880;41
40
3
41
0
44
1.084337
50
90
71
7
72
5
7
iso_b_vert
0
LINE
5
E6
100
AcDbEntity
8
SK2
62
256
6
ByLayer
370
13
48
1
60
0
100
AcDbLine
10
61.606356
20
0
30
0
11
78.5
21
0
31
0
39
0
210
0
220
0
230
1
0
LINE
5
E7
100
AcDbEntity
8
SK2
62
256
6
ByLayer
370
13
48
1
60
0
100
AcDbLine
10
48
20
41
30
0
11
78.5
21
41
31
0
39
0
210
0
220
0
230
1
0
LINE
5
E8
100
AcDbEntity
8
SK2
62
256
6
ByLayer
370
13
48
1
60
0
100
AcDbLine
10
76.5
20
0
30
0
11
76.5
21
41
31
0
39
0
210
0
220
0
230
1
0
SOLID
5
E9
100
AcDbEntity
8
SK2
62
256
6
ByLayer
370
13
48
1
60
0
100
AcDbTrace
10
76.5
20
0
30
0
11
76.166294
21
3.174999
31
0
12
76.833706
22
3.175001
32
0
13
76.5
23
0
33
0
39
0
210
0
220
0
230
1
0
SOLID
5
EA
100
AcDbEntity
8
SK2
62
256
6
ByLayer
370
13
48
1
60
0
100
AcDbTrace
10
76.5
20
41
30
0
11
76.833706
21
37.825001
31
0
12
76.166294
22
37.824999
32
0
13
76.5
23
41
33
0
39
0
210
0
220
0
230
1
0
ENDBLK
5
EC
100
AcDbEntity
8
0
100
AcDbBlockEnd
0
BLOCK
5
F6
100
AcDbEntity
8
0
100
AcDbBlockBegin
2
DimnDraft3D3
70
0
10
0
20
0
30
0
3
DimnDraft3D3
0
MTEXT
5
EF
100
AcDbEntity
8
2
62
256
6
ByLayer
370
18
48
1
60
0
100
AcDbMText
10
21.8
20
75.557432
30
0
210
0
220
0
230
1
1
\W0.7361;46
40
3
41
0
44
1.084337
50
0
71
7
72
5
7
iso_b_vert
0
LINE
5
F1
100
AcDbEntity
8
2
62
256
6
ByLayer
370
13
48
1
60
0
100
AcDbLine
10
0
20
41.7
30
0
11
0
21
76.807432
31
0
39
0
210
0
220
0
230
1
0
LINE
5
F2
100
AcDbEntity
8
2
62
256
6
ByLayer
370
13
48
1
60
0
100
AcDbLine
10
46
20
43
30
0
11
46
21
76.807432
31
0
39
0
210
0
220
0
230
1
0
LINE
5
F3
100
AcDbEntity
8
2
62
256
6
ByLayer
370
13
48
1
60
0
100
AcDbLine
10
0
20
74.807432
30
0
11
46
21
74.807432
31
0
39
0
210
0
220
0
230
1
0
SOLID
5
F4
100
AcDbEntity
8
2
62
256
6
ByLayer
370
13
48
1
60
0
100
AcDbTrace
10
0
20
74.807432
30
0
11
3.174999
21
75.141138
31
0
12
3.175001
22
74.473726
32
0
13
0
23
74.807432
33
0
39
0
210
0
220
0
230
1
0
SOLID
5
F5
100
AcDbEntity
8
2
62
256
6
ByLayer
370
13
48
1
60
0
100
AcDbTrace
10
46
20
74.807432
30
0
11
42.825001
21
74.473726
31
0
12
42.824999
22
75.141138
32
0
13
46
23
74.807432
33
0
39
0
210
0
220
0
230
1
0
ENDBLK
5
F7
100
AcDbEntity
8
0
100
AcDbBlockEnd
0
BLOCK
5
101
100
AcDbEntity
8
0
100
AcDbBlockBegin
2
DimnDraft3D4
70
0
10
0
20
0
30
0
3
DimnDraft3D4
0
MTEXT
5
FA
100
AcDbEntity
8
SK2
62
256
6
ByLayer
370
18
48
1
60
0
100
AcDbMText
10
49.357895
20
63.032038
30
0
210
0
220
0
230
1
1
\W0.6740;32
40
3
41
0
44
1.084337
50
0
71
7
72
5
7
iso_b_vert
0
MTEXT
5
FB
100
AcDbEntity
8
SK2
62
256
6
ByLayer
370
18
48
1
60
0
100
AcDbMText
10
43.081332
20
63.032038
30
0
210
0
220
0
230
1
1
%%c
40
3
41
0
44
1.084337
50
0
71
7
72
5
7
iso_b_vert
0
LINE
5
FC
100
AcDbEntity
8
SK2
62
256
6
ByLayer
370
13
48
1
60
0
100
AcDbLine
10
31
20
42.324519
30
0
11
31
21
63.532038
31
0
39
0
210
0
220
0
230
1
0
LINE
5
FD
100
AcDbEntity
8
SK2
62
256
6
ByLayer
370
13
48
1
60
0
100
AcDbLine
10
62
20
42.324519
30
0
11
62
21
63.532038
31
0
39
0
210
0
220
0
230
1
0
LINE
5
FE
100
AcDbEntity
8
SK2
62
256
6
ByLayer
370
13
48
1
60
0
100
AcDbLine
10
31
20
61.532038
30
0
11
62
21
61.532038
31
0
39
0
210
0
220
0
230
1
0
SOLID
5
FF
100
AcDbEntity
8
SK2
62
256
6
ByLayer
370
13
48
1
60
0
100
AcDbTrace
10
31
20
61.532038
30
0
11
34.174999
21
61.865744
31
0
12
34.175001
22
61.198332
32
0
13
31
23
61.532038
33
0
39
0
210
0
220
0
230
1
0
SOLID
5
100
100
AcDbEntity
8
SK2
62
256
6
ByLayer
370
13
48
1
60
0
100
AcDbTrace
10
62
20
61.532038
30
0
11
58.825001
21
61.198332
31
0
12
58.824999
22
61.865744
32
0
13
62
23
61.532038
33
0
39
0
210
0
220
0
230
1
0
ENDBLK
5
102
100
AcDbEntity
8
0
100
AcDbBlockEnd
0
ENDSEC
0
SECTION
2
ENTITIES
0
ARC
5
AD
100
AcDbEntity
8
1
62
256
6
ByLayer
370
18
48
1
60
0
100
AcDbCircle
39
0
10
-35.521825
20
45.8
30
0
40
0.199999999999871
210
0
220
0
230
-1
100
AcDbArc
50
90
51
180
0
ARC
5
AE
100
AcDbEntity
8
1
62
256
6
ByLayer
370
18
48
1
60
0
100
AcDbCircle
39
0
10
-34.471825
20
50.5
30
0
40
0.500000000000045
210
0
220
0
230
-1
100
AcDbArc
50
0
51
90
0
ARC
5
AF
100
AcDbEntity
8
1
62
256
6
ByLayer
370
18
48
1
60
0
100
AcDbCircle
39
0
10
-40.921825
20
45.8
30
0
40
0.199999999999871
210
0
220
0
230
-1
100
AcDbArc
50
0
51
90
0
ARC
5
B0
100
AcDbEntity
8
1
62
256
6
ByLayer
370
18
48
1
60
0
100
AcDbCircle
39
0
10
-41.971825
20
50.5
30
0
40
0.500000000000045
210
0
220
0
230
-1
100
AcDbArc
50
90
51
180
0
ARC
5
B1
100
AcDbEntity
8
1
62
256
6
ByLayer
370
18
48
1
60
0
100
AcDbCircle
39
0
10
-50.028175
20
50.5
30
0
40
0.500000000000045
210
0
220
0
230
-1
100
AcDbArc
50
0
51
90
0
ARC
5
B2
100
AcDbEntity
8
1
62
256
6
ByLayer
370
18
48
1
60
0
100
AcDbCircle
39
0
10
-51.078175
20
45.8
30
0
40
0.199999999999871
210
0
220
0
230
-1
100
AcDbArc
50
90
51
180
0
ARC
5
B3
100
AcDbEntity
8
1
62
256
6
ByLayer
370
18
48
1
60
0
100
AcDbCircle
39
0
10
-56.478175
20
45.8
30
0
40
0.199999999999871
210
0
220
0
230
-1
100
AcDbArc
50
0
51
90
0
ARC
5
B4
100
AcDbEntity
8
1
62
256
6
ByLayer
370
18
48
1
60
0
100
AcDbCircle
39
0
10
-57.528175
20
50.5
30
0
40
0.500000000000045
210
0
220
0
230
-1
100
AcDbArc
50
90
51
180
0
ARC
5
B5
100
AcDbEntity
8
1
62
256
6
ByLayer
370
18
48
1
60
0
100
AcDbCircle
39
0
10
-41.776106
20
26.829081
30
0
40
20.0000000008855
210
0
220
0
230
-1
100
AcDbArc
50
234.577009
51
245
0
CIRCLE
5
B6
100
AcDbEntity
8
1
62
256
6
ByLayer
370
18
48
1
60
0
100
AcDbCircle
10
-46
20
19
30
0
40
4.14143307609568
39
0
210
0
220
0
230
-1
0
CIRCLE
5
B7
100
AcDbEntity
8
1
62
256
6
ByLayer
370
18
48
1
60
0
100
AcDbCircle
10
-46
20
19
30
0
40
3.17170746233157
39
0
210
0
220
0
230
-1
0
ELLIPSE
5
B8
100
AcDbEntity
8
1
62
256
6
ByLayer
370
18
48
1
60
0
100
AcDbEllipse
10
30.763884
20
0
30
0
11
-18.7348357595633
21
-39.4834983054999
31
0
210
0
220
0
230
-1
40
0.341999
41
0.161099005228951
42
1.08794676716931
0
ELLIPSE
5
B9
100
AcDbEntity
8
1
62
256
6
ByLayer
370
18
48
1
60
0
100
AcDbEllipse
10
-6.763884
20
0
30
0
11
-18.7348357595661
21
39.4834983055028
31
0
210
0
220
0
230
-1
40
0.341999
41
2.05364588642054
42
2.98049364836086
0
ELLIPSE
5
BA
100
AcDbEntity
8
1
62
256
6
ByLayer
370
18
48
1
60
0
100
AcDbEllipse
10
30.763884
20
0
30
0
11
-18.7348357595621
21
39.4834983054984
31
0
210
0
220
0
230
-1
40
0.341999
41
-1.08794676716934
42
-0.161099005228955
0
ELLIPSE
5
BB
100
AcDbEntity
8
1
62
256
6
ByLayer
370
18
48
1
60
0
100
AcDbEllipse
10
-6.763884
20
0
30
0
11
-18.7348357595656
21
-39.4834983055022
31
0
210
0
220
0
230
-1
40
0.341999
41
-2.98049364836086
42
-2.05364588642053
0
ELLIPSE
5
BC
100
AcDbEntity
8
1
62
256
6
ByLayer
370
18
48
1
60
0
100
AcDbEllipse
10
49.996155
20
-13.472964
30
0
11
-19.9999999878628
21
-2.26619937955394E-14
31
0
210
0
220
0
230
-1
40
1
41
1.1042462512314
42
1.1344640136763
0
ELLIPSE
5
BD
100
AcDbEntity
8
1
62
256
6
ByLayer
370
18
48
1
60
0
100
AcDbEllipse
10
44.920763
20
-11.281179
30
0
11
3.24722796293448E-15
21
-17.6776695237555
31
0
210
0
220
0
230
-1
40
0.707107
41
2.70796948661175
42
2.82254646628537
0
ELLIPSE
5
BE
100
AcDbEntity
8
1
62
256
6
ByLayer
370
18
48
1
60
0
100
AcDbEllipse
10
32.05413
20
0
30
0
11
7.34763812293419E-15
21
-39.9999999999996
31
0
210
0
220
0
230
-1
40
0.176327
41
0.784481829991278
42
2.41311433614431
0
ELLIPSE
5
BF
100
AcDbEntity
8
1
62
256
6
ByLayer
370
18
48
1
60
0
100
AcDbEllipse
10
44.3
20
-9.253988
30
0
11
-14.101347921063
21
-17.7747041799111
31
0
210
0
220
0
230
-1
40
0.629385
41
2.67957070267192
42
2.76944572511038
0
POINT
5
6C
100
AcDbEntity
8
80
62
256
6
ByLayer
370
18
48
1
60
0
100
AcDbPoint
10
0
20
0
30
0
39
0
210
0
220
0
230
1
50
360
0
POINT
5
6E
100
AcDbEntity
8
81
62
256
6
ByLayer
370
18
48
1
60
0
100
AcDbPoint
10
46
20
41
30
0
39
0
210
0
220
0
230
1
50
360
0
SPLINE
5
C0
100
AcDbEntity
8
SK1
62
256
6
ByLayer
370
18
48
1
60
0
100
AcDbSpline
70
4
71
2
72
6
73
3
40
0
40
0
40
0
40
1
40
1
40
1
41
1
10
-48
20
-25.4903372289558
30
0
41
1
10
-47.2502396776073
20
-25.9486795491928
30
0
41
1
10
-46.5004793682374
20
-26.4070218560013
30
0
0
SPLINE
5
C1
100
AcDbEntity
8
SK1
62
256
6
ByLayer
370
18
48
1
60
0
100
AcDbSpline
70
4
71
2
72
6
73
3
40
0
40
0
40
0
40
1
40
1
40
1
41
1
10
-46.5004657228993
20
26.4070723718956
30
0
41
1
10
-47.2502328425801
20
25.9487162649119
30
0
41
1
10
-48
20
25.4903599083565
30
0
0
SPLINE
5
C2
100
AcDbEntity
8
1
62
256
6
ByLayer
370
18
48
1
60
0
100
AcDbSpline
70
4
71
3
72
13
73
9
40
0
40
0
40
0
40
0
40
0.256222331489723
40
0.595816960347232
40
0.756721547742949
40
0.892572489753453
40
0.999730652645845
40
1
40
1
40
1
40
1
41
1
10
10.1056624327026
20
12.6576002058704
30
0
41
1
10
10.1204333089295
20
12.5981337335349
30
0
41
1
10
10.1670722575799
20
12.4656679136688
30
0
41
1
10
10.253242975613
20
12.3032744555844
30
0
41
1
10
10.3629529855667
20
12.1928955703805
30
0
41
1
10
10.4510715216951
20
12.1436124753782
30
0
41
1
10
10.5119106965702
20
12.1331007202225
30
0
41
1
10
10.5386081931342
20
12.133089968106
30
0
41
1
10
10.5386751345948
20
12.1330899674706
30
0
0
SPLINE
5
C3
100
AcDbEntity
8
1
62
256
6
ByLayer
370
18
48
1
60
0
100
AcDbSpline
70
4
71
3
72
12
73
8
40
0
40
0
40
0
40
0
40
0.107090927408347
40
0.2425669007885
40
0.455432315407896
40
0.863255751650496
40
1
40
1
40
1
40
1
41
1
10
13.4613248654052
20
38.1154578595254
30
0
41
1
10
13.4888430498624
20
38.1152151562848
30
0
41
1
10
13.5480307931307
20
38.1122888019999
30
0
41
1
10
13.6481847575601
20
38.0944005955984
30
0
41
1
10
13.772404904132
20
38.0503633413168
30
0
41
1
10
13.8477904868662
20
37.9957326993062
30
0
41
1
10
13.8861201955835
20
37.9549695995299
30
0
41
1
10
13.8943375672974
20
37.9445010117191
30
0
0
SPLINE
5
C4
100
AcDbEntity
8
1
62
256
6
ByLayer
370
18
48
1
60
0
100
AcDbSpline
70
4
71
3
72
13
73
9
40
0
40
0
40
0
40
0
40
0.256222331489114
40
0.595816960346999
40
0.75672154774271
40
0.89257248975327
40
0.999730652645697
40
1
40
1
40
1
40
1
41
1
10
13.8943375672974
20
12.6576002058703
30
0
41
1
10
13.8795666910705
20
12.598133733535
30
0
41
1
10
13.83292774242
20
12.4656679136683
30
0
41
1
10
13.7467570243875
20
12.3032744555871
30
0
41
1
10
13.6370470144329
20
12.1928955703768
30
0
41
1
10
13.5489284783066
20
12.1436124753888
30
0
41
1
10
13.4880893034271
20
12.1331007202044
30
0
41
1
10
13.4613918068659
20
12.1330899681061
30
0
41
1
10
13.4613248654052
20
12.1330899674707
30
0
0
SPLINE
5
C5
100
AcDbEntity
8
1
62
256
6
ByLayer
370
18
48
1
60
0
100
AcDbSpline
70
4
71
3
72
12
73
8
40
0
40
0
40
0
40
0
40
0.107090927408409
40
0.242566900788552
40
0.455432315408037
40
0.863255751650713
40
1
40
1
40
1
40
1
41
1
10
10.5386751345948
20
38.1154578595255
30
0
41
1
10
10.5111569501376
20
38.1152151562848
30
0
41
1
10
10.4519692068692
20
38.1122888019997
30
0
41
1
10
10.3518152424398
20
38.0944005955985
30
0
41
1
10
10.2275950958679
20
38.0503633413165
30
0
41
1
10
10.1522095131338
20
37.9957326993063
30
0
41
1
10
10.1138798044165
20
37.9549695995299
30
0
41
1
10
10.1056624327026
20
37.9445010117191
30
0
0
SPLINE
5
C6
100
AcDbEntity
8
1
62
256
6
ByLayer
370
18
48
1
60
0
100
AcDbSpline
70
4
71
3
72
12
73
8
40
0
40
0
40
0
40
0
40
0.107090927408438
40
0.242566900788603
40
0.455432315408114
40
0.863255751650939
40
1
40
1
40
1
40
1
41
1
10
13.4613248654052
20
-12.1330899674707
30
0
41
1
10
13.4888430498624
20
-12.1338666389724
30
0
41
1
10
13.5480307931308
20
-12.1430431247032
30
0
41
1
10
13.6481847575601
20
-12.1991373298678
30
0
41
1
10
13.7724049041321
20
-12.3362292766509
30
0
41
1
10
13.8477904868662
20
-12.503543064498
30
0
41
1
10
13.8861201955835
20
-12.6262033054279
30
0
41
1
10
13.8943375672974
20
-12.6576002058703
30
0
0
SPLINE
5
C7
100
AcDbEntity
8
1
62
256
6
ByLayer
370
18
48
1
60
0
100
AcDbSpline
70
4
71
3
72
12
73
8
40
0
40
0
40
0
40
0
40
0.107090927408393
40
0.242566900788534
40
0.455432315408016
40
0.863255751650781
40
1
40
1
40
1
40
1
41
1
10
10.5386751345948
20
-12.1330899674707
30
0
41
1
10
10.5111569501375
20
-12.1338666389724
30
0
41
1
10
10.4519692068692
20
-12.1430431247033
30
0
41
1
10
10.3518152424399
20
-12.1991373298677
30
0
41
1
10
10.2275950958679
20
-12.3362292766509
30
0
41
1
10
10.1522095131338
20
-12.503543064498
30
0
41
1
10
10.1138798044165
20
-12.6262033054279
30
0
41
1
10
10.1056624327026
20
-12.6576002058703
30
0
0
SPLINE
5
C8
100
AcDbEntity
8
1
62
256
6
ByLayer
370
18
48
1
60
0
100
AcDbSpline
70
4
71
3
72
13
73
9
40
0
40
0
40
0
40
0
40
0.256222331489132
40
0.595816960347043
40
0.756721547742744
40
0.892572489753298
40
0.999730652645726
40
1
40
1
40
1
40
1
41
1
10
13.8943375672974
20
-37.9445010117191
30
0
41
1
10
13.8795666910705
20
-37.9643151482468
30
0
41
1
10
13.83292774242
20
-38.008194878991
30
0
41
1
10
13.7467570243874
20
-38.0609637527938
30
0
41
1
10
13.6370470144331
20
-38.0963895308821
30
0
41
1
10
13.5489284783059
20
-38.1121103029958
30
0
41
1
10
13.4880893034283
20
-38.1154544345384
30
0
41
1
10
13.4613918068659
20
-38.1154578593283
30
0
41
1
10
13.4613248654052
20
-38.1154578595254
30
0
0
SPLINE
5
C9
100
AcDbEntity
8
1
62
256
6
ByLayer
370
18
48
1
60
0
100
AcDbSpline
70
4
71
3
72
13
73
9
40
0
40
0
40
0
40
0
40
0.25622233148955
40
0.59581696034719
40
0.756721547742904
40
0.892572489753435
40
0.999730652645819
40
1
40
1
40
1
40
1
41
1
10
10.1056624327026
20
-37.9445010117191
30
0
41
1
10
10.1204333089295
20
-37.9643151482468
30
0
41
1
10
10.1670722575799
20
-38.008194878991
30
0
41
1
10
10.2532429756131
20
-38.0609637527943
30
0
41
1
10
10.3629529855663
20
-38.0963895308814
30
0
41
1
10
10.451071521696
20
-38.1121103029979
30
0
41
1
10
10.5119106965687
20
-38.1154544345347
30
0
41
1
10
10.5386081931342
20
-38.1154578593283
30
0
41
1
10
10.5386751345948
20
-38.1154578595254
30
0
0
SPLINE
5
CA
100
AcDbEntity
8
SK1
62
256
6
ByLayer
370
18
48
1
60
0
100
AcDbSpline
70
4
71
2
72
6
73
3
40
0
40
0
40
0
40
1
40
1
40
1
41
1
10
-2.19993688395199
20
27.5201003703623
30
0
41
1
10
-24.3502050259239
20
26.9636085360197
30
0
41
1
10
-46.5004731678958
20
26.4071167016772
30
0
0
SPLINE
5
CB
100
AcDbEntity
8
SK1
62
256
6
ByLayer
370
18
48
1
60
0
100
AcDbSpline
70
4
71
3
72
17
73
13
40
0
40
0
40
0
40
0
40
0.726892953898444
40
0.760730680733004
40
0.794596411912757
40
0.828461545132936
40
0.862300570576877
40
0.896140328161333
40
0.92998105241753
40
0.963870592649492
40
0.997757522442937
40
1
40
1
40
1
40
1
41
1
10
-2.19614804162567
20
-27.5201000269845
30
0
41
1
10
-2.19995175769162
20
12.4588918838011
30
0
41
1
10
-2.20000257943554
20
21.3352042454195
30
0
41
1
10
-2.19999974186029
20
25.5807389778895
30
0
41
1
10
-2.19999842588475
20
26.0639264313219
30
0
41
1
10
-2.19999571070375
20
26.4851115211488
30
0
41
1
10
-2.19999113986022
20
26.8412796264964
30
0
41
1
10
-2.19998409093422
20
27.1290103432887
30
0
41
1
10
-2.19997381318288
20
27.344256725486
30
0
41
1
10
-2.19995942448684
20
27.4819458942961
30
0
41
1
10
-2.19994585303039
20
27.5186223827093
30
0
41
1
10
-2.19993759991587
20
27.5200708207353
30
0
41
1
10
-2.19993708276504
20
27.5200928730893
30
0
0
SPLINE
5
CC
100
AcDbEntity
8
SK1
62
256
6
ByLayer
370
18
48
1
60
0
100
AcDbSpline
70
4
71
2
72
6
73
3
40
0
40
0
40
0
40
1
40
1
40
1
41
1
10
-46.5004731678958
20
-26.4071167016237
30
0
41
1
10
-24.3483118040548
20
-26.9636561002882
30
0
41
1
10
-2.19615044021382
20
-27.5201954989527
30
0
0
SPLINE
5
CD
100
AcDbEntity
8
1
62
256
6
ByLayer
370
18
48
1
60
0
100
AcDbSpline
70
4
71
3
72
11
73
7
40
0
40
0
40
0
40
0
40
0.24784335638065
40
0.495681875100265
40
0.74784416213047
40
1
40
1
40
1
40
1
41
1
10
30.2091306063589
20
34.5686256465457
30
0
41
1
10
30.4707876531341
20
35.022531756416
30
0
41
1
10
31.0225485795324
20
35.9278302617209
30
0
41
1
10
31.9434607661511
20
37.2862166372852
30
0
41
1
10
32.9514870731329
20
38.6445563985403
30
0
41
1
10
33.675518614026
20
39.5491686137815
30
0
41
1
10
34.0501652878587
20
40
30
0
0
SPLINE
5
CE
100
AcDbEntity
8
1
62
256
6
ByLayer
370
18
48
1
60
0
100
AcDbSpline
70
4
71
3
72
10
73
6
40
0
40
0
40
0
40
0
40
0.149449147855344
40
0.568809430432216
40
1
40
1
40
1
40
1
41
1
10
29.4983102957913
20
33.7096230272226
30
0
41
1
10
29.5359414899616
20
33.7413518706807
30
0
41
1
10
29.6779972258195
20
33.8684051068438
30
0
41
1
10
29.9263889491047
20
34.1337989696221
30
0
41
1
10
30.1165243317351
20
34.4132042999246
30
0
41
1
10
30.2091306063589
20
34.5686256465457
30
0
0
SPLINE
5
CF
100
AcDbEntity
8
1
62
256
6
ByLayer
370
18
48
1
60
0
100
AcDbSpline
70
4
71
3
72
12
73
8
40
0
40
0
40
0
40
0
40
0.185295502728012
40
0.370616392791513
40
0.561673117749998
40
0.75275727947733
40
1
40
1
40
1
40
1
41
1
10
29.4983102957913
20
33.7096230272226
30
0
41
1
10
29.2819684057304
20
33.5155560390646
30
0
41
1
10
28.8814479056276
20
33.1099288134075
30
0
41
1
10
28.3730368899687
20
32.4407352673403
30
0
41
1
10
27.9574608117246
20
31.7134323296488
30
0
41
1
10
27.6017598607937
20
30.8538444857349
30
0
41
1
10
27.4303252473692
20
30.2182863774507
30
0
41
1
10
27.3586484770634
20
29.8475321244335
30
0
0
SPLINE
5
D0
100
AcDbEntity
8
1
62
256
6
ByLayer
370
18
48
1
60
0
100
AcDbSpline
70
4
71
3
72
15
73
11
40
0
40
0
40
0
40
0
40
0.111433415532446
40
0.222881171006024
40
0.335905047809865
40
0.448936858412068
40
0.585744200811445
40
0.722555029695205
40
0.861280734340383
40
1
40
1
40
1
40
1
41
1
10
30.3
20
-10
30
0
41
1
10
30.3602377209051
20
-9.65944683807836
30
0
41
1
10
30.4970445704419
20
-8.98538890831527
30
0
41
1
10
30.753235321099
20
-7.99026775934412
30
0
41
1
10
31.0588139383251
20
-7.01330940624579
30
0
41
1
10
31.4381591976427
20
-5.98800082628671
30
0
41
1
10
31.9009996769324
20
-4.92491291890895
30
0
41
1
10
32.4620363312937
20
-3.82600579821311
30
0
41
1
10
33.0935553496117
20
-2.75735914127165
30
0
41
1
10
33.5622713530452
20
-2.06693489529533
30
0
41
1
10
33.8080649422495
20
-1.72793318591585
30
0
0
SPLINE
5
D1
100
AcDbEntity
8
1
62
256
6
ByLayer
370
18
48
1
60
0
100
AcDbSpline
70
4
71
3
72
19
73
15
40
0
40
0
40
0
40
0
40
0.0923248864261315
40
0.194064908449087
40
0.296163130797773
40
0.398360948749546
40
0.500237236339259
40
0.584591053242334
40
0.6692987052047
40
0.753964121324075
40
0.838328846254641
40
0.922393930969593
40
0.961211678513573
40
1
40
1
40
1
40
1
41
1
10
53.368270318373
20
10.5311757848909
30
0
41
1
10
53.8331993804969
20
10.8635166935298
30
0
41
1
10
54.7677432699646
20
11.5887530806943
30
0
41
1
10
56.0559237852756
20
12.7879033512671
30
0
41
1
10
57.2402911370654
20
14.1057131072208
30
0
41
1
10
58.2830004406588
20
15.4924839423999
30
0
41
1
10
59.1358910654931
20
16.8590999157143
30
0
41
1
10
59.8286723194283
20
18.1772324258167
30
0
41
1
10
60.3886928853395
20
19.4451651835664
30
0
41
1
10
60.8611289667261
20
20.7674130088195
30
0
41
1
10
61.2440862192121
20
22.1562525752451
30
0
41
1
10
61.4834347668306
20
23.3591332768581
30
0
41
1
10
61.6255410073175
20
24.3420007066995
30
0
41
1
10
61.6777181599106
20
24.8349437465191
30
0
41
1
10
61.7
20
25.0859665408029
30
0
0
SPLINE
5
D2
100
AcDbEntity
8
1
62
256
6
ByLayer
370
18
48
1
60
0
100
AcDbSpline
70
4
71
3
72
15
73
11
40
0
40
0
40
0
40
0
40
0.115929160347013
40
0.233602139756808
40
0.351716646938229
40
0.469568136481338
40
0.620078540484967
40
0.771097947641307
40
0.921678095631146
40
1
40
1
40
1
40
1
41
1
10
33.8080649422495
20
-1.72793318591585
30
0
41
1
10
33.9874464818001
20
-1.4784310766601
30
0
41
1
10
34.3768999913098
20
-0.968449180310951
30
0
41
1
10
35.0537366075701
20
-0.165773575521099
30
0
41
1
10
35.8092963314099
20
0.637510765106143
30
0
41
1
10
36.7084925568817
20
1.49495614965234
30
0
41
1
10
37.7690986860806
20
2.37585620829229
30
0
41
1
10
38.9959238582757
20
3.25135819025757
30
0
41
1
10
40.0868981145951
20
3.91294587939941
30
0
41
1
10
40.7651661180512
20
4.27133254177406
30
0
41
1
10
41
20
4.3895445049393
30
0
0
SPLINE
5
D3
100
AcDbEntity
8
1
62
256
6
ByLayer
370
18
48
1
60
0
100
AcDbSpline
70
4
71
3
72
16
73
12
40
0
40
0
40
0
40
0
40
0.0619637900476604
40
0.195121785430599
40
0.328283507732751
40
0.465415052486076
40
0.602549839114775
40
0.701151006888054
40
0.799752143597769
40
0.89987631099911
40
1
40
1
40
1
40
1
41
1
10
33.8080649422495
20
-1.72793318591585
30
0
41
1
10
33.8828494957584
20
-1.56220340425311
30
0
41
1
10
34.1285468321452
20
-1.04607235603473
30
0
41
1
10
34.5971162014894
20
-0.206731524519599
30
0
41
1
10
35.2608565252992
20
0.770246038298366
30
0
41
1
10
36.0177437733841
20
1.69729106179724
30
0
41
1
10
36.7822680065981
20
2.49038472783406
30
0
41
1
10
37.5171201466931
20
3.15839758439381
30
0
41
1
10
38.2027657418381
20
3.72158756767417
30
0
41
1
10
38.9208104443537
20
4.25681002828434
30
0
41
1
10
39.4167100868052
20
4.59587607734038
30
0
41
1
10
39.668745389716
20
4.7604116382361
30
0
0
LINE
5
70
100
AcDbEntity
8
SK1
62
256
6
ByLayer
370
18
48
1
60
0
100
AcDbLine
10
-46.500473
20
26.407117
30
0
11
-46.500473
21
-26.407117
31
0
39
0
210
0
220
0
230
1
0
LINE
5
72
100
AcDbEntity
8
SK1
62
256
6
ByLayer
370
18
48
1
60
0
100
AcDbLine
10
-48
20
-25.498401
30
0
11
-48
21
25.499098
31
0
39
0
210
0
220
0
230
1
0
LINE
5
73
100
AcDbEntity
8
1
62
256
6
ByLayer
370
18
48
1
60
0
100
AcDbLine
10
0
20
39.7
30
0
11
0
21
-39.7
31
0
39
0
210
0
220
0
230
1
0
LINE
5
75
100
AcDbEntity
8
1
62
256
6
ByLayer
370
18
48
1
60
0
100
AcDbLine
10
0
20
39.7
30
0
11
0.3
21
40
31
0
39
0
210
0
220
0
230
1
0
LINE
5
76
100
AcDbEntity
8
1
62
256
6
ByLayer
370
18
48
1
60
0
100
AcDbLine
10
0.3
20
-40
30
0
11
0
21
-39.7
31
0
39
0
210
0
220
0
230
1
0
LINE
5
77
100
AcDbEntity
8
1
62
256
6
ByLayer
370
18
48
1
60
0
100
AcDbLine
10
10.538675
20
38.115458
30
0
11
13.461325
21
38.115458
31
0
39
0
210
0
220
0
230
1
0
LINE
5
78
100
AcDbEntity
8
1
62
256
6
ByLayer
370
18
48
1
60
0
100
AcDbLine
10
10.538675
20
38.115458
30
0
11
10.538675
21
12.13309
31
0
39
0
210
0
220
0
230
1
0
LINE
5
79
100
AcDbEntity
8
1
62
256
6
ByLayer
370
18
48
1
60
0
100
AcDbLine
10
13.461325
20
38.115458
30
0
11
13.461325
21
12.13309
31
0
39
0
210
0
220
0
230
1
0
LINE
5
7A
100
AcDbEntity
8
1
62
256
6
ByLayer
370
18
48
1
60
0
100
AcDbLine
10
10.538675
20
12.13309
30
0
11
13.461325
21
12.13309
31
0
39
0
210
0
220
0
230
1
0
LINE
5
7B
100
AcDbEntity
8
1
62
256
6
ByLayer
370
18
48
1
60
0
100
AcDbLine
10
13.461325
20
-12.13309
30
0
11
10.538675
21
-12.13309
31
0
39
0
210
0
220
0
230
1
0
LINE
5
7C
100
AcDbEntity
8
1
62
256
6
ByLayer
370
18
48
1
60
0
100
AcDbLine
10
10.538675
20
-38.115458
30
0
11
13.461325
21
-38.115458
31
0
39
0
210
0
220
0
230
1
0
LINE
5
7D
100
AcDbEntity
8
1
62
256
6
ByLayer
370
18
48
1
60
0
100
AcDbLine
10
10.538675
20
-12.13309
30
0
11
10.538675
21
-38.115458
31
0
39
0
210
0
220
0
230
1
0
LINE
5
7E
100
AcDbEntity
8
1
62
256
6
ByLayer
370
18
48
1
60
0
100
AcDbLine
10
13.461325
20
-12.13309
30
0
11
13.461325
21
-38.115458
31
0
39
0
210
0
220
0
230
1
0
LINE
5
7F
100
AcDbEntity
8
SK1
62
256
6
ByLayer
370
18
48
1
60
0
100
AcDbLine
10
0
20
-27.3
30
0
11
-2.198602
21
-27.3
31
0
39
0
210
0
220
0
230
1
0
LINE
5
80
100
AcDbEntity
8
SK1
62
256
6
ByLayer
370
18
48
1
60
0
100
AcDbLine
10
0
20
27.3
30
0
11
-2.198602
21
27.3
31
0
39
0
210
0
220
0
230
1
0
LINE
5
81
100
AcDbEntity
8
1
62
256
6
ByLayer
370
18
48
1
60
0
100
AcDbLine
10
31
20
40
30
0
11
31
21
40.324519
31
0
39
0
210
0
220
0
230
1
0
LINE
5
82
100
AcDbEntity
8
1
62
256
6
ByLayer
370
18
48
1
60
0
100
AcDbLine
10
35.721825
20
41.324519
30
0
11
35.721825
21
45.8
31
0
39
0
210
0
220
0
230
1
0
LINE
5
83
100
AcDbEntity
8
1
62
256
6
ByLayer
370
18
48
1
60
0
100
AcDbLine
10
33.971825
20
46
30
0
11
33.971825
21
50.5
31
0
39
0
210
0
220
0
230
1
0
LINE
5
84
100
AcDbEntity
8
1
62
256
6
ByLayer
370
18
48
1
60
0
100
AcDbLine
10
27.071422
20
-28.310177
30
0
11
25.010191
21
-40
31
0
39
0
210
0
220
0
230
1
0
LINE
5
85
100
AcDbEntity
8
1
62
256
6
ByLayer
370
18
48
1
60
0
100
AcDbLine
10
27.358648
20
-26.681233
30
0
11
27.071422
21
-28.310177
31
0
39
0
210
0
220
0
230
1
0
LINE
5
86
100
AcDbEntity
8
1
62
256
6
ByLayer
370
18
48
1
60
0
100
AcDbLine
10
40.721825
20
45.8
30
0
11
40.721825
21
41.324519
31
0
39
0
210
0
220
0
230
1
0
LINE
5
87
100
AcDbEntity
8
1
62
256
6
ByLayer
370
18
48
1
60
0
100
AcDbLine
10
42.471825
20
50.5
30
0
11
42.471825
21
46
31
0
39
0
210
0
220
0
230
1
0
LINE
5
88
100
AcDbEntity
8
1
62
256
6
ByLayer
370
18
48
1
60
0
100
AcDbLine
10
49.528175
20
46
30
0
11
49.528175
21
50.5
31
0
39
0
210
0
220
0
230
1
0
LINE
5
89
100
AcDbEntity
8
1
62
256
6
ByLayer
370
18
48
1
60
0
100
AcDbLine
10
58.028175
20
50.5
30
0
11
58.028175
21
46
31
0
39
0
210
0
220
0
230
1
0
LINE
5
8A
100
AcDbEntity
8
1
62
256
6
ByLayer
370
18
48
1
60
0
100
AcDbLine
10
62.3
20
40
30
0
11
62.3
21
31.943998
31
0
39
0
210
0
220
0
230
1
0
LINE
5
8B
100
AcDbEntity
8
1
62
256
6
ByLayer
370
18
48
1
60
0
100
AcDbLine
10
61
20
41.324519
30
0
11
62
21
40.324519
31
0
39
0
210
0
220
0
230
1
0
LINE
5
8C
100
AcDbEntity
8
1
62
256
6
ByLayer
370
18
48
1
60
0
100
AcDbLine
10
62
20
40.324519
30
0
11
62
21
40
31
0
39
0
210
0
220
0
230
1
0
LINE
5
8D
100
AcDbEntity
8
1
62
256
6
ByLayer
370
18
48
1
60
0
100
AcDbLine
10
56.278175
20
45.8
30
0
11
56.278175
21
41.324519
31
0
39
0
210
0
220
0
230
1
0
LINE
5
8E
100
AcDbEntity
8
1
62
256
6
ByLayer
370
18
48
1
60
0
100
AcDbLine
10
51.278175
20
41.324519
30
0
11
51.278175
21
45.8
31
0
39
0
210
0
220
0
230
1
0
LINE
5
8F
100
AcDbEntity
8
1
62
256
6
ByLayer
370
18
48
1
60
0
100
AcDbLine
10
58.028175
20
46
30
0
11
49.528175
21
46
31
0
39
0
210
0
220
0
230
1
0
LINE
5
90
100
AcDbEntity
8
1
62
256
6
ByLayer
370
18
48
1
60
0
100
AcDbLine
10
51.936098
20
10.613283
30
0
11
41
21
5.504387
31
0
39
0
210
0
220
0
230
1
0
LINE
5
91
100
AcDbEntity
8
1
62
256
6
ByLayer
370
18
48
1
60
0
100
AcDbLine
10
51.936098
20
10.613283
30
0
11
51.936098
21
40
31
0
39
0
210
0
220
0
230
1
0
LINE
5
92
100
AcDbEntity
8
1
62
256
6
ByLayer
370
18
48
1
60
0
100
AcDbLine
10
61.7
20
25.085967
30
0
11
62.000871
21
28.524939
31
0
39
0
210
0
220
0
230
1
0
LINE
5
93
100
AcDbEntity
8
1
62
256
6
ByLayer
370
18
48
1
60
0
100
AcDbLine
10
57.528175
20
51
30
0
11
50.028175
21
51
31
0
39
0
210
0
220
0
230
1
0
LINE
5
94
100
AcDbEntity
8
1
62
256
6
ByLayer
370
18
48
1
60
0
100
AcDbLine
10
42.471825
20
46
30
0
11
33.971825
21
46
31
0
39
0
210
0
220
0
230
1
0
LINE
5
95
100
AcDbEntity
8
1
62
256
6
ByLayer
370
18
48
1
60
0
100
AcDbLine
10
41.971825
20
51
30
0
11
34.471825
21
51
31
0
39
0
210
0
220
0
230
1
0
LINE
5
96
100
AcDbEntity
8
1
62
256
6
ByLayer
370
18
48
1
60
0
100
AcDbLine
10
39.668745
20
4.760412
30
0
11
39.668745
21
40
31
0
39
0
210
0
220
0
230
1
0
LINE
5
97
100
AcDbEntity
8
1
62
256
6
ByLayer
370
18
48
1
60
0
100
AcDbLine
10
27.358648
20
29.847532
30
0
11
27.358648
21
-26.681233
31
0
39
0
210
0
220
0
230
1
0
LINE
5
98
100
AcDbEntity
8
1
62
256
6
ByLayer
370
18
48
1
60
0
100
AcDbLine
10
30.3
20
-10
30
0
11
27.358648
21
-26.681233
31
0
39
0
210
0
220
0
230
1
0
LINE
5
99
100
AcDbEntity
8
1
62
256
6
ByLayer
370
18
48
1
60
0
100
AcDbLine
10
29.49831
20
33.709623
30
0
11
29.49831
21
40
31
0
39
0
210
0
220
0
230
1
0
LINE
5
9A
100
AcDbEntity
8
1
62
256
6
ByLayer
370
18
48
1
60
0
100
AcDbLine
10
41.54379
20
4.653192
30
0
11
50.228471
21
8.702926
31
0
39
0
210
0
220
0
230
1
0
LINE
5
9B
100
AcDbEntity
8
1
62
256
6
ByLayer
370
18
48
1
60
0
100
AcDbLine
10
61.7
20
25.085967
30
0
11
62.3
21
31.943998
31
0
39
0
210
0
220
0
230
1
0
LINE
5
9C
100
AcDbEntity
8
1
62
256
6
ByLayer
370
18
48
1
60
0
100
AcDbLine
10
0.3
20
40
30
0
11
29.49831
21
40
31
0
39
0
210
0
220
0
230
1
0
LINE
5
9D
100
AcDbEntity
8
1
62
256
6
ByLayer
370
18
48
1
60
0
100
AcDbLine
10
47.154701
20
21
30
0
11
48.309401
21
19
31
0
39
0
210
0
220
0
230
1
0
LINE
5
9E
100
AcDbEntity
8
1
62
256
6
ByLayer
370
18
48
1
60
0
100
AcDbLine
10
48.309401
20
19
30
0
11
47.154701
21
17
31
0
39
0
210
0
220
0
230
1
0
LINE
5
9F
100
AcDbEntity
8
1
62
256
6
ByLayer
370
18
48
1
60
0
100
AcDbLine
10
44.845299
20
21
30
0
11
43.690599
21
19
31
0
39
0
210
0
220
0
230
1
0
LINE
5
A0
100
AcDbEntity
8
1
62
256
6
ByLayer
370
18
48
1
60
0
100
AcDbLine
10
47.154701
20
17
30
0
11
44.845299
21
17
31
0
39
0
210
0
220
0
230
1
0
LINE
5
A1
100
AcDbEntity
8
1
62
256
6
ByLayer
370
18
48
1
60
0
100
AcDbLine
10
44.845299
20
17
30
0
11
43.690599
21
19
31
0
39
0
210
0
220
0
230
1
0
LINE
5
A2
100
AcDbEntity
8
1
62
256
6
ByLayer
370
18
48
1
60
0
100
AcDbLine
10
44.845299
20
21
30
0
11
47.154701
21
21
31
0
39
0
210
0
220
0
230
1
0
LINE
5
A3
100
AcDbEntity
8
1
62
256
6
ByLayer
370
18
48
1
60
0
100
AcDbLine
10
61
20
41.324519
30
0
11
32
21
41.324519
31
0
39
0
210
0
220
0
230
1
0
LINE
5
A4
100
AcDbEntity
8
1
62
256
6
ByLayer
370
18
48
1
60
0
100
AcDbLine
10
31
20
40.324519
30
0
11
32
21
41.324519
31
0
39
0
210
0
220
0
230
1
0
LINE
5
A5
100
AcDbEntity
8
1
62
256
6
ByLayer
370
18
48
1
60
0
100
AcDbLine
10
62.3
20
40
30
0
11
29.49831
21
40
31
0
39
0
210
0
220
0
230
1
0
LINE
5
A6
100
AcDbEntity
8
1
62
256
6
ByLayer
370
18
48
1
60
0
100
AcDbLine
10
25.010191
20
-40
30
0
11
0.3
21
-40
31
0
39
0
210
0
220
0
230
1
0
LINE
5
A7
100
AcDbEntity
8
80
62
256
6
ByLayer
370
13
48
1
60
0
100
AcDbLine
10
0
20
0
30
0
11
-12
21
0
31
0
39
0
210
0
220
0
230
1
0
LINE
5
A8
100
AcDbEntity
8
4
62
256
6
ByLayer
370
13
48
0.05
60
0
100
AcDbLine
10
0
20
0
30
0
11
59.606356
21
0
31
0
39
0
210
0
220
0
230
1
0
LINE
5
AA
100
AcDbEntity
8
81
62
256
6
ByLayer
370
13
48
1
60
0
100
AcDbLine
10
46
20
41
30
0
11
46
21
47
31
0
39
0
210
0
220
0
230
1
0
LINE
5
AB
100
AcDbEntity
8
SK4
62
256
6
ByLayer
370
13
48
0.05
60
0
100
AcDbLine
10
65.476576
20
0
30
0
11
-51
21
0
31
0
39
0
210
0
220
0
230
1
0
MTEXT
5
D4
100
AcDbEntity
8
SK6
62
256
6
ByLayer
370
18
48
1
60
0
100
AcDbMText
10
1.493933
20
-48.911934
30
0
210
0
220
0
230
1
1
\W0.7035;C8-570-32-RF
40
3.5
41
0
44
1.084337
50
0
71
7
72
5
7
iso_b_vert
0
DIMENSION
5
E3
100
AcDbEntity
8
SK2
62
256
6
ByLayer
370
13
48
1
60
0
100
AcDbDimension
2
DimnDraft3D1
10
-60.5
20
40
30
0
11
-60.75
21
2.147368
31
0
70
33
71
5
72
1
41
1
210
0
220
0
230
1
3
Standard
100
AcDbAlignedDimension
13
-1.7
23
-40
33
0
14
-1.7
24
40
34
0
1001
ACAD
1000
DSTYLE
1002
{
1070
   279
1070
     0
1070
    74
1070
     0
1070
   173
1070
     1
1070
   340
1005
D5
1070
   271
1070
     3
1070
   272
1070
     3
1070
    77
1070
     1
1070
    73
1070
     0
1070
   171
1070
     3
1070
   274
1070
     3
1070
   177
1070
   254
1070
   176
1070
   254
1070
   178
1070
   254
1070
    78
1070
     8
1070
    41
1041
3.175
1070
   147
1041
1.5
1070
    42
1041
2.0
1070
    44
1041
2.0
1070
   140
1041
3.0
1070
   343
1005
0
1070
   344
1005
0
1002
}
0
DIMENSION
5
ED
100
AcDbEntity
8
SK2
62
256
6
ByLayer
370
13
48
1
60
0
100
AcDbDimension
2
DimnDraft3D2
10
41
20
-76.5
30
0
11
22.035526
21
-76.5
31
0
70
32
71
5
72
1
41
1
210
0
220
0
230
1
3
Standard
100
AcDbAlignedDimension
13
0
23
-61.606356
33
0
14
41
24
-48
34
0
50
0
100
AcDbRotatedDimension
1001
ACAD
1000
DSTYLE
1002
{
1070
   279
1070
     0
1070
   172
1070
     1
1070
   173
1070
     1
1070
   340
1005
D5
1070
   271
1070
     3
1070
   272
1070
     3
1070
    77
1070
     1
1070
    73
1070
     0
1070
   171
1070
     3
1070
   274
1070
     3
1070
   177
1070
   254
1070
   176
1070
   254
1070
   178
1070
   254
1070
    78
1070
     8
1070
    41
1041
3.175
1070
   147
1041
1.5
1070
    42
1041
2.0
1070
    44
1041
2.0
1070
   140
1041
3.0
1070
   343
1005
0
1070
   344
1005
0
1002
}
0
DIMENSION
5
F8
100
AcDbEntity
8
2
62
256
6
ByLayer
370
13
48
1
60
0
100
AcDbDimension
2
DimnDraft3D3
10
46
20
74.807432
30
0
11
21.05
21
74.807432
31
0
70
32
71
5
72
1
41
1
210
0
220
0
230
1
3
Standard
100
AcDbAlignedDimension
13
0
23
41.7
33
0
14
46
24
43
34
0
50
0
100
AcDbRotatedDimension
1001
ACAD
1000
DSTYLE
1002
{
1070
   279
1070
     0
1070
   172
1070
     1
1070
   173
1070
     1
1070
   340
1005
D5
1070
   271
1070
     3
1070
   272
1070
     3
1070
    77
1070
     1
1070
    73
1070
     0
1070
   171
1070
     3
1070
   274
1070
     3
1070
   177
1070
   254
1070
   176
1070
   254
1070
   178
1070
   254
1070
    78
1070
     8
1070
    41
1041
3.175
1070
   147
1041
1.5
1070
    42
1041
2.0
1070
    44
1041
2.0
1070
   140
1041
3.0
1070
   343
1005
0
1070
   344
1005
0
1002
}
0
DIMENSION
5
103
100
AcDbEntity
8
SK2
62
256
6
ByLayer
370
13
48
1
60
0
100
AcDbDimension
2
DimnDraft3D4
10
62
20
63.532038
30
0
11
48.607895
21
63.782038
31
0
70
33
71
5
72
1
41
1
210
0
220
0
230
1
3
Standard
100
AcDbAlignedDimension
13
31
23
42.324519
33
0
14
62
24
42.324519
34
0
1001
ACAD
1000
DSTYLE
1002
{
1070
   279
1070
     0
1070
    74
1070
     0
1070
   173
1070
     1
1070
   340
1005
D5
1070
   271
1070
     3
1070
   272
1070
     3
1070
    77
1070
     1
1070
    73
1070
     0
1070
   171
1070
     3
1070
   274
1070
     3
1070
   177
1070
   254
1070
   176
1070
   254
1070
   178
1070
   254
1070
    78
1070
     8
1070
    41
1041
3.175
1070
   147
1041
1.5
1070
    42
1041
2.0
1070
    44
1041
2.0
1070
   140
1041
3.0
1070
   343
1005
0
1070
   344
1005
0
1002
}
0
ENDSEC
0
SECTION
2
OBJECTS
0
DICTIONARY
5
16e
330
0
100
AcDbDictionary
280
0
281
1
3
ACAD_GROUP
350
16f
3
ACAD_MLINESTYLE
350
170
0
DICTIONARY
5
16f
330
0
100
AcDbDictionary
280
0
281
1
0
DICTIONARY
5
170
330
0
100
AcDbDictionary
280
0
281
1
3
Standard
350
18
0
MLINESTYLE
5
18
330
170
100
AcDbMlineStyle
2
Standard
70
0
3

62
256
51
90
52
90
71
2
49
-0.5
62
256
6
ByLayer
49
0.5
62
256
6
ByLayer
0
RASTERVARIABLES
5
15c
330

100
AcDbRasterVariables
90
0
70
1
71
1
72
1
0
ENDSEC
0
EOF
