0
SECTION
2
HEADER
9
$ACADVER
1
AC1015
9
$DWGCODEPAGE
3
ANSI_1252
9
$HANDSEED
5
1cc
9
$ANGBASE
50
0
9
$ANGDIR
70
0
9
$ATTMODE
70
1
9
$AUNITS
70
0
9
$AUPREC
70
0
9
$CECOLOR
62
256
9
$CELTSCALE
40
1
9
$CELTYPE
6
ByLayer
9
$CELWEIGHT
370
18
9
$CLAYER
8
0
9
$CMLJUST
70
0
9
$CMLSCALE
40
1
9
$CMLSTYLE
2
Standard
9
$DIMSTYLE
2
Standard
9
$TEXTSIZE
40
0.2
9
$TEXTSTYLE
7
Standard
9
$LUNITS
70
2
9
$LUPREC
70
4
9
$EXTNAMES
290
1
9
$INSUNITS
70
4
9
$LTSCALE
40
1
9
$LWDISPLAY
290
1
9
$PDMODE
70
0
9
$PDSIZE
40
0
9
$PLINEGEN
70
0
0
ENDSEC
0
SECTION
2
CLASSES
0
CLASS
1
RASTERVARIABLES
2
AcDbRasterVariables
3
ISM
90
0
280
0
281
0
0
ENDSEC
0
SECTION
2
TABLES
0
TABLE
2
VPORT
5
1c2
100
AcDbSymbolTable
0
VPORT
5
1
100
AcDbSymbolTableRecord
100
AcDbViewportTableRecord
2
*Active
70
0
10
0
20
0
11
1
21
1
12
-1
22
1
13
0
23
0
14
0.5
24
0.5
15
10
25
10
16
0
26
0
36
1
17
0
27
0
37
0
0
ENDTAB
0
TABLE
2
LTYPE
5
1c3
100
AcDbSymbolTable
0
LTYPE
5
14
100
AcDbSymbolTableRecord
100
AcDbLinetypeTableRecord
70
0
2
ByBlock
3

72
65
73
0
40
0
0
LTYPE
5
15
100
AcDbSymbolTableRecord
100
AcDbLinetypeTableRecord
70
0
2
ByLayer
3

72
65
73
0
40
0
0
LTYPE
5
16
100
AcDbSymbolTableRecord
100
AcDbLinetypeTableRecord
70
0
2
Continuous
3
Solid line
72
65
73
0
40
0
0
LTYPE
5
6E
100
AcDbSymbolTableRecord
100
AcDbLinetypeTableRecord
70
0
2
CENTER
3
____ _ ____ _ ____ _ ____
72
65
73
4
40
47.5
49
22
74
0
49
-8.5
74
0
49
8.5
74
0
49
-8.5
74
0
0
LTYPE
5
6F
100
AcDbSymbolTableRecord
100
AcDbLinetypeTableRecord
70
0
2
DASHED
3
__ __ __ __ __ __ __ __ __
72
65
73
2
40
25.72
49
12.86
74
0
49
-12.86
74
0
0
ENDTAB
0
TABLE
2
LAYER
5
1c4
100
AcDbSymbolTable
0
LAYER
5
10
100
AcDbSymbolTableRecord
100
AcDbLayerTableRecord
2
0
70
0
62
7
6
Continuous
290
1
370
-3
390
0
0
LAYER
5
71
100
AcDbSymbolTableRecord
100
AcDbLayerTableRecord
2
1
70
0
62
4
6
Continuous
290
1
370
-3
390
0
0
LAYER
5
73
100
AcDbSymbolTableRecord
100
AcDbLayerTableRecord
2
80
70
0
62
-6
6
Continuous
290
1
370
-3
390
0
0
LAYER
5
75
100
AcDbSymbolTableRecord
100
AcDbLayerTableRecord
2
81
70
0
62
-3
6
Continuous
290
1
370
-3
390
0
0
LAYER
5
BA
100
AcDbSymbolTableRecord
100
AcDbLayerTableRecord
2
4
70
0
62
-2
6
CENTER
290
1
370
-3
390
0
0
LAYER
5
108
100
AcDbSymbolTableRecord
100
AcDbLayerTableRecord
2
Defpoints
70
0
62
7
6
Continuous
290
0
370
-3
390
0
0
LAYER
5
12D
100
AcDbSymbolTableRecord
100
AcDbLayerTableRecord
2
2
70
0
62
7
6
Continuous
290
1
370
-3
390
0
0
LAYER
5
1ae
100
AcDbSymbolTableRecord
100
AcDbLayerTableRecord
2
SK1
70
0
62
4
6
Continuous
290
1
370
-3
390
0
0
LAYER
5
1af
100
AcDbSymbolTableRecord
100
AcDbLayerTableRecord
2
SK4
70
0
62
2
6
CENTER
290
1
370
-3
390
0
0
LAYER
5
1b0
100
AcDbSymbolTableRecord
100
AcDbLayerTableRecord
2
SK2
70
0
62
7
6
Continuous
290
1
370
-3
390
0
0
LAYER
5
1b1
100
AcDbSymbolTableRecord
100
AcDbLayerTableRecord
2
SK6
70
0
62
5
6
Continuous
290
1
370
-3
390
0
0
ENDTAB
0
TABLE
2
STYLE
5
1c5
100
AcDbSymbolTable
0
STYLE
5
11
100
AcDbSymbolTableRecord
100
AcDbTextStyleTableRecord
2
Standard
3
txt
70
0
71
0
40
0
41
1
42
0
50
0
0
STYLE
5
ED
100
AcDbSymbolTableRecord
100
AcDbTextStyleTableRecord
2
iso_b_vert
3
simplex.shx
70
0
71
0
40
0
41
1
42
0
50
0
0
STYLE
5
EE
100
AcDbSymbolTableRecord
100
AcDbTextStyleTableRecord
2
DWGDirectTextStyle
3
simplex
70
0
71
0
40
0
41
1
42
0
50
0
0
ENDTAB
0
TABLE
2
DIMSTYLE
5
1c6
100
AcDbSymbolTable
100
AcDbDimStyleTable
0
DIMSTYLE
105
27
100
AcDbSymbolTableRecord
100
AcDbDimStyleTableRecord
2
Standard
70
0
3
<>
41
0.18
42
0.0625
44
0.18
140
0.18
147
0.09
73
0
74
0
77
1
271
2
275
0
278
52
280
0
340
11
0
ENDTAB
0
TABLE
2
VIEW
5
1c7
100
AcDbSymbolTable
0
ENDTAB
0
TABLE
2
UCS
5
1c8
100
AcDbSymbolTable
0
ENDTAB
0
TABLE
2
APPID
5
1c9
100
AcDbSymbolTable
0
APPID
5
12
100
AcDbSymbolTableRecord
100
AcDbRegAppTableRecord
2
ACAD
70
0
0
APPID
5
104
100
AcDbSymbolTableRecord
100
AcDbRegAppTableRecord
2
ACAD_DSTYLE_DIMBREAK
70
0
0
APPID
5
16D
100
AcDbSymbolTableRecord
100
AcDbRegAppTableRecord
2
ACAD_DSTYLE_DIM_LINETYPE
70
0
0
APPID
5
16E
100
AcDbSymbolTableRecord
100
AcDbRegAppTableRecord
2
ACAD_DSTYLE_DIM_EXT1_LINETYPE
70
0
0
APPID
5
16F
100
AcDbSymbolTableRecord
100
AcDbRegAppTableRecord
2
ACAD_DSTYLE_DIM_EXT2_LINETYPE
70
0
0
APPID
5
1AA
100
AcDbSymbolTableRecord
100
AcDbRegAppTableRecord
2
ACAD_MLEADERVER
70
0
0
ENDTAB
0
TABLE
2
BLOCK_RECORD
5
1ca
100
AcDbSymbolTable
0
BLOCK_RECORD
5
1F
100
AcDbSymbolTableRecord
100
AcDbBlockTableRecord
2
*Model_Space
340
0
70
0
0
BLOCK_RECORD
5
1B
100
AcDbSymbolTableRecord
100
AcDbBlockTableRecord
2
*Paper_Space
340
0
70
0
0
BLOCK_RECORD
5
23
100
AcDbSymbolTableRecord
100
AcDbBlockTableRecord
2
*Paper_Space0
340
0
70
0
0
BLOCK_RECORD
5
109
100
AcDbSymbolTableRecord
100
AcDbBlockTableRecord
2
*D1
340
0
70
0
0
BLOCK_RECORD
5
115
100
AcDbSymbolTableRecord
100
AcDbBlockTableRecord
2
_U0
340
0
70
0
0
BLOCK_RECORD
5
121
100
AcDbSymbolTableRecord
100
AcDbBlockTableRecord
2
*D3
340
0
70
0
0
BLOCK_RECORD
5
12E
100
AcDbSymbolTableRecord
100
AcDbBlockTableRecord
2
_U1
340
0
70
0
0
BLOCK_RECORD
5
13A
100
AcDbSymbolTableRecord
100
AcDbBlockTableRecord
2
*D5
340
0
70
0
0
BLOCK_RECORD
5
146
100
AcDbSymbolTableRecord
100
AcDbBlockTableRecord
2
_U2
340
0
70
0
0
ENDTAB
0
ENDSEC
0
SECTION
2
BLOCKS
0
BLOCK
5
20
100
AcDbEntity
8
0
100
AcDbBlockBegin
2
*Model_Space
70
0
10
0
20
0
30
0
3
*Model_Space
0
ENDBLK
5
21
100
AcDbEntity
8
0
100
AcDbBlockEnd
0
BLOCK
5
1C
100
AcDbEntity
8
0
100
AcDbBlockBegin
2
*Paper_Space
70
0
10
0
20
0
30
0
3
*Paper_Space
0
ENDBLK
5
1D
100
AcDbEntity
8
0
100
AcDbBlockEnd
0
BLOCK
5
24
100
AcDbEntity
8
0
100
AcDbBlockBegin
2
*Paper_Space0
70
0
10
0
20
0
30
0
3
*Paper_Space0
0
ENDBLK
5
25
100
AcDbEntity
8
0
100
AcDbBlockEnd
0
BLOCK
5
10A
100
AcDbEntity
8
0
100
AcDbBlockBegin
2
*D1
70
1
10
0
20
0
30
0
3
*D1
0
LINE
5
10C
100
AcDbEntity
8
0
62
256
6
ByLayer
370
-2
48
1
60
0
100
AcDbLine
10
0
20
50.3125
30
0
11
0
21
65.647986
31
0
39
0
210
0
220
0
230
1
0
LINE
5
10D
100
AcDbEntity
8
0
62
256
6
ByLayer
370
-2
48
1
60
0
100
AcDbLine
10
19.05
20
50.3125
30
0
11
19.05
21
65.647986
31
0
39
0
210
0
220
0
230
1
0
LINE
5
10E
100
AcDbEntity
8
0
62
256
6
ByLayer
370
-2
48
1
60
0
100
AcDbLine
10
3.5
20
63.647986
30
0
11
15.55
21
63.647986
31
0
39
0
210
0
220
0
230
1
0
SOLID
5
10F
100
AcDbEntity
8
0
62
256
6
ByLayer
370
-1
48
1
60
0
100
AcDbTrace
10
3.5
20
64.231319
30
0
11
3.5
21
63.064652
31
0
12
0
22
63.647986
32
0
13
0
23
63.647986
33
0
39
0
210
0
220
0
230
1
0
SOLID
5
110
100
AcDbEntity
8
0
62
256
6
ByLayer
370
-1
48
1
60
0
100
AcDbTrace
10
15.55
20
63.064652
30
0
11
15.55
21
64.231319
31
0
12
19.05
22
63.647986
32
0
13
19.05
23
63.647986
33
0
39
0
210
0
220
0
230
1
0
MTEXT
5
111
100
AcDbEntity
8
0
62
256
6
ByLayer
370
18
48
1
60
0
100
AcDbMText
10
9.525
20
70.647986
30
0
210
0
220
0
230
1
1
\A1;19.1
40
3.5
41
0
44
1
50
0
71
5
72
5
7
iso_b_vert
0
POINT
5
112
100
AcDbEntity
8
Defpoints
62
0
6
ByLayer
370
-1
48
1
60
0
100
AcDbPoint
10
0
20
48.725
30
0
39
0
210
0
220
0
230
1
50
360
0
POINT
5
113
100
AcDbEntity
8
Defpoints
62
0
6
ByLayer
370
-1
48
1
60
0
100
AcDbPoint
10
19.05
20
48.725
30
0
39
0
210
0
220
0
230
1
50
360
0
POINT
5
114
100
AcDbEntity
8
Defpoints
62
0
6
ByLayer
370
-1
48
1
60
0
100
AcDbPoint
10
19.05
20
63.647986
30
0
39
0
210
0
220
0
230
1
50
360
0
ENDBLK
5
10B
100
AcDbEntity
8
0
100
AcDbBlockEnd
0
BLOCK
5
11C
100
AcDbEntity
8
0
100
AcDbBlockBegin
2
_U0
70
0
10
0
20
0
30
0
3
_U0
0
MTEXT
5
116
100
AcDbEntity
8
SK2
62
256
6
ByLayer
370
18
48
1
60
0
100
AcDbMText
10
8.057467
20
64.680619
30
0
210
0
220
0
230
1
1
\W0.5469;19
40
3.5
41
0
44
1.084337
50
0
71
7
72
5
7
iso_b_vert
0
LINE
5
117
100
AcDbEntity
8
SK2
62
256
6
ByLayer
370
13
48
1
60
0
100
AcDbLine
10
0
20
50.3125
30
0
11
0
21
65.647986
31
0
39
0
210
0
220
0
230
1
0
LINE
5
118
100
AcDbEntity
8
SK2
62
256
6
ByLayer
370
13
48
1
60
0
100
AcDbLine
10
19.05
20
50.3125
30
0
11
19.05
21
65.647986
31
0
39
0
210
0
220
0
230
1
0
LINE
5
119
100
AcDbEntity
8
SK2
62
256
6
ByLayer
370
13
48
1
60
0
100
AcDbLine
10
0
20
63.647986
30
0
11
19.05
21
63.647986
31
0
39
0
210
0
220
0
230
1
0
SOLID
5
11A
100
AcDbEntity
8
SK2
62
256
6
ByLayer
370
18
48
1
60
0
100
AcDbTrace
10
0
20
63.647986
30
0
11
3.499998
21
64.108769
31
0
12
3.500002
22
63.187202
32
0
13
3.500002
23
63.187202
33
0
39
0
210
0
220
0
230
1
0
SOLID
5
11B
100
AcDbEntity
8
SK2
62
256
6
ByLayer
370
18
48
1
60
0
100
AcDbTrace
10
19.05
20
63.647986
30
0
11
15.550002
21
63.187202
31
0
12
15.549998
22
64.108769
32
0
13
15.549998
23
64.108769
33
0
39
0
210
0
220
0
230
1
0
ENDBLK
5
11D
100
AcDbEntity
8
0
100
AcDbBlockEnd
0
BLOCK
5
122
100
AcDbEntity
8
0
100
AcDbBlockBegin
2
*D3
70
1
10
0
20
0
30
0
3
*D3
0
LINE
5
124
100
AcDbEntity
8
0
62
256
6
ByLayer
370
-2
48
1
60
0
100
AcDbLine
10
120
20
41.5875
30
0
11
120
21
75.647986
31
0
39
0
210
0
220
0
230
1
0
LINE
5
125
100
AcDbEntity
8
0
62
256
6
ByLayer
370
-2
48
1
60
0
100
AcDbLine
10
0
20
50.3125
30
0
11
0
21
75.647986
31
0
39
0
210
0
220
0
230
1
0
LINE
5
126
100
AcDbEntity
8
0
62
256
6
ByLayer
370
-2
48
1
60
0
100
AcDbLine
10
116.5
20
73.647986
30
0
11
3.5
21
73.647986
31
0
39
0
210
0
220
0
230
1
0
SOLID
5
127
100
AcDbEntity
8
0
62
256
6
ByLayer
370
-1
48
1
60
0
100
AcDbTrace
10
116.5
20
73.064652
30
0
11
116.5
21
74.231319
31
0
12
120
22
73.647986
32
0
13
120
23
73.647986
33
0
39
0
210
0
220
0
230
1
0
SOLID
5
128
100
AcDbEntity
8
0
62
256
6
ByLayer
370
-1
48
1
60
0
100
AcDbTrace
10
3.5
20
74.231319
30
0
11
3.5
21
73.064652
31
0
12
0
22
73.647986
32
0
13
0
23
73.647986
33
0
39
0
210
0
220
0
230
1
0
MTEXT
5
129
100
AcDbEntity
8
0
62
256
6
ByLayer
370
18
48
1
60
0
100
AcDbMText
10
60
20
80.647986
30
0
210
0
220
0
230
1
1
\A1;120
40
3.5
41
0
44
1
50
0
71
5
72
5
7
iso_b_vert
0
POINT
5
12A
100
AcDbEntity
8
Defpoints
62
0
6
ByLayer
370
-1
48
1
60
0
100
AcDbPoint
10
120
20
40
30
0
39
0
210
0
220
0
230
1
50
360
0
POINT
5
12B
100
AcDbEntity
8
Defpoints
62
0
6
ByLayer
370
-1
48
1
60
0
100
AcDbPoint
10
0
20
48.725
30
0
39
0
210
0
220
0
230
1
50
360
0
POINT
5
12C
100
AcDbEntity
8
Defpoints
62
0
6
ByLayer
370
-1
48
1
60
0
100
AcDbPoint
10
0
20
73.647986
30
0
39
0
210
0
220
0
230
1
50
360
0
ENDBLK
5
123
100
AcDbEntity
8
0
100
AcDbBlockEnd
0
BLOCK
5
135
100
AcDbEntity
8
0
100
AcDbBlockBegin
2
_U1
70
0
10
0
20
0
30
0
3
_U1
0
MTEXT
5
12F
100
AcDbEntity
8
2
62
256
6
ByLayer
370
18
48
1
60
0
100
AcDbMText
10
57.224734
20
74.680619
30
0
210
0
220
0
230
1
1
\W0.6217;120
40
3.5
41
0
44
1.084337
50
0
71
7
72
5
7
iso_b_vert
0
LINE
5
130
100
AcDbEntity
8
2
62
256
6
ByLayer
370
13
48
1
60
0
100
AcDbLine
10
120
20
41.5875
30
0
11
120
21
75.647986
31
0
39
0
210
0
220
0
230
1
0
LINE
5
131
100
AcDbEntity
8
2
62
256
6
ByLayer
370
13
48
1
60
0
100
AcDbLine
10
0
20
50.3125
30
0
11
0
21
75.647986
31
0
39
0
210
0
220
0
230
1
0
LINE
5
132
100
AcDbEntity
8
2
62
256
6
ByLayer
370
13
48
1
60
0
100
AcDbLine
10
120
20
73.647986
30
0
11
0
21
73.647986
31
0
39
0
210
0
220
0
230
1
0
SOLID
5
133
100
AcDbEntity
8
2
62
256
6
ByLayer
370
18
48
1
60
0
100
AcDbTrace
10
120
20
73.647986
30
0
11
116.500002
21
73.187202
31
0
12
116.499998
22
74.108769
32
0
13
116.499998
23
74.108769
33
0
39
0
210
0
220
0
230
1
0
SOLID
5
134
100
AcDbEntity
8
2
62
256
6
ByLayer
370
18
48
1
60
0
100
AcDbTrace
10
0
20
73.647986
30
0
11
3.499998
21
74.108769
31
0
12
3.500002
22
73.187202
32
0
13
3.500002
23
73.187202
33
0
39
0
210
0
220
0
230
1
0
ENDBLK
5
136
100
AcDbEntity
8
0
100
AcDbBlockEnd
0
BLOCK
5
13B
100
AcDbEntity
8
0
100
AcDbBlockBegin
2
*D5
70
1
10
0
20
0
30
0
3
*D5
0
LINE
5
13D
100
AcDbEntity
8
0
62
256
6
ByLayer
370
-2
48
1
60
0
100
AcDbLine
10
-101.6
20
14.0875
30
0
11
-101.6
21
75.647986
31
0
39
0
210
0
220
0
230
1
0
LINE
5
13E
100
AcDbEntity
8
0
62
256
6
ByLayer
370
-2
48
1
60
0
100
AcDbLine
10
0
20
50.3125
30
0
11
0
21
75.647986
31
0
39
0
210
0
220
0
230
1
0
LINE
5
13F
100
AcDbEntity
8
0
62
256
6
ByLayer
370
-2
48
1
60
0
100
AcDbLine
10
-98.1
20
73.647986
30
0
11
-3.5
21
73.647986
31
0
39
0
210
0
220
0
230
1
0
SOLID
5
140
100
AcDbEntity
8
0
62
256
6
ByLayer
370
-1
48
1
60
0
100
AcDbTrace
10
-98.1
20
74.231319
30
0
11
-98.1
21
73.064652
31
0
12
-101.6
22
73.647986
32
0
13
-101.6
23
73.647986
33
0
39
0
210
0
220
0
230
1
0
SOLID
5
141
100
AcDbEntity
8
0
62
256
6
ByLayer
370
-1
48
1
60
0
100
AcDbTrace
10
-3.5
20
73.064652
30
0
11
-3.5
21
74.231319
31
0
12
0
22
73.647986
32
0
13
0
23
73.647986
33
0
39
0
210
0
220
0
230
1
0
MTEXT
5
142
100
AcDbEntity
8
0
62
256
6
ByLayer
370
18
48
1
60
0
100
AcDbMText
10
-50.8
20
80.647986
30
0
210
0
220
0
230
1
1
\A1;101.6
40
3.5
41
0
44
1
50
0
71
5
72
5
7
iso_b_vert
0
POINT
5
143
100
AcDbEntity
8
Defpoints
62
0
6
ByLayer
370
-1
48
1
60
0
100
AcDbPoint
10
-101.6
20
12.5
30
0
39
0
210
0
220
0
230
1
50
360
0
POINT
5
144
100
AcDbEntity
8
Defpoints
62
0
6
ByLayer
370
-1
48
1
60
0
100
AcDbPoint
10
0
20
48.725
30
0
39
0
210
0
220
0
230
1
50
360
0
POINT
5
145
100
AcDbEntity
8
Defpoints
62
0
6
ByLayer
370
-1
48
1
60
0
100
AcDbPoint
10
0
20
73.647986
30
0
39
0
210
0
220
0
230
1
50
360
0
ENDBLK
5
13C
100
AcDbEntity
8
0
100
AcDbBlockEnd
0
BLOCK
5
14D
100
AcDbEntity
8
0
100
AcDbBlockBegin
2
_U2
70
0
10
0
20
0
30
0
3
_U2
0
MTEXT
5
147
100
AcDbEntity
8
SK2
62
256
6
ByLayer
370
18
48
1
60
0
100
AcDbMText
10
-55.062432
20
74.680619
30
0
210
0
220
0
230
1
1
\W0.6110;101,6
40
3.5
41
0
44
1.084337
50
0
71
7
72
5
7
iso_b_vert
0
LINE
5
148
100
AcDbEntity
8
SK2
62
256
6
ByLayer
370
13
48
1
60
0
100
AcDbLine
10
-101.6
20
14.0875
30
0
11
-101.6
21
75.647986
31
0
39
0
210
0
220
0
230
1
0
LINE
5
149
100
AcDbEntity
8
SK2
62
256
6
ByLayer
370
13
48
1
60
0
100
AcDbLine
10
0
20
50.3125
30
0
11
0
21
75.647986
31
0
39
0
210
0
220
0
230
1
0
LINE
5
14A
100
AcDbEntity
8
SK2
62
256
6
ByLayer
370
13
48
1
60
0
100
AcDbLine
10
-101.6
20
73.647986
30
0
11
0
21
73.647986
31
0
39
0
210
0
220
0
230
1
0
SOLID
5
14B
100
AcDbEntity
8
SK2
62
256
6
ByLayer
370
18
48
1
60
0
100
AcDbTrace
10
-101.6
20
73.647986
30
0
11
-98.100002
21
74.108769
31
0
12
-98.099998
22
73.187202
32
0
13
-98.099998
23
73.187202
33
0
39
0
210
0
220
0
230
1
0
SOLID
5
14C
100
AcDbEntity
8
SK2
62
256
6
ByLayer
370
18
48
1
60
0
100
AcDbTrace
10
0
20
73.647986
30
0
11
-3.499998
21
73.187202
31
0
12
-3.500002
22
74.108769
32
0
13
-3.500002
23
74.108769
33
0
39
0
210
0
220
0
230
1
0
ENDBLK
5
14E
100
AcDbEntity
8
0
100
AcDbBlockEnd
0
ENDSEC
0
SECTION
2
ENTITIES
0
ARC
5
D1
100
AcDbEntity
8
SK1
62
256
6
ByLayer
370
18
48
1
60
0
100
AcDbCircle
39
0
10
-99.1
20
-17.94535
30
0
40
2.5
210
0
220
0
230
1
100
AcDbArc
50
180
51
261.702222
0
ARC
5
D2
100
AcDbEntity
8
SK1
62
256
6
ByLayer
370
18
48
1
60
0
100
AcDbCircle
39
0
10
-99.1
20
17.94535
30
0
40
2.5
210
0
220
0
230
1
100
AcDbArc
50
98.297778
51
180
0
ARC
5
D3
100
AcDbEntity
8
1
62
256
6
ByLayer
370
18
48
1
60
0
100
AcDbCircle
39
0
10
1.3
20
-35.125
30
0
40
0.5
210
0
220
0
230
1
100
AcDbArc
50
66.421412
51
90
0
ARC
5
D4
100
AcDbEntity
8
1
62
256
6
ByLayer
370
18
48
1
60
0
100
AcDbCircle
39
0
10
1.3
20
35.125
30
0
40
0.5
210
0
220
0
230
1
100
AcDbArc
50
270
51
293.578588
0
ELLIPSE
5
D5
100
AcDbEntity
8
1
62
256
6
ByLayer
370
18
48
1
60
0
100
AcDbEllipse
10
17.1025
20
0
30
0
11
48.7249999582325
21
5.70791625903547E-14
31
0
210
0
220
0
230
1
40
1
41
1.8387953937676
42
1.87516628274101
0
ELLIPSE
5
D6
100
AcDbEntity
8
1
62
256
6
ByLayer
370
18
48
1
60
0
100
AcDbEllipse
10
17.1025
20
1E-06
30
0
11
2.98344727207723E-15
21
48.7250006953657
31
0
210
0
220
0
230
1
40
1
41
2.83722269986371
42
2.87359358851149
0
POINT
5
70
100
AcDbEntity
8
1
62
256
6
ByLayer
370
18
48
1
60
0
100
AcDbPoint
10
0
20
0
30
0
39
0
210
0
220
0
230
1
50
360
0
POINT
5
72
100
AcDbEntity
8
80
62
256
6
ByLayer
370
18
48
1
60
0
100
AcDbPoint
10
0
20
0
30
0
39
0
210
0
220
0
230
1
50
360
0
POINT
5
74
100
AcDbEntity
8
81
62
256
6
ByLayer
370
18
48
1
60
0
100
AcDbPoint
10
120
20
0
30
0
39
0
210
0
220
0
230
1
50
360
0
POINT
5
76
100
AcDbEntity
8
1
62
256
6
ByLayer
370
18
48
1
60
1
100
AcDbPoint
10
0
20
48.725
30
0
39
0
210
0
220
0
230
1
50
360
0
POINT
5
77
100
AcDbEntity
8
1
62
256
6
ByLayer
370
18
48
1
60
1
100
AcDbPoint
10
19.05
20
48.725
30
0
39
0
210
0
220
0
230
1
50
360
0
POINT
5
78
100
AcDbEntity
8
1
62
256
6
ByLayer
370
18
48
1
60
1
100
AcDbPoint
10
120
20
40
30
0
39
0
210
0
220
0
230
1
50
360
0
POINT
5
79
100
AcDbEntity
8
1
62
256
6
ByLayer
370
18
48
1
60
1
100
AcDbPoint
10
0
20
48.725
30
0
39
0
210
0
220
0
230
1
50
360
0
POINT
5
7A
100
AcDbEntity
8
1
62
256
6
ByLayer
370
18
48
1
60
1
100
AcDbPoint
10
-101.6
20
12.5
30
0
39
0
210
0
220
0
230
1
50
360
0
POINT
5
7B
100
AcDbEntity
8
1
62
256
6
ByLayer
370
18
48
1
60
1
100
AcDbPoint
10
0
20
48.725
30
0
39
0
210
0
220
0
230
1
50
360
0
SPLINE
5
D7
100
AcDbEntity
8
1
62
256
6
ByLayer
370
18
48
1
60
0
100
AcDbSpline
70
4
71
3
72
30
73
26
40
0
40
0
40
0
40
0
40
0.130497184484576
40
0.130497184484576
40
0.195745776726864
40
0.195745776726864
40
0.260994368969153
40
0.260994368969153
40
0.39149155345373
40
0.39149155345373
40
0.456740145696019
40
0.456740145696019
40
0.521988737938308
40
0.521988737938308
40
0.652485922422886
40
0.652485922422886
40
0.717734514665175
40
0.717734514665175
40
0.782983106907463
40
0.782983106907463
40
0.913480291392041
40
0.913480291392041
40
0.97872888363433
40
0.97872888363433
40
1
40
1
40
1
40
1
41
1
10
25.5
20
39.3999428140448
30
-2E-16
41
1
10
25.5
20
39.3305257472808
30
-2E-16
41
1
10
25.4611438224802
20
39.2563043492062
30
-2E-16
41
1
10
25.3478256170917
20
39.1385110087226
30
-2E-16
41
1
10
25.3008096181167
20
39.0981705704597
30
-2E-16
41
1
10
25.1880055570841
20
39.0154813094549
30
-2E-16
41
1
10
25.1218287083218
20
38.9729436304897
30
-2E-16
41
1
10
24.8987881445366
20
38.8451907562096
30
-3E-16
41
1
10
24.7170827939045
20
38.7591897466014
30
-3E-16
41
1
10
24.3955802847352
20
38.6309384528581
30
-3E-16
41
1
10
24.2801956239237
20
38.5883179029562
30
-3E-16
41
1
10
24.0323214073716
20
38.5037574742219
30
-3E-16
41
1
10
23.9016628937276
20
38.4624501620602
30
-3E-16
41
1
10
23.490879781366
20
38.3422838615832
30
-3E-16
41
1
10
23.1917682755112
20
38.2670058971252
30
-4E-16
41
1
10
22.7037173439216
20
38.1642179158851
30
-4E-16
41
1
10
22.5334261135896
20
38.1315015197192
30
-4E-16
41
1
10
22.1860775513948
20
38.0713141535757
30
-4E-16
41
1
10
22.0086229131472
20
38.0437226297829
30
-4E-16
41
1
10
21.4650234935577
20
37.9689089954729
30
-5E-16
41
1
10
21.0877603165158
20
37.9295875497466
30
-5E-16
41
1
10
20.4979785042749
20
37.8891786015081
30
-5E-16
41
1
10
20.2996577839682
20
37.8789891567453
30
-5E-16
41
1
10
20.0356527949815
20
37.8699622008778
30
-5E-16
41
1
10
19.9706315236743
20
37.8681000418497
30
-6E-16
41
1
10
19.905494662405
20
37.866598028309
30
-6E-16
0
SPLINE
5
D8
100
AcDbEntity
8
1
62
256
6
ByLayer
370
18
48
1
60
0
100
AcDbSpline
70
2053
71
3
72
90
73
86
40
0
40
0
40
0
40
0
40
0.0312499999999999
40
0.0312499999999999
40
0.0468750000000001
40
0.0468750000000001
40
0.0625000000000003
40
0.0625000000000003
40
0.0937500000000006
40
0.0937500000000006
40
0.125000000000001
40
0.125000000000001
40
0.156250000000001
40
0.156250000000001
40
0.171875000000001
40
0.171875000000001
40
0.187500000000001
40
0.203125000000001
40
0.203125000000001
40
0.218750000000002
40
0.218750000000002
40
0.250000000000002
40
0.250000000000002
40
0.281250000000002
40
0.281250000000002
40
0.312500000000002
40
0.312500000000002
40
0.328125000000002
40
0.328125000000002
40
0.343750000000002
40
0.343750000000002
40
0.375000000000001
40
0.375000000000001
40
0.406250000000001
40
0.406250000000001
40
0.421875000000002
40
0.421875000000002
40
0.437500000000002
40
0.437500000000002
40
0.468750000000002
40
0.468750000000002
40
0.500000000000001
40
0.500000000000001
40
0.531250000000001
40
0.531250000000001
40
0.546875000000001
40
0.546875000000001
40
0.562500000000001
40
0.578125000000001
40
0.578125000000001
40
0.593750000000001
40
0.593750000000001
40
0.625000000000001
40
0.625000000000001
40
0.640625000000001
40
0.640625000000001
40
0.656250000000001
40
0.656250000000001
40
0.687500000000001
40
0.687500000000001
40
0.703125000000002
40
0.703125000000002
40
0.718750000000002
40
0.718750000000002
40
0.750000000000002
40
0.750000000000002
40
0.781250000000002
40
0.781250000000002
40
0.796875000000002
40
0.796875000000002
40
0.812500000000002
40
0.812500000000002
40
0.843750000000002
40
0.843750000000002
40
0.875000000000002
40
0.875000000000002
40
0.906250000000002
40
0.906250000000002
40
0.921875000000002
40
0.921875000000002
40
0.937500000000002
40
0.937500000000002
40
0.968750000000001
40
0.968750000000001
40
1
40
1
40
1
40
1
41
1
10
11.1
20
1.75
30
7E-16
41
1
10
10.9843750798771
20
1.75
30
7E-16
41
1
10
10.8706844637775
20
1.73865341803645
30
7E-16
41
1
10
10.7029308461554
20
1.70531123782899
30
7E-16
41
1
10
10.6474801367435
20
1.69145655551972
30
7E-16
41
1
10
10.5375342360687
20
1.65814105861278
30
6E-16
41
1
10
10.4828920829912
20
1.63858691295718
30
6E-16
41
1
10
10.3239490574876
20
1.57270529496896
30
6E-16
41
1
10
10.223437858835
20
1.51895251456617
30
6E-16
41
1
10
10.0332159928233
20
1.39195898318255
30
6E-16
41
1
10
9.94315992321521
20
1.31804841708461
30
6E-16
41
1
10
9.78173992054522
20
1.1565988742648
30
6E-16
41
1
10
9.70930274054413
20
1.06850396887054
30
6E-16
41
1
10
9.61335371803509
20
0.925036611198408
30
6E-16
41
1
10
9.58356641084097
20
0.875333811115695
30
6E-16
41
1
10
9.52957852065975
20
0.774310288970696
30
6E-16
41
1
10
9.48080349274497
20
0.671140004808336
30
6E-16
41
1
10
9.44229833960603
20
0.563739686115696
30
6E-16
41
1
10
9.40899903470731
20
0.454194852407966
30
6E-16
41
1
10
9.39489765912441
20
0.398047339570951
30
6E-16
41
1
10
9.36118036043615
20
0.228624081546229
30
6E-16
41
1
10
9.35006111574268
20
0.11507221293229
30
6E-16
41
1
10
9.34993938191701
20
-0.113205767785502
30
6E-16
41
1
10
9.36129701543899
20
-0.229139065268441
30
6E-16
41
1
10
9.40593725142401
20
-0.453590325779317
30
6E-16
41
1
10
9.43896710381759
20
-0.562682841188519
30
6E-16
41
1
10
9.50466795218821
20
-0.721596301762077
30
6E-16
41
1
10
9.52944223767634
20
-0.774048893055948
30
6E-16
41
1
10
9.58361591470276
20
-0.875432852646895
30
6E-16
41
1
10
9.61301848077542
20
-0.92446553683763
30
6E-16
41
1
10
9.70800782353331
20
-1.0667052310358
30
6E-16
41
1
10
9.78030989889137
20
-1.15510137325128
30
6E-16
41
1
10
9.94357507842253
20
-1.31853044947988
30
6E-16
41
1
10
10.0321130423297
20
-1.39108301626604
30
6E-16
41
1
10
10.1742276754251
20
-1.48616763226011
30
6E-16
41
1
10
10.2231962805482
20
-1.51558898618427
30
6E-16
41
1
10
10.3243962922325
20
-1.56978776463086
30
6E-16
41
1
10
10.3768541979864
20
-1.5946326721135
30
6E-16
41
1
10
10.5358909899234
20
-1.66055829904204
30
6E-16
41
1
10
10.6449734149756
20
-1.6936706257863
30
7E-16
41
1
10
10.8691834771
20
-1.73847436405794
30
7E-16
41
1
10
10.985168313322
20
-1.74995928111713
30
7E-16
41
1
10
11.2135872283375
20
-1.75004049764337
30
7E-16
41
1
10
11.32710132237
20
-1.73900796112218
30
7E-16
41
1
10
11.4963078528955
20
-1.70550462051574
30
7E-16
41
1
10
11.5525748807822
20
-1.69143733650679
30
7E-16
41
1
10
11.6622682998323
20
-1.65820337259171
30
7E-16
41
1
10
11.7697611965565
20
-1.61976768493068
30
7E-16
41
1
10
11.872926579989
20
-1.57110099198672
30
7E-16
41
1
10
11.9739023809984
20
-1.51725688449926
30
7E-16
41
1
10
12.0235231761772
20
-1.48759021314368
30
7E-16
41
1
10
12.1672959062648
20
-1.39163869060155
30
7E-16
41
1
10
12.2554831168091
20
-1.31923299514779
30
8E-16
41
1
10
12.3766129850964
20
-1.19833781483465
30
8E-16
41
1
10
12.4151176428348
20
-1.15597680585125
30
8E-16
41
1
10
12.4882749568164
20
-1.06700957560741
30
8E-16
41
1
10
12.522758003321
20
-1.02055617151817
30
8E-16
41
1
10
12.6182158790691
20
-0.877850491538311
30
8E-16
41
1
10
12.6720343817577
20
-0.777389974412216
30
8E-16
41
1
10
12.7379887687129
20
-0.618687813849988
30
8E-16
41
1
10
12.7575791992229
20
-0.564127418005683
30
8E-16
41
1
10
12.7910456381637
20
-0.454062985817643
30
8E-16
41
1
10
12.8049598524763
20
-0.398577928383901
30
8E-16
41
1
10
12.8384596361186
20
-0.230798500405768
30
8E-16
41
1
10
12.8498823369782
20
-0.117192708850382
30
8E-16
41
1
10
12.8501158719946
20
0.113651919775037
30
8E-16
41
1
10
12.8388477123341
20
0.22782454534061
30
8E-16
41
1
10
12.8056594323181
20
0.39556889220637
30
8E-16
41
1
10
12.7918624778111
20
0.450990581028293
30
8E-16
41
1
10
12.7586930070668
20
0.560828544484821
30
8E-16
41
1
10
12.7391950448125
20
0.615497417730523
30
8E-16
41
1
10
12.6733812144268
20
0.774700857603989
30
8E-16
41
1
10
12.6196895711407
20
0.87527166817776
30
8E-16
41
1
10
12.4929693208828
20
1.06545453062421
30
8E-16
41
1
10
12.4191285055428
20
1.15561566925359
30
8E-16
41
1
10
12.2577173090814
20
1.3172844117401
30
8E-16
41
1
10
12.1697058468024
20
1.38975968787111
30
7E-16
41
1
10
12.0265312719605
20
1.48571210174046
30
7E-16
41
1
10
11.9767939661519
20
1.51559219830085
30
7E-16
41
1
10
11.8757088301603
20
1.56973347465171
30
7E-16
41
1
10
11.8241142231724
20
1.59417893431686
30
7E-16
41
1
10
11.6662305507525
20
1.65978145991429
30
7E-16
41
1
10
11.5564606380758
20
1.69336148175773
30
7E-16
41
1
10
11.3300396873546
20
1.73865211133656
30
7E-16
41
1
10
11.2156249201229
20
1.75
30
7E-16
41
1
10
11.1
20
1.75
30
7E-16
0
SPLINE
5
D9
100
AcDbEntity
8
1
62
256
6
ByLayer
370
18
48
1
60
0
100
AcDbSpline
70
4
71
3
72
22
73
18
40
0
40
0
40
0
40
0
40
0.125
40
0.125
40
0.25
40
0.25
40
0.375
40
0.375
40
0.5
40
0.5
40
0.625
40
0.625
40
0.75
40
0.75
40
0.875
40
0.875
40
1
40
1
40
1
40
1
41
1
10
19.05
20
-38.9169049867792
30
-6E-16
41
1
10
19.05
20
-38.849016146401
30
-6E-16
41
1
10
19.0561704913967
20
-38.7821698954332
30
-6E-16
41
1
10
19.0803922824664
20
-38.6504848195027
30
-6E-16
41
1
10
19.0986412069037
20
-38.585148803915
30
-6E-16
41
1
10
19.1469912749827
20
-38.4589441294802
30
-6E-16
41
1
10
19.176663456877
20
-38.3989004557191
30
-6E-16
41
1
10
19.2469613373989
20
-38.2849077453129
30
-6E-16
41
1
10
19.288151622729
20
-38.2303997385402
30
-6E-16
41
1
10
19.3794656345094
20
-38.1314870898161
30
-6E-16
41
1
10
19.4294050693798
20
-38.0869974858578
30
-6E-16
41
1
10
19.5380464030114
20
-38.0081809002274
30
-6E-16
41
1
10
19.5973389524332
20
-37.9737298559301
30
-6E-16
41
1
10
19.719692461665
20
-37.9187488488931
30
-6E-16
41
1
10
19.7832629377645
20
-37.8977119062671
30
-6E-16
41
1
10
19.9154039231769
20
-37.8691182938998
30
-6E-16
41
1
10
19.983004725773
20
-37.8619267041444
30
-6E-16
41
1
10
20.05
20
-37.8619267041444
30
-5E-16
0
SPLINE
5
DA
100
AcDbEntity
8
1
62
256
6
ByLayer
370
18
48
1
60
0
100
AcDbSpline
70
4
71
3
72
20
73
16
40
0
40
0
40
0
40
0
40
0.25
40
0.25
40
0.5
40
0.5
40
0.625
40
0.625
40
0.75
40
0.75
40
0.875
40
0.875
40
0.9375
40
0.9375
40
1
40
1
40
1
40
1
41
1
10
2.49999999999952
20
46.4854022113393
30
2E-16
41
1
10
2.37855986799875
20
46.4472541166002
30
1E-16
41
1
10
2.26199443147775
20
46.3876662115247
30
1E-16
41
1
10
2.03817383293853
20
46.2275420959166
30
1E-16
41
1
10
1.93502049034385
20
46.129893916426
30
1E-16
41
1
10
1.79561288762142
20
45.9553460576934
30
1E-16
41
1
10
1.75135855146266
20
45.8917513270327
30
1E-16
41
1
10
1.67105659757982
20
45.7560705663876
30
1E-16
41
1
10
1.63500630064291
20
45.6842385585428
30
1E-16
41
1
10
1.57292678968125
20
45.5308199581717
30
1E-16
41
1
10
1.54693632559275
20
45.4488552487342
30
1E-16
41
1
10
1.51972901026593
20
45.3222574401304
30
1E-16
41
1
10
1.51254587551242
20
45.2792469601151
30
1E-16
41
1
10
1.50264149292673
20
45.1913068132722
30
1E-16
41
1
10
1.5
20
45.1467115785817
30
1E-16
41
1
10
1.5
20
45.1025234188731
30
1E-16
0
SPLINE
5
DB
100
AcDbEntity
8
1
62
256
6
ByLayer
370
18
48
1
60
0
100
AcDbSpline
70
4
71
3
72
22
73
18
40
0
40
0
40
0
40
0
40
0.125
40
0.125
40
0.25
40
0.25
40
0.375
40
0.375
40
0.5
40
0.5
40
0.625
40
0.625
40
0.75
40
0.75
40
0.875
40
0.875
40
1
40
1
40
1
40
1
41
1
10
20.05
20
37.8619267041444
30
-5E-16
41
1
10
19.983004725773
20
37.8619267041444
30
-6E-16
41
1
10
19.9154039231769
20
37.8691182938998
30
-6E-16
41
1
10
19.7832629377645
20
37.8977119062671
30
-6E-16
41
1
10
19.719692461665
20
37.9187488488931
30
-6E-16
41
1
10
19.5973389524332
20
37.9737298559301
30
-6E-16
41
1
10
19.5380464030114
20
38.0081809002274
30
-6E-16
41
1
10
19.4294050693798
20
38.0869974858578
30
-6E-16
41
1
10
19.3794656345094
20
38.1314870898161
30
-6E-16
41
1
10
19.288151622729
20
38.2303997385402
30
-6E-16
41
1
10
19.2469613373989
20
38.2849077453129
30
-6E-16
41
1
10
19.176663456877
20
38.3989004557191
30
-6E-16
41
1
10
19.1469912749827
20
38.4589441294802
30
-6E-16
41
1
10
19.0986412069037
20
38.585148803915
30
-6E-16
41
1
10
19.0803922824664
20
38.6504848195027
30
-6E-16
41
1
10
19.0561704913967
20
38.7821698954332
30
-6E-16
41
1
10
19.05
20
38.849016146401
30
-6E-16
41
1
10
19.05
20
38.9169049867792
30
-6E-16
0
SPLINE
5
DC
100
AcDbEntity
8
1
62
256
6
ByLayer
370
18
48
1
60
0
100
AcDbSpline
70
4
71
3
72
30
73
26
40
0
40
0
40
0
40
0
40
0.130497184484413
40
0.130497184484413
40
0.19574577672662
40
0.19574577672662
40
0.260994368968827
40
0.260994368968827
40
0.391491553453241
40
0.391491553453241
40
0.456740145695448
40
0.456740145695448
40
0.521988737937655
40
0.521988737937655
40
0.65248592242207
40
0.65248592242207
40
0.717734514664278
40
0.717734514664278
40
0.782983106906484
40
0.782983106906484
40
0.913480291390899
40
0.913480291390899
40
0.978728883633106
40
0.978728883633106
40
1
40
1
40
1
40
1
41
1
10
25.5
20
-39.3999428140448
30
-2E-16
41
1
10
25.5
20
-39.3305257472808
30
-2E-16
41
1
10
25.4611438224802
20
-39.2563043492062
30
-2E-16
41
1
10
25.3478256170916
20
-39.1385110087226
30
-2E-16
41
1
10
25.3008096181167
20
-39.0981705704596
30
-2E-16
41
1
10
25.1880055570841
20
-39.0154813094548
30
-2E-16
41
1
10
25.1218287083218
20
-38.9729436304897
30
-2E-16
41
1
10
24.8987881445366
20
-38.8451907562096
30
-3E-16
41
1
10
24.7170827939045
20
-38.7591897466014
30
-3E-16
41
1
10
24.3955802847352
20
-38.6309384528581
30
-3E-16
41
1
10
24.2801956239237
20
-38.5883179029562
30
-3E-16
41
1
10
24.0323214073716
20
-38.5037574742219
30
-3E-16
41
1
10
23.9016628937276
20
-38.4624501620602
30
-3E-16
41
1
10
23.490879781366
20
-38.3422838615831
30
-3E-16
41
1
10
23.1917682755112
20
-38.2670058971253
30
-4E-16
41
1
10
22.7037173439216
20
-38.1642179158851
30
-4E-16
41
1
10
22.5334261135896
20
-38.1315015197192
30
-4E-16
41
1
10
22.1860775513948
20
-38.0713141535757
30
-4E-16
41
1
10
22.0086229131472
20
-38.0437226297829
30
-4E-16
41
1
10
21.4650234935577
20
-37.9689089954729
30
-5E-16
41
1
10
21.0877603165158
20
-37.9295875497466
30
-5E-16
41
1
10
20.4979785042749
20
-37.8891786015081
30
-5E-16
41
1
10
20.2996577839682
20
-37.8789891567453
30
-5E-16
41
1
10
20.0356527949777
20
-37.8699622008776
30
-5E-16
41
1
10
19.9706315236666
20
-37.8681000418494
30
-6E-16
41
1
10
19.9054946623935
20
-37.8665980283087
30
-6E-16
0
SPLINE
5
DD
100
AcDbEntity
8
1
62
256
6
ByLayer
370
18
48
1
60
0
100
AcDbSpline
70
4
71
3
72
24
73
20
40
0
40
0
40
0
40
0
40
0.062500000000001
40
0.062500000000001
40
0.125000000000002
40
0.125000000000002
40
0.250000000000002
40
0.250000000000002
40
0.375000000000001
40
0.375000000000001
40
0.500000000000001
40
0.500000000000001
40
0.625000000000001
40
0.625000000000001
40
0.750000000000001
40
0.750000000000001
40
0.875
40
0.875
40
1
40
1
40
1
40
1
41
1
10
18.05
20
38.5110779516752
30
1.1E-15
41
1
10
18.0873498329033
20
38.5110779516752
30
1.1E-15
41
1
10
18.1252504470733
20
38.5083718116755
30
1.1E-15
41
1
10
18.1993258385087
20
38.4977801710271
30
1.1E-15
41
1
10
18.235739418569
20
38.4899284415963
30
1.1E-15
41
1
10
18.3431875039723
20
38.4590318853741
30
1.1E-15
41
1
10
18.4128883912491
20
38.4282038849305
30
1.1E-15
41
1
10
18.5409528000482
20
38.3516179411486
30
1.1E-15
41
1
10
18.6008098549009
20
38.3051189894718
30
1.1E-15
41
1
10
18.7085794865175
20
38.201333708324
30
1.1E-15
41
1
10
18.7566207953578
20
38.1442229769622
30
1.1E-15
41
1
10
18.8424094198612
20
38.0208092618357
30
1.2E-15
41
1
10
18.8792410137628
20
37.9557390404173
30
1.2E-15
41
1
10
18.9417989914295
20
37.8212086347043
30
1.2E-15
41
1
10
18.967662609558
20
37.7515094599359
30
1.2E-15
41
1
10
19.0092063619519
20
37.6075340804891
30
1.2E-15
41
1
10
19.0245742686391
20
37.5341503648294
30
1.2E-15
41
1
10
19.0449252088291
20
37.3868609845721
30
1.2E-15
41
1
10
19.05
20
37.3126219620441
30
1.2E-15
41
1
10
19.05
20
37.2377916235644
30
1.2E-15
0
SPLINE
5
DE
100
AcDbEntity
8
1
62
256
6
ByLayer
370
18
48
1
60
0
100
AcDbSpline
70
4
71
3
72
8
73
4
40
0
40
0
40
0
40
0
40
1
40
1
40
1
40
1
41
1
10
14.3331615074619
20
46.985648008195
30
9E-16
41
1
10
13.8964943143064
20
46.201319828429
30
9E-16
41
1
10
13.4604099870949
20
45.4166648448567
30
8E-16
41
1
10
13.025
20
44.6316317693424
30
8E-16
0
SPLINE
5
DF
100
AcDbEntity
8
1
62
256
6
ByLayer
370
18
48
1
60
0
100
AcDbSpline
70
4
71
3
72
24
73
20
40
0
40
0
40
0
40
0
40
0.125
40
0.125
40
0.25
40
0.25
40
0.375
40
0.375
40
0.5
40
0.5
40
0.625
40
0.625
40
0.75
40
0.75
40
0.875000000000001
40
0.875000000000001
40
0.9375
40
0.9375
40
1
40
1
40
1
40
1
41
1
10
1.5
20
37.2377916235644
30
1E-16
41
1
10
1.5
20
37.3121412139801
30
1E-16
41
1
10
1.50505632298504
20
37.3869943529888
30
1E-16
41
1
10
1.52565947444216
20
37.5355722329689
30
1E-16
41
1
10
1.54101753844654
20
37.6082872292638
30
1E-16
41
1
10
1.58204200318903
20
37.7505085242901
30
1E-16
41
1
10
1.60769688429437
20
37.8200184087618
30
1E-16
41
1
10
1.67057050868039
20
37.9554386701082
30
1E-16
41
1
10
1.70800264138535
20
38.021414866548
30
1E-16
41
1
10
1.79310423358658
20
38.1438145666492
30
1E-16
41
1
10
1.84101413752319
20
38.2009418295785
30
1E-16
41
1
10
1.94958881757324
20
38.3055034495002
30
1E-16
41
1
10
2.00888642200812
20
38.3515105742438
30
1E-16
41
1
10
2.13706863735075
20
38.4281893864592
30
1E-16
41
1
10
2.20705174637863
20
38.4591109120609
30
1E-16
41
1
10
2.31429824175248
20
38.4899341442302
30
1E-16
41
1
10
2.35062492221951
20
38.4977655602303
30
1E-16
41
1
10
2.42448160994058
20
38.5083410378514
30
1E-16
41
1
10
2.46233145029208
20
38.5110779516752
30
2E-16
41
1
10
2.5
20
38.5110779516752
30
2E-16
0
SPLINE
5
E0
100
AcDbEntity
8
1
62
256
6
ByLayer
370
18
48
1
60
0
100
AcDbSpline
70
4
71
3
72
8
73
4
40
0
40
0
40
0
40
0
40
1
40
1
40
1
40
1
41
1
10
9.17499999999998
20
-44.6316317693424
30
6E-16
41
1
10
8.73959516847066
20
-45.4166555495038
30
5E-16
41
1
10
8.30350805292497
20
-46.2013155764808
30
5E-16
41
1
10
7.86683849253808
20
-46.985648008195
30
5E-16
0
SPLINE
5
E1
100
AcDbEntity
8
1
62
256
6
ByLayer
370
18
48
1
60
0
100
AcDbSpline
70
4
71
3
72
8
73
4
40
0
40
0
40
0
40
0
40
1
40
1
40
1
40
1
41
1
10
7.86683849253808
20
38.5110779516752
30
5E-16
41
1
10
8.3083000553242
20
37.5436476269089
30
5E-16
41
1
10
8.74467082598238
20
36.5737280025764
30
5E-16
41
1
10
9.17500000000001
20
35.6010471846569
30
6E-16
0
SPLINE
5
E2
100
AcDbEntity
8
1
62
256
6
ByLayer
370
18
48
1
60
0
100
AcDbSpline
70
4
71
3
72
8
73
4
40
0
40
0
40
0
40
0
40
1
40
1
40
1
40
1
41
1
10
13.025
20
29.85
30
8E-16
41
1
10
13.4553291740176
20
29.85
30
8E-16
41
1
10
13.8916999446758
20
29.85
30
9E-16
41
1
10
14.3331615074619
20
29.85
30
9E-16
0
SPLINE
5
E3
100
AcDbEntity
8
1
62
256
6
ByLayer
370
18
48
1
60
0
100
AcDbSpline
70
4
71
3
72
22
73
18
40
0
40
0
40
0
40
0
40
0.125
40
0.125
40
0.25
40
0.25
40
0.375
40
0.375
40
0.5
40
0.5
40
0.625
40
0.625
40
0.75
40
0.75
40
0.875
40
0.875
40
1
40
1
40
1
40
1
41
1
10
19.05
20
-45.9478086392594
30
-6E-16
41
1
10
19.05
20
-46.0141540481965
30
-6E-16
41
1
10
19.0439214399223
20
-46.0805020578264
30
-6E-16
41
1
10
19.0191049078369
20
-46.2126475115672
30
-6E-16
41
1
10
19.0007424398493
20
-46.2765327966983
30
-6E-16
41
1
10
18.9524487456268
20
-46.400053261758
30
-6E-16
41
1
10
18.9221656283679
20
-46.4602239626624
30
-6E-16
41
1
10
18.8507507964679
20
-46.5733396078862
30
-6E-16
41
1
10
18.8101091423719
20
-46.6257609836119
30
-6E-16
41
1
10
18.7189682022685
20
-46.7223399322996
30
-6E-16
41
1
10
18.6678005362881
20
-46.7668881150115
30
-6E-16
41
1
10
18.5590853147431
20
-46.8437981284165
30
-6E-16
41
1
10
18.5014191246697
20
-46.8765170118536
30
-6E-16
41
1
10
18.3793144370715
20
-46.930213548792
30
-7E-16
41
1
10
18.3148142319444
20
-46.9510279152151
30
-7E-16
41
1
10
18.1837212985804
20
-46.9786727953056
30
-7E-16
41
1
10
18.1164145412385
20
-46.985648008195
30
-7E-16
41
1
10
18.05
20
-46.985648008195
30
-7E-16
0
SPLINE
5
E4
100
AcDbEntity
8
1
62
256
6
ByLayer
370
18
48
1
60
0
100
AcDbSpline
70
4
71
3
72
8
73
4
40
0
40
0
40
0
40
0
40
1
40
1
40
1
40
1
41
1
10
9.17500000000001
20
44.6316317693424
30
6E-16
41
1
10
8.73959001290507
20
45.4166648448567
30
5E-16
41
1
10
8.30350568569358
20
46.201319828429
30
5E-16
41
1
10
7.86683849253808
20
46.985648008195
30
5E-16
0
SPLINE
5
E5
100
AcDbEntity
8
1
62
256
6
ByLayer
370
18
48
1
60
0
100
AcDbSpline
70
4
71
3
72
20
73
16
40
0
40
0
40
0
40
0
40
0.25
40
0.25
40
0.5
40
0.5
40
0.625
40
0.625
40
0.75
40
0.75
40
0.875
40
0.875
40
0.9375
40
0.9375
40
1
40
1
40
1
40
1
41
1
10
2.49999999999997
20
-46.4854022113395
30
2E-16
41
1
10
2.37855986799914
20
-46.4472541166004
30
1E-16
41
1
10
2.26199443147812
20
-46.387666211525
30
1E-16
41
1
10
2.03817383293878
20
-46.2275420959169
30
1E-16
41
1
10
1.93502049034407
20
-46.1298939164263
30
1E-16
41
1
10
1.79561288762159
20
-45.9553460576936
30
1E-16
41
1
10
1.7513585514628
20
-45.8917513270329
30
1E-16
41
1
10
1.67105659757991
20
-45.7560705663878
30
1E-16
41
1
10
1.635006300643
20
-45.6842385585429
30
1E-16
41
1
10
1.5729267896813
20
-45.5308199581719
30
1E-16
41
1
10
1.54693632559278
20
-45.4488552487343
30
1E-16
41
1
10
1.51972901026593
20
-45.3222574401305
30
1E-16
41
1
10
1.51254587551242
20
-45.2792469601152
30
1E-16
41
1
10
1.50264149292673
20
-45.1913068132723
30
1E-16
41
1
10
1.5
20
-45.1467115785817
30
1E-16
41
1
10
1.5
20
-45.1025234188731
30
1E-16
0
SPLINE
5
E6
100
AcDbEntity
8
1
62
256
6
ByLayer
370
18
48
1
60
0
100
AcDbSpline
70
4
71
3
72
24
73
20
40
0
40
0
40
0
40
0
40
0.0625458677463628
40
0.0625458677463628
40
0.125091735492726
40
0.125091735492726
40
0.250183470985449
40
0.250183470985449
40
0.375275206478172
40
0.375275206478172
40
0.500366941970895
40
0.500366941970895
40
0.625458677463618
40
0.625458677463618
40
0.750550412956341
40
0.750550412956341
40
0.875642148449064
40
0.875642148449064
40
1
40
1
40
1
40
1
41
1
10
18.05
20
29.85
30
1.1E-15
41
1
10
18.0873498329033
20
29.85
30
1.1E-15
41
1
10
18.1252504470733
20
29.85
30
1.1E-15
41
1
10
18.1993258385087
20
29.85
30
1.1E-15
41
1
10
18.235739418569
20
29.85
30
1.1E-15
41
1
10
18.3431875039723
20
29.85
30
1.1E-15
41
1
10
18.4128883912491
20
29.85
30
1.1E-15
41
1
10
18.5409528000483
20
29.85
30
1.1E-15
41
1
10
18.6008098549009
20
29.85
30
1.1E-15
41
1
10
18.7085794865175
20
29.85
30
1.1E-15
41
1
10
18.7566207953578
20
29.85
30
1.1E-15
41
1
10
18.8424094198612
20
29.85
30
1.2E-15
41
1
10
18.8792410137628
20
29.85
30
1.2E-15
41
1
10
18.9417989914295
20
29.85
30
1.2E-15
41
1
10
18.967662609558
20
29.85
30
1.2E-15
41
1
10
19.0092063619519
20
29.85
30
1.2E-15
41
1
10
19.0245742686391
20
29.85
30
1.2E-15
41
1
10
19.044865511727
20
29.85
30
1.2E-15
41
1
10
19.0499511516123
20
29.8500000000001
30
1.2E-15
41
1
10
19.0499949999906
20
29.8499999999999
30
1.2E-15
0
SPLINE
5
E7
100
AcDbEntity
8
1
62
256
6
ByLayer
370
18
48
1
60
0
100
AcDbSpline
70
4
71
3
72
8
73
4
40
0
40
0
40
0
40
0
40
1
40
1
40
1
40
1
41
1
10
13.025
20
35.6010471846569
30
8E-16
41
1
10
13.4553291740176
20
36.5737280025764
30
8E-16
41
1
10
13.8916999446758
20
37.5436476269089
30
9E-16
41
1
10
14.3331615074619
20
38.5110779516752
30
9E-16
0
SPLINE
5
E8
100
AcDbEntity
8
1
62
256
6
ByLayer
370
18
48
1
60
0
100
AcDbSpline
70
4
71
3
72
8
73
4
40
0
40
0
40
0
40
0
40
1
40
1
40
1
40
1
41
1
10
14.3331615074619
20
-46.985648008195
30
9E-16
41
1
10
13.896491947075
20
-46.2013155764808
30
9E-16
41
1
10
13.4604048315294
20
-45.4166555495038
30
8E-16
41
1
10
13.025
20
-44.6316317693424
30
8E-16
0
SPLINE
5
E9
100
AcDbEntity
8
1
62
256
6
ByLayer
370
18
48
1
60
0
100
AcDbSpline
70
4
71
3
72
8
73
4
40
0
40
0
40
0
40
0
40
1
40
1
40
1
40
1
41
1
10
7.86683849253808
20
29.85
30
5E-16
41
1
10
8.3083000553242
20
29.85
30
5E-16
41
1
10
8.74467082598238
20
29.85
30
5E-16
41
1
10
9.17499999999998
20
29.85
30
6E-16
0
SPLINE
5
EA
100
AcDbEntity
8
1
62
256
6
ByLayer
370
18
48
1
60
0
100
AcDbSpline
70
4
71
3
72
22
73
18
40
0
40
0
40
0
40
0
40
0.125
40
0.125
40
0.25
40
0.25
40
0.375
40
0.375
40
0.5
40
0.5
40
0.625
40
0.625
40
0.75
40
0.75
40
0.875
40
0.875
40
1
40
1
40
1
40
1
41
1
10
19.05
20
45.9478086392594
30
-6E-16
41
1
10
19.05
20
46.0146269205568
30
-6E-16
41
1
10
19.0438496070539
20
46.0807605460453
30
-6E-16
41
1
10
19.0193124584702
20
46.2116656569335
30
-6E-16
41
1
10
19.0006307100618
20
46.2769343804209
30
-6E-16
41
1
10
18.9520683189065
20
46.4009092828654
30
-6E-16
41
1
10
18.9221814173484
20
46.4601823639848
30
-6E-16
41
1
10
18.8508823399233
20
46.5731478089832
30
-6E-16
41
1
10
18.8093498900431
20
46.6266795857549
30
-6E-16
41
1
10
18.7180609224174
20
46.7231851950374
30
-6E-16
41
1
10
18.6679307213267
20
46.7668348868095
30
-6E-16
41
1
10
18.5581822282885
20
46.8443978669162
30
-6E-16
41
1
10
18.4997828753849
20
46.8773486956717
30
-6E-16
41
1
10
18.3781418324856
20
46.9306144611544
30
-7E-16
41
1
10
18.3139203066273
20
46.9512836523302
30
-7E-16
41
1
10
18.1827412967025
20
46.9788112646438
30
-7E-16
41
1
10
18.1166287562676
20
46.9856480081951
30
-7E-16
41
1
10
18.0499999999996
20
46.9856480081951
30
-7E-16
0
SPLINE
5
EB
100
AcDbEntity
8
1
62
256
6
ByLayer
370
18
48
1
60
0
100
AcDbSpline
70
4
71
3
72
24
73
20
40
0
40
0
40
0
40
0
40
0.125
40
0.125
40
0.25
40
0.25
40
0.375
40
0.375
40
0.5
40
0.5
40
0.625
40
0.625
40
0.75
40
0.75
40
0.874999999999999
40
0.874999999999999
40
0.9375
40
0.9375
40
1
40
1
40
1
40
1
41
1
10
1.49999499949999
20
29.85
30
1E-16
41
1
10
1.50000500050001
20
29.85
30
1E-16
41
1
10
1.50505632298504
20
29.85
30
1E-16
41
1
10
1.52565947444216
20
29.85
30
1E-16
41
1
10
1.54101753844654
20
29.85
30
1E-16
41
1
10
1.58204200318903
20
29.85
30
1E-16
41
1
10
1.60769688429437
20
29.85
30
1E-16
41
1
10
1.67057050868039
20
29.85
30
1E-16
41
1
10
1.70800264138535
20
29.85
30
1E-16
41
1
10
1.79310423358658
20
29.85
30
1E-16
41
1
10
1.84101413752319
20
29.85
30
1E-16
41
1
10
1.94958881757324
20
29.85
30
1E-16
41
1
10
2.00888642200812
20
29.85
30
1E-16
41
1
10
2.13706863735075
20
29.85
30
1E-16
41
1
10
2.20705174637863
20
29.85
30
1E-16
41
1
10
2.31429824175248
20
29.85
30
1E-16
41
1
10
2.35062492221951
20
29.85
30
1E-16
41
1
10
2.42448160994058
20
29.85
30
1E-16
41
1
10
2.46233145029208
20
29.85
30
2E-16
41
1
10
2.5
20
29.85
30
2E-16
0
LINE
5
7C
100
AcDbEntity
8
SK1
62
256
6
ByLayer
370
18
48
1
60
0
100
AcDbLine
10
-101.6
20
17.94535
30
0
11
-101.6
21
0
31
0
39
0
210
0
220
0
230
1
0
LINE
5
7E
100
AcDbEntity
8
SK1
62
256
6
ByLayer
370
18
48
1
60
0
100
AcDbLine
10
-101.6
20
0
30
0
11
-101.6
21
-17.94535
31
0
39
0
210
0
220
0
230
1
0
LINE
5
7F
100
AcDbEntity
8
SK1
62
256
6
ByLayer
370
13
48
1
60
0
100
AcDbLine
10
-99.460795
20
-20.419179
30
0
11
-99.460795
21
20.419179
31
0
39
0
210
0
220
0
230
1
0
LINE
5
80
100
AcDbEntity
8
1
62
256
6
ByLayer
370
13
48
1
60
0
100
AcDbLine
10
2.5
20
46.485402
30
0
11
2.5
21
38.511078
31
0
39
0
210
0
220
0
230
1
0
LINE
5
81
100
AcDbEntity
8
1
62
256
6
ByLayer
370
13
48
1
60
0
100
AcDbLine
10
18.05
20
38.511078
30
0
11
18.05
21
46.985648
31
0
39
0
210
0
220
0
230
1
0
LINE
5
82
100
AcDbEntity
8
1
62
256
6
ByLayer
370
18
48
1
60
0
100
AcDbLine
10
13.025
20
44.631632
30
0
11
13.025
21
35.601047
31
0
39
0
210
0
220
0
230
1
0
LINE
5
83
100
AcDbEntity
8
1
62
256
6
ByLayer
370
18
48
1
60
0
100
AcDbLine
10
120
20
0
30
0
11
120
21
39.7
31
0
39
0
210
0
220
0
230
1
0
LINE
5
84
100
AcDbEntity
8
1
62
256
6
ByLayer
370
18
48
1
60
0
100
AcDbLine
10
120
20
-39.7
30
0
11
120
21
0
31
0
39
0
210
0
220
0
230
1
0
LINE
5
85
100
AcDbEntity
8
1
62
256
6
ByLayer
370
18
48
1
60
0
100
AcDbLine
10
13.025
20
-43.632276
30
0
11
9.175
21
-43.632276
31
0
39
0
210
0
220
0
230
1
0
LINE
5
86
100
AcDbEntity
8
1
62
256
6
ByLayer
370
18
48
1
60
0
100
AcDbLine
10
18.05
20
29.85
30
0
11
14.333162
21
29.85
31
0
39
0
210
0
220
0
230
1
0
LINE
5
87
100
AcDbEntity
8
1
62
256
6
ByLayer
370
18
48
1
60
0
100
AcDbLine
10
25.5
20
-40
30
0
11
25.5
21
-39.399943
31
0
39
0
210
0
220
0
230
1
0
LINE
5
88
100
AcDbEntity
8
1
62
256
6
ByLayer
370
18
48
1
60
0
100
AcDbLine
10
1.5
20
-45.102523
30
0
11
1.5
21
29.85
31
0
39
0
210
0
220
0
230
1
0
LINE
5
89
100
AcDbEntity
8
1
62
256
6
ByLayer
370
18
48
1
60
0
100
AcDbLine
10
7.866838
20
-46.985648
30
0
11
7.866838
21
29.85
31
0
39
0
210
0
220
0
230
1
0
LINE
5
8A
100
AcDbEntity
8
1
62
256
6
ByLayer
370
18
48
1
60
0
100
AcDbLine
10
7.866838
20
38.511078
30
0
11
7.866838
21
46.985648
31
0
39
0
210
0
220
0
230
1
0
LINE
5
8B
100
AcDbEntity
8
1
62
256
6
ByLayer
370
13
48
1
60
0
100
AcDbLine
10
1.3
20
34.625
30
0
11
1.3
21
0
31
0
39
0
210
0
220
0
230
1
0
LINE
5
8C
100
AcDbEntity
8
1
62
256
6
ByLayer
370
13
48
1
60
0
100
AcDbLine
10
1.3
20
0
30
0
11
1.3
21
-34.625
31
0
39
0
210
0
220
0
230
1
0
LINE
5
8D
100
AcDbEntity
8
1
62
256
6
ByLayer
370
18
48
1
60
0
100
AcDbLine
10
9.175
20
29.85
30
0
11
13.025
21
29.85
31
0
39
0
210
0
220
0
230
1
0
LINE
5
8E
100
AcDbEntity
8
1
62
256
6
ByLayer
370
18
48
1
60
0
100
AcDbLine
10
1.5
20
37.237792
30
0
11
1.5
21
45.102523
31
0
39
0
210
0
220
0
230
1
0
LINE
5
8F
100
AcDbEntity
8
1
62
256
6
ByLayer
370
18
48
1
60
0
100
AcDbLine
10
7.866838
20
38.511078
30
0
11
2.5
21
38.511078
31
0
39
0
210
0
220
0
230
1
0
LINE
5
90
100
AcDbEntity
8
1
62
256
6
ByLayer
370
18
48
1
60
0
100
AcDbLine
10
1.5
20
37.237792
30
0
11
1.5
21
29.85
31
0
39
0
210
0
220
0
230
1
0
LINE
5
91
100
AcDbEntity
8
1
62
256
6
ByLayer
370
13
48
1
60
0
100
AcDbLine
10
2.5
20
29.85
30
0
11
2.5
21
-46.485402
31
0
39
0
210
0
220
0
230
1
0
LINE
5
92
100
AcDbEntity
8
1
62
256
6
ByLayer
370
13
48
1
60
0
100
AcDbLine
10
20.05
20
37.861927
30
0
11
20.05
21
-37.861927
31
0
39
0
210
0
220
0
230
1
0
LINE
5
93
100
AcDbEntity
8
1
62
256
6
ByLayer
370
18
48
1
60
0
100
AcDbLine
10
7.866838
20
29.85
30
0
11
2.5
21
29.85
31
0
39
0
210
0
220
0
230
1
0
LINE
5
94
100
AcDbEntity
8
1
62
256
6
ByLayer
370
18
48
1
60
0
100
AcDbLine
10
4.2
20
46.985648
30
0
11
7.866838
21
46.985648
31
0
39
0
210
0
220
0
230
1
0
LINE
5
95
100
AcDbEntity
8
1
62
256
6
ByLayer
370
13
48
1
60
0
100
AcDbLine
10
18.05
20
-46.985648
30
0
11
18.05
21
29.85
31
0
39
0
210
0
220
0
230
1
0
LINE
5
96
100
AcDbEntity
8
1
62
256
6
ByLayer
370
18
48
1
60
0
100
AcDbLine
10
14.333162
20
46.985648
30
0
11
18.05
21
46.985648
31
0
39
0
210
0
220
0
230
1
0
LINE
5
97
100
AcDbEntity
8
1
62
256
6
ByLayer
370
18
48
1
60
0
100
AcDbLine
10
13.025
20
29.85
30
0
11
13.025
21
-44.631632
31
0
39
0
210
0
220
0
230
1
0
LINE
5
98
100
AcDbEntity
8
1
62
256
6
ByLayer
370
18
48
1
60
0
100
AcDbLine
10
18.05
20
38.511078
30
0
11
14.333162
21
38.511078
31
0
39
0
210
0
220
0
230
1
0
LINE
5
99
100
AcDbEntity
8
1
62
256
6
ByLayer
370
18
48
1
60
0
100
AcDbLine
10
19.05
20
29.85
30
0
11
19.05
21
-45.947809
31
0
39
0
210
0
220
0
230
1
0
LINE
5
9A
100
AcDbEntity
8
1
62
256
6
ByLayer
370
18
48
1
60
0
100
AcDbLine
10
13.025
20
34.339882
30
0
11
13.025
21
35.601047
31
0
39
0
210
0
220
0
230
1
0
LINE
5
9B
100
AcDbEntity
8
1
62
256
6
ByLayer
370
18
48
1
60
0
100
AcDbLine
10
9.175
20
34.339882
30
0
11
13.025
21
34.339882
31
0
39
0
210
0
220
0
230
1
0
LINE
5
9C
100
AcDbEntity
8
1
62
256
6
ByLayer
370
18
48
1
60
0
100
AcDbLine
10
25.5
20
40
30
0
11
25.5
21
39.399943
31
0
39
0
210
0
220
0
230
1
0
LINE
5
9D
100
AcDbEntity
8
1
62
256
6
ByLayer
370
18
48
1
60
0
100
AcDbLine
10
14.333162
20
-46.985648
30
0
11
18.05
21
-46.985648
31
0
39
0
210
0
220
0
230
1
0
LINE
5
9E
100
AcDbEntity
8
1
62
256
6
ByLayer
370
18
48
1
60
0
100
AcDbLine
10
9.175
20
35.601047
30
0
11
9.175
21
34.339882
31
0
39
0
210
0
220
0
230
1
0
LINE
5
9F
100
AcDbEntity
8
1
62
256
6
ByLayer
370
18
48
1
60
0
100
AcDbLine
10
14.333162
20
46.985648
30
0
11
14.333162
21
38.511078
31
0
39
0
210
0
220
0
230
1
0
LINE
5
A0
100
AcDbEntity
8
1
62
256
6
ByLayer
370
18
48
1
60
0
100
AcDbLine
10
14.333162
20
29.85
30
0
11
14.333162
21
-46.985648
31
0
39
0
210
0
220
0
230
1
0
LINE
5
A1
100
AcDbEntity
8
1
62
256
6
ByLayer
370
18
48
1
60
0
100
AcDbLine
10
9.175
20
29.85
30
0
11
9.175
21
-44.631632
31
0
39
0
210
0
220
0
230
1
0
LINE
5
A2
100
AcDbEntity
8
1
62
256
6
ByLayer
370
18
48
1
60
0
100
AcDbLine
10
19.05
20
45.947809
30
0
11
19.05
21
37.237792
31
0
39
0
210
0
220
0
230
1
0
LINE
5
A3
100
AcDbEntity
8
1
62
256
6
ByLayer
370
18
48
1
60
0
100
AcDbLine
10
0.428444
20
34.625
30
0
11
0.428444
21
-34.625
31
0
39
0
210
0
220
0
230
1
0
LINE
5
A4
100
AcDbEntity
8
1
62
256
6
ByLayer
370
18
48
1
60
0
100
AcDbLine
10
9.175
20
44.631632
30
0
11
9.175
21
35.601047
31
0
39
0
210
0
220
0
230
1
0
LINE
5
A5
100
AcDbEntity
8
1
62
256
6
ByLayer
370
18
48
1
60
0
100
AcDbLine
10
19.05
20
29.85
30
0
11
19.05
21
37.237792
31
0
39
0
210
0
220
0
230
1
0
LINE
5
A6
100
AcDbEntity
8
1
62
256
6
ByLayer
370
18
48
1
60
0
100
AcDbLine
10
4.2
20
-46.985648
30
0
11
7.866838
21
-46.985648
31
0
39
0
210
0
220
0
230
1
0
LINE
5
A7
100
AcDbEntity
8
1
62
256
6
ByLayer
370
18
48
1
60
0
100
AcDbLine
10
119.7
20
0
30
0
11
119.7
21
40
31
0
39
0
210
0
220
0
230
1
0
LINE
5
A8
100
AcDbEntity
8
1
62
256
6
ByLayer
370
18
48
1
60
0
100
AcDbLine
10
119.7
20
-40
30
0
11
119.7
21
0
31
0
39
0
210
0
220
0
230
1
0
LINE
5
A9
100
AcDbEntity
8
1
62
256
6
ByLayer
370
18
48
1
60
0
100
AcDbLine
10
13.025
20
43.632276
30
0
11
9.175
21
43.632276
31
0
39
0
210
0
220
0
230
1
0
LINE
5
AA
100
AcDbEntity
8
1
62
256
6
ByLayer
370
18
48
1
60
0
100
AcDbLine
10
0
20
34.925
30
0
11
0
21
0
31
0
39
0
210
0
220
0
230
1
0
LINE
5
AB
100
AcDbEntity
8
1
62
256
6
ByLayer
370
18
48
1
60
0
100
AcDbLine
10
0
20
0
30
0
11
0
21
-34.925
31
0
39
0
210
0
220
0
230
1
0
LINE
5
AC
100
AcDbEntity
8
SK1
62
256
6
ByLayer
370
18
48
1
60
0
100
AcDbLine
10
0
20
34.925
30
0
11
0
21
0
31
0
39
0
210
0
220
0
230
1
0
LINE
5
AD
100
AcDbEntity
8
SK1
62
256
6
ByLayer
370
18
48
1
60
0
100
AcDbLine
10
0
20
0
30
0
11
0
21
-34.925
31
0
39
0
210
0
220
0
230
1
0
LINE
5
AE
100
AcDbEntity
8
SK4
62
256
6
ByLayer
370
18
48
0.05
60
0
100
AcDbLine
10
-106.6
20
0
30
0
11
125
21
0
31
0
39
0
210
0
220
0
230
1
0
LINE
5
B0
100
AcDbEntity
8
SK1
62
256
6
ByLayer
370
18
48
1
60
0
100
AcDbLine
10
-99.460795
20
-20.419179
30
0
11
0
21
-34.925
31
0
39
0
210
0
220
0
230
1
0
LINE
5
B1
100
AcDbEntity
8
SK1
62
256
6
ByLayer
370
18
48
1
60
0
100
AcDbLine
10
0
20
34.925
30
0
11
-99.460795
21
20.419179
31
0
39
0
210
0
220
0
230
1
0
LINE
5
B2
100
AcDbEntity
8
1
62
256
6
ByLayer
370
18
48
1
60
0
100
AcDbLine
10
0.428444
20
-34.625
30
0
11
1.3
21
-34.625
31
0
39
0
210
0
220
0
230
1
0
LINE
5
B3
100
AcDbEntity
8
1
62
256
6
ByLayer
370
18
48
1
60
0
100
AcDbLine
10
1.3
20
34.625
30
0
11
0.428444
21
34.625
31
0
39
0
210
0
220
0
230
1
0
LINE
5
B4
100
AcDbEntity
8
1
62
256
6
ByLayer
370
18
48
1
60
0
100
AcDbLine
10
0.428444
20
34.625
30
0
11
0
21
34.925
31
0
39
0
210
0
220
0
230
1
0
LINE
5
B5
100
AcDbEntity
8
1
62
256
6
ByLayer
370
18
48
1
60
0
100
AcDbLine
10
0
20
-34.925
30
0
11
0.428444
21
-34.625
31
0
39
0
210
0
220
0
230
1
0
LINE
5
B6
100
AcDbEntity
8
1
62
256
6
ByLayer
370
18
48
1
60
0
100
AcDbLine
10
120
20
39.7
30
0
11
119.7
21
40
31
0
39
0
210
0
220
0
230
1
0
LINE
5
B7
100
AcDbEntity
8
1
62
256
6
ByLayer
370
18
48
1
60
0
100
AcDbLine
10
119.7
20
-40
30
0
11
120
21
-39.7
31
0
39
0
210
0
220
0
230
1
0
LINE
5
B8
100
AcDbEntity
8
1
62
256
6
ByLayer
370
18
48
1
60
0
100
AcDbLine
10
119.7
20
40
30
0
11
25.5
21
40
31
0
39
0
210
0
220
0
230
1
0
LINE
5
B9
100
AcDbEntity
8
4
62
256
6
ByLayer
370
18
48
0.05
60
0
100
AcDbLine
10
0
20
0
30
0
11
120
21
0
31
0
39
0
210
0
220
0
230
1
0
LINE
5
BB
100
AcDbEntity
8
80
62
256
6
ByLayer
370
18
48
1
60
0
100
AcDbLine
10
0
20
0
30
0
11
-6.08897
21
0
31
0
39
0
210
0
220
0
230
1
0
LINE
5
BC
100
AcDbEntity
8
1
62
256
6
ByLayer
370
18
48
1
60
0
100
AcDbLine
10
25.5
20
-40
30
0
11
119.7
21
-40
31
0
39
0
210
0
220
0
230
1
0
LINE
5
BD
100
AcDbEntity
8
81
62
256
6
ByLayer
370
18
48
1
60
0
100
AcDbLine
10
120
20
0
30
0
11
122.367097
21
0
31
0
39
0
210
0
220
0
230
1
0
LINE
5
BE
100
AcDbEntity
8
SK2
62
256
6
ByLayer
370
13
48
1
60
0
100
AcDbLine
10
-123.2
20
48.725
30
0
11
-123.2
21
-48.725
31
0
39
0
210
0
220
0
230
1
0
LINE
5
C0
100
AcDbEntity
8
SK2
62
256
6
ByLayer
370
13
48
1
60
0
100
AcDbLine
10
-1.5875
20
-48.725
30
0
11
-125.2
21
-48.725
31
0
39
0
210
0
220
0
230
1
0
LINE
5
C1
100
AcDbEntity
8
SK2
62
256
6
ByLayer
370
13
48
1
60
0
100
AcDbLine
10
-1.5875
20
48.725
30
0
11
-125.2
21
48.725
31
0
39
0
210
0
220
0
230
1
0
LINE
5
C2
100
AcDbEntity
8
1
62
256
6
ByLayer
370
18
48
1
60
1
100
AcDbLine
10
-123.2
20
-48.725
30
0
11
-123.660784
21
-45.225002
31
0
39
0
210
0
220
0
230
1
0
LINE
5
C3
100
AcDbEntity
8
1
62
256
6
ByLayer
370
18
48
1
60
1
100
AcDbLine
10
-123.660784
20
-45.225002
30
0
11
-122.739216
21
-45.224998
31
0
39
0
210
0
220
0
230
1
0
LINE
5
C4
100
AcDbEntity
8
1
62
256
6
ByLayer
370
18
48
1
60
1
100
AcDbLine
10
-122.739216
20
-45.224998
30
0
11
-123.2
21
-48.725
31
0
39
0
210
0
220
0
230
1
0
LINE
5
C5
100
AcDbEntity
8
1
62
256
6
ByLayer
370
18
48
1
60
1
100
AcDbLine
10
-123.2
20
48.725
30
0
11
-122.739216
21
45.225002
31
0
39
0
210
0
220
0
230
1
0
LINE
5
C6
100
AcDbEntity
8
1
62
256
6
ByLayer
370
18
48
1
60
1
100
AcDbLine
10
-122.739216
20
45.225002
30
0
11
-123.660784
21
45.224998
31
0
39
0
210
0
220
0
230
1
0
LINE
5
C7
100
AcDbEntity
8
1
62
256
6
ByLayer
370
18
48
1
60
1
100
AcDbLine
10
-123.660784
20
45.224998
30
0
11
-123.2
21
48.725
31
0
39
0
210
0
220
0
230
1
0
LINE
5
C8
100
AcDbEntity
8
SK2
62
256
6
ByLayer
370
13
48
1
60
0
100
AcDbLine
10
145.1
20
40
30
0
11
145.1
21
-40
31
0
39
0
210
0
220
0
230
1
0
LINE
5
C9
100
AcDbEntity
8
SK2
62
256
6
ByLayer
370
13
48
1
60
0
100
AcDbLine
10
121.5875
20
-40
30
0
11
147.1
21
-40
31
0
39
0
210
0
220
0
230
1
0
LINE
5
CA
100
AcDbEntity
8
SK2
62
256
6
ByLayer
370
13
48
1
60
0
100
AcDbLine
10
121.5875
20
40
30
0
11
147.1
21
40
31
0
39
0
210
0
220
0
230
1
0
LINE
5
CB
100
AcDbEntity
8
1
62
256
6
ByLayer
370
18
48
1
60
1
100
AcDbLine
10
145.1
20
-40
30
0
11
144.639216
21
-36.500002
31
0
39
0
210
0
220
0
230
1
0
LINE
5
CC
100
AcDbEntity
8
1
62
256
6
ByLayer
370
18
48
1
60
1
100
AcDbLine
10
144.639216
20
-36.500002
30
0
11
145.560784
21
-36.499998
31
0
39
0
210
0
220
0
230
1
0
LINE
5
CD
100
AcDbEntity
8
1
62
256
6
ByLayer
370
18
48
1
60
1
100
AcDbLine
10
145.560784
20
-36.499998
30
0
11
145.1
21
-40
31
0
39
0
210
0
220
0
230
1
0
LINE
5
CE
100
AcDbEntity
8
1
62
256
6
ByLayer
370
18
48
1
60
1
100
AcDbLine
10
145.1
20
40
30
0
11
145.560784
21
36.500002
31
0
39
0
210
0
220
0
230
1
0
LINE
5
CF
100
AcDbEntity
8
1
62
256
6
ByLayer
370
18
48
1
60
1
100
AcDbLine
10
145.560784
20
36.500002
30
0
11
144.639216
21
36.499998
31
0
39
0
210
0
220
0
230
1
0
LINE
5
D0
100
AcDbEntity
8
1
62
256
6
ByLayer
370
18
48
1
60
1
100
AcDbLine
10
144.639216
20
36.499998
30
0
11
145.1
21
40
31
0
39
0
210
0
220
0
230
1
0
LINE
5
F0
100
AcDbEntity
8
1
62
256
6
ByLayer
370
18
48
1
60
1
100
AcDbLine
10
-123.2
20
-48.725
30
0
11
-123.660784
21
-45.225002
31
0
39
0
210
0
220
0
230
1
0
LINE
5
F1
100
AcDbEntity
8
1
62
256
6
ByLayer
370
18
48
1
60
1
100
AcDbLine
10
-123.660784
20
-45.225002
30
0
11
-122.739216
21
-45.224998
31
0
39
0
210
0
220
0
230
1
0
LINE
5
F2
100
AcDbEntity
8
1
62
256
6
ByLayer
370
18
48
1
60
1
100
AcDbLine
10
-122.739216
20
-45.224998
30
0
11
-123.2
21
-48.725
31
0
39
0
210
0
220
0
230
1
0
LINE
5
F4
100
AcDbEntity
8
1
62
256
6
ByLayer
370
18
48
1
60
1
100
AcDbLine
10
-123.2
20
48.725
30
0
11
-122.739216
21
45.225002
31
0
39
0
210
0
220
0
230
1
0
LINE
5
F5
100
AcDbEntity
8
1
62
256
6
ByLayer
370
18
48
1
60
1
100
AcDbLine
10
-122.739216
20
45.225002
30
0
11
-123.660784
21
45.224998
31
0
39
0
210
0
220
0
230
1
0
LINE
5
F6
100
AcDbEntity
8
1
62
256
6
ByLayer
370
18
48
1
60
1
100
AcDbLine
10
-123.660784
20
45.224998
30
0
11
-123.2
21
48.725
31
0
39
0
210
0
220
0
230
1
0
LINE
5
FA
100
AcDbEntity
8
1
62
256
6
ByLayer
370
18
48
1
60
1
100
AcDbLine
10
145.1
20
-40
30
0
11
144.639216
21
-36.500002
31
0
39
0
210
0
220
0
230
1
0
LINE
5
FB
100
AcDbEntity
8
1
62
256
6
ByLayer
370
18
48
1
60
1
100
AcDbLine
10
144.639216
20
-36.500002
30
0
11
145.560784
21
-36.499998
31
0
39
0
210
0
220
0
230
1
0
LINE
5
FC
100
AcDbEntity
8
1
62
256
6
ByLayer
370
18
48
1
60
1
100
AcDbLine
10
145.560784
20
-36.499998
30
0
11
145.1
21
-40
31
0
39
0
210
0
220
0
230
1
0
LINE
5
FE
100
AcDbEntity
8
1
62
256
6
ByLayer
370
18
48
1
60
1
100
AcDbLine
10
145.1
20
40
30
0
11
145.560784
21
36.500002
31
0
39
0
210
0
220
0
230
1
0
LINE
5
FF
100
AcDbEntity
8
1
62
256
6
ByLayer
370
18
48
1
60
1
100
AcDbLine
10
145.560784
20
36.500002
30
0
11
144.639216
21
36.499998
31
0
39
0
210
0
220
0
230
1
0
LINE
5
100
100
AcDbEntity
8
1
62
256
6
ByLayer
370
18
48
1
60
1
100
AcDbLine
10
144.639216
20
36.499998
30
0
11
145.1
21
40
31
0
39
0
210
0
220
0
230
1
0
MTEXT
5
EC
100
AcDbEntity
8
SK2
62
256
6
ByLayer
370
18
48
1
60
0
100
AcDbMText
10
-124.764634
20
-5.76342
30
0
210
0
220
0
230
1
1
%%c
40
3.5
41
0
44
1.084337
50
90
71
7
72
5
7
iso_b_vert
0
MTEXT
5
EF
100
AcDbEntity
8
SK2
62
256
6
ByLayer
370
18
48
1
60
0
100
AcDbMText
10
-124.764634
20
-0.540764
30
0
210
0
220
0
230
1
1
\W0.7383;97,4
40
3.5
41
0
44
1.084337
50
90
71
7
72
5
7
iso_b_vert
0
MTEXT
5
F8
100
AcDbEntity
8
SK2
62
256
6
ByLayer
370
18
48
1
60
0
100
AcDbMText
10
143.535366
20
-3.655088
30
0
210
0
220
0
230
1
1
%%c
40
3.5
41
0
44
1.084337
50
90
71
7
72
5
7
iso_b_vert
0
MTEXT
5
F9
100
AcDbEntity
8
SK2
62
256
6
ByLayer
370
18
48
1
60
0
100
AcDbMText
10
143.535366
20
1.567568
30
0
210
0
220
0
230
1
1
\W0.6740;80
40
3.5
41
0
44
1.084337
50
90
71
7
72
5
7
iso_b_vert
0
MTEXT
5
102
100
AcDbEntity
8
SK6
62
256
6
ByLayer
370
18
48
1
60
0
100
AcDbMText
10
0.1855
20
-64.442366
30
0
210
0
220
0
230
1
1
\W0.7321;C8-390.540-50120
40
3.5
41
0
44
1.084337
50
0
71
7
72
5
7
iso_b_vert
0
HATCH
5
F3
100
AcDbEntity
8
SK2
62
256
6
ByLayer
370
13
48
1
60
0
100
AcDbHatch
10
0
20
0
30
0
210
0
220
0
230
1
2
ANSI31
70
0
71
0
91
1
92
5
93
3
72
1
10
-123.2
20
-48.725
11
-123.660783741553
21
-45.2250016925532
72
1
10
-123.660783741553
20
-45.2250016925532
11
-122.739216258447
21
-45.2249983074468
72
1
10
-122.739216258447
20
-45.2249983074468
11
-123.2
21
-48.725
97
0
75
0
76
1
52
0
41
0.0062
77
0
78
1
53
45
43
0
44
0
45
-0.0139193969876572
46
0.0139193969876572
79
0
47
0
98
1
10
0
20
0
0
HATCH
5
F7
100
AcDbEntity
8
SK2
62
256
6
ByLayer
370
13
48
1
60
0
100
AcDbHatch
10
0
20
0
30
0
210
0
220
0
230
1
2
ANSI31
70
0
71
0
91
1
92
5
93
3
72
1
10
-123.2
20
48.725
11
-122.739216258447
21
45.2250016925532
72
1
10
-122.739216258447
20
45.2250016925532
11
-123.660783741553
21
45.2249983074468
72
1
10
-123.660783741553
20
45.2249983074468
11
-123.2
21
48.725
97
0
75
0
76
1
52
0
41
0.0062
77
0
78
1
53
45
43
0
44
0
45
-0.0139193969876572
46
0.0139193969876572
79
0
47
0
98
1
10
0
20
0
0
HATCH
5
FD
100
AcDbEntity
8
SK2
62
256
6
ByLayer
370
13
48
1
60
0
100
AcDbHatch
10
0
20
0
30
0
210
0
220
0
230
1
2
ANSI31
70
0
71
0
91
1
92
5
93
3
72
1
10
145.1
20
-40
11
144.639216258447
21
-36.5000016925532
72
1
10
144.639216258447
20
-36.5000016925532
11
145.560783741553
21
-36.4999983074468
72
1
10
145.560783741553
20
-36.4999983074468
11
145.1
21
-40
97
0
75
0
76
1
52
0
41
0.0062
77
0
78
1
53
45
43
0
44
0
45
-0.0139193969876572
46
0.0139193969876572
79
0
47
0
98
1
10
0
20
0
0
HATCH
5
101
100
AcDbEntity
8
SK2
62
256
6
ByLayer
370
13
48
1
60
0
100
AcDbHatch
10
0
20
0
30
0
210
0
220
0
230
1
2
ANSI31
70
0
71
0
91
1
92
5
93
3
72
1
10
145.1
20
40
11
145.560783741553
21
36.5000016925532
72
1
10
145.560783741553
20
36.5000016925532
11
144.639216258447
21
36.4999983074468
72
1
10
144.639216258447
20
36.4999983074468
11
145.1
21
40
97
0
75
0
76
1
52
0
41
0.0062
77
0
78
1
53
45
43
0
44
0
45
-0.0139193969876572
46
0.0139193969876572
79
0
47
0
98
1
10
0
20
0
0
DIMENSION
5
105
100
AcDbEntity
8
SK2
62
256
6
ByLayer
370
18
48
1
60
0
100
AcDbDimension
2
_U0
10
19.05
20
63.647986
30
0
11
9.525
21
63.647986
31
0
70
32
71
1
72
1
41
1
210
0
220
0
230
1
3
Standard
100
AcDbAlignedDimension
13
0
23
48.725
33
0
14
19.05
24
48.725
34
0
50
0
100
AcDbRotatedDimension
1001
ACAD
1000
DSTYLE
1002
{
1070
   371
1070
    13
1070
   372
1070
    13
1070
   170
1070
     0
1070
   144
1040
1.0
1070
   277
1070
     2
1070
   284
1070
     8
1070
   278
1070
    44
1070
   146
1040
1.0
1070
   345
1005
16
1070
   347
1005
16
1070
   346
1005
16
1070
   344
1005
0
1070
   343
1005
0
1070
   172
1070
     1
1070
    76
1070
     0
1070
    75
1070
     0
1070
   282
1070
     0
1070
   281
1070
     0
1070
    71
1070
     0
1070
    74
1070
     0
1070
   279
1070
     0
1070
   173
1070
     1
1070
   340
1005
ED
1070
   271
1070
     1
1070
   272
1070
     2
1070
    77
1070
     1
1070
    73
1070
     1
1070
   171
1070
     3
1070
   274
1070
     4
1070
   177
1070
     2
1070
   176
1070
     2
1070
   178
1070
     2
1070
    78
1070
     8
1070
    48
1040
-0.1
1070
    41
1040
3.5
1070
   147
1040
1.75
1070
    42
1040
1.5875
1070
    44
1040
2.0
1070
   140
1040
3.5
1002
}
1001
ACAD_DSTYLE_DIM_LINETYPE
1070
   380
1005
16
1001
ACAD_DSTYLE_DIM_EXT1_LINETYPE
1070
   381
1005
16
1001
ACAD_DSTYLE_DIM_EXT2_LINETYPE
1070
   382
1005
16
0
DIMENSION
5
11E
100
AcDbEntity
8
2
62
256
6
ByLayer
370
18
48
1
60
0
100
AcDbDimension
2
_U1
10
0
20
73.647986
30
0
11
60
21
73.647986
31
0
70
32
71
1
72
1
41
1
210
0
220
0
230
1
3
Standard
100
AcDbAlignedDimension
13
120
23
40
33
0
14
0
24
48.725
34
0
50
0
100
AcDbRotatedDimension
1001
ACAD
1000
DSTYLE
1002
{
1070
   371
1070
    13
1070
   372
1070
    13
1070
   170
1070
     0
1070
   144
1040
1.0
1070
   277
1070
     2
1070
   284
1070
     8
1070
   278
1070
    44
1070
   146
1040
1.0
1070
   345
1005
16
1070
   347
1005
16
1070
   346
1005
16
1070
   344
1005
0
1070
   343
1005
0
1070
   172
1070
     1
1070
    76
1070
     0
1070
    75
1070
     0
1070
   282
1070
     0
1070
   281
1070
     0
1070
    71
1070
     0
1070
    74
1070
     0
1070
   279
1070
     0
1070
   173
1070
     1
1070
   340
1005
ED
1070
   271
1070
     1
1070
   272
1070
     2
1070
    77
1070
     1
1070
    73
1070
     1
1070
   171
1070
     3
1070
   274
1070
     4
1070
   177
1070
     2
1070
   176
1070
     2
1070
   178
1070
     2
1070
    78
1070
     8
1070
    48
1040
-0.1
1070
    41
1040
3.5
1070
   147
1040
1.75
1070
    42
1040
1.5875
1070
    44
1040
2.0
1070
   140
1040
3.5
1002
}
1001
ACAD_DSTYLE_DIM_LINETYPE
1070
   380
1005
16
1001
ACAD_DSTYLE_DIM_EXT1_LINETYPE
1070
   381
1005
16
1001
ACAD_DSTYLE_DIM_EXT2_LINETYPE
1070
   382
1005
16
0
DIMENSION
5
137
100
AcDbEntity
8
SK2
62
256
6
ByLayer
370
18
48
1
60
0
100
AcDbDimension
2
_U2
10
0
20
73.647986
30
0
11
-50.8
21
73.647986
31
0
70
32
71
1
72
1
41
1
210
0
220
0
230
1
3
Standard
100
AcDbAlignedDimension
13
-101.6
23
12.5
33
0
14
0
24
48.725
34
0
50
0
100
AcDbRotatedDimension
1001
ACAD
1000
DSTYLE
1002
{
1070
   371
1070
    13
1070
   372
1070
    13
1070
   170
1070
     0
1070
   144
1040
1.0
1070
   277
1070
     2
1070
   284
1070
     8
1070
   278
1070
    44
1070
   146
1040
1.0
1070
   345
1005
16
1070
   347
1005
16
1070
   346
1005
16
1070
   344
1005
0
1070
   343
1005
0
1070
   172
1070
     1
1070
    76
1070
     0
1070
    75
1070
     0
1070
   282
1070
     0
1070
   281
1070
     0
1070
    71
1070
     0
1070
    74
1070
     0
1070
   279
1070
     0
1070
   173
1070
     1
1070
   340
1005
ED
1070
   271
1070
     1
1070
   272
1070
     2
1070
    77
1070
     1
1070
    73
1070
     1
1070
   171
1070
     3
1070
   274
1070
     4
1070
   177
1070
     2
1070
   176
1070
     2
1070
   178
1070
     2
1070
    78
1070
     8
1070
    48
1040
-0.1
1070
    41
1040
3.5
1070
   147
1040
1.75
1070
    42
1040
1.5875
1070
    44
1040
2.0
1070
   140
1040
3.5
1002
}
1001
ACAD_DSTYLE_DIM_LINETYPE
1070
   380
1005
16
1001
ACAD_DSTYLE_DIM_EXT1_LINETYPE
1070
   381
1005
16
1001
ACAD_DSTYLE_DIM_EXT2_LINETYPE
1070
   382
1005
16
0
ENDSEC
0
SECTION
2
OBJECTS
0
DICTIONARY
5
1bf
330
0
100
AcDbDictionary
280
0
281
1
3
ACAD_GROUP
350
1c0
3
ACAD_MLINESTYLE
350
1c1
0
DICTIONARY
5
1c0
330
0
100
AcDbDictionary
280
0
281
1
0
DICTIONARY
5
1c1
330
0
100
AcDbDictionary
280
0
281
1
3
Standard
350
18
0
MLINESTYLE
5
18
330
1c1
100
AcDbMlineStyle
2
Standard
70
0
3

62
256
51
90
52
90
71
2
49
-0.5
62
256
6
ByLayer
49
0.5
62
256
6
ByLayer
0
RASTERVARIABLES
5
1ad
330

100
AcDbRasterVariables
90
0
70
1
71
1
72
1
0
ENDSEC
0
EOF
