0
SECTION
2
HEADER
9
$ACADVER
1
AC1015
9
$DWGCODEPAGE
3
ANSI_1252
9
$HANDSEED
5
1c0
9
$ANGBASE
50
0
9
$ANGDIR
70
0
9
$ATTMODE
70
1
9
$AUNITS
70
0
9
$AUPREC
70
0
9
$CECOLOR
62
256
9
$CELTSCALE
40
1
9
$CELTYPE
6
ByLayer
9
$CELWEIGHT
370
18
9
$CLAYER
8
0
9
$CMLJUST
70
0
9
$CMLSCALE
40
1
9
$CMLSTYLE
2
Standard
9
$DIMSTYLE
2
Standard
9
$TEXTSIZE
40
0.2
9
$TEXTSTYLE
7
Standard
9
$LUNITS
70
2
9
$LUPREC
70
4
9
$EXTNAMES
290
1
9
$INSUNITS
70
4
9
$LTSCALE
40
1
9
$LWDISPLAY
290
1
9
$PDMODE
70
0
9
$PDSIZE
40
0
9
$PLINEGEN
70
0
0
ENDSEC
0
SECTION
2
CLASSES
0
CLASS
1
RASTERVARIABLES
2
AcDbRasterVariables
3
ISM
90
0
280
0
281
0
0
ENDSEC
0
SECTION
2
TABLES
0
TABLE
2
VPORT
5
1b6
100
AcDbSymbolTable
0
VPORT
5
1
100
AcDbSymbolTableRecord
100
AcDbViewportTableRecord
2
*Active
70
0
10
0
20
0
11
1
21
1
12
-1
22
1
13
0
23
0
14
0.5
24
0.5
15
10
25
10
16
0
26
0
36
1
17
0
27
0
37
0
0
ENDTAB
0
TABLE
2
LTYPE
5
1b7
100
AcDbSymbolTable
0
LTYPE
5
14
100
AcDbSymbolTableRecord
100
AcDbLinetypeTableRecord
70
0
2
ByBlock
3

72
65
73
0
40
0
0
LTYPE
5
15
100
AcDbSymbolTableRecord
100
AcDbLinetypeTableRecord
70
0
2
ByLayer
3

72
65
73
0
40
0
0
LTYPE
5
16
100
AcDbSymbolTableRecord
100
AcDbLinetypeTableRecord
70
0
2
Continuous
3
Solid line
72
65
73
0
40
0
0
LTYPE
5
6E
100
AcDbSymbolTableRecord
100
AcDbLinetypeTableRecord
70
0
2
CENTER
3
____ _ ____ _ ____ _ ____
72
65
73
4
40
47.5
49
22
74
0
49
-8.5
74
0
49
8.5
74
0
49
-8.5
74
0
0
LTYPE
5
6F
100
AcDbSymbolTableRecord
100
AcDbLinetypeTableRecord
70
0
2
DASHED
3
__ __ __ __ __ __ __ __ __
72
65
73
2
40
25.72
49
12.86
74
0
49
-12.86
74
0
0
ENDTAB
0
TABLE
2
LAYER
5
1b8
100
AcDbSymbolTable
0
LAYER
5
10
100
AcDbSymbolTableRecord
100
AcDbLayerTableRecord
2
0
70
0
62
7
6
Continuous
290
1
370
-3
390
0
0
LAYER
5
71
100
AcDbSymbolTableRecord
100
AcDbLayerTableRecord
2
1
70
0
62
4
6
Continuous
290
1
370
-3
390
0
0
LAYER
5
73
100
AcDbSymbolTableRecord
100
AcDbLayerTableRecord
2
80
70
0
62
-6
6
Continuous
290
1
370
-3
390
0
0
LAYER
5
75
100
AcDbSymbolTableRecord
100
AcDbLayerTableRecord
2
81
70
0
62
-3
6
Continuous
290
1
370
-3
390
0
0
LAYER
5
B5
100
AcDbSymbolTableRecord
100
AcDbLayerTableRecord
2
4
70
0
62
-2
6
CENTER
290
1
370
-3
390
0
0
LAYER
5
FB
100
AcDbSymbolTableRecord
100
AcDbLayerTableRecord
2
Defpoints
70
0
62
7
6
Continuous
290
0
370
-3
390
0
0
LAYER
5
121
100
AcDbSymbolTableRecord
100
AcDbLayerTableRecord
2
2
70
0
62
7
6
Continuous
290
1
370
-3
390
0
0
LAYER
5
1a2
100
AcDbSymbolTableRecord
100
AcDbLayerTableRecord
2
SK1
70
0
62
4
6
Continuous
290
1
370
-3
390
0
0
LAYER
5
1a3
100
AcDbSymbolTableRecord
100
AcDbLayerTableRecord
2
SK4
70
0
62
2
6
CENTER
290
1
370
-3
390
0
0
LAYER
5
1a4
100
AcDbSymbolTableRecord
100
AcDbLayerTableRecord
2
SK2
70
0
62
7
6
Continuous
290
1
370
-3
390
0
0
LAYER
5
1a5
100
AcDbSymbolTableRecord
100
AcDbLayerTableRecord
2
SK6
70
0
62
5
6
Continuous
290
1
370
-3
390
0
0
ENDTAB
0
TABLE
2
STYLE
5
1b9
100
AcDbSymbolTable
0
STYLE
5
11
100
AcDbSymbolTableRecord
100
AcDbTextStyleTableRecord
2
Standard
3
txt
70
0
71
0
40
0
41
1
42
0
50
0
0
STYLE
5
E0
100
AcDbSymbolTableRecord
100
AcDbTextStyleTableRecord
2
iso_b_vert
3
simplex.shx
70
0
71
0
40
0
41
1
42
0
50
0
0
STYLE
5
E1
100
AcDbSymbolTableRecord
100
AcDbTextStyleTableRecord
2
DWGDirectTextStyle
3
simplex
70
0
71
0
40
0
41
1
42
0
50
0
0
ENDTAB
0
TABLE
2
DIMSTYLE
5
1ba
100
AcDbSymbolTable
100
AcDbDimStyleTable
0
DIMSTYLE
105
27
100
AcDbSymbolTableRecord
100
AcDbDimStyleTableRecord
2
Standard
70
0
3
<>
41
0.18
42
0.0625
44
0.18
140
0.18
147
0.09
73
0
74
0
77
1
271
2
275
0
278
52
280
0
340
11
0
ENDTAB
0
TABLE
2
VIEW
5
1bb
100
AcDbSymbolTable
0
ENDTAB
0
TABLE
2
UCS
5
1bc
100
AcDbSymbolTable
0
ENDTAB
0
TABLE
2
APPID
5
1bd
100
AcDbSymbolTable
0
APPID
5
12
100
AcDbSymbolTableRecord
100
AcDbRegAppTableRecord
2
ACAD
70
0
0
APPID
5
F7
100
AcDbSymbolTableRecord
100
AcDbRegAppTableRecord
2
ACAD_DSTYLE_DIMBREAK
70
0
0
APPID
5
161
100
AcDbSymbolTableRecord
100
AcDbRegAppTableRecord
2
ACAD_DSTYLE_DIM_LINETYPE
70
0
0
APPID
5
162
100
AcDbSymbolTableRecord
100
AcDbRegAppTableRecord
2
ACAD_DSTYLE_DIM_EXT1_LINETYPE
70
0
0
APPID
5
163
100
AcDbSymbolTableRecord
100
AcDbRegAppTableRecord
2
ACAD_DSTYLE_DIM_EXT2_LINETYPE
70
0
0
APPID
5
19E
100
AcDbSymbolTableRecord
100
AcDbRegAppTableRecord
2
ACAD_MLEADERVER
70
0
0
ENDTAB
0
TABLE
2
BLOCK_RECORD
5
1be
100
AcDbSymbolTable
0
BLOCK_RECORD
5
1F
100
AcDbSymbolTableRecord
100
AcDbBlockTableRecord
2
*Model_Space
340
0
70
0
0
BLOCK_RECORD
5
1B
100
AcDbSymbolTableRecord
100
AcDbBlockTableRecord
2
*Paper_Space
340
0
70
0
0
BLOCK_RECORD
5
23
100
AcDbSymbolTableRecord
100
AcDbBlockTableRecord
2
*Paper_Space0
340
0
70
0
0
BLOCK_RECORD
5
FC
100
AcDbSymbolTableRecord
100
AcDbBlockTableRecord
2
*D1
340
0
70
0
0
BLOCK_RECORD
5
109
100
AcDbSymbolTableRecord
100
AcDbBlockTableRecord
2
_U0
340
0
70
0
0
BLOCK_RECORD
5
115
100
AcDbSymbolTableRecord
100
AcDbBlockTableRecord
2
*D3
340
0
70
0
0
BLOCK_RECORD
5
122
100
AcDbSymbolTableRecord
100
AcDbBlockTableRecord
2
_U1
340
0
70
0
0
BLOCK_RECORD
5
12E
100
AcDbSymbolTableRecord
100
AcDbBlockTableRecord
2
*D5
340
0
70
0
0
BLOCK_RECORD
5
13A
100
AcDbSymbolTableRecord
100
AcDbBlockTableRecord
2
_U2
340
0
70
0
0
ENDTAB
0
ENDSEC
0
SECTION
2
BLOCKS
0
BLOCK
5
20
100
AcDbEntity
8
0
100
AcDbBlockBegin
2
*Model_Space
70
0
10
0
20
0
30
0
3
*Model_Space
0
ENDBLK
5
21
100
AcDbEntity
8
0
100
AcDbBlockEnd
0
BLOCK
5
1C
100
AcDbEntity
8
0
100
AcDbBlockBegin
2
*Paper_Space
70
0
10
0
20
0
30
0
3
*Paper_Space
0
ENDBLK
5
1D
100
AcDbEntity
8
0
100
AcDbBlockEnd
0
BLOCK
5
24
100
AcDbEntity
8
0
100
AcDbBlockBegin
2
*Paper_Space0
70
0
10
0
20
0
30
0
3
*Paper_Space0
0
ENDBLK
5
25
100
AcDbEntity
8
0
100
AcDbBlockEnd
0
BLOCK
5
FD
100
AcDbEntity
8
0
100
AcDbBlockBegin
2
*D1
70
1
10
0
20
0
30
0
3
*D1
0
LINE
5
FF
100
AcDbEntity
8
0
62
256
6
ByLayer
370
-2
48
1
60
0
100
AcDbLine
10
0
20
50.2375
30
0
11
0
21
65.570148
31
0
39
0
210
0
220
0
230
1
0
LINE
5
100
100
AcDbEntity
8
0
62
256
6
ByLayer
370
-2
48
1
60
0
100
AcDbLine
10
15.2
20
50.2375
30
0
11
15.2
21
65.570148
31
0
39
0
210
0
220
0
230
1
0
LINE
5
101
100
AcDbEntity
8
0
62
256
6
ByLayer
370
-2
48
1
60
0
100
AcDbLine
10
-3.5
20
63.570148
30
0
11
-7
21
63.570148
31
0
39
0
210
0
220
0
230
1
0
LINE
5
102
100
AcDbEntity
8
0
62
256
6
ByLayer
370
-2
48
1
60
0
100
AcDbLine
10
18.7
20
63.570148
30
0
11
22.2
21
63.570148
31
0
39
0
210
0
220
0
230
1
0
SOLID
5
103
100
AcDbEntity
8
0
62
256
6
ByLayer
370
-1
48
1
60
0
100
AcDbTrace
10
-3.5
20
62.986815
30
0
11
-3.5
21
64.153481
31
0
12
0
22
63.570148
32
0
13
0
23
63.570148
33
0
39
0
210
0
220
0
230
1
0
SOLID
5
104
100
AcDbEntity
8
0
62
256
6
ByLayer
370
-1
48
1
60
0
100
AcDbTrace
10
18.7
20
64.153481
30
0
11
18.7
21
62.986815
31
0
12
15.2
22
63.570148
32
0
13
15.2
23
63.570148
33
0
39
0
210
0
220
0
230
1
0
MTEXT
5
105
100
AcDbEntity
8
0
62
256
6
ByLayer
370
18
48
1
60
0
100
AcDbMText
10
7.6
20
70.570148
30
0
210
0
220
0
230
1
1
\A1;15.2
40
3.5
41
0
44
1
50
0
71
5
72
5
7
iso_b_vert
0
POINT
5
106
100
AcDbEntity
8
Defpoints
62
0
6
ByLayer
370
-1
48
1
60
0
100
AcDbPoint
10
0
20
48.65
30
0
39
0
210
0
220
0
230
1
50
360
0
POINT
5
107
100
AcDbEntity
8
Defpoints
62
0
6
ByLayer
370
-1
48
1
60
0
100
AcDbPoint
10
15.2
20
48.65
30
0
39
0
210
0
220
0
230
1
50
360
0
POINT
5
108
100
AcDbEntity
8
Defpoints
62
0
6
ByLayer
370
-1
48
1
60
0
100
AcDbPoint
10
15.2
20
63.570148
30
0
39
0
210
0
220
0
230
1
50
360
0
ENDBLK
5
FE
100
AcDbEntity
8
0
100
AcDbBlockEnd
0
BLOCK
5
110
100
AcDbEntity
8
0
100
AcDbBlockBegin
2
_U0
70
0
10
0
20
0
30
0
3
_U0
0
MTEXT
5
10A
100
AcDbEntity
8
SK2
62
256
6
ByLayer
370
18
48
1
60
0
100
AcDbMText
10
4.207868
20
64.602781
30
0
210
0
220
0
230
1
1
\W0.6367;15,2
40
3.5
41
0
44
1.084337
50
0
71
7
72
5
7
iso_b_vert
0
LINE
5
10B
100
AcDbEntity
8
SK2
62
256
6
ByLayer
370
13
48
1
60
0
100
AcDbLine
10
0
20
50.2375
30
0
11
0
21
65.570148
31
0
39
0
210
0
220
0
230
1
0
LINE
5
10C
100
AcDbEntity
8
SK2
62
256
6
ByLayer
370
13
48
1
60
0
100
AcDbLine
10
15.2
20
50.2375
30
0
11
15.2
21
65.570148
31
0
39
0
210
0
220
0
230
1
0
LINE
5
10D
100
AcDbEntity
8
SK2
62
256
6
ByLayer
370
13
48
1
60
0
100
AcDbLine
10
0
20
63.570148
30
0
11
15.2
21
63.570148
31
0
39
0
210
0
220
0
230
1
0
SOLID
5
10E
100
AcDbEntity
8
SK2
62
256
6
ByLayer
370
18
48
1
60
0
100
AcDbTrace
10
0
20
63.570148
30
0
11
3.499998
21
64.030932
31
0
12
3.500002
22
63.109364
32
0
13
3.500002
23
63.109364
33
0
39
0
210
0
220
0
230
1
0
SOLID
5
10F
100
AcDbEntity
8
SK2
62
256
6
ByLayer
370
18
48
1
60
0
100
AcDbTrace
10
15.2
20
63.570148
30
0
11
11.700002
21
63.109364
31
0
12
11.699998
22
64.030932
32
0
13
11.699998
23
64.030932
33
0
39
0
210
0
220
0
230
1
0
ENDBLK
5
111
100
AcDbEntity
8
0
100
AcDbBlockEnd
0
BLOCK
5
116
100
AcDbEntity
8
0
100
AcDbBlockBegin
2
*D3
70
1
10
0
20
0
30
0
3
*D3
0
LINE
5
118
100
AcDbEntity
8
0
62
256
6
ByLayer
370
-2
48
1
60
0
100
AcDbLine
10
70
20
41.5875
30
0
11
70
21
75.570148
31
0
39
0
210
0
220
0
230
1
0
LINE
5
119
100
AcDbEntity
8
0
62
256
6
ByLayer
370
-2
48
1
60
0
100
AcDbLine
10
0
20
50.2375
30
0
11
0
21
75.570148
31
0
39
0
210
0
220
0
230
1
0
LINE
5
11A
100
AcDbEntity
8
0
62
256
6
ByLayer
370
-2
48
1
60
0
100
AcDbLine
10
66.5
20
73.570148
30
0
11
3.5
21
73.570148
31
0
39
0
210
0
220
0
230
1
0
SOLID
5
11B
100
AcDbEntity
8
0
62
256
6
ByLayer
370
-1
48
1
60
0
100
AcDbTrace
10
66.5
20
72.986815
30
0
11
66.5
21
74.153481
31
0
12
70
22
73.570148
32
0
13
70
23
73.570148
33
0
39
0
210
0
220
0
230
1
0
SOLID
5
11C
100
AcDbEntity
8
0
62
256
6
ByLayer
370
-1
48
1
60
0
100
AcDbTrace
10
3.5
20
74.153481
30
0
11
3.5
21
72.986815
31
0
12
0
22
73.570148
32
0
13
0
23
73.570148
33
0
39
0
210
0
220
0
230
1
0
MTEXT
5
11D
100
AcDbEntity
8
0
62
256
6
ByLayer
370
18
48
1
60
0
100
AcDbMText
10
35
20
80.570148
30
0
210
0
220
0
230
1
1
\A1;70
40
3.5
41
0
44
1
50
0
71
5
72
5
7
iso_b_vert
0
POINT
5
11E
100
AcDbEntity
8
Defpoints
62
0
6
ByLayer
370
-1
48
1
60
0
100
AcDbPoint
10
70
20
40
30
0
39
0
210
0
220
0
230
1
50
360
0
POINT
5
11F
100
AcDbEntity
8
Defpoints
62
0
6
ByLayer
370
-1
48
1
60
0
100
AcDbPoint
10
0
20
48.65
30
0
39
0
210
0
220
0
230
1
50
360
0
POINT
5
120
100
AcDbEntity
8
Defpoints
62
0
6
ByLayer
370
-1
48
1
60
0
100
AcDbPoint
10
0
20
73.570148
30
0
39
0
210
0
220
0
230
1
50
360
0
ENDBLK
5
117
100
AcDbEntity
8
0
100
AcDbBlockEnd
0
BLOCK
5
129
100
AcDbEntity
8
0
100
AcDbBlockBegin
2
_U1
70
0
10
0
20
0
30
0
3
_U1
0
MTEXT
5
123
100
AcDbEntity
8
2
62
256
6
ByLayer
370
18
48
1
60
0
100
AcDbMText
10
33.095034
20
74.602781
30
0
210
0
220
0
230
1
1
\W0.6740;70
40
3.5
41
0
44
1.084337
50
0
71
7
72
5
7
iso_b_vert
0
LINE
5
124
100
AcDbEntity
8
2
62
256
6
ByLayer
370
13
48
1
60
0
100
AcDbLine
10
70
20
41.5875
30
0
11
70
21
75.570148
31
0
39
0
210
0
220
0
230
1
0
LINE
5
125
100
AcDbEntity
8
2
62
256
6
ByLayer
370
13
48
1
60
0
100
AcDbLine
10
0
20
50.2375
30
0
11
0
21
75.570148
31
0
39
0
210
0
220
0
230
1
0
LINE
5
126
100
AcDbEntity
8
2
62
256
6
ByLayer
370
13
48
1
60
0
100
AcDbLine
10
70
20
73.570148
30
0
11
0
21
73.570148
31
0
39
0
210
0
220
0
230
1
0
SOLID
5
127
100
AcDbEntity
8
2
62
256
6
ByLayer
370
18
48
1
60
0
100
AcDbTrace
10
70
20
73.570148
30
0
11
66.500002
21
73.109364
31
0
12
66.499998
22
74.030932
32
0
13
66.499998
23
74.030932
33
0
39
0
210
0
220
0
230
1
0
SOLID
5
128
100
AcDbEntity
8
2
62
256
6
ByLayer
370
18
48
1
60
0
100
AcDbTrace
10
0
20
73.570148
30
0
11
3.499998
21
74.030932
31
0
12
3.500002
22
73.109364
32
0
13
3.500002
23
73.109364
33
0
39
0
210
0
220
0
230
1
0
ENDBLK
5
12A
100
AcDbEntity
8
0
100
AcDbBlockEnd
0
BLOCK
5
12F
100
AcDbEntity
8
0
100
AcDbBlockBegin
2
*D5
70
1
10
0
20
0
30
0
3
*D5
0
LINE
5
131
100
AcDbEntity
8
0
62
256
6
ByLayer
370
-2
48
1
60
0
100
AcDbLine
10
-126.8
20
14.0875
30
0
11
-126.8
21
75.570148
31
0
39
0
210
0
220
0
230
1
0
LINE
5
132
100
AcDbEntity
8
0
62
256
6
ByLayer
370
-2
48
1
60
0
100
AcDbLine
10
0
20
50.2375
30
0
11
0
21
75.570148
31
0
39
0
210
0
220
0
230
1
0
LINE
5
133
100
AcDbEntity
8
0
62
256
6
ByLayer
370
-2
48
1
60
0
100
AcDbLine
10
-123.3
20
73.570148
30
0
11
-3.5
21
73.570148
31
0
39
0
210
0
220
0
230
1
0
SOLID
5
134
100
AcDbEntity
8
0
62
256
6
ByLayer
370
-1
48
1
60
0
100
AcDbTrace
10
-123.3
20
74.153481
30
0
11
-123.3
21
72.986815
31
0
12
-126.8
22
73.570148
32
0
13
-126.8
23
73.570148
33
0
39
0
210
0
220
0
230
1
0
SOLID
5
135
100
AcDbEntity
8
0
62
256
6
ByLayer
370
-1
48
1
60
0
100
AcDbTrace
10
-3.5
20
72.986815
30
0
11
-3.5
21
74.153481
31
0
12
0
22
73.570148
32
0
13
0
23
73.570148
33
0
39
0
210
0
220
0
230
1
0
MTEXT
5
136
100
AcDbEntity
8
0
62
256
6
ByLayer
370
18
48
1
60
0
100
AcDbMText
10
-63.4
20
80.570148
30
0
210
0
220
0
230
1
1
\A1;126.8
40
3.5
41
0
44
1
50
0
71
5
72
5
7
iso_b_vert
0
POINT
5
137
100
AcDbEntity
8
Defpoints
62
0
6
ByLayer
370
-1
48
1
60
0
100
AcDbPoint
10
-126.8
20
12.5
30
0
39
0
210
0
220
0
230
1
50
360
0
POINT
5
138
100
AcDbEntity
8
Defpoints
62
0
6
ByLayer
370
-1
48
1
60
0
100
AcDbPoint
10
0
20
48.65
30
0
39
0
210
0
220
0
230
1
50
360
0
POINT
5
139
100
AcDbEntity
8
Defpoints
62
0
6
ByLayer
370
-1
48
1
60
0
100
AcDbPoint
10
0
20
73.570148
30
0
39
0
210
0
220
0
230
1
50
360
0
ENDBLK
5
130
100
AcDbEntity
8
0
100
AcDbBlockEnd
0
BLOCK
5
141
100
AcDbEntity
8
0
100
AcDbBlockBegin
2
_U2
70
0
10
0
20
0
30
0
3
_U2
0
MTEXT
5
13B
100
AcDbEntity
8
SK2
62
256
6
ByLayer
370
18
48
1
60
0
100
AcDbMText
10
-68.099865
20
74.602781
30
0
210
0
220
0
230
1
1
\W0.6713;126,8
40
3.5
41
0
44
1.084337
50
0
71
7
72
5
7
iso_b_vert
0
LINE
5
13C
100
AcDbEntity
8
SK2
62
256
6
ByLayer
370
13
48
1
60
0
100
AcDbLine
10
-126.8
20
14.0875
30
0
11
-126.8
21
75.570148
31
0
39
0
210
0
220
0
230
1
0
LINE
5
13D
100
AcDbEntity
8
SK2
62
256
6
ByLayer
370
13
48
1
60
0
100
AcDbLine
10
0
20
50.2375
30
0
11
0
21
75.570148
31
0
39
0
210
0
220
0
230
1
0
LINE
5
13E
100
AcDbEntity
8
SK2
62
256
6
ByLayer
370
13
48
1
60
0
100
AcDbLine
10
-126.8
20
73.570148
30
0
11
0
21
73.570148
31
0
39
0
210
0
220
0
230
1
0
SOLID
5
13F
100
AcDbEntity
8
SK2
62
256
6
ByLayer
370
18
48
1
60
0
100
AcDbTrace
10
-126.8
20
73.570148
30
0
11
-123.300002
21
74.030932
31
0
12
-123.299998
22
73.109364
32
0
13
-123.299998
23
73.109364
33
0
39
0
210
0
220
0
230
1
0
SOLID
5
140
100
AcDbEntity
8
SK2
62
256
6
ByLayer
370
18
48
1
60
0
100
AcDbTrace
10
0
20
73.570148
30
0
11
-3.499998
21
73.109364
31
0
12
-3.500002
22
74.030932
32
0
13
-3.500002
23
74.030932
33
0
39
0
210
0
220
0
230
1
0
ENDBLK
5
142
100
AcDbEntity
8
0
100
AcDbBlockEnd
0
ENDSEC
0
SECTION
2
ENTITIES
0
ARC
5
CC
100
AcDbEntity
8
SK1
62
256
6
ByLayer
370
18
48
1
60
0
100
AcDbCircle
39
0
10
-124.8
20
17.62
30
0
40
2
210
0
220
0
230
1
100
AcDbArc
50
90
51
180
0
ARC
5
CD
100
AcDbEntity
8
SK1
62
256
6
ByLayer
370
18
48
1
60
0
100
AcDbCircle
39
0
10
-124.8
20
-17.62
30
0
40
2
210
0
220
0
230
1
100
AcDbArc
50
180
51
270
0
ARC
5
CE
100
AcDbEntity
8
SK1
62
256
6
ByLayer
370
18
48
1
60
0
100
AcDbCircle
39
0
10
-103.012341
20
-20.5
30
0
40
1.5
210
0
220
0
230
1
100
AcDbArc
50
28.963186
51
90
0
ARC
5
CF
100
AcDbEntity
8
SK1
62
256
6
ByLayer
370
18
48
1
60
0
100
AcDbCircle
39
0
10
-103.012341
20
20.5
30
0
40
1.5
210
0
220
0
230
1
100
AcDbArc
50
270
51
331.036814
0
ARC
5
D0
100
AcDbEntity
8
SK1
62
256
6
ByLayer
370
18
48
1
60
0
100
AcDbCircle
39
0
10
-101
20
-19.386231
30
0
40
0.8
210
0
220
0
230
1
100
AcDbArc
50
208.963186
51
261.702222
0
ARC
5
D1
100
AcDbEntity
8
SK1
62
256
6
ByLayer
370
18
48
1
60
0
100
AcDbCircle
39
0
10
-101
20
19.386231
30
0
40
0.8
210
0
220
0
230
1
100
AcDbArc
50
98.297778
51
151.036814
0
ARC
5
D2
100
AcDbEntity
8
1
62
256
6
ByLayer
370
18
48
1
60
0
100
AcDbCircle
39
0
10
2.6
20
-35.3
30
0
40
0.6
210
0
220
0
230
1
100
AcDbArc
50
9.593797
51
90
0
ARC
5
D3
100
AcDbEntity
8
1
62
256
6
ByLayer
370
18
48
1
60
0
100
AcDbCircle
39
0
10
2.6
20
35.3
30
0
40
0.6
210
0
220
0
230
1
100
AcDbArc
50
270
51
350.418251
0
POINT
5
70
100
AcDbEntity
8
1
62
256
6
ByLayer
370
18
48
1
60
0
100
AcDbPoint
10
0
20
0
30
0
39
0
210
0
220
0
230
1
50
360
0
POINT
5
72
100
AcDbEntity
8
80
62
256
6
ByLayer
370
18
48
1
60
0
100
AcDbPoint
10
0
20
0
30
0
39
0
210
0
220
0
230
1
50
360
0
POINT
5
74
100
AcDbEntity
8
81
62
256
6
ByLayer
370
18
48
1
60
0
100
AcDbPoint
10
70
20
0
30
0
39
0
210
0
220
0
230
1
50
360
0
POINT
5
76
100
AcDbEntity
8
1
62
256
6
ByLayer
370
18
48
1
60
1
100
AcDbPoint
10
0
20
48.65
30
0
39
0
210
0
220
0
230
1
50
360
0
POINT
5
77
100
AcDbEntity
8
1
62
256
6
ByLayer
370
18
48
1
60
1
100
AcDbPoint
10
15.2
20
48.65
30
0
39
0
210
0
220
0
230
1
50
360
0
POINT
5
78
100
AcDbEntity
8
1
62
256
6
ByLayer
370
18
48
1
60
1
100
AcDbPoint
10
70
20
40
30
0
39
0
210
0
220
0
230
1
50
360
0
POINT
5
79
100
AcDbEntity
8
1
62
256
6
ByLayer
370
18
48
1
60
1
100
AcDbPoint
10
0
20
48.65
30
0
39
0
210
0
220
0
230
1
50
360
0
POINT
5
7A
100
AcDbEntity
8
1
62
256
6
ByLayer
370
18
48
1
60
1
100
AcDbPoint
10
-126.8
20
12.5
30
0
39
0
210
0
220
0
230
1
50
360
0
POINT
5
7B
100
AcDbEntity
8
1
62
256
6
ByLayer
370
18
48
1
60
1
100
AcDbPoint
10
0
20
48.65
30
0
39
0
210
0
220
0
230
1
50
360
0
SPLINE
5
D4
100
AcDbEntity
8
1
62
256
6
ByLayer
370
18
48
1
60
0
100
AcDbSpline
70
4
71
3
72
38
73
34
40
0
40
0
40
0
40
0
40
0.125000000000001
40
0.125000000000001
40
0.187500000000002
40
0.187500000000002
40
0.218750000000003
40
0.218750000000003
40
0.250000000000003
40
0.250000000000003
40
0.375000000000004
40
0.375000000000004
40
0.406250000000004
40
0.406250000000004
40
0.437500000000004
40
0.437500000000004
40
0.500000000000004
40
0.500000000000004
40
0.625000000000004
40
0.625000000000004
40
0.656250000000003
40
0.656250000000003
40
0.687500000000003
40
0.687500000000003
40
0.750000000000002
40
0.750000000000002
40
0.812500000000001
40
0.812500000000001
40
0.843750000000001
40
0.843750000000001
40
0.875000000000001
40
0.875000000000001
40
1
40
1
40
1
40
1
41
1
10
29.2
20
-39.99999875
30
0
41
1
10
29.2
20
-39.9997843819884
30
0
41
1
10
29.1153165972645
20
-39.9720519056899
30
0
41
1
10
28.8672451954612
20
-39.8931771599039
30
0
41
1
10
28.7642256887791
20
-39.8606636233158
30
0
41
1
10
28.5785770010706
20
-39.8030151177111
30
0
41
1
10
28.5112812389844
20
-39.7822532372864
30
0
41
1
10
28.3674168481244
20
-39.7382559964439
30
0
41
1
10
28.290856769815
20
-39.7150222950203
30
0
41
1
10
27.8854096783265
20
-39.5931931510816
30
-1E-16
41
1
10
27.4892758418262
20
-39.4776369538263
30
-1E-16
41
1
10
26.9050715536287
20
-39.3183459147096
30
-1E-16
41
1
10
26.783735687192
20
-39.2857450453381
30
-1E-16
41
1
10
26.5319140163496
20
-39.2192568772927
30
-2E-16
41
1
10
26.401543221663
20
-39.1854042481281
30
-2E-16
41
1
10
26.0008376719231
20
-39.0833365005677
30
-2E-16
41
1
10
25.7196512938706
20
-39.0142702963431
30
-2E-16
41
1
10
24.8346897516958
20
-38.8068710845679
30
-3E-16
41
1
10
24.1899636627629
20
-38.668269329404
30
-3E-16
41
1
10
23.3114367786605
20
-38.5044432725164
30
-3E-16
41
1
10
23.1329934910278
20
-38.4723322829238
30
-4E-16
41
1
10
22.7722324620333
20
-38.4099129903231
30
-4E-16
41
1
10
22.5896718590196
20
-38.379559153001
30
-4E-16
41
1
10
22.0354917105455
20
-38.2913702775404
30
-4E-16
41
1
10
21.6573893998505
20
-38.2364067693247
30
-5E-16
41
1
10
20.883728021543
20
-38.1357692336555
30
-5E-16
41
1
10
20.4881701566431
20
-38.0900929210233
30
-5E-16
41
1
10
19.8812364425712
20
-38.0298123565642
30
-6E-16
41
1
10
19.6766549423491
20
-38.0110918443347
30
-6E-16
41
1
10
19.262813284196
20
-37.9766201852618
30
-6E-16
41
1
10
19.0545110948584
20
-37.960954769485
30
-6E-16
41
1
10
18.0109956910553
20
-37.8910978588551
30
-7E-16
41
1
10
17.1649980097348
20
-37.8619267041444
30
-7E-16
41
1
10
16.3075
20
-37.8619267041444
30
-8E-16
0
SPLINE
5
D5
100
AcDbEntity
8
1
62
256
6
ByLayer
370
18
48
1
60
0
100
AcDbSpline
70
4
71
3
72
12
73
8
40
0
40
0
40
0
40
0
40
0.499999999999995
40
0.499999999999995
40
0.749999999999997
40
0.749999999999997
40
1
40
1
40
1
40
1
41
1
10
4.19999999999999
20
46.9078670773891
30
3E-16
41
1
10
4.11196715829294
20
46.907867077389
30
3E-16
41
1
10
4.0255729767465
20
46.896017110514
30
2E-16
41
1
10
3.89841808397318
20
46.8606234875722
30
2E-16
41
1
10
3.85662822828161
20
46.8458488591332
30
2E-16
41
1
10
3.77632926843628
20
46.8112599938762
30
2E-16
41
1
10
3.7375078979457
20
46.7913663761614
30
2E-16
41
1
10
3.69999999999959
20
46.7689022185751
30
2E-16
0
SPLINE
5
D6
100
AcDbEntity
8
1
62
256
6
ByLayer
370
18
48
1
60
0
100
AcDbSpline
70
2053
71
3
72
90
73
86
40
0
40
0
40
0
40
0
40
0.0312500000000006
40
0.0312500000000006
40
0.0468750000000006
40
0.0468750000000006
40
0.0625000000000007
40
0.0625000000000007
40
0.0937500000000004
40
0.0937500000000004
40
0.125
40
0.125
40
0.15625
40
0.15625
40
0.171875
40
0.171875
40
0.1875
40
0.203124999999999
40
0.203124999999999
40
0.218749999999999
40
0.218749999999999
40
0.249999999999999
40
0.249999999999999
40
0.281249999999999
40
0.281249999999999
40
0.312499999999998
40
0.312499999999998
40
0.328124999999998
40
0.328124999999998
40
0.343749999999998
40
0.343749999999998
40
0.374999999999998
40
0.374999999999998
40
0.406249999999998
40
0.406249999999998
40
0.421874999999998
40
0.421874999999998
40
0.437499999999998
40
0.437499999999998
40
0.468749999999999
40
0.468749999999999
40
0.499999999999999
40
0.499999999999999
40
0.53125
40
0.53125
40
0.546875
40
0.546875
40
0.5625
40
0.578125
40
0.578125
40
0.593749999999999
40
0.593749999999999
40
0.625
40
0.625
40
0.640625
40
0.640625
40
0.65625
40
0.65625
40
0.687500000000001
40
0.687500000000001
40
0.703125000000001
40
0.703125000000001
40
0.718750000000001
40
0.718750000000001
40
0.750000000000001
40
0.750000000000001
40
0.781250000000001
40
0.781250000000001
40
0.796875000000001
40
0.796875000000001
40
0.812500000000001
40
0.812500000000001
40
0.84375
40
0.84375
40
0.875
40
0.875
40
0.90625
40
0.90625
40
0.921875
40
0.921875
40
0.9375
40
0.9375
40
0.96875
40
0.96875
40
1
40
1
40
1
40
1
41
1
10
9.19999999999999
20
1.75
30
6E-16
41
1
10
9.084376508568
20
1.75
30
6E-16
41
1
10
8.97068702978569
20
1.7386536933729
30
5E-16
41
1
10
8.80293476040012
20
1.70531213314411
30
5E-16
41
1
10
8.74748444068709
20
1.69145769337956
30
5E-16
41
1
10
8.63753921309794
20
1.65814273303315
30
5E-16
41
1
10
8.58289706604975
20
1.63858879370511
30
5E-16
41
1
10
8.42395352086075
20
1.57270751444747
30
5E-16
41
1
10
8.323441782071
20
1.51895481188953
30
5E-16
41
1
10
8.13321888317464
20
1.39196123464916
30
5E-16
41
1
10
8.04316131413506
20
1.31804977323338
30
5E-16
41
1
10
7.88173906647873
20
1.15659805506749
30
5E-16
41
1
10
7.80930138201299
20
1.06850222337229
30
5E-16
41
1
10
7.71335238199319
20
0.925034470563332
30
5E-16
41
1
10
7.68356469076835
20
0.875330868945213
30
5E-16
41
1
10
7.62957646992172
20
0.774306214226186
30
5E-16
41
1
10
7.5808014673342
20
0.671135148519738
30
5E-16
41
1
10
7.54229674162875
20
0.56373494759427
30
5E-16
41
1
10
7.50899795191347
20
0.454190771945974
30
5E-16
41
1
10
7.49489690326618
20
0.398044076965675
30
5E-16
41
1
10
7.46118001225403
20
0.228621261062585
30
5E-16
41
1
10
7.45006108195034
20
0.115070260779049
30
5E-16
41
1
10
7.4499394151739
20
-0.113204819944997
30
5E-16
41
1
10
7.46129669073468
20
-0.229136343692176
30
5E-16
41
1
10
7.50593630871086
20
-0.453586674745367
30
5E-16
41
1
10
7.53896572963123
20
-0.562678576154411
30
5E-16
41
1
10
7.60466549318946
20
-0.721590824657767
30
5E-16
41
1
10
7.62943940723434
20
-0.77404321229892
30
5E-16
41
1
10
7.68361355590136
20
-0.875428821897117
30
5E-16
41
1
10
7.71301636474371
20
-0.92446216549115
30
5E-16
41
1
10
7.80800629784849
20
-1.06670335189736
30
5E-16
41
1
10
7.88030860308683
20
-1.15509983708955
30
5E-16
41
1
10
8.04357275594188
20
-1.31852836371883
30
5E-16
41
1
10
8.13211521746868
20
-1.39108474597828
30
5E-16
41
1
10
8.2742309526179
20
-1.48616968772853
30
5E-16
41
1
10
8.32319964229291
20
-1.51559091596337
30
5E-16
41
1
10
8.42439906039229
20
-1.56978911778165
30
5E-16
41
1
10
8.47685716215281
20
-1.59463404172632
30
5E-16
41
1
10
8.6358960599151
20
-1.66056011894454
30
5E-16
41
1
10
8.74497859867685
20
-1.69367191326208
30
5E-16
41
1
10
8.96918570129353
20
-1.73847455688818
30
5E-16
41
1
10
9.08516937395083
20
-1.74995931126534
30
6E-16
41
1
10
9.31358708006385
20
-1.75004046781945
30
6E-16
41
1
10
9.42709960328764
20
-1.73900801155455
30
6E-16
41
1
10
9.59630234334801
20
-1.70550585638776
30
6E-16
41
1
10
9.65256980267461
20
-1.69143870813284
30
6E-16
41
1
10
9.76226404252142
20
-1.65820482851945
30
6E-16
41
1
10
9.8697573392844
20
-1.61976927486333
30
6E-16
41
1
10
9.97292232828201
20
-1.57110306424167
30
6E-16
41
1
10
10.0738973496557
20
-1.51725976229886
30
6E-16
41
1
10
10.1235166840736
20
-1.48759431042319
30
6E-16
41
1
10
10.2672940492025
20
-1.39164040082187
30
6E-16
41
1
10
10.3554827256607
20
-1.31923336895011
30
6E-16
41
1
10
10.4766129894721
20
-1.19833781876153
30
6E-16
41
1
10
10.5151174763265
20
-1.15597696051651
30
6E-16
41
1
10
10.5882739508006
20
-1.06701084685801
30
6E-16
41
1
10
10.622758743725
20
-1.02055521464877
30
7E-16
41
1
10
10.7182186520946
20
-0.877846045957313
30
7E-16
41
1
10
10.7720368840029
20
-0.777384672800565
30
7E-16
41
1
10
10.8379899450509
20
-0.618684623580378
30
7E-16
41
1
10
10.8575798453835
20
-0.564125613386892
30
7E-16
41
1
10
10.8910466423209
20
-0.454059362854736
30
7E-16
41
1
10
10.9049608026794
20
-0.398573856041963
30
7E-16
41
1
10
10.9384601590765
20
-0.230794507901919
30
7E-16
41
1
10
10.9498822034166
20
-0.117190658451108
30
7E-16
41
1
10
10.9501160013927
20
0.113645756329276
30
7E-16
41
1
10
10.9388477885465
20
0.227823303734198
30
7E-16
41
1
10
10.9056601370765
20
0.395565758316366
30
7E-16
41
1
10
10.8918635244897
20
0.450986473319432
30
7E-16
41
1
10
10.8586952322592
20
0.560821817600214
30
7E-16
41
1
10
10.839197764091
20
0.615490289791012
30
7E-16
41
1
10
10.7733831145618
20
0.774697361118712
30
7E-16
41
1
10
10.7196910856062
20
0.875268921138513
30
7E-16
41
1
10
10.5929722714059
20
1.06545057655271
30
6E-16
41
1
10
10.5191307904517
20
1.15561334561397
30
6E-16
41
1
10
10.3577155608201
20
1.31728619787569
30
6E-16
41
1
10
10.2697033391818
20
1.38976144330948
30
6E-16
41
1
10
10.1265313451639
20
1.48571201523725
30
6E-16
41
1
10
10.0767929198951
20
1.51559286531517
30
6E-16
41
1
10
9.97570481791539
20
1.56973551696947
30
6E-16
41
1
10
9.92410927385529
20
1.59418119160031
30
6E-16
41
1
10
9.76622467546653
20
1.65978349956691
30
6E-16
41
1
10
9.65646173680014
20
1.69336127352608
30
6E-16
41
1
10
9.43003825212364
20
1.7386523868791
30
6E-16
41
1
10
9.31562349143198
20
1.75
30
6E-16
41
1
10
9.19999999999999
20
1.75
30
6E-16
0
SPLINE
5
D7
100
AcDbEntity
8
1
62
256
6
ByLayer
370
18
48
1
60
0
100
AcDbSpline
70
4
71
3
72
22
73
18
40
0
40
0
40
0
40
0
40
0.124999999999999
40
0.124999999999999
40
0.249999999999998
40
0.249999999999998
40
0.374999999999997
40
0.374999999999997
40
0.499999999999996
40
0.499999999999996
40
0.624999999999997
40
0.624999999999997
40
0.749999999999998
40
0.749999999999998
40
0.874999999999999
40
0.874999999999999
40
1
40
1
40
1
40
1
41
1
10
15.2
20
-38.9169049867792
30
-8E-16
41
1
10
15.2
20
-38.8490161464011
30
-8E-16
41
1
10
15.2061704913967
20
-38.7821698954332
30
-8E-16
41
1
10
15.2303922824665
20
-38.6504848195027
30
-8E-16
41
1
10
15.2486412069037
20
-38.585148803915
30
-8E-16
41
1
10
15.2969912749827
20
-38.4589441294802
30
-8E-16
41
1
10
15.326663456877
20
-38.3989004557191
30
-8E-16
41
1
10
15.396961337399
20
-38.2849077453129
30
-8E-16
41
1
10
15.4381516227291
20
-38.2303997385402
30
-8E-16
41
1
10
15.5294656345094
20
-38.131487089816
30
-8E-16
41
1
10
15.5794050693798
20
-38.0869974858578
30
-8E-16
41
1
10
15.6880464030114
20
-38.0081809002274
30
-8E-16
41
1
10
15.7473389524332
20
-37.9737298559301
30
-8E-16
41
1
10
15.869692461665
20
-37.9187488488931
30
-8E-16
41
1
10
15.9332629377645
20
-37.8977119062671
30
-8E-16
41
1
10
16.0654039231769
20
-37.8691182938998
30
-8E-16
41
1
10
16.133004725773
20
-37.8619267041444
30
-8E-16
41
1
10
16.2
20
-37.8619267041444
30
-8E-16
0
SPLINE
5
D8
100
AcDbEntity
8
1
62
256
6
ByLayer
370
18
48
1
60
0
100
AcDbSpline
70
4
71
3
72
22
73
18
40
0
40
0
40
0
40
0
40
0.125
40
0.125
40
0.25
40
0.25
40
0.375
40
0.375
40
0.5
40
0.5
40
0.625
40
0.625
40
0.75
40
0.75
40
0.875
40
0.875
40
1
40
1
40
1
40
1
41
1
10
15.2
20
45.8699029184714
30
-8E-16
41
1
10
15.2
20
45.936561235867
30
-8E-16
41
1
10
15.1938805721004
20
46.0026971110671
30
-8E-16
41
1
10
15.1692912735756
20
46.1339144504148
30
-8E-16
41
1
10
15.150618655299
20
46.1990836518888
30
-8E-16
41
1
10
15.1021493567642
20
46.3228683987648
30
-9E-16
41
1
10
15.0722690657366
20
46.3822083244052
30
-9E-16
41
1
10
15.0007244591825
20
46.4955605072549
30
-9E-16
41
1
10
14.959409054976
20
46.5487802110214
30
-9E-16
41
1
10
14.8681997486843
20
46.6452403310986
30
-9E-16
41
1
10
14.81785171153
20
46.6891031826159
30
-9E-16
41
1
10
14.7078844211248
20
46.766791851135
30
-9E-16
41
1
10
14.6499339820878
20
46.7994795060132
30
-9E-16
41
1
10
14.5282243067544
20
46.8528004215938
30
-9E-16
41
1
10
14.4636455056583
20
46.8735616110404
30
9E-16
41
1
10
14.3328711096011
20
46.9009970702185
30
9E-16
41
1
10
14.2667857643918
20
46.9078670773891
30
9E-16
41
1
10
14.2
20
46.9078670773891
30
9E-16
0
SPLINE
5
D9
100
AcDbEntity
8
1
62
256
6
ByLayer
370
18
48
1
60
0
100
AcDbSpline
70
4
71
3
72
18
73
14
40
0
40
0
40
0
40
0
40
0.249999999999994
40
0.249999999999994
40
0.499999999999989
40
0.499999999999989
40
0.624999999999992
40
0.624999999999992
40
0.749999999999994
40
0.749999999999994
40
0.874999999999997
40
0.874999999999997
40
1
40
1
40
1
40
1
41
1
10
3.69999999999897
20
-46.7689022185744
30
2E-16
41
1
10
3.63392118222731
20
-46.7110967447709
30
2E-16
41
1
10
3.57189224265619
20
-46.6463316449125
30
2E-16
41
1
10
3.45680424912919
20
-46.5013868952888
30
2E-16
41
1
10
3.40331710390694
20
-46.4203446742156
30
2E-16
41
1
10
3.33456184350493
20
-46.288842749279
30
2E-16
41
1
10
3.31347181580125
20
-46.2432650906036
30
2E-16
41
1
10
3.27552679596465
20
-46.1480709452874
30
2E-16
41
1
10
3.25857747949129
20
-46.0980588276644
30
2E-16
41
1
10
3.23065644266813
20
-45.9959243557285
30
2E-16
41
1
10
3.21957954951787
20
-45.9436787694883
30
2E-16
41
1
10
3.2042200615237
20
-45.8364112087692
30
2E-16
41
1
10
3.19999999999999
20
-45.7809787016589
30
2E-16
41
1
10
3.19999999999999
20
-45.7263107384578
30
2E-16
0
SPLINE
5
DA
100
AcDbEntity
8
1
62
256
6
ByLayer
370
18
48
1
60
0
100
AcDbSpline
70
4
71
3
72
18
73
14
40
0
40
0
40
0
40
0
40
0.25
40
0.25
40
0.5
40
0.5
40
0.625
40
0.625
40
0.75
40
0.75
40
0.875
40
0.875
40
1
40
1
40
1
40
1
41
1
10
3.69999999999959
20
46.7689022185749
30
2E-16
41
1
10
3.63392118222785
20
46.7110967447715
30
2E-16
41
1
10
3.57189224265665
20
46.646331644913
30
2E-16
41
1
10
3.45680424912953
20
46.5013868952893
30
2E-16
41
1
10
3.40331710390723
20
46.420344674216
30
2E-16
41
1
10
3.33456184350513
20
46.2888427492793
30
2E-16
41
1
10
3.31347181580139
20
46.2432650906039
30
2E-16
41
1
10
3.27552679596474
20
46.1480709452877
30
2E-16
41
1
10
3.25857747949138
20
46.0980588276647
30
2E-16
41
1
10
3.23065644266816
20
45.9959243557287
30
2E-16
41
1
10
3.2195795495179
20
45.9436787694884
30
2E-16
41
1
10
3.2042200615237
20
45.8364112087693
30
2E-16
41
1
10
3.19999999999999
20
45.780978701659
30
2E-16
41
1
10
3.19999999999999
20
45.7263107384578
30
2E-16
0
SPLINE
5
DB
100
AcDbEntity
8
1
62
256
6
ByLayer
370
18
48
1
60
0
100
AcDbSpline
70
4
71
3
72
22
73
18
40
0
40
0
40
0
40
0
40
0.125000000000001
40
0.125000000000001
40
0.250000000000002
40
0.250000000000002
40
0.375000000000003
40
0.375000000000003
40
0.500000000000004
40
0.500000000000004
40
0.625000000000003
40
0.625000000000003
40
0.750000000000002
40
0.750000000000002
40
0.875000000000001
40
0.875000000000001
40
1
40
1
40
1
40
1
41
1
10
16.2
20
37.8619267041444
30
-8E-16
41
1
10
16.133004725773
20
37.8619267041444
30
-8E-16
41
1
10
16.0654039231769
20
37.8691182938998
30
-8E-16
41
1
10
15.9332629377645
20
37.8977119062671
30
-8E-16
41
1
10
15.869692461665
20
37.9187488488931
30
-8E-16
41
1
10
15.7473389524332
20
37.9737298559301
30
-8E-16
41
1
10
15.6880464030114
20
38.0081809002274
30
-8E-16
41
1
10
15.5794050693798
20
38.0869974858578
30
-8E-16
41
1
10
15.5294656345094
20
38.131487089816
30
-8E-16
41
1
10
15.4381516227291
20
38.2303997385402
30
-8E-16
41
1
10
15.396961337399
20
38.2849077453129
30
-8E-16
41
1
10
15.326663456877
20
38.3989004557191
30
-8E-16
41
1
10
15.2969912749827
20
38.4589441294802
30
-8E-16
41
1
10
15.2486412069037
20
38.585148803915
30
-8E-16
41
1
10
15.2303922824665
20
38.6504848195027
30
-8E-16
41
1
10
15.2061704913967
20
38.7821698954332
30
-8E-16
41
1
10
15.2
20
38.8490161464011
30
-8E-16
41
1
10
15.2
20
38.9169049867792
30
-8E-16
0
SPLINE
5
DC
100
AcDbEntity
8
1
62
256
6
ByLayer
370
18
48
1
60
0
100
AcDbSpline
70
4
71
3
72
22
73
18
40
0
40
0
40
0
40
0
40
0.125
40
0.125
40
0.25
40
0.25
40
0.375
40
0.375
40
0.5
40
0.5
40
0.625
40
0.625
40
0.75
40
0.75
40
0.875
40
0.875
40
1
40
1
40
1
40
1
41
1
10
15.2
20
-45.8699029184715
30
-8E-16
41
1
10
15.2
20
-45.9370166579918
30
-8E-16
41
1
10
15.1937973538371
20
-46.0031764514649
30
-8E-16
41
1
10
15.1693357456481
20
-46.1336418177186
30
-8E-16
41
1
10
15.1507946746
20
-46.198600426883
30
-8E-16
41
1
10
15.1021153731365
20
-46.3229887836366
30
-9E-16
41
1
10
15.0722327476356
20
-46.3821997956852
30
-9E-16
41
1
10
15.0013483241705
20
-46.4946376069233
30
-9E-16
41
1
10
14.9598145437506
20
-46.5483074164626
30
-9E-16
41
1
10
14.8684282811383
20
-46.6450423006856
30
-9E-16
41
1
10
14.8184256935386
20
-46.6885846517338
30
-9E-16
41
1
10
14.7095436714658
20
-46.7657303750816
30
-9E-16
41
1
10
14.6506108611169
20
-46.7991653592777
30
-9E-16
41
1
10
14.5279793307104
20
-46.8529252900647
30
-9E-16
41
1
10
14.4634584972526
20
-46.8735895201109
30
9E-16
41
1
10
14.3333738225147
20
-46.9009029013301
30
9E-16
41
1
10
14.2672497392405
20
-46.9078670773891
30
9E-16
41
1
10
14.2
20
-46.9078670773891
30
9E-16
0
SPLINE
5
DD
100
AcDbEntity
8
1
62
256
6
ByLayer
370
18
48
1
60
0
100
AcDbSpline
70
4
71
3
72
12
73
8
40
0
40
0
40
0
40
0
40
0.249999999999999
40
0.249999999999999
40
0.499999999999998
40
0.499999999999998
40
1
40
1
40
1
40
1
41
1
10
4.19999999999999
20
-46.9078670773891
30
3E-16
41
1
10
4.15651953885111
20
-46.9078670773891
30
3E-16
41
1
10
4.11310600623068
20
-46.9049385847285
30
3E-16
41
1
10
4.02641500803693
20
-46.8931279148154
30
2E-16
41
1
10
3.98301639506249
20
-46.8841758052449
30
2E-16
41
1
10
3.85610883204282
20
-46.8488379964168
30
2E-16
41
1
10
3.77456086074523
20
-46.813558064871
30
2E-16
41
1
10
3.69999999999879
20
-46.7689022185746
30
2E-16
0
SPLINE
5
DE
100
AcDbEntity
8
1
62
256
6
ByLayer
370
18
48
1
60
0
100
AcDbSpline
70
4
71
3
72
38
73
34
40
0
40
0
40
0
40
0
40
0.125000000000001
40
0.125000000000001
40
0.187500000000001
40
0.187500000000001
40
0.218750000000001
40
0.218750000000001
40
0.250000000000002
40
0.250000000000002
40
0.375000000000002
40
0.375000000000002
40
0.406250000000002
40
0.406250000000002
40
0.437500000000001
40
0.437500000000001
40
0.500000000000001
40
0.500000000000001
40
0.625000000000001
40
0.625000000000001
40
0.656250000000001
40
0.656250000000001
40
0.687500000000001
40
0.687500000000001
40
0.750000000000001
40
0.750000000000001
40
0.8125
40
0.8125
40
0.84375
40
0.84375
40
0.875
40
0.875
40
1
40
1
40
1
40
1
41
1
10
29.2
20
39.99999875
30
0
41
1
10
29.2
20
39.9997843819884
30
0
41
1
10
29.1153165972645
20
39.9720519056899
30
0
41
1
10
28.8672451954612
20
39.8931771599039
30
0
41
1
10
28.7642256887791
20
39.8606636233157
30
0
41
1
10
28.5785770010706
20
39.8030151177111
30
0
41
1
10
28.5112812389844
20
39.7822532372864
30
0
41
1
10
28.3674168481244
20
39.7382559964439
30
0
41
1
10
28.290856769815
20
39.7150222950203
30
0
41
1
10
27.8854096783265
20
39.5931931510816
30
-1E-16
41
1
10
27.4892758418262
20
39.4776369538263
30
-1E-16
41
1
10
26.9050715536287
20
39.3183459147096
30
-1E-16
41
1
10
26.783735687192
20
39.2857450453381
30
-1E-16
41
1
10
26.5319140163496
20
39.2192568772927
30
-2E-16
41
1
10
26.401543221663
20
39.1854042481281
30
-2E-16
41
1
10
26.0008376719231
20
39.0833365005677
30
-2E-16
41
1
10
25.7196512938706
20
39.0142702963431
30
-2E-16
41
1
10
24.8346897516958
20
38.8068710845679
30
-3E-16
41
1
10
24.1899636627629
20
38.668269329404
30
-3E-16
41
1
10
23.3114367786605
20
38.5044432725164
30
-3E-16
41
1
10
23.1329934910278
20
38.4723322829238
30
-4E-16
41
1
10
22.7722324620333
20
38.4099129903231
30
-4E-16
41
1
10
22.5896718590196
20
38.379559153001
30
-4E-16
41
1
10
22.0354917105455
20
38.2913702775404
30
-4E-16
41
1
10
21.6573893998505
20
38.2364067693247
30
-5E-16
41
1
10
20.883728021543
20
38.1357692336555
30
-5E-16
41
1
10
20.4881701566431
20
38.0900929210233
30
-5E-16
41
1
10
19.8812364425712
20
38.0298123565642
30
-6E-16
41
1
10
19.6766549423491
20
38.0110918443347
30
-6E-16
41
1
10
19.2628132841961
20
37.9766201852618
30
-6E-16
41
1
10
19.0545110948584
20
37.960954769485
30
-6E-16
41
1
10
18.0109956910553
20
37.8910978588551
30
-7E-16
41
1
10
17.1649980097348
20
37.8619267041444
30
-7E-16
41
1
10
16.3075
20
37.8619267041444
30
-8E-16
0
LINE
5
7C
100
AcDbEntity
8
SK1
62
256
6
ByLayer
370
18
48
1
60
0
100
AcDbLine
10
-126.8
20
17.62
30
0
11
-126.8
21
0
31
0
39
0
210
0
220
0
230
1
0
LINE
5
7E
100
AcDbEntity
8
SK1
62
256
6
ByLayer
370
18
48
1
60
0
100
AcDbLine
10
-126.8
20
0
30
0
11
-126.8
21
-17.62
31
0
39
0
210
0
220
0
230
1
0
LINE
5
7F
100
AcDbEntity
8
SK1
62
256
6
ByLayer
370
13
48
1
60
0
100
AcDbLine
10
-101.699945
20
19.773629
30
0
11
-101.699945
21
-19.773629
31
0
39
0
210
0
220
0
230
1
0
LINE
5
80
100
AcDbEntity
8
SK1
62
256
6
ByLayer
370
13
48
1
60
0
100
AcDbLine
10
-103.012341
20
0
30
0
11
-103.012341
21
19
31
0
39
0
210
0
220
0
230
1
0
LINE
5
81
100
AcDbEntity
8
SK1
62
256
6
ByLayer
370
13
48
1
60
0
100
AcDbLine
10
-103.012341
20
-19
30
0
11
-103.012341
21
0
31
0
39
0
210
0
220
0
230
1
0
LINE
5
82
100
AcDbEntity
8
SK1
62
256
6
ByLayer
370
13
48
1
60
0
100
AcDbLine
10
-101.115454
20
-20.177856
30
0
11
-101.115454
21
20.177856
31
0
39
0
210
0
220
0
230
1
0
LINE
5
83
100
AcDbEntity
8
SK1
62
256
6
ByLayer
370
18
48
1
60
0
100
AcDbLine
10
0
20
34.925
30
0
11
0
21
0
31
0
39
0
210
0
220
0
230
1
0
LINE
5
84
100
AcDbEntity
8
SK1
62
256
6
ByLayer
370
18
48
1
60
0
100
AcDbLine
10
0
20
0
30
0
11
0
21
-34.925
31
0
39
0
210
0
220
0
230
1
0
LINE
5
85
100
AcDbEntity
8
SK1
62
256
6
ByLayer
370
13
48
1
60
0
100
AcDbLine
10
-124.8
20
-19.62
30
0
11
-124.8
21
19.62
31
0
39
0
210
0
220
0
230
1
0
LINE
5
86
100
AcDbEntity
8
SK1
62
256
6
ByLayer
370
18
48
1
60
0
100
AcDbLine
10
-108.726128
20
19
30
0
11
-108.726128
21
-19
31
0
39
0
210
0
220
0
230
1
0
LINE
5
87
100
AcDbEntity
8
SK1
62
256
6
ByLayer
370
18
48
1
60
0
100
AcDbLine
10
-109.8
20
19.62
30
0
11
-109.8
21
-19.62
31
0
39
0
210
0
220
0
230
1
0
LINE
5
88
100
AcDbEntity
8
1
62
256
6
ByLayer
370
13
48
1
60
0
100
AcDbLine
10
2.6
20
34.7
30
0
11
2.6
21
0
31
0
39
0
210
0
220
0
230
1
0
LINE
5
89
100
AcDbEntity
8
1
62
256
6
ByLayer
370
13
48
1
60
0
100
AcDbLine
10
2.6
20
0
30
0
11
2.6
21
-34.7
31
0
39
0
210
0
220
0
230
1
0
LINE
5
8A
100
AcDbEntity
8
1
62
256
6
ByLayer
370
18
48
1
60
0
100
AcDbLine
10
16.3075
20
37.861927
30
0
11
16.2
21
37.861927
31
0
39
0
210
0
220
0
230
1
0
LINE
5
8B
100
AcDbEntity
8
1
62
256
6
ByLayer
370
18
48
1
60
0
100
AcDbLine
10
69.7
20
0
30
0
11
69.7
21
40
31
0
39
0
210
0
220
0
230
1
0
LINE
5
8C
100
AcDbEntity
8
1
62
256
6
ByLayer
370
18
48
1
60
0
100
AcDbLine
10
69.7
20
-40
30
0
11
69.7
21
0
31
0
39
0
210
0
220
0
230
1
0
LINE
5
8D
100
AcDbEntity
8
1
62
256
6
ByLayer
370
18
48
1
60
0
100
AcDbLine
10
4.2
20
-46.907867
30
0
11
14.2
21
-46.907867
31
0
39
0
210
0
220
0
230
1
0
LINE
5
8E
100
AcDbEntity
8
1
62
256
6
ByLayer
370
13
48
1
60
0
100
AcDbLine
10
16.2
20
37.861927
30
0
11
16.2
21
-37.861927
31
0
39
0
210
0
220
0
230
1
0
LINE
5
8F
100
AcDbEntity
8
1
62
256
6
ByLayer
370
18
48
1
60
0
100
AcDbLine
10
15.2
20
45.869903
30
0
11
15.2
21
-45.869903
31
0
39
0
210
0
220
0
230
1
0
LINE
5
90
100
AcDbEntity
8
1
62
256
6
ByLayer
370
18
48
1
60
0
100
AcDbLine
10
0.7
20
35.027091
30
0
11
0.7
21
-35.027091
31
0
39
0
210
0
220
0
230
1
0
LINE
5
91
100
AcDbEntity
8
1
62
256
6
ByLayer
370
18
48
1
60
0
100
AcDbLine
10
4.2
20
46.907867
30
0
11
14.2
21
46.907867
31
0
39
0
210
0
220
0
230
1
0
LINE
5
92
100
AcDbEntity
8
1
62
256
6
ByLayer
370
18
48
1
60
0
100
AcDbLine
10
16.2
20
-37.861927
30
0
11
16.3075
21
-37.861927
31
0
39
0
210
0
220
0
230
1
0
LINE
5
93
100
AcDbEntity
8
1
62
256
6
ByLayer
370
18
48
1
60
0
100
AcDbLine
10
29.2
20
39.999999
30
0
11
29.2
21
40
31
0
39
0
210
0
220
0
230
1
0
LINE
5
94
100
AcDbEntity
8
1
62
256
6
ByLayer
370
18
48
1
60
0
100
AcDbLine
10
0
20
34.925
30
0
11
0
21
0
31
0
39
0
210
0
220
0
230
1
0
LINE
5
95
100
AcDbEntity
8
1
62
256
6
ByLayer
370
18
48
1
60
0
100
AcDbLine
10
0
20
0
30
0
11
0
21
-34.925
31
0
39
0
210
0
220
0
230
1
0
LINE
5
96
100
AcDbEntity
8
1
62
256
6
ByLayer
370
18
48
1
60
0
100
AcDbLine
10
3.2
20
-45.726311
30
0
11
3.2
21
45.726311
31
0
39
0
210
0
220
0
230
1
0
LINE
5
97
100
AcDbEntity
8
1
62
256
6
ByLayer
370
13
48
1
60
0
100
AcDbLine
10
14.2
20
-46.907867
30
0
11
14.2
21
46.907867
31
0
39
0
210
0
220
0
230
1
0
LINE
5
98
100
AcDbEntity
8
1
62
256
6
ByLayer
370
18
48
1
60
0
100
AcDbLine
10
29.2
20
-39.999999
30
0
11
29.2
21
-40
31
0
39
0
210
0
220
0
230
1
0
LINE
5
99
100
AcDbEntity
8
1
62
256
6
ByLayer
370
18
48
1
60
0
100
AcDbLine
10
1.266539
20
34.7
30
0
11
1.266539
21
-34.7
31
0
39
0
210
0
220
0
230
1
0
LINE
5
9A
100
AcDbEntity
8
1
62
256
6
ByLayer
370
13
48
1
60
0
100
AcDbLine
10
4.2
20
46.907867
30
0
11
4.2
21
-46.907867
31
0
39
0
210
0
220
0
230
1
0
LINE
5
9B
100
AcDbEntity
8
1
62
256
6
ByLayer
370
18
48
1
60
0
100
AcDbLine
10
70
20
0
30
0
11
70
21
39.7
31
0
39
0
210
0
220
0
230
1
0
LINE
5
9C
100
AcDbEntity
8
1
62
256
6
ByLayer
370
18
48
1
60
0
100
AcDbLine
10
70
20
-39.7
30
0
11
70
21
0
31
0
39
0
210
0
220
0
230
1
0
LINE
5
9D
100
AcDbEntity
8
SK4
62
256
6
ByLayer
370
18
48
0.05
60
0
100
AcDbLine
10
-131.8
20
0
30
0
11
75
21
0
31
0
39
0
210
0
220
0
230
1
0
LINE
5
9F
100
AcDbEntity
8
SK1
62
256
6
ByLayer
370
18
48
1
60
0
100
AcDbLine
10
-108.726128
20
-19
30
0
11
-103.012341
21
-19
31
0
39
0
210
0
220
0
230
1
0
LINE
5
A0
100
AcDbEntity
8
SK1
62
256
6
ByLayer
370
18
48
1
60
0
100
AcDbLine
10
-103.012341
20
19
30
0
11
-108.726128
21
19
31
0
39
0
210
0
220
0
230
1
0
LINE
5
A1
100
AcDbEntity
8
SK1
62
256
6
ByLayer
370
18
48
1
60
0
100
AcDbLine
10
-108.726128
20
19
30
0
11
-109.8
21
19.62
31
0
39
0
210
0
220
0
230
1
0
LINE
5
A2
100
AcDbEntity
8
SK1
62
256
6
ByLayer
370
18
48
1
60
0
100
AcDbLine
10
-109.8
20
-19.62
30
0
11
-108.726128
21
-19
31
0
39
0
210
0
220
0
230
1
0
LINE
5
A3
100
AcDbEntity
8
SK1
62
256
6
ByLayer
370
18
48
1
60
0
100
AcDbLine
10
-124.8
20
-19.62
30
0
11
-109.8
21
-19.62
31
0
39
0
210
0
220
0
230
1
0
LINE
5
A4
100
AcDbEntity
8
SK1
62
256
6
ByLayer
370
18
48
1
60
0
100
AcDbLine
10
-109.8
20
19.62
30
0
11
-124.8
21
19.62
31
0
39
0
210
0
220
0
230
1
0
LINE
5
A5
100
AcDbEntity
8
SK1
62
256
6
ByLayer
370
18
48
1
60
0
100
AcDbLine
10
-101.115454
20
-20.177856
30
0
11
0
21
-34.925
31
0
39
0
210
0
220
0
230
1
0
LINE
5
A6
100
AcDbEntity
8
SK1
62
256
6
ByLayer
370
18
48
1
60
0
100
AcDbLine
10
0
20
34.925
30
0
11
-101.115454
21
20.177856
31
0
39
0
210
0
220
0
230
1
0
LINE
5
A7
100
AcDbEntity
8
1
62
256
6
ByLayer
370
18
48
1
60
0
100
AcDbLine
10
0
20
-34.925
30
0
11
0.7
21
-35.027091
31
0
39
0
210
0
220
0
230
1
0
LINE
5
A8
100
AcDbEntity
8
1
62
256
6
ByLayer
370
18
48
1
60
0
100
AcDbLine
10
0.7
20
35.027091
30
0
11
0
21
34.925
31
0
39
0
210
0
220
0
230
1
0
LINE
5
A9
100
AcDbEntity
8
1
62
256
6
ByLayer
370
18
48
1
60
0
100
AcDbLine
10
1.266539
20
-34.7
30
0
11
2.6
21
-34.7
31
0
39
0
210
0
220
0
230
1
0
LINE
5
AA
100
AcDbEntity
8
1
62
256
6
ByLayer
370
18
48
1
60
0
100
AcDbLine
10
2.6
20
34.7
30
0
11
1.266539
21
34.7
31
0
39
0
210
0
220
0
230
1
0
LINE
5
AB
100
AcDbEntity
8
1
62
256
6
ByLayer
370
18
48
1
60
0
100
AcDbLine
10
1.266539
20
34.7
30
0
11
0.7
21
35.027091
31
0
39
0
210
0
220
0
230
1
0
LINE
5
AC
100
AcDbEntity
8
1
62
256
6
ByLayer
370
18
48
1
60
0
100
AcDbLine
10
0.7
20
-35.027091
30
0
11
1.266539
21
-34.7
31
0
39
0
210
0
220
0
230
1
0
LINE
5
AD
100
AcDbEntity
8
1
62
256
6
ByLayer
370
18
48
1
60
0
100
AcDbLine
10
70
20
39.7
30
0
11
69.7
21
40
31
0
39
0
210
0
220
0
230
1
0
LINE
5
AE
100
AcDbEntity
8
1
62
256
6
ByLayer
370
18
48
1
60
0
100
AcDbLine
10
69.7
20
-40
30
0
11
70
21
-39.7
31
0
39
0
210
0
220
0
230
1
0
LINE
5
AF
100
AcDbEntity
8
1
62
256
6
ByLayer
370
18
48
1
60
0
100
AcDbLine
10
69.7
20
40
30
0
11
29.200613
21
40
31
0
39
0
210
0
220
0
230
1
0
LINE
5
B0
100
AcDbEntity
8
1
62
256
6
ByLayer
370
18
48
1
60
0
100
AcDbLine
10
29.200613
20
40
30
0
11
29.200403
21
40
31
0
39
0
210
0
220
0
230
1
0
LINE
5
B1
100
AcDbEntity
8
1
62
256
6
ByLayer
370
18
48
1
60
0
100
AcDbLine
10
29.200403
20
40
30
0
11
29.2
21
40
31
0
39
0
210
0
220
0
230
1
0
LINE
5
B2
100
AcDbEntity
8
1
62
256
6
ByLayer
370
18
48
1
60
0
100
AcDbLine
10
29.2
20
-40
30
0
11
29.200403
21
-40
31
0
39
0
210
0
220
0
230
1
0
LINE
5
B3
100
AcDbEntity
8
1
62
256
6
ByLayer
370
18
48
1
60
0
100
AcDbLine
10
29.200403
20
-40
30
0
11
29.200613
21
-40
31
0
39
0
210
0
220
0
230
1
0
LINE
5
B4
100
AcDbEntity
8
4
62
256
6
ByLayer
370
18
48
0.05
60
0
100
AcDbLine
10
0
20
0
30
0
11
70
21
0
31
0
39
0
210
0
220
0
230
1
0
LINE
5
B6
100
AcDbEntity
8
80
62
256
6
ByLayer
370
18
48
1
60
0
100
AcDbLine
10
0
20
0
30
0
11
-6.08897
21
0
31
0
39
0
210
0
220
0
230
1
0
LINE
5
B7
100
AcDbEntity
8
1
62
256
6
ByLayer
370
18
48
1
60
0
100
AcDbLine
10
29.200613
20
-40
30
0
11
69.7
21
-40
31
0
39
0
210
0
220
0
230
1
0
LINE
5
B8
100
AcDbEntity
8
81
62
256
6
ByLayer
370
18
48
1
60
0
100
AcDbLine
10
70
20
0
30
0
11
72.367097
21
0
31
0
39
0
210
0
220
0
230
1
0
LINE
5
B9
100
AcDbEntity
8
SK2
62
256
6
ByLayer
370
13
48
1
60
0
100
AcDbLine
10
-148.4
20
48.65
30
0
11
-148.4
21
-48.65
31
0
39
0
210
0
220
0
230
1
0
LINE
5
BB
100
AcDbEntity
8
SK2
62
256
6
ByLayer
370
13
48
1
60
0
100
AcDbLine
10
-1.5875
20
-48.65
30
0
11
-150.4
21
-48.65
31
0
39
0
210
0
220
0
230
1
0
LINE
5
BC
100
AcDbEntity
8
SK2
62
256
6
ByLayer
370
13
48
1
60
0
100
AcDbLine
10
-1.5875
20
48.65
30
0
11
-150.4
21
48.65
31
0
39
0
210
0
220
0
230
1
0
LINE
5
BD
100
AcDbEntity
8
1
62
256
6
ByLayer
370
18
48
1
60
1
100
AcDbLine
10
-148.4
20
-48.65
30
0
11
-148.860784
21
-45.150002
31
0
39
0
210
0
220
0
230
1
0
LINE
5
BE
100
AcDbEntity
8
1
62
256
6
ByLayer
370
18
48
1
60
1
100
AcDbLine
10
-148.860784
20
-45.150002
30
0
11
-147.939216
21
-45.149998
31
0
39
0
210
0
220
0
230
1
0
LINE
5
BF
100
AcDbEntity
8
1
62
256
6
ByLayer
370
18
48
1
60
1
100
AcDbLine
10
-147.939216
20
-45.149998
30
0
11
-148.4
21
-48.65
31
0
39
0
210
0
220
0
230
1
0
LINE
5
C0
100
AcDbEntity
8
1
62
256
6
ByLayer
370
18
48
1
60
1
100
AcDbLine
10
-148.4
20
48.65
30
0
11
-147.939216
21
45.150002
31
0
39
0
210
0
220
0
230
1
0
LINE
5
C1
100
AcDbEntity
8
1
62
256
6
ByLayer
370
18
48
1
60
1
100
AcDbLine
10
-147.939216
20
45.150002
30
0
11
-148.860784
21
45.149998
31
0
39
0
210
0
220
0
230
1
0
LINE
5
C2
100
AcDbEntity
8
1
62
256
6
ByLayer
370
18
48
1
60
1
100
AcDbLine
10
-148.860784
20
45.149998
30
0
11
-148.4
21
48.65
31
0
39
0
210
0
220
0
230
1
0
LINE
5
C3
100
AcDbEntity
8
SK2
62
256
6
ByLayer
370
13
48
1
60
0
100
AcDbLine
10
95.1
20
40
30
0
11
95.1
21
-40
31
0
39
0
210
0
220
0
230
1
0
LINE
5
C4
100
AcDbEntity
8
SK2
62
256
6
ByLayer
370
13
48
1
60
0
100
AcDbLine
10
71.5875
20
-40
30
0
11
97.1
21
-40
31
0
39
0
210
0
220
0
230
1
0
LINE
5
C5
100
AcDbEntity
8
SK2
62
256
6
ByLayer
370
13
48
1
60
0
100
AcDbLine
10
71.5875
20
40
30
0
11
97.1
21
40
31
0
39
0
210
0
220
0
230
1
0
LINE
5
C6
100
AcDbEntity
8
1
62
256
6
ByLayer
370
18
48
1
60
1
100
AcDbLine
10
95.1
20
-40
30
0
11
94.639216
21
-36.500002
31
0
39
0
210
0
220
0
230
1
0
LINE
5
C7
100
AcDbEntity
8
1
62
256
6
ByLayer
370
18
48
1
60
1
100
AcDbLine
10
94.639216
20
-36.500002
30
0
11
95.560784
21
-36.499998
31
0
39
0
210
0
220
0
230
1
0
LINE
5
C8
100
AcDbEntity
8
1
62
256
6
ByLayer
370
18
48
1
60
1
100
AcDbLine
10
95.560784
20
-36.499998
30
0
11
95.1
21
-40
31
0
39
0
210
0
220
0
230
1
0
LINE
5
C9
100
AcDbEntity
8
1
62
256
6
ByLayer
370
18
48
1
60
1
100
AcDbLine
10
95.1
20
40
30
0
11
95.560784
21
36.500002
31
0
39
0
210
0
220
0
230
1
0
LINE
5
CA
100
AcDbEntity
8
1
62
256
6
ByLayer
370
18
48
1
60
1
100
AcDbLine
10
95.560784
20
36.500002
30
0
11
94.639216
21
36.499998
31
0
39
0
210
0
220
0
230
1
0
LINE
5
CB
100
AcDbEntity
8
1
62
256
6
ByLayer
370
18
48
1
60
1
100
AcDbLine
10
94.639216
20
36.499998
30
0
11
95.1
21
40
31
0
39
0
210
0
220
0
230
1
0
LINE
5
E3
100
AcDbEntity
8
1
62
256
6
ByLayer
370
18
48
1
60
1
100
AcDbLine
10
-148.4
20
-48.65
30
0
11
-148.860784
21
-45.150002
31
0
39
0
210
0
220
0
230
1
0
LINE
5
E4
100
AcDbEntity
8
1
62
256
6
ByLayer
370
18
48
1
60
1
100
AcDbLine
10
-148.860784
20
-45.150002
30
0
11
-147.939216
21
-45.149998
31
0
39
0
210
0
220
0
230
1
0
LINE
5
E5
100
AcDbEntity
8
1
62
256
6
ByLayer
370
18
48
1
60
1
100
AcDbLine
10
-147.939216
20
-45.149998
30
0
11
-148.4
21
-48.65
31
0
39
0
210
0
220
0
230
1
0
LINE
5
E7
100
AcDbEntity
8
1
62
256
6
ByLayer
370
18
48
1
60
1
100
AcDbLine
10
-148.4
20
48.65
30
0
11
-147.939216
21
45.150002
31
0
39
0
210
0
220
0
230
1
0
LINE
5
E8
100
AcDbEntity
8
1
62
256
6
ByLayer
370
18
48
1
60
1
100
AcDbLine
10
-147.939216
20
45.150002
30
0
11
-148.860784
21
45.149998
31
0
39
0
210
0
220
0
230
1
0
LINE
5
E9
100
AcDbEntity
8
1
62
256
6
ByLayer
370
18
48
1
60
1
100
AcDbLine
10
-148.860784
20
45.149998
30
0
11
-148.4
21
48.65
31
0
39
0
210
0
220
0
230
1
0
LINE
5
ED
100
AcDbEntity
8
1
62
256
6
ByLayer
370
18
48
1
60
1
100
AcDbLine
10
95.1
20
-40
30
0
11
94.639216
21
-36.500002
31
0
39
0
210
0
220
0
230
1
0
LINE
5
EE
100
AcDbEntity
8
1
62
256
6
ByLayer
370
18
48
1
60
1
100
AcDbLine
10
94.639216
20
-36.500002
30
0
11
95.560784
21
-36.499998
31
0
39
0
210
0
220
0
230
1
0
LINE
5
EF
100
AcDbEntity
8
1
62
256
6
ByLayer
370
18
48
1
60
1
100
AcDbLine
10
95.560784
20
-36.499998
30
0
11
95.1
21
-40
31
0
39
0
210
0
220
0
230
1
0
LINE
5
F1
100
AcDbEntity
8
1
62
256
6
ByLayer
370
18
48
1
60
1
100
AcDbLine
10
95.1
20
40
30
0
11
95.560784
21
36.500002
31
0
39
0
210
0
220
0
230
1
0
LINE
5
F2
100
AcDbEntity
8
1
62
256
6
ByLayer
370
18
48
1
60
1
100
AcDbLine
10
95.560784
20
36.500002
30
0
11
94.639216
21
36.499998
31
0
39
0
210
0
220
0
230
1
0
LINE
5
F3
100
AcDbEntity
8
1
62
256
6
ByLayer
370
18
48
1
60
1
100
AcDbLine
10
94.639216
20
36.499998
30
0
11
95.1
21
40
31
0
39
0
210
0
220
0
230
1
0
MTEXT
5
DF
100
AcDbEntity
8
SK2
62
256
6
ByLayer
370
18
48
1
60
0
100
AcDbMText
10
-149.964634
20
-5.579154
30
0
210
0
220
0
230
1
1
%%c
40
3.5
41
0
44
1.084337
50
90
71
7
72
5
7
iso_b_vert
0
MTEXT
5
E2
100
AcDbEntity
8
SK2
62
256
6
ByLayer
370
18
48
1
60
0
100
AcDbMText
10
-149.964634
20
-0.356497
30
0
210
0
220
0
230
1
1
\W0.7150;97,3
40
3.5
41
0
44
1.084337
50
90
71
7
72
5
7
iso_b_vert
0
MTEXT
5
EB
100
AcDbEntity
8
SK2
62
256
6
ByLayer
370
18
48
1
60
0
100
AcDbMText
10
93.535366
20
-3.655088
30
0
210
0
220
0
230
1
1
%%c
40
3.5
41
0
44
1.084337
50
90
71
7
72
5
7
iso_b_vert
0
MTEXT
5
EC
100
AcDbEntity
8
SK2
62
256
6
ByLayer
370
18
48
1
60
0
100
AcDbMText
10
93.535366
20
1.567568
30
0
210
0
220
0
230
1
1
\W0.6740;80
40
3.5
41
0
44
1.084337
50
90
71
7
72
5
7
iso_b_vert
0
MTEXT
5
F5
100
AcDbEntity
8
SK6
62
256
6
ByLayer
370
18
48
1
60
0
100
AcDbMText
10
0.1855
20
-64.367366
30
0
210
0
220
0
230
1
1
\W0.7394;C8-390.00-50070
40
3.5
41
0
44
1.084337
50
0
71
7
72
5
7
iso_b_vert
0
HATCH
5
E6
100
AcDbEntity
8
SK2
62
256
6
ByLayer
370
13
48
1
60
0
100
AcDbHatch
10
0
20
0
30
0
210
0
220
0
230
1
2
ANSI31
70
0
71
0
91
1
92
5
93
3
72
1
10
-148.4
20
-48.65
11
-148.860783741553
21
-45.1500016925532
72
1
10
-148.860783741553
20
-45.1500016925532
11
-147.939216258447
21
-45.1499983074468
72
1
10
-147.939216258447
20
-45.1499983074468
11
-148.4
21
-48.65
97
0
75
0
76
1
52
0
41
0.0062
77
0
78
1
53
45
43
0
44
0
45
-0.0139193969876572
46
0.0139193969876572
79
0
47
0
98
1
10
0
20
0
0
HATCH
5
EA
100
AcDbEntity
8
SK2
62
256
6
ByLayer
370
13
48
1
60
0
100
AcDbHatch
10
0
20
0
30
0
210
0
220
0
230
1
2
ANSI31
70
0
71
0
91
1
92
5
93
3
72
1
10
-148.4
20
48.65
11
-147.939216258447
21
45.1500016925532
72
1
10
-147.939216258447
20
45.1500016925532
11
-148.860783741553
21
45.1499983074468
72
1
10
-148.860783741553
20
45.1499983074468
11
-148.4
21
48.65
97
0
75
0
76
1
52
0
41
0.0062
77
0
78
1
53
45
43
0
44
0
45
-0.0139193969876572
46
0.0139193969876572
79
0
47
0
98
1
10
0
20
0
0
HATCH
5
F0
100
AcDbEntity
8
SK2
62
256
6
ByLayer
370
13
48
1
60
0
100
AcDbHatch
10
0
20
0
30
0
210
0
220
0
230
1
2
ANSI31
70
0
71
0
91
1
92
5
93
3
72
1
10
95.1
20
-40
11
94.6392162584472
21
-36.5000016925532
72
1
10
94.6392162584472
20
-36.5000016925532
11
95.5607837415528
21
-36.4999983074468
72
1
10
95.5607837415528
20
-36.4999983074468
11
95.1
21
-40
97
0
75
0
76
1
52
0
41
0.0062
77
0
78
1
53
45
43
0
44
0
45
-0.0139193969876572
46
0.0139193969876572
79
0
47
0
98
1
10
0
20
0
0
HATCH
5
F4
100
AcDbEntity
8
SK2
62
256
6
ByLayer
370
13
48
1
60
0
100
AcDbHatch
10
0
20
0
30
0
210
0
220
0
230
1
2
ANSI31
70
0
71
0
91
1
92
5
93
3
72
1
10
95.1
20
40
11
95.5607837415528
21
36.5000016925532
72
1
10
95.5607837415528
20
36.5000016925532
11
94.6392162584472
21
36.4999983074468
72
1
10
94.6392162584472
20
36.4999983074468
11
95.1
21
40
97
0
75
0
76
1
52
0
41
0.0062
77
0
78
1
53
45
43
0
44
0
45
-0.0139193969876572
46
0.0139193969876572
79
0
47
0
98
1
10
0
20
0
0
DIMENSION
5
F8
100
AcDbEntity
8
SK2
62
256
6
ByLayer
370
18
48
1
60
0
100
AcDbDimension
2
_U0
10
15.2
20
63.570148
30
0
11
7.6
21
63.570148
31
0
70
32
71
1
72
1
41
1
210
0
220
0
230
1
3
Standard
100
AcDbAlignedDimension
13
0
23
48.65
33
0
14
15.2
24
48.65
34
0
50
0
100
AcDbRotatedDimension
1001
ACAD
1000
DSTYLE
1002
{
1070
   371
1070
    13
1070
   372
1070
    13
1070
   170
1070
     0
1070
   144
1040
1.0
1070
   277
1070
     2
1070
   284
1070
     8
1070
   278
1070
    44
1070
   146
1040
1.0
1070
   345
1005
16
1070
   347
1005
16
1070
   346
1005
16
1070
   344
1005
0
1070
   343
1005
0
1070
   172
1070
     1
1070
    76
1070
     0
1070
    75
1070
     0
1070
   282
1070
     0
1070
   281
1070
     0
1070
    71
1070
     0
1070
    74
1070
     0
1070
   279
1070
     0
1070
   173
1070
     1
1070
   340
1005
E0
1070
   271
1070
     1
1070
   272
1070
     2
1070
    77
1070
     1
1070
    73
1070
     1
1070
   171
1070
     3
1070
   274
1070
     4
1070
   177
1070
     2
1070
   176
1070
     2
1070
   178
1070
     2
1070
    78
1070
     8
1070
    48
1040
-0.1
1070
    41
1040
3.5
1070
   147
1040
1.75
1070
    42
1040
1.5875
1070
    44
1040
2.0
1070
   140
1040
3.5
1002
}
1001
ACAD_DSTYLE_DIM_LINETYPE
1070
   380
1005
16
1001
ACAD_DSTYLE_DIM_EXT1_LINETYPE
1070
   381
1005
16
1001
ACAD_DSTYLE_DIM_EXT2_LINETYPE
1070
   382
1005
16
0
DIMENSION
5
112
100
AcDbEntity
8
2
62
256
6
ByLayer
370
18
48
1
60
0
100
AcDbDimension
2
_U1
10
0
20
73.570148
30
0
11
35
21
73.570148
31
0
70
32
71
1
72
1
41
1
210
0
220
0
230
1
3
Standard
100
AcDbAlignedDimension
13
70
23
40
33
0
14
0
24
48.65
34
0
50
0
100
AcDbRotatedDimension
1001
ACAD
1000
DSTYLE
1002
{
1070
   371
1070
    13
1070
   372
1070
    13
1070
   170
1070
     0
1070
   144
1040
1.0
1070
   277
1070
     2
1070
   284
1070
     8
1070
   278
1070
    44
1070
   146
1040
1.0
1070
   345
1005
16
1070
   347
1005
16
1070
   346
1005
16
1070
   344
1005
0
1070
   343
1005
0
1070
   172
1070
     1
1070
    76
1070
     0
1070
    75
1070
     0
1070
   282
1070
     0
1070
   281
1070
     0
1070
    71
1070
     0
1070
    74
1070
     0
1070
   279
1070
     0
1070
   173
1070
     1
1070
   340
1005
E0
1070
   271
1070
     1
1070
   272
1070
     2
1070
    77
1070
     1
1070
    73
1070
     1
1070
   171
1070
     3
1070
   274
1070
     4
1070
   177
1070
     2
1070
   176
1070
     2
1070
   178
1070
     2
1070
    78
1070
     8
1070
    48
1040
-0.1
1070
    41
1040
3.5
1070
   147
1040
1.75
1070
    42
1040
1.5875
1070
    44
1040
2.0
1070
   140
1040
3.5
1002
}
1001
ACAD_DSTYLE_DIM_LINETYPE
1070
   380
1005
16
1001
ACAD_DSTYLE_DIM_EXT1_LINETYPE
1070
   381
1005
16
1001
ACAD_DSTYLE_DIM_EXT2_LINETYPE
1070
   382
1005
16
0
DIMENSION
5
12B
100
AcDbEntity
8
SK2
62
256
6
ByLayer
370
18
48
1
60
0
100
AcDbDimension
2
_U2
10
0
20
73.570148
30
0
11
-63.4
21
73.570148
31
0
70
32
71
1
72
1
41
1
210
0
220
0
230
1
3
Standard
100
AcDbAlignedDimension
13
-126.8
23
12.5
33
0
14
0
24
48.65
34
0
50
0
100
AcDbRotatedDimension
1001
ACAD
1000
DSTYLE
1002
{
1070
   371
1070
    13
1070
   372
1070
    13
1070
   170
1070
     0
1070
   144
1040
1.0
1070
   277
1070
     2
1070
   284
1070
     8
1070
   278
1070
    44
1070
   146
1040
1.0
1070
   345
1005
16
1070
   347
1005
16
1070
   346
1005
16
1070
   344
1005
0
1070
   343
1005
0
1070
   172
1070
     1
1070
    76
1070
     0
1070
    75
1070
     0
1070
   282
1070
     0
1070
   281
1070
     0
1070
    71
1070
     0
1070
    74
1070
     0
1070
   279
1070
     0
1070
   173
1070
     1
1070
   340
1005
E0
1070
   271
1070
     1
1070
   272
1070
     2
1070
    77
1070
     1
1070
    73
1070
     1
1070
   171
1070
     3
1070
   274
1070
     4
1070
   177
1070
     2
1070
   176
1070
     2
1070
   178
1070
     2
1070
    78
1070
     8
1070
    48
1040
-0.1
1070
    41
1040
3.5
1070
   147
1040
1.75
1070
    42
1040
1.5875
1070
    44
1040
2.0
1070
   140
1040
3.5
1002
}
1001
ACAD_DSTYLE_DIM_LINETYPE
1070
   380
1005
16
1001
ACAD_DSTYLE_DIM_EXT1_LINETYPE
1070
   381
1005
16
1001
ACAD_DSTYLE_DIM_EXT2_LINETYPE
1070
   382
1005
16
0
ENDSEC
0
SECTION
2
OBJECTS
0
DICTIONARY
5
1b3
330
0
100
AcDbDictionary
280
0
281
1
3
ACAD_GROUP
350
1b4
3
ACAD_MLINESTYLE
350
1b5
0
DICTIONARY
5
1b4
330
0
100
AcDbDictionary
280
0
281
1
0
DICTIONARY
5
1b5
330
0
100
AcDbDictionary
280
0
281
1
3
Standard
350
18
0
MLINESTYLE
5
18
330
1b5
100
AcDbMlineStyle
2
Standard
70
0
3

62
256
51
90
52
90
71
2
49
-0.5
62
256
6
ByLayer
49
0.5
62
256
6
ByLayer
0
RASTERVARIABLES
5
1a1
330

100
AcDbRasterVariables
90
0
70
1
71
1
72
1
0
ENDSEC
0
EOF
