0
SECTION
2
HEADER
9
$ACADVER
1
AC1015
9
$DWGCODEPAGE
3
ANSI_1252
9
$HANDSEED
5
365
9
$ANGBASE
50
0
9
$ANGDIR
70
0
9
$ATTMODE
70
1
9
$AUNITS
70
0
9
$AUPREC
70
0
9
$CECOLOR
62
256
9
$CELTSCALE
40
1
9
$CELTYPE
6
ByLayer
9
$CELWEIGHT
370
-1
9
$CLAYER
8
0
9
$CMLJUST
70
0
9
$CMLSCALE
40
1
9
$CMLSTYLE
2
Standard
9
$DIMSTYLE
2
Standard
9
$TEXTSIZE
40
0.2
9
$TEXTSTYLE
7
Standard
9
$LUNITS
70
2
9
$LUPREC
70
4
9
$EXTNAMES
290
1
9
$INSUNITS
70
4
9
$LTSCALE
40
1
9
$LWDISPLAY
290
0
9
$PDMODE
70
0
9
$PDSIZE
40
0
9
$PLINEGEN
70
0
0
ENDSEC
0
SECTION
2
CLASSES
0
CLASS
1
RASTERVARIABLES
2
AcDbRasterVariables
3
ISM
90
0
280
0
281
0
0
ENDSEC
0
SECTION
2
TABLES
0
TABLE
2
VPORT
5
35b
100
AcDbSymbolTable
0
VPORT
5
1
100
AcDbSymbolTableRecord
100
AcDbViewportTableRecord
2
*Active
70
0
10
0
20
0
11
1
21
1
12
-1
22
1
13
0
23
0
14
0.5
24
0.5
15
10
25
10
16
0
26
0
36
1
17
0
27
0
37
0
0
ENDTAB
0
TABLE
2
LTYPE
5
35c
100
AcDbSymbolTable
0
LTYPE
5
14
100
AcDbSymbolTableRecord
100
AcDbLinetypeTableRecord
70
0
2
ByBlock
3

72
65
73
0
40
0
0
LTYPE
5
15
100
AcDbSymbolTableRecord
100
AcDbLinetypeTableRecord
70
0
2
ByLayer
3

72
65
73
0
40
0
0
LTYPE
5
16
100
AcDbSymbolTableRecord
100
AcDbLinetypeTableRecord
70
0
2
CONTINUOUS
3
Solid line
72
65
73
0
40
0
0
LTYPE
5
3B
100
AcDbSymbolTableRecord
100
AcDbLinetypeTableRecord
70
0
2
DASHED
3
__ __ __ __ __ __ __ __ __
72
65
73
2
40
25.72
49
12.86
74
0
49
-12.86
74
0
0
LTYPE
5
3C
100
AcDbSymbolTableRecord
100
AcDbLinetypeTableRecord
70
0
2
HIDDEN
3
_ _ _ _ _ _ _ _ _ _ _ _ _ _ _
72
65
73
2
40
0.5
49
0.25
74
0
49
-0.25
74
0
0
LTYPE
5
3D
100
AcDbSymbolTableRecord
100
AcDbLinetypeTableRecord
70
0
2
PHANTOM
3
____ _ _ ____ _ _ _____ _ _ ____
72
65
73
6
40
50.5
49
18
74
0
49
-6.5
74
0
49
6.5
74
0
49
-6.5
74
0
49
6.5
74
0
49
-6.5
74
0
0
LTYPE
5
3E
100
AcDbSymbolTableRecord
100
AcDbLinetypeTableRecord
70
0
2
CENTER
3
____ _ ____ _ ____ _ ____
72
65
73
4
40
47.5
49
22
74
0
49
-8.5
74
0
49
8.5
74
0
49
-8.5
74
0
0
LTYPE
5
3F
100
AcDbSymbolTableRecord
100
AcDbLinetypeTableRecord
70
0
2
DOT
3
.........................
72
65
73
2
40
10
49
0
74
0
49
-10
74
0
0
LTYPE
5
40
100
AcDbSymbolTableRecord
100
AcDbLinetypeTableRecord
70
0
2
DASHDOT
3
_._._._._._._._._._._._._._._._.
72
65
73
4
40
70
49
31
74
0
49
-13
74
0
49
13
74
0
49
-13
74
0
0
ENDTAB
0
TABLE
2
LAYER
5
35d
100
AcDbSymbolTable
0
LAYER
5
10
100
AcDbSymbolTableRecord
100
AcDbLayerTableRecord
2
0
70
0
62
7
6
CONTINUOUS
290
1
370
-3
390
0
0
LAYER
5
42
100
AcDbSymbolTableRecord
100
AcDbLayerTableRecord
2
2
70
0
62
7
6
CONTINUOUS
290
1
370
-3
390
0
0
LAYER
5
45
100
AcDbSymbolTableRecord
100
AcDbLayerTableRecord
2
80
70
0
62
-6
6
CONTINUOUS
290
1
370
-3
390
0
0
LAYER
5
47
100
AcDbSymbolTableRecord
100
AcDbLayerTableRecord
2
81
70
0
62
-3
6
CONTINUOUS
290
1
370
-3
390
0
0
LAYER
5
4B
100
AcDbSymbolTableRecord
100
AcDbLayerTableRecord
2
4
70
0
62
-2
6
CENTER
290
1
370
-3
390
0
0
LAYER
5
50
100
AcDbSymbolTableRecord
100
AcDbLayerTableRecord
2
1
70
0
62
4
6
CONTINUOUS
290
1
370
-3
390
0
0
LAYER
5
347
100
AcDbSymbolTableRecord
100
AcDbLayerTableRecord
2
SK4
70
0
62
2
6
CENTER
290
1
370
-3
390
0
0
LAYER
5
348
100
AcDbSymbolTableRecord
100
AcDbLayerTableRecord
2
SK1
70
0
62
4
6
CONTINUOUS
290
1
370
-3
390
0
0
LAYER
5
349
100
AcDbSymbolTableRecord
100
AcDbLayerTableRecord
2
SK6
70
0
62
5
6
CONTINUOUS
290
1
370
-3
390
0
0
LAYER
5
34a
100
AcDbSymbolTableRecord
100
AcDbLayerTableRecord
2
SK2
70
0
62
7
6
CONTINUOUS
290
1
370
-3
390
0
0
ENDTAB
0
TABLE
2
STYLE
5
35e
100
AcDbSymbolTable
0
STYLE
5
11
100
AcDbSymbolTableRecord
100
AcDbTextStyleTableRecord
2
Standard
3
txt
70
0
71
0
40
0
41
1
42
0
50
0
0
STYLE
5
2D1
100
AcDbSymbolTableRecord
100
AcDbTextStyleTableRecord
2
DEFAULT
3
simplex.shx
70
0
71
0
40
0
41
1
42
0
50
0
0
STYLE
5
2F4
100
AcDbSymbolTableRecord
100
AcDbTextStyleTableRecord
2
DWGDirectTextStyle
3
SIMPLEX
70
0
71
0
40
0
41
1
42
0
50
0
0
ENDTAB
0
TABLE
2
DIMSTYLE
5
35f
100
AcDbSymbolTable
100
AcDbDimStyleTable
0
DIMSTYLE
105
27
100
AcDbSymbolTableRecord
100
AcDbDimStyleTableRecord
2
Standard
70
0
3
<>
41
0.18
42
0.0625
44
0.18
140
0.18
147
0.09
73
0
74
0
77
1
271
2
275
0
278
52
280
0
340
11
0
ENDTAB
0
TABLE
2
VIEW
5
360
100
AcDbSymbolTable
0
ENDTAB
0
TABLE
2
UCS
5
361
100
AcDbSymbolTable
0
ENDTAB
0
TABLE
2
APPID
5
362
100
AcDbSymbolTable
0
APPID
5
12
100
AcDbSymbolTableRecord
100
AcDbRegAppTableRecord
2
ACAD
70
0
0
ENDTAB
0
TABLE
2
BLOCK_RECORD
5
363
100
AcDbSymbolTable
0
BLOCK_RECORD
5
1F
100
AcDbSymbolTableRecord
100
AcDbBlockTableRecord
2
*Model_Space
340
0
70
0
0
BLOCK_RECORD
5
1B
100
AcDbSymbolTableRecord
100
AcDbBlockTableRecord
2
*Paper_Space
340
0
70
0
0
BLOCK_RECORD
5
23
100
AcDbSymbolTableRecord
100
AcDbBlockTableRecord
2
*Paper_Space0
340
0
70
0
0
BLOCK_RECORD
5
2F6
100
AcDbSymbolTableRecord
100
AcDbBlockTableRecord
2
DimnDraft3D1
340
0
70
0
0
BLOCK_RECORD
5
304
100
AcDbSymbolTableRecord
100
AcDbBlockTableRecord
2
_CLOSED
340
0
70
0
0
BLOCK_RECORD
5
30B
100
AcDbSymbolTableRecord
100
AcDbBlockTableRecord
2
DimnDraft3D2
340
0
70
0
0
BLOCK_RECORD
5
31A
100
AcDbSymbolTableRecord
100
AcDbBlockTableRecord
2
DimnDraft3D3
340
0
70
0
0
ENDTAB
0
ENDSEC
0
SECTION
2
BLOCKS
0
BLOCK
5
20
100
AcDbEntity
8
0
100
AcDbBlockBegin
2
*Model_Space
70
0
10
0
20
0
30
0
3
*Model_Space
0
ENDBLK
5
21
100
AcDbEntity
8
0
100
AcDbBlockEnd
0
BLOCK
5
1C
100
AcDbEntity
8
0
100
AcDbBlockBegin
2
*Paper_Space
70
0
10
0
20
0
30
0
3
*Paper_Space
0
ENDBLK
5
1D
100
AcDbEntity
8
0
100
AcDbBlockEnd
0
BLOCK
5
24
100
AcDbEntity
8
0
100
AcDbBlockBegin
2
*Paper_Space0
70
0
10
0
20
0
30
0
3
*Paper_Space0
0
ENDBLK
5
25
100
AcDbEntity
8
0
100
AcDbBlockEnd
0
BLOCK
5
301
100
AcDbEntity
8
0
100
AcDbBlockBegin
2
DimnDraft3D1
70
0
10
0
20
0
30
0
3
DimnDraft3D1
0
MTEXT
5
2F7
100
AcDbEntity
8
2
62
256
6
ByLayer
370
-1
48
1
60
0
100
AcDbMText
10
38.496053
20
-78.125
30
0
210
0
220
0
230
1
1
\W01.000;\fsimplex.shx,bigfont.shx;80 
40
4.5
41
0
44
1.084337
50
0
71
7
72
5
7
DEFAULT
0
LINE
5
2F8
100
AcDbEntity
8
2
62
256
6
ByLayer
370
-1
48
1
60
0
100
AcDbLine
10
80
20
-56.5
30
0
11
80
21
-82.25
31
0
39
0
210
0
220
0
230
1
0
LINE
5
2F9
100
AcDbEntity
8
2
62
256
6
ByLayer
370
-1
48
1
60
0
100
AcDbLine
10
0
20
-1.501
30
0
11
0
21
-82.25
31
0
39
0
210
0
220
0
230
1
0
LINE
5
2FA
100
AcDbEntity
8
2
62
256
6
ByLayer
370
-1
48
1
60
0
100
AcDbLine
10
80
20
-79.25
30
0
11
0
21
-79.25
31
0
39
0
210
0
220
0
230
1
0
LINE
5
2FB
100
AcDbEntity
8
2
62
256
6
ByLayer
370
-1
48
1
60
0
100
AcDbLine
10
80
20
-79.25
30
0
11
77.000001
21
-79.644957
31
0
39
0
210
0
220
0
230
1
0
LINE
5
2FC
100
AcDbEntity
8
2
62
256
6
ByLayer
370
-1
48
1
60
0
100
AcDbLine
10
80
20
-79.25
30
0
11
76.999999
21
-78.855043
31
0
39
0
210
0
220
0
230
1
0
LINE
5
2FD
100
AcDbEntity
8
2
62
256
6
ByLayer
370
-1
48
1
60
0
100
AcDbLine
10
77.000001
20
-79.644957
30
0
11
76.999999
21
-78.855043
31
0
39
0
210
0
220
0
230
1
0
LINE
5
2FE
100
AcDbEntity
8
2
62
256
6
ByLayer
370
-1
48
1
60
0
100
AcDbLine
10
0
20
-79.25
30
0
11
2.999999
21
-78.855043
31
0
39
0
210
0
220
0
230
1
0
LINE
5
2FF
100
AcDbEntity
8
2
62
256
6
ByLayer
370
-1
48
1
60
0
100
AcDbLine
10
0
20
-79.25
30
0
11
3.000001
21
-79.644957
31
0
39
0
210
0
220
0
230
1
0
LINE
5
300
100
AcDbEntity
8
2
62
256
6
ByLayer
370
-1
48
1
60
0
100
AcDbLine
10
2.999999
20
-78.855043
30
0
11
3.000001
21
-79.644957
31
0
39
0
210
0
220
0
230
1
0
ENDBLK
5
302
100
AcDbEntity
8
0
100
AcDbBlockEnd
0
BLOCK
5
305
100
AcDbEntity
8
0
100
AcDbBlockBegin
2
_CLOSED
70
0
10
0
20
0
30
0
3
_CLOSED
0
LINE
5
307
100
AcDbEntity
8
0
62
256
6
ByLayer
370
-2
48
1
60
0
100
AcDbLine
10
-1
20
0.166667
30
0
11
0
21
0
31
0
39
0
210
0
220
0
230
1
0
LINE
5
308
100
AcDbEntity
8
0
62
256
6
ByLayer
370
-2
48
1
60
0
100
AcDbLine
10
0
20
0
30
0
11
-1
21
-0.166667
31
0
39
0
210
0
220
0
230
1
0
LINE
5
309
100
AcDbEntity
8
0
62
256
6
ByLayer
370
-2
48
1
60
0
100
AcDbLine
10
-1
20
0.166667
30
0
11
-1
21
-0.166667
31
0
39
0
210
0
220
0
230
1
0
LINE
5
30A
100
AcDbEntity
8
0
62
256
6
ByLayer
370
-2
48
1
60
0
100
AcDbLine
10
0
20
0
30
0
11
-1
21
0
31
0
39
0
210
0
220
0
230
1
0
ENDBLK
5
306
100
AcDbEntity
8
0
100
AcDbBlockEnd
0
BLOCK
5
317
100
AcDbEntity
8
0
100
AcDbBlockBegin
2
DimnDraft3D2
70
0
10
0
20
0
30
0
3
DimnDraft3D2
0
MTEXT
5
30C
100
AcDbEntity
8
SK2
62
256
6
ByLayer
370
-1
48
1
60
0
100
AcDbMText
10
-58.875
20
-3.659211
30
0
210
0
220
0
230
1
1
\W01.000;\fsimplex.shx,bigfont.shx;%%c80 
40
4.5
41
0
44
1.084337
50
90
71
7
72
5
7
DEFAULT
0
LINE
5
30E
100
AcDbEntity
8
SK2
62
256
6
ByLayer
370
-1
48
1
60
0
100
AcDbLine
10
-1.5
20
40
30
0
11
-60.75
21
40
31
0
39
0
210
0
220
0
230
1
0
LINE
5
30F
100
AcDbEntity
8
SK2
62
256
6
ByLayer
370
-1
48
1
60
0
100
AcDbLine
10
-1.5
20
-40
30
0
11
-60.75
21
-40
31
0
39
0
210
0
220
0
230
1
0
LINE
5
310
100
AcDbEntity
8
SK2
62
256
6
ByLayer
370
-1
48
1
60
0
100
AcDbLine
10
-57.75
20
40
30
0
11
-57.75
21
-40
31
0
39
0
210
0
220
0
230
1
0
LINE
5
311
100
AcDbEntity
8
SK2
62
256
6
ByLayer
370
-1
48
1
60
0
100
AcDbLine
10
-57.75
20
40
30
0
11
-57.355043
21
37.000001
31
0
39
0
210
0
220
0
230
1
0
LINE
5
312
100
AcDbEntity
8
SK2
62
256
6
ByLayer
370
-1
48
1
60
0
100
AcDbLine
10
-57.75
20
40
30
0
11
-58.144957
21
36.999999
31
0
39
0
210
0
220
0
230
1
0
LINE
5
313
100
AcDbEntity
8
SK2
62
256
6
ByLayer
370
-1
48
1
60
0
100
AcDbLine
10
-57.355043
20
37.000001
30
0
11
-58.144957
21
36.999999
31
0
39
0
210
0
220
0
230
1
0
LINE
5
314
100
AcDbEntity
8
SK2
62
256
6
ByLayer
370
-1
48
1
60
0
100
AcDbLine
10
-57.75
20
-40
30
0
11
-58.144957
21
-37.000001
31
0
39
0
210
0
220
0
230
1
0
LINE
5
315
100
AcDbEntity
8
SK2
62
256
6
ByLayer
370
-1
48
1
60
0
100
AcDbLine
10
-57.75
20
-40
30
0
11
-57.355043
21
-36.999999
31
0
39
0
210
0
220
0
230
1
0
LINE
5
316
100
AcDbEntity
8
SK2
62
256
6
ByLayer
370
-1
48
1
60
0
100
AcDbLine
10
-58.144957
20
-37.000001
30
0
11
-57.355043
21
-36.999999
31
0
39
0
210
0
220
0
230
1
0
ENDBLK
5
318
100
AcDbEntity
8
0
100
AcDbBlockEnd
0
BLOCK
5
325
100
AcDbEntity
8
0
100
AcDbBlockBegin
2
DimnDraft3D3
70
0
10
0
20
0
30
0
3
DimnDraft3D3
0
MTEXT
5
31B
100
AcDbEntity
8
2
62
256
6
ByLayer
370
-1
48
1
60
0
100
AcDbMText
10
93.125
20
-29.003947
30
0
210
0
220
0
230
1
1
\W01.000;\fsimplex.shx,bigfont.shx;55 
40
4.5
41
0
44
1.084337
50
90
71
7
72
5
7
DEFAULT
0
LINE
5
31C
100
AcDbEntity
8
2
62
256
6
ByLayer
370
-1
48
1
60
0
100
AcDbLine
10
86.5
20
0
30
0
11
97.25
21
0
31
0
39
0
210
0
220
0
230
1
0
LINE
5
31D
100
AcDbEntity
8
2
62
256
6
ByLayer
370
-1
48
1
60
0
100
AcDbLine
10
81.5
20
-55
30
0
11
97.25
21
-55
31
0
39
0
210
0
220
0
230
1
0
LINE
5
31E
100
AcDbEntity
8
2
62
256
6
ByLayer
370
-1
48
1
60
0
100
AcDbLine
10
94.25
20
0
30
0
11
94.25
21
-55
31
0
39
0
210
0
220
0
230
1
0
LINE
5
31F
100
AcDbEntity
8
2
62
256
6
ByLayer
370
-1
48
1
60
0
100
AcDbLine
10
94.25
20
0
30
0
11
94.644957
21
-2.999999
31
0
39
0
210
0
220
0
230
1
0
LINE
5
320
100
AcDbEntity
8
2
62
256
6
ByLayer
370
-1
48
1
60
0
100
AcDbLine
10
94.25
20
0
30
0
11
93.855043
21
-3.000001
31
0
39
0
210
0
220
0
230
1
0
LINE
5
321
100
AcDbEntity
8
2
62
256
6
ByLayer
370
-1
48
1
60
0
100
AcDbLine
10
94.644957
20
-2.999999
30
0
11
93.855043
21
-3.000001
31
0
39
0
210
0
220
0
230
1
0
LINE
5
322
100
AcDbEntity
8
2
62
256
6
ByLayer
370
-1
48
1
60
0
100
AcDbLine
10
94.25
20
-55
30
0
11
93.855043
21
-52.000001
31
0
39
0
210
0
220
0
230
1
0
LINE
5
323
100
AcDbEntity
8
2
62
256
6
ByLayer
370
-1
48
1
60
0
100
AcDbLine
10
94.25
20
-55
30
0
11
94.644957
21
-51.999999
31
0
39
0
210
0
220
0
230
1
0
LINE
5
324
100
AcDbEntity
8
2
62
256
6
ByLayer
370
-1
48
1
60
0
100
AcDbLine
10
93.855043
20
-52.000001
30
0
11
94.644957
21
-51.999999
31
0
39
0
210
0
220
0
230
1
0
ENDBLK
5
326
100
AcDbEntity
8
0
100
AcDbBlockEnd
0
ENDSEC
0
SECTION
2
ENTITIES
0
ARC
5
183
100
AcDbEntity
8
SK1
62
256
6
ByLayer
370
-1
48
1
60
0
100
AcDbCircle
39
0
10
0.6
20
-29.6
30
0
40
1.00000000000001
210
0
220
0
230
-1
100
AcDbArc
50
113.578178
51
126.869898
0
ARC
5
184
100
AcDbEntity
8
SK1
62
256
6
ByLayer
370
-1
48
1
60
0
100
AcDbCircle
39
0
10
0.6
20
29.6
30
0
40
1.00000000000001
210
0
220
0
230
-1
100
AcDbArc
50
233.130102
51
246.421822
0
ARC
5
185
100
AcDbEntity
8
1
62
256
6
ByLayer
370
-1
48
1
60
0
100
AcDbCircle
39
0
10
13.928617
20
-1.539091
30
0
40
5
210
0
220
0
230
1
100
AcDbArc
50
10
51
24.423273
0
ELLIPSE
5
186
100
AcDbEntity
8
1
62
256
6
ByLayer
370
-1
48
1
60
0
100
AcDbEllipse
10
70.213188
20
-41.914806
30
0
11
-0.162543294864796
21
-1.64197432297052
31
0
210
0
220
0
230
1
40
0.984662
41
1.40827845746471
42
2.74090299469914
0
ELLIPSE
5
187
100
AcDbEntity
8
1
62
256
6
ByLayer
370
-1
48
1
60
0
100
AcDbEllipse
10
70.894924
20
-43.208106
30
0
11
-0.197022175593691
21
-1.99027190663093
31
0
210
0
220
0
230
1
40
0.984662
41
1.81584635951607
42
2.4709246640997
0
ELLIPSE
5
188
100
AcDbEntity
8
1
62
256
6
ByLayer
370
-1
48
1
60
0
100
AcDbEllipse
10
-6.763884
20
0
30
0
11
-18.7348357595639
21
-39.4834983055004
31
0
210
0
220
0
230
1
40
0.341999
41
2.0536458864205
42
2.98049364836085
0
ELLIPSE
5
189
100
AcDbEntity
8
1
62
256
6
ByLayer
370
-1
48
1
60
0
100
AcDbEllipse
10
73.170009
20
-42.207551
30
0
11
-6.17415141584164
21
2.1779926281244
31
0
210
0
220
0
230
1
40
0.084929
41
-1.38621884982032
42
-1.37127663827548
0
ELLIPSE
5
18A
100
AcDbEntity
8
1
62
256
6
ByLayer
370
-1
48
1
60
0
100
AcDbEllipse
10
71.474555
20
-42.039673
30
0
11
0.1625432948648
21
1.64197432297052
31
0
210
0
220
0
230
1
40
0.984662
41
-1.46466002425768
42
1.54406122909901
0
ELLIPSE
5
18B
100
AcDbEntity
8
1
62
256
6
ByLayer
370
-1
48
1
60
0
100
AcDbEllipse
10
76.666172
20
-42.553604
30
0
11
-4.60966553497843
21
1.73358190521945
31
0
210
0
220
0
230
1
40
0.221124
41
0.361365533163559
42
0.773224132301008
0
ELLIPSE
5
18C
100
AcDbEntity
8
1
62
256
6
ByLayer
370
-1
48
1
60
0
100
AcDbEllipse
10
69.430005
20
-47.018467
30
0
11
-1.08030563129428
21
-2.62885183830889
31
0
210
0
220
0
230
1
40
0.404754
41
-1.8818748971116
42
-1.59926189482759
0
ELLIPSE
5
18D
100
AcDbEntity
8
1
62
256
6
ByLayer
370
-1
48
1
60
0
100
AcDbEllipse
10
70.23055
20
-41.916525
30
0
11
-0.162543294864796
21
-1.64197432297052
31
0
210
0
220
0
230
1
40
0.984662
41
1.40825361869236
42
1.8969828910156
0
ELLIPSE
5
18E
100
AcDbEntity
8
1
62
256
6
ByLayer
370
-1
48
1
60
0
100
AcDbEllipse
10
19.049864
20
-3.403072
30
0
11
-0.0171243566344725
21
6.92025142337789
31
0
210
0
220
0
230
1
40
0.082138
41
1.54067911374403
42
-1.99572331790872
0
ELLIPSE
5
18F
100
AcDbEntity
8
1
62
256
6
ByLayer
370
-1
48
1
60
0
100
AcDbEllipse
10
70.473021
20
-43.166341
30
0
11
-0.208520514880174
21
-2.1064254390231
31
0
210
0
220
0
230
1
40
0.984662
41
1.88241829184339
42
2.54289838283163
0
ELLIPSE
5
190
100
AcDbEntity
8
1
62
256
6
ByLayer
370
-1
48
1
60
0
100
AcDbEllipse
10
71.226264
20
-42.739569
30
0
11
-0.163118636092603
21
-1.64778628540054
31
0
210
0
220
0
230
1
40
0.984662
41
-2.05108691089121
42
-0.91619674945856
0
ELLIPSE
5
191
100
AcDbEntity
8
1
62
256
6
ByLayer
370
-1
48
1
60
0
100
AcDbEllipse
10
21.499547
20
0
30
0
11
2.44921270764475E-15
21
40
31
0
210
0
220
0
230
1
40
0.087489
41
0.243689163890913
42
2.89790348969888
0
ELLIPSE
5
192
100
AcDbEntity
8
1
62
256
6
ByLayer
370
-1
48
1
60
0
100
AcDbEllipse
10
-6.763884
20
0
30
0
11
-18.7348357595644
21
39.483498305501
31
0
210
0
220
0
230
1
40
0.341999
41
-2.98049364836085
42
-2.05364588642051
0
ELLIPSE
5
193
100
AcDbEntity
8
1
62
256
6
ByLayer
370
-1
48
1
60
0
100
AcDbEllipse
10
30.763884
20
0
30
0
11
-18.7348357595626
21
39.4834983054987
31
0
210
0
220
0
230
1
40
0.341999
41
0.161099005228949
42
1.08794676716933
0
ELLIPSE
5
194
100
AcDbEntity
8
1
62
256
6
ByLayer
370
-1
48
1
60
0
100
AcDbEllipse
10
30.763884
20
0
30
0
11
-18.7348357595631
21
-39.4834983054991
31
0
210
0
220
0
230
1
40
0.341999
41
-1.08794676716932
42
-0.161099005228948
0
ELLIPSE
5
195
100
AcDbEntity
8
1
62
256
6
ByLayer
370
-1
48
1
60
0
100
AcDbEllipse
10
70.652453
20
-41.95829
30
0
11
0.1625432948648
21
1.64197432297052
31
0
210
0
220
0
230
1
40
0.984662
41
-1.35893418721627
42
-1.03785883986449
0
ELLIPSE
5
196
100
AcDbEntity
8
1
62
256
6
ByLayer
370
-1
48
1
60
0
100
AcDbEllipse
10
65.965085
20
-53.079749
30
0
11
-1.08030563156066
21
-2.62885183890991
31
0
210
0
220
0
230
1
40
0.404754
41
-2.16448789921762
42
-1.88187489700648
0
ELLIPSE
5
197
100
AcDbEntity
8
1
62
256
6
ByLayer
370
-1
48
1
60
0
100
AcDbEllipse
10
66.060024
20
-52.928724
30
0
11
0.00274347164033022
21
-0.329988595808035
31
0
210
0
220
0
230
1
40
0.26032
41
-2.31872159180216
42
-1.43770026579282
0
ELLIPSE
5
198
100
AcDbEntity
8
1
62
256
6
ByLayer
370
-1
48
1
60
0
100
AcDbEllipse
10
77.460379
20
-51.276927
30
0
11
-0.0005618809539982
21
-0.283036697847895
31
0
210
0
220
0
230
1
40
0.092036
41
0.527646107684384
42
1.56262635417783
0
ELLIPSE
5
199
100
AcDbEntity
8
1
62
256
6
ByLayer
370
-1
48
1
60
0
100
AcDbEllipse
10
71.248542
20
-43.63305
30
0
11
-0.0535420620109683
21
-0.119078904478705
31
0
210
0
220
0
230
1
40
0.958693
41
3.12085890079411
42
-2.20960672945115
0
ELLIPSE
5
19A
100
AcDbEntity
8
1
62
256
6
ByLayer
370
-1
48
1
60
0
100
AcDbEllipse
10
64.694499
20
-54.097139
30
0
11
0.0180802375823484
21
0.199181085971951
31
0
210
0
220
0
230
1
40
0.984685
41
2.70713969510989
42
-3.14158796552846
0
ELLIPSE
5
19B
100
AcDbEntity
8
1
62
256
6
ByLayer
370
-1
48
1
60
0
100
AcDbEllipse
10
67.579128
20
-48.376196
30
0
11
-0.0840311248580835
21
-0.143872957520398
31
0
210
0
220
0
230
1
40
0.142448
41
1.63742825176906
42
2.34621774092289
0
ELLIPSE
5
19C
100
AcDbEntity
8
1
62
256
6
ByLayer
370
-1
48
1
60
0
100
AcDbEllipse
10
72.044511
20
-42.706211
30
0
11
-0.289490858001302
21
1.13451433731524
31
0
210
0
220
0
230
1
40
0.214503
41
1.35157267525283
42
1.51916835018249
0
ELLIPSE
5
19D
100
AcDbEntity
8
1
62
256
6
ByLayer
370
-1
48
1
60
0
100
AcDbEllipse
10
66.159637
20
-52.19769
30
0
11
0.162018972073846
21
0.275952627615926
31
0
210
0
220
0
230
1
40
0.158144
41
1.64518250202729
42
1.81971542722681
0
ELLIPSE
5
19E
100
AcDbEntity
8
1
62
256
6
ByLayer
370
-1
48
1
60
0
100
AcDbEllipse
10
66.28855
20
-54.059063
30
0
11
-0.0393851345155498
21
0.124684027144367
31
0
210
0
220
0
230
1
40
0.960533
41
-1.76951678969337
42
-0.816797112768165
0
ELLIPSE
5
19F
100
AcDbEntity
8
1
62
256
6
ByLayer
370
-1
48
1
60
0
100
AcDbEllipse
10
66.159637
20
-52.19769
30
0
11
0.27397054267993
21
0.165348546239949
31
0
210
0
220
0
230
1
40
0.018074
41
0.679489225683212
42
1.86463385082626
0
ELLIPSE
5
1A0
100
AcDbEntity
8
1
62
256
6
ByLayer
370
-1
48
1
60
0
100
AcDbEllipse
10
68.266876
20
-54.579827
30
0
11
-0.24236581837349
21
0.141207362976094
31
0
210
0
220
0
230
1
40
0.0396
41
-1.65536506608666
42
-0.620384819662991
0
ELLIPSE
5
1A1
100
AcDbEntity
8
1
62
256
6
ByLayer
370
-1
48
1
60
0
100
AcDbEllipse
10
67.662113
20
-54.408506
30
0
11
-0.16105756665737
21
-0.0288747066619426
31
0
210
0
220
0
230
1
40
0.77681
41
-2.34494699977073
42
-2.00013870898134
0
ELLIPSE
5
1A2
100
AcDbEntity
8
1
62
256
6
ByLayer
370
-1
48
1
60
0
100
AcDbEllipse
10
71.827303
20
-42.543423
30
0
11
-0.0823724030831524
21
-0.183198314590102
31
0
210
0
220
0
230
1
40
0.958693
41
3.03303518398471
42
-2.2096067295183
0
ELLIPSE
5
1A3
100
AcDbEntity
8
1
62
256
6
ByLayer
370
-1
48
1
60
0
100
AcDbEllipse
10
77.075888
20
-53.990536
30
0
11
-0.254558441227157
21
3.11733884545897E-17
31
0
210
0
220
0
230
1
40
0.99988
41
-0.539694073108218
42
0.534219985807037
0
ELLIPSE
5
1A4
100
AcDbEntity
8
1
62
256
6
ByLayer
370
-1
48
1
60
0
100
AcDbEllipse
10
70.068442
20
-44.852699
30
0
11
-0.24308177644255
21
-0.140924866111385
31
0
210
0
220
0
230
1
40
0.053924
41
1.64683880898523
42
2.68181905541314
0
ELLIPSE
5
1A5
100
AcDbEntity
8
1
62
256
6
ByLayer
370
-1
48
1
60
0
100
AcDbEllipse
10
75.159807
20
-54.998393
30
0
11
-0.17612582996573
21
0.000349642819567326
31
0
210
0
220
0
230
1
40
0.013275
41
1.71923844985911
42
2.75421869633638
0
ELLIPSE
5
1A6
100
AcDbEntity
8
1
62
256
6
ByLayer
370
-1
48
1
60
0
100
AcDbEllipse
10
65.768242
20
-51.446394
30
0
11
-0.189809549109517
21
-0.325785750369262
31
0
210
0
220
0
230
1
40
0.134321
41
-2.54311175778507
42
-1.50813151133299
0
ELLIPSE
5
1A7
100
AcDbEntity
8
1
62
256
6
ByLayer
370
-1
48
1
60
0
100
AcDbEllipse
10
77.804823
20
-52.297804
30
0
11
-0.132004968942049
21
0.000359883365233433
31
0
210
0
220
0
230
1
40
0.984689
41
3.14158196954066
42
-2.10105994395994
0
ELLIPSE
5
1A8
100
AcDbEntity
8
1
62
256
6
ByLayer
370
-1
48
1
60
0
100
AcDbEllipse
10
77.920294
20
-53.996081
30
0
11
-0.165766666325404
21
-0.285344374984618
31
0
210
0
220
0
230
1
40
0.007779
41
-1.93329407388547
42
-1.58422822348667
0
ELLIPSE
5
1A9
100
AcDbEntity
8
1
62
256
6
ByLayer
370
-1
48
1
60
0
100
AcDbEllipse
10
78.4576
20
-54.007659
30
0
11
-1.2087591243232
21
-0.275308267969476
31
0
210
0
220
0
230
1
40
0.044146
41
1.45992325474831
42
1.62751893404438
0
ELLIPSE
5
1AA
100
AcDbEntity
8
1
62
256
6
ByLayer
370
-1
48
1
60
0
100
AcDbEllipse
10
71.783005
20
-50.222969
30
0
11
-0.272104028280546
21
-2.9976362646461
31
0
210
0
220
0
230
1
40
0.984685
41
-0.379019449942475
42
0
0
ELLIPSE
5
1AB
100
AcDbEntity
8
1
62
256
6
ByLayer
370
-1
48
1
60
0
100
AcDbEllipse
10
71.783005
20
-50.222969
30
0
11
-0.272104028280546
21
-2.9976362646461
31
0
210
0
220
0
230
1
40
0.984685
41
0
42
0.0919249144870166
0
ELLIPSE
5
1AC
100
AcDbEntity
8
1
62
256
6
ByLayer
370
-1
48
1
60
0
100
AcDbEllipse
10
71.783005
20
-50.222969
30
0
11
-0.272104028280546
21
-2.9976362646461
31
0
210
0
220
0
230
1
40
0.984685
41
0.0919249049210945
42
-2.76270299697778
0
ELLIPSE
5
1AD
100
AcDbEntity
8
1
62
256
6
ByLayer
370
-1
48
1
60
0
100
AcDbEllipse
10
76.997067
20
-53.857323
30
0
11
-0.491325860439665
21
0.8303768810866
31
0
210
0
220
0
230
1
40
0.342013
41
2.3147018031312
42
3.13698302547685
0
ELLIPSE
5
1AE
100
AcDbEntity
8
1
62
256
6
ByLayer
370
-1
48
1
60
0
100
AcDbEllipse
10
65.356501
20
-54.146722
30
0
11
-0.0605925146514282
21
0.191821580215894
31
0
210
0
220
0
230
1
40
0.960533
41
1.28425214707496
42
2.32479554076069
0
ELLIPSE
5
1AF
100
AcDbEntity
8
1
62
256
6
ByLayer
370
-1
48
1
60
0
100
AcDbEllipse
10
78.473723
20
-54.006768
30
0
11
-0.203084567601301
21
0.000553666578633847
31
0
210
0
220
0
230
1
40
0.984689
41
2.10103857519164
42
3.14158196887702
0
ELLIPSE
5
1B0
100
AcDbEntity
8
1
62
256
6
ByLayer
370
-1
48
1
60
0
100
AcDbEllipse
10
77.290887
20
-54.353912
30
0
11
-0.254558441227157
21
3.11733884545897E-17
31
0
210
0
220
0
230
1
40
0.99988
41
0.534219985806936
42
0.839157347883344
0
ELLIPSE
5
1B1
100
AcDbEntity
8
1
62
256
6
ByLayer
370
-1
48
1
60
0
100
AcDbEllipse
10
72.598565
20
-43.738691
30
0
11
-0.931731499533752
21
-0.00058304878367251
31
0
210
0
220
0
230
1
40
0.349309
41
-0.0127205576556763
42
0.809560664679436
0
ELLIPSE
5
1B2
100
AcDbEntity
8
1
62
256
6
ByLayer
370
-1
48
1
60
0
100
AcDbEllipse
10
75.705551
20
-47.334865
30
0
11
-0.0837187675021371
21
0.143968152811749
31
0
210
0
220
0
230
1
40
0.128583
41
-2.37059526806839
42
-1.66180577822083
0
ELLIPSE
5
1B3
100
AcDbEntity
8
1
62
256
6
ByLayer
370
-1
48
1
60
0
100
AcDbEllipse
10
65.652343
20
-52.932113
30
0
11
-0.32985002043205
21
-0.00994806619279368
31
0
210
0
220
0
230
1
40
0.131594
41
0.957824129353339
42
1.30688997975217
0
ELLIPSE
5
1B4
100
AcDbEntity
8
1
62
256
6
ByLayer
370
-1
48
1
60
0
100
AcDbEllipse
10
72.095255
20
-43.770511
30
0
11
0.329788829487308
21
-0.0118037259113894
31
0
210
0
220
0
230
1
40
0.162283
41
1.83573697622915
42
2.18480282662797
0
ELLIPSE
5
1B5
100
AcDbEntity
8
1
62
256
6
ByLayer
370
-1
48
1
60
0
100
AcDbEllipse
10
73.074019
20
-44.2252
30
0
11
0.0113395985135379
21
0.319799020488731
31
0
210
0
220
0
230
1
40
0.174084
41
1.56119816859218
42
2.59617841502506
0
ELLIPSE
5
1B6
100
AcDbEntity
8
1
62
256
6
ByLayer
370
-1
48
1
60
0
100
AcDbEllipse
10
72.715139
20
-43.407727
30
0
11
-0.285282473313291
21
0.165873175710394
31
0
210
0
220
0
230
1
40
0.015422
41
-2.1421278418496
42
-1.26110651584098
0
ELLIPSE
5
1B7
100
AcDbEntity
8
1
62
256
6
ByLayer
370
-1
48
1
60
0
100
AcDbEllipse
10
72.661362
20
-43.372891
30
0
11
-0.138398498626078
21
-0.213648907270895
31
0
210
0
220
0
230
1
40
0.952315
41
1.62136333106761
42
1.92630059604858
0
ELLIPSE
5
1B8
100
AcDbEntity
8
1
62
256
6
ByLayer
370
-1
48
1
60
0
100
AcDbEllipse
10
75.367624
20
-49.213332
30
0
11
0.108836897204719
21
0.103220781855446
31
0
210
0
220
0
230
1
40
0.131791
41
-1.45540601772876
42
-1.28087309252942
0
ELLIPSE
5
1B9
100
AcDbEntity
8
1
62
256
6
ByLayer
370
-1
48
1
60
0
100
AcDbEllipse
10
78.473791
20
-53.981906
30
0
11
-0.203084567601548
21
0.000553666741941425
31
0
210
0
220
0
230
1
40
0.984689
41
3.14158196966742
42
-2.10105994382858
0
ELLIPSE
5
1BA
100
AcDbEntity
8
1
62
256
6
ByLayer
370
-1
48
1
60
0
100
AcDbEllipse
10
67.485881
20
-54.39518
30
0
11
-0.27974732239894
21
-0.15577309108226
31
0
210
0
220
0
230
1
40
0.099584
41
-2.07002057390587
42
-1.27347863747724
0
ELLIPSE
5
1BB
100
AcDbEntity
8
1
62
256
6
ByLayer
370
-1
48
1
60
0
100
AcDbEllipse
10
77.910981
20
-53.21398
30
0
11
-0.132004968939062
21
0.000359883247901841
31
0
210
0
220
0
230
1
40
0.984689
41
-0.952730361866173
42
-1.06849226060346E-05
0
ELLIPSE
5
1BC
100
AcDbEntity
8
1
62
256
6
ByLayer
370
-1
48
1
60
0
100
AcDbEllipse
10
67.118191
20
-54.424038
30
0
11
-0.0393851345032884
21
0.1246840271519
31
0
210
0
220
0
230
1
40
0.960533
41
2.32479554093347
42
-2.91784637258858
0
ELLIPSE
5
1BD
100
AcDbEntity
8
1
62
256
6
ByLayer
370
-1
48
1
60
0
100
AcDbEllipse
10
71.679208
20
-53.614589
30
0
11
0.0367863585044432
21
-0.145419269108267
31
0
210
0
220
0
230
1
40
0.164735
41
1.33837117999115
42
1.51290410519056
0
ELLIPSE
5
1BE
100
AcDbEntity
8
1
62
256
6
ByLayer
370
-1
48
1
60
0
100
AcDbEllipse
10
66.006074
20
-52.957041
30
0
11
0.118305764501745
21
-0.225396863522228
31
0
210
0
220
0
230
1
40
0.956983
41
1.6102944638861
42
2.68420852399119
0
ELLIPSE
5
1BF
100
AcDbEntity
8
1
62
256
6
ByLayer
370
-1
48
1
60
0
100
AcDbEllipse
10
76.40057
20
-54.271907
30
0
11
0.272189295186317
21
-0.168264635577342
31
0
210
0
220
0
230
1
40
0.078857
41
-2.76238866899378
42
-1.72740842256114
0
ELLIPSE
5
1C0
100
AcDbEntity
8
1
62
256
6
ByLayer
370
-1
48
1
60
0
100
AcDbEllipse
10
72.095255
20
-43.770511
30
0
11
-0.0208215068507399
21
0.329342473502075
31
0
210
0
220
0
230
1
40
0.570502
41
1.38076587295056
42
2.20304709528559
0
ELLIPSE
5
1C1
100
AcDbEntity
8
1
62
256
6
ByLayer
370
-1
48
1
60
0
100
AcDbEllipse
10
72.095376
20
-54.123037
30
0
11
0.135500750613123
21
0.0643393082281763
31
0
210
0
220
0
230
1
40
0.089727
41
-2.12893318312573
42
-1.42014369360359
0
ELLIPSE
5
1C2
100
AcDbEntity
8
1
62
256
6
ByLayer
370
-1
48
1
60
0
100
AcDbEllipse
10
77.29285
20
-53.631577
30
0
11
-0.283086776769783
21
0.169593268787695
31
0
210
0
220
0
230
1
40
0.013326
41
-1.56283785193292
42
-0.681816525923609
0
ELLIPSE
5
1C3
100
AcDbEntity
8
1
62
256
6
ByLayer
370
-1
48
1
60
0
100
AcDbEllipse
10
71.406899
20
-43.419231
30
0
11
-0.0535420619983235
21
-0.119078904487335
31
0
210
0
220
0
230
1
40
0.958693
41
-0.0207337529052919
42
0.931985924017779
0
ELLIPSE
5
1C4
100
AcDbEntity
8
1
62
256
6
ByLayer
370
-1
48
1
60
0
100
AcDbEllipse
10
65.674028
20
-53.651134
30
0
11
-0.295887399852021
21
0.146118604595069
31
0
210
0
220
0
230
1
40
0.410668
41
1.0957602660871
42
1.69717966239803
0
ELLIPSE
5
1C5
100
AcDbEntity
8
1
62
256
6
ByLayer
370
-1
48
1
60
0
100
AcDbEllipse
10
75.16571
20
-48.140113
30
0
11
-0.124592254826949
21
0.0835270617053941
31
0
210
0
220
0
230
1
40
0.084588
41
-2.43318214818963
42
-1.72439265866673
0
ELLIPSE
5
1C6
100
AcDbEntity
8
1
62
256
6
ByLayer
370
-1
48
1
60
0
100
AcDbEllipse
10
71.974981
20
-42.760222
30
0
11
-0.295747720360011
21
-0.146401113048559
31
0
210
0
220
0
230
1
40
0.435879
41
-1.71236586917085
42
-1.11094647286002
0
ELLIPSE
5
1C7
100
AcDbEntity
8
1
62
256
6
ByLayer
370
-1
48
1
60
0
100
AcDbEllipse
10
72.715139
20
-43.407727
30
0
11
0.168459357975662
21
0.283763008002149
31
0
210
0
220
0
230
1
40
0.304906
41
1.2098122916657
42
1.55887814206458
0
ELLIPSE
5
1C8
100
AcDbEntity
8
1
62
256
6
ByLayer
370
-1
48
1
60
0
100
AcDbEllipse
10
70.593419
20
-44.269585
30
0
11
-0.00204550558750573
21
-0.32008495283987
31
0
210
0
220
0
230
1
40
0.17433
41
-1.73783972723322
42
-0.941297790823443
0
ELLIPSE
5
1C9
100
AcDbEntity
8
1
62
256
6
ByLayer
370
-1
48
1
60
0
100
AcDbEllipse
10
71.957943
20
-50.238849
30
0
11
-0.278473250631769
21
-3.06780285504269
31
0
210
0
220
0
230
1
40
0.984685
41
0
42
6.28318530717959
0
ELLIPSE
5
1CA
100
AcDbEntity
8
1
62
256
6
ByLayer
370
-1
48
1
60
0
100
AcDbEllipse
10
72.502921
20
-43.772718
30
0
11
0.00178662304630247
21
0.329995163567726
31
0
210
0
220
0
230
1
40
0.260526
41
1.40554794182248
42
2.2865692678317
0
ELLIPSE
5
1CB
100
AcDbEntity
8
1
62
256
6
ByLayer
370
-1
48
1
60
0
100
AcDbEllipse
10
65.652343
20
-52.932113
30
0
11
0.0155171404431603
21
0.329634977440907
31
0
210
0
220
0
230
1
40
0.571905
41
0.900781516255378
42
1.72306273859039
0
ELLIPSE
5
1CC
100
AcDbEntity
8
1
62
256
6
ByLayer
370
-1
48
1
60
0
100
AcDbEllipse
10
71.456269
20
-43.390337
30
0
11
-0.0535420619948167
21
-0.11907890449028
31
0
210
0
220
0
230
1
40
0.958693
41
0.931985923986275
42
1.97252931764854
0
ELLIPSE
5
1CD
100
AcDbEntity
8
1
62
256
6
ByLayer
370
-1
48
1
60
0
100
AcDbEllipse
10
72.371359
20
-43.871663
30
0
11
-0.485450528816421
21
-0.833793599917022
31
0
210
0
220
0
230
1
40
0.325762
41
2.31654121999568
42
3.13882244233661
0
ELLIPSE
5
1CE
100
AcDbEntity
8
1
62
256
6
ByLayer
370
-1
48
1
60
0
100
AcDbEllipse
10
74.387532
20
-45.005848
30
0
11
-0.0885856203325472
21
0.152801635025852
31
0
210
0
220
0
230
1
40
0.121299
41
-1.65643696718871
42
-0.621456720739877
0
ELLIPSE
5
1CF
100
AcDbEntity
8
1
62
256
6
ByLayer
370
-1
48
1
60
0
100
AcDbEllipse
10
65.30943
20
-52.585994
30
0
11
-0.0605925150961285
21
0.191821580133078
31
0
210
0
220
0
230
1
40
0.960533
41
0.753999211783263
42
1.28425214479734
0
ELLIPSE
5
1D0
100
AcDbEntity
8
1
62
256
6
ByLayer
370
-1
48
1
60
0
100
AcDbEllipse
10
66.545079
20
-54.08755
30
0
11
-0.0393851345092962
21
0.12468402714714
31
0
210
0
220
0
230
1
40
0.960533
41
1.37207586395159
42
2.32479554087151
0
ELLIPSE
5
1D1
100
AcDbEntity
8
1
62
256
6
ByLayer
370
-1
48
1
60
0
100
AcDbEllipse
10
65.5957
20
-54.023008
30
0
11
-0.289730899150812
21
-1.14560444943414
31
0
210
0
220
0
230
1
40
0.218276
41
-1.54349118233957
42
-1.3758955090824
0
ELLIPSE
5
1D2
100
AcDbEntity
8
1
62
256
6
ByLayer
370
-1
48
1
60
0
100
AcDbEllipse
10
77.29285
20
-53.631577
30
0
11
-0.165766666325404
21
-0.285344374984618
31
0
210
0
220
0
230
1
40
0.007779
41
-1.9332940738841
42
-1.58422822348658
0
ELLIPSE
5
1D3
100
AcDbEntity
8
1
62
256
6
ByLayer
370
-1
48
1
60
0
100
AcDbEllipse
10
73.911499
20
-44.254896
30
0
11
-0.188982656710825
21
0.325976821391349
31
0
210
0
220
0
230
1
40
0.121299
41
1.48515568640312
42
2.52013593284044
0
ELLIPSE
5
1D4
100
AcDbEntity
8
1
62
256
6
ByLayer
370
-1
48
1
60
0
100
AcDbEllipse
10
76.095356
20
-52.621971
30
0
11
-2.44476098892779
21
1.42021441237738
31
0
210
0
220
0
230
1
40
0.300609
41
2.96970337058702
42
3.13729904538662
0
ELLIPSE
5
1D5
100
AcDbEntity
8
1
62
256
6
ByLayer
370
-1
48
1
60
0
100
AcDbEllipse
10
78.279762
20
-53.99808
30
0
11
0.00183525231900521
21
0.329994896701336
31
0
210
0
220
0
230
1
40
0.179002
41
-1.85572942283356
42
-1.25431002652248
0
ELLIPSE
5
1D6
100
AcDbEntity
8
1
62
256
6
ByLayer
370
-1
48
1
60
0
100
AcDbEllipse
10
65.929023
20
-52.822828
30
0
11
-0.480039673591663
21
0.836978963707299
31
0
210
0
220
0
230
1
40
0.327324
41
-3.13575152717786
42
-2.31347030484141
0
ELLIPSE
5
1D7
100
AcDbEntity
8
1
62
256
6
ByLayer
370
-1
48
1
60
0
100
AcDbEllipse
10
77.802981
20
-52.970782
30
0
11
-0.132004968941487
21
0.000359883282872679
31
0
210
0
220
0
230
1
40
0.984689
41
2.18886229199416
42
3.14158196892777
0
ELLIPSE
5
1D8
100
AcDbEntity
8
1
62
256
6
ByLayer
370
-1
48
1
60
0
100
AcDbEllipse
10
75.954484
20
-54.993507
30
0
11
-0.375735103868787
21
0.000745904681047274
31
0
210
0
220
0
230
1
40
0.013275
41
-1.42235420386012
42
-0.387373957274416
0
ELLIPSE
5
1D9
100
AcDbEntity
8
1
62
256
6
ByLayer
370
-1
48
1
60
0
100
AcDbEllipse
10
71.144128
20
-42.481409
30
0
11
0.0180802375823484
21
0.199181085971951
31
0
210
0
220
0
230
1
40
0.984685
41
1.19043037649456E-05
42
0.612744592716649
0
ELLIPSE
5
1DA
100
AcDbEntity
8
1
62
256
6
ByLayer
370
-1
48
1
60
0
100
AcDbEllipse
10
77.920294
20
-53.996081
30
0
11
-0.00183525231900525
21
-0.329994896701336
31
0
210
0
220
0
230
1
40
0.179002
41
1.28586323075647
42
1.88728262706703
0
ELLIPSE
5
1DB
100
AcDbEntity
8
1
62
256
6
ByLayer
370
-1
48
1
60
0
100
AcDbEllipse
10
67.619148
20
-52.797934
30
0
11
-2.32235939370293
21
-1.38920875983945
31
0
210
0
220
0
230
1
40
0.314059
41
-0.173471786971267
42
-0.00587611189215975
0
ELLIPSE
5
1DC
100
AcDbEntity
8
1
62
256
6
ByLayer
370
-1
48
1
60
0
100
AcDbEllipse
10
70.790126
20
-43.329869
30
0
11
-0.0117521544285257
21
-0.129467705881768
31
0
210
0
220
0
230
1
40
0.984685
41
0.612744592716614
42
1.65328798638696
0
ELLIPSE
5
1DD
100
AcDbEntity
8
1
62
256
6
ByLayer
370
-1
48
1
60
0
100
AcDbEllipse
10
76.475853
20
-48.696032
30
0
11
-0.0758145711045313
21
0.12954934082744
31
0
210
0
220
0
230
1
40
0.142526
41
-1.67219908362532
42
-0.96340959366429
0
ELLIPSE
5
1DE
100
AcDbEntity
8
1
62
256
6
ByLayer
370
-1
48
1
60
0
100
AcDbEllipse
10
66.155501
20
-52.955799
30
0
11
-0.931737083180054
21
-0.00318186460036709
31
0
210
0
220
0
230
1
40
0.351013
41
-0.812894846579921
42
0.00938637575832701
0
ELLIPSE
5
1DF
100
AcDbEntity
8
1
62
256
6
ByLayer
370
-1
48
1
60
0
100
AcDbEllipse
10
71.122888
20
-42.49384
30
0
11
0.0180802375823484
21
0.199181085971951
31
0
210
0
220
0
230
1
40
0.984685
41
0.612744592716649
42
1.653287986387
0
ELLIPSE
5
1E0
100
AcDbEntity
8
1
62
256
6
ByLayer
370
-1
48
1
60
0
100
AcDbEllipse
10
65.652343
20
-52.932113
30
0
11
0.00274347164033022
21
-0.329988595808035
31
0
210
0
220
0
230
1
40
0.26032
41
-2.31872159180216
42
-1.43770026579282
0
ELLIPSE
5
1E1
100
AcDbEntity
8
1
62
256
6
ByLayer
370
-1
48
1
60
0
100
AcDbEllipse
10
68.303873
20
-54.732224
30
0
11
0.0180802375823484
21
0.199181085971951
31
0
210
0
220
0
230
1
40
0.984685
41
2.7071396951098
42
3.14158718612355
0
ELLIPSE
5
1E2
100
AcDbEntity
8
1
62
256
6
ByLayer
370
-1
48
1
60
0
100
AcDbEllipse
10
75.987676
20
-49.006802
30
0
11
-0.0805518628637625
21
0.126536150522993
31
0
210
0
220
0
230
1
40
0.138793
41
-1.67753375611271
42
-0.96874426658954
0
ELLIPSE
5
1E3
100
AcDbEntity
8
1
62
256
6
ByLayer
370
-1
48
1
60
0
100
AcDbEllipse
10
72.511018
20
-54.998393
30
0
11
-0.1662229190091
21
0.0003704809815023
31
0
210
0
220
0
230
1
40
0.014047
41
1.01936750196594
42
1.72815699064324
0
ELLIPSE
5
1E4
100
AcDbEntity
8
1
62
256
6
ByLayer
370
-1
48
1
60
0
100
AcDbEllipse
10
77.291607
20
-50.495743
30
0
11
0.0180802375823484
21
0.199181085971951
31
0
210
0
220
0
230
1
40
0.984685
41
-1.48165050967657
42
-0.958051734078242
0
ELLIPSE
5
1E5
100
AcDbEntity
8
1
62
256
6
ByLayer
370
-1
48
1
60
0
100
AcDbEllipse
10
66.270241
20
-53.294898
30
0
11
0.286191286725686
21
0.164300174687357
31
0
210
0
220
0
230
1
40
0.011457
41
0.983935267129216
42
1.86495659313872
0
ELLIPSE
5
1E6
100
AcDbEntity
8
1
62
256
6
ByLayer
370
-1
48
1
60
0
100
AcDbEllipse
10
77.290864
20
-54.357146
30
0
11
0.28401089906089
21
0.16804109382715
31
0
210
0
220
0
230
1
40
0.013348
41
1.56287435652417
42
2.44389568253417
0
ELLIPSE
5
1E7
100
AcDbEntity
8
1
62
256
6
ByLayer
370
-1
48
1
60
0
100
AcDbEllipse
10
70.585676
20
-43.57288
30
0
11
0.0117521544285264
21
0.129467705881768
31
0
210
0
220
0
230
1
40
0.984685
41
1.07325120612545E-05
42
0.612744592716568
0
ELLIPSE
5
1E8
100
AcDbEntity
8
1
62
256
6
ByLayer
370
-1
48
1
60
0
100
AcDbEllipse
10
66.159637
20
-52.19769
30
0
11
-0.283797838351282
21
-0.147847174295417
31
0
210
0
220
0
230
1
40
0.095227
41
-2.45854301848233
42
-1.42356277204919
0
ELLIPSE
5
1E9
100
AcDbEntity
8
1
62
256
6
ByLayer
370
-1
48
1
60
0
100
AcDbEllipse
10
71.806062
20
-42.555854
30
0
11
-0.0823724030742589
21
-0.183198314595453
31
0
210
0
220
0
230
1
40
0.958693
41
-2.20960672957613
42
-1.16906333590049
0
ELLIPSE
5
1EA
100
AcDbEntity
8
1
62
256
6
ByLayer
370
-1
48
1
60
0
100
AcDbEllipse
10
70.673589
20
-43.969539
30
0
11
-0.0535420620000816
21
-0.119078904486815
31
0
210
0
220
0
230
1
40
0.958693
41
-2.20960672955879
42
-1.1690633358882
0
ELLIPSE
5
1EB
100
AcDbEntity
8
1
62
256
6
ByLayer
370
-1
48
1
60
0
100
AcDbEllipse
10
76.087879
20
-55.353664
30
0
11
-2.45249888953648
21
-1.40681163107183
31
0
210
0
220
0
230
1
40
0.300608
41
-3.13729915432273
42
-2.9697034791729
0
ELLIPSE
5
1EC
100
AcDbEntity
8
1
62
256
6
ByLayer
370
-1
48
1
60
0
100
AcDbEllipse
10
77.290864
20
-54.357146
30
0
11
-0.284491903543768
21
-0.167225467013979
31
0
210
0
220
0
230
1
40
0.329409
41
0.752335948646857
42
1.57461717098196
0
ELLIPSE
5
1ED
100
AcDbEntity
8
1
62
256
6
ByLayer
370
-1
48
1
60
0
100
AcDbEllipse
10
76.996339
20
-54.123265
30
0
11
-0.495864210023064
21
-0.827675111834156
31
0
210
0
220
0
230
1
40
0.342013
41
-3.1369829037578
42
-2.31470168142779
0
ELLIPSE
5
1EE
100
AcDbEntity
8
1
62
256
6
ByLayer
370
-1
48
1
60
0
100
AcDbEllipse
10
65.598393
20
-52.960431
30
0
11
0.118305764501745
21
-0.225396863522228
31
0
210
0
220
0
230
1
40
0.956983
41
2.68420852399129
42
2.98914578897229
0
ELLIPSE
5
1EF
100
AcDbEntity
8
1
62
256
6
ByLayer
370
-1
48
1
60
0
100
AcDbEllipse
10
71.739339
20
-50.219005
30
0
11
-0.264066187850112
21
-2.90908732946141
31
0
210
0
220
0
230
1
40
0.984685
41
-0.770245922570351
42
0
0
ELLIPSE
5
1F0
100
AcDbEntity
8
1
62
256
6
ByLayer
370
-1
48
1
60
0
100
AcDbEllipse
10
71.739339
20
-50.219005
30
0
11
-0.264066187850112
21
-2.90908732946141
31
0
210
0
220
0
230
1
40
0.984685
41
0
42
0.0919247418532691
0
ELLIPSE
5
1F1
100
AcDbEntity
8
1
62
256
6
ByLayer
370
-1
48
1
60
0
100
AcDbEllipse
10
71.739339
20
-50.219005
30
0
11
-0.264066187850112
21
-2.90908732946141
31
0
210
0
220
0
230
1
40
0.984685
41
2.2161322122727
42
-2.37147652622667
0
ELLIPSE
5
1F2
100
AcDbEntity
8
1
62
256
6
ByLayer
370
-1
48
1
60
0
100
AcDbEllipse
10
71.739339
20
-50.219005
30
0
11
-0.264066187850112
21
-2.90908732946141
31
0
210
0
220
0
230
1
40
0.984685
41
0.09192497984603
42
0.880660998939209
0
ELLIPSE
5
1F3
100
AcDbEntity
8
1
62
256
6
ByLayer
370
-1
48
1
60
0
100
AcDbEllipse
10
65.674028
20
-53.651134
30
0
11
-0.32985002043205
21
-0.00994806619279368
31
0
210
0
220
0
230
1
40
0.131594
41
0.957824129353304
42
1.30688997975217
0
ELLIPSE
5
1F4
100
AcDbEntity
8
1
62
256
6
ByLayer
370
-1
48
1
60
0
100
AcDbEllipse
10
71.727558
20
-45.257449
30
0
11
-0.111418399203849
21
-2.78797895051415
31
0
210
0
220
0
230
1
40
0.293981
41
2.98390838986059
42
-3.13168124239948
0
ELLIPSE
5
1F5
100
AcDbEntity
8
1
62
256
6
ByLayer
370
-1
48
1
60
0
100
AcDbEllipse
10
66.216291
20
-53.323215
30
0
11
0.118305764501745
21
-0.225396863522228
31
0
210
0
220
0
230
1
40
0.956983
41
1.30535719890513
42
1.61029446388615
0
ELLIPSE
5
1F6
100
AcDbEntity
8
1
62
256
6
ByLayer
370
-1
48
1
60
0
100
AcDbEllipse
10
72.449144
20
-43.737882
30
0
11
-0.138398498626078
21
-0.213648907270895
31
0
210
0
220
0
230
1
40
0.952315
41
0.547449270962375
42
1.62136333106755
0
ELLIPSE
5
1F7
100
AcDbEntity
8
1
62
256
6
ByLayer
370
-1
48
1
60
0
100
AcDbEllipse
10
70.010722
20
-43.909369
30
0
11
-0.0117521544285258
21
-0.129467705881769
31
0
210
0
220
0
230
1
40
0.984685
41
-2.52884806087318
42
-1.48830466720284
0
ELLIPSE
5
1F8
100
AcDbEntity
8
1
62
256
6
ByLayer
370
-1
48
1
60
0
100
AcDbEllipse
10
72.502921
20
-43.772718
30
0
11
-0.285282473313291
21
0.165873175710394
31
0
210
0
220
0
230
1
40
0.015422
41
-2.14212784184957
42
-1.26110651584065
0
ELLIPSE
5
1F9
100
AcDbEntity
8
1
62
256
6
ByLayer
370
-1
48
1
60
0
100
AcDbEllipse
10
77.075866
20
-53.99377
30
0
11
0.28401089906089
21
0.16804109382715
31
0
210
0
220
0
230
1
40
0.013348
41
1.56287435652417
42
2.44389568253417
0
ELLIPSE
5
1FA
100
AcDbEntity
8
1
62
256
6
ByLayer
370
-1
48
1
60
0
100
AcDbEllipse
10
78.4576
20
-54.007659
30
0
11
-1.20713079442622
21
0.289513307352478
31
0
210
0
220
0
230
1
40
0.065395
41
-1.62220687111439
42
-1.45461119812614
0
ELLIPSE
5
1FB
100
AcDbEntity
8
1
62
256
6
ByLayer
370
-1
48
1
60
0
100
AcDbEllipse
10
68.356882
20
-47.015028
30
0
11
-0.0759965876370216
21
-0.129443221078275
31
0
210
0
220
0
230
1
40
0.158036
41
0.936339048834124
42
1.64512853787839
0
ELLIPSE
5
1FC
100
AcDbEntity
8
1
62
256
6
ByLayer
370
-1
48
1
60
0
100
AcDbEllipse
10
74.061361
20
-43.891602
30
0
11
-2.31605436702818
21
1.37369459206925
31
0
210
0
220
0
230
1
40
0.315635
41
0.00298511001752498
42
0.170580784617346
0
ELLIPSE
5
1FD
100
AcDbEntity
8
1
62
256
6
ByLayer
370
-1
48
1
60
0
100
AcDbEllipse
10
77.292873
20
-53.628343
30
0
11
-0.254558441227157
21
3.11733884545897E-17
31
0
210
0
220
0
230
1
40
0.99988
41
-0.844631240838802
42
-0.539694073108242
0
ELLIPSE
5
1FE
100
AcDbEntity
8
1
62
256
6
ByLayer
370
-1
48
1
60
0
100
AcDbEllipse
10
66.270241
20
-53.294898
30
0
11
-0.267449075294889
21
-0.19331578343195
31
0
210
0
220
0
230
1
40
0.316515
41
1.26476442462774
42
2.08704564696271
0
ELLIPSE
5
1FF
100
AcDbEntity
8
1
62
256
6
ByLayer
370
-1
48
1
60
0
100
AcDbEllipse
10
77.519558
20
-51.826374
30
0
11
-0.0456617361916817
21
-0.124163624907301
31
0
210
0
220
0
230
1
40
0.697969
41
-1.29670867448074
42
-0.951900383999581
0
ELLIPSE
5
200
100
AcDbEntity
8
1
62
256
6
ByLayer
370
-1
48
1
60
0
100
AcDbEllipse
10
77.29285
20
-53.631577
30
0
11
0.28259193885026
21
-0.170416537040426
31
0
210
0
220
0
230
1
40
0.354474
41
1.5838753958375
42
2.40615661817247
0
ELLIPSE
5
201
100
AcDbEntity
8
1
62
256
6
ByLayer
370
-1
48
1
60
0
100
AcDbEllipse
10
77.920294
20
-53.996081
30
0
11
0.164202282649783
21
-0.286247463521689
31
0
210
0
220
0
230
1
40
0.007742
41
1.23518361223976
42
1.5842494626374
0
ELLIPSE
5
202
100
AcDbEntity
8
1
62
256
6
ByLayer
370
-1
48
1
60
0
100
AcDbEllipse
10
76.40057
20
-54.271907
30
0
11
-0.319998801299914
21
0.000875880481829989
31
0
210
0
220
0
230
1
40
0.015521
41
-1.57077508380575
42
-1.39624215860628
0
ELLIPSE
5
203
100
AcDbEntity
8
1
62
256
6
ByLayer
370
-1
48
1
60
0
100
AcDbEllipse
10
72.120867
20
-43.05493
30
0
11
0.295747720360011
21
0.146401113048559
31
0
210
0
220
0
230
1
40
0.435879
41
1.42922678441894
42
2.03064618072987
0
ELLIPSE
5
204
100
AcDbEntity
8
1
62
256
6
ByLayer
370
-1
48
1
60
0
100
AcDbEllipse
10
70.962963
20
-54.998393
30
0
11
-0.15010027237429
21
0.000410293038628033
31
0
210
0
220
0
230
1
40
0.015511
41
1.7452319744761
42
2.45402146326172
0
ELLIPSE
5
205
100
AcDbEntity
8
1
62
256
6
ByLayer
370
-1
48
1
60
0
100
AcDbEllipse
10
70.41205
20
-44.456239
30
0
11
-0.104613574697777
21
0.108175544270196
31
0
210
0
220
0
230
1
40
0.746721
41
3.04066759872082
42
-2.89770941707326
0
ELLIPSE
5
206
100
AcDbEntity
8
1
62
256
6
ByLayer
370
-1
48
1
60
0
100
AcDbEllipse
10
65.292822
20
-51.432087
30
0
11
-0.0938360335296433
21
2.80143479062074
31
0
210
0
220
0
230
1
40
0.29273
41
3.13446637234478
42
-2.98112326007178
0
ELLIPSE
5
207
100
AcDbEntity
8
1
62
256
6
ByLayer
370
-1
48
1
60
0
100
AcDbEllipse
10
69.059149
20
-54.800782
30
0
11
0.0180802375823484
21
0.199181085971951
31
0
210
0
220
0
230
1
40
0.984685
41
2.70713969510983
42
-3.05244683647142
0
ELLIPSE
5
208
100
AcDbEntity
8
1
62
256
6
ByLayer
370
-1
48
1
60
0
100
AcDbEllipse
10
66.455324
20
-54.363868
30
0
11
-0.0117521544285258
21
-0.129467705881769
31
0
210
0
220
0
230
1
40
0.984685
41
-0.434452958480061
42
1.01564222048934E-05
0
ELLIPSE
5
209
100
AcDbEntity
8
1
62
256
6
ByLayer
370
-1
48
1
60
0
100
AcDbEllipse
10
65.377673
20
-54.159153
30
0
11
-0.0605925146395783
21
0.19182158022064
31
0
210
0
220
0
230
1
40
0.960533
41
2.3247955408133
42
-2.91784637269069
0
ELLIPSE
5
20A
100
AcDbEntity
8
1
62
256
6
ByLayer
370
-1
48
1
60
0
100
AcDbEllipse
10
72.120867
20
-43.05493
30
0
11
0.168459357975662
21
0.283763008002149
31
0
210
0
220
0
230
1
40
0.304906
41
1.2098122916657
42
1.55887814206449
0
ELLIPSE
5
20B
100
AcDbEntity
8
1
62
256
6
ByLayer
370
-1
48
1
60
0
100
AcDbEllipse
10
69.523074
20
-45.420021
30
0
11
0.0180802375823484
21
0.199181085971951
31
0
210
0
220
0
230
1
40
0.984685
41
0.612744592716578
42
1.13634336831491
0
ELLIPSE
5
20C
100
AcDbEntity
8
1
62
256
6
ByLayer
370
-1
48
1
60
0
100
AcDbEllipse
10
77.910823
20
-53.271768
30
0
11
-0.132004968945881
21
0.00035988329721743
31
0
210
0
220
0
230
1
40
0.984689
41
-1.06845550465842E-05
42
1.04053270910659
0
ELLIPSE
5
20D
100
AcDbEntity
8
1
62
256
6
ByLayer
370
-1
48
1
60
0
100
AcDbEllipse
10
66.060024
20
-52.928724
30
0
11
-0.286191286725686
21
-0.164300174687357
31
0
210
0
220
0
230
1
40
0.011457
41
-2.15765738646054
42
-1.27663606045107
0
ELLIPSE
5
20E
100
AcDbEntity
8
1
62
256
6
ByLayer
370
-1
48
1
60
0
100
AcDbEllipse
10
68.534612
20
-48.446303
30
0
11
-0.0109765333732289
21
-0.1495978466259
31
0
210
0
220
0
230
1
40
0.174315
41
1.56778344730406
42
2.27657293682704
0
ELLIPSE
5
20F
100
AcDbEntity
8
1
62
256
6
ByLayer
370
-1
48
1
60
0
100
AcDbEllipse
10
72.715139
20
-43.407727
30
0
11
0.265139820720223
21
-0.19647105503979
31
0
210
0
220
0
230
1
40
0.340178
41
1.07395708266919
42
1.8962383050042
0
ELLIPSE
5
210
100
AcDbEntity
8
1
62
256
6
ByLayer
370
-1
48
1
60
0
100
AcDbEllipse
10
66.270241
20
-53.294898
30
0
11
-0.169262396137935
21
0.283284735299389
31
0
210
0
220
0
230
1
40
0.289738
41
1.55477985776534
42
1.90384570816427
0
ELLIPSE
5
211
100
AcDbEntity
8
1
62
256
6
ByLayer
370
-1
48
1
60
0
100
AcDbEllipse
10
72.095255
20
-43.770511
30
0
11
-0.00178662304630266
21
-0.329995163567726
31
0
210
0
220
0
230
1
40
0.260526
41
-1.73604471176731
42
-0.85502338575779
0
ELLIPSE
5
212
100
AcDbEntity
8
1
62
256
6
ByLayer
370
-1
48
1
60
0
100
AcDbEllipse
10
68.864876
20
-47.288138
30
0
11
-0.0710291567746935
21
-0.132116838018006
31
0
210
0
220
0
230
1
40
0.160766
41
0.930395554479908
42
1.6391850440025
0
ELLIPSE
5
213
100
AcDbEntity
8
1
62
256
6
ByLayer
370
-1
48
1
60
0
100
AcDbEllipse
10
76.40057
20
-54.271907
30
0
11
-0.278191912985564
21
0.15814316156392
31
0
210
0
220
0
230
1
40
0.013504
41
-1.56314420785059
42
-0.377999582707828
0
ELLIPSE
5
214
100
AcDbEntity
8
1
62
256
6
ByLayer
370
-1
48
1
60
0
100
AcDbEllipse
10
66.239338
20
-54.030169
30
0
11
-0.0393851345222442
21
0.124684027139142
31
0
210
0
220
0
230
1
40
0.960533
41
-0.816797112838537
42
0.223746280845742
0
ELLIPSE
5
215
100
AcDbEntity
8
1
62
256
6
ByLayer
370
-1
48
1
60
0
100
AcDbEllipse
10
65.5957
20
-54.023008
30
0
11
-0.753175236192699
21
-0.876144407337778
31
0
210
0
220
0
230
1
40
0.022981
41
-1.47589424001293
42
-1.3082985619402
0
ELLIPSE
5
216
100
AcDbEntity
8
1
62
256
6
ByLayer
370
-1
48
1
60
0
100
AcDbEllipse
10
77.107466
20
-54.790504
30
0
11
-0.203084567590102
21
0.000553666400888553
31
0
210
0
220
0
230
1
40
0.984689
41
1.57078564117936
42
2.10103857434585
0
ELLIPSE
5
217
100
AcDbEntity
8
1
62
256
6
ByLayer
370
-1
48
1
60
0
100
AcDbEllipse
10
66.248359
20
-50.705213
30
0
11
-0.0889732261381738
21
-0.152712070470161
31
0
210
0
220
0
230
1
40
0.134321
41
0.598480895802759
42
1.63346114234109
0
ELLIPSE
5
218
100
AcDbEntity
8
1
62
256
6
ByLayer
370
-1
48
1
60
0
100
AcDbEllipse
10
64.673326
20
-54.084708
30
0
11
0.0180802375823484
21
0.199181085971951
31
0
210
0
220
0
230
1
40
0.984685
41
1.66659630143941
42
2.70713969510986
0
ELLIPSE
5
219
100
AcDbEntity
8
1
62
256
6
ByLayer
370
-1
48
1
60
0
100
AcDbEllipse
10
72.044512
20
-42.706211
30
0
11
-0.748651219696099
21
0.868264326050917
31
0
210
0
220
0
230
1
40
0.006448
41
1.28886019604535
42
1.45645582521272
0
ELLIPSE
5
21A
100
AcDbEntity
8
1
62
256
6
ByLayer
370
-1
48
1
60
0
100
AcDbEllipse
10
71.078498
20
-53.766549
30
0
11
0.0367863585044432
21
-0.145419269108267
31
0
210
0
220
0
230
1
40
0.164735
41
1.33837117999096
42
1.51290410519046
0
ELLIPSE
5
21B
100
AcDbEntity
8
1
62
256
6
ByLayer
370
-1
48
1
60
0
100
AcDbEllipse
10
72.120867
20
-43.05493
30
0
11
0.329788829487308
21
-0.0118037259113894
31
0
210
0
220
0
230
1
40
0.162283
41
1.83573697622915
42
2.18480282662804
0
ELLIPSE
5
21C
100
AcDbEntity
8
1
62
256
6
ByLayer
370
-1
48
1
60
0
100
AcDbEllipse
10
77.290864
20
-54.357146
30
0
11
0.164202282649783
21
-0.286247463521689
31
0
210
0
220
0
230
1
40
0.007742
41
1.23518361223661
42
1.58424946263736
0
ELLIPSE
5
21D
100
AcDbEntity
8
1
62
256
6
ByLayer
370
-1
48
1
60
0
100
AcDbEllipse
10
72.041478
20
-43.735675
30
0
11
-0.138398498626078
21
-0.213648907270895
31
0
210
0
220
0
230
1
40
0.952315
41
0.24251200598147
42
0.547449270962404
0
ELLIPSE
5
21E
100
AcDbEntity
8
1
62
256
6
ByLayer
370
-1
48
1
60
0
100
AcDbEllipse
10
74.939096
20
-48.761488
30
0
11
0.108836897204719
21
0.103220781855446
31
0
210
0
220
0
230
1
40
0.131791
41
-1.45540601772886
42
-1.2808730925296
0
ELLIPSE
5
21F
100
AcDbEntity
8
1
62
256
6
ByLayer
370
-1
48
1
60
0
100
AcDbEllipse
10
76.398595
20
-54.993507
30
0
11
0.319998801299914
21
-0.000875880481822922
31
0
210
0
220
0
230
1
40
0.015521
41
1.57081756978404
42
1.74535049498334
0
ELLIPSE
5
220
100
AcDbEntity
8
1
62
256
6
ByLayer
370
-1
48
1
60
0
100
AcDbEllipse
10
73.074019
20
-44.2252
30
0
11
0.0057248292856243
21
-0.319948787042005
31
0
210
0
220
0
230
1
40
0.256832
41
-1.74207351478777
42
-0.556928889643853
0
ELLIPSE
5
221
100
AcDbEntity
8
1
62
256
6
ByLayer
370
-1
48
1
60
0
100
AcDbEllipse
10
65.526517
20
-53.949841
30
0
11
0.295887399852021
21
-0.146118604595069
31
0
210
0
220
0
230
1
40
0.410668
41
-2.04583238750263
42
-1.44441299119181
0
ELLIPSE
5
222
100
AcDbEntity
8
1
62
256
6
ByLayer
370
-1
48
1
60
0
100
AcDbEllipse
10
65.674028
20
-53.651134
30
0
11
-0.169262396137935
21
0.283284735299389
31
0
210
0
220
0
230
1
40
0.289738
41
1.55477985776538
42
1.90384570816417
0
ELLIPSE
5
223
100
AcDbEntity
8
1
62
256
6
ByLayer
370
-1
48
1
60
0
100
AcDbEllipse
10
73.690513
20
-43.8644
30
0
11
-0.161632485826141
21
0.276179180108969
31
0
210
0
220
0
230
1
40
0.142623
41
1.29478794466363
42
1.46932086986303
0
ELLIPSE
5
224
100
AcDbEntity
8
1
62
256
6
ByLayer
370
-1
48
1
60
0
100
AcDbEllipse
10
69.177394
20
-48.333377
30
0
11
-0.144249644291542
21
0.0411344152962408
31
0
210
0
220
0
230
1
40
0.032944
41
-1.7429377639112
42
-1.56840483871189
0
ELLIPSE
5
225
100
AcDbEntity
8
1
62
256
6
ByLayer
370
-1
48
1
60
0
100
AcDbEllipse
10
70.943146
20
-54.414514
30
0
11
0.149913678706951
21
0.00508811719096741
31
0
210
0
220
0
230
1
40
0.021972
41
-1.39692958113981
42
-0.688140091618497
0
ELLIPSE
5
226
100
AcDbEntity
8
1
62
256
6
ByLayer
370
-1
48
1
60
0
100
AcDbEllipse
10
69.349576
20
-47.729573
30
0
11
-0.144249644291542
21
0.0411344152962408
31
0
210
0
220
0
230
1
40
0.032944
41
-1.74293776391139
42
-1.56840483871208
0
ELLIPSE
5
227
100
AcDbEntity
8
1
62
256
6
ByLayer
370
-1
48
1
60
0
100
AcDbEllipse
10
77.075866
20
-53.99377
30
0
11
0.283086776769783
21
-0.169593268787695
31
0
210
0
220
0
230
1
40
0.013326
41
1.57875480165696
42
2.45977612766422
0
ELLIPSE
5
228
100
AcDbEntity
8
1
62
256
6
ByLayer
370
-1
48
1
60
0
100
AcDbEllipse
10
77.669112
20
-52.040397
30
0
11
-0.276792282488457
21
0.160605130405747
31
0
210
0
220
0
230
1
40
0.074719
41
0.767263538819192
42
1.5638054749323
0
ELLIPSE
5
229
100
AcDbEntity
8
1
62
256
6
ByLayer
370
-1
48
1
60
0
100
AcDbEllipse
10
73.117247
20
-43.309214
30
0
11
-0.0823724032607921
21
-0.183198314561203
31
0
210
0
220
0
230
1
40
0.958693
41
2.50278225176344
42
3.03303518482543
0
ELLIPSE
5
22A
100
AcDbEntity
8
1
62
256
6
ByLayer
370
-1
48
1
60
0
100
AcDbEllipse
10
69.750144
20
-44.396156
30
0
11
-0.0117521544285258
21
-0.129467705881769
31
0
210
0
220
0
230
1
40
0.984685
41
0.612744592716767
42
1.65328798638685
0
ELLIPSE
5
22B
100
AcDbEntity
8
1
62
256
6
ByLayer
370
-1
48
1
60
0
100
AcDbEllipse
10
73.074019
20
-44.2252
30
0
11
0.161632485826137
21
-0.276179180108972
31
0
210
0
220
0
230
1
40
0.142623
41
-1.846804708926
42
-1.67227178372676
0
ELLIPSE
5
22C
100
AcDbEntity
8
1
62
256
6
ByLayer
370
-1
48
1
60
0
100
AcDbEllipse
10
65.545118
20
-51.83689
30
0
11
-0.162018972073839
21
-0.275952627615931
31
0
210
0
220
0
230
1
40
0.158144
41
-1.49641015156254
42
-1.3218772263631
0
ELLIPSE
5
22D
100
AcDbEntity
8
1
62
256
6
ByLayer
370
-1
48
1
60
0
100
AcDbEllipse
10
72.460756
20
-48.937573
30
0
11
-0.334789202942534
21
0.198289421906272
31
0
210
0
220
0
230
1
40
0.494673
41
1.57842127978032
42
2.32630559314384
0
ELLIPSE
5
22E
100
AcDbEntity
8
1
62
256
6
ByLayer
370
-1
48
1
60
0
100
AcDbEllipse
10
71.72654
20
-50.221959
30
0
11
-0.12710885658427
21
-1.28402392056295
31
0
210
0
220
0
230
1
40
0.984662
41
2.71516118948927
42
-2.89058537899357
0
ELLIPSE
5
22F
100
AcDbEntity
8
1
62
256
6
ByLayer
370
-1
48
1
60
0
100
AcDbEllipse
10
73.187305
20
-50.221959
30
0
11
-0.00153284668024339
21
-0.39404109252239
31
0
210
0
220
0
230
1
40
0.482349
41
-2.97919341972921
42
-1.56891995826921
0
ELLIPSE
5
230
100
AcDbEntity
8
1
62
256
6
ByLayer
370
-1
48
1
60
0
100
AcDbEllipse
10
72.453089
20
-51.506344
30
0
11
-0.335790509926528
21
-0.198599298571724
31
0
210
0
220
0
230
1
40
0.492091
41
-2.55058598128419
42
-1.58029449206477
0
ELLIPSE
5
231
100
AcDbEntity
8
1
62
256
6
ByLayer
370
-1
48
1
60
0
100
AcDbEllipse
10
71.722113
20
-51.70514
30
0
11
-0.388113116813989
21
-0.000380450307993788
31
0
210
0
220
0
230
1
40
0.497203
41
1.68583207080394
42
-3.08641908149602
0
ELLIPSE
5
232
100
AcDbEntity
8
1
62
256
6
ByLayer
370
-1
48
1
60
0
100
AcDbEllipse
10
71.730967
20
-48.738778
30
0
11
-0.388113116813996
21
-0.00038045030798104
31
0
210
0
220
0
230
1
40
0.497203
41
3.08247600625909
42
-2.04288598964788
0
ELLIPSE
5
233
100
AcDbEntity
8
1
62
256
6
ByLayer
370
-1
48
1
60
0
100
AcDbEllipse
10
72.453089
20
-51.506344
30
0
11
-0.335790509928407
21
-0.198599298572711
31
0
210
0
220
0
230
1
40
0.492091
41
-1.58029449206436
42
-0.170021030607663
0
ELLIPSE
5
234
100
AcDbEntity
8
1
62
256
6
ByLayer
370
-1
48
1
60
0
100
AcDbEllipse
10
71.72654
20
-50.221959
30
0
11
-0.12710885658427
21
-1.28402392056295
31
0
210
0
220
0
230
1
40
0.984662
41
0.620766087096109
42
1.66796363829271
0
ELLIPSE
5
235
100
AcDbEntity
8
1
62
256
6
ByLayer
370
-1
48
1
60
0
100
AcDbEllipse
10
71.72654
20
-50.221959
30
0
11
-0.12710885658427
21
-1.28402392056295
31
0
210
0
220
0
230
1
40
0.984662
41
1.66796363829266
42
2.71516118948928
0
ELLIPSE
5
236
100
AcDbEntity
8
1
62
256
6
ByLayer
370
-1
48
1
60
0
100
AcDbEllipse
10
72.989471
20
-50.963549
30
0
11
-0.193857669878161
21
-0.341952608842197
31
0
210
0
220
0
230
1
40
0.484716
41
0.897947826113465
42
-3.0918237814831
0
ELLIPSE
5
237
100
AcDbEntity
8
1
62
256
6
ByLayer
370
-1
48
1
60
0
100
AcDbEllipse
10
71.999995
20
-50.249029
30
0
11
0.165143987582635
21
1.66824591213804
31
0
210
0
220
0
230
1
40
0.984662
41
1.14436486269443
42
2.19156241389101
0
ELLIPSE
5
238
100
AcDbEntity
8
1
62
256
6
ByLayer
370
-1
48
1
60
0
100
AcDbEllipse
10
71.999995
20
-50.249029
30
0
11
0.165143987582635
21
1.66824591213804
31
0
210
0
220
0
230
1
40
0.984662
41
0.0971673114978086
42
1.14436486269443
0
ELLIPSE
5
239
100
AcDbEntity
8
1
62
256
6
ByLayer
370
-1
48
1
60
0
100
AcDbEllipse
10
72.460756
20
-48.937573
30
0
11
-0.334789202943872
21
0.198289421907651
31
0
210
0
220
0
230
1
40
0.494673
41
0.168147818324902
42
1.57842127978332
0
ELLIPSE
5
23A
100
AcDbEntity
8
1
62
256
6
ByLayer
370
-1
48
1
60
0
100
AcDbEllipse
10
72.993899
20
-49.480368
30
0
11
-0.191488483430409
21
0.34213690719192
31
0
210
0
220
0
230
1
40
0.487198
41
3.09379216279875
42
-0.918975649491838
0
ELLIPSE
5
23B
100
AcDbEntity
8
1
62
256
6
ByLayer
370
-1
48
1
60
0
100
AcDbEllipse
10
71.72654
20
-50.221959
30
0
11
0.127108856584273
21
1.28402392056294
31
0
210
0
220
0
230
1
40
0.984662
41
0.767324670277925
42
1.36610928308859
0
ELLIPSE
5
23C
100
AcDbEntity
8
1
62
256
6
ByLayer
370
-1
48
1
60
0
100
AcDbEllipse
10
71.999995
20
-50.249029
30
0
11
-0.177319958034325
21
-1.79124471596787
31
0
210
0
220
0
230
1
40
0.984662
41
0
42
6.28318530717959
0
ELLIPSE
5
23D
100
AcDbEntity
8
1
62
256
6
ByLayer
370
-1
48
1
60
0
100
AcDbEllipse
10
71.72654
20
-50.221959
30
0
11
-0.12710885658427
21
-1.28402392056295
31
0
210
0
220
0
230
1
40
0.984662
41
-0.107609258492626
42
0.620766087096129
0
ELLIPSE
5
23E
100
AcDbEntity
8
1
62
256
6
ByLayer
370
-1
48
1
60
0
100
AcDbEllipse
10
71.999995
20
-50.249029
30
0
11
0.165143987582635
21
1.66824591213804
31
0
210
0
220
0
230
1
40
0.984662
41
2.19156241389101
42
-3.04442534209202
0
ELLIPSE
5
23F
100
AcDbEntity
8
1
62
256
6
ByLayer
370
-1
48
1
60
0
100
AcDbEllipse
10
71.999995
20
-50.249029
30
0
11
0.165143987582635
21
1.66824591213804
31
0
210
0
220
0
230
1
40
0.984662
41
-1.99722779089536
42
-0.950030239698774
0
ELLIPSE
5
240
100
AcDbEntity
8
1
62
256
6
ByLayer
370
-1
48
1
60
0
100
AcDbEllipse
10
71.999995
20
-50.249029
30
0
11
0.165143987582635
21
1.66824591213804
31
0
210
0
220
0
230
1
40
0.984662
41
-3.04442534209202
42
-1.99722779089536
0
ELLIPSE
5
241
100
AcDbEntity
8
1
62
256
6
ByLayer
370
-1
48
1
60
0
100
AcDbEllipse
10
73.187305
20
-50.221959
30
0
11
-0.00153284668215095
21
-0.394041092526027
31
0
210
0
220
0
230
1
40
0.482349
41
-1.56891995825805
42
-0.158646496808122
0
ELLIPSE
5
242
100
AcDbEntity
8
1
62
256
6
ByLayer
370
-1
48
1
60
0
100
AcDbEllipse
10
71.774286
20
-50.226685
30
0
11
-0.268442714246406
21
-2.71174547278466
31
0
210
0
220
0
230
1
40
0.984662
41
-3.14153303983024
42
0
0
ELLIPSE
5
243
100
AcDbEntity
8
1
62
256
6
ByLayer
370
-1
48
1
60
0
100
AcDbEllipse
10
71.999995
20
-50.249029
30
0
11
0.165143987582635
21
1.66824591213804
31
0
210
0
220
0
230
1
40
0.984662
41
-0.950030239698774
42
0.0971673114978086
0
ELLIPSE
5
244
100
AcDbEntity
8
1
62
256
6
ByLayer
370
-1
48
1
60
0
100
AcDbEllipse
10
71.72654
20
-50.221959
30
0
11
-0.12710885658427
21
-1.28402392056295
31
0
210
0
220
0
230
1
40
0.984662
41
-1.1378385573563
42
-0.533818023580862
0
ELLIPSE
5
245
100
AcDbEntity
8
1
62
256
6
ByLayer
370
-1
48
1
60
0
100
AcDbEllipse
10
71.989337
20
-50.247974
30
0
11
-0.268442714246405
21
-2.71174547278465
31
0
210
0
220
0
230
1
40
0.984662
41
0
42
6.28318530717959
0
ELLIPSE
5
246
100
AcDbEntity
8
1
62
256
6
ByLayer
370
-1
48
1
60
0
100
AcDbEllipse
10
70.992323
20
-51.506344
30
0
11
-0.334789202942716
21
0.198289421906656
31
0
210
0
220
0
230
1
40
0.494673
41
-0.815285064498736
42
-0.152897912346032
0
ELLIPSE
5
247
100
AcDbEntity
8
1
62
256
6
ByLayer
370
-1
48
1
60
0
100
AcDbEllipse
10
75.776301
20
-47.852762
30
0
11
1.10214571844014E-16
21
1.8
31
0
210
0
220
0
230
1
40
0.173648
41
-0.75429891117151
42
-0.527406108412212
0
ELLIPSE
5
248
100
AcDbEntity
8
1
62
256
6
ByLayer
370
-1
48
1
60
0
100
AcDbEllipse
10
75.959964
20
-47.020649
30
0
11
1.53075794227797E-17
21
0.25
31
0
210
0
220
0
230
1
40
0.173648
41
-2.41236170056585
42
-1.58333030586888
0
ELLIPSE
5
249
100
AcDbEntity
8
1
62
256
6
ByLayer
370
-1
48
1
60
0
100
AcDbEllipse
10
75.780628
20
-45.864834
30
0
11
1.10214571844014E-16
21
1.8
31
0
210
0
220
0
230
1
40
0.173648
41
-2.63925450332539
42
-2.41236170056615
0
ELLIPSE
5
24A
100
AcDbEntity
8
1
62
256
6
ByLayer
370
-1
48
1
60
0
100
AcDbEllipse
10
75.955462
20
-46.081325
30
0
11
1.53075794227797E-17
21
0.25
31
0
210
0
220
0
230
1
40
0.173648
41
2.03075104594599
42
2.61418654517783
0
ELLIPSE
5
24B
100
AcDbEntity
8
1
62
256
6
ByLayer
370
-1
48
1
60
0
100
AcDbEllipse
10
75.952023
20
-47.661575
30
0
11
1.53075794227797E-17
21
0.25
31
0
210
0
220
0
230
1
40
0.173648
41
0.502338150264131
42
1.09015436395409
0
ELLIPSE
5
24C
100
AcDbEntity
8
1
62
256
6
ByLayer
370
-1
48
1
60
0
100
AcDbEllipse
10
75.960612
20
-46.723196
30
0
11
1.53075794227797E-17
21
0.25
31
0
210
0
220
0
230
1
40
0.173648
41
-1.58333030586882
42
-0.754298911171606
0
ELLIPSE
5
24D
100
AcDbEntity
8
1
62
256
6
ByLayer
370
-1
48
1
60
0
100
AcDbEllipse
10
64.931182
20
-55.132013
30
0
11
-1.69999973908296
21
-0.000941869335299331
31
0
210
0
220
0
230
1
40
0.053315
41
0
42
6.28318530717959
0
ELLIPSE
5
24E
100
AcDbEntity
8
1
62
256
6
ByLayer
370
-1
48
1
60
0
100
AcDbEllipse
10
64.931182
20
-55.132013
30
0
11
1.40969978363811
21
0.000781031295274088
31
0
210
0
220
0
230
1
40
0.053315
41
-0.698069240706715
42
0.349128310489874
0
ELLIPSE
5
24F
100
AcDbEntity
8
1
62
256
6
ByLayer
370
-1
48
1
60
0
100
AcDbEllipse
10
64.930572
20
-54.033577
30
0
11
-3.09999952421012
21
-0.00171752643495761
31
0
210
0
220
0
230
1
40
0.053315
41
-1.42353416774677
42
-1.30984948696325
0
ELLIPSE
5
250
100
AcDbEntity
8
1
62
256
6
ByLayer
370
-1
48
1
60
0
100
AcDbEllipse
10
64.931182
20
-55.132013
30
0
11
1.40969978363811
21
0.000781031295274088
31
0
210
0
220
0
230
1
40
0.053315
41
-1.74526679190271
42
-0.698069240706715
0
ELLIPSE
5
251
100
AcDbEntity
8
1
62
256
6
ByLayer
370
-1
48
1
60
0
100
AcDbEllipse
10
64.931182
20
-55.132013
30
0
11
1.40969978363811
21
0.000781031295274088
31
0
210
0
220
0
230
1
40
0.053315
41
2.44352341288296
42
-2.79246434310002
0
ELLIPSE
5
252
100
AcDbEntity
8
1
62
256
6
ByLayer
370
-1
48
1
60
0
100
AcDbEllipse
10
64.931182
20
-55.132013
30
0
11
1.40969978363811
21
0.000781031295274088
31
0
210
0
220
0
230
1
40
0.053315
41
1.39632586168708
42
2.44352341288296
0
ELLIPSE
5
253
100
AcDbEntity
8
1
62
256
6
ByLayer
370
-1
48
1
60
0
100
AcDbEllipse
10
64.931182
20
-55.132013
30
0
11
1.40969978363811
21
0.000781031295274088
31
0
210
0
220
0
230
1
40
0.053315
41
-2.79246434310002
42
-1.74526679190271
0
ELLIPSE
5
254
100
AcDbEntity
8
1
62
256
6
ByLayer
370
-1
48
1
60
0
100
AcDbEllipse
10
64.931182
20
-55.132013
30
0
11
1.40969978363811
21
0.000781031295274088
31
0
210
0
220
0
230
1
40
0.053315
41
0.349128310489874
42
1.39632586168708
0
POINT
5
41
100
AcDbEntity
8
2
62
256
6
ByLayer
370
-1
48
1
60
0
100
AcDbPoint
10
78.676833
20
53.994892
30
0
39
0
210
0
220
0
230
1
50
360
0
POINT
5
43
100
AcDbEntity
8
2
62
256
6
ByLayer
370
-1
48
1
60
0
100
AcDbPoint
10
80.0438
20
54.998517
30
0
39
0
210
0
220
0
230
1
50
360
0
POINT
5
44
100
AcDbEntity
8
80
62
256
6
ByLayer
370
-1
48
1
60
0
100
AcDbPoint
10
0
20
0
30
0
39
0
210
0
220
0
230
1
50
360
0
POINT
5
46
100
AcDbEntity
8
81
62
256
6
ByLayer
370
-1
48
1
60
0
100
AcDbPoint
10
80
20
-55
30
0
39
0
210
0
220
0
230
1
50
360
0
POINT
5
48
100
AcDbEntity
8
2
62
256
6
ByLayer
370
-1
48
1
60
0
100
AcDbPoint
10
80
20
55
30
0
39
0
210
0
220
0
230
1
50
360
0
SPLINE
5
255
100
AcDbEntity
8
SK1
62
256
6
ByLayer
370
-1
48
1
60
0
100
AcDbSpline
70
4
71
2
72
6
73
3
40
0
40
0
40
0
40
1
40
1
40
1
41
1
10
-46.5
20
-26.3937602673102
30
0
41
1
10
-24.349999999999
20
-26.9499705725249
30
0
41
1
10
-2.19999999999999
20
-27.5061808177903
30
0
0
SPLINE
5
256
100
AcDbEntity
8
SK1
62
256
6
ByLayer
370
-1
48
1
60
0
100
AcDbSpline
70
4
71
2
72
6
73
3
40
0
40
0
40
0
40
1
40
1
40
1
41
1
10
-0.224159717647865
20
27.3676216035264
30
0
41
1
10
-0.246472925183554
20
27.387974509361
30
0
41
1
10
-0.394976888875306
20
27.3653849898141
30
0
0
SPLINE
5
257
100
AcDbEntity
8
1
62
256
6
ByLayer
370
-1
48
1
60
0
100
AcDbSpline
70
4
71
3
72
11
73
7
40
0
40
0
40
0
40
0
40
0.186978792987447
40
0.53158738595421
40
0.857751945786792
40
1
40
1
40
1
40
1
41
1
10
67.5669989071075
20
-54.5329420232206
30
0
41
1
10
67.5140703060628
20
-54.5802960437888
30
0
41
1
10
67.3604052606244
20
-54.7109765551635
30
0
41
1
10
67.0924491437816
20
-54.8974543568887
30
0
41
1
10
66.8236776359327
20
-55.0512508712156
30
0
41
1
10
66.6603109212408
20
-55.1214230212494
30
0
41
1
10
66.6100112493823
20
-55.1413810453638
30
0
0
SPLINE
5
258
100
AcDbEntity
8
SK1
62
256
6
ByLayer
370
-1
48
1
60
0
100
AcDbSpline
70
4
71
2
72
6
73
3
40
0
40
0
40
0
40
1
40
1
40
1
41
1
10
-0.394976888875277
20
-27.3653849865937
30
0
41
1
10
-0.246723667353393
20
-27.3878893822225
30
0
41
1
10
-0.223871815739955
20
-27.367719629979
30
0
0
SPLINE
5
259
100
AcDbEntity
8
1
62
256
6
ByLayer
370
-1
48
1
60
0
100
AcDbSpline
70
4
71
3
72
11
73
7
40
0
40
0
40
0
40
0
40
0.035357543646438
40
0.461449792549952
40
0.875333737410236
40
1
40
1
40
1
40
1
41
1
10
63.0566559250847
20
-55.0525768492422
30
0
41
1
10
63.0450947009727
20
-55.0477693808495
30
0
41
1
10
62.8948962504632
20
-54.9837633663892
30
0
41
1
10
62.6345496800801
20
-54.8103814302244
30
0
41
1
10
62.3652918031763
20
-54.6014582079441
30
0
41
1
10
62.2235038508842
20
-54.473432806021
30
0
41
1
10
62.1913103747544
20
-54.4431237325982
30
0
0
SPLINE
5
25A
100
AcDbEntity
8
1
62
256
6
ByLayer
370
-1
48
1
60
0
100
AcDbSpline
70
4
71
1
72
4
73
2
40
0
40
0
40
1
40
1
41
1
10
75.6070677832128
20
-45.7265320278425
30
0
41
1
10
75.0987252266242
20
-45.5610791710432
30
0
0
SPLINE
5
25B
100
AcDbEntity
8
SK1
62
256
6
ByLayer
370
-1
48
1
60
0
100
AcDbSpline
70
4
71
2
72
6
73
3
40
0
40
0
40
0
40
1
40
1
40
1
41
1
10
-2.19999999999999
20
27.506180857905
30
0
41
1
10
-24.349999999999
20
26.9499706126624
30
0
41
1
10
-46.5
20
26.3937603074471
30
0
0
SPLINE
5
25C
100
AcDbEntity
8
SK1
62
256
6
ByLayer
370
-1
48
1
60
0
100
AcDbSpline
70
4
71
3
72
13
73
9
40
0
40
0
40
0
40
0
40
0.239456135584151
40
0.368359721689697
40
0.499998983747864
40
0.631638415023655
40
0.760542467572988
40
1
40
1
40
1
40
1
41
1
10
-2.19999999999999
20
-27.5200986604247
30
0
41
1
10
-2.19909198642043
20
-27.4940411843415
30
0
41
1
10
-2.19103284106723
20
-27.4566686000527
30
0
41
1
10
-2.16563592203016
20
-27.4104494262793
30
0
41
1
10
-2.13886378678791
20
-27.3791678724618
30
0
41
1
10
-2.10627712749306
20
-27.3540005022953
30
0
41
1
10
-2.05884064232873
20
-27.3309566998601
30
0
41
1
10
-2.02111030872422
20
-27.3247844448489
30
0
41
1
10
-1.99503997793928
20
-27.3251860847967
30
0
0
SPLINE
5
25D
100
AcDbEntity
8
SK1
62
256
6
ByLayer
370
-1
48
1
60
0
100
AcDbSpline
70
4
71
3
72
13
73
9
40
0
40
0
40
0
40
0
40
0.239457532422282
40
0.368361584969825
40
0.500001016244842
40
0.631640278303507
40
0.760543864410677
40
1
40
1
40
1
40
1
41
1
10
-1.99503997793928
20
27.3251860880175
30
0
41
1
10
-2.0211103087243
20
27.3247844480698
30
0
41
1
10
-2.05884064232888
20
27.3309567030812
30
0
41
1
10
-2.1062771274932
20
27.3540005055177
30
0
41
1
10
-2.13886378678805
20
27.3791678756855
30
0
41
1
10
-2.16563592203025
20
27.4104494295044
30
0
41
1
10
-2.19103284106731
20
27.4566686032802
30
0
41
1
10
-2.19909198642051
20
27.4940411875707
30
0
41
1
10
-2.19999999999999
20
27.520098663655
30
0
0
SPLINE
5
25E
100
AcDbEntity
8
SK1
62
256
6
ByLayer
370
-1
48
1
60
0
100
AcDbSpline
70
4
71
2
72
6
73
3
40
0
40
0
40
0
40
1
40
1
40
1
41
1
10
-1.99503997793928
20
-27.3251858108711
30
0
41
1
10
-1.19500843340728
20
-27.3452852614966
30
0
41
1
10
-0.394976888875277
20
-27.3653847121227
30
0
0
SPLINE
5
25F
100
AcDbEntity
8
SK1
62
256
6
ByLayer
370
-1
48
1
60
0
100
AcDbSpline
70
4
71
2
72
6
73
3
40
0
40
0
40
0
40
1
40
1
40
1
41
1
10
-0.394976888875277
20
27.3653847152514
30
0
41
1
10
-1.19500843340728
20
27.3452852646243
30
0
41
1
10
-1.99503997793928
20
27.3251858139979
30
0
0
SPLINE
5
260
100
AcDbEntity
8
SK1
62
256
6
ByLayer
370
-1
48
1
60
0
100
AcDbSpline
70
4
71
2
72
6
73
3
40
0
40
0
40
0
40
1
40
1
40
1
41
1
10
-46.5
20
26.407103720226
30
0
41
1
10
-47.2499999994058
20
25.9740938984544
30
0
41
1
10
-48
20
25.5410840926423
30
0
0
SPLINE
5
261
100
AcDbEntity
8
SK1
62
256
6
ByLayer
370
-1
48
1
60
0
100
AcDbSpline
70
4
71
2
72
6
73
3
40
0
40
0
40
0
40
1
40
1
40
1
41
1
10
-48
20
-25.5410841061086
30
0
41
1
10
-47.249999999406
20
-25.9740939119354
30
0
41
1
10
-46.5
20
-26.4071037337151
30
0
0
SPLINE
5
262
100
AcDbEntity
8
1
62
256
6
ByLayer
370
-1
48
1
60
0
100
AcDbSpline
70
4
71
3
72
16
73
12
40
0
40
0
40
0
40
0
40
0.463076323289524
40
0.463076323289524
40
0.645417922138982
40
0.645417922138982
40
0.830321639273368
40
0.830321639273368
40
0.944651290970226
40
0.944651290970226
40
1
40
1
40
1
40
1
41
1
10
13.8943375672974
20
12.6576002058704
30
0
41
1
10
13.8656875508894
20
12.5522940543948
30
0
41
1
10
13.8264948630637
20
12.4476658274361
30
0
41
1
10
13.7459038605709
20
12.3160508976659
30
0
41
1
10
13.7197885089044
20
12.2800720868289
30
0
41
1
10
13.6590638298545
20
12.2151290969611
30
0
41
1
10
13.6235548234213
20
12.1854983827961
30
0
41
1
10
13.5583782361154
20
12.1514192676284
30
0
41
1
10
13.531022511649
20
12.1415603847926
30
0
41
1
10
13.4892613583295
20
12.1343167157599
30
0
41
1
10
13.4752661839161
20
12.1330899674705
30
0
41
1
10
13.4613248654052
20
12.1330899674705
30
0
0
SPLINE
5
263
100
AcDbEntity
8
1
62
256
6
ByLayer
370
-1
48
1
60
0
100
AcDbSpline
70
4
71
3
72
16
73
12
40
0
40
0
40
0
40
0
40
0.463076323289495
40
0.463076323289495
40
0.645417922138952
40
0.645417922138952
40
0.830321639273342
40
0.830321639273342
40
0.944651290970198
40
0.944651290970198
40
1
40
1
40
1
40
1
41
1
10
10.1056624327026
20
-12.6576002058704
30
0
41
1
10
10.1343124491107
20
-12.5522940543948
30
0
41
1
10
10.1735051369363
20
-12.4476658274362
30
0
41
1
10
10.2540961394291
20
-12.316050897666
30
0
41
1
10
10.2802114910956
20
-12.2800720868289
30
0
41
1
10
10.3409361701455
20
-12.2151290969611
30
0
41
1
10
10.3764451765787
20
-12.1854983827961
30
0
41
1
10
10.4416217638846
20
-12.1514192676284
30
0
41
1
10
10.468977488351
20
-12.1415603847926
30
0
41
1
10
10.5107386416705
20
-12.1343167157599
30
0
41
1
10
10.5247338160839
20
-12.1330899674706
30
0
41
1
10
10.5386751345948
20
-12.1330899674706
30
0
0
SPLINE
5
264
100
AcDbEntity
8
1
62
256
6
ByLayer
370
-1
48
1
60
0
100
AcDbSpline
70
4
71
3
72
16
73
12
40
0
40
0
40
0
40
0
40
0.111412770144079
40
0.111412770144079
40
0.248965452398464
40
0.248965452398464
40
0.467123877727682
40
0.467123877727682
40
0.889866934614089
40
0.889866934614089
40
1
40
1
40
1
40
1
41
1
10
10.5386751345948
20
12.1330899674707
30
0
41
1
10
10.5108974058611
20
12.1330899674707
30
0
41
1
10
10.4827743882888
20
12.1381298129189
30
0
41
1
10
10.4244336825547
20
12.1582682733016
30
0
41
1
10
10.3942835753398
20
12.1755507890901
30
0
41
1
10
10.3250538187423
20
12.2280340568692
30
0
41
1
10
10.2893056457258
20
12.2684634146654
30
0
41
1
10
10.2004891336895
20
12.3937525277222
30
0
41
1
10
10.1593775082021
20
12.4875806371415
30
0
41
1
10
10.1200174011447
20
12.6072726192704
30
0
41
1
10
10.1125270066363
20
12.6323687416998
30
0
41
1
10
10.1056624327025
20
12.6576002058703
30
0
0
SPLINE
5
265
100
AcDbEntity
8
1
62
256
6
ByLayer
370
-1
48
1
60
0
100
AcDbSpline
70
4
71
3
72
16
73
12
40
0
40
0
40
0
40
0
40
0.463076323289435
40
0.463076323289435
40
0.645417922138904
40
0.645417922138904
40
0.830321639273306
40
0.830321639273306
40
0.944651290970179
40
0.944651290970179
40
1
40
1
40
1
40
1
41
1
10
10.1056624327026
20
37.9445010117191
30
0
41
1
10
10.1343124491107
20
37.9796292418725
30
0
41
1
10
10.1735051369363
20
38.0140162383101
30
0
41
1
10
10.2540961394291
20
38.0567528229612
30
0
41
1
10
10.2802114910956
20
38.0683724898051
30
0
41
1
10
10.3409361701455
20
38.0892608704532
30
0
41
1
10
10.3764451765787
20
38.0987416550407
30
0
41
1
10
10.4416217638846
20
38.1096208051146
30
0
41
1
10
10.468977488351
20
38.112760822145
30
0
41
1
10
10.5107386416705
20
38.1150674153361
30
0
41
1
10
10.5247338160839
20
38.1154578595255
30
0
41
1
10
10.5386751345948
20
38.1154578595255
30
0
0
SPLINE
5
266
100
AcDbEntity
8
1
62
256
6
ByLayer
370
-1
48
1
60
0
100
AcDbSpline
70
4
71
3
72
8
73
4
40
0
40
0
40
0
40
0
40
1
40
1
40
1
40
1
41
1
10
34.8699128666349
20
-54.4084873016886
30
0
41
1
10
33.550764062472
20
-49.4555123148305
30
0
41
1
10
32.2333666972481
20
-44.5020908449472
30
0
41
1
10
30.92079238
20
-39.5474398665704
30
0
0
SPLINE
5
267
100
AcDbEntity
8
1
62
256
6
ByLayer
370
-1
48
1
60
0
100
AcDbSpline
70
4
71
3
72
16
73
12
40
0
40
0
40
0
40
0
40
0.111412770144064
40
0.111412770144064
40
0.248965452398448
40
0.248965452398448
40
0.467123877727643
40
0.467123877727643
40
0.889866934613992
40
0.889866934613992
40
1
40
1
40
1
40
1
41
1
10
13.4613248654052
20
38.1154578595255
30
0
41
1
10
13.4891025941389
20
38.1154578595255
30
0
41
1
10
13.5172256117112
20
38.1138543599704
30
0
41
1
10
13.5755663174453
20
38.1074356116134
30
0
41
1
10
13.6057164246602
20
38.1019214555357
30
0
41
1
10
13.6749461812577
20
38.0851194427551
30
0
41
1
10
13.7106943542742
20
38.0721266199021
30
0
41
1
10
13.7995108663105
20
38.0315976751082
30
0
41
1
10
13.8406224917979
20
38.0009250413257
30
0
41
1
10
13.8799825988553
20
37.9612613686127
30
0
41
1
10
13.8874729933637
20
37.9529177724503
30
0
41
1
10
13.8943375672975
20
37.9445010117191
30
0
0
SPLINE
5
268
100
AcDbEntity
8
1
62
256
6
ByLayer
370
-1
48
1
60
0
100
AcDbSpline
70
4
71
3
72
16
73
12
40
0
40
0
40
0
40
0
40
0.111412770144068
40
0.111412770144068
40
0.248965452398454
40
0.248965452398454
40
0.46712387772767
40
0.46712387772767
40
0.889866934614038
40
0.889866934614038
40
1
40
1
40
1
40
1
41
1
10
13.4613248654052
20
-12.1330899674707
30
0
41
1
10
13.489102594139
20
-12.1330899674707
30
0
41
1
10
13.5172256117112
20
-12.1381298129189
30
0
41
1
10
13.5755663174453
20
-12.1582682733016
30
0
41
1
10
13.6057164246602
20
-12.1755507890901
30
0
41
1
10
13.6749461812577
20
-12.2280340568692
30
0
41
1
10
13.7106943542742
20
-12.2684634146654
30
0
41
1
10
13.7995108663105
20
-12.3937525277222
30
0
41
1
10
13.8406224917979
20
-12.4875806371415
30
0
41
1
10
13.8799825988554
20
-12.6072726192704
30
0
41
1
10
13.8874729933637
20
-12.6323687416998
30
0
41
1
10
13.8943375672975
20
-12.6576002058703
30
0
0
SPLINE
5
269
100
AcDbEntity
8
1
62
256
6
ByLayer
370
-1
48
1
60
0
100
AcDbSpline
70
4
71
3
72
16
73
12
40
0
40
0
40
0
40
0
40
0.111412770144075
40
0.111412770144075
40
0.248965452398453
40
0.248965452398453
40
0.467123877727669
40
0.467123877727669
40
0.88986693461412
40
0.88986693461412
40
1
40
1
40
1
40
1
41
1
10
10.5386751345948
20
-38.1154578595255
30
0
41
1
10
10.5108974058611
20
-38.1154578595255
30
0
41
1
10
10.4827743882888
20
-38.1138543599703
30
0
41
1
10
10.4244336825547
20
-38.1074356116134
30
0
41
1
10
10.3942835753398
20
-38.1019214555357
30
0
41
1
10
10.3250538187423
20
-38.0851194427551
30
0
41
1
10
10.2893056457258
20
-38.0721266199021
30
0
41
1
10
10.2004891336895
20
-38.0315976751082
30
0
41
1
10
10.1593775082021
20
-38.0009250413257
30
0
41
1
10
10.1200174011447
20
-37.9612613686127
30
0
41
1
10
10.1125270066363
20
-37.9529177724503
30
0
41
1
10
10.1056624327025
20
-37.9445010117191
30
0
0
SPLINE
5
26A
100
AcDbEntity
8
1
62
256
6
ByLayer
370
-1
48
1
60
0
100
AcDbSpline
70
4
71
3
72
8
73
4
40
0
40
0
40
0
40
0
40
1
40
1
40
1
40
1
41
1
10
34.8699128666349
20
-54.4084873016886
30
0
41
1
10
34.8014853779038
20
-54.3741185081061
30
0
41
1
10
34.7641923368785
20
-54.3398766102975
30
0
41
1
10
34.7568354109935
20
-54.3057567241762
30
0
0
SPLINE
5
26B
100
AcDbEntity
8
1
62
256
6
ByLayer
370
-1
48
1
60
0
100
AcDbSpline
70
4
71
3
72
17
73
13
40
0
40
0
40
0
40
0
40
0.232086715900364
40
0.232086715900364
40
0.464490024297326
40
0.464490024297326
40
0.692352325502115
40
0.692352325502115
40
0.916680415259591
40
0.916680415259591
40
0.916680415259591
40
1
40
1
40
1
40
1
41
1
10
20.6551604635841
20
38.8181777192582
30
0
41
1
10
20.6941831266929
20
38.929074581909
30
0
41
1
10
20.8109702974228
20
39.0318514650389
30
0
41
1
10
21.1857800857309
20
39.2078035813596
30
0
41
1
10
21.4493876222634
20
39.2834993074244
30
0
41
1
10
22.0804051315272
20
39.402879041662
30
0
41
1
10
22.4545127287288
20
39.4490026591144
30
0
41
1
10
23.2570463512708
20
39.5138821493145
30
0
41
1
10
23.6956264183665
20
39.5340934428839
30
0
41
1
10
24.1379021127105
20
39.5426280978274
30
0
41
1
10
24.3042308482503
20
39.5458377663287
30
0
41
1
10
24.4722540624217
20
39.5474398665704
30
0
41
1
10
24.6399392559511
20
39.5474398665704
30
0
0
SPLINE
5
26C
100
AcDbEntity
8
1
62
256
6
ByLayer
370
-1
48
1
60
0
100
AcDbSpline
70
4
71
3
72
16
73
12
40
0
40
0
40
0
40
0
40
0.223037133104125
40
0.223037133104125
40
0.446040168269414
40
0.446040168269414
40
0.669593216871861
40
0.669593216871861
40
0.895410522059712
40
0.895410522059712
40
1
40
1
40
1
40
1
41
1
10
24.6399392559511
20
-39.5474398665704
30
0
41
1
10
24.196744473572
20
-39.5474398665704
30
0
41
1
10
23.7474373264757
20
-39.5361379120506
30
0
41
1
10
22.9111297646213
20
-39.4904744620389
30
0
41
1
10
22.5126451154133
20
-39.4553781375882
30
0
41
1
10
21.8192148804326
20
-39.3604416147488
30
0
41
1
10
21.5150994352779
20
-39.2990867784027
30
0
41
1
10
21.037923235652
20
-39.1512353055668
30
0
41
1
10
20.8597161405178
20
-39.0623720270124
30
0
41
1
10
20.7064351075849
20
-38.9174264742443
30
0
41
1
10
20.6729372404353
20
-38.8686967926323
30
0
41
1
10
20.6551604635841
20
-38.8181777192582
30
0
0
SPLINE
5
26D
100
AcDbEntity
8
1
62
256
6
ByLayer
370
-1
48
1
60
0
100
AcDbSpline
70
4
71
3
72
16
73
12
40
0
40
0
40
0
40
0
40
0.463076323289429
40
0.463076323289429
40
0.645417922138913
40
0.645417922138913
40
0.830321639273325
40
0.830321639273325
40
0.944651290970197
40
0.944651290970197
40
1
40
1
40
1
40
1
41
1
10
13.8943375672974
20
-37.9445010117191
30
0
41
1
10
13.8656875508894
20
-37.9796292418725
30
0
41
1
10
13.8264948630637
20
-38.0140162383101
30
0
41
1
10
13.7459038605709
20
-38.0567528229612
30
0
41
1
10
13.7197885089044
20
-38.0683724898051
30
0
41
1
10
13.6590638298545
20
-38.0892608704532
30
0
41
1
10
13.6235548234214
20
-38.0987416550407
30
0
41
1
10
13.5583782361154
20
-38.1096208051146
30
0
41
1
10
13.531022511649
20
-38.112760822145
30
0
41
1
10
13.4892613583295
20
-38.1150674153361
30
0
41
1
10
13.4752661839161
20
-38.1154578595255
30
0
41
1
10
13.4613248654052
20
-38.1154578595255
30
0
0
SPLINE
5
26E
100
AcDbEntity
8
1
62
256
6
ByLayer
370
-1
48
1
60
0
100
AcDbSpline
70
4
71
3
72
8
73
4
40
0
40
0
40
0
40
0
40
1
40
1
40
1
40
1
41
1
10
71.814172898188
20
-41.5419934408933
30
0
41
1
10
71.9690436341074
20
-41.6188421351495
30
0
41
1
10
72.1198947418532
20
-41.6947132195228
30
0
41
1
10
72.2672728214538
20
-41.7694865432731
30
0
0
SPLINE
5
26F
100
AcDbEntity
8
SK1
62
256
6
ByLayer
370
-1
48
1
60
0
100
AcDbSpline
70
4
71
3
72
24
73
20
40
0
40
0
40
0
40
0
40
0.492398027467297
40
0.492398027467297
40
0.668310127338888
40
0.668310127338888
40
0.846552263551715
40
0.846552263551715
40
0.878720061957177
40
0.878720061957177
40
0.911383033672033
40
0.911383033672033
40
0.931691696537726
40
0.931691696537726
40
0.952093014736929
40
0.952093014736929
40
0.977060216128482
40
0.977060216128482
40
1
40
1
40
1
40
1
41
1
10
-0.199999999999989
20
6.57657332251964
30
0
41
1
10
-0.199999999999989
20
6.44656682134715
30
0
41
1
10
-0.204502849321955
20
6.31531168325708
30
0
41
1
10
-0.22658226632123
20
6.13779637612024
30
0
41
1
10
-0.233974873652613
20
6.09095488980503
30
0
41
1
10
-0.255353240585578
20
5.99815512584252
30
0
41
1
10
-0.268322675838249
20
5.95031064681498
30
0
41
1
10
-0.298180738230542
20
5.90175502052423
30
0
41
1
10
-0.303352297620847
20
5.89445922534449
30
0
41
1
10
-0.315220218164853
20
5.88122229558002
30
0
41
1
10
-0.322100367577747
20
5.8751473394189
30
0
41
1
10
-0.334669352278866
20
5.86818428946984
30
0
41
1
10
-0.339945766887325
20
5.86618567675112
30
0
41
1
10
-0.350686231006961
20
5.86421072309605
30
0
41
1
10
-0.356276575016608
20
5.86423055154356
30
0
41
1
10
-0.368095241519796
20
5.86629174119176
30
0
41
1
10
-0.374371038114703
20
5.86876466767734
30
0
41
1
10
-0.385406500566859
20
5.87491523412279
30
0
41
1
10
-0.390359298661082
20
5.87852089336147
30
0
41
1
10
-0.394976888875476
20
5.88246902087073
30
0
0
SPLINE
5
270
100
AcDbEntity
8
SK1
62
256
6
ByLayer
370
-1
48
1
60
0
100
AcDbSpline
70
4
71
3
72
22
73
18
40
0
40
0
40
0
40
0
40
0.0276166365282319
40
0.0276166365282319
40
0.0512803322740547
40
0.0512803322740547
40
0.0708603965379409
40
0.0708603965379409
40
0.090380093346293
40
0.090380093346293
40
0.120092976656525
40
0.120092976656525
40
0.17636244514628
40
0.17636244514628
40
0.365833743480983
40
0.365833743480983
40
1
40
1
40
1
40
1
41
1
10
-0.394976888875306
20
-5.8824691645265
30
0
41
1
10
-0.389431041122748
20
-5.87772735505641
30
0
41
1
10
-0.383385953788945
20
-5.87346388577339
30
0
41
1
10
-0.371253136804086
20
-5.86750502434097
30
0
41
1
10
-0.365168155452693
20
-5.86550357178899
30
0
41
1
10
-0.353783340186652
20
-5.86416305490636
30
0
41
1
10
-0.348415700631762
20
-5.8644368109656
30
0
41
1
10
-0.338160192115595
20
-5.86679920261022
30
0
41
1
10
-0.333157430693546
20
-5.8688948004563
30
0
41
1
10
-0.321590654821335
20
-5.87567407240635
30
0
41
1
10
-0.315341997586501
20
-5.88118861362102
30
0
41
1
10
-0.299493306550033
20
-5.89858604824292
30
0
41
1
10
-0.291331302219049
20
-5.91203800602841
30
0
41
1
10
-0.261121692327634
20
-5.97162491315763
30
0
41
1
10
-0.248739051700483
20
-6.0224672435852
30
0
41
1
10
-0.204967444810421
20
-6.23921058743332
30
0
41
1
10
-0.200000000000131
20
-6.40949348740787
30
0
41
1
10
-0.200000000000131
20
-6.5765733851174
30
0
0
SPLINE
5
271
100
AcDbEntity
8
SK1
62
256
6
ByLayer
370
-1
48
1
60
0
100
AcDbSpline
70
4
71
3
72
108
73
104
40
0
40
0
40
0
40
0
40
0.0065954664925958
40
0.0145537795416519
40
0.0225120925907081
40
0.0304704056397642
40
0.0384287186888204
40
0.0463870317378765
40
0.0543453447869327
40
0.0623036578359888
40
0.070261970885045
40
0.0782202839341012
40
0.0861785969831573
40
0.0941369100322135
40
0.10209522308127
40
0.110053536130326
40
0.118011849179382
40
0.125970162228438
40
0.133928475277494
40
0.14188678832655
40
0.157803414424663
40
0.165761727473719
40
0.173720040522775
40
0.181678353571831
40
0.189636666620887
40
0.197594979669943
40
0.205553292719
40
0.221469918817112
40
0.229428231866168
40
0.237386544915224
40
0.24534485796428
40
0.253303171013337
40
0.261261484062393
40
0.269219797111449
40
0.277178110160505
40
0.285136423209561
40
0.293094736258617
40
0.301053049307674
40
0.30901136235673
40
0.316969675405786
40
0.332886301503898
40
0.340844614552954
40
0.34880292760201
40
0.364719553700123
40
0.380636179798235
40
0.388594492847291
40
0.396552805896347
40
0.41246943199446
40
0.428386058092572
40
0.436344371141628
40
0.444302684190684
40
0.460219310288796
40
0.476135936386909
40
0.492052562485021
40
0.500010875534077
40
0.507969188583134
40
0.523885814681246
40
0.539802440779358
40
0.55571906687747
40
0.571635692975583
40
0.587552319073695
40
0.603468945171807
40
0.611427258220864
40
0.61938557126992
40
0.635302197368032
40
0.651218823466144
40
0.667135449564257
40
0.675093762613313
40
0.683052075662369
40
0.698968701760481
40
0.714885327858593
40
0.72284364090765
40
0.730801953956706
40
0.746718580054818
40
0.754676893103874
40
0.76263520615293
40
0.770593519201987
40
0.778551832251043
40
0.786510145300099
40
0.794468458349155
40
0.802426771398211
40
0.810385084447267
40
0.818343397496324
40
0.82630171054538
40
0.842218336643492
40
0.850176649692548
40
0.858134962741604
40
0.86609327579066
40
0.874051588839717
40
0.882009901888773
40
0.889968214937829
40
0.897926527986885
40
0.905884841035941
40
0.921801467134054
40
0.937718093232166
40
0.945676406281222
40
0.953634719330278
40
0.961593032379334
40
0.96955134542839
40
0.977509658477447
40
0.985467971526503
40
0.993426284575559
40
1
40
1
40
1
40
1
41
1
10
-0.394976888875277
20
5.88246902087039
30
0
41
1
10
-0.394976888875277
20
5.96764081676272
30
0
41
1
10
-0.394976888875277
20
6.15502922001536
30
0
41
1
10
-0.394976888875277
20
6.44325211457954
30
0
41
1
10
-0.394976888875277
20
6.74692776639381
30
0
41
1
10
-0.394976888875277
20
7.04859940546743
30
0
41
1
10
-0.394976888875277
20
7.34825967305403
30
0
41
1
10
-0.394976888875277
20
7.6459029106087
30
0
41
1
10
-0.394976888875277
20
7.94152452378475
30
0
41
1
10
-0.394976888875277
20
8.23512129465951
30
0
41
1
10
-0.394976888875277
20
8.52669016160959
30
0
41
1
10
-0.394976888875277
20
8.81622852741523
30
0
41
1
10
-0.394976888875277
20
9.10373459403795
30
0
41
1
10
-0.394976888875277
20
9.38920804768813
30
0
41
1
10
-0.394976888875277
20
9.67264665656018
30
0
41
1
10
-0.394976888875277
20
9.95404994902185
30
0
41
1
10
-0.394976888875277
20
10.2334171002114
30
0
41
1
10
-0.394976888875277
20
10.5107477406375
30
0
41
1
10
-0.394976888875277
20
10.7860413322607
30
0
41
1
10
-0.394976888875277
20
11.1504804686583
30
0
41
1
10
-0.394976888875277
20
11.510559499462
30
0
41
1
10
-0.394976888875277
20
11.8668344908947
30
0
41
1
10
-0.394976888875277
20
12.1319348433318
30
0
41
1
10
-0.394976888875277
20
12.394994711819
30
0
41
1
10
-0.394976888875277
20
12.6560136616419
30
0
41
1
10
-0.394976888875277
20
12.9149898191478
30
0
41
1
10
-0.394976888875277
20
13.2576504430446
30
0
41
1
10
-0.394976888875277
20
13.5959808223858
30
0
41
1
10
-0.394976888875277
20
13.9304519465026
30
0
41
1
10
-0.394976888875277
20
14.1791991512309
30
0
41
1
10
-0.394976888875277
20
14.4258961711575
30
0
41
1
10
-0.394976888875277
20
14.6705410811659
30
0
41
1
10
-0.394976888875277
20
14.9131307685779
30
0
41
1
10
-0.394976888875277
20
15.1536643460738
30
0
41
1
10
-0.394976888875277
20
15.3921386948648
30
0
41
1
10
-0.394976888875277
20
15.6285506275557
30
0
41
1
10
-0.394976888875277
20
15.8628987186173
30
0
41
1
10
-0.394976888875277
20
16.0951789631496
30
0
41
1
10
-0.394976888875277
20
16.3253880002473
30
0
41
1
10
-0.394976888875277
20
16.6296334992457
30
0
41
1
10
-0.394976888875277
20
16.9295333224765
30
0
41
1
10
-0.394976888875277
20
17.2254485394535
30
0
41
1
10
-0.394976888875277
20
17.518577967088
30
0
41
1
10
-0.394976888875277
20
17.8796208126314
30
0
41
1
10
-0.394976888875277
20
18.2336536000934
30
0
41
1
10
-0.394976888875277
20
18.5127557087222
30
0
41
1
10
-0.394976888875277
20
18.7890328610688
30
0
41
1
10
-0.394976888875277
20
19.1289452123206
30
0
41
1
10
-0.394976888875277
20
19.4617376771832
30
0
41
1
10
-0.394976888875277
20
19.7237678591314
30
0
41
1
10
-0.394976888875277
20
19.98292351444
30
0
41
1
10
-0.394976888875277
20
20.3013474407322
30
0
41
1
10
-0.394976888875277
20
20.6748062131765
30
0
41
1
10
-0.394976888875277
20
20.9786637930718
30
0
41
1
10
-0.394976888875277
20
21.2174142750283
30
0
41
1
10
-0.394976888875277
20
21.4532059051397
30
0
41
1
10
-0.394976888875277
20
21.7422733658897
30
0
41
1
10
-0.394976888875277
20
22.0802205845281
30
0
41
1
10
-0.394976888875277
20
22.4090991764391
30
0
41
1
10
-0.394976888875277
20
22.7288230573926
30
0
41
1
10
-0.394976888875277
20
23.0393009260323
30
0
41
1
10
-0.394976888875277
20
23.2902077752037
30
0
41
1
10
-0.394976888875277
20
23.4862798879298
30
0
41
1
10
-0.394976888875277
20
23.6791846798372
30
0
41
1
10
-0.394976888875277
20
23.9142591539289
30
0
41
1
10
-0.394976888875277
20
24.1867224862229
30
0
41
1
10
-0.394976888875277
20
24.4055794195024
30
0
41
1
10
-0.394976888875277
20
24.5757644956797
30
0
41
1
10
-0.394976888875277
20
24.7426176867451
30
0
41
1
10
-0.394976888875277
20
24.9448199449114
30
0
41
1
10
-0.394976888875277
20
25.1385155622326
30
0
41
1
10
-0.394976888875277
20
25.2883441368503
30
0
41
1
10
-0.394976888875277
20
25.4346883615025
30
0
41
1
10
-0.394976888875277
20
25.5756766141878
30
0
41
1
10
-0.394976888875277
20
25.7113960827791
30
0
41
1
10
-0.394976888875277
20
25.810462366076
30
0
41
1
10
-0.394976888875277
20
25.9068022246068
30
0
41
1
10
-0.394976888875277
20
26.0003919383211
30
0
41
1
10
-0.394976888875277
20
26.0912052550724
30
0
41
1
10
-0.394976888875277
20
26.1792140413985
30
0
41
1
10
-0.394976888875277
20
26.2643925510642
30
0
41
1
10
-0.394976888875277
20
26.3467113173234
30
0
41
1
10
-0.394976888875277
20
26.4261397450501
30
0
41
1
10
-0.394976888875277
20
26.5281744271217
30
0
41
1
10
-0.394976888875277
20
26.6242375172272
30
0
41
1
10
-0.394976888875277
20
26.7143277513073
30
0
41
1
10
-0.394976888875277
20
26.778823083505
30
0
41
1
10
-0.394976888875277
20
26.8402262140422
30
0
41
1
10
-0.394976888875277
20
26.8984983240354
30
0
41
1
10
-0.394976888875277
20
26.9535980812345
30
0
41
1
10
-0.394976888875277
20
27.0054853002076
30
0
41
1
10
-0.394976888875277
20
27.0541147524053
30
0
41
1
10
-0.394976888875277
20
27.1145655815875
30
0
41
1
10
-0.394976888875277
20
27.1817216133088
30
0
41
1
10
-0.394976888875277
20
27.2373772549269
30
0
41
1
10
-0.394976888875277
20
27.2747954442536
30
0
41
1
10
-0.394976888875277
20
27.299228260346
30
0
41
1
10
-0.394976888875277
20
27.3199753422425
30
0
41
1
10
-0.394976888875277
20
27.3369711498757
30
0
41
1
10
-0.394976888875277
20
27.3501458297252
30
0
41
1
10
-0.394976888875277
20
27.3594269422325
30
0
41
1
10
-0.394976888875277
20
27.3644289480325
30
0
41
1
10
-0.394976888875249
20
27.365409341314
30
0
41
1
10
-0.394976888875306
20
27.3653839591146
30
0
0
SPLINE
5
272
100
AcDbEntity
8
SK1
62
256
6
ByLayer
370
-1
48
1
60
0
100
AcDbSpline
70
4
71
3
72
110
73
106
40
0
40
0
40
0
40
0
40
0.0065857582739974
40
0.0145439748724774
40
0.0225021914709573
40
0.0304604080694372
40
0.0384186246679171
40
0.046376841266397
40
0.0543350578648769
40
0.0622932744633568
40
0.0782097076603167
40
0.0941261408572765
40
0.102084357455756
40
0.110042574054236
40
0.118000790652716
40
0.125959007251196
40
0.133917223849676
40
0.141875440448156
40
0.149833657046636
40
0.157791873645116
40
0.173708306842076
40
0.181666523440556
40
0.189624740039036
40
0.197582956637515
40
0.205541173235995
40
0.213499389834475
40
0.221457606432955
40
0.229415823031435
40
0.237374039629915
40
0.245332256228395
40
0.253290472826875
40
0.261248689425355
40
0.265227797724595
40
0.269206906023835
40
0.277165122622315
40
0.285123339220795
40
0.301039772417754
40
0.316956205614714
40
0.324914422213194
40
0.332872638811674
40
0.348789072008634
40
0.364705505205594
40
0.380621938402553
40
0.388580155001033
40
0.396538371599513
40
0.412454804796473
40
0.428371237993433
40
0.444287671190393
40
0.460204104387353
40
0.476120537584313
40
0.492036970781272
40
0.499995187379752
40
0.507953403978232
40
0.523869837175192
40
0.539786270372152
40
0.555702703569112
40
0.563660920167592
40
0.571619136766072
40
0.587535569963031
40
0.603452003159991
40
0.611410219758471
40
0.619368436356951
40
0.635284869553911
40
0.651201302750871
40
0.659159519349351
40
0.667117735947831
40
0.68303416914479
40
0.69099238574327
40
0.69895060234175
40
0.70292971064099
40
0.70690881894023
40
0.71486703553871
40
0.72282525213719
40
0.73078346873567
40
0.73874168533415
40
0.74669990193263
40
0.75465811853111
40
0.76261633512959
40
0.77057455172807
40
0.77853276832655
40
0.794449201523509
40
0.802407418121989
40
0.810365634720469
40
0.818323851318949
40
0.826282067917429
40
0.834240284515909
40
0.842198501114389
40
0.858114934311349
40
0.874031367508308
40
0.881989584106788
40
0.889947800705268
40
0.897906017303748
40
0.905864233902228
40
0.913822450500708
40
0.921780667099188
40
0.929738883697668
40
0.937697100296148
40
0.945655316894628
40
0.953613533493108
40
0.961571750091587
40
0.969529966690067
40
0.977488183288547
40
0.985446399887027
40
0.993404616485507
40
1
40
1
40
1
40
1
41
1
10
-0.394976888875277
20
-27.3653838085367
30
0
41
1
10
-0.394976888875277
20
-27.3654109951679
30
0
41
1
10
-0.394976888875277
20
-27.3644316990209
30
0
41
1
10
-0.394976888875277
20
-27.3594269183726
30
0
41
1
10
-0.394976888875277
20
-27.3501457877119
30
0
41
1
10
-0.394976888875277
20
-27.3369711539198
30
0
41
1
10
-0.394976888875277
20
-27.3199753370632
30
0
41
1
10
-0.394976888875277
20
-27.2992282088757
30
0
41
1
10
-0.394976888875277
20
-27.27479540739
30
0
41
1
10
-0.394976888875277
20
-27.2373773347495
30
0
41
1
10
-0.394976888875277
20
-27.1817216262674
30
0
41
1
10
-0.394976888875277
20
-27.1145655761239
30
0
41
1
10
-0.394976888875277
20
-27.0541148220588
30
0
41
1
10
-0.394976888875277
20
-27.0054853645575
30
0
41
1
10
-0.394976888875277
20
-26.953598130865
30
0
41
1
10
-0.394976888875277
20
-26.8984983126749
30
0
41
1
10
-0.394976888875277
20
-26.8402262313527
30
0
41
1
10
-0.394976888875277
20
-26.7788231109009
30
0
41
1
10
-0.394976888875277
20
-26.7143277379811
30
0
41
1
10
-0.394976888875277
20
-26.6242375656596
30
0
41
1
10
-0.394976888875277
20
-26.5281744083644
30
0
41
1
10
-0.394976888875277
20
-26.4261397788477
30
0
41
1
10
-0.394976888875277
20
-26.3467113117502
30
0
41
1
10
-0.394976888875277
20
-26.2643925590692
30
0
41
1
10
-0.394976888875277
20
-26.1792140698964
30
0
41
1
10
-0.394976888875277
20
-26.0912052473129
30
0
41
1
10
-0.394976888875277
20
-26.0003919407076
30
0
41
1
10
-0.394976888875277
20
-25.90680231755
30
0
41
1
10
-0.394976888875277
20
-25.810462475175
30
0
41
1
10
-0.394976888875277
20
-25.7113956543375
30
0
41
1
10
-0.394976888875277
20
-25.609627837172
30
0
41
1
10
-0.394976888875277
20
-25.5226042889745
30
0
41
1
10
-0.394976888875277
20
-25.4516306650615
30
0
41
1
10
-0.394976888875277
20
-25.3797753879955
30
0
41
1
10
-0.394976888875277
20
-25.2883442684716
30
0
41
1
10
-0.394976888875277
20
-25.1385155212165
30
0
41
1
10
-0.394976888875277
20
-24.9448199373791
30
0
41
1
10
-0.394976888875277
20
-24.7426176812545
30
0
41
1
10
-0.394976888875277
20
-24.5757644878036
30
0
41
1
10
-0.394976888875277
20
-24.4055794218944
30
0
41
1
10
-0.394976888875277
20
-24.1867224773567
30
0
41
1
10
-0.394976888875277
20
-23.9142591485119
30
0
41
1
10
-0.394976888875277
20
-23.6791846777825
30
0
41
1
10
-0.394976888875277
20
-23.4862798848862
30
0
41
1
10
-0.394976888875277
20
-23.2902077684041
30
0
41
1
10
-0.394976888875277
20
-23.0393009244131
30
0
41
1
10
-0.394976888875277
20
-22.728823054511
30
0
41
1
10
-0.394976888875277
20
-22.4090991723375
30
0
41
1
10
-0.394976888875277
20
-22.0802205832225
30
0
41
1
10
-0.394976888875277
20
-21.7422733615616
30
0
41
1
10
-0.394976888875277
20
-21.453205904272
30
0
41
1
10
-0.394976888875277
20
-21.2174142726431
30
0
41
1
10
-0.394976888875277
20
-20.9786637899232
30
0
41
1
10
-0.394976888875277
20
-20.6748062117951
30
0
41
1
10
-0.394976888875277
20
-20.3013474418474
30
0
41
1
10
-0.394976888875277
20
-19.9829235092941
30
0
41
1
10
-0.394976888875277
20
-19.7237678579095
30
0
41
1
10
-0.394976888875277
20
-19.4617376778078
30
0
41
1
10
-0.394976888875277
20
-19.1289452116702
30
0
41
1
10
-0.394976888875277
20
-18.789032857947
30
0
41
1
10
-0.394976888875277
20
-18.5127557060901
30
0
41
1
10
-0.394976888875277
20
-18.2336536051105
30
0
41
1
10
-0.394976888875277
20
-17.8796208110748
30
0
41
1
10
-0.394976888875277
20
-17.5185779629222
30
0
41
1
10
-0.394976888875277
20
-17.2254485445637
30
0
41
1
10
-0.394976888875277
20
-16.9295332745893
30
0
41
1
10
-0.394976888875277
20
-16.6296334809576
30
0
41
1
10
-0.394976888875277
20
-16.3253883940748
30
0
41
1
10
-0.394976888875277
20
-16.1335794000815
30
0
41
1
10
-0.394976888875277
20
-15.9790378411121
30
0
41
1
10
-0.394976888875277
20
-15.8238065102557
30
0
41
1
10
-0.394976888875277
20
-15.6285504084944
30
0
41
1
10
-0.394976888875277
20
-15.3921387609621
30
0
41
1
10
-0.394976888875277
20
-15.1536644316209
30
0
41
1
10
-0.394976888875277
20
-14.9131307556186
30
0
41
1
10
-0.394976888875277
20
-14.6705410876498
30
0
41
1
10
-0.394976888875277
20
-14.4258961509421
30
0
41
1
10
-0.394976888875277
20
-14.1791991341329
30
0
41
1
10
-0.394976888875277
20
-13.9304519502906
30
0
41
1
10
-0.394976888875277
20
-13.595980784257
30
0
41
1
10
-0.394976888875277
20
-13.2576504503011
30
0
41
1
10
-0.394976888875277
20
-12.9149897871743
30
0
41
1
10
-0.394976888875277
20
-12.656013614478
30
0
41
1
10
-0.394976888875277
20
-12.3949946525974
30
0
41
1
10
-0.394976888875277
20
-12.1319348240102
30
0
41
1
10
-0.394976888875277
20
-11.8668345044804
30
0
41
1
10
-0.394976888875277
20
-11.51055947116
30
0
41
1
10
-0.394976888875277
20
-11.0603255640274
30
0
41
1
10
-0.394976888875277
20
-10.6032942253079
30
0
41
1
10
-0.394976888875277
20
-10.2334171055167
30
0
41
1
10
-0.394976888875277
20
-9.95404991412451
30
0
41
1
10
-0.394976888875277
20
-9.67264656600767
30
0
41
1
10
-0.394976888875277
20
-9.3892080699232
30
0
41
1
10
-0.394976888875277
20
-9.10373490192168
30
0
41
1
10
-0.394976888875277
20
-8.81622850233529
30
0
41
1
10
-0.394976888875277
20
-8.52669000819793
30
0
41
1
10
-0.394976888875277
20
-8.23512137696338
30
0
41
1
10
-0.394976888875277
20
-7.94152469111091
30
0
41
1
10
-0.394976888875277
20
-7.64590290818538
30
0
41
1
10
-0.394976888875277
20
-7.34825961897883
30
0
41
1
10
-0.394976888875277
20
-7.04859942112893
30
0
41
1
10
-0.394976888875277
20
-6.74692777135016
30
0
41
1
10
-0.394976888875277
20
-6.44325210311729
30
0
41
1
10
-0.394976888875277
20
-6.15502928738746
30
0
41
1
10
-0.394976888875277
20
-5.96764092579403
30
0
41
1
10
-0.394976888875277
20
-5.8824691645265
30
0
0
SPLINE
5
273
100
AcDbEntity
8
SK1
62
256
6
ByLayer
370
-1
48
1
60
0
100
AcDbSpline
70
4
71
3
72
22
73
18
40
0
40
0
40
0
40
0
40
0.351178839520644
40
0.351178839520644
40
0.705337869169046
40
0.705337869169046
40
0.812145382793219
40
0.812145382793219
40
0.852465533746091
40
0.852465533746091
40
0.893471625808601
40
0.893471625808601
40
0.930614638571552
40
0.930614638571552
40
0.970742440112555
40
0.970742440112555
40
1
40
1
40
1
40
1
41
1
10
-1.30710678118655
20
-4.39323937970204
30
0
41
1
10
-1.26636350256146
20
-4.62343528906808
30
0
41
1
10
-1.21781497106187
20
-4.85138819750028
30
0
41
1
10
-1.09024836612519
20
-5.29777381436577
30
0
41
1
10
-1.01544432095776
20
-5.52235561861329
30
0
41
1
10
-0.850589253306595
20
-5.77920802132755
30
0
41
1
10
-0.806248488510818
20
-5.83742588650495
30
0
41
1
10
-0.729216148055542
20
-5.90188259982583
30
0
41
1
10
-0.705961072671698
20
-5.91804026534476
30
0
41
1
10
-0.6553282616388
20
-5.94346452812465
30
0
41
1
10
-0.627111790028749
20
-5.95278241265126
30
0
41
1
10
-0.572477185654549
20
-5.95918871606577
30
0
41
1
10
-0.545441337239339
20
-5.95730944596096
30
0
41
1
10
-0.492971508296506
20
-5.94432172621575
30
0
41
1
10
-0.467008693786141
20
-5.93251770241088
30
0
41
1
10
-0.426325229838
20
-5.90753636851105
30
0
41
1
10
-0.410149891228343
20
-5.8954423815093
30
0
41
1
10
-0.394976888875306
20
-5.88246916452647
30
0
0
SPLINE
5
274
100
AcDbEntity
8
SK1
62
256
6
ByLayer
370
-1
48
1
60
0
100
AcDbSpline
70
4
71
3
72
297
73
293
40
0
40
0
40
0
40
0
40
0.0006234369849051
40
0.0041651151586632
40
0.0077067933324214
40
0.0112484715061795
40
0.0147901496799377
40
0.0183318278536958
40
0.0254151842012121
40
0.0324985405487284
40
0.0360402187224866
40
0.0395818968962447
40
0.0431235750700029
40
0.046665253243761
40
0.0502069314175192
40
0.0537486095912773
40
0.0572902877650355
40
0.0608319659387936
40
0.0679153222863099
40
0.0714570004600681
40
0.0749986786338262
40
0.0785403568075844
40
0.0820820349813425
40
0.0856237131551007
40
0.0891653913288589
40
0.092707069502617
40
0.0962487476763751
40
0.0997904258501333
40
0.103332104023891
40
0.10687378219765
40
0.108644621284529
40
0.110415460371408
40
0.113957138545166
40
0.117498816718924
40
0.12458217306644
40
0.131665529413957
40
0.135207207587715
40
0.138748885761473
40
0.145832242108989
40
0.152915598456506
40
0.159998954804022
40
0.16354063297778
40
0.167082311151538
40
0.174165667499054
40
0.181249023846571
40
0.188332380194087
40
0.195415736541603
40
0.20249909288912
40
0.209582449236636
40
0.213124127410394
40
0.216665805584152
40
0.223749161931668
40
0.230832518279185
40
0.237915874626701
40
0.241457552800459
40
0.244999230974217
40
0.252082587321734
40
0.25916594366925
40
0.262707621843008
40
0.266249300016766
40
0.273332656364283
40
0.280416012711799
40
0.283957690885557
40
0.287499369059315
40
0.294582725406832
40
0.29812440358059
40
0.301666081754348
40
0.303436920841227
40
0.305207759928106
40
0.308749438101864
40
0.312291116275622
40
0.31583279444938
40
0.319374472623139
40
0.322916150796897
40
0.326457828970655
40
0.329999507144413
40
0.333541185318171
40
0.337082863491929
40
0.344166219839446
40
0.347707898013204
40
0.351249576186962
40
0.35479125436072
40
0.358332932534478
40
0.361874610708236
40
0.365416288881995
40
0.372499645229511
40
0.379583001577027
40
0.383124679750785
40
0.386666357924544
40
0.390208036098302
40
0.39374971427206
40
0.397291392445818
40
0.400833070619576
40
0.404374748793334
40
0.407916426967092
40
0.411458105140851
40
0.414999783314609
40
0.418541461488367
40
0.422083139662125
40
0.425624817835883
40
0.429166496009641
40
0.432708174183399
40
0.436249852357158
40
0.438020691444037
40
0.439791530530916
40
0.443333208704674
40
0.446874886878432
40
0.448645725965311
40
0.45041656505219
40
0.453958243225948
40
0.455729082312827
40
0.457499921399707
40
0.458385340943146
40
0.459270760486585
40
0.461041599573465
40
0.462812438660344
40
0.464583277747223
40
0.466354116834102
40
0.468124955920981
40
0.46989579500786
40
0.4707812145513
40
0.471666634094739
40
0.472552053638179
40
0.473437473181618
40
0.474322892725058
40
0.475208312268497
40
0.476979151355376
40
0.477864570898816
40
0.478749990442255
40
0.480520829529134
40
0.481406249072574
40
0.482291668616014
40
0.484062507702893
40
0.484947927246332
40
0.485833346789772
40
0.487604185876651
40
0.48937502496353
40
0.491145864050409
40
0.492031283593848
40
0.492916703137288
40
0.493802122680727
40
0.494687542224167
40
0.495572961767607
40
0.496458381311046
40
0.497343800854486
40
0.498229220397925
40
0.499114639941365
40
0.500000059484804
40
0.500885479028244
40
0.501770898571683
40
0.502656318115123
40
0.503541737658562
40
0.504427157202002
40
0.505312576745442
40
0.506197996288881
40
0.507083415832321
40
0.50796883537576
40
0.5088542549192
40
0.510625094006079
40
0.512395933092958
40
0.514166772179837
40
0.515052191723276
40
0.515937611266716
40
0.517708450353595
40
0.518593869897035
40
0.519479289440474
40
0.521250128527353
40
0.522135548070793
40
0.523020967614232
40
0.524791806701111
40
0.525677226244551
40
0.52656264578799
40
0.52744806533143
40
0.528333484874869
40
0.529218904418309
40
0.530104323961749
40
0.531875163048628
40
0.533646002135507
40
0.535416841222386
40
0.537187680309265
40
0.538958519396144
40
0.540729358483023
40
0.541614778026463
40
0.542500197569902
40
0.544271036656781
40
0.54604187574366
40
0.549583553917418
40
0.551354393004297
40
0.553125232091176
40
0.556666910264935
40
0.560208588438693
40
0.561979427525572
40
0.563750266612451
40
0.567291944786209
40
0.570833622959967
40
0.574375301133725
40
0.577916979307484
40
0.581458657481242
40
0.585000335655
40
0.588542013828758
40
0.592083692002516
40
0.595625370176274
40
0.599167048350032
40
0.602708726523791
40
0.606250404697549
40
0.609792082871307
40
0.613333761045065
40
0.616875439218823
40
0.620417117392581
40
0.623958795566339
40
0.627500473740098
40
0.634583830087614
40
0.638125508261372
40
0.64166718643513
40
0.645208864608888
40
0.648750542782647
40
0.652292220956405
40
0.655833899130163
40
0.662917255477679
40
0.666458933651437
40
0.670000611825195
40
0.673542289998954
40
0.677083968172712
40
0.68062564634647
40
0.684167324520228
40
0.687709002693986
40
0.691250680867744
40
0.694792359041502
40
0.698334037215261
40
0.701875715389019
40
0.705417393562777
40
0.712500749910293
40
0.716042428084051
40
0.71958410625781
40
0.726667462605326
40
0.733750818952842
40
0.7372924971266
40
0.740834175300358
40
0.747917531647875
40
0.755000887995391
40
0.758542566169149
40
0.762084244342907
40
0.769167600690424
40
0.77625095703794
40
0.783334313385456
40
0.786875991559214
40
0.790417669732973
40
0.797501026080489
40
0.804584382428005
40
0.811667738775521
40
0.818751095123038
40
0.825834451470554
40
0.83291780781807
40
0.836459485991828
40
0.840001164165587
40
0.847084520513103
40
0.854167876860619
40
0.861251233208135
40
0.864792911381894
40
0.868334589555652
40
0.875417945903168
40
0.882501302250684
40
0.886042980424443
40
0.889584658598201
40
0.896668014945717
40
0.900209693119475
40
0.903751371293233
40
0.907293049466992
40
0.91083472764075
40
0.914376405814508
40
0.917918083988266
40
0.921459762162024
40
0.925001440335782
40
0.92854311850954
40
0.932084796683299
40
0.939168153030815
40
0.942709831204573
40
0.946251509378331
40
0.949793187552089
40
0.953334865725847
40
0.956876543899606
40
0.960418222073364
40
0.963959900247122
40
0.96750157842088
40
0.974584934768396
40
0.981668291115913
40
0.985209969289671
40
0.988751647463429
40
0.992293325637187
40
0.995835003810945
40
0.999376681984703
40
1
40
1
40
1
40
1
41
1
10
-2.19999999999999
20
-27.5060506627588
30
0
41
1
10
-2.19999999999999
20
-27.5054288288601
30
0
41
1
10
-2.20000000000002
20
-27.501138931756
30
0
41
1
10
-2.19999999999999
20
-27.4915322439685
30
0
41
1
10
-2.19999999999999
20
-27.4744481367885
30
0
41
1
10
-2.19999999999999
20
-27.4535951162672
30
0
41
1
10
-2.19999999999999
20
-27.4290396962773
30
0
41
1
10
-2.19999999999999
20
-27.3914487450129
30
0
41
1
10
-2.19999999999999
20
-27.335511616751
30
0
41
1
10
-2.19999999999999
20
-27.2680242938405
30
0
41
1
10
-2.19999999999999
20
-27.2073129452677
30
0
41
1
10
-2.19999999999999
20
-27.1584629254513
30
0
41
1
10
-2.19999999999999
20
-27.1063432629947
30
0
41
1
10
-2.19999999999999
20
-27.0509995322117
30
0
41
1
10
-2.19999999999999
20
-26.9924724007358
30
0
41
1
10
-2.19999999999999
20
-26.9308035073645
30
0
41
1
10
-2.19999999999999
20
-26.8660318549495
30
0
41
1
10
-2.19999999999999
20
-26.7755840284526
30
0
41
1
10
-2.19999999999999
20
-26.6790690105836
30
0
41
1
10
-2.19999999999999
20
-26.5766398127168
30
0
41
1
10
-2.19999999999999
20
-26.4968867532828
30
0
41
1
10
-2.19999999999999
20
-26.414234345797
30
0
41
1
10
-2.19999999999999
20
-26.3287134555965
30
0
41
1
10
-2.19999999999999
20
-26.2403534869032
30
0
41
1
10
-2.19999999999999
20
-26.1491804877762
30
0
41
1
10
-2.19999999999999
20
-26.0552228914818
30
0
41
1
10
-2.19999999999999
20
-25.9585067097828
30
0
41
1
10
-2.19999999999999
20
-25.8590554134204
30
0
41
1
10
-2.19999999999999
20
-25.7568951729796
30
0
41
1
10
-2.19999999999999
20
-25.6695210442988
30
0
41
1
10
-2.19999999999999
20
-25.5982933540586
30
0
41
1
10
-2.19999999999999
20
-25.5261818034759
30
0
41
1
10
-2.19999999999999
20
-25.4343867299332
30
0
41
1
10
-2.19999999999999
20
-25.284028449355
30
0
41
1
10
-2.19999999999999
20
-25.0895715317904
30
0
41
1
10
-2.19999999999999
20
-24.8865804660961
30
0
41
1
10
-2.19999999999999
20
-24.7191499291269
30
0
41
1
10
-2.19999999999999
20
-24.5483785892839
30
0
41
1
10
-2.19999999999999
20
-24.3286812886663
30
0
41
1
10
-2.19999999999999
20
-24.0552273098675
30
0
41
1
10
-2.19999999999999
20
-23.8192595747193
30
0
41
1
10
-2.19999999999999
20
-23.625702822842
30
0
41
1
10
-2.19999999999999
20
-23.4289695970825
30
0
41
1
10
-2.19999999999999
20
-23.1771173063638
30
0
41
1
10
-2.19999999999999
20
-22.865528155817
30
0
41
1
10
-2.19999999999999
20
-22.5446620300357
30
0
41
1
10
-2.19999999999999
20
-22.2146097450714
30
0
41
1
10
-2.19999999999999
20
-21.8754567939979
30
0
41
1
10
-2.19999999999999
20
-21.5853057487131
30
0
41
1
10
-2.19999999999999
20
-21.348724524242
30
0
41
1
10
-2.19999999999999
20
-21.1091737057829
30
0
41
1
10
-2.19999999999999
20
-20.8041728408687
30
0
41
1
10
-2.19999999999999
20
-20.4293723348014
30
0
41
1
10
-2.19999999999999
20
-20.1097427976019
30
0
41
1
10
-2.19999999999999
20
-19.8497084000872
30
0
41
1
10
-2.19999999999999
20
-19.5867870400026
30
0
41
1
10
-2.19999999999999
20
-19.2527208742123
30
0
41
1
10
-2.19999999999999
20
-18.9115004820266
30
0
41
1
10
-2.19999999999999
20
-18.6342692782274
30
0
41
1
10
-2.19999999999999
20
-18.3541989021743
30
0
41
1
10
-2.19999999999999
20
-17.9987810562909
30
0
41
1
10
-2.19999999999999
20
-17.6363146514327
30
0
41
1
10
-2.19999999999999
20
-17.342145790273
30
0
41
1
10
-2.19999999999999
20
-17.0451744942955
30
0
41
1
10
-2.19999999999999
20
-16.7439793214724
30
0
41
1
10
-2.19999999999999
20
-16.4386305854399
30
0
41
1
10
-2.19999999999999
20
-16.2460368243143
30
0
41
1
10
-2.19999999999999
20
-16.0909280537241
30
0
41
1
10
-2.19999999999999
20
-15.9351247349383
30
0
41
1
10
-2.19999999999999
20
-15.7390582874331
30
0
41
1
10
-2.19999999999999
20
-15.5017057162253
30
0
41
1
10
-2.19999999999999
20
-15.2622749109486
30
0
41
1
10
-2.19999999999999
20
-15.0207692194115
30
0
41
1
10
-2.19999999999999
20
-14.7771909058554
30
0
41
1
10
-2.19999999999999
20
-14.5315403640059
30
0
41
1
10
-2.19999999999999
20
-14.2838204496865
30
0
41
1
10
-2.19999999999999
20
-14.0340319983603
30
0
41
1
10
-2.19999999999999
20
-13.6982347575132
30
0
41
1
10
-2.19999999999999
20
-13.3582704108556
30
0
41
1
10
-2.19999999999999
20
-13.0142109423232
30
0
41
1
10
-2.19999999999999
20
-12.7540926975445
30
0
41
1
10
-2.19999999999999
20
-12.491909102254
30
0
41
1
10
-2.19999999999999
20
-12.2276612824087
30
0
41
1
10
-2.19999999999999
20
-11.9613483314474
30
0
41
1
10
-2.19999999999999
20
-11.6035237684601
30
0
41
1
10
-2.19999999999999
20
-11.1510479282636
30
0
41
1
10
-2.19999999999999
20
-10.6916821947193
30
0
41
1
10
-2.19999999999999
20
-10.3200777862056
30
0
41
1
10
-2.19999999999999
20
-10.0392927830108
30
0
41
1
10
-2.19999999999999
20
-9.75643631256762
30
0
41
1
10
-2.19999999999999
20
-9.47150741663737
30
0
41
1
10
-2.19999999999999
20
-9.18450458163332
30
0
41
1
10
-2.19999999999999
20
-8.89542705327116
30
0
41
1
10
-2.19999999999999
20
-8.60427351086133
30
0
41
1
10
-2.19999999999999
20
-8.31104332875668
30
0
41
1
10
-2.19999999999999
20
-8.01573570434201
30
0
41
1
10
-2.19999999999999
20
-7.71835052760531
30
0
41
1
10
-2.19999999999999
20
-7.41888792583902
30
0
41
1
10
-2.19999999999999
20
-7.11734871686417
30
0
41
1
10
-2.19999999999999
20
-6.81373435160455
30
0
41
1
10
-2.19999999999999
20
-6.50804761437215
30
0
41
1
10
-2.19999999999999
20
-6.20029192554162
30
0
41
1
10
-2.19999999999999
20
-5.9420983893643
30
0
41
1
10
-2.19999999999999
20
-5.73453666635555
30
0
41
1
10
-2.19999999999999
20
-5.5262910261637
30
0
41
1
10
-2.19999999999999
20
-5.2646764075686
30
0
41
1
10
-2.19999999999999
20
-5.00136826964859
30
0
41
1
10
-2.19999999999999
20
-4.78973719162454
30
0
41
1
10
-2.19999999999999
20
-4.5774371918485
30
0
41
1
10
-2.19999999999999
20
-4.3640968112588
30
0
41
1
10
-2.19999999999999
20
-4.14981698400791
30
0
41
1
10
-2.19999999999999
20
-4.01546868863096
30
0
41
1
10
-2.19999999999999
20
-3.90776230457831
30
0
41
1
10
-2.19999999999999
20
-3.7998956890315
30
0
41
1
10
-2.19999999999999
20
-3.66474577486338
30
0
41
1
10
-2.19999999999999
20
-3.50210371592672
30
0
41
1
10
-2.19999999999999
20
-3.33899661229887
30
0
41
1
10
-2.19999999999999
20
-3.17543128081249
30
0
41
1
10
-2.19999999999999
20
-3.01141672767267
30
0
41
1
10
-2.19999999999999
20
-2.87436211322455
30
0
41
1
10
-2.19999999999999
20
-2.76452001856484
30
0
41
1
10
-2.19999999999999
20
-2.68202546661414
30
0
41
1
10
-2.19999999999999
20
-2.59942633274221
30
0
41
1
10
-2.19999999999999
20
-2.51672422226801
30
0
41
1
10
-2.19999999999999
20
-2.43392090537259
30
0
41
1
10
-2.19999999999999
20
-2.32339362702302
30
0
41
1
10
-2.19999999999999
20
-2.21264124345481
30
0
41
1
10
-2.19999999999999
20
-2.1017319037741
30
0
41
1
10
-2.19999999999999
20
-1.99070061185216
30
0
41
1
10
-2.19999999999999
20
-1.87945967457651
30
0
41
1
10
-2.19999999999999
20
-1.76808196044797
30
0
41
1
10
-2.19999999999999
20
-1.65659534610089
30
0
41
1
10
-2.19999999999999
20
-1.54491819828837
30
0
41
1
10
-2.19999999999999
20
-1.43312830574621
30
0
41
1
10
-2.19999999999999
20
-1.32124507985105
30
0
41
1
10
-2.19999999999999
20
-1.18119882266058
30
0
41
1
10
-2.19999999999999
20
-1.0129186171477
30
0
41
1
10
-2.19999999999999
20
-0.872498995392078
30
0
41
1
10
-2.19999999999999
20
-0.760095827222472
30
0
41
1
10
-2.19999999999999
20
-0.675743919086329
30
0
41
1
10
-2.19999999999999
20
-0.591356022200159
30
0
41
1
10
-2.19999999999999
20
-0.506936438011195
30
0
41
1
10
-2.19999999999999
20
-0.422489242090819
30
0
41
1
10
-2.19999999999999
20
-0.338019061527263
30
0
41
1
10
-2.19999999999999
20
-0.253530604877341
30
0
41
1
10
-2.19999999999999
20
-0.169028167934272
30
0
41
1
10
-2.19999999999999
20
-0.0845163058477283
30
0
41
1
10
-2.19999999999999
20
-2.9737635E-09
30
0
41
1
10
-2.19999999999999
20
0.0845162996800468
30
0
41
1
10
-2.19999999999999
20
0.169028161239794
30
0
41
1
10
-2.19999999999999
20
0.253530597556249
30
0
41
1
10
-2.19999999999999
20
0.338019053908852
30
0
41
1
10
-2.19999999999999
20
0.422489234806477
30
0
41
1
10
-2.19999999999999
20
0.506936431545654
30
0
41
1
10
-2.19999999999999
20
0.591356016553533
30
0
41
1
10
-2.19999999999999
20
0.675743913418643
30
0
41
1
10
-2.19999999999999
20
0.760095820637474
30
0
41
1
10
-2.19999999999999
20
0.87249898691482
30
0
41
1
10
-2.19999999999999
20
1.01291860933941
30
0
41
1
10
-2.19999999999999
20
1.18119881783468
30
0
41
1
10
-2.19999999999999
20
1.32124507363099
30
0
41
1
10
-2.19999999999999
20
1.43312829673272
30
0
41
1
10
-2.19999999999999
20
1.54491818810746
30
0
41
1
10
-2.19999999999999
20
1.65659533844251
30
0
41
1
10
-2.19999999999999
20
1.76808195565891
30
0
41
1
10
-2.19999999999999
20
1.87945966995704
30
0
41
1
10
-2.19999999999999
20
1.9907006034768
30
0
41
1
10
-2.19999999999999
20
2.10173189222928
30
0
41
1
10
-2.19999999999999
20
2.21264123208616
30
0
41
1
10
-2.19999999999999
20
2.32339361988261
30
0
41
1
10
-2.19999999999999
20
2.43392090149777
30
0
41
1
10
-2.19999999999999
20
2.51672421834661
30
0
41
1
10
-2.19999999999999
20
2.5994263263795
30
0
41
1
10
-2.19999999999999
20
2.68202545651479
30
0
41
1
10
-2.19999999999999
20
2.76452000553434
30
0
41
1
10
-2.19999999999999
20
2.87436209926597
30
0
41
1
10
-2.19999999999999
20
3.01141672008131
30
0
41
1
10
-2.19999999999999
20
3.17543127927689
30
0
41
1
10
-2.19999999999999
20
3.33899660464965
30
0
41
1
10
-2.19999999999999
20
3.5021036988395
30
0
41
1
10
-2.19999999999999
20
3.66474576021935
30
0
41
1
10
-2.19999999999999
20
3.79989568244895
30
0
41
1
10
-2.19999999999999
20
3.90776230194615
30
0
41
1
10
-2.19999999999999
20
4.01546868648907
30
0
41
1
10
-2.19999999999999
20
4.14981697452481
30
0
41
1
10
-2.19999999999999
20
4.36409678795761
30
0
41
1
10
-2.19999999999999
20
4.57743718277371
30
0
41
1
10
-2.19999999999999
20
4.78973719244794
30
0
41
1
10
-2.19999999999999
20
5.00136826160576
30
0
41
1
10
-2.19999999999999
20
5.2646763781224
30
0
41
1
10
-2.19999999999999
20
5.52629101970234
30
0
41
1
10
-2.19999999999999
20
5.73453666830338
30
0
41
1
10
-2.19999999999999
20
5.94209838158557
30
0
41
1
10
-2.19999999999999
20
6.20029189348728
30
0
41
1
10
-2.19999999999999
20
6.50804760816206
30
0
41
1
10
-2.19999999999999
20
6.81373435633816
30
0
41
1
10
-2.19999999999999
20
7.11734869113025
30
0
41
1
10
-2.19999999999999
20
7.41888794723957
30
0
41
1
10
-2.19999999999999
20
7.71835058358695
30
0
41
1
10
-2.19999999999999
20
8.01573561602433
30
0
41
1
10
-2.19999999999999
20
8.31104318061551
30
0
41
1
10
-2.19999999999999
20
8.60427356074339
30
0
41
1
10
-2.19999999999999
20
8.8954271911569
30
0
41
1
10
-2.19999999999999
20
9.1845043611271
30
0
41
1
10
-2.19999999999999
20
9.47150729415071
30
0
41
1
10
-2.19999999999999
20
9.7564363484619
30
0
41
1
10
-2.19999999999999
20
10.0392928286736
30
0
41
1
10
-2.19999999999999
20
10.3200778010582
30
0
41
1
10
-2.19999999999999
20
10.5987925508876
30
0
41
1
10
-2.19999999999999
20
10.8754383363526
30
0
41
1
10
-2.19999999999999
20
11.2415269571056
30
0
41
1
10
-2.19999999999999
20
11.6035238164173
30
0
41
1
10
-2.19999999999999
20
11.9613483258762
30
0
41
1
10
-2.19999999999999
20
12.2276612856809
30
0
41
1
10
-2.19999999999999
20
12.4919091491304
30
0
41
1
10
-2.19999999999999
20
12.7540927464655
30
0
41
1
10
-2.19999999999999
20
13.0142109860464
30
0
41
1
10
-2.19999999999999
20
13.3582704046987
30
0
41
1
10
-2.19999999999999
20
13.6982347944475
30
0
41
1
10
-2.19999999999999
20
14.034031998634
30
0
41
1
10
-2.19999999999999
20
14.2838204606995
30
0
41
1
10
-2.19999999999999
20
14.5315403886931
30
0
41
1
10
-2.19999999999999
20
14.7771908994275
30
0
41
1
10
-2.19999999999999
20
15.0207692449601
30
0
41
1
10
-2.19999999999999
20
15.2622748554345
30
0
41
1
10
-2.19999999999999
20
15.501705604915
30
0
41
1
10
-2.19999999999999
20
15.73905841291
30
0
41
1
10
-2.19999999999999
20
15.9743322626435
30
0
41
1
10
-2.19999999999999
20
16.2075239950657
30
0
41
1
10
-2.19999999999999
20
16.4386302461312
30
0
41
1
10
-2.19999999999999
20
16.7439792746615
30
0
41
1
10
-2.19999999999999
20
17.0451745383014
30
0
41
1
10
-2.19999999999999
20
17.342145790903
30
0
41
1
10
-2.19999999999999
20
17.636314655197
30
0
41
1
10
-2.19999999999999
20
17.9987810588702
30
0
41
1
10
-2.19999999999999
20
18.3541988970414
30
0
41
1
10
-2.19999999999999
20
18.634269279738
30
0
41
1
10
-2.19999999999999
20
18.9115004851851
30
0
41
1
10
-2.19999999999999
20
19.2527208752522
30
0
41
1
10
-2.19999999999999
20
19.5867870393815
30
0
41
1
10
-2.19999999999999
20
19.8497084005983
30
0
41
1
10
-2.19999999999999
20
20.1097428027781
30
0
41
1
10
-2.19999999999999
20
20.4293723340896
30
0
41
1
10
-2.19999999999999
20
20.8041728419317
30
0
41
1
10
-2.19999999999999
20
21.1091737088127
30
0
41
1
10
-2.19999999999999
20
21.3487245268705
30
0
41
1
10
-2.19999999999999
20
21.5853057494763
30
0
41
1
10
-2.19999999999999
20
21.8754567982465
30
0
41
1
10
-2.19999999999999
20
22.2146097463897
30
0
41
1
10
-2.19999999999999
20
22.5446620340323
30
0
41
1
10
-2.19999999999999
20
22.8655281588585
30
0
41
1
10
-2.19999999999999
20
23.177117307697
30
0
41
1
10
-2.19999999999999
20
23.4289696038095
30
0
41
1
10
-2.19999999999999
20
23.6257028262786
30
0
41
1
10
-2.19999999999999
20
23.8192595766845
30
0
41
1
10
-2.19999999999999
20
24.055227314874
30
0
41
1
10
-2.19999999999999
20
24.3286812980358
30
0
41
1
10
-2.19999999999999
20
24.5483785868417
30
0
41
1
10
-2.19999999999999
20
24.7191499364504
30
0
41
1
10
-2.19999999999999
20
24.8865804716972
30
0
41
1
10
-2.19999999999999
20
25.0895715372854
30
0
41
1
10
-2.19999999999999
20
25.2840285001251
30
0
41
1
10
-2.19999999999999
20
25.4343865772609
30
0
41
1
10
-2.19999999999999
20
25.5812511874436
30
0
41
1
10
-2.19999999999999
20
25.7228460886287
30
0
41
1
10
-2.19999999999999
20
25.8590558590047
30
0
41
1
10
-2.19999999999999
20
25.9585066378384
30
0
41
1
10
-2.19999999999999
20
26.0552227938057
30
0
41
1
10
-2.19999999999999
20
26.1491804785364
30
0
41
1
10
-2.19999999999999
20
26.2403534959289
30
0
41
1
10
-2.19999999999999
20
26.3287134281848
30
0
41
1
10
-2.19999999999999
20
26.4142343357678
30
0
41
1
10
-2.19999999999999
20
26.496886760278
30
0
41
1
10
-2.19999999999999
20
26.5766397788825
30
0
41
1
10
-2.19999999999999
20
26.6790690300398
30
0
41
1
10
-2.19999999999999
20
26.7755839801004
30
0
41
1
10
-2.19999999999999
20
26.8660318680525
30
0
41
1
10
-2.19999999999999
20
26.9308034813115
30
0
41
1
10
-2.19999999999999
20
26.9924723817988
30
0
41
1
10
-2.19999999999999
20
27.0509995447849
30
0
41
1
10
-2.19999999999999
20
27.1063432161342
30
0
41
1
10
-2.19999999999999
20
27.1584628619196
30
0
41
1
10
-2.19999999999999
20
27.2073128739481
30
0
41
1
10
-2.19999999999999
20
27.2680242980374
30
0
41
1
10
-2.19999999999999
20
27.3355116051596
30
0
41
1
10
-2.19999999999999
20
27.391448663995
30
0
41
1
10
-2.19999999999999
20
27.4290397313646
30
0
41
1
10
-2.19999999999999
20
27.4535951682728
30
0
41
1
10
-2.19999999999999
20
27.4744481426486
30
0
41
1
10
-2.19999999999999
20
27.4915322394785
30
0
41
1
10
-2.19999999999999
20
27.5011388125994
30
0
41
1
10
-2.19999999999999
20
27.5054286164065
30
0
41
1
10
-2.19999999999999
20
27.5060503395679
30
0
0
SPLINE
5
275
100
AcDbEntity
8
SK1
62
256
6
ByLayer
370
-1
48
1
60
0
100
AcDbSpline
70
4
71
3
72
301
73
297
40
0
40
0
40
0
40
0
40
0.0031416867819285
40
0.006616214861517
40
0.0100907429411055
40
0.0135652710206941
40
0.0170397991002826
40
0.0205143271798711
40
0.0239888552594597
40
0.0274633833390482
40
0.0344124394982253
40
0.0413614956574023
40
0.0448360237369909
40
0.0483105518165794
40
0.0517850798961679
40
0.0552596079757565
40
0.058734136055345
40
0.0622086641349335
40
0.0656831922145221
40
0.0691577202941106
40
0.0761067764532877
40
0.0795813045328762
40
0.0830558326124647
40
0.0865303606920533
40
0.0900048887716418
40
0.0934794168512303
40
0.0969539449308189
40
0.100428473010407
40
0.103903001089996
40
0.107377529169584
40
0.110852057249173
40
0.114326585328762
40
0.116063849368556
40
0.11780111340835
40
0.121275641487939
40
0.124750169567527
40
0.131699225726704
40
0.138648281885881
40
0.14212280996547
40
0.145597338045058
40
0.152546394204235
40
0.159495450363413
40
0.166444506522589
40
0.169919034602178
40
0.173393562681767
40
0.180342618840944
40
0.187291675000121
40
0.194240731159298
40
0.201189787318475
40
0.208138843477652
40
0.215087899636829
40
0.218562427716418
40
0.222036955796006
40
0.228986011955183
40
0.23593506811436
40
0.242884124273537
40
0.246358652353126
40
0.249833180432714
40
0.256782236591891
40
0.263731292751068
40
0.267205820830657
40
0.270680348910246
40
0.277629405069423
40
0.2845784612286
40
0.288052989308188
40
0.291527517387777
40
0.298476573546954
40
0.301951101626542
40
0.305425629706131
40
0.307162893745925
40
0.308900157785719
40
0.312374685865308
40
0.315849213944897
40
0.319323742024485
40
0.322798270104074
40
0.326272798183662
40
0.329747326263251
40
0.333221854342839
40
0.336696382422428
40
0.340170910502016
40
0.347119966661193
40
0.350594494740782
40
0.35406902282037
40
0.357543550899959
40
0.361018078979547
40
0.364492607059136
40
0.367967135138724
40
0.374916191297901
40
0.381865247457079
40
0.385339775536667
40
0.388814303616256
40
0.392288831695844
40
0.395763359775433
40
0.399237887855021
40
0.40271241593461
40
0.406186944014198
40
0.409661472093787
40
0.413136000173375
40
0.416610528252964
40
0.420085056332553
40
0.423559584412141
40
0.42703411249173
40
0.430508640571318
40
0.433983168650907
40
0.437457696730495
40
0.43919496077029
40
0.440932224810084
40
0.444406752889672
40
0.447881280969261
40
0.449618545009055
40
0.451355809048849
40
0.454830337128438
40
0.456567601168232
40
0.458304865208026
40
0.459173497227924
40
0.460042129247821
40
0.461779393287615
40
0.463516657327409
40
0.465253921367203
40
0.466991185406998
40
0.468728449446792
40
0.470465713486586
40
0.471334345506483
40
0.472202977526381
40
0.473071609546278
40
0.473940241566175
40
0.474808873586072
40
0.475677505605969
40
0.477414769645763
40
0.47828340166566
40
0.479152033685558
40
0.480889297725352
40
0.481757929745249
40
0.482626561765146
40
0.48436382580494
40
0.485232457824837
40
0.486101089844735
40
0.487838353884529
40
0.489575617924323
40
0.491312881964117
40
0.492181513984015
40
0.493050146003912
40
0.493918778023809
40
0.494787410043706
40
0.495656042063603
40
0.4965246740835
40
0.497393306103397
40
0.498261938123294
40
0.499130570143192
40
0.499999202163089
40
0.500867834182986
40
0.501736466202883
40
0.50260509822278
40
0.503473730242677
40
0.504342362262574
40
0.505210994282472
40
0.506079626302369
40
0.506948258322266
40
0.507816890342163
40
0.50868552236206
40
0.510422786401854
40
0.512160050441649
40
0.513897314481443
40
0.51476594650134
40
0.515634578521237
40
0.517371842561031
40
0.518240474580929
40
0.519109106600826
40
0.52084637064062
40
0.521715002660517
40
0.522583634680414
40
0.524320898720208
40
0.525189530740106
40
0.526058162760003
40
0.5269267947799
40
0.527795426799797
40
0.528664058819694
40
0.529532690839591
40
0.531269954879386
40
0.53300721891918
40
0.534744482958974
40
0.536481746998768
40
0.538219011038563
40
0.539956275078357
40
0.540824907098254
40
0.541693539118151
40
0.543430803157945
40
0.54516806719774
40
0.548642595277328
40
0.550379859317123
40
0.552117123356917
40
0.555591651436505
40
0.559066179516094
40
0.560803443555888
40
0.562540707595682
40
0.566015235675271
40
0.569489763754859
40
0.572964291834448
40
0.576438819914037
40
0.579913347993625
40
0.583387876073214
40
0.586862404152802
40
0.590336932232391
40
0.593811460311979
40
0.597285988391568
40
0.600760516471156
40
0.604235044550745
40
0.607709572630333
40
0.611184100709922
40
0.61465862878951
40
0.618133156869099
40
0.621607684948687
40
0.625082213028276
40
0.632031269187453
40
0.635505797267042
40
0.63898032534663
40
0.642454853426219
40
0.645929381505807
40
0.649403909585396
40
0.652878437664984
40
0.659827493824161
40
0.66330202190375
40
0.666776549983338
40
0.670251078062927
40
0.673725606142515
40
0.677200134222104
40
0.680674662301692
40
0.684149190381281
40
0.68762371846087
40
0.691098246540458
40
0.694572774620047
40
0.698047302699635
40
0.701521830779224
40
0.708470886938401
40
0.711945415017989
40
0.715419943097578
40
0.722368999256755
40
0.729318055415932
40
0.732792583495521
40
0.736267111575109
40
0.743216167734286
40
0.750165223893463
40
0.753639751973052
40
0.75711428005264
40
0.764063336211817
40
0.771012392370995
40
0.777961448530171
40
0.78143597660976
40
0.784910504689349
40
0.791859560848525
40
0.798808617007703
40
0.80575767316688
40
0.812706729326057
40
0.819655785485234
40
0.826604841644411
40
0.830079369723999
40
0.833553897803588
40
0.840502953962765
40
0.847452010121942
40
0.854401066281119
40
0.857875594360708
40
0.861350122440296
40
0.868299178599473
40
0.87524823475865
40
0.878722762838239
40
0.882197290917827
40
0.889146347077004
40
0.892620875156593
40
0.896095403236182
40
0.89956993131577
40
0.903044459395359
40
0.906518987474947
40
0.909993515554536
40
0.913468043634124
40
0.916942571713713
40
0.920417099793301
40
0.92389162787289
40
0.930840684032067
40
0.934315212111655
40
0.937789740191244
40
0.941264268270833
40
0.944738796350421
40
0.94821332443001
40
0.951687852509598
40
0.955162380589187
40
0.958636908668775
40
0.965585964827952
40
0.972535020987129
40
0.976009549066718
40
0.979484077146306
40
0.982958605225895
40
0.986433133305484
40
0.989907661385072
40
0.993382189464661
40
0.996856717544249
40
1
40
1
40
1
40
1
41
1
10
-1.99503997793928
20
-27.3251652616913
30
0
41
1
10
-1.99503997793928
20
-27.3252901251643
30
0
41
1
10
-1.99503997793928
20
-27.3243696727537
30
0
41
1
10
-1.99503997793928
20
-27.319236545434
30
0
41
1
10
-1.99503997793928
20
-27.309968420024
30
0
41
1
10
-1.99503997793928
20
-27.2968118977756
30
0
41
1
10
-1.99503997793928
20
-27.2798390211927
30
0
41
1
10
-1.99503997793928
20
-27.2591194067692
30
0
41
1
10
-1.99503997793928
20
-27.2347184649703
30
0
41
1
10
-1.99503997793928
20
-27.1973453109891
30
0
41
1
10
-1.99503997793928
20
-27.1417627231677
30
0
41
1
10
-1.99503997793928
20
-27.074692746873
30
0
41
1
10
-1.99503997793928
20
-27.0143097024856
30
0
41
1
10
-1.99503997793928
20
-26.9657375531884
30
0
41
1
10
-1.99503997793928
20
-26.9139107109326
30
0
41
1
10
-1.99503997793928
20
-26.8588742679962
30
0
41
1
10
-1.99503997793928
20
-26.8006684557748
30
0
41
1
10
-1.99503997793928
20
-26.7393343904956
30
0
41
1
10
-1.99503997793928
20
-26.674910802648
30
0
41
1
10
-1.99503997793928
20
-26.5849135587966
30
0
41
1
10
-1.99503997793928
20
-26.4889678074055
30
0
41
1
10
-1.99503997793928
20
-26.387035697685
30
0
41
1
10
-1.99503997793928
20
-26.3076915686753
30
0
41
1
10
-1.99503997793928
20
-26.2254595087626
30
0
41
1
10
-1.99503997793928
20
-26.1403699848692
30
0
41
1
10
-1.99503997793928
20
-26.0524523997801
30
0
41
1
10
-1.99503997793928
20
-25.9617325512637
30
0
41
1
10
-1.99503997793928
20
-25.8682385377286
30
0
41
1
10
-1.99503997793928
20
-25.7719964787433
30
0
41
1
10
-1.99503997793928
20
-25.6730295553062
30
0
41
1
10
-1.99503997793928
20
-25.5713637005868
30
0
41
1
10
-1.99503997793928
20
-25.4844312429181
30
0
41
1
10
-1.99503997793928
20
-25.4135236324805
30
0
41
1
10
-1.99503997793928
20
-25.3417349423789
30
0
41
1
10
-1.99503997793928
20
-25.2503983881991
30
0
41
1
10
-1.99503997793928
20
-25.1007072283818
30
0
41
1
10
-1.99503997793928
20
-24.9072094601534
30
0
41
1
10
-1.99503997793928
20
-24.7052121586235
30
0
41
1
10
-1.99503997793928
20
-24.5385089750245
30
0
41
1
10
-1.99503997793928
20
-24.3684762393368
30
0
41
1
10
-1.99503997793928
20
-24.1498376426061
30
0
41
1
10
-1.99503997793928
20
-23.8776317120835
30
0
41
1
10
-1.99503997793928
20
-23.6427893362144
30
0
41
1
10
-1.99503997793928
20
-23.4500539403358
30
0
41
1
10
-1.99503997793928
20
-23.2541535983722
30
0
41
1
10
-1.99503997793928
20
-23.003492407652
30
0
41
1
10
-1.99503997793928
20
-22.6933032792698
30
0
41
1
10
-1.99503997793928
20
-22.3738761836524
30
0
41
1
10
-1.99503997793928
20
-22.0453025532577
30
0
41
1
10
-1.99503997793928
20
-21.7076686135251
30
0
41
1
10
-1.99503997793928
20
-21.4188827024373
30
0
41
1
10
-1.99503997793928
20
-21.183296228919
30
0
41
1
10
-1.99503997793928
20
-20.9447536956121
30
0
41
1
10
-1.99503997793928
20
-20.6411931750868
30
0
41
1
10
-1.99503997793928
20
-20.2680830253803
30
0
41
1
10
-1.99503997793928
20
-19.9499723423375
30
0
41
1
10
-1.99503997793928
20
-19.6910450135594
30
0
41
1
10
-1.99503997793928
20
-19.4292463867236
30
0
41
1
10
-1.99503997793928
20
-19.096784863067
30
0
41
1
10
-1.99503997793928
20
-18.7572123739995
30
0
41
1
10
-1.99503997793928
20
-18.4811831112867
30
0
41
1
10
-1.99503997793928
20
-18.2023325950151
30
0
41
1
10
-1.99503997793928
20
-17.8486596758477
30
0
41
1
10
-1.99503997793928
20
-17.487986707193
30
0
41
1
10
-1.99503997793928
20
-17.195127364891
30
0
41
1
10
-1.99503997793928
20
-16.8994864797488
30
0
41
1
10
-1.99503997793928
20
-16.5999232615433
30
0
41
1
10
-1.99503997793928
20
-16.2959649333064
30
0
41
1
10
-1.99503997793928
20
-16.1043598435705
30
0
41
1
10
-1.99503997793928
20
-15.9499656619051
30
0
41
1
10
-1.99503997793928
20
-15.7948829493702
30
0
41
1
10
-1.99503997793928
20
-15.5998373978987
30
0
41
1
10
-1.99503997793928
20
-15.3636702284228
30
0
41
1
10
-1.99503997793928
20
-15.1254444180464
30
0
41
1
10
-1.99503997793928
20
-14.8851632986275
30
0
41
1
10
-1.99503997793928
20
-14.6428305081908
30
0
41
1
10
-1.99503997793928
20
-14.3984468555777
30
0
41
1
10
-1.99503997793928
20
-14.1520156158997
30
0
41
1
10
-1.99503997793928
20
-13.9035389822172
30
0
41
1
10
-1.99503997793928
20
-13.5694123671834
30
0
41
1
10
-1.99503997793928
20
-13.2315065950277
30
0
41
1
10
-1.99503997793928
20
-12.8892093803249
30
0
41
1
10
-1.99503997793928
20
-12.6305299496176
30
0
41
1
10
-1.99503997793928
20
-12.3698135917844
30
0
41
1
10
-1.99503997793928
20
-12.1070624362612
30
0
41
1
10
-1.99503997793928
20
-11.8422771919955
30
0
41
1
10
-1.99503997793928
20
-11.4864047694406
30
0
41
1
10
-1.99503997793928
20
-11.036753378672
30
0
41
1
10
-1.99503997793928
20
-10.5803285804451
30
0
41
1
10
-1.99503997793928
20
-10.2109002581502
30
0
41
1
10
-1.99503997793928
20
-9.93190145357084
30
0
41
1
10
-1.99503997793928
20
-9.6508756669198
30
0
41
1
10
-1.99503997793928
20
-9.36782441803413
30
0
41
1
10
-1.99503997793928
20
-9.08274869992735
30
0
41
1
10
-1.99503997793928
20
-8.79565052315385
30
0
41
1
10
-1.99503997793928
20
-8.5065316633322
30
0
41
1
10
-1.99503997793928
20
-8.21539474907743
30
0
41
1
10
-1.99503997793928
20
-7.92224261249635
30
0
41
1
10
-1.99503997793928
20
-7.62707900817011
30
0
41
1
10
-1.99503997793928
20
-7.32990842680402
30
0
41
1
10
-1.99503997793928
20
-7.03073644813685
30
0
41
1
10
-1.99503997793928
20
-6.72956956969855
30
0
41
1
10
-1.99503997793928
20
-6.42641643294533
30
0
41
1
10
-1.99503997793928
20
-6.12128657453567
30
0
41
1
10
-1.99503997793928
20
-5.86547227949208
30
0
41
1
10
-1.99503997793928
20
-5.65966031743471
30
0
41
1
10
-1.99503997793928
20
-5.45320484016275
30
0
41
1
10
-1.99503997793928
20
-5.194175192833
30
0
41
1
10
-1.99503997793928
20
-4.93354787471691
30
0
41
1
10
-1.99503997793928
20
-4.72389491984228
30
0
41
1
10
-1.99503997793928
20
-4.51362416489164
30
0
41
1
10
-1.99503997793928
20
-4.30279738744869
30
0
41
1
10
-1.99503997793928
20
-4.0906802174616
30
0
41
1
10
-1.99503997793928
20
-3.95788266698418
30
0
41
1
10
-1.99503997793928
20
-3.85130376069884
30
0
41
1
10
-1.99503997793928
20
-3.74458052899692
30
0
41
1
10
-1.99503997793928
20
-3.61106187073102
30
0
41
1
10
-1.99503997793928
20
-3.45032621656429
30
0
41
1
10
-1.99503997793928
20
-3.28917313145487
30
0
41
1
10
-1.99503997793928
20
-3.12761068170508
30
0
41
1
10
-1.99503997793928
20
-2.96564923158397
30
0
41
1
10
-1.99503997793928
20
-2.83043414688217
30
0
41
1
10
-1.99503997793928
20
-2.72193089625395
30
0
41
1
10
-1.99503997793928
20
-2.64052221841842
30
0
41
1
10
-1.99503997793928
20
-2.55902310675029
30
0
41
1
10
-1.99503997793928
20
-2.47743504267538
30
0
41
1
10
-1.99503997793928
20
-2.39575871579828
30
0
41
1
10
-1.99503997793928
20
-2.28665934688649
30
0
41
1
10
-1.99503997793928
20
-2.17765162048644
30
0
41
1
10
-1.99503997793928
20
-2.06822032488085
30
0
41
1
10
-1.99503997793928
20
-1.95868778076368
30
0
41
1
10
-1.99503997793928
20
-1.84927662995438
30
0
41
1
10
-1.99503997793928
20
-1.73944751085296
30
0
41
1
10
-1.99503997793928
20
-1.6295301381889
30
0
41
1
10
-1.99503997793928
20
-1.51976603752374
30
0
41
1
10
-1.99503997793928
20
-1.40959257647998
30
0
41
1
10
-1.99503997793928
20
-1.29934603509318
30
0
41
1
10
-1.99503997793928
20
-1.16162401558285
30
0
41
1
10
-1.99503997793928
20
-0.996043867302802
30
0
41
1
10
-1.99503997793928
20
-0.858021466226489
30
0
41
1
10
-1.99503997793928
20
-0.74734826211116
30
0
41
1
10
-1.99503997793928
20
-0.664391463462891
30
0
41
1
10
-1.99503997793928
20
-0.581404948836564
30
0
41
1
10
-1.99503997793928
20
-0.498392847694362
30
0
41
1
10
-1.99503997793928
20
-0.415360879438595
30
0
41
1
10
-1.99503997793928
20
-0.332310821896414
30
0
41
1
10
-1.99503997793928
20
-0.249244909992626
30
0
41
1
10
-1.99503997793928
20
-0.166169126760138
30
0
41
1
10
-1.99503997793928
20
-0.083087258687442
30
0
41
1
10
-1.99503997793928
20
-7.3694082E-09
30
0
41
1
10
-1.99503997793928
20
0.0830872457044336
30
0
41
1
10
-1.99503997793928
20
0.166169118100839
30
0
41
1
10
-1.99503997793928
20
0.249244906780348
30
0
41
1
10
-1.99503997793928
20
0.332310822055121
30
0
41
1
10
-1.99503997793928
20
0.415360877837117
30
0
41
1
10
-1.99503997793928
20
0.498392839537729
30
0
41
1
10
-1.99503997793928
20
0.581404932400318
30
0
41
1
10
-1.99503997793928
20
0.664391443726458
30
0
41
1
10
-1.99503997793928
20
0.747348246925924
30
0
41
1
10
-1.99503997793928
20
0.858021465650296
30
0
41
1
10
-1.99503997793928
20
0.99604387184678
30
0
41
1
10
-1.99503997793928
20
1.16162399896865
30
0
41
1
10
-1.99503997793928
20
1.29934600948991
30
0
41
1
10
-1.99503997793928
20
1.40959256793391
30
0
41
1
10
-1.99503997793928
20
1.51976604695517
30
0
41
1
10
-1.99503997793928
20
1.62953014673869
30
0
41
1
10
-1.99503997793928
20
1.73944749852939
30
0
41
1
10
-1.99503997793928
20
1.84927659960155
30
0
41
1
10
-1.99503997793928
20
1.95868775414536
30
0
41
1
10
-1.99503997793928
20
2.06822032104492
30
0
41
1
10
-1.99503997793928
20
2.17765163493269
30
0
41
1
10
-1.99503997793928
20
2.28665935771656
30
0
41
1
10
-1.99503997793928
20
2.39575870345573
30
0
41
1
10
-1.99503997793928
20
2.47743501265126
30
0
41
1
10
-1.99503997793928
20
2.55902307088405
30
0
41
1
10
-1.99503997793928
20
2.64052218961078
30
0
41
1
10
-1.99503997793928
20
2.72193088426971
30
0
41
1
10
-1.99503997793928
20
2.83043415716216
30
0
41
1
10
-1.99503997793928
20
2.96564924759372
30
0
41
1
10
-1.99503997793928
20
3.12761066714143
30
0
41
1
10
-1.99503997793928
20
3.28917309238062
30
0
41
1
10
-1.99503997793928
20
3.45032619783549
30
0
41
1
10
-1.99503997793928
20
3.61106188513384
30
0
41
1
10
-1.99503997793928
20
3.74458054435991
30
0
41
1
10
-1.99503997793928
20
3.85130375742838
30
0
41
1
10
-1.99503997793928
20
3.95788264175957
30
0
41
1
10
-1.99503997793928
20
4.09068017699948
30
0
41
1
10
-1.99503997793928
20
4.30279737234505
30
0
41
1
10
-1.99503997793928
20
4.51362418453465
30
0
41
1
10
-1.99503997793928
20
4.72389491460817
30
0
41
1
10
-1.99503997793928
20
4.93354783719795
30
0
41
1
10
-1.99503997793928
20
5.19417516976088
30
0
41
1
10
-1.99503997793928
20
5.45320486068488
30
0
41
1
10
-1.99503997793928
20
5.65966031194296
30
0
41
1
10
-1.99503997793928
20
5.86547224264382
30
0
41
1
10
-1.99503997793928
20
6.12128654405475
30
0
41
1
10
-1.99503997793928
20
6.42641644899931
30
0
41
1
10
-1.99503997793928
20
6.7295695622245
30
0
41
1
10
-1.99503997793928
20
7.03073643509245
30
0
41
1
10
-1.99503997793928
20
7.32990848936902
30
0
41
1
10
-1.99503997793928
20
7.62707899667751
30
0
41
1
10
-1.99503997793928
20
7.92224242464158
30
0
41
1
10
-1.99503997793928
20
8.21539468387994
30
0
41
1
10
-1.99503997793928
20
8.50653184364373
30
0
41
1
10
-1.99503997793928
20
8.79565051892371
30
0
41
1
10
-1.99503997793928
20
9.08274836934052
30
0
41
1
10
-1.99503997793928
20
9.36782442184719
30
0
41
1
10
-1.99503997793928
20
9.65087577167401
30
0
41
1
10
-1.99503997793928
20
9.93190148567106
30
0
41
1
10
-1.99503997793928
20
10.2109002476074
30
0
41
1
10
-1.99503997793928
20
10.4878712580384
30
0
41
1
10
-1.99503997793928
20
10.7628135122141
30
0
41
1
10
-1.99503997793928
20
11.1268240668469
30
0
41
1
10
-1.99503997793928
20
11.4864047926357
30
0
41
1
10
-1.99503997793928
20
11.8422771763273
30
0
41
1
10
-1.99503997793928
20
12.1070624597528
30
0
41
1
10
-1.99503997793928
20
12.3698136542137
30
0
41
1
10
-1.99503997793928
20
12.630529996325
30
0
41
1
10
-1.99503997793928
20
12.8892094092454
30
0
41
1
10
-1.99503997793928
20
13.2315065874855
30
0
41
1
10
-1.99503997793928
20
13.5694124056225
30
0
41
1
10
-1.99503997793928
20
13.903538977374
30
0
41
1
10
-1.99503997793928
20
14.1520156345789
30
0
41
1
10
-1.99503997793928
20
14.3984468746313
30
0
41
1
10
-1.99503997793928
20
14.6428305016925
30
0
41
1
10
-1.99503997793928
20
14.8851633083157
30
0
41
1
10
-1.99503997793928
20
15.1254443246959
30
0
41
1
10
-1.99503997793928
20
15.3636701740732
30
0
41
1
10
-1.99503997793928
20
15.5998376412757
30
0
41
1
10
-1.99503997793928
20
15.8339451945693
30
0
41
1
10
-1.99503997793928
20
16.0659886092783
30
0
41
1
10
-1.99503997793928
20
16.2959645253135
30
0
41
1
10
-1.99503997793928
20
16.5999232967459
30
0
41
1
10
-1.99503997793928
20
16.8994865286445
30
0
41
1
10
-1.99503997793928
20
17.1951273582893
30
0
41
1
10
-1.99503997793928
20
17.487986711463
30
0
41
1
10
-1.99503997793928
20
17.8486596771386
30
0
41
1
10
-1.99503997793928
20
18.2023325900281
30
0
41
1
10
-1.99503997793928
20
18.4811831142103
30
0
41
1
10
-1.99503997793928
20
18.7572123771119
30
0
41
1
10
-1.99503997793928
20
19.0967848636163
30
0
41
1
10
-1.99503997793928
20
19.4292463860981
30
0
41
1
10
-1.99503997793928
20
19.6910450149659
30
0
41
1
10
-1.99503997793928
20
19.9499723474756
30
0
41
1
10
-1.99503997793928
20
20.2680830241603
30
0
41
1
10
-1.99503997793928
20
20.6411931765509
30
0
41
1
10
-1.99503997793928
20
20.9447536987916
30
0
41
1
10
-1.99503997793928
20
21.183296231241
30
0
41
1
10
-1.99503997793928
20
21.4188827033322
30
0
41
1
10
-1.99503997793928
20
21.7076686178739
30
0
41
1
10
-1.99503997793928
20
22.0453025545601
30
0
41
1
10
-1.99503997793928
20
22.3738761877812
30
0
41
1
10
-1.99503997793928
20
22.6933032821098
30
0
41
1
10
-1.99503997793928
20
23.0034924093454
30
0
41
1
10
-1.99503997793928
20
23.2541536051906
30
0
41
1
10
-1.99503997793928
20
23.4500539432773
30
0
41
1
10
-1.99503997793928
20
23.6427893382923
30
0
41
1
10
-1.99503997793928
20
23.8776317176071
30
0
41
1
10
-1.99503997793928
20
24.1498376513416
30
0
41
1
10
-1.99503997793928
20
24.3684762369578
30
0
41
1
10
-1.99503997793928
20
24.5385089830443
30
0
41
1
10
-1.99503997793928
20
24.7052121640854
30
0
41
1
10
-1.99503997793928
20
24.9072094682151
30
0
41
1
10
-1.99503997793928
20
25.1007072668634
30
0
41
1
10
-1.99503997793928
20
25.2503982620474
30
0
41
1
10
-1.99503997793928
20
25.396607276112
30
0
41
1
10
-1.99503997793928
20
25.5374379046987
30
0
41
1
10
-1.99503997793928
20
25.6730299792935
30
0
41
1
10
-1.99503997793928
20
25.7719963599905
30
0
41
1
10
-1.99503997793928
20
25.8682384460151
30
0
41
1
10
-1.99503997793928
20
25.961732550658
30
0
41
1
10
-1.99503997793928
20
26.0524524072106
30
0
41
1
10
-1.99503997793928
20
26.1403699560892
30
0
41
1
10
-1.99503997793928
20
26.2254595012835
30
0
41
1
10
-1.99503997793928
20
26.307691573879
30
0
41
1
10
-1.99503997793928
20
26.3870356638969
30
0
41
1
10
-1.99503997793928
20
26.4889678259812
30
0
41
1
10
-1.99503997793928
20
26.5849135103433
30
0
41
1
10
-1.99503997793928
20
26.6749108160321
30
0
41
1
10
-1.99503997793928
20
26.7393343627507
30
0
41
1
10
-1.99503997793928
20
26.8006684388868
30
0
41
1
10
-1.99503997793928
20
26.8588742790416
30
0
41
1
10
-1.99503997793928
20
26.9139106605823
30
0
41
1
10
-1.99503997793928
20
26.965737488626
30
0
41
1
10
-1.99503997793928
20
27.0143096332649
30
0
41
1
10
-1.99503997793928
20
27.0746927526657
30
0
41
1
10
-1.99503997793928
20
27.1417627098538
30
0
41
1
10
-1.99503997793928
20
27.197345231477
30
0
41
1
10
-1.99503997793928
20
27.2347185022954
30
0
41
1
10
-1.99503997793928
20
27.2591194581005
30
0
41
1
10
-1.99503997793928
20
27.2798390261951
30
0
41
1
10
-1.99503997793928
20
27.2968118938473
30
0
41
1
10
-1.99503997793928
20
27.3099684620727
30
0
41
1
10
-1.99503997793928
20
27.319236569139
30
0
41
1
10
-1.99503997793926
20
27.3243704275387
30
0
41
1
10
-1.99503997793928
20
27.3252905524091
30
0
41
1
10
-1.99503997793928
20
27.3251650836112
30
0
0
SPLINE
5
276
100
AcDbEntity
8
SK1
62
256
6
ByLayer
370
-1
48
1
60
0
100
AcDbSpline
70
4
71
3
72
299
73
295
40
0
40
0
40
0
40
0
40
0.0016934384801936
40
0.0052026380421008
40
0.008711837604008
40
0.0122210371659152
40
0.0157302367278224
40
0.0192394362897297
40
0.0227486358516369
40
0.0297670349754513
40
0.0367854340992657
40
0.0402946336611729
40
0.0438038332230801
40
0.0473130327849873
40
0.0508222323468945
40
0.0543314319088018
40
0.0578406314707089
40
0.0613498310326162
40
0.0648590305945234
40
0.0718774297183378
40
0.075386629280245
40
0.0788958288421522
40
0.0824050284040595
40
0.0859142279659667
40
0.0894234275278739
40
0.0929326270897811
40
0.0964418266516883
40
0.0999510262135954
40
0.103460225775503
40
0.10696942533741
40
0.110478624899317
40
0.112233224680271
40
0.113987824461224
40
0.117497024023132
40
0.121006223585039
40
0.128024622708853
40
0.135043021832668
40
0.138552221394575
40
0.142061420956482
40
0.149079820080296
40
0.156098219204111
40
0.163116618327925
40
0.166625817889832
40
0.17013501745174
40
0.177153416575554
40
0.184171815699369
40
0.191190214823183
40
0.198208613946997
40
0.205227013070812
40
0.212245412194626
40
0.215754611756533
40
0.219263811318441
40
0.226282210442255
40
0.233300609566069
40
0.240319008689884
40
0.243828208251791
40
0.247337407813698
40
0.254355806937513
40
0.261374206061327
40
0.264883405623234
40
0.268392605185142
40
0.275411004308956
40
0.282429403432771
40
0.285938602994678
40
0.289447802556585
40
0.296466201680399
40
0.299975401242306
40
0.303484600804214
40
0.305239200585167
40
0.306993800366121
40
0.310502999928028
40
0.314012199489935
40
0.317521399051843
40
0.32103059861375
40
0.324539798175657
40
0.328048997737564
40
0.331558197299471
40
0.335067396861379
40
0.338576596423286
40
0.3455949955471
40
0.349104195109007
40
0.352613394670915
40
0.356122594232822
40
0.359631793794729
40
0.363140993356636
40
0.366650192918544
40
0.373668592042358
40
0.380686991166172
40
0.38419619072808
40
0.387705390289987
40
0.391214589851894
40
0.394723789413801
40
0.398232988975708
40
0.401742188537616
40
0.405251388099523
40
0.40876058766143
40
0.412269787223337
40
0.415778986785244
40
0.419288186347152
40
0.422797385909059
40
0.426306585470966
40
0.429815785032873
40
0.433324984594781
40
0.436834184156688
40
0.438588783937641
40
0.440343383718595
40
0.443852583280502
40
0.447361782842409
40
0.449116382623363
40
0.450870982404317
40
0.454380181966224
40
0.456134781747177
40
0.457889381528131
40
0.458766681418608
40
0.459643981309085
40
0.461398581090038
40
0.463153180870992
40
0.464907780651945
40
0.466662380432899
40
0.468416980213853
40
0.470171579994806
40
0.471048879885283
40
0.47192617977576
40
0.472803479666237
40
0.473680779556713
40
0.47455807944719
40
0.475435379337667
40
0.477189979118621
40
0.478067279009097
40
0.478944578899574
40
0.480699178680528
40
0.481576478571005
40
0.482453778461482
40
0.484208378242435
40
0.485085678132912
40
0.485962978023389
40
0.487717577804342
40
0.489472177585296
40
0.491226777366249
40
0.492104077256726
40
0.492981377147203
40
0.49385867703768
40
0.494735976928157
40
0.495613276818633
40
0.49649057670911
40
0.497367876599587
40
0.498245176490064
40
0.499122476380541
40
0.499999776271017
40
0.500877076161494
40
0.501754376051971
40
0.502631675942448
40
0.503508975832925
40
0.504386275723401
40
0.505263575613878
40
0.506140875504355
40
0.507018175394832
40
0.507895475285309
40
0.508772775175785
40
0.510527374956739
40
0.512281974737693
40
0.514036574518646
40
0.514913874409123
40
0.5157911742996
40
0.517545774080554
40
0.51842307397103
40
0.519300373861507
40
0.521054973642461
40
0.521932273532938
40
0.522809573423414
40
0.524564173204368
40
0.525441473094845
40
0.526318772985321
40
0.527196072875798
40
0.528073372766275
40
0.528950672656752
40
0.529827972547229
40
0.531582572328182
40
0.533337172109136
40
0.53509177189009
40
0.536846371671043
40
0.538600971451997
40
0.540355571232951
40
0.541232871123427
40
0.542110171013904
40
0.543864770794858
40
0.545619370575811
40
0.549128570137719
40
0.550883169918672
40
0.552637769699626
40
0.556146969261533
40
0.55965616882344
40
0.561410768604394
40
0.563165368385347
40
0.566674567947254
40
0.570183767509162
40
0.573692967071069
40
0.577202166632976
40
0.580711366194884
40
0.584220565756791
40
0.587729765318698
40
0.591238964880605
40
0.594748164442512
40
0.598257364004419
40
0.601766563566327
40
0.605275763128234
40
0.608784962690141
40
0.612294162252048
40
0.615803361813955
40
0.619312561375863
40
0.62282176093777
40
0.626330960499677
40
0.633349359623492
40
0.636858559185399
40
0.640367758747306
40
0.643876958309213
40
0.64738615787112
40
0.650895357433028
40
0.654404556994935
40
0.661422956118749
40
0.664932155680656
40
0.668441355242564
40
0.671950554804471
40
0.675459754366378
40
0.678968953928285
40
0.682478153490192
40
0.6859873530521
40
0.689496552614007
40
0.693005752175914
40
0.696514951737821
40
0.700024151299729
40
0.703533350861636
40
0.71055174998545
40
0.714060949547357
40
0.717570149109265
40
0.724588548233079
40
0.731606947356893
40
0.735116146918801
40
0.738625346480708
40
0.745643745604522
40
0.752662144728337
40
0.756171344290244
40
0.759680543852151
40
0.766698942975966
40
0.77371734209978
40
0.780735741223594
40
0.784244940785502
40
0.787754140347409
40
0.794772539471223
40
0.801790938595038
40
0.808809337718852
40
0.815827736842666
40
0.822846135966481
40
0.829864535090295
40
0.833373734652202
40
0.83688293421411
40
0.843901333337924
40
0.850919732461739
40
0.857938131585553
40
0.86144733114746
40
0.864956530709367
40
0.871974929833182
40
0.878993328956996
40
0.882502528518904
40
0.886011728080811
40
0.893030127204625
40
0.896539326766532
40
0.900048526328439
40
0.903557725890347
40
0.907066925452254
40
0.910576125014161
40
0.914085324576068
40
0.917594524137975
40
0.921103723699883
40
0.92461292326179
40
0.928122122823697
40
0.935140521947512
40
0.938649721509419
40
0.942158921071326
40
0.945668120633233
40
0.949177320195141
40
0.952686519757048
40
0.956195719318955
40
0.959704918880862
40
0.963214118442769
40
0.970232517566584
40
0.977250916690398
40
0.980760116252305
40
0.984269315814212
40
0.98777851537612
40
0.991287714938027
40
0.994796914499934
40
0.998306114061842
40
1
40
1
40
1
40
1
41
1
10
-48
20
-25.5377836878004
30
0
41
1
10
-48
20
-25.5369757220581
30
0
41
1
10
-48
20
-25.5340454849722
30
0
41
1
10
-48
20
-25.5268535273441
30
0
41
1
10
-48
20
-25.5145008149315
30
0
41
1
10
-48
20
-25.498546052428
30
0
41
1
10
-48
20
-25.4790475285131
30
0
41
1
10
-48
20
-25.4560605539616
30
0
41
1
10
-48
20
-25.4206809385044
30
0
41
1
10
-48
20
-25.3683435244347
30
0
41
1
10
-48
20
-25.3050935983469
30
0
41
1
10
-48
20
-25.2477155824513
30
0
41
1
10
-48
20
-25.2016868330385
30
0
41
1
10
-48
20
-25.152540227847
30
0
41
1
10
-48
20
-25.1003164469937
30
0
41
1
10
-48
20
-25.0450517289096
30
0
41
1
10
-48
20
-24.9867824066374
30
0
41
1
10
-48
20
-24.9255447176865
30
0
41
1
10
-48
20
-24.839671739525
30
0
41
1
10
-48
20
-24.7489365887333
30
0
41
1
10
-48
20
-24.6515544180899
30
0
41
1
10
-48
20
-24.5759533043403
30
0
41
1
10
-48
20
-24.4975687629489
30
0
41
1
10
-48
20
-24.4164276140701
30
0
41
1
10
-48
20
-24.3325592473395
30
0
41
1
10
-48
20
-24.2459871695687
30
0
41
1
10
-48
20
-24.1567364141525
30
0
41
1
10
-48
20
-24.0648340874221
30
0
41
1
10
-48
20
-23.9703007183102
30
0
41
1
10
-48
20
-23.8731600668768
30
0
41
1
10
-48
20
-23.7902703050809
30
0
41
1
10
-48
20
-23.7222924438482
30
0
41
1
10
-48
20
-23.653458955013
30
0
41
1
10
-48
20
-23.5663193127548
30
0
41
1
10
-48
20
-23.4227344317565
30
0
41
1
10
-48
20
-23.2380159335195
30
0
41
1
10
-48
20
-23.0451147378601
30
0
41
1
10
-48
20
-22.8850691532134
30
0
41
1
10
-48
20
-22.7217969969803
30
0
41
1
10
-48
20
-22.5128489113235
30
0
41
1
10
-48
20
-22.2520665958364
30
0
41
1
10
-48
20
-22.0275248400849
30
0
41
1
10
-48
20
-21.8423074664778
30
0
41
1
10
-48
20
-21.6540306628311
30
0
41
1
10
-48
20
-21.4142718291048
30
0
41
1
10
-48
20
-21.1168973606635
30
0
41
1
10
-48
20
-20.8106419723679
30
0
41
1
10
-48
20
-20.4956027387563
30
0
41
1
10
-48
20
-20.1718725887445
30
0
41
1
10
-48
20
-19.8955820016259
30
0
41
1
10
-48
20
-19.6691006662323
30
0
41
1
10
-48
20
-19.4397871520623
30
0
41
1
10
-48
20
-19.149410368202
30
0
41
1
10
-48
20
-18.7917723606454
30
0
41
1
10
-48
20
-18.4875640285875
30
0
41
1
10
-48
20
-18.2387699032321
30
0
41
1
10
-48
20
-17.9872478599777
30
0
41
1
10
-48
20
-17.6694739204115
30
0
41
1
10
-48
20
-17.3449849911693
30
0
41
1
10
-48
20
-17.0799573159189
30
0
41
1
10
-48
20
-16.8122724002143
30
0
41
1
10
-48
20
-16.4745711156787
30
0
41
1
10
-48
20
-16.1303137979014
30
0
41
1
10
-48
20
-15.8494407221551
30
0
41
1
10
-48
20
-15.5659773316764
30
0
41
1
10
-48
20
-15.2813516937416
30
0
41
1
10
-48
20
-14.9901200233614
30
0
41
1
10
-48
20
-14.8075644243928
30
0
41
1
10
-48
20
-14.6597110063681
30
0
41
1
10
-48
20
-14.5112241351638
30
0
41
1
10
-48
20
-14.325523032543
30
0
41
1
10
-48
20
-14.100206062781
30
0
41
1
10
-48
20
-13.8730097919851
30
0
41
1
10
-48
20
-13.6439374060174
30
0
41
1
10
-48
20
-13.4130051173935
30
0
41
1
10
-48
20
-13.180217534584
30
0
41
1
10
-48
20
-12.9455817705228
30
0
41
1
10
-48
20
-12.7091124446063
30
0
41
1
10
-48
20
-12.3902773743984
30
0
41
1
10
-48
20
-12.0712141126493
30
0
41
1
10
-48
20
-11.7450471308309
30
0
41
1
10
-48
20
-11.499537429511
30
0
41
1
10
-48
20
-11.2522509655356
30
0
41
1
10
-48
20
-11.0031990533662
30
0
41
1
10
-48
20
-10.7523971889997
30
0
41
1
10
-48
20
-10.4143930662711
30
0
41
1
10
-48
20
-9.99059437973426
30
0
41
1
10
-48
20
-9.56108850247725
30
0
41
1
10
-48
20
-9.21157829691111
30
0
41
1
10
-48
20
-8.94892889623651
30
0
41
1
10
-48
20
-8.68465969448138
30
0
41
1
10
-48
20
-8.41879489376456
30
0
41
1
10
-48
20
-8.1513584304715
30
0
41
1
10
-48
20
-7.88237762223332
30
0
41
1
10
-48
20
-7.61188258574541
30
0
41
1
10
-48
20
-7.33990573648225
30
0
41
1
10
-48
20
-7.06648317582801
30
0
41
1
10
-48
20
-6.79165403169532
30
0
41
1
10
-48
20
-6.51546273390829
30
0
41
1
10
-48
20
-6.23795844891293
30
0
41
1
10
-48
20
-5.95919386675251
30
0
41
1
10
-48
20
-5.67923124039956
30
0
41
1
10
-48
20
-5.39813608998188
30
0
41
1
10
-48
20
-5.16409942590656
30
0
41
1
10
-48
20
-4.97430334712462
30
0
41
1
10
-48
20
-4.7842335597642
30
0
41
1
10
-48
20
-4.54886462907325
30
0
41
1
10
-48
20
-4.31277534686873
30
0
41
1
10
-48
20
-4.12122851639978
30
0
41
1
10
-48
20
-3.92953181194159
30
0
41
1
10
-48
20
-3.74171250564351
30
0
41
1
10
-48
20
-3.54939053469457
30
0
41
1
10
-48
20
-3.43078723702686
30
0
41
1
10
-48
20
-3.33452834177101
30
0
41
1
10
-48
20
-3.23827071234683
30
0
41
1
10
-48
20
-3.11968323888183
30
0
41
1
10
-48
20
-2.9763972576242
30
0
41
1
10
-48
20
-2.83312966280692
30
0
41
1
10
-48
20
-2.68989995735709
30
0
41
1
10
-48
20
-2.54673093615281
30
0
41
1
10
-48
20
-2.42835340498934
30
0
41
1
10
-48
20
-2.33210483961736
30
0
41
1
10
-48
20
-2.26063536694386
30
0
41
1
10
-48
20
-2.18920496049071
30
0
41
1
10
-48
20
-2.11781396766756
30
0
41
1
10
-48
20
-2.04645318736363
30
0
41
1
10
-48
20
-1.95042373572571
30
0
41
1
10
-48
20
-1.85738517673588
30
0
41
1
10
-48
20
-1.76148268994555
30
0
41
1
10
-48
20
-1.66566845968211
30
0
41
1
10
-48
20
-1.57300568038053
30
0
41
1
10
-48
20
-1.47735113591224
30
0
41
1
10
-48
20
-1.38179732051373
30
0
41
1
10
-48
20
-1.28954369165814
30
0
41
1
10
-48
20
-1.19416572492489
30
0
41
1
10
-48
20
-1.09890005736773
30
0
41
1
10
-48
20
-0.98245221211539
30
0
41
1
10
-48
20
-0.841586183466262
30
0
41
1
10
-48
20
-0.725505983440371
30
0
41
1
10
-48
20
-0.630667457966069
30
0
41
1
10
-48
20
-0.560480352627565
30
0
41
1
10
-48
20
-0.490320947144568
30
0
41
1
10
-48
20
-0.420191796768449
30
0
41
1
10
-48
20
-0.350113667187827
30
0
41
1
10
-48
20
-0.280062256420109
30
0
41
1
10
-48
20
-0.210017157782517
30
0
41
1
10
-48
20
-0.139999797922002
30
0
41
1
10
-48
20
-0.0700069276308
30
0
41
1
10
-48
20
-4.76035495E-08
30
0
41
1
10
-48
20
0.070006852265891
30
0
41
1
10
-48
20
0.139999771278355
30
0
41
1
10
-48
20
0.210017192178867
30
0
41
1
10
-48
20
0.280062327764426
30
0
41
1
10
-48
20
0.350113717602739
30
0
41
1
10
-48
20
0.420191773132984
30
0
41
1
10
-48
20
0.490320831948736
30
0
41
1
10
-48
20
0.560480204117283
30
0
41
1
10
-48
20
0.630667364061651
30
0
41
1
10
-48
20
0.725506055183985
30
0
41
1
10
-48
20
0.841586301072908
30
0
41
1
10
-48
20
0.982452087600734
30
0
41
1
10
-48
20
1.0988998543464
30
0
41
1
10
-48
20
1.19416572065762
30
0
41
1
10
-48
20
1.28954388060518
30
0
41
1
10
-48
20
1.38179747741995
30
0
41
1
10
-48
20
1.47735105462405
30
0
41
1
10
-48
20
1.57300541448592
30
0
41
1
10
-48
20
1.66566826608278
30
0
41
1
10
-48
20
1.7614827566702
30
0
41
1
10
-48
20
1.85738542747043
30
0
41
1
10
-48
20
1.95042391104269
30
0
41
1
10
-48
20
2.04645309751422
30
0
41
1
10
-48
20
2.11781369872008
30
0
41
1
10
-48
20
2.1892046545733
30
0
41
1
10
-48
20
2.26063516689573
30
0
41
1
10
-48
20
2.33210483720981
30
0
41
1
10
-48
20
2.42835363712962
30
0
41
1
10
-48
20
2.54673116818745
30
0
41
1
10
-48
20
2.68989982354518
30
0
41
1
10
-48
20
2.83312933609361
30
0
41
1
10
-48
20
2.9763972238697
30
0
41
1
10
-48
20
3.1196835191557
30
0
41
1
10
-48
20
3.23827092858158
30
0
41
1
10
-48
20
3.33452833265792
30
0
41
1
10
-48
20
3.43078700052166
30
0
41
1
10
-48
20
3.54939021067565
30
0
41
1
10
-48
20
3.74171256557347
30
0
41
1
10
-48
20
3.92953209444403
30
0
41
1
10
-48
20
4.12122845571991
30
0
41
1
10
-48
20
4.31277503954936
30
0
41
1
10
-48
20
4.54886466434414
30
0
41
1
10
-48
20
4.78423382727124
30
0
41
1
10
-48
20
4.97430327353658
30
0
41
1
10
-48
20
5.16409912297942
30
0
41
1
10
-48
20
5.39813607390266
30
0
41
1
10
-48
20
5.67923146024086
30
0
41
1
10
-48
20
5.95919374753973
30
0
41
1
10
-48
20
6.23795855201797
30
0
41
1
10
-48
20
6.51546317325875
30
0
41
1
10
-48
20
6.79165340259817
30
0
41
1
10
-48
20
7.06648207689202
30
0
41
1
10
-48
20
7.33990643048304
30
0
41
1
10
-48
20
7.61188395990186
30
0
41
1
10
-48
20
7.88237631719019
30
0
41
1
10
-48
20
8.15135709229654
30
0
41
1
10
-48
20
8.418796053622
30
0
41
1
10
-48
20
8.68466042952298
30
0
41
1
10
-48
20
8.94892880419638
30
0
41
1
10
-48
20
9.211578053919
30
0
41
1
10
-48
20
9.47258829745539
30
0
41
1
10
-48
20
9.73193781693985
30
0
41
1
10
-48
20
10.0769274508058
30
0
41
1
10
-48
20
10.414392862813
30
0
41
1
10
-48
20
10.7523970809122
30
0
41
1
10
-48
20
11.0031992619305
30
0
41
1
10
-48
20
11.2522511703231
30
0
41
1
10
-48
20
11.4995374559565
30
0
41
1
10
-48
20
11.7450470242589
30
0
41
1
10
-48
20
12.0712140924269
30
0
41
1
10
-48
20
12.3902774266109
30
0
41
1
10
-48
20
12.7091123929265
30
0
41
1
10
-48
20
12.9455818593715
30
0
41
1
10
-48
20
13.180217502072
30
0
41
1
10
-48
20
13.4130051102497
30
0
41
1
10
-48
20
13.6439372705323
30
0
41
1
10
-48
20
13.8730093523109
30
0
41
1
10
-48
20
14.1002065298018
30
0
41
1
10
-48
20
14.3255243550819
30
0
41
1
10
-48
20
14.5489565829083
30
0
41
1
10
-48
20
14.770489234737
30
0
41
1
10
-48
20
14.9901189866895
30
0
41
1
10
-48
20
15.281352479629
30
0
41
1
10
-48
20
15.5659774253293
30
0
41
1
10
-48
20
15.8494406493609
30
0
41
1
10
-48
20
16.1303138068004
30
0
41
1
10
-48
20
16.4745711051771
30
0
41
1
10
-48
20
16.8122723965627
30
0
41
1
10
-48
20
17.0799573317746
30
0
41
1
10
-48
20
17.3449849938592
30
0
41
1
10
-48
20
17.6694739164695
30
0
41
1
10
-48
20
17.9872478593116
30
0
41
1
10
-48
20
18.2387699128343
30
0
41
1
10
-48
20
18.4875640333771
30
0
41
1
10
-48
20
18.7917723547731
30
0
41
1
10
-48
20
19.1494103733366
30
0
41
1
10
-48
20
19.4397871566123
30
0
41
1
10
-48
20
19.669100665748
30
0
41
1
10
-48
20
19.895582003726
30
0
41
1
10
-48
20
20.1718725940103
30
0
41
1
10
-48
20
20.4956027399134
30
0
41
1
10
-48
20
20.8106419777062
30
0
41
1
10
-48
20
21.1168973616587
30
0
41
1
10
-48
20
21.4142718340937
30
0
41
1
10
-48
20
21.6540306704864
30
0
41
1
10
-48
20
21.8423074648877
30
0
41
1
10
-48
20
22.027524843194
30
0
41
1
10
-48
20
22.2520666060929
30
0
41
1
10
-48
20
22.5128489142549
30
0
41
1
10
-48
20
22.7217969951793
30
0
41
1
10
-48
20
22.8850691676056
30
0
41
1
10
-48
20
23.0451147420464
30
0
41
1
10
-48
20
23.2380159650749
30
0
41
1
10
-48
20
23.4227343577602
30
0
41
1
10
-48
20
23.56631942935
30
0
41
1
10
-48
20
23.7065276517659
30
0
41
1
10
-48
20
23.8403627529258
30
0
41
1
10
-48
20
23.9703009446161
30
0
41
1
10
-48
20
24.0648335402232
30
0
41
1
10
-48
20
24.1567363770153
30
0
41
1
10
-48
20
24.245987247992
30
0
41
1
10
-48
20
24.332559240169
30
0
41
1
10
-48
20
24.4164275727652
30
0
41
1
10
-48
20
24.4975687788098
30
0
41
1
10
-48
20
24.5759532931461
30
0
41
1
10
-48
20
24.6515543847243
30
0
41
1
10
-48
20
24.7489365992492
30
0
41
1
10
-48
20
24.8396716901456
30
0
41
1
10
-48
20
24.9255447336429
30
0
41
1
10
-48
20
24.9867823634066
30
0
41
1
10
-48
20
25.0450517307762
30
0
41
1
10
-48
20
25.1003164440549
30
0
41
1
10
-48
20
25.1525401455547
30
0
41
1
10
-48
20
25.2016867590413
30
0
41
1
10
-48
20
25.2477155324425
30
0
41
1
10
-48
20
25.3050936187466
30
0
41
1
10
-48
20
25.3683434953549
30
0
41
1
10
-48
20
25.4206808727754
30
0
41
1
10
-48
20
25.4560606117695
30
0
41
1
10
-48
20
25.479047573671
30
0
41
1
10
-48
20
25.4985460495789
30
0
41
1
10
-48
20
25.5145008161446
30
0
41
1
10
-48
20
25.5268535709615
30
0
41
1
10
-48
20
25.5340458758107
30
0
41
1
10
-48
20
25.536976216894
30
0
41
1
10
-48
20
25.5377843107963
30
0
0
SPLINE
5
277
100
AcDbEntity
8
SK1
62
256
6
ByLayer
370
-1
48
1
60
0
100
AcDbSpline
70
4
71
3
72
297
73
293
40
0
40
0
40
0
40
0
40
0.003418100973478
40
0.0069399566559464
40
0.0104618123384148
40
0.0139836680208833
40
0.0175055237033517
40
0.0210273793858201
40
0.0280710907507569
40
0.0351148021156938
40
0.0386366577981622
40
0.0421585134806306
40
0.0456803691630991
40
0.0492022248455675
40
0.0527240805280359
40
0.0562459362105043
40
0.0597677918929727
40
0.0632896475754412
40
0.070333358940378
40
0.0738552146228464
40
0.0773770703053149
40
0.0808989259877833
40
0.0844207816702517
40
0.0879426373527201
40
0.0914644930351886
40
0.094986348717657
40
0.0985082044001254
40
0.102030060082594
40
0.105551915765062
40
0.109073771447531
40
0.110834699288765
40
0.112595627129999
40
0.116117482812467
40
0.119639338494936
40
0.126683049859873
40
0.13372676122481
40
0.137248616907278
40
0.140770472589747
40
0.147814183954683
40
0.15485789531962
40
0.161901606684557
40
0.165423462367025
40
0.168945318049494
40
0.175989029414431
40
0.183032740779367
40
0.190076452144304
40
0.197120163509241
40
0.204163874874178
40
0.211207586239115
40
0.214729441921583
40
0.218251297604052
40
0.225295008968989
40
0.232338720333925
40
0.239382431698862
40
0.242904287381331
40
0.246426143063799
40
0.253469854428736
40
0.260513565793673
40
0.264035421476141
40
0.26755727715861
40
0.274600988523546
40
0.281644699888483
40
0.285166555570952
40
0.28868841125342
40
0.295732122618357
40
0.299253978300825
40
0.302775833983294
40
0.304536761824528
40
0.306297689665762
40
0.309819545348231
40
0.313341401030699
40
0.316863256713168
40
0.320385112395636
40
0.323906968078104
40
0.327428823760573
40
0.330950679443041
40
0.33447253512551
40
0.337994390807978
40
0.345038102172915
40
0.348559957855383
40
0.352081813537852
40
0.35560366922032
40
0.359125524902788
40
0.362647380585257
40
0.366169236267725
40
0.373212947632662
40
0.380256658997599
40
0.383778514680068
40
0.387300370362536
40
0.390822226045004
40
0.394344081727473
40
0.397865937409941
40
0.40138779309241
40
0.404909648774878
40
0.408431504457346
40
0.411953360139815
40
0.415475215822283
40
0.418997071504752
40
0.42251892718722
40
0.426040782869689
40
0.429562638552157
40
0.433084494234625
40
0.436606349917094
40
0.438367277758328
40
0.440128205599562
40
0.443650061282031
40
0.447171916964499
40
0.448932844805733
40
0.450693772646968
40
0.454215628329436
40
0.45597655617067
40
0.457737484011904
40
0.458617947932521
40
0.459498411853139
40
0.461259339694373
40
0.463020267535607
40
0.464781195376841
40
0.466542123218075
40
0.46830305105931
40
0.470063978900544
40
0.470944442821161
40
0.471824906741778
40
0.472705370662395
40
0.473585834583012
40
0.474466298503629
40
0.475346762424247
40
0.477107690265481
40
0.477988154186098
40
0.478868618106715
40
0.480629545947949
40
0.481510009868566
40
0.482390473789183
40
0.484151401630417
40
0.485031865551035
40
0.485912329471652
40
0.487673257312886
40
0.48943418515412
40
0.491195112995354
40
0.492075576915971
40
0.492956040836589
40
0.493836504757206
40
0.494716968677823
40
0.49559743259844
40
0.496477896519057
40
0.497358360439674
40
0.498238824360291
40
0.499119288280908
40
0.499999752201525
40
0.500880216122143
40
0.50176068004276
40
0.502641143963377
40
0.503521607883994
40
0.504402071804611
40
0.505282535725228
40
0.506162999645845
40
0.507043463566462
40
0.507923927487079
40
0.508804391407696
40
0.510565319248931
40
0.512326247090165
40
0.514087174931399
40
0.514967638852016
40
0.515848102772633
40
0.517609030613868
40
0.518489494534485
40
0.519369958455102
40
0.521130886296336
40
0.522011350216953
40
0.52289181413757
40
0.524652741978804
40
0.525533205899421
40
0.526413669820039
40
0.527294133740656
40
0.528174597661273
40
0.52905506158189
40
0.529935525502507
40
0.531696453343741
40
0.533457381184975
40
0.53521830902621
40
0.536979236867444
40
0.538740164708678
40
0.540501092549912
40
0.541381556470529
40
0.542262020391147
40
0.544022948232381
40
0.545783876073615
40
0.549305731756083
40
0.551066659597318
40
0.552827587438552
40
0.55634944312102
40
0.559871298803488
40
0.561632226644723
40
0.563393154485957
40
0.566915010168425
40
0.570436865850894
40
0.573958721533362
40
0.57748057721583
40
0.581002432898299
40
0.584524288580767
40
0.588046144263236
40
0.591567999945704
40
0.595089855628173
40
0.598611711310641
40
0.60213356699311
40
0.605655422675578
40
0.609177278358046
40
0.612699134040515
40
0.616220989722983
40
0.619742845405452
40
0.62326470108792
40
0.626786556770389
40
0.633830268135325
40
0.637352123817794
40
0.640873979500262
40
0.644395835182731
40
0.647917690865199
40
0.651439546547668
40
0.654961402230136
40
0.662005113595073
40
0.665526969277541
40
0.66904882496001
40
0.672570680642478
40
0.676092536324946
40
0.679614392007415
40
0.683136247689883
40
0.686658103372352
40
0.69017995905482
40
0.693701814737289
40
0.697223670419757
40
0.700745526102225
40
0.704267381784694
40
0.71131109314963
40
0.714832948832099
40
0.718354804514567
40
0.725398515879504
40
0.732442227244441
40
0.73596408292691
40
0.739485938609378
40
0.746529649974315
40
0.753573361339252
40
0.75709521702172
40
0.760617072704188
40
0.767660784069125
40
0.774704495434062
40
0.781748206798999
40
0.785270062481467
40
0.788791918163936
40
0.795835629528873
40
0.80287934089381
40
0.809923052258747
40
0.816966763623683
40
0.82401047498862
40
0.831054186353557
40
0.834576042036025
40
0.838097897718494
40
0.845141609083431
40
0.852185320448367
40
0.859229031813304
40
0.862750887495773
40
0.866272743178241
40
0.873316454543178
40
0.880360165908115
40
0.883882021590583
40
0.887403877273052
40
0.894447588637989
40
0.897969444320457
40
0.901491300002925
40
0.905013155685394
40
0.908535011367862
40
0.912056867050331
40
0.915578722732799
40
0.919100578415268
40
0.922622434097736
40
0.926144289780204
40
0.929666145462673
40
0.93670985682761
40
0.940231712510078
40
0.943753568192546
40
0.947275423875015
40
0.950797279557483
40
0.954319135239952
40
0.95784099092242
40
0.961362846604889
40
0.964884702287357
40
0.971928413652294
40
0.978972125017231
40
0.982493980699699
40
0.986015836382167
40
0.989537692064636
40
0.993059547747104
40
0.996581403429573
40
1
40
1
40
1
40
1
41
1
10
-46.5
20
-26.4005309901631
30
0
41
1
10
-46.5
20
-26.3982135810789
30
0
41
1
10
-46.5
20
-26.3922844409879
30
0
41
1
10
-46.5
20
-26.3796666810734
30
0
41
1
10
-46.5
20
-26.3632177076783
30
0
41
1
10
-46.5
20
-26.3431264444613
30
0
41
1
10
-46.5
20
-26.3194531047684
30
0
41
1
10
-46.5
20
-26.2831057898448
30
0
41
1
10
-46.5
20
-26.2291931100504
30
0
41
1
10
-46.5
20
-26.1640888628635
30
0
41
1
10
-46.5
20
-26.1052521520729
30
0
41
1
10
-46.5
20
-26.0579887905965
30
0
41
1
10
-46.5
20
-26.0075411501124
30
0
41
1
10
-46.5
20
-25.9539520524798
30
0
41
1
10
-46.5
20
-25.8972596743867
30
0
41
1
10
-46.5
20
-25.8375026707194
30
0
41
1
10
-46.5
20
-25.7747184891248
30
0
41
1
10
-46.5
20
-25.6868435181955
30
0
41
1
10
-46.5
20
-25.5935790481261
30
0
41
1
10
-46.5
20
-25.4939882551942
30
0
41
1
10
-46.5
20
-25.4165702144948
30
0
41
1
10
-46.5
20
-25.3363180183904
30
0
41
1
10
-46.5
20
-25.2532602572421
30
0
41
1
10
-46.5
20
-25.1674263270685
30
0
41
1
10
-46.5
20
-25.078840846753
30
0
41
1
10
-46.5
20
-24.9875303375032
30
0
41
1
10
-46.5
20
-24.8935214266578
30
0
41
1
10
-46.5
20
-24.7968359305099
30
0
41
1
10
-46.5
20
-24.6974986639861
30
0
41
1
10
-46.5
20
-24.6126465048792
30
0
41
1
10
-46.5
20
-24.5432464906717
30
0
41
1
10
-46.5
20
-24.4729784939732
30
0
41
1
10
-46.5
20
-24.3838015951593
30
0
41
1
10
-46.5
20
-24.2372526165609
30
0
41
1
10
-46.5
20
-24.0482725027174
30
0
41
1
10
-46.5
20
-23.8509558936155
30
0
41
1
10
-46.5
20
-23.6876785906568
30
0
41
1
10
-46.5
20
-23.5211247275232
30
0
41
1
10
-46.5
20
-23.3074726934439
30
0
41
1
10
-46.5
20
-23.0411451496901
30
0
41
1
10
-46.5
20
-22.8116032876094
30
0
41
1
10
-46.5
20
-22.6227365307309
30
0
41
1
10
-46.5
20
-22.430759124426
30
0
41
1
10
-46.5
20
-22.1857080904646
30
0
41
1
10
-46.5
20
-21.8821131555324
30
0
41
1
10
-46.5
20
-21.5694639835235
30
0
41
1
10
-46.5
20
-21.2478549102086
30
0
41
1
10
-46.5
20
-20.9173756105157
30
0
41
1
10
-46.5
20
-20.6350195683323
30
0
41
1
10
-46.5
20
-20.4041184350775
30
0
41
1
10
-46.5
20
-20.1703249889741
30
0
41
1
10
-46.5
20
-19.8735485821408
30
0
41
1
10
-46.5
20
-19.5084001184169
30
0
41
1
10
-46.5
20
-19.1974433350662
30
0
41
1
10
-46.5
20
-18.9437303704574
30
0
41
1
10
-46.5
20
-18.687219888641
30
0
41
1
10
-46.5
20
-18.362316331505
30
0
41
1
10
-46.5
20
-18.0305055709471
30
0
41
1
10
-46.5
20
-17.7601375272069
30
0
41
1
10
-46.5
20
-17.4870326281007
30
0
41
1
10
-46.5
20
-17.1415784247604
30
0
41
1
10
-46.5
20
-16.7893526547043
30
0
41
1
10
-46.5
20
-16.5026612295204
30
0
41
1
10
-46.5
20
-16.2132866640401
30
0
41
1
10
-46.5
20
-15.9214100558917
30
0
41
1
10
-46.5
20
-15.6240006368157
30
0
41
1
10
-46.5
20
-15.4370522522143
30
0
41
1
10
-46.5
20
-15.28602382984
30
0
41
1
10
-46.5
20
-15.1343352185844
30
0
41
1
10
-46.5
20
-14.9440981523704
30
0
41
1
10
-46.5
20
-14.7135143004554
30
0
41
1
10
-46.5
20
-14.4809640927087
30
0
41
1
10
-46.5
20
-14.2464507858614
30
0
41
1
10
-46.5
20
-14.0099844885449
30
0
41
1
10
-46.5
20
-13.7715679648216
30
0
41
1
10
-46.5
20
-13.5312064646771
30
0
41
1
10
-46.5
20
-13.288908575541
30
0
41
1
10
-46.5
20
-12.9626507143561
30
0
41
1
10
-46.5
20
-12.6344409590497
30
0
41
1
10
-46.5
20
-12.3004440719815
30
0
41
1
10
-46.5
20
-12.0485415470732
30
0
41
1
10
-46.5
20
-11.7947359709946
30
0
41
1
10
-46.5
20
-11.5390341996307
30
0
41
1
10
-46.5
20
-11.2814445510786
30
0
41
1
10
-46.5
20
-10.934766834136
30
0
41
1
10
-46.5
20
-10.4984187798349
30
0
41
1
10
-46.5
20
-10.0558459740262
30
0
41
1
10
-46.5
20
-9.69666715624223
30
0
41
1
10
-46.5
20
-9.42608146076122
30
0
41
1
10
-46.5
20
-9.1536783112208
30
0
41
1
10
-46.5
20
-8.87947089935204
30
0
41
1
10
-46.5
20
-8.60347202441497
30
0
41
1
10
-46.5
20
-8.3256967195303
30
0
41
1
10
-46.5
20
-8.04616134412484
30
0
41
1
10
-46.5
20
-7.76488385459561
30
0
41
1
10
-46.5
20
-7.48188420282091
30
0
41
1
10
-46.5
20
-7.19718434586193
30
0
41
1
10
-46.5
20
-6.91080932637593
30
0
41
1
10
-46.5
20
-6.622787153037
30
0
41
1
10
-46.5
20
-6.33314809321138
30
0
41
1
10
-46.5
20
-6.04192837587701
30
0
41
1
10
-46.5
20
-5.74916634577852
30
0
41
1
10
-46.5
20
-5.50455842781798
30
0
41
1
10
-46.5
20
-5.30698795114367
30
0
41
1
10
-46.5
20
-5.10896425509631
30
0
41
1
10
-46.5
20
-4.86210998685607
30
0
41
1
10
-46.5
20
-4.6141095005429
30
0
41
1
10
-46.5
20
-4.41377363153029
30
0
41
1
10
-46.5
20
-4.21306074878717
30
0
41
1
10
-46.5
20
-4.01407320205544
30
0
41
1
10
-46.5
20
-3.81214228534716
30
0
41
1
10
-46.5
20
-3.6866488419891
30
0
41
1
10
-46.5
20
-3.58538042770658
30
0
41
1
10
-46.5
20
-3.48404260664444
30
0
41
1
10
-46.5
20
-3.35820726744203
30
0
41
1
10
-46.5
20
-3.20645090100774
30
0
41
1
10
-46.5
20
-3.05450136741507
30
0
41
1
10
-46.5
20
-2.90237261804765
30
0
41
1
10
-46.5
20
-2.75008141374229
30
0
41
1
10
-46.5
20
-2.62353063115774
30
0
41
1
10
-46.5
20
-2.52133342108166
30
0
41
1
10
-46.5
20
-2.44503927940085
30
0
41
1
10
-46.5
20
-2.3687213422848
30
0
41
1
10
-46.5
20
-2.29238050761498
30
0
41
1
10
-46.5
20
-2.21601237541182
30
0
41
1
10
-46.5
20
-2.11363855078116
30
0
41
1
10
-46.5
20
-2.01284827062042
30
0
41
1
10
-46.5
20
-1.91037865662702
30
0
41
1
10
-46.5
20
-1.80790531000531
30
0
41
1
10
-46.5
20
-1.70711256984478
30
0
41
1
10
-46.5
20
-1.6045774318271
30
0
41
1
10
-46.5
20
-1.50205128730931
30
0
41
1
10
-46.5
20
-1.40129776039692
30
0
41
1
10
-46.5
20
-1.29873779453155
30
0
41
1
10
-46.5
20
-1.19620014128841
30
0
41
1
10
-46.5
20
-1.06942542909599
30
0
41
1
10
-46.5
20
-0.916562722132852
30
0
41
1
10
-46.5
20
-0.789831382942964
30
0
41
1
10
-46.5
20
-0.687306419565971
30
0
41
1
10
-46.5
20
-0.610920675348439
30
0
41
1
10
-46.5
20
-0.534534760307764
30
0
41
1
10
-46.5
20
-0.458151993845604
30
0
41
1
10
-46.5
20
-0.381785837912474
30
0
41
1
10
-46.5
20
-0.305424650134711
30
0
41
1
10
-46.5
20
-0.229059014473165
30
0
41
1
10
-46.5
20
-0.152702860966684
30
0
41
1
10
-46.5
20
-0.076356355661062
30
0
41
1
10
-46.5
20
-2.8073174E-08
30
0
41
1
10
-46.5
20
0.0763563105774381
30
0
41
1
10
-46.5
20
0.152702843052964
30
0
41
1
10
-46.5
20
0.229059030613598
30
0
41
1
10
-46.5
20
0.305424686924255
30
0
41
1
10
-46.5
20
0.38178586307771
30
0
41
1
10
-46.5
20
0.458151977723844
30
0
41
1
10
-46.5
20
0.534534693051597
30
0
41
1
10
-46.5
20
0.610920589347273
30
0
41
1
10
-46.5
20
0.68730636387329
30
0
41
1
10
-46.5
20
0.789831419581247
30
0
41
1
10
-46.5
20
0.916562784856836
30
0
41
1
10
-46.5
20
1.06942535695816
30
0
41
1
10
-46.5
20
1.19620002438899
30
0
41
1
10
-46.5
20
1.29873778818728
30
0
41
1
10
-46.5
20
1.40129786220385
30
0
41
1
10
-46.5
20
1.50205137220064
30
0
41
1
10
-46.5
20
1.60457738401559
30
0
41
1
10
-46.5
20
1.70711241828641
30
0
41
1
10
-46.5
20
1.80790519746154
30
0
41
1
10
-46.5
20
1.91037868910027
30
0
41
1
10
-46.5
20
2.01284840665636
30
0
41
1
10
-46.5
20
2.11363864625324
30
0
41
1
10
-46.5
20
2.21601232318562
30
0
41
1
10
-46.5
20
2.29238035464519
30
0
41
1
10
-46.5
20
2.36872116745508
30
0
41
1
10
-46.5
20
2.44503916247595
30
0
41
1
10
-46.5
20
2.52133341402544
30
0
41
1
10
-46.5
20
2.62353075560304
30
0
41
1
10
-46.5
20
2.75008154091458
30
0
41
1
10
-46.5
20
2.90237254212099
30
0
41
1
10
-46.5
20
3.05450118032692
30
0
41
1
10
-46.5
20
3.20645087454699
30
0
41
1
10
-46.5
20
3.35820741865729
30
0
41
1
10
-46.5
20
3.48404272537243
30
0
41
1
10
-46.5
20
3.58538042142962
30
0
41
1
10
-46.5
20
3.68664870804329
30
0
41
1
10
-46.5
20
3.81214209897183
30
0
41
1
10
-46.5
20
4.01407322556273
30
0
41
1
10
-46.5
20
4.21306090369293
30
0
41
1
10
-46.5
20
4.41377359776476
30
0
41
1
10
-46.5
20
4.61410932418949
30
0
41
1
10
-46.5
20
4.86210999380617
30
0
41
1
10
-46.5
20
5.10896440271242
30
0
41
1
10
-46.5
20
5.30698791061079
30
0
41
1
10
-46.5
20
5.50455825405032
30
0
41
1
10
-46.5
20
5.74916632270845
30
0
41
1
10
-46.5
20
6.04192849679629
30
0
41
1
10
-46.5
20
6.33314802823858
30
0
41
1
10
-46.5
20
6.62278719976101
30
0
41
1
10
-46.5
20
6.91080958282794
30
0
41
1
10
-46.5
20
7.19718401656115
30
0
41
1
10
-46.5
20
7.48188354614015
30
0
41
1
10
-46.5
20
7.76488418006787
30
0
41
1
10
-46.5
20
8.0461621387675
30
0
41
1
10
-46.5
20
8.32569604592521
30
0
41
1
10
-46.5
20
8.60347117534141
30
0
41
1
10
-46.5
20
8.87947149804478
30
0
41
1
10
-46.5
20
9.15367874030954
30
0
41
1
10
-46.5
20
9.42608142898106
30
0
41
1
10
-46.5
20
9.69666702608521
30
0
41
1
10
-46.5
20
9.96542491303109
30
0
41
1
10
-46.5
20
10.232343426472
30
0
41
1
10
-46.5
20
10.586566157494
30
0
41
1
10
-46.5
20
10.9347667406994
30
0
41
1
10
-46.5
20
11.2814444878531
30
0
41
1
10
-46.5
20
11.5390343183575
30
0
41
1
10
-46.5
20
11.7947361066789
30
0
41
1
10
-46.5
20
12.0485415833541
30
0
41
1
10
-46.5
20
12.3004440311799
30
0
41
1
10
-46.5
20
12.6344409449825
30
0
41
1
10
-46.5
20
12.9626507598827
30
0
41
1
10
-46.5
20
13.2889085465965
30
0
41
1
10
-46.5
20
13.5312065194643
30
0
41
1
10
-46.5
20
13.7715679573404
30
0
41
1
10
-46.5
20
14.0099844817144
30
0
41
1
10
-46.5
20
14.246450720846
30
0
41
1
10
-46.5
20
14.4809638211463
30
0
41
1
10
-46.5
20
14.7135145143937
30
0
41
1
10
-46.5
20
14.9440989510648
30
0
41
1
10
-46.5
20
15.1727131739385
30
0
41
1
10
-46.5
20
15.3993479391742
30
0
41
1
10
-46.5
20
15.6239999053159
30
0
41
1
10
-46.5
20
15.9214104773833
30
0
41
1
10
-46.5
20
16.213286735967
30
0
41
1
10
-46.5
20
16.5026611888573
30
0
41
1
10
-46.5
20
16.7893526613563
30
0
41
1
10
-46.5
20
17.1415784199831
30
0
41
1
10
-46.5
20
17.4870326238008
30
0
41
1
10
-46.5
20
17.7601375367851
30
0
41
1
10
-46.5
20
18.030505573842
30
0
41
1
10
-46.5
20
18.3623163297431
30
0
41
1
10
-46.5
20
18.6872198879946
30
0
41
1
10
-46.5
20
18.9437303760813
30
0
41
1
10
-46.5
20
19.197443340025
30
0
41
1
10
-46.5
20
19.5084001148029
30
0
41
1
10
-46.5
20
19.8735485854937
30
0
41
1
10
-46.5
20
20.1703249928589
30
0
41
1
10
-46.5
20
20.4041184359554
30
0
41
1
10
-46.5
20
20.6350195698474
30
0
41
1
10
-46.5
20
20.9173756153364
30
0
41
1
10
-46.5
20
21.2478549114363
30
0
41
1
10
-46.5
20
21.5694639882747
30
0
41
1
10
-46.5
20
21.8821131574231
30
0
41
1
10
-46.5
20
22.1857080938538
30
0
41
1
10
-46.5
20
22.4307591316751
30
0
41
1
10
-46.5
20
22.6227365313406
30
0
41
1
10
-46.5
20
22.811603290218
30
0
41
1
10
-46.5
20
23.0411451576491
30
0
41
1
10
-46.5
20
23.3074726991927
30
0
41
1
10
-46.5
20
23.5211247254417
30
0
41
1
10
-46.5
20
23.6876786019557
30
0
41
1
10
-46.5
20
23.850955898421
30
0
41
1
10
-46.5
20
24.0482725228686
30
0
41
1
10
-46.5
20
24.2372525971634
30
0
41
1
10
-46.5
20
24.3838015939208
30
0
41
1
10
-46.5
20
24.5269227085665
30
0
41
1
10
-46.5
20
24.6641535645997
30
0
41
1
10
-46.5
20
24.7968362527739
30
0
41
1
10
-46.5
20
24.8935210874343
30
0
41
1
10
-46.5
20
24.9875302738737
30
0
41
1
10
-46.5
20
25.0788408868142
30
0
41
1
10
-46.5
20
25.1674263269857
30
0
41
1
10
-46.5
20
25.253260222017
30
0
41
1
10
-46.5
20
25.3363180229216
30
0
41
1
10
-46.5
20
25.4165702112604
30
0
41
1
10
-46.5
20
25.4939882216235
30
0
41
1
10
-46.5
20
25.5935790625544
30
0
41
1
10
-46.5
20
25.6868434692657
30
0
41
1
10
-46.5
20
25.7747185038326
30
0
41
1
10
-46.5
20
25.8375026350058
30
0
41
1
10
-46.5
20
25.8972596671494
30
0
41
1
10
-46.5
20
25.9539520563292
30
0
41
1
10
-46.5
20
26.0075410833254
30
0
41
1
10
-46.5
20
26.0579887211792
30
0
41
1
10
-46.5
20
26.1052520927383
30
0
41
1
10
-46.5
20
26.1640888761727
30
0
41
1
10
-46.5
20
26.2291930886236
30
0
41
1
10
-46.5
20
26.2831057174252
30
0
41
1
10
-46.5
20
26.3194531526336
30
0
41
1
10
-46.5
20
26.3431264926158
30
0
41
1
10
-46.5
20
26.3632177086405
30
0
41
1
10
-46.5
20
26.3796666797908
30
0
41
1
10
-46.5
20
26.3922850811409
30
0
41
1
10
-46.5
20
26.3982144560535
30
0
41
1
10
-46.5
20
26.400532010443
30
0
0
SPLINE
5
278
100
AcDbEntity
8
SK1
62
256
6
ByLayer
370
-1
48
1
60
0
100
AcDbSpline
70
4
71
3
72
20
73
16
40
0
40
0
40
0
40
0
40
0.0406496435711221
40
0.0406496435711221
40
0.0819863282288912
40
0.0819863282288912
40
0.119736700183756
40
0.119736700183756
40
0.159331058537076
40
0.159331058537076
40
0.224709017028566
40
0.224709017028566
40
0.413512533702565
40
0.413512533702565
40
1
40
1
40
1
40
1
41
1
10
-0.394976888875306
20
5.88246902087485
30
0
41
1
10
-0.416011566091896
20
5.90045407019966
30
0
41
1
10
-0.439061088384989
20
5.91682924661433
30
0
41
1
10
-0.489461725990026
20
5.94275107838655
30
0
41
1
10
-0.517648772344813
20
5.95236129920661
30
0
41
1
10
-0.572820404185563
20
5.95923768888179
30
0
41
1
10
-0.600427368008212
20
5.95744746962771
30
0
41
1
10
-0.6533388581515
20
5.94441127726415
30
0
41
1
10
-0.679289501071992
20
5.93273995114203
30
0
41
1
10
-0.741510950838659
20
5.89499382317194
30
0
41
1
10
-0.775142572169273
20
5.86418184504058
30
0
41
1
10
-0.88970219535733
20
5.73722946406002
30
0
41
1
10
-0.948923318613026
20
5.62404508257811
30
0
41
1
10
-1.15697823913786
20
5.15876570946281
30
0
41
1
10
-1.23929188630865
20
4.77638761348985
30
0
41
1
10
-1.30710678118655
20
4.3932391538923
30
0
0
SPLINE
5
279
100
AcDbEntity
8
SK1
62
256
6
ByLayer
370
-1
48
1
60
0
100
AcDbSpline
70
4
71
3
72
10
73
6
40
0
40
0
40
0
40
0
40
0.5
40
0.5
40
1
40
1
40
1
40
1
41
1
10
-1.30710678118655
20
-4.39323937970207
30
0
41
1
10
-1.55689427820664
20
-2.98196218343324
30
0
41
1
10
-1.74566864435397
20
-1.49340994193867
30
0
41
1
10
-1.7456595855767
20
1.49352420170632
30
0
41
1
10
-1.55700927680107
20
2.98131104552101
30
0
41
1
10
-1.30710678118658
20
4.39323915389227
30
0
0
SPLINE
5
27A
100
AcDbEntity
8
1
62
256
6
ByLayer
370
-1
48
1
60
0
100
AcDbSpline
70
4
71
3
72
20
73
16
40
0
40
0
40
0
40
0
40
0.314859192648753
40
0.314859192648753
40
0.531558880441063
40
0.531558880441063
40
0.68213590369483
40
0.68213590369483
40
0.839619845966509
40
0.839619845966509
40
0.903112673775999
40
0.903112673775999
40
0.967902128209799
40
0.967902128209799
40
1
40
1
40
1
40
1
41
1
10
76.0137202492311
20
-49.009165898277
30
0
41
1
10
75.9531699909989
20
-49.0477116899525
30
0
41
1
10
75.8916132076602
20
-49.0847454224959
30
0
41
1
10
75.7852469364753
20
-49.1425482934417
30
0
41
1
10
75.7411448400974
20
-49.1648426612791
30
0
41
1
10
75.6646822744081
20
-49.1985143361548
30
0
41
1
10
75.6327816811844
20
-49.2111954332768
30
0
41
1
10
75.566272645538
20
-49.2326124815192
30
0
41
1
10
75.531228090203
20
-49.2415671770309
30
0
41
1
10
75.4813484378334
20
-49.2452338118142
30
0
41
1
10
75.4667687733887
20
-49.2451940461227
30
0
41
1
10
75.4380602457061
20
-49.2411476413141
30
0
41
1
10
75.423504464425
20
-49.2369195751516
30
0
41
1
10
75.4046308946938
20
-49.2256850301709
30
0
41
1
10
75.3987424391122
20
-49.2210466012248
30
0
41
1
10
75.3936678818229
20
-49.2156959435365
30
0
0
SPLINE
5
27B
100
AcDbEntity
8
1
62
256
6
ByLayer
370
-1
48
1
60
0
100
AcDbSpline
70
4
71
3
72
8
73
4
40
0
40
0
40
0
40
0
40
1
40
1
40
1
40
1
41
1
10
75.2649219196892
20
-48.1966865674519
30
0
41
1
10
75.2202537605225
20
-48.255651679757
30
0
41
1
10
75.1766065974379
20
-48.3154808410213
30
0
41
1
10
75.134991172021
20
-48.3767516737669
30
0
0
SPLINE
5
27C
100
AcDbEntity
8
1
62
256
6
ByLayer
370
-1
48
1
60
0
100
AcDbSpline
70
4
71
3
72
10
73
6
40
0
40
0
40
0
40
0
40
0.736240194588473
40
0.736240194588473
40
1
40
1
40
1
40
1
41
1
10
77.4224800404473
20
-51.8724469883642
30
0
41
1
10
77.4244229260103
20
-51.8902106734289
30
0
41
1
10
77.4310875367515
20
-51.9083716874984
30
0
41
1
10
77.4491446126917
20
-51.9293124534959
30
0
41
1
10
77.4548789513032
20
-51.934558490185
30
0
41
1
10
77.4615428161053
20
-51.9391477425988
30
0
0
SPLINE
5
27D
100
AcDbEntity
8
1
62
256
6
ByLayer
370
-1
48
1
60
0
100
AcDbSpline
70
4
71
3
72
22
73
18
40
0
40
0
40
0
40
0
40
0.0236324717630004
40
0.0236324717630004
40
0.0629814022064407
40
0.0629814022064407
40
0.0762359204463805
40
0.0762359204463805
40
0.13409917281463
40
0.13409917281463
40
0.288877504287538
40
0.288877504287538
40
0.442933094377627
40
0.442933094377627
40
0.668543354429524
40
0.668543354429524
40
1
40
1
40
1
40
1
41
1
10
71.1102829706667
20
-53.7941474455065
30
0
41
1
10
71.1054622826283
20
-53.7953669232243
30
0
41
1
10
71.1008311487088
20
-53.7977046880172
30
0
41
1
10
71.0901673855027
20
-53.8056566642687
30
0
41
1
10
71.0848214494058
20
-53.8124622904155
30
0
41
1
10
71.0790108662162
20
-53.8220142531444
30
0
41
1
10
71.0776339642068
20
-53.8245106560991
30
0
41
1
10
71.0707372946637
20
-53.8380635998658
30
0
41
1
10
71.0666333221866
20
-53.8498598372483
30
0
41
1
10
71.0542412961232
20
-53.8934633780867
30
0
41
1
10
71.049965390715
20
-53.9264576176781
30
0
41
1
10
71.0440479680974
20
-53.9919533689429
30
0
41
1
10
71.0427117794922
20
-54.0247938616649
30
0
41
1
10
71.0414546068658
20
-54.1056408041997
30
0
41
1
10
71.0425245657108
20
-54.1536949430045
30
0
41
1
10
71.0475575794879
20
-54.2721287430548
30
0
41
1
10
71.0526904536566
20
-54.3424818639536
30
0
41
1
10
71.0590145202299
20
-54.4126758313099
30
0
0
SPLINE
5
27E
100
AcDbEntity
8
1
62
256
6
ByLayer
370
-1
48
1
60
0
100
AcDbSpline
70
4
71
3
72
12
73
8
40
0
40
0
40
0
40
0
40
0.197891272102655
40
0.197891272102655
40
0.598376100017387
40
0.598376100017387
40
1
40
1
40
1
40
1
41
1
10
71.943690151935
20
-53.9619368571186
30
0
41
1
10
71.9412638806921
20
-54.0034957618957
30
0
41
1
10
71.938965336702
20
-54.045307241704
30
0
41
1
10
71.9323506546002
20
-54.1722997521582
30
0
41
1
10
71.9283717252682
20
-54.2580999837498
30
0
41
1
10
71.9211697392145
20
-54.4309251122705
30
0
41
1
10
71.9179480201069
20
-54.5180215744537
30
0
41
1
10
71.9151021776585
20
-54.6054938477127
30
0
0
SPLINE
5
27F
100
AcDbEntity
8
1
62
256
6
ByLayer
370
-1
48
1
60
0
100
AcDbSpline
70
4
71
3
72
14
73
10
40
0
40
0
40
0
40
0
40
0.314392366702063
40
0.314392366702063
40
0.632200716155181
40
0.632200716155181
40
0.912513196202062
40
0.912513196202062
40
1
40
1
40
1
40
1
41
1
10
71.7440227353742
20
-42.5200961278042
30
0
41
1
10
71.7496373407494
20
-42.5104225318512
30
0
41
1
10
71.7566137949302
20
-42.5013265006649
30
0
41
1
10
71.7730863608749
20
-42.4861828328478
30
0
41
1
10
71.7828642835576
20
-42.4800119826426
30
0
41
1
10
71.8023089330801
20
-42.4723654695587
30
0
41
1
10
71.8120592279859
20
-42.4703028866815
30
0
41
1
10
71.8247584904493
20
-42.4693608885702
30
0
41
1
10
71.8278072313852
20
-42.4692633420805
30
0
41
1
10
71.8308475929699
20
-42.4692823135291
30
0
0
SPLINE
5
280
100
AcDbEntity
8
1
62
256
6
ByLayer
370
-1
48
1
60
0
100
AcDbSpline
70
4
71
3
72
20
73
16
40
0
40
0
40
0
40
0
40
0.314859192648757
40
0.314859192648757
40
0.53155888044106
40
0.53155888044106
40
0.682135903694824
40
0.682135903694824
40
0.839619845966506
40
0.839619845966506
40
0.903112673776005
40
0.903112673776005
40
0.967902128209792
40
0.967902128209792
40
1
40
1
40
1
40
1
41
1
10
68.8909196062541
20
-47.2905021946601
30
0
41
1
10
68.9539278395278
20
-47.3243769205954
30
0
41
1
10
69.0161471551449
20
-47.359896328554
30
0
41
1
10
69.1183790535161
20
-47.4243810902451
30
0
41
1
10
69.1593406348399
20
-47.4519581661397
30
0
41
1
10
69.2261091963796
20
-47.502272991326
30
0
41
1
10
69.2527994535874
20
-47.523951349731
30
0
41
1
10
69.3041622407922
20
-47.5716710811778
30
0
41
1
10
69.3292383624768
20
-47.5979860191964
30
0
41
1
10
69.3571857134044
20
-47.640001859379
30
0
41
1
10
69.3644065373853
20
-47.6528413872092
30
0
41
1
10
69.3752402017723
20
-47.6801170479623
30
0
41
1
10
69.37887660066
20
-47.6950398061124
30
0
41
1
10
69.3786851084016
20
-47.7172791939854
30
0
41
1
10
69.3776586723975
20
-47.7247871495288
30
0
41
1
10
69.3756197284251
20
-47.7319372923147
30
0
0
SPLINE
5
281
100
AcDbEntity
8
1
62
256
6
ByLayer
370
-1
48
1
60
0
100
AcDbSpline
70
4
71
3
72
14
73
10
40
0
40
0
40
0
40
0
40
0.249103078948813
40
0.249103078948813
40
0.49816092594419
40
0.49816092594419
40
0.74558616248139
40
0.74558616248139
40
1
40
1
40
1
40
1
41
1
10
68.1361229092558
20
-47.378508302396
30
0
41
1
10
68.1451825134207
20
-47.3628988102006
30
0
41
1
10
68.1545080151877
20
-47.347316730178
30
0
41
1
10
68.1732914657331
20
-47.316857563043
30
0
41
1
10
68.1828145011148
20
-47.301874643248
30
0
41
1
10
68.2016732227601
20
-47.2730976389627
30
0
41
1
10
68.2110729817954
20
-47.2591998408913
30
0
41
1
10
68.2297589743256
20
-47.2324738988449
30
0
41
1
10
68.2391005753631
20
-47.2195925546408
30
0
41
1
10
68.2481123778356
20
-47.2076558463204
30
0
0
SPLINE
5
282
100
AcDbEntity
8
1
62
256
6
ByLayer
370
-1
48
1
60
0
100
AcDbSpline
70
4
71
3
72
8
73
4
40
0
40
0
40
0
40
0
40
1
40
1
40
1
40
1
41
1
10
68.9161207144904
20
-48.452915536243
30
0
41
1
10
68.7979265359294
20
-48.46189962608
30
0
41
1
10
68.6788242670034
20
-48.4573379644938
30
0
41
1
10
68.5606556857981
20
-48.4486675096408
30
0
0
SPLINE
5
283
100
AcDbEntity
8
1
62
256
6
ByLayer
370
-1
48
1
60
0
100
AcDbSpline
70
4
71
3
72
8
73
4
40
0
40
0
40
0
40
0
40
1
40
1
40
1
40
1
41
1
10
71.9481665644931
20
-53.8107151510834
30
0
41
1
10
72.0146424545027
20
-53.9101267907122
30
0
41
1
10
72.0700159347369
20
-54.0171423686739
30
0
41
1
10
72.1214200953645
20
-54.1254012626765
30
0
0
SPLINE
5
284
100
AcDbEntity
8
1
62
256
6
ByLayer
370
-1
48
1
60
0
100
AcDbSpline
70
4
71
3
72
22
73
18
40
0
40
0
40
0
40
0
40
0.153101873520373
40
0.153101873520373
40
0.442621285364941
40
0.442621285364941
40
0.707385074439684
40
0.707385074439684
40
0.843532608240173
40
0.843532608240173
40
0.926352665771241
40
0.926352665771241
40
0.963706736955265
40
0.963706736955265
40
0.977863955360655
40
0.977863955360655
40
1
40
1
40
1
40
1
41
1
10
68.7829639631781
20
-48.3767516737483
30
0
41
1
10
68.8039600506993
20
-48.3786103540835
30
0
41
1
10
68.8249761053426
20
-48.380258476291
30
0
41
1
10
68.8857665757903
20
-48.3842427324795
30
0
41
1
10
68.9256175431825
20
-48.3859431723968
30
0
41
1
10
69.0018596505561
20
-48.3858625747205
30
0
41
1
10
69.0384185056936
20
-48.384560555914
30
0
41
1
10
69.0930218928209
20
-48.3769895157391
30
0
41
1
10
69.1115886368663
20
-48.3734628680177
30
0
41
1
10
69.1401062316978
20
-48.3638196603379
30
0
41
1
10
69.1507991191948
20
-48.3592086666763
30
0
41
1
10
69.1642377349793
20
-48.3495249158456
30
0
41
1
10
69.168170499448
20
-48.3460067774776
30
0
41
1
10
69.1726213667523
20
-48.3403927322965
30
0
41
1
10
69.1737535872248
20
-48.3387532184162
30
0
41
1
10
69.1763097570356
20
-48.3343758907033
30
0
41
1
10
69.1775571079324
20
-48.3314978325365
30
0
41
1
10
69.1784043666075
20
-48.3285266765925
30
0
0
SPLINE
5
285
100
AcDbEntity
8
1
62
256
6
ByLayer
370
-1
48
1
60
0
100
AcDbSpline
70
4
71
3
72
22
73
18
40
0
40
0
40
0
40
0
40
0.0236324717629848
40
0.0236324717629848
40
0.0629814022064326
40
0.0629814022064326
40
0.0762359204463662
40
0.0762359204463662
40
0.134099172814625
40
0.134099172814625
40
0.288877504287525
40
0.288877504287525
40
0.442933094377612
40
0.442933094377612
40
0.668543354429522
40
0.668543354429522
40
1
40
1
40
1
40
1
41
1
10
69.350585896015
20
-47.7247226795764
30
0
41
1
10
69.351967650577
20
-47.7198771602559
30
0
41
1
10
69.3522825319054
20
-47.7146502165798
30
0
41
1
10
69.3507771582617
20
-47.7013546326581
30
0
41
1
10
69.3475748509042
20
-47.6933067315125
30
0
41
1
10
69.3422233347682
20
-47.6835025756833
30
0
41
1
10
69.3407529817631
20
-47.6810651069029
30
0
41
1
10
69.3324775566992
20
-47.6683418475787
30
0
41
1
10
69.3243134518734
20
-47.6589407591703
30
0
41
1
10
69.2927291134199
20
-47.6266383105977
30
0
41
1
10
69.2662467166224
20
-47.6066901216616
30
0
41
1
10
69.2123749144384
20
-47.5693570462895
30
0
41
1
10
69.1845366284369
20
-47.552074934955
30
0
41
1
10
69.1149739426928
20
-47.5113209626942
30
0
41
1
10
69.0727058329319
20
-47.4886991196674
30
0
41
1
10
68.9673164379257
20
-47.4350579325136
30
0
41
1
10
68.9036246574646
20
-47.4050829335136
30
0
41
1
10
68.8394657928262
20
-47.3762365741784
30
0
0
SPLINE
5
286
100
AcDbEntity
8
1
62
256
6
ByLayer
370
-1
48
1
60
0
100
AcDbSpline
70
4
71
3
72
14
73
10
40
0
40
0
40
0
40
0
40
0.249103078948813
40
0.249103078948813
40
0.498160925944162
40
0.498160925944162
40
0.745586162481394
40
0.745586162481394
40
1
40
1
40
1
40
1
41
1
10
71.3652046377718
20
-54.997265127744
30
0
41
1
10
71.3475717955524
20
-54.9972772564837
30
0
41
1
10
71.3302101723914
20
-54.9973136830408
30
0
41
1
10
71.2967450566479
20
-54.9974327283792
30
0
41
1
10
71.280525135304
20
-54.9975157454389
30
0
41
1
10
71.2498567517675
20
-54.997724232106
30
0
41
1
10
71.2352944388131
20
-54.9978501169919
30
0
41
1
10
71.2078106081827
20
-54.9981448333624
30
0
41
1
10
71.1948498736757
20
-54.9983158196503
30
0
41
1
10
71.1831424681718
20
-54.9985049243194
30
0
0
SPLINE
5
287
100
AcDbEntity
8
1
62
256
6
ByLayer
370
-1
48
1
60
0
100
AcDbSpline
70
4
71
3
72
8
73
4
40
0
40
0
40
0
40
0
40
1
40
1
40
1
40
1
41
1
10
71.9436901519262
20
-53.9619368571003
30
0
41
1
10
71.9465198113147
20
-53.9134684323835
30
0
41
1
10
71.9480266200298
20
-53.8618432004351
30
0
41
1
10
71.9481665644931
20
-53.8107151510835
30
0
0
SPLINE
5
288
100
AcDbEntity
8
1
62
256
6
ByLayer
370
-1
48
1
60
0
100
AcDbSpline
70
4
71
3
72
14
73
10
40
0
40
0
40
0
40
0
40
0.233926408286291
40
0.233926408286291
40
0.467719442169549
40
0.467719442169549
40
0.701444004412128
40
0.701444004412128
40
1
40
1
40
1
40
1
41
1
10
72.2044548211151
20
-54.9978024152394
30
0
41
1
10
72.1897974831737
20
-54.9976431082632
30
0
41
1
10
72.1744231316944
20
-54.9975011321172
30
0
41
1
10
72.1429357531923
20
-54.9972572101902
30
0
41
1
10
72.126712876319
20
-54.9971543753499
30
0
41
1
10
72.0939878518302
20
-54.99699015116
30
0
41
1
10
72.0773764359534
20
-54.996928189943
30
0
41
1
10
72.039759481206
20
-54.9968346288772
30
0
41
1
10
72.0186098384916
20
-54.9968156833746
30
0
41
1
10
71.9980201054365
20
-54.9968298460099
30
0
0
SPLINE
5
289
100
AcDbEntity
8
1
62
256
6
ByLayer
370
-1
48
1
60
0
100
AcDbSpline
70
4
71
3
72
22
73
18
40
0
40
0
40
0
40
0
40
0.153101873520357
40
0.153101873520357
40
0.442621285364914
40
0.442621285364914
40
0.70738507443969
40
0.70738507443969
40
0.843532608240171
40
0.843532608240171
40
0.926352665771249
40
0.926352665771249
40
0.963706736955256
40
0.963706736955256
40
0.977863955360657
40
0.977863955360657
40
1
40
1
40
1
40
1
41
1
10
75.1349911720336
20
-48.3767516737485
30
0
41
1
10
75.1231851080495
20
-48.3941338671177
30
0
41
1
10
75.111547793213
20
-48.4116387758613
30
0
41
1
10
75.0785499266358
20
-48.4626645354895
30
0
41
1
10
75.0576910002272
20
-48.4965700248923
30
0
41
1
10
75.0206118848845
20
-48.5631037504744
30
0
41
1
10
75.0039035758406
20
-48.5956388701119
30
0
41
1
10
74.98372242792
20
-48.6470440264252
30
0
41
1
10
74.9776682393092
20
-48.6649991377123
30
0
41
1
10
74.9719559484117
20
-48.6946890267724
30
0
41
1
10
74.9706586229589
20
-48.7063187244864
30
0
41
1
10
74.9723283930321
20
-48.7228776221883
30
0
41
1
10
74.973397719117
20
-48.7280653810584
30
0
41
1
10
74.9759933109705
20
-48.7347521713546
30
0
41
1
10
74.9768329933923
20
-48.7365587912765
30
0
41
1
10
74.9793022961875
20
-48.740975200731
30
0
41
1
10
74.9811369938756
20
-48.7435010359779
30
0
41
1
10
74.9832456651993
20
-48.7457244375059
30
0
0
SPLINE
5
28A
100
AcDbEntity
8
1
62
256
6
ByLayer
370
-1
48
1
60
0
100
AcDbSpline
70
4
71
3
72
8
73
4
40
0
40
0
40
0
40
0
40
1
40
1
40
1
40
1
41
1
10
72.02851087562
20
-54.1674246983835
30
0
41
1
10
72.0018274304781
20
-54.0982573942425
30
0
41
1
10
71.9738892160859
20
-54.0295601393564
30
0
41
1
10
71.9436901519262
20
-53.9619368571003
30
0
0
SPLINE
5
28B
100
AcDbEntity
8
1
62
256
6
ByLayer
370
-1
48
1
60
0
100
AcDbSpline
70
4
71
3
72
10
73
6
40
0
40
0
40
0
40
0
40
0.388885978133016
40
0.388885978133016
40
1
40
1
40
1
40
1
41
1
10
68.9161207144905
20
-48.452915536243
30
0
41
1
10
68.8991161660922
20
-48.4429317231666
30
0
41
1
10
68.8818661163505
20
-48.4329119769481
30
0
41
1
10
68.8374558059104
20
-48.4073655482121
30
0
41
1
10
68.8100104298382
20
-48.3918120632845
30
0
41
1
10
68.7829639631781
20
-48.3767516737484
30
0
0
SPLINE
5
28C
100
AcDbEntity
8
1
62
256
6
ByLayer
370
-1
48
1
60
0
100
AcDbSpline
70
4
71
3
72
14
73
10
40
0
40
0
40
0
40
0
40
0.314392366702032
40
0.314392366702032
40
0.632200716155253
40
0.632200716155253
40
0.912513196202118
40
0.912513196202118
40
1
40
1
40
1
40
1
41
1
10
65.3808112158879
20
-54.2336466756122
30
0
41
1
10
65.3700113704891
20
-54.2337454250453
30
0
41
1
10
65.3589737349898
20
-54.2323188038591
30
0
41
1
10
65.3380712016039
20
-54.225594314236
30
0
41
1
10
65.3279593754561
20
-54.2201094137107
30
0
41
1
10
65.3116181253926
20
-54.2067513101973
30
0
41
1
10
65.3048671509732
20
-54.1991142785713
30
0
41
1
10
65.2974953006468
20
-54.1882431142964
30
0
41
1
10
65.2958302787191
20
-54.1855651065485
30
0
41
1
10
65.2942645270101
20
-54.1828328613372
30
0
0
SPLINE
5
28D
100
AcDbEntity
8
1
62
256
6
ByLayer
370
-1
48
1
60
0
100
AcDbSpline
70
4
71
3
72
14
73
10
40
0
40
0
40
0
40
0
40
0.249103078948821
40
0.249103078948821
40
0.49816092594421
40
0.49816092594421
40
0.74558616248141
40
0.74558616248141
40
1
40
1
40
1
40
1
41
1
10
76.2570905015244
20
-48.3302965424112
30
0
41
1
10
76.2660645886635
20
-48.3459302920863
30
0
41
1
10
76.2753045904536
20
-48.3615852252229
30
0
41
1
10
76.2939206475002
20
-48.3922824830348
30
0
41
1
10
76.3033612078228
20
-48.4074314369491
30
0
41
1
10
76.3220612549626
20
-48.4366254145687
30
0
41
1
10
76.3313842445217
20
-48.4507749824118
30
0
41
1
10
76.3499223185771
20
-48.4780903571992
30
0
41
1
10
76.3591924675874
20
-48.4913136739792
30
0
41
1
10
76.368137890043
20
-48.5036285916377
30
0
0
SPLINE
5
28E
100
AcDbEntity
8
1
62
256
6
ByLayer
370
-1
48
1
60
0
100
AcDbSpline
70
4
71
3
72
18
73
14
40
0
40
0
40
0
40
0
40
0.0414544517087556
40
0.0414544517087556
40
0.132910922468099
40
0.132910922468099
40
0.263177731540048
40
0.263177731540048
40
0.458562667326529
40
0.458562667326529
40
0.817425847463276
40
0.817425847463276
40
1
40
1
40
1
40
1
41
1
10
71.7052518950792
20
-53.6169529042793
30
0
41
1
10
71.7096437829659
20
-53.6158418990919
30
0
41
1
10
71.7141468951837
20
-53.6151214034926
30
0
41
1
10
71.7285097487238
20
-53.6140682780668
30
0
41
1
10
71.7385697057987
20
-53.6152252675144
30
0
41
1
10
71.7617537501091
20
-53.6211695756177
30
0
41
1
10
71.7747699823741
20
-53.6272520897172
30
0
41
1
10
71.8050337145689
20
-53.6453173927633
30
0
41
1
10
71.8216307529256
20
-53.6589084067863
30
0
41
1
10
71.8654366301553
20
-53.7001446055983
30
0
41
1
10
71.8904689706496
20
-53.7304932907068
30
0
41
1
10
71.925655958573
20
-53.7778107833324
30
0
41
1
10
71.9370871504154
20
-53.7941463962702
30
0
41
1
10
71.9481665645122
20
-53.8107151510687
30
0
0
SPLINE
5
28F
100
AcDbEntity
8
1
62
256
6
ByLayer
370
-1
48
1
60
0
100
AcDbSpline
70
4
71
3
72
10
73
6
40
0
40
0
40
0
40
0
40
0.638746828356581
40
0.638746828356581
40
1
40
1
40
1
40
1
41
1
10
68.7829639631899
20
-48.3767516737381
30
0
41
1
10
68.6607695916458
20
-48.3087097051621
30
0
41
1
10
68.5377618607615
20
-48.2395525460075
30
0
41
1
10
68.3452547990113
20
-48.1305928105364
30
0
41
1
10
68.275600696555
20
-48.0910132493119
30
0
41
1
10
68.2060139770357
20
-48.0513214123954
30
0
0
SPLINE
5
290
100
AcDbEntity
8
1
62
256
6
ByLayer
370
-1
48
1
60
0
100
AcDbSpline
70
4
71
3
72
10
73
6
40
0
40
0
40
0
40
0
40
0.638746828356586
40
0.638746828356586
40
1
40
1
40
1
40
1
41
1
10
75.1349911720354
20
-48.3767516737644
30
0
41
1
10
75.242639420943
20
-48.3087097051884
30
0
41
1
10
75.3536770967824
20
-48.2395525460075
30
0
41
1
10
75.5303923729304
20
-48.1305928105364
30
0
41
1
10
75.5949584429328
20
-48.0910132493119
30
0
41
1
10
75.6600697108742
20
-48.0513214123954
30
0
0
SPLINE
5
291
100
AcDbEntity
8
1
62
256
6
ByLayer
370
-1
48
1
60
0
100
AcDbSpline
70
4
71
3
72
10
73
6
40
0
40
0
40
0
40
0
40
0.388885978132982
40
0.388885978132982
40
1
40
1
40
1
40
1
41
1
10
75.0095424750403
20
-48.452915536243
30
0
41
1
10
75.0266016775621
20
-48.4429317231666
30
0
41
1
10
75.0434704613558
20
-48.4329119769481
30
0
41
1
10
75.0858924903556
20
-48.4073655482121
30
0
41
1
10
75.1111643399275
20
-48.3918120632845
30
0
41
1
10
75.1349911720335
20
-48.3767516737484
30
0
0
SPLINE
5
292
100
AcDbEntity
8
1
62
256
6
ByLayer
370
-1
48
1
60
0
100
AcDbSpline
70
4
71
3
72
22
73
18
40
0
40
0
40
0
40
0
40
0.153101873520344
40
0.153101873520344
40
0.442621285364905
40
0.442621285364905
40
0.707385074439689
40
0.707385074439689
40
0.843532608240161
40
0.843532608240161
40
0.926352665771243
40
0.926352665771243
40
0.963706736955236
40
0.963706736955236
40
0.977863955360652
40
0.977863955360652
40
1
40
1
40
1
40
1
41
1
10
71.9436901519354
20
-53.9619368571207
30
0
41
1
10
71.9351228459389
20
-53.9427525092707
30
0
41
1
10
71.9263652640174
20
-53.9236558625997
30
0
41
1
10
71.9003617745788
20
-53.8688082498236
30
0
41
1
10
71.8825336081258
20
-53.8333079687278
30
0
41
1
10
71.8455670778688
20
-53.7670542199474
30
0
41
1
10
71.8267581105872
20
-53.7359156662079
30
0
41
1
10
71.793843635219
20
-53.6922184141111
30
0
41
1
10
71.7818356344533
20
-53.6778357504175
30
0
41
1
10
71.759770280745
20
-53.6578562364383
30
0
41
1
10
71.7506439163918
20
-53.6508619682312
30
0
41
1
10
71.7358419511259
20
-53.6440146360347
30
0
41
1
10
71.7309239223494
20
-53.6423526460608
30
0
41
1
10
71.7239592372871
20
-53.6412873238146
30
0
41
1
10
71.7220064059088
20
-53.6411219489491
30
0
41
1
10
71.7170184599914
20
-53.6410862736124
30
0
41
1
10
71.7139486519648
20
-53.6414396076429
30
0
41
1
10
71.7109927219659
20
-53.6421873620589
30
0
0
SPLINE
5
293
100
AcDbEntity
8
1
62
256
6
ByLayer
370
-1
48
1
60
0
100
AcDbSpline
70
4
71
3
72
18
73
14
40
0
40
0
40
0
40
0
40
0.0414544517087472
40
0.0414544517087472
40
0.13291092246812
40
0.13291092246812
40
0.263177731540044
40
0.263177731540044
40
0.458562667326526
40
0.458562667326526
40
0.817425847463265
40
0.817425847463265
40
1
40
1
40
1
40
1
41
1
10
74.9651396599367
20
-48.76385202996
30
0
41
1
10
74.9620066195577
20
-48.7605485247208
30
0
41
1
10
74.9591513319804
20
-48.7569510279618
30
0
41
1
10
74.9511061762255
20
-48.7448512125785
30
0
41
1
10
74.9470872990635
20
-48.7354244543428
30
0
41
1
10
74.9406214561669
20
-48.7120528199959
30
0
41
1
10
74.9393329355304
20
-48.6975520633065
30
0
41
1
10
74.9396832665271
20
-48.6618657601414
30
0
41
1
10
74.943017569018
20
-48.6404441658756
30
0
41
1
10
74.9563937546781
20
-48.5812093661164
30
0
41
1
10
74.9698246834391
20
-48.5439516467777
30
0
41
1
10
74.9926767991486
20
-48.489239946929
30
0
41
1
10
75.0009226831625
20
-48.4709816527301
30
0
41
1
10
75.0095424750183
20
-48.4529155362336
30
0
0
SPLINE
5
294
100
AcDbEntity
8
1
62
256
6
ByLayer
370
-1
48
1
60
0
100
AcDbSpline
70
4
71
3
72
14
73
10
40
0
40
0
40
0
40
0
40
0.233926408286265
40
0.233926408286265
40
0.46771944216957
40
0.46771944216957
40
0.701444004412142
40
0.701444004412142
40
1
40
1
40
1
40
1
41
1
10
75.848349535023
20
-47.5981057345014
30
0
41
1
10
75.8530146420496
20
-47.6092911380239
30
0
41
1
10
75.8583224585622
20
-47.6212922011644
30
0
41
1
10
75.8699660825113
20
-47.646371613688
30
0
41
1
10
75.8763418825793
20
-47.6595370504344
30
0
41
1
10
75.8899162239853
20
-47.6865563893608
30
0
41
1
10
75.8971597016698
20
-47.7005002572135
30
0
41
1
10
75.9143340526154
20
-47.7325760982066
30
0
41
1
10
75.9245454055361
20
-47.7509700097219
30
0
41
1
10
75.9350243774629
20
-47.7692254179229
30
0
0
SPLINE
5
295
100
AcDbEntity
8
1
62
256
6
ByLayer
370
-1
48
1
60
0
100
AcDbSpline
70
4
71
3
72
10
73
6
40
0
40
0
40
0
40
0
40
0.736240194588481
40
0.736240194588481
40
1
40
1
40
1
40
1
41
1
10
70.5330731143467
20
-44.5423506184652
30
0
41
1
10
70.5409620665543
20
-44.5272147453443
30
0
41
1
10
70.546968515719
20
-44.5078191513653
30
0
41
1
10
70.5484962168049
20
-44.4761652525701
30
0
41
1
10
70.5482429458951
20
-44.4671468408856
30
0
41
1
10
70.5471099795565
20
-44.4577434000472
30
0
0
SPLINE
5
296
100
AcDbEntity
8
1
62
256
6
ByLayer
370
-1
48
1
60
0
100
AcDbSpline
70
4
71
3
72
8
73
4
40
0
40
0
40
0
40
0
40
1
40
1
40
1
40
1
41
1
10
68.561578901751
20
-48.3507267888128
30
0
41
1
10
68.6351543406872
20
-48.3611308444865
30
0
41
1
10
68.7089544444079
20
-48.3701999751518
30
0
41
1
10
68.7829639632004
20
-48.3767516737502
30
0
0
SPLINE
5
297
100
AcDbEntity
8
1
62
256
6
ByLayer
370
-1
48
1
60
0
100
AcDbSpline
70
4
71
3
72
14
73
10
40
0
40
0
40
0
40
0
40
0.314392366702085
40
0.314392366702085
40
0.632200716155322
40
0.632200716155322
40
0.912513196202143
40
0.912513196202143
40
1
40
1
40
1
40
1
41
1
10
78.5385394490258
20
-53.943699694226
30
0
41
1
10
78.5442429499392
20
-53.953321584771
30
0
41
1
10
78.5487108662937
20
-53.9638811576474
30
0
41
1
10
78.5535873315416
20
-53.9857898449723
30
0
41
1
10
78.5539576132637
20
-53.9974488978613
30
0
41
1
10
78.5505513086349
20
-54.0184260188889
30
0
41
1
10
78.547256356071
20
-54.0280987980218
30
0
41
1
10
78.5414023663022
20
-54.0398641614483
30
0
41
1
10
78.5398817966103
20
-54.0426272933575
30
0
41
1
10
78.5382612803081
20
-54.045327322776
30
0
0
SPLINE
5
298
100
AcDbEntity
8
1
62
256
6
ByLayer
370
-1
48
1
60
0
100
AcDbSpline
70
4
71
3
72
22
73
18
40
0
40
0
40
0
40
0
40
0.023632471762973
40
0.023632471762973
40
0.0629814022064177
40
0.0629814022064177
40
0.0762359204463744
40
0.0762359204463744
40
0.134099172814626
40
0.134099172814626
40
0.288877504287527
40
0.288877504287527
40
0.442933094377615
40
0.442933094377615
40
0.668543354429519
40
0.668543354429519
40
1
40
1
40
1
40
1
41
1
10
75.4117738870908
20
-49.1975683510743
30
0
41
1
10
75.4152128205673
20
-49.201194392677
30
0
41
1
10
75.41949534378
20
-49.204080509848
30
0
41
1
10
75.4315125003488
20
-49.2094103218329
30
0
41
1
10
75.4399029970633
20
-49.2106382777083
30
0
41
1
10
75.4508312451617
20
-49.210869243463
30
0
41
1
10
75.4536163417238
20
-49.210804666988
30
0
41
1
10
75.4684467163328
20
-49.2099439636427
30
0
41
1
10
75.4804033666979
20
-49.2075205455536
30
0
41
1
10
75.5232077461442
20
-49.1961130688466
30
0
41
1
10
75.5530409283774
20
-49.1829830424022
30
0
41
1
10
75.6109727696467
20
-49.1546517664869
30
0
41
1
10
75.639202947032
20
-49.1390076685365
30
0
41
1
10
75.7076806862898
20
-49.0987020974034
30
0
41
1
10
75.7474711866683
20
-49.0731420251549
30
0
41
1
10
75.8443354551491
20
-49.0080324231837
30
0
41
1
10
75.9007996286436
20
-48.96746415639
30
0
41
1
10
75.956531384004
20
-48.9259256491598
30
0
0
SPLINE
5
299
100
AcDbEntity
8
1
62
256
6
ByLayer
370
-1
48
1
60
0
100
AcDbSpline
70
4
71
3
72
18
73
14
40
0
40
0
40
0
40
0
40
0.0414544517087794
40
0.0414544517087794
40
0.132910922468123
40
0.132910922468123
40
0.263177731540051
40
0.263177731540051
40
0.458562667326542
40
0.458562667326542
40
0.817425847463277
40
0.817425847463277
40
1
40
1
40
1
40
1
41
1
10
69.203438199008
20
-48.3357412893301
30
0
41
1
10
69.2021793515002
20
-48.3401557997566
30
0
41
1
10
69.2005315268597
20
-48.344473792115
30
0
41
1
10
69.1942138290746
20
-48.3576267329242
30
0
41
1
10
69.1881727491617
20
-48.3658965017122
30
0
41
1
10
69.171454547748
20
-48.3833238279558
30
0
41
1
10
69.1597268361194
20
-48.3917420705458
30
0
41
1
10
69.1291127729279
20
-48.4093630706646
30
0
41
1
10
69.1091814320803
20
-48.4171936509074
30
0
41
1
10
69.0519993691905
20
-48.4351922518547
30
0
41
1
10
69.0135360999352
20
-48.4421012860849
30
0
41
1
10
68.9554969963023
20
-48.449495493308
30
0
41
1
10
68.9358199204461
20
-48.4514181745691
30
0
41
1
10
68.9161207144934
20
-48.4529155362671
30
0
0
SPLINE
5
29A
100
AcDbEntity
8
1
62
256
6
ByLayer
370
-1
48
1
60
0
100
AcDbSpline
70
4
71
3
72
10
73
6
40
0
40
0
40
0
40
0
40
0.736240194588506
40
0.736240194588506
40
1
40
1
40
1
40
1
41
1
10
67.7087624518119
20
-54.2827304175787
30
0
41
1
10
67.6856299809508
20
-54.2788952690794
30
0
41
1
10
67.6599288514238
20
-54.2789470722541
30
0
41
1
10
67.6248192055903
20
-54.2882509682506
30
0
41
1
10
67.6153780247218
20
-54.2916638724329
30
0
41
1
10
67.6061892069554
20
-54.296146021047
30
0
0
SPLINE
5
29B
100
AcDbEntity
8
1
62
256
6
ByLayer
370
-1
48
1
60
0
100
AcDbSpline
70
4
71
3
72
14
73
10
40
0
40
0
40
0
40
0
40
0.233926408286278
40
0.233926408286278
40
0.467719442169565
40
0.467719442169565
40
0.70144400441214
40
0.70144400441214
40
1
40
1
40
1
40
1
41
1
10
67.723370788746
20
-48.1117736852967
30
0
41
1
10
67.7280979998209
20
-48.1002696678217
30
0
41
1
10
67.7334722906518
20
-48.0879846523895
30
0
41
1
10
67.7452545414601
20
-48.0624173960117
30
0
41
1
10
67.7517029756759
20
-48.0490462895848
30
0
41
1
10
67.7654261273416
20
-48.0216985022784
30
0
41
1
10
67.7727462767652
20
-48.0076307119917
30
0
41
1
10
67.7900967318166
20
-47.9753677488671
30
0
41
1
10
67.8004088817528
20
-47.9569359463466
30
0
41
1
10
67.8109877112472
20
-47.9387088634162
30
0
0
SPLINE
5
29C
100
AcDbEntity
8
1
62
256
6
ByLayer
370
-1
48
1
60
0
100
AcDbSpline
70
4
71
3
72
8
73
4
40
0
40
0
40
0
40
0
40
1
40
1
40
1
40
1
41
1
10
75.0095424750403
20
-48.4529155362429
30
0
41
1
10
75.0612607635918
20
-48.3445198067772
30
0
41
1
10
75.1249895522836
20
-48.2420658904016
30
0
41
1
10
75.1917539728613
20
-48.142477451252
30
0
0
SPLINE
5
29D
100
AcDbEntity
8
1
62
256
6
ByLayer
370
-1
48
1
60
0
100
AcDbSpline
70
4
71
3
72
20
73
16
40
0
40
0
40
0
40
0
40
0.314859192648761
40
0.314859192648761
40
0.531558880441057
40
0.531558880441057
40
0.682135903694814
40
0.682135903694814
40
0.839619845966503
40
0.839619845966503
40
0.903112673776004
40
0.903112673776004
40
0.967902128209799
40
0.967902128209799
40
1
40
1
40
1
40
1
41
1
10
70.9691898985387
20
-54.4168781306323
30
0
41
1
10
70.9667319234973
20
-54.3444576130215
30
0
41
1
10
70.9660693912187
20
-54.2719044725195
30
0
41
1
10
70.9702037640325
20
-54.1496168398826
30
0
41
1
10
70.9733442790866
20
-54.0997453961505
30
0
41
1
10
70.9830382832362
20
-54.0157588960886
30
0
41
1
10
70.9882486192521
20
-53.9813994405616
30
0
41
1
10
71.0033948676937
20
-53.9122626608724
30
0
41
1
10
71.0133633013442
20
-53.876993027342
30
0
41
1
10
71.0352956027861
20
-53.8313105523762
30
0
41
1
10
71.0426544432498
20
-53.8185107902375
30
0
41
1
10
71.0605293065455
20
-53.795281534293
30
0
41
1
10
71.0714486889389
20
-53.7845868423054
30
0
41
1
10
71.0905137509285
20
-53.7735819994132
30
0
41
1
10
71.0974286425142
20
-53.7707124728158
30
0
41
1
10
71.1045421437759
20
-53.7689129877182
30
0
0
SPLINE
5
29E
100
AcDbEntity
8
1
62
256
6
ByLayer
370
-1
48
1
60
0
100
AcDbSpline
70
4
71
3
72
22
73
18
40
0
40
0
40
0
40
0
40
0.142057608739167
40
0.142057608739167
40
0.351004812992807
40
0.351004812992807
40
0.487763342941895
40
0.487763342941895
40
0.591529353509439
40
0.591529353509439
40
0.758694969227096
40
0.758694969227096
40
0.858776631808894
40
0.858776631808894
40
0.960359919517371
40
0.960359919517371
40
1
40
1
40
1
40
1
41
1
10
72.0049986021929
20
-48.5728763613957
30
0
41
1
10
71.9817056053429
20
-48.5728763613957
30
0
41
1
10
71.958329435683
20
-48.5739095046007
30
0
41
1
10
71.9007577351373
20
-48.5790895768104
30
0
41
1
10
71.8664654960164
20
-48.5844693250059
30
0
41
1
10
71.8107222508137
20
-48.5978112526874
30
0
41
1
10
71.7888290135202
20
-48.6042704248998
30
0
41
1
10
71.7512371917133
20
-48.6180929342549
30
0
41
1
10
71.7352572184147
20
-48.6248870811317
30
0
41
1
10
71.6951140443163
20
-48.6450628892681
30
0
41
1
10
71.6712512149544
20
-48.660205824113
30
0
41
1
10
71.6390505685234
20
-48.6895541936745
30
0
41
1
10
71.6281495067207
20
-48.7019671494718
30
0
41
1
10
71.6113547933846
20
-48.7287444005163
30
0
41
1
10
71.6053896124862
20
-48.7435623084006
30
0
41
1
10
71.6020070982391
20
-48.7638815355162
30
0
41
1
10
71.6015678577193
20
-48.7696693599753
30
0
41
1
10
71.6016379002228
20
-48.7753573566553
30
0
0
SPLINE
5
29F
100
AcDbEntity
8
1
62
256
6
ByLayer
370
-1
48
1
60
0
100
AcDbSpline
70
4
71
3
72
8
73
4
40
0
40
0
40
0
40
0
40
1
40
1
40
1
40
1
41
1
10
73.032839596214
20
-49.184127981832
30
0
41
1
10
73.0385401750568
20
-49.1796666109874
30
0
41
1
10
73.044240737207
20
-49.1752052667516
30
0
41
1
10
73.0499412833248
20
-49.1707439480712
30
0
0
SPLINE
5
2A0
100
AcDbEntity
8
1
62
256
6
ByLayer
370
-1
48
1
60
0
100
AcDbSpline
70
4
71
3
72
24
73
20
40
0
40
0
40
0
40
0
40
0.0974021566269749
40
0.0974021566269749
40
0.180354031075309
40
0.180354031075309
40
0.307542616517177
40
0.307542616517177
40
0.41210911700956
40
0.41210911700956
40
0.516348967690792
40
0.516348967690792
40
0.620446917153363
40
0.620446917153363
40
0.724476829459907
40
0.724476829459907
40
0.933310901386085
40
0.933310901386085
40
1
40
1
40
1
40
1
41
1
10
72.3765963092016
20
-48.7753573566553
30
0
41
1
10
72.3796145183005
20
-48.7616444537594
30
0
41
1
10
72.3794933871957
20
-48.7471813633234
30
0
41
1
10
72.373456796954
20
-48.7219377902348
30
0
41
1
10
72.3683863586698
20
-48.7106306802422
30
0
41
1
10
72.3517056292419
20
-48.6844764469809
30
0
41
1
10
72.3378912917336
20
-48.6704384491082
30
0
41
1
10
72.3098777162901
20
-48.648448145199
30
0
41
1
10
72.2959576743724
20
-48.6396682938372
30
0
41
1
10
72.2669341322147
20
-48.6241784287172
30
0
41
1
10
72.2517396595422
20
-48.6174146420642
30
0
41
1
10
72.2206317833042
20
-48.6055554740023
30
0
41
1
10
72.2046631836392
20
-48.6004391023361
30
0
41
1
10
72.1722702744429
20
-48.5916248715619
30
0
41
1
10
72.1558091553579
20
-48.5879174798977
30
0
41
1
10
72.1059235748263
20
-48.5786762406687
30
0
41
1
10
72.0719197010973
20
-48.5750010374789
30
0
41
1
10
72.026882792167
20
-48.5731052646862
30
0
41
1
10
72.0159457306452
20
-48.5728763613957
30
0
41
1
10
72.0049986021929
20
-48.5728763613957
30
0
0
SPLINE
5
2A1
100
AcDbEntity
8
1
62
256
6
ByLayer
370
-1
48
1
60
0
100
AcDbSpline
70
4
71
3
72
22
73
18
40
0
40
0
40
0
40
0
40
0.0973712659846688
40
0.0973712659846688
40
0.180296832630709
40
0.180296832630709
40
0.307445080803014
40
0.307445080803014
40
0.411978418514852
40
0.411978418514852
40
0.516185210011019
40
0.516185210011019
40
0.620250145291802
40
0.620250145291802
40
0.829289859625942
40
0.829289859625942
40
1
40
1
40
1
40
1
41
1
10
72.3678075407883
20
-51.7196763682996
30
0
41
1
10
72.3707430665516
20
-51.7336631504215
30
0
41
1
10
72.3705347794114
20
-51.7483981410183
30
0
41
1
10
72.3643461492253
20
-51.7740893607763
30
0
41
1
10
72.3592076413511
20
-51.7855861953659
30
0
41
1
10
72.3423695174408
20
-51.8121605749422
30
0
41
1
10
72.328470753971
20
-51.8264060579694
30
0
41
1
10
72.3003249720202
20
-51.8487061613455
30
0
41
1
10
72.2863521651237
20
-51.857603067704
30
0
41
1
10
72.2572355524214
20
-51.8732926990483
30
0
41
1
10
72.2420004511938
20
-51.8801398556091
30
0
41
1
10
72.2108213509633
20
-51.8921413862619
30
0
41
1
10
72.1948220298929
20
-51.8973169705008
30
0
41
1
10
72.1460751693737
20
-51.9107097592624
30
0
41
1
10
72.112478374797
20
-51.9168339430584
30
0
41
1
10
72.0509579055819
20
-51.9236760701154
30
0
41
1
10
72.0229879114684
20
-51.9251811082162
30
0
41
1
10
71.994991999663
20
-51.9251811082162
30
0
0
SPLINE
5
2A2
100
AcDbEntity
8
1
62
256
6
ByLayer
370
-1
48
1
60
0
100
AcDbSpline
70
4
71
3
72
8
73
4
40
0
40
0
40
0
40
0
40
1
40
1
40
1
40
1
41
1
10
70.5340588858547
20
-50.6429034538932
30
0
41
1
10
70.5397497548013
20
-50.6406991271569
30
0
41
1
10
70.5454406692382
20
-50.6384947899761
30
0
41
1
10
70.5511316310416
20
-50.6362904419203
30
0
0
SPLINE
5
2A3
100
AcDbEntity
8
1
62
256
6
ByLayer
370
-1
48
1
60
0
100
AcDbSpline
70
4
71
3
72
8
73
4
40
0
40
0
40
0
40
0
40
1
40
1
40
1
40
1
41
1
10
70.5534538110127
20
-49.8583385929555
30
0
41
1
10
70.5477756064727
20
-49.8562691393396
30
0
41
1
10
70.5420974492274
20
-49.8541996988821
30
0
41
1
10
70.5364193374036
20
-49.8521302710617
30
0
0
SPLINE
5
2A4
100
AcDbEntity
8
1
62
256
6
ByLayer
370
-1
48
1
60
0
100
AcDbSpline
70
4
71
3
72
34
73
30
40
0
40
0
40
0
40
0
40
0.0514465755209416
40
0.0514465755209416
40
0.135786144735426
40
0.135786144735426
40
0.203131635218894
40
0.203131635218894
40
0.270315608875141
40
0.270315608875141
40
0.337431278535995
40
0.337431278535995
40
0.404515897625595
40
0.404515897625595
40
0.499929883690949
40
0.499929883690949
40
0.599210771748176
40
0.599210771748176
40
0.697083019894285
40
0.697083019894285
40
0.780957226922801
40
0.780957226922801
40
0.847546414393316
40
0.847546414393316
40
0.898875235580434
40
0.898875235580434
40
0.980803570703603
40
0.980803570703603
40
1
40
1
40
1
40
1
41
1
10
70.5511316310416
20
-50.6362904419203
30
0
41
1
10
70.5626762341885
20
-50.6318187332037
30
0
41
1
10
70.5735099391552
20
-50.6247063842633
30
0
41
1
10
70.5991434700758
20
-50.6019196904943
30
0
41
1
10
70.6126553879814
20
-50.5834025048804
30
0
41
1
10
70.6331453459324
20
-50.5470430566336
30
0
41
1
10
70.6410428676174
20
-50.5295088782056
30
0
41
1
10
70.6547548749165
20
-50.4931012423789
30
0
41
1
10
70.6606149332622
20
-50.474107818964
30
0
41
1
10
70.6706199068766
20
-50.4352733896564
30
0
41
1
10
70.6747860191525
20
-50.4153465714511
30
0
41
1
10
70.6816140314799
20
-50.3749784742243
30
0
41
1
10
70.684287187807
20
-50.3544670181884
30
0
41
1
10
70.6890783820471
20
-50.3045179472092
30
0
41
1
10
70.6905064368884
20
-50.2748005841394
30
0
41
1
10
70.690686726429
20
-50.2144019142834
30
0
41
1
10
70.6893298092818
20
-50.1835360062782
30
0
41
1
10
70.6836491816586
20
-50.123269967592
30
0
41
1
10
70.6793524817492
20
-50.0936522276341
30
0
41
1
10
70.6682983944113
20
-50.0404301955377
30
0
41
1
10
70.6619487029062
20
-50.0164085437555
30
0
41
1
10
70.6479112653091
20
-49.9753992864729
30
0
41
1
10
70.6407292078672
20
-49.9578701898728
30
0
41
1
10
70.6259751084225
20
-49.928887952878
30
0
41
1
10
70.6188288257287
20
-49.916890455469
30
0
41
1
10
70.5982998723197
20
-49.8886899997426
30
0
41
1
10
70.5832947636781
20
-49.8736110715205
30
0
41
1
10
70.5620338564496
20
-49.8618736955864
30
0
41
1
10
70.5577968846229
20
-49.8599214505865
30
0
41
1
10
70.5534538110127
20
-49.8583385929555
30
0
0
SPLINE
5
2A5
100
AcDbEntity
8
1
62
256
6
ByLayer
370
-1
48
1
60
0
100
AcDbSpline
70
4
71
3
72
24
73
20
40
0
40
0
40
0
40
0
40
0.0380198325517601
40
0.0380198325517601
40
0.246834654674859
40
0.246834654674859
40
0.404726505663289
40
0.404726505663289
40
0.526150637962846
40
0.526150637962846
40
0.621531995503676
40
0.621531995503676
40
0.776890538332138
40
0.776890538332138
40
0.873684213898047
40
0.873684213898047
40
0.97174617225509
40
0.97174617225509
40
1
40
1
40
1
40
1
41
1
10
70.5727481445953
20
-49.4109525481008
30
0
41
1
10
70.5758855924343
20
-49.4054641220564
30
0
41
1
10
70.5790831178452
20
-49.4000123172989
30
0
41
1
10
70.6001941511284
20
-49.3649215655393
30
0
41
1
10
70.6198585957816
20
-49.3363163428602
30
0
41
1
10
70.657369836687
20
-49.2889658759359
30
0
41
1
10
70.6745626121114
20
-49.2694316836913
30
0
41
1
10
70.7067743352067
20
-49.2372077473569
30
0
41
1
10
70.7214319590149
20
-49.2239278743981
30
0
41
1
10
70.7487076044246
20
-49.2022012565124
30
0
41
1
10
70.7611351309804
20
-49.1932940691468
30
0
41
1
10
70.7945815071099
20
-49.172535645447
30
0
41
1
10
70.8166240322859
20
-49.1619783473787
30
0
41
1
10
70.8525373681346
20
-49.1527512343788
30
0
41
1
10
70.8666342378519
20
-49.1511149685427
30
0
41
1
10
70.8932640644528
20
-49.1533196852151
30
0
41
1
10
70.9061208795758
20
-49.1573550343373
30
0
41
1
10
70.9200732631299
20
-49.1661025591216
30
0
41
1
10
70.9230894570634
20
-49.1683210064589
30
0
41
1
10
70.9259324745507
20
-49.1707439480711
30
0
0
SPLINE
5
2A6
100
AcDbEntity
8
1
62
256
6
ByLayer
370
-1
48
1
60
0
100
AcDbSpline
70
4
71
3
72
8
73
4
40
0
40
0
40
0
40
0
40
1
40
1
40
1
40
1
41
1
10
71.5928491318095
20
-51.7196763682996
30
0
41
1
10
71.5935478499494
20
-51.7129432734248
30
0
41
1
10
71.594246586618
20
-51.7062101436466
30
0
41
1
10
71.59494534258
20
-51.6994769775261
30
0
0
SPLINE
5
2A7
100
AcDbEntity
8
1
62
256
6
ByLayer
370
-1
48
1
60
0
100
AcDbSpline
70
4
71
3
72
8
73
4
40
0
40
0
40
0
40
0
40
1
40
1
40
1
40
1
41
1
10
73.4353865551564
20
-49.8521302710617
30
0
41
1
10
73.4283329689325
20
-49.8541996988821
30
0
41
1
10
73.4212793593687
20
-49.8562691393397
30
0
41
1
10
73.4142257255037
20
-49.8583385929555
30
0
0
SPLINE
5
2A8
100
AcDbEntity
8
1
62
256
6
ByLayer
370
-1
48
1
60
0
100
AcDbSpline
70
4
71
3
72
8
73
4
40
0
40
0
40
0
40
0
40
1
40
1
40
1
40
1
41
1
10
72.3704120139653
20
-48.7951520573496
30
0
41
1
10
72.3724734419889
20
-48.7885537856692
30
0
41
1
10
72.3745348737844
20
-48.7819555526142
30
0
41
1
10
72.3765963092016
20
-48.7753573566553
30
0
0
SPLINE
5
2A9
100
AcDbEntity
8
1
62
256
6
ByLayer
370
-1
48
1
60
0
100
AcDbSpline
70
4
71
3
72
8
73
4
40
0
40
0
40
0
40
0
40
1
40
1
40
1
40
1
41
1
10
70.9259324745507
20
-49.1707439480711
30
0
41
1
10
70.9302432667188
20
-49.1752052667516
30
0
41
1
10
70.9345540969237
20
-49.1796666109873
30
0
41
1
10
70.9388649667343
20
-49.184127981832
30
0
0
SPLINE
5
2AA
100
AcDbEntity
8
1
62
256
6
ByLayer
370
-1
48
1
60
0
100
AcDbSpline
70
4
71
3
72
34
73
30
40
0
40
0
40
0
40
0
40
0.0514465755209391
40
0.0514465755209391
40
0.135786144735404
40
0.135786144735404
40
0.203131635218864
40
0.203131635218864
40
0.270315608875095
40
0.270315608875095
40
0.33743127853594
40
0.33743127853594
40
0.404515897625539
40
0.404515897625539
40
0.499929883690932
40
0.499929883690932
40
0.599210771748188
40
0.599210771748188
40
0.697083019894279
40
0.697083019894279
40
0.780957226922803
40
0.780957226922803
40
0.847546414393321
40
0.847546414393321
40
0.898875235580418
40
0.898875235580418
40
0.980803570703613
40
0.980803570703613
40
1
40
1
40
1
40
1
41
1
10
71.59494534258
20
-51.6994769775261
30
0
41
1
10
71.5963628288603
20
-51.6858181737127
30
0
41
1
10
71.595171354981
20
-51.6714729021234
30
0
41
1
10
71.5872047453917
20
-51.6344207698132
30
0
41
1
10
71.5773854263425
20
-51.6114955705694
30
0
41
1
10
71.5553692364205
20
-51.5724700920137
30
0
41
1
10
71.5438537250917
20
-51.5556165167789
30
0
41
1
10
71.518743663804
20
-51.5233230359496
30
0
41
1
10
71.5050664565304
20
-51.5077761208663
30
0
41
1
10
71.4762344997999
20
-51.4780106706047
30
0
41
1
10
71.4610155748854
20
-51.4637271464194
30
0
41
1
10
71.4294904630335
20
-51.4364689444036
30
0
41
1
10
71.413129172129
20
-51.4234474392093
30
0
41
1
10
71.3725572644055
20
-51.393551238892
30
0
41
1
10
71.3478156447624
20
-51.3772665204331
30
0
41
1
10
71.2963860544903
20
-51.3470671855052
30
0
41
1
10
71.2694948818457
20
-51.3331772559906
30
0
41
1
10
71.215703363197
20
-51.3092562775659
30
0
41
1
10
71.1886290347168
20
-51.2990888871891
30
0
41
1
10
71.1385291816688
20
-51.2842598573927
30
0
41
1
10
71.1153255540823
20
-51.2789713931388
30
0
41
1
10
71.0742912547791
20
-51.2731717409892
30
0
41
1
10
71.0562259468046
20
-51.2718860473494
30
0
41
1
10
71.0250575626872
20
-51.2726243387765
30
0
41
1
10
71.0116862552323
20
-51.2739629730356
30
0
41
1
10
70.9785589817653
20
-51.2807904872857
30
0
41
1
10
70.9590127946571
20
-51.2884144801834
30
0
41
1
10
70.9394157058546
20
-51.3037477645924
30
0
41
1
10
70.9358356838636
20
-51.3069855195115
30
0
41
1
10
70.9325177603313
20
-51.3105010530437
30
0
0
SPLINE
5
2AB
100
AcDbEntity
8
1
62
256
6
ByLayer
370
-1
48
1
60
0
100
AcDbSpline
70
4
71
3
72
22
73
18
40
0
40
0
40
0
40
0
40
0.0973712659846709
40
0.0973712659846709
40
0.180296832630726
40
0.180296832630726
40
0.307445080803032
40
0.307445080803032
40
0.41197841851485
40
0.41197841851485
40
0.516185210011035
40
0.516185210011035
40
0.620250145291844
40
0.620250145291844
40
0.829289859626012
40
0.829289859626012
40
1
40
1
40
1
40
1
41
1
10
73.0499412833248
20
-49.1707439480712
30
0
41
1
10
73.0623665405798
20
-49.1625548418154
30
0
41
1
10
73.0769795529973
20
-49.1567436059392
30
0
41
1
10
73.1051669572068
20
-49.1515962822187
30
0
41
1
10
73.118883534142
20
-49.1513208635521
30
0
41
1
10
73.1529248141654
20
-49.1549504754183
30
0
41
1
10
73.1734698800169
20
-49.1610882387076
30
0
41
1
10
73.2087018459507
20
-49.1762355685351
30
0
41
1
10
73.2240760297657
20
-49.1846572178984
30
0
41
1
10
73.2533668551891
20
-49.2034094128138
30
0
41
1
10
73.2673800358833
20
-49.2137962917963
30
0
41
1
10
73.2941410684474
20
-49.2359176114184
30
0
41
1
10
73.3069360977183
20
-49.2476911752805
30
0
41
1
10
73.3436777320028
20
-49.2846005655968
30
0
41
1
10
73.366071160681
20
-49.3113967076438
30
0
41
1
10
73.4030166415874
20
-49.3624212091374
30
0
41
1
10
73.4183212798554
20
-49.386336993017
30
0
41
1
10
73.4322457585255
20
-49.4109525481008
30
0
0
SPLINE
5
2AC
100
AcDbEntity
8
1
62
256
6
ByLayer
370
-1
48
1
60
0
100
AcDbSpline
70
4
71
3
72
30
73
26
40
0
40
0
40
0
40
0
40
0.0515194889309945
40
0.0515194889309945
40
0.0928771460763535
40
0.0928771460763535
40
0.148185150442229
40
0.148185150442229
40
0.203338923043313
40
0.203338923043313
40
0.287955708682733
40
0.287955708682733
40
0.372427214532667
40
0.372427214532667
40
0.435367147735175
40
0.435367147735175
40
0.498971020782826
40
0.498971020782826
40
0.701334348038885
40
0.701334348038885
40
0.838887327921254
40
0.838887327921254
40
0.925006664597001
40
0.925006664597001
40
1
40
1
40
1
40
1
41
1
10
71.6036147289541
20
-48.7951520573496
30
0
41
1
10
71.6049514892246
20
-48.8085372162451
30
0
41
1
10
71.6036751899503
20
-48.8226092394713
30
0
41
1
10
71.5980530969537
20
-48.8475915924298
30
0
41
1
10
71.5943374464147
20
-48.8587442834425
30
0
41
1
10
71.583672125282
20
-48.8842893681814
30
0
41
1
10
71.576008893095
20
-48.8986450819578
30
0
41
1
10
71.5586967996789
20
-48.9264168398862
30
0
41
1
10
71.5489922791905
20
-48.9399289414492
30
0
41
1
10
71.5226168913138
20
-48.9730245606583
30
0
41
1
10
71.5048752297598
20
-48.9921651819921
30
0
41
1
10
71.4673105470448
20
-49.028392903555
30
0
41
1
10
71.4473593006894
20
-49.0456002132736
30
0
41
1
10
71.4112751916977
20
-49.073875663795
30
0
41
1
10
71.3954045911302
20
-49.0854334479274
30
0
41
1
10
71.3628875100555
20
-49.1075039500753
30
0
41
1
10
71.3461912454315
20
-49.1180335024522
30
0
41
1
10
71.2761117369034
20
-49.1590402739717
30
0
41
1
10
71.2198412443238
20
-49.1845464773477
30
0
41
1
10
71.1266160983171
20
-49.2122319943552
30
0
41
1
10
71.0883393658519
20
-49.2195287076461
30
0
41
1
10
71.0290512085325
20
-49.2205139704252
30
0
41
1
10
71.0065018982559
20
-49.2182264438089
30
0
41
1
10
70.9682666711701
20
-49.206249313828
30
0
41
1
10
70.9515591535215
20
-49.1972653479132
30
0
41
1
10
70.9388649667343
20
-49.184127981832
30
0
0
SPLINE
5
2AD
100
AcDbEntity
8
1
62
256
6
ByLayer
370
-1
48
1
60
0
100
AcDbSpline
70
4
71
3
72
22
73
18
40
0
40
0
40
0
40
0
40
0.0973712659846995
40
0.0973712659846995
40
0.180296832630707
40
0.180296832630707
40
0.307445080802977
40
0.307445080802977
40
0.41197841851481
40
0.41197841851481
40
0.516185210010971
40
0.516185210010971
40
0.620250145291769
40
0.620250145291769
40
0.829289859625879
40
0.829289859625879
40
1
40
1
40
1
40
1
41
1
10
70.5364193374035
20
-49.8521302710617
30
0
41
1
10
70.5252085501477
20
-49.8467434140344
30
0
41
1
10
70.5149238325542
20
-49.8382275095551
30
0
41
1
10
70.4997080913598
20
-49.8183550835217
30
0
41
1
10
70.4940048525139
20
-49.8074182544942
30
0
41
1
10
70.4831680260128
20
-49.7778444825241
30
0
41
1
10
70.4796656733372
20
-49.7577724639393
30
0
41
1
10
70.4772737719172
20
-49.720789729936
30
0
41
1
10
70.4776460882695
20
-49.7036467567092
30
0
41
1
10
70.4804988630139
20
-49.6695045797859
30
0
41
1
10
70.4829840585098
20
-49.6523955991059
30
0
41
1
10
70.4895592965391
20
-49.6184862927175
30
0
41
1
10
70.4936608156522
20
-49.6016259634742
30
0
41
1
10
70.507942289822
20
-49.5515491160804
30
0
41
1
10
70.5201207864132
20
-49.5187253209526
30
0
41
1
10
70.5457793929282
20
-49.4609659625774
30
0
41
1
10
70.55867671146
20
-49.4355681031846
30
0
41
1
10
70.5727481445953
20
-49.4109525481008
30
0
0
SPLINE
5
2AE
100
AcDbEntity
8
1
62
256
6
ByLayer
370
-1
48
1
60
0
100
AcDbSpline
70
4
71
3
72
8
73
4
40
0
40
0
40
0
40
0
40
1
40
1
40
1
40
1
41
1
10
71.6016379002228
20
-48.7753573566553
30
0
41
1
10
71.6022968245675
20
-48.7819555526142
30
0
41
1
10
71.602955767226
20
-48.7885537856692
30
0
41
1
10
71.6036147289541
20
-48.7951520573496
30
0
0
SPLINE
5
2AF
100
AcDbEntity
8
1
62
256
6
ByLayer
370
-1
48
1
60
0
100
AcDbSpline
70
4
71
3
72
30
73
26
40
0
40
0
40
0
40
0
40
0.0511772287528836
40
0.0511772287528836
40
0.135075241067808
40
0.135075241067808
40
0.271834780652465
40
0.271834780652465
40
0.469061266910945
40
0.469061266910945
40
0.500636061959707
40
0.500636061959707
40
0.599800502489103
40
0.599800502489103
40
0.697557955314422
40
0.697557955314422
40
0.781333785463024
40
0.781333785463024
40
0.847844869822017
40
0.847844869822017
40
0.899113486931098
40
0.899113486931098
40
0.939077913069128
40
0.939077913069128
40
1
40
1
40
1
40
1
41
1
10
73.032839596214
20
-49.1841279818321
30
0
41
1
10
73.0212754840796
20
-49.19317825447
30
0
41
1
10
73.0078269792968
20
-49.2002745529373
30
0
41
1
10
72.9707184962795
20
-49.2142011222071
30
0
41
1
10
72.9453859624654
20
-49.2184136273391
30
0
41
1
10
72.87894634159
20
-49.2218385729397
30
0
41
1
10
72.8364222281285
20
-49.2165352785044
30
0
41
1
10
72.7364447066129
20
-49.1934302368248
30
0
41
1
10
72.6784824682109
20
-49.1706079724033
30
0
41
1
10
72.6168432252708
20
-49.13761148284
30
0
41
1
10
72.6083489942255
20
-49.1328465015306
30
0
41
1
10
72.5737535671993
20
-49.1125321478247
30
0
41
1
10
72.5486101464788
20
-49.0955848265471
30
0
41
1
10
72.5018563136896
20
-49.0593526256432
30
0
41
1
10
72.4800407019047
20
-49.0399860137503
30
0
41
1
10
72.4432940150129
20
-49.0017979135661
30
0
41
1
10
72.4277104751396
20
-48.9831794148327
30
0
41
1
10
72.4033509670466
20
-48.9482100798514
30
0
41
1
10
72.393768103944
20
-48.93208580602
30
0
41
1
10
72.3798786091537
20
-48.9025976487318
30
0
41
1
10
72.3748338196463
20
-48.8893704701683
30
0
41
1
10
72.368364258103
20
-48.8653951909179
30
0
41
1
10
72.3663742771923
20
-48.854681003068
30
0
41
1
10
72.3641944932788
20
-48.8276628750332
30
0
41
1
10
72.3654827775896
20
-48.8109296835436
30
0
41
1
10
72.3704120139653
20
-48.7951520573496
30
0
0
SPLINE
5
2B0
100
AcDbEntity
8
1
62
256
6
ByLayer
370
-1
48
1
60
0
100
AcDbSpline
70
4
71
3
72
34
73
30
40
0
40
0
40
0
40
0
40
0.0514465755209158
40
0.0514465755209158
40
0.135786144735405
40
0.135786144735405
40
0.20313163521887
40
0.20313163521887
40
0.270315608875101
40
0.270315608875101
40
0.337431278535945
40
0.337431278535945
40
0.404515897625543
40
0.404515897625543
40
0.49992988369084
40
0.49992988369084
40
0.599210771748169
40
0.599210771748169
40
0.697083019894256
40
0.697083019894256
40
0.780957226922776
40
0.780957226922776
40
0.847546414393295
40
0.847546414393295
40
0.898875235580392
40
0.898875235580392
40
0.980803570703577
40
0.980803570703577
40
1
40
1
40
1
40
1
41
1
10
73.4142257255037
20
-49.8583385929555
30
0
41
1
10
73.3999168254392
20
-49.862536656754
30
0
41
1
10
73.3863228294611
20
-49.8693757573315
30
0
41
1
10
73.3538429424
20
-49.8914847125577
30
0
41
1
10
73.3363810623159
20
-49.9096108811758
30
0
41
1
10
73.3095934913487
20
-49.9453469123842
30
0
41
1
10
73.2991371905551
20
-49.9626277906349
30
0
41
1
10
73.2808421146725
20
-49.9985817366215
30
0
41
1
10
73.2729421130684
20
-50.0173732207649
30
0
41
1
10
73.2593780169939
20
-50.0558553233136
30
0
41
1
10
73.2536848235919
20
-50.0756309717993
30
0
41
1
10
73.2443239340527
20
-50.1157483329448
30
0
41
1
10
73.2406406202285
20
-50.1361597908712
30
0
41
1
10
73.2340408874204
20
-50.1859298299292
30
0
41
1
10
73.232078054728
20
-50.2155942539532
30
0
41
1
10
73.2318977651875
20
-50.2759929238091
30
0
41
1
10
73.2338336592553
20
-50.3069161462407
30
0
41
1
10
73.241794444508
20
-50.3674079036417
30
0
41
1
10
73.2477829414452
20
-50.3971931189732
30
0
41
1
10
73.2629767752159
20
-50.4508249553007
30
0
41
1
10
73.2716435854847
20
-50.4750759846763
30
0
41
1
10
73.2905353287629
20
-50.5165657822625
30
0
41
1
10
73.3001242153594
20
-50.53433313712
30
0
41
1
10
73.319573032422
20
-50.5637801163824
30
0
41
1
10
73.328920552643
20
-50.5759955200007
30
0
41
1
10
73.3554850312846
20
-50.6047934480163
30
0
41
1
10
73.3746462982303
20
-50.6202838051233
30
0
41
1
10
73.4012406176289
20
-50.6325491493543
30
0
41
1
10
73.4065182084694
20
-50.6346044079281
30
0
41
1
10
73.4119035455325
20
-50.6362904419203
30
0
0
SPLINE
5
2B1
100
AcDbEntity
8
1
62
256
6
ByLayer
370
-1
48
1
60
0
100
AcDbSpline
70
4
71
3
72
24
73
20
40
0
40
0
40
0
40
0
40
0.038019832551894
40
0.038019832551894
40
0.246834654674973
40
0.246834654674973
40
0.404726505663399
40
0.404726505663399
40
0.526150637962927
40
0.526150637962927
40
0.621531995503739
40
0.621531995503739
40
0.776890538332167
40
0.776890538332167
40
0.873684213898054
40
0.873684213898054
40
0.971746172255068
40
0.971746172255068
40
1
40
1
40
1
40
1
41
1
10
70.5677448433304
20
-51.087104921511
30
0
41
1
10
70.5646401613061
20
-51.0816164954666
30
0
41
1
10
70.5615953032163
20
-51.0760898369895
30
0
41
1
10
70.542252799722
20
-51.0400274751343
30
0
41
1
10
70.5276710557605
20
-51.0083630641419
30
0
41
1
10
70.5059190138008
20
-50.9513440746563
30
0
41
1
10
70.4977712443622
20
-50.9262266562837
30
0
41
1
10
70.4861694292893
20
-50.8811904693437
30
0
41
1
10
70.4820486110262
20
-50.861336869712
30
0
41
1
10
70.4768707877336
20
-50.8257510581596
30
0
41
1
10
70.4753392390121
20
-50.8099887393334
30
0
41
1
10
70.4738884191278
20
-50.7690079139393
30
0
41
1
10
70.4755295790162
20
-50.7434028128172
30
0
41
1
10
70.4847901502329
20
-50.7051675738733
30
0
41
1
10
70.490064880977
20
-50.6910254107136
30
0
41
1
10
70.5043875785735
20
-50.6665866172764
30
0
41
1
10
70.513747089771
20
-50.6560635924757
30
0
41
1
10
70.5274918974678
20
-50.6465051092859
30
0
41
1
10
70.5307321511189
20
-50.6445783171805
30
0
41
1
10
70.5340588858547
20
-50.6429034538932
30
0
0
SPLINE
5
2B2
100
AcDbEntity
8
1
62
256
6
ByLayer
370
-1
48
1
60
0
100
AcDbSpline
70
4
71
3
72
24
73
20
40
0
40
0
40
0
40
0
40
0.0380198325518427
40
0.0380198325518427
40
0.246834654674925
40
0.246834654674925
40
0.404726505663327
40
0.404726505663327
40
0.526150637962876
40
0.526150637962876
40
0.621531995503728
40
0.621531995503728
40
0.776890538332174
40
0.776890538332174
40
0.873684213898035
40
0.873684213898035
40
0.971746172255051
40
0.971746172255051
40
1
40
1
40
1
40
1
41
1
10
71.994991999663
20
-51.9251811082162
30
0
41
1
10
71.9887498697997
20
-51.9251811082162
30
0
41
1
10
71.9825035859867
20
-51.9251058683945
30
0
41
1
10
71.9419993552519
20
-51.9241292399727
30
0
41
1
10
71.9075951405949
20
-51.9210544082518
30
0
41
1
10
71.8478086439532
20
-51.9113340914024
30
0
41
1
10
71.8221615889562
20
-51.9057205230416
30
0
41
1
10
71.777609133031
20
-51.8928351250516
30
0
41
1
10
71.7584424039966
20
-51.8862229608457
30
0
41
1
10
71.7251307449761
20
-51.8722788126946
30
0
41
1
10
71.710735578697
20
-51.8653805114552
30
0
41
1
10
71.6744948141994
20
-51.8450251064337
30
0
41
1
10
71.6530459350393
20
-51.8298736072662
30
0
41
1
10
71.6241661718593
20
-51.8006450249626
30
0
41
1
10
71.6143391188022
20
-51.7880396485887
30
0
41
1
10
71.5997489738406
20
-51.761170136811
30
0
41
1
10
71.5949323267706
20
-51.7464811576899
30
0
41
1
10
71.5929577336474
20
-51.728000228096
30
0
41
1
10
71.5927747061699
20
-51.7238146900365
30
0
41
1
10
71.5928491318095
20
-51.7196763682996
30
0
0
SPLINE
5
2B3
100
AcDbEntity
8
1
62
256
6
ByLayer
370
-1
48
1
60
0
100
AcDbSpline
70
4
71
3
72
24
73
20
40
0
40
0
40
0
40
0
40
0.0380198325519553
40
0.0380198325519553
40
0.246834654675048
40
0.246834654675048
40
0.404726505663449
40
0.404726505663449
40
0.526150637962971
40
0.526150637962971
40
0.621531995503773
40
0.621531995503773
40
0.776890538332197
40
0.776890538332197
40
0.873684213898091
40
0.873684213898091
40
0.971746172255058
40
0.971746172255058
40
1
40
1
40
1
40
1
41
1
10
73.4322457585255
20
-49.4109525481008
30
0
41
1
10
73.4353504405498
20
-49.4164409741452
30
0
41
1
10
73.4383874980151
20
-49.4219668604183
30
0
41
1
10
73.4576286135948
20
-49.458019185621
30
0
41
1
10
73.4718943054716
20
-49.4896523097982
30
0
41
1
10
73.4925999198782
20
-49.5465677107076
30
0
41
1
10
73.5001346690485
20
-49.5716244446147
30
0
41
1
10
73.5102586486074
20
-49.616514336786
30
0
41
1
10
73.5136028929446
20
-49.6362910613516
30
0
41
1
10
73.5170643356008
20
-49.6717069639353
30
0
41
1
10
73.5177237023184
20
-49.6873829432039
30
0
41
1
10
73.5164873852354
20
-49.7280977619435
30
0
41
1
10
73.5127511976021
20
-49.7534954708379
30
0
41
1
10
73.499036629289
20
-49.7912897970628
30
0
41
1
10
73.4917520703773
20
-49.805233002122
30
0
41
1
10
73.4728633408666
20
-49.8292197922231
30
0
41
1
10
73.4608651433799
20
-49.8394816066275
30
0
41
1
10
73.4435863011512
20
-49.8486902465774
30
0
41
1
10
73.43953187311
20
-49.8505364414492
30
0
41
1
10
73.4353865551564
20
-49.8521302710617
30
0
0
SPLINE
5
2B4
100
AcDbEntity
8
1
62
256
6
ByLayer
370
-1
48
1
60
0
100
AcDbSpline
70
4
71
3
72
8
73
4
40
0
40
0
40
0
40
0
40
1
40
1
40
1
40
1
41
1
10
73.4119035455326
20
-50.6362904419203
30
0
41
1
10
73.4189444221342
20
-50.6384947899761
30
0
41
1
10
73.4259852745064
20
-50.6406991271569
30
0
41
1
10
73.4330261036076
20
-50.6429034538933
30
0
0
SPLINE
5
2B5
100
AcDbEntity
8
1
62
256
6
ByLayer
370
-1
48
1
60
0
100
AcDbSpline
70
4
71
3
72
22
73
18
40
0
40
0
40
0
40
0
40
0.0973712659846918
40
0.0973712659846918
40
0.18029683263073
40
0.18029683263073
40
0.307445080803027
40
0.307445080803027
40
0.411978418514876
40
0.411978418514876
40
0.516185210011073
40
0.516185210011073
40
0.620250145291899
40
0.620250145291899
40
0.829289859626028
40
0.829289859626028
40
1
40
1
40
1
40
1
41
1
10
73.4330261036076
20
-50.6429034538933
30
0
41
1
10
73.447003554705
20
-50.6485641901465
30
0
41
1
10
73.4600349440877
20
-50.6573519947866
30
0
41
1
10
73.4797727071681
20
-50.6776720674894
30
0
41
1
10
73.4873924994908
20
-50.688798621114
30
0
41
1
10
73.5024735457332
20
-50.7187925393989
30
0
41
1
10
73.5080718648795
20
-50.7390720431382
30
0
41
1
10
73.5135932880082
20
-50.7763645766084
30
0
41
1
10
73.5144034338365
20
-50.7936246048319
30
0
41
1
10
73.5135686507357
20
-50.8279665479794
30
0
41
1
10
73.5119256385481
20
-50.8451588985683
30
0
41
1
10
73.5067885140941
20
-50.8792105675477
30
0
41
1
10
73.5032851465235
20
-50.8961301093628
30
0
41
1
10
73.490521170977
20
-50.9463571778794
30
0
41
1
10
73.4789927615142
20
-50.9792453268173
30
0
41
1
10
73.4540565671368
20
-51.0370761986427
30
0
41
1
10
73.4413138903959
20
-51.0624893664272
30
0
41
1
10
73.4272424572606
20
-51.087104921511
30
0
0
SPLINE
5
2B6
100
AcDbEntity
8
1
62
256
6
ByLayer
370
-1
48
1
60
0
100
AcDbSpline
70
4
71
3
72
22
73
18
40
0
40
0
40
0
40
0
40
0.0973712659846983
40
0.0973712659846983
40
0.180296832630753
40
0.180296832630753
40
0.30744508080304
40
0.30744508080304
40
0.411978418514864
40
0.411978418514864
40
0.516185210011041
40
0.516185210011041
40
0.620250145291869
40
0.620250145291869
40
0.829289859625983
40
0.829289859625983
40
1
40
1
40
1
40
1
41
1
10
70.9195041576863
20
-51.3242897768838
30
0
41
1
10
70.9098455642729
20
-51.3327527623655
30
0
41
1
10
70.8979792236446
20
-51.3388358984026
30
0
41
1
10
70.8743138413211
20
-51.3444308687924
30
0
41
1
10
70.8625138178627
20
-51.344896012056
30
0
41
1
10
70.8327167575806
20
-51.3416865465047
30
0
41
1
10
70.8142676581998
20
-51.3357562683699
30
0
41
1
10
70.7821652139747
20
-51.3209187380093
30
0
41
1
10
70.7679734923402
20
-51.3126141436427
30
0
41
1
10
70.7407006585605
20
-51.2940617149515
30
0
41
1
10
70.7275296611746
20
-51.2837582058779
30
0
41
1
10
70.7022067421858
20
-51.2617792488468
30
0
41
1
10
70.6900098644573
20
-51.2500648975565
30
0
41
1
10
70.6547857287962
20
-51.2133057283629
30
0
41
1
10
70.6330423872465
20
-51.1865739401261
30
0
41
1
10
70.5968193184776
20
-51.1356209520826
30
0
41
1
10
70.5816693220005
20
-51.1117204765948
30
0
41
1
10
70.5677448433304
20
-51.087104921511
30
0
0
SPLINE
5
2B7
100
AcDbEntity
8
1
62
256
6
ByLayer
370
-1
48
1
60
0
100
AcDbSpline
70
4
71
3
72
34
73
30
40
0
40
0
40
0
40
0
40
0.0514465755209308
40
0.0514465755209308
40
0.135786144735434
40
0.135786144735434
40
0.203131635218923
40
0.203131635218923
40
0.270315608875162
40
0.270315608875162
40
0.337431278536031
40
0.337431278536031
40
0.404515897625627
40
0.404515897625627
40
0.499929883690945
40
0.499929883690945
40
0.599210771748173
40
0.599210771748173
40
0.697083019894233
40
0.697083019894233
40
0.780957226922779
40
0.780957226922779
40
0.847546414393287
40
0.847546414393287
40
0.898875235580386
40
0.898875235580386
40
0.980803570703583
40
0.980803570703583
40
1
40
1
40
1
40
1
41
1
10
73.026492389811
20
-51.3105010530437
30
0
41
1
10
73.0149831244856
20
-51.3011771354878
30
0
41
1
10
73.0015778001339
20
-51.2938075886575
30
0
41
1
10
72.9645544815538
20
-51.2792032808448
30
0
41
1
10
72.9392482635097
20
-51.2745997587171
30
0
41
1
10
72.8935933091286
20
-51.271622019889
30
0
41
1
10
72.8729008865605
20
-51.2721759729936
30
0
41
1
10
72.8317872836819
20
-51.2760632830708
30
0
41
1
10
72.8112300464334
20
-51.2794088217668
30
0
41
1
10
72.7706135548585
20
-51.2883016374333
30
0
41
1
10
72.7504649771051
20
-51.2938693465935
30
0
41
1
10
72.7108454143198
20
-51.3068538737639
30
0
41
1
10
72.6913058883397
20
-51.3142938255507
30
0
41
1
10
72.6450385170921
20
-51.3342571802521
30
0
41
1
10
72.6186014536822
20
-51.3476633553401
30
0
41
1
10
72.5669915738695
20
-51.377862690268
30
0
41
1
10
72.5417468068324
20
-51.3948673259719
30
0
41
1
10
72.4947759946218
20
-51.4313252455907
30
0
41
1
10
72.4728442645648
20
-51.4508593328587
30
0
41
1
10
72.4358683720711
20
-51.4894572372742
30
0
41
1
10
72.4201729953715
20
-51.5083051135992
30
0
41
1
10
72.3956032865061
20
-51.543754988884
30
0
41
1
10
72.3859234505507
20
-51.5601175209729
30
0
41
1
10
72.371856524687
20
-51.5900704205287
30
0
41
1
10
72.3667321186895
20
-51.6035155053014
30
0
41
1
10
72.3571515612477
20
-51.6388422114226
30
0
41
1
10
72.3546885619332
20
-51.6617508469848
30
0
41
1
10
72.3590190864442
20
-51.6890854914763
30
0
41
1
10
72.3601963457868
20
-51.6943269981823
30
0
41
1
10
72.3617426275912
20
-51.6994769775261
30
0
0
SPLINE
5
2B8
100
AcDbEntity
8
1
62
256
6
ByLayer
370
-1
48
1
60
0
100
AcDbSpline
70
4
71
3
72
8
73
4
40
0
40
0
40
0
40
0
40
1
40
1
40
1
40
1
41
1
10
73.0435129664604
20
-51.3242897768838
30
0
41
1
10
73.037839457015
20
-51.3196935592874
30
0
41
1
10
73.0321659316832
20
-51.3150973183284
30
0
41
1
10
73.026492389811
20
-51.3105010530438
30
0
0
SPLINE
5
2B9
100
AcDbEntity
8
1
62
256
6
ByLayer
370
-1
48
1
60
0
100
AcDbSpline
70
4
71
3
72
8
73
4
40
0
40
0
40
0
40
0
40
1
40
1
40
1
40
1
41
1
10
70.9325177603312
20
-51.3105010530437
30
0
41
1
10
70.9281798535502
20
-51.3150973183283
30
0
41
1
10
70.9238419865268
20
-51.3196935592873
30
0
41
1
10
70.9195041576863
20
-51.3242897768838
30
0
0
SPLINE
5
2BA
100
AcDbEntity
8
1
62
256
6
ByLayer
370
-1
48
1
60
0
100
AcDbSpline
70
4
71
3
72
24
73
20
40
0
40
0
40
0
40
0
40
0.0380198325519795
40
0.0380198325519795
40
0.246834654675051
40
0.246834654675051
40
0.40472650566349
40
0.40472650566349
40
0.526150637963012
40
0.526150637963012
40
0.621531995503818
40
0.621531995503818
40
0.776890538332207
40
0.776890538332207
40
0.873684213898074
40
0.873684213898074
40
0.971746172255073
40
0.971746172255073
40
1
40
1
40
1
40
1
41
1
10
73.4272424572606
20
-51.087104921511
30
0
41
1
10
73.4241050094217
20
-51.0925933475554
30
0
41
1
10
73.4208996833861
20
-51.0980443801089
30
0
41
1
10
73.3996872621883
20
-51.1331250952161
30
0
41
1
10
73.3797067654505
20
-51.16169903108
30
0
41
1
10
73.341149096992
20
-51.2089459094281
30
0
41
1
10
73.3233433012992
20
-51.2284194172071
30
0
41
1
10
73.2896537426901
20
-51.2604970587728
30
0
41
1
10
73.2742195449558
20
-51.2737000566655
30
0
41
1
10
73.2452275189097
20
-51.2952567655825
30
0
41
1
10
73.2319278103502
20
-51.3040776133905
30
0
41
1
10
73.1957942972532
20
-51.3245700304358
30
0
41
1
10
73.1716567443323
20
-51.3349199362765
30
0
41
1
10
73.1312894113873
20
-51.3437061365573
30
0
41
1
10
73.1151827135024
20
-51.3451434442929
30
0
41
1
10
73.0839868549872
20
-51.3424867242843
30
0
41
1
10
73.068491353575
20
-51.3381901647658
30
0
41
1
10
73.0510049354891
20
-51.3290927967417
30
0
41
1
10
73.0471745671654
20
-51.3267937521708
30
0
41
1
10
73.0435129664604
20
-51.3242897768838
30
0
0
SPLINE
5
2BB
100
AcDbEntity
8
1
62
256
6
ByLayer
370
-1
48
1
60
0
100
AcDbSpline
70
4
71
3
72
8
73
4
40
0
40
0
40
0
40
0
40
1
40
1
40
1
40
1
41
1
10
72.3617426275912
20
-51.6994769775261
30
0
41
1
10
72.3637642613809
20
-51.7062101436466
30
0
41
1
10
72.3657858991663
20
-51.7129432734248
30
0
41
1
10
72.3678075407883
20
-51.7196763682996
30
0
0
SPLINE
5
2BC
100
AcDbEntity
8
1
62
256
6
ByLayer
370
-1
48
1
60
0
100
AcDbSpline
70
4
71
2
72
6
73
3
40
0
40
0
40
0
40
1
40
1
40
1
41
0.973497289157276
10
75.0992171856672
20
-45.5612538504855
30
0
41
1.01271682324433
10
75.020726229252
20
-45.5335063060324
30
0
41
1.08358774580744
10
74.93753506345
20
-45.5335063060325
30
0
0
SPLINE
5
2BD
100
AcDbEntity
8
1
62
256
6
ByLayer
370
-1
48
1
60
0
100
AcDbSpline
70
4
71
3
72
12
73
8
40
0
40
0
40
0
40
0
40
0.404644073901334
40
0.404644073901334
40
0.809285947755712
40
0.809285947755712
40
1
40
1
40
1
40
1
41
1
10
75.4425144647728
20
-45.6978645394535
30
0
41
1
10
75.4976182222348
20
-45.6978645394535
30
0
41
1
10
75.5534608589994
20
-45.7075248735899
30
0
41
1
10
75.6573747171119
20
-45.7445649671647
30
0
41
1
10
75.7068788744032
20
-45.7724552873753
30
0
41
1
10
75.7703025794825
20
-45.8240615267005
30
0
41
1
10
75.7895136724505
20
-45.8424469176893
30
0
41
1
10
75.8070987419892
20
-45.8622102138994
30
0
0
SPLINE
5
2BE
100
AcDbEntity
8
1
62
256
6
ByLayer
370
-1
48
1
60
0
100
AcDbSpline
70
4
71
1
72
5
73
3
40
0
40
0
40
0.876693945208319
40
1
40
1
41
1.08358774580744
10
69.6399599060747
20
-42.4504846475705
30
0
41
1.08358774580744
10
70.0869670723334
20
-42.5793787094254
30
0
41
1.08358774580744
10
70.1498381465962
20
-42.5975075197591
30
0
0
SPLINE
5
2BF
100
AcDbEntity
8
1
62
256
6
ByLayer
370
-1
48
1
60
0
100
AcDbSpline
70
4
71
3
72
12
73
8
40
0
40
0
40
0
40
0
40
0.316693507174319
40
0.316693507174319
40
0.687480535904663
40
0.687480535904663
40
1
40
1
40
1
40
1
41
1
10
72.3464089132658
20
-42.6712495168904
30
0
41
1
10
72.4337792557281
20
-42.7074665617044
30
0
41
1
10
72.5166993808111
20
-42.7568621152805
30
0
41
1
10
72.67595537672
20
-42.8864502169803
30
0
41
1
10
72.7511160267014
20
-42.9723890700379
30
0
41
1
10
72.8583855321022
20
-43.1472173656668
30
0
41
1
10
72.8965439180509
20
-43.2353786740502
30
0
41
1
10
72.9216786819617
20
-43.3264677298322
30
0
0
SPLINE
5
2C0
100
AcDbEntity
8
1
62
256
6
ByLayer
370
-1
48
1
60
0
100
AcDbSpline
70
4
71
3
72
8
73
4
40
0
40
0
40
0
40
0
40
1
40
1
40
1
40
1
41
1
10
75.9165621441296
20
-46.1923018958012
30
0
41
1
10
75.91653400399
20
-46.1919747761005
30
0
41
1
10
75.9165056899938
20
-46.1916473005457
30
0
41
1
10
75.9164772003871
20
-46.1913194745343
30
0
0
SPLINE
5
2C1
100
AcDbEntity
8
1
62
256
6
ByLayer
370
-1
48
1
60
0
100
AcDbSpline
70
4
71
3
72
10
73
6
40
0
40
0
40
0
40
0
40
0.722254617258795
40
0.722254617258795
40
1
40
1
40
1
40
1
41
1
10
75.8635435102828
20
-45.9657378881457
30
0
41
1
10
75.8884063789831
20
-46.0156432816089
30
0
41
1
10
75.9051159784585
20
-46.070614672832
30
0
41
1
10
75.9150818075644
20
-46.1476972177824
30
0
41
1
10
75.9164836775811
20
-46.1695301695047
30
0
41
1
10
75.9164772003872
20
-46.1913194745332
30
0
0
SPLINE
5
2C2
100
AcDbEntity
8
1
62
256
6
ByLayer
370
-1
48
1
60
0
100
AcDbSpline
70
4
71
3
72
10
73
6
40
0
40
0
40
0
40
0
40
0.638091248905428
40
0.638091248905428
40
1
40
1
40
1
40
1
41
1
10
75.8635435102828
20
-45.9657378881457
30
0
41
1
10
75.8516436134286
20
-45.9376862033025
30
0
41
1
10
75.8385230507516
20
-45.9128979150585
30
0
41
1
10
75.8195319522368
20
-45.8811215777802
30
0
41
1
10
75.8128761144277
20
-45.8708728456194
30
0
41
1
10
75.8070987419872
20
-45.8622102138975
30
0
0
SPLINE
5
2C3
100
AcDbEntity
8
1
62
256
6
ByLayer
370
-1
48
1
60
0
100
AcDbSpline
70
4
71
3
72
8
73
4
40
0
40
0
40
0
40
0
40
1
40
1
40
1
40
1
41
1
10
65.0411082194781
20
-55.1103880975367
30
0
41
1
10
65.0412782285175
20
-55.1146638051898
30
0
41
1
10
65.0414482362695
20
-55.1189396040164
30
0
41
1
10
65.0416182427947
20
-55.1232154897166
30
0
0
SPLINE
5
2C4
100
AcDbEntity
8
1
62
256
6
ByLayer
370
-1
48
1
60
0
100
AcDbSpline
70
4
71
3
72
24
73
20
40
0
40
0
40
0
40
0
40
0.10400044820163
40
0.10400044820163
40
0.192499055460728
40
0.192499055460728
40
0.328500518746284
40
0.328500518746284
40
0.438682575664912
40
0.438682575664912
40
0.548533158171305
40
0.548533158171305
40
0.658237202769341
40
0.658237202769341
40
0.767870673660411
40
0.767870673660411
40
0.988088331633718
40
0.988088331633718
40
1
40
1
40
1
40
1
41
1
10
63.8847830405932
20
-55.0950339171853
30
0
41
1
10
63.8734497131015
20
-55.1024859964983
30
0
41
1
10
63.8605293876714
20
-55.1097294420784
30
0
41
1
10
63.8362987761296
20
-55.1213755919426
30
0
41
1
10
63.8247633264344
20
-55.1261925668403
30
0
41
1
10
63.7965850358824
20
-55.1366293336794
30
0
41
1
10
63.7800146773991
20
-55.1415325829682
30
0
41
1
10
63.7523686898428
20
-55.1484545393402
30
0
41
1
10
63.7406172117463
20
-55.1509013246499
30
0
41
1
10
63.7185867877582
20
-55.1548280829102
30
0
41
1
10
63.7082338619796
20
-55.1563214431691
30
0
41
1
10
63.6888012134646
20
-55.158614192965
30
0
41
1
10
63.6796856035899
20
-55.1594170975943
30
0
41
1
10
63.6625981288814
20
-55.1604905736417
30
0
41
1
10
63.6546057678012
20
-55.1607618896849
30
0
41
1
10
63.6321954797778
20
-55.1609221009619
30
0
41
1
10
63.6192989718579
20
-55.1601661802223
30
0
41
1
10
63.6079050689038
20
-55.1586220520159
30
0
41
1
10
63.6073250252245
20
-55.1585404678503
30
0
41
1
10
63.6067510976149
20
-55.1584567386353
30
0
0
SPLINE
5
2C5
100
AcDbEntity
8
1
62
256
6
ByLayer
370
-1
48
1
60
0
100
AcDbSpline
70
4
71
3
72
22
73
18
40
0
40
0
40
0
40
0
40
0.208266363441976
40
0.208266363441976
40
0.317899168104742
40
0.317899168104742
40
0.427584739861155
40
0.427584739861155
40
0.537377253732384
40
0.537377253732384
40
0.647402228730406
40
0.647402228730406
40
0.811583680502006
40
0.811583680502006
40
0.906636022131328
40
0.906636022131328
40
1
40
1
40
1
40
1
41
1
10
66.0113672652093
20
-55.1797217140915
30
0
41
1
10
65.9925658070686
20
-55.1809269439977
30
0
41
1
10
65.9722070800126
20
-55.181466996889
30
0
41
1
10
65.9390524413375
20
-55.1811066752537
30
0
41
1
10
65.9271994659395
20
-55.1807634482698
30
0
41
1
10
65.9027327981071
20
-55.1795548824517
30
0
41
1
10
65.8900917530602
20
-55.1786887231108
30
0
41
1
10
65.8640557317258
20
-55.1762935517075
30
0
41
1
10
65.8506177442127
20
-55.1747613784751
30
0
41
1
10
65.8230314535035
20
-55.1708064956736
30
0
41
1
10
65.8088047430051
20
-55.1683729220764
30
0
41
1
10
65.7729894878536
20
-55.1608099232123
30
0
41
1
10
65.7504878652665
20
-55.1548007825734
30
0
41
1
10
65.7166835954216
20
-55.1420496618735
30
0
41
1
10
65.7043867649416
20
-55.1365314992932
30
0
41
1
10
65.6825535912254
20
-55.1244092812101
30
0
41
1
10
65.6727262711981
20
-55.11766565882
30
0
41
1
10
65.6647819102547
20
-55.1107751538912
30
0
0
SPLINE
5
2C6
100
AcDbEntity
8
1
62
256
6
ByLayer
370
-1
48
1
60
0
100
AcDbSpline
70
4
71
3
72
8
73
4
40
0
40
0
40
0
40
0
40
1
40
1
40
1
40
1
41
1
10
63.9021890413588
20
-55.0827171124155
30
0
41
1
10
63.8963869954568
20
-55.0868226229282
30
0
41
1
10
63.8905849959292
20
-55.0909282259728
30
0
41
1
10
63.8847830405932
20
-55.0950339171853
30
0
0
SPLINE
5
2C7
100
AcDbEntity
8
1
62
256
6
ByLayer
370
-1
48
1
60
0
100
AcDbSpline
70
4
71
3
72
14
73
10
40
0
40
0
40
0
40
0
40
0.447435525516279
40
0.447435525516279
40
0.682968574431478
40
0.682968574431478
40
0.918614987175032
40
0.918614987175032
40
1
40
1
40
1
40
1
41
1
10
63.6067510976149
20
-55.1584567386353
30
0
41
1
10
63.596743424779
20
-55.156996738146
30
0
41
1
10
63.5885503335675
20
-55.1548935209115
30
0
41
1
10
63.5792360860619
20
-55.1505984512388
30
0
41
1
10
63.5765982491242
20
-55.1489120724332
30
0
41
1
10
63.5726421476455
20
-55.1450677085934
30
0
41
1
10
63.5713190787124
20
-55.1429059212662
30
0
41
1
10
63.5705889600479
20
-55.1396021779146
30
0
41
1
10
63.5704942448363
20
-55.1387184496387
30
0
41
1
10
63.5705000376546
20
-55.1377953090788
30
0
0
SPLINE
5
2C8
100
AcDbEntity
8
1
62
256
6
ByLayer
370
-1
48
1
60
0
100
AcDbSpline
70
4
71
3
72
22
73
18
40
0
40
0
40
0
40
0
40
0.208266363444162
40
0.208266363444162
40
0.317899168106766
40
0.317899168106766
40
0.427584739862991
40
0.427584739862991
40
0.537377253733997
40
0.537377253733997
40
0.647402228731835
40
0.647402228731835
40
0.811583680502669
40
0.811583680502669
40
0.906636022131692
40
0.906636022131692
40
1
40
1
40
1
40
1
41
1
10
64.6867271429154
20
-55.2061657589432
30
0
41
1
10
64.6579180119383
20
-55.2059109883601
30
0
41
1
10
64.6293665273307
20
-55.2049500541826
30
0
41
1
10
64.5868987339974
20
-55.2022671667209
30
0
41
1
10
64.5724084075428
20
-55.2011145381151
30
0
41
1
10
64.5439868674499
20
-55.1982802500448
30
0
41
1
10
64.5300234979001
20
-55.1965959410275
30
0
41
1
10
64.5029034929879
20
-55.1925652535527
30
0
41
1
10
64.4897018329226
20
-55.19021300531
30
0
41
1
10
64.4645290560435
20
-55.1846329407165
30
0
41
1
10
64.4524882506707
20
-55.1813896973315
30
0
41
1
10
64.4252056256154
20
-55.171880010045
30
0
41
1
10
64.41074419329
20
-55.1647288581884
30
0
41
1
10
64.3957549363348
20
-55.1504658322833
30
0
41
1
10
64.3918810732147
20
-55.1444454403916
30
0
41
1
10
64.3889394894073
20
-55.1315505761759
30
0
41
1
10
64.3897883810577
20
-55.124524903383
30
0
41
1
10
64.3928469455207
20
-55.1174781475605
30
0
0
SPLINE
5
2C9
100
AcDbEntity
8
1
62
256
6
ByLayer
370
-1
48
1
60
0
100
AcDbSpline
70
4
71
3
72
20
73
16
40
0
40
0
40
0
40
0
40
0.0608157493553706
40
0.0608157493553706
40
0.214920488748897
40
0.214920488748897
40
0.368561615651092
40
0.368561615651092
40
0.521997789162392
40
0.521997789162392
40
0.67533525565169
40
0.67533525565169
40
0.983339895798302
40
0.983339895798302
40
1
40
1
40
1
40
1
41
1
10
66.1307707374736
20
-55.1356307988589
30
0
41
1
10
66.1307948577693
20
-55.1375504571402
30
0
41
1
10
66.1305584624968
20
-55.1393624786428
30
0
41
1
10
66.1289233776751
20
-55.1454300920902
30
0
41
1
10
66.1262974349636
20
-55.149199818523
30
0
41
1
10
66.1190247421948
20
-55.1558249285552
30
0
41
1
10
66.1143587396239
20
-55.1587022804711
30
0
41
1
10
66.1035090884216
20
-55.1637870630685
30
0
41
1
10
66.0973057454345
20
-55.1660031331506
30
0
41
1
10
66.083682228876
20
-55.1699109429617
30
0
41
1
10
66.076245323384
20
-55.171606863307
30
0
41
1
10
66.052355509977
20
-55.1760436996916
30
0
41
1
10
66.0342843119327
20
-55.1781504193826
30
0
41
1
10
66.0135187700675
20
-55.1795812327782
30
0
41
1
10
66.012445505486
20
-55.179652595653
30
0
41
1
10
66.0113672652093
20
-55.1797217140915
30
0
0
SPLINE
5
2CA
100
AcDbEntity
8
1
62
256
6
ByLayer
370
-1
48
1
60
0
100
AcDbSpline
70
4
71
3
72
8
73
4
40
0
40
0
40
0
40
0
40
1
40
1
40
1
40
1
41
1
10
65.664781910254
20
-55.1107751538889
30
0
41
1
10
65.6605370700663
20
-55.1065806148748
30
0
41
1
10
65.6562921976616
20
-55.1023861633529
30
0
41
1
10
65.6520472914486
20
-55.0981918036537
30
0
0
SPLINE
5
2CB
100
AcDbEntity
8
1
62
256
6
ByLayer
370
-1
48
1
60
0
100
AcDbSpline
70
4
71
3
72
8
73
4
40
0
40
0
40
0
40
0
40
1
40
1
40
1
40
1
41
1
10
64.3928469455209
20
-55.1174781475582
30
0
41
1
10
64.3953266983432
20
-55.113225694732
30
0
41
1
10
64.3978064700908
20
-55.1089733289576
30
0
41
1
10
64.4002862616986
20
-55.1047210545436
30
0
0
SPLINE
5
2CC
100
AcDbEntity
8
1
62
256
6
ByLayer
370
-1
48
1
60
0
100
AcDbSpline
70
4
71
3
72
10
73
6
40
0
40
0
40
0
40
0
40
0.680481829738705
40
0.680481829738705
40
1
40
1
40
1
40
1
41
1
10
65.6520472914486
20
-55.0981918036537
30
0
41
1
10
65.6442784168393
20
-55.0905154374554
30
0
41
1
10
65.6345041355884
20
-55.0829318482636
30
0
41
1
10
65.6187685319043
20
-55.0725375658323
30
0
41
1
10
65.6135153316297
20
-55.0693075429848
30
0
41
1
10
65.6080739999718
20
-55.0661672369442
30
0
0
SPLINE
5
2CD
100
AcDbEntity
8
1
62
256
6
ByLayer
370
-1
48
1
60
0
100
AcDbSpline
70
4
71
3
72
12
73
8
40
0
40
0
40
0
40
0
40
0.190335113103396
40
0.190335113103396
40
0.838836721110255
40
0.838836721110255
40
1
40
1
40
1
40
1
41
1
10
65.072269350668
20
-55.0579279032476
30
0
41
1
10
65.0687177040147
20
-55.0608329036708
30
0
41
1
10
65.0653819844153
20
-55.0638304822825
30
0
41
1
10
65.0519278072578
20
-55.0773060220056
30
0
41
1
10
65.0442143202499
20
-55.0889995690328
30
0
41
1
10
65.0412450941315
20
-55.104173506056
30
0
41
1
10
65.040984591322
20
-55.1072788637257
30
0
41
1
10
65.0411082194781
20
-55.1103880975367
30
0
0
SPLINE
5
2CE
100
AcDbEntity
8
1
62
256
6
ByLayer
370
-1
48
1
60
0
100
AcDbSpline
70
4
71
3
72
10
73
6
40
0
40
0
40
0
40
0
40
0.87085674608939
40
0.87085674608939
40
1
40
1
40
1
40
1
41
1
10
64.4002862616985
20
-55.1047210545436
30
0
41
1
10
64.4048246870702
20
-55.0969386949182
30
0
41
1
10
64.4071134010671
20
-55.089118267485
30
0
41
1
10
64.4077002102767
20
-55.0806209551341
30
0
41
1
10
64.407738204101
20
-55.0795343947085
30
0
41
1
10
64.4077401955879
20
-55.0784543244785
30
0
0
SPLINE
5
2CF
100
AcDbEntity
8
1
62
256
6
ByLayer
370
-1
48
1
60
0
100
AcDbSpline
70
4
71
3
72
24
73
20
40
0
40
0
40
0
40
0
40
0.104000448201797
40
0.104000448201797
40
0.192499055461053
40
0.192499055461053
40
0.328500518746929
40
0.328500518746929
40
0.438682575665721
40
0.438682575665721
40
0.548533158172358
40
0.548533158172358
40
0.658237202770611
40
0.658237202770611
40
0.767870673661901
40
0.767870673661901
40
0.988088331635615
40
0.988088331635615
40
1
40
1
40
1
40
1
41
1
10
65.0416182427946
20
-55.1232154897166
30
0
41
1
10
65.0406686049153
20
-55.1310401655997
30
0
41
1
10
65.0367612130606
20
-55.1387968571111
30
0
41
1
10
65.0248618088457
20
-55.1515487298774
30
0
41
1
10
65.0174710130287
20
-55.1569461623202
30
0
41
1
10
64.9959995697811
20
-55.1689078923069
30
0
41
1
10
64.9801780515085
20
-55.1748079839478
30
0
41
1
10
64.9499128383371
20
-55.1835142559985
30
0
41
1
10
64.9355337754439
20
-55.1867669335158
30
0
41
1
10
64.9062278659303
20
-55.1922780968706
30
0
41
1
10
64.8912077775963
20
-55.1945551285772
30
0
41
1
10
64.8609235119751
20
-55.1983843599604
30
0
41
1
10
64.8456037499737
20
-55.1999429014585
30
0
41
1
10
64.8148914130269
20
-55.2024953415813
30
0
41
1
10
64.7994616085879
20
-55.203491771047
30
0
41
1
10
64.7531602281516
20
-55.2057803141323
30
0
41
1
10
64.7221921086028
20
-55.2063846255572
30
0
41
1
10
64.690032620183
20
-55.2061926147267
30
0
41
1
10
64.6883793108013
20
-55.2061803697197
30
0
41
1
10
64.6867271429154
20
-55.2061657589432
30
0
0
LINE
5
49
100
AcDbEntity
8
80
62
256
6
ByLayer
370
-1
48
1
60
0
100
AcDbLine
10
0
20
0
30
0
11
-5
21
0
31
0
39
0
210
0
220
0
230
1
0
LINE
5
4A
100
AcDbEntity
8
4
62
256
6
ByLayer
370
-1
48
0.05
60
0
100
AcDbLine
10
0
20
0
30
0
11
80
21
0
31
0
39
0
210
0
220
0
230
1
0
LINE
5
4C
100
AcDbEntity
8
81
62
256
6
ByLayer
370
-1
48
1
60
0
100
AcDbLine
10
80
20
-55
30
0
11
85
21
-55
31
0
39
0
210
0
220
0
230
1
0
LINE
5
4D
100
AcDbEntity
8
SK4
62
256
6
ByLayer
370
-1
48
0.05
60
0
100
AcDbLine
10
-53
20
0
30
0
11
85
21
0
31
0
39
0
210
0
220
0
230
1
0
LINE
5
4F
100
AcDbEntity
8
1
62
256
6
ByLayer
370
-1
48
1
60
0
100
AcDbLine
10
72.25778
20
-47.536228
30
0
11
72.042729
21
-47.51494
31
0
39
0
210
0
220
0
230
1
0
LINE
5
51
100
AcDbEntity
8
1
62
256
6
ByLayer
370
-1
48
1
60
0
100
AcDbLine
10
71.505843
20
-52.938431
30
0
11
71.720895
21
-52.959719
31
0
39
0
210
0
220
0
230
1
0
LINE
5
52
100
AcDbEntity
8
1
62
256
6
ByLayer
370
-1
48
1
60
0
100
AcDbLine
10
70.775609
20
-49.194557
30
0
11
71.022762
21
-49.219023
31
0
39
0
210
0
220
0
230
1
0
LINE
5
53
100
AcDbEntity
8
1
62
256
6
ByLayer
370
-1
48
1
60
0
100
AcDbLine
10
71.076826
20
-51.273854
30
0
11
70.834167
21
-51.249833
31
0
39
0
210
0
220
0
230
1
0
LINE
5
54
100
AcDbEntity
8
1
62
256
6
ByLayer
370
-1
48
1
60
0
100
AcDbLine
10
72.618912
20
-49.194085
30
0
11
72.861924
21
-49.218141
31
0
39
0
210
0
220
0
230
1
0
LINE
5
55
100
AcDbEntity
8
1
62
256
6
ByLayer
370
-1
48
1
60
0
100
AcDbLine
10
72.924522
20
-51.273817
30
0
11
72.677471
21
-51.249361
31
0
39
0
210
0
220
0
230
1
0
LINE
5
56
100
AcDbEntity
8
1
62
256
6
ByLayer
370
-1
48
1
60
0
100
AcDbLine
10
21.700039
20
-7.028101
30
0
11
21.892296
21
-6.93845
31
0
39
0
210
0
220
0
230
1
0
LINE
5
57
100
AcDbEntity
8
1
62
256
6
ByLayer
370
-1
48
1
60
0
100
AcDbLine
10
23.49979
20
-2.521895
30
0
11
23.410139
21
-2.329638
31
0
39
0
210
0
220
0
230
1
0
LINE
5
58
100
AcDbEntity
8
1
62
256
6
ByLayer
370
-1
48
1
60
0
100
AcDbLine
10
23.410139
20
-2.329638
30
0
11
18.852656
21
-0.67085
31
0
39
0
210
0
220
0
230
1
0
LINE
5
59
100
AcDbEntity
8
1
62
256
6
ByLayer
370
-1
48
1
60
0
100
AcDbLine
10
18.524968
20
-5.87247
30
0
11
21.700039
21
-7.028101
31
0
39
0
210
0
220
0
230
1
0
LINE
5
5A
100
AcDbEntity
8
1
62
256
6
ByLayer
370
-1
48
1
60
0
100
AcDbLine
10
64.676418
20
-54.29632
30
0
11
65.365147
21
-54.358838
31
0
39
0
210
0
220
0
230
1
0
LINE
5
5B
100
AcDbEntity
8
1
62
256
6
ByLayer
370
-1
48
1
60
0
100
AcDbLine
10
68.285793
20
-54.931405
30
0
11
69.041069
21
-54.999963
31
0
39
0
210
0
220
0
230
1
0
LINE
5
5C
100
AcDbEntity
8
1
62
256
6
ByLayer
370
-1
48
1
60
0
100
AcDbLine
10
66.443572
20
-54.493336
30
0
11
67.110049
21
-54.553834
31
0
39
0
210
0
220
0
230
1
0
LINE
5
5D
100
AcDbEntity
8
1
62
256
6
ByLayer
370
-1
48
1
60
0
100
AcDbLine
10
71.850392
20
-42.344696
30
0
11
71.162208
21
-42.282228
31
0
39
0
210
0
220
0
230
1
0
LINE
5
5E
100
AcDbEntity
8
1
62
256
6
ByLayer
370
-1
48
1
60
0
100
AcDbLine
10
71.26355
20
-43.503878
30
0
11
70.597428
21
-43.443412
31
0
39
0
210
0
220
0
230
1
0
LINE
5
5F
100
AcDbEntity
8
1
62
256
6
ByLayer
370
-1
48
1
60
0
100
AcDbLine
10
0.3
20
-40
30
0
11
30.920792
21
-40
31
0
39
0
210
0
220
0
230
1
0
LINE
5
60
100
AcDbEntity
8
1
62
256
6
ByLayer
370
-1
48
1
60
0
100
AcDbLine
10
30.013558
20
40
30
0
11
0.3
21
40
31
0
39
0
210
0
220
0
230
1
0
LINE
5
61
100
AcDbEntity
8
1
62
256
6
ByLayer
370
-1
48
1
60
0
100
AcDbLine
10
0.3
20
40
30
0
11
0
21
39.7
31
0
39
0
210
0
220
0
230
1
0
LINE
5
62
100
AcDbEntity
8
1
62
256
6
ByLayer
370
-1
48
1
60
0
100
AcDbLine
10
0
20
-39.7
30
0
11
0.3
21
-40
31
0
39
0
210
0
220
0
230
1
0
LINE
5
63
100
AcDbEntity
8
1
62
256
6
ByLayer
370
-1
48
1
60
0
100
AcDbLine
10
30.920792
20
-40
30
0
11
34.754867
21
-54.308963
31
0
39
0
210
0
220
0
230
1
0
LINE
5
64
100
AcDbEntity
8
1
62
256
6
ByLayer
370
-1
48
1
60
0
100
AcDbLine
10
64.40774
20
-55.078682
30
0
11
64.407731
21
-55.062517
31
0
39
0
210
0
220
0
230
1
0
LINE
5
65
100
AcDbEntity
8
1
62
256
6
ByLayer
370
-1
48
1
60
0
100
AcDbLine
10
74.527641
20
-45.209768
30
0
11
75.027159
21
-45.43263
31
0
39
0
210
0
220
0
230
1
0
LINE
5
66
100
AcDbEntity
8
1
62
256
6
ByLayer
370
-1
48
1
60
0
100
AcDbLine
10
76.501054
20
-40.706767
30
0
11
50.526858
21
4.386937
31
0
39
0
210
0
220
0
230
1
0
LINE
5
67
100
AcDbEntity
8
1
62
256
6
ByLayer
370
-1
48
1
60
0
100
AcDbLine
10
10.538675
20
38.115458
30
0
11
13.461325
21
38.115458
31
0
39
0
210
0
220
0
230
1
0
LINE
5
68
100
AcDbEntity
8
1
62
256
6
ByLayer
370
-1
48
1
60
0
100
AcDbLine
10
75.027159
20
-45.43263
30
0
11
73.099467
21
-42.024876
31
0
39
0
210
0
220
0
230
1
0
LINE
5
69
100
AcDbEntity
8
1
62
256
6
ByLayer
370
-1
48
1
60
0
100
AcDbLine
10
63.697086
20
-54.437841
30
0
11
69.866845
21
-43.644908
31
0
39
0
210
0
220
0
230
1
0
LINE
5
6A
100
AcDbEntity
8
1
62
256
6
ByLayer
370
-1
48
1
60
0
100
AcDbLine
10
68.747703
20
-45.797542
30
0
11
69.868602
21
-43.836721
31
0
39
0
210
0
220
0
230
1
0
LINE
5
6B
100
AcDbEntity
8
1
62
256
6
ByLayer
370
-1
48
1
60
0
100
AcDbLine
10
20.65516
20
-38.818178
30
0
11
20.65516
21
-6.647613
31
0
39
0
210
0
220
0
230
1
0
LINE
5
6C
100
AcDbEntity
8
1
62
256
6
ByLayer
370
-1
48
1
60
0
100
AcDbLine
10
20.65516
20
-1.325883
30
0
11
20.65516
21
38.818178
31
0
39
0
210
0
220
0
230
1
0
LINE
5
6D
100
AcDbEntity
8
1
62
256
6
ByLayer
370
-1
48
1
60
0
100
AcDbLine
10
10.538675
20
-12.13309
30
0
11
13.461325
21
-12.13309
31
0
39
0
210
0
220
0
230
1
0
LINE
5
6E
100
AcDbEntity
8
1
62
256
6
ByLayer
370
-1
48
1
60
0
100
AcDbLine
10
0
20
0
30
0
11
0
21
-39.7
31
0
39
0
210
0
220
0
230
1
0
LINE
5
6F
100
AcDbEntity
8
1
62
256
6
ByLayer
370
-1
48
1
60
0
100
AcDbLine
10
0
20
39.7
30
0
11
0
21
0
31
0
39
0
210
0
220
0
230
1
0
LINE
5
70
100
AcDbEntity
8
1
62
256
6
ByLayer
370
-1
48
1
60
0
100
AcDbLine
10
13.461325
20
12.13309
30
0
11
10.538675
21
12.13309
31
0
39
0
210
0
220
0
230
1
0
LINE
5
71
100
AcDbEntity
8
1
62
256
6
ByLayer
370
-1
48
1
60
0
100
AcDbLine
10
18.481188
20
1.612821
30
0
11
18.481188
21
-3.196091
31
0
39
0
210
0
220
0
230
1
0
LINE
5
72
100
AcDbEntity
8
1
62
256
6
ByLayer
370
-1
48
1
60
0
100
AcDbLine
10
13.461325
20
-12.13309
30
0
11
13.461325
21
-38.115458
31
0
39
0
210
0
220
0
230
1
0
LINE
5
73
100
AcDbEntity
8
1
62
256
6
ByLayer
370
-1
48
1
60
0
100
AcDbLine
10
0.3
20
0
30
0
11
0.3
21
-40
31
0
39
0
210
0
220
0
230
1
0
LINE
5
74
100
AcDbEntity
8
1
62
256
6
ByLayer
370
-1
48
1
60
0
100
AcDbLine
10
0.3
20
40
30
0
11
0.3
21
0
31
0
39
0
210
0
220
0
230
1
0
LINE
5
75
100
AcDbEntity
8
1
62
256
6
ByLayer
370
-1
48
1
60
0
100
AcDbLine
10
44.70364
20
-54.437841
30
0
11
63.697086
21
-54.437841
31
0
39
0
210
0
220
0
230
1
0
LINE
5
76
100
AcDbEntity
8
1
62
256
6
ByLayer
370
-1
48
1
60
0
100
AcDbLine
10
34.869913
20
-54.408487
30
0
11
44.70364
21
-54.437841
31
0
39
0
210
0
220
0
230
1
0
LINE
5
77
100
AcDbEntity
8
1
62
256
6
ByLayer
370
-1
48
1
60
0
100
AcDbLine
10
13.461325
20
-38.115458
30
0
11
10.538675
21
-38.115458
31
0
39
0
210
0
220
0
230
1
0
LINE
5
78
100
AcDbEntity
8
1
62
256
6
ByLayer
370
-1
48
1
60
0
100
AcDbLine
10
65.687474
20
-51.246669
30
0
11
68.397145
21
-46.506564
31
0
39
0
210
0
220
0
230
1
0
LINE
5
79
100
AcDbEntity
8
1
62
256
6
ByLayer
370
-1
48
1
60
0
100
AcDbLine
10
13.894338
20
-12.6576
30
0
11
13.894338
21
-37.944501
31
0
39
0
210
0
220
0
230
1
0
LINE
5
7A
100
AcDbEntity
8
1
62
256
6
ByLayer
370
-1
48
1
60
0
100
AcDbLine
10
72.155768
20
-41.271327
30
0
11
73.206462
21
-43.128734
31
0
39
0
210
0
220
0
230
1
0
LINE
5
7B
100
AcDbEntity
8
1
62
256
6
ByLayer
370
-1
48
1
60
0
100
AcDbLine
10
10.538675
20
-12.13309
30
0
11
10.538675
21
-38.115458
31
0
39
0
210
0
220
0
230
1
0
LINE
5
7C
100
AcDbEntity
8
1
62
256
6
ByLayer
370
-1
48
1
60
0
100
AcDbLine
10
19.61854
20
-0.949607
30
0
11
19.61854
21
4.737672
31
0
39
0
210
0
220
0
230
1
0
LINE
5
7D
100
AcDbEntity
8
1
62
256
6
ByLayer
370
-1
48
1
60
0
100
AcDbLine
10
76.486947
20
-45.43263
30
0
11
76.501054
21
-40.706767
31
0
39
0
210
0
220
0
230
1
0
LINE
5
7E
100
AcDbEntity
8
1
62
256
6
ByLayer
370
-1
48
1
60
0
100
AcDbLine
10
50.526858
20
4.386937
30
0
11
44.70364
21
-54.437841
31
0
39
0
210
0
220
0
230
1
0
LINE
5
7F
100
AcDbEntity
8
1
62
256
6
ByLayer
370
-1
48
1
60
0
100
AcDbLine
10
10.105662
20
-12.6576
30
0
11
10.105662
21
-37.944501
31
0
39
0
210
0
220
0
230
1
0
LINE
5
80
100
AcDbEntity
8
1
62
256
6
ByLayer
370
-1
48
1
60
0
100
AcDbLine
10
13.461325
20
38.115458
30
0
11
13.461325
21
12.13309
31
0
39
0
210
0
220
0
230
1
0
LINE
5
81
100
AcDbEntity
8
1
62
256
6
ByLayer
370
-1
48
1
60
0
100
AcDbLine
10
74.639681
20
-45.407781
30
0
11
74.971439
21
-45.407781
31
0
39
0
210
0
220
0
230
1
0
LINE
5
82
100
AcDbEntity
8
1
62
256
6
ByLayer
370
-1
48
1
60
0
100
AcDbLine
10
13.894338
20
37.944501
30
0
11
13.894338
21
12.6576
31
0
39
0
210
0
220
0
230
1
0
LINE
5
83
100
AcDbEntity
8
1
62
256
6
ByLayer
370
-1
48
1
60
0
100
AcDbLine
10
30.920792
20
-40
30
0
11
30.920792
21
-39.54744
31
0
39
0
210
0
220
0
230
1
0
LINE
5
84
100
AcDbEntity
8
1
62
256
6
ByLayer
370
-1
48
1
60
0
100
AcDbLine
10
30.274235
20
39.54744
30
0
11
24.639939
21
39.54744
31
0
39
0
210
0
220
0
230
1
0
LINE
5
85
100
AcDbEntity
8
1
62
256
6
ByLayer
370
-1
48
1
60
0
100
AcDbLine
10
76.486947
20
-45.43263
30
0
11
75.027159
21
-45.43263
31
0
39
0
210
0
220
0
230
1
0
LINE
5
86
100
AcDbEntity
8
1
62
256
6
ByLayer
370
-1
48
1
60
0
100
AcDbLine
10
75.242051
20
-45.607771
30
0
11
75.242574
21
-45.432642
31
0
39
0
210
0
220
0
230
1
0
LINE
5
87
100
AcDbEntity
8
1
62
256
6
ByLayer
370
-1
48
1
60
0
100
AcDbLine
10
30.274235
20
39.54744
30
0
11
50.526858
21
4.386937
31
0
39
0
210
0
220
0
230
1
0
LINE
5
88
100
AcDbEntity
8
1
62
256
6
ByLayer
370
-1
48
1
60
0
100
AcDbLine
10
24.639939
20
-39.54744
30
0
11
30.920792
21
-39.54744
31
0
39
0
210
0
220
0
230
1
0
LINE
5
89
100
AcDbEntity
8
1
62
256
6
ByLayer
370
-1
48
1
60
0
100
AcDbLine
10
69.866845
20
-43.644908
30
0
11
69.868602
21
-43.836721
31
0
39
0
210
0
220
0
230
1
0
LINE
5
8A
100
AcDbEntity
8
1
62
256
6
ByLayer
370
-1
48
1
60
0
100
AcDbLine
10
69.866845
20
-43.644908
30
0
11
69.839825
21
-43.615394
31
0
39
0
210
0
220
0
230
1
0
LINE
5
8B
100
AcDbEntity
8
1
62
256
6
ByLayer
370
-1
48
1
60
0
100
AcDbLine
10
18.481188
20
1.612821
30
0
11
19.61854
21
4.737672
31
0
39
0
210
0
220
0
230
1
0
LINE
5
8C
100
AcDbEntity
8
1
62
256
6
ByLayer
370
-1
48
1
60
0
100
AcDbLine
10
30.274235
20
39.54744
30
0
11
30.013558
21
40
31
0
39
0
210
0
220
0
230
1
0
LINE
5
8D
100
AcDbEntity
8
1
62
256
6
ByLayer
370
-1
48
1
60
0
100
AcDbLine
10
10.538675
20
38.115458
30
0
11
10.538675
21
12.13309
31
0
39
0
210
0
220
0
230
1
0
LINE
5
8E
100
AcDbEntity
8
1
62
256
6
ByLayer
370
-1
48
1
60
0
100
AcDbLine
10
63.697086
20
-54.437841
30
0
11
63.816167
21
-54.424416
31
0
39
0
210
0
220
0
230
1
0
LINE
5
8F
100
AcDbEntity
8
1
62
256
6
ByLayer
370
-1
48
1
60
0
100
AcDbLine
10
10.105662
20
37.944501
30
0
11
10.105662
21
12.6576
31
0
39
0
210
0
220
0
230
1
0
LINE
5
90
100
AcDbEntity
8
1
62
256
6
ByLayer
370
-1
48
1
60
0
100
AcDbLine
10
24.639939
20
-39.54744
30
0
11
24.639939
21
39.54744
31
0
39
0
210
0
220
0
230
1
0
LINE
5
91
100
AcDbEntity
8
1
62
256
6
ByLayer
370
-1
48
1
60
0
100
AcDbLine
10
65.282783
20
-51.858824
30
0
11
63.816167
21
-54.424416
31
0
39
0
210
0
220
0
230
1
0
LINE
5
92
100
AcDbEntity
8
SK1
62
256
6
ByLayer
370
-1
48
1
60
0
100
AcDbLine
10
-0.2
20
28.683485
30
0
11
-0.2
21
6.576573
31
0
39
0
210
0
220
0
230
1
0
LINE
5
94
100
AcDbEntity
8
SK1
62
256
6
ByLayer
370
-1
48
1
60
0
100
AcDbLine
10
-1.307107
20
4.393239
30
0
11
-1.307107
21
-4.393239
31
0
39
0
210
0
220
0
230
1
0
LINE
5
95
100
AcDbEntity
8
SK1
62
256
6
ByLayer
370
-1
48
1
60
0
100
AcDbLine
10
-0.2
20
-6.576573
30
0
11
-0.2
21
-28.683485
31
0
39
0
210
0
220
0
230
1
0
LINE
5
96
100
AcDbEntity
8
1
62
256
6
ByLayer
370
-1
48
1
60
0
100
AcDbLine
10
75.185851
20
-55.000757
30
0
11
77.486423
21
-51.279291
31
0
39
0
210
0
220
0
230
1
0
LINE
5
97
100
AcDbEntity
8
1
62
256
6
ByLayer
370
-1
48
1
60
0
100
AcDbLine
10
68.248112
20
-47.207656
30
0
11
68.839466
21
-47.376237
31
0
39
0
210
0
220
0
230
1
0
LINE
5
98
100
AcDbEntity
8
1
62
256
6
ByLayer
370
-1
48
1
60
0
100
AcDbLine
10
65.256338
20
-54.040403
30
0
11
65.337825
21
-53.991068
31
0
39
0
210
0
220
0
230
1
0
LINE
5
99
100
AcDbEntity
8
1
62
256
6
ByLayer
370
-1
48
1
60
0
100
AcDbLine
10
71.612205
20
-42.554804
30
0
11
70.925934
21
-42.492509
31
0
39
0
210
0
220
0
230
1
0
LINE
5
9A
100
AcDbEntity
8
1
62
256
6
ByLayer
370
-1
48
1
60
0
100
AcDbLine
10
74.042126
20
-44.533271
30
0
11
74.3263
21
-44.875359
31
0
39
0
210
0
220
0
230
1
0
LINE
5
9B
100
AcDbEntity
8
1
62
256
6
ByLayer
370
-1
48
1
60
0
100
AcDbLine
10
71.046121
20
-42.308225
30
0
11
71.024881
21
-42.320656
31
0
39
0
210
0
220
0
230
1
0
LINE
5
9C
100
AcDbEntity
8
1
62
256
6
ByLayer
370
-1
48
1
60
0
100
AcDbLine
10
66.370879
20
-52.065954
30
0
11
67.708762
21
-54.28273
31
0
39
0
210
0
220
0
230
1
0
LINE
5
9D
100
AcDbEntity
8
1
62
256
6
ByLayer
370
-1
48
1
60
0
100
AcDbLine
10
70.547582
20
-43.968857
30
0
11
70.538735
21
-44.216014
31
0
39
0
210
0
220
0
230
1
0
LINE
5
9E
100
AcDbEntity
8
1
62
256
6
ByLayer
370
-1
48
1
60
0
100
AcDbLine
10
65.567564
20
-52.976612
30
0
11
65.589249
21
-53.695633
31
0
39
0
210
0
220
0
230
1
0
LINE
5
9F
100
AcDbEntity
8
1
62
256
6
ByLayer
370
-1
48
1
60
0
100
AcDbLine
10
65.13913
20
-52.486007
30
0
11
64.934849
21
-52.467463
31
0
39
0
210
0
220
0
230
1
0
LINE
5
A0
100
AcDbEntity
8
1
62
256
6
ByLayer
370
-1
48
1
60
0
100
AcDbLine
10
65.516483
20
-54.193141
30
0
11
66.410654
21
-53.658875
31
0
39
0
210
0
220
0
230
1
0
LINE
5
A1
100
AcDbEntity
8
1
62
256
6
ByLayer
370
-1
48
1
60
0
100
AcDbLine
10
73.018458
20
-44.220156
30
0
11
73.855938
21
-44.249852
31
0
39
0
210
0
220
0
230
1
0
LINE
5
A2
100
AcDbEntity
8
1
62
256
6
ByLayer
370
-1
48
1
60
0
100
AcDbLine
10
75.606593
20
-54.990932
30
0
11
76.142805
21
-54.123542
31
0
39
0
210
0
220
0
230
1
0
LINE
5
A3
100
AcDbEntity
8
1
62
256
6
ByLayer
370
-1
48
1
60
0
100
AcDbLine
10
71.183142
20
-54.998505
30
0
11
71.078955
21
-55.000188
31
0
39
0
210
0
220
0
230
1
0
LINE
5
A4
100
AcDbEntity
8
1
62
256
6
ByLayer
370
-1
48
1
60
0
100
AcDbLine
10
67.652587
20
-48.284031
30
0
11
68.561579
21
-48.350727
31
0
39
0
210
0
220
0
230
1
0
LINE
5
A5
100
AcDbEntity
8
1
62
256
6
ByLayer
370
-1
48
1
60
0
100
AcDbLine
10
70.507993
20
-44.571735
30
0
11
69.813848
21
-44.508726
31
0
39
0
210
0
220
0
230
1
0
LINE
5
A6
100
AcDbEntity
8
1
62
256
6
ByLayer
370
-1
48
1
60
0
100
AcDbLine
10
72.12142
20
-54.125401
30
0
11
72.537062
21
-55.000757
31
0
39
0
210
0
220
0
230
1
0
LINE
5
A7
100
AcDbEntity
8
1
62
256
6
ByLayer
370
-1
48
1
60
0
100
AcDbLine
10
66.185462
20
-53.339396
30
0
11
65.975245
21
-52.973223
31
0
39
0
210
0
220
0
230
1
0
LINE
5
A8
100
AcDbEntity
8
1
62
256
6
ByLayer
370
-1
48
1
60
0
100
AcDbLine
10
76.400576
20
-54.266941
30
0
11
76.398601
21
-54.988541
31
0
39
0
210
0
220
0
230
1
0
LINE
5
A9
100
AcDbEntity
8
1
62
256
6
ByLayer
370
-1
48
1
60
0
100
AcDbLine
10
76.257091
20
-48.330297
30
0
11
75.411774
21
-49.197568
31
0
39
0
210
0
220
0
230
1
0
LINE
5
AA
100
AcDbEntity
8
1
62
256
6
ByLayer
370
-1
48
1
60
0
100
AcDbLine
10
67.758672
20
-54.298863
30
0
11
67.630288
21
-54.287209
31
0
39
0
210
0
220
0
230
1
0
LINE
5
AB
100
AcDbEntity
8
1
62
256
6
ByLayer
370
-1
48
1
60
0
100
AcDbLine
10
65.223815
20
-52.96205
30
0
11
65.256338
21
-54.040403
31
0
39
0
210
0
220
0
230
1
0
LINE
5
AC
100
AcDbEntity
8
1
62
256
6
ByLayer
370
-1
48
1
60
0
100
AcDbLine
10
69.037045
20
-45.291374
30
0
11
69.352774
21
-45.320033
31
0
39
0
210
0
220
0
230
1
0
LINE
5
AD
100
AcDbEntity
8
1
62
256
6
ByLayer
370
-1
48
1
60
0
100
AcDbLine
10
77.347037
20
-54.45022
30
0
11
77.487078
21
-54.688466
31
0
39
0
210
0
220
0
230
1
0
LINE
5
AE
100
AcDbEntity
8
1
62
256
6
ByLayer
370
-1
48
1
60
0
100
AcDbLine
10
66.419898
20
-54.100021
30
0
11
65.940817
21
-54.056534
31
0
39
0
210
0
220
0
230
1
0
LINE
5
AF
100
AcDbEntity
8
1
62
256
6
ByLayer
370
-1
48
1
60
0
100
AcDbLine
10
70.925934
20
-42.492509
30
0
11
70.918146
21
-43.330734
31
0
39
0
210
0
220
0
230
1
0
LINE
5
B0
100
AcDbEntity
8
1
62
256
6
ByLayer
370
-1
48
1
60
0
100
AcDbLine
10
73.035443
20
-44.497576
30
0
11
70.533073
21
-44.542351
31
0
39
0
210
0
220
0
230
1
0
LINE
5
B1
100
AcDbEntity
8
1
62
256
6
ByLayer
370
-1
48
1
60
0
100
AcDbLine
10
65.900408
20
-51.162868
30
0
11
66.186406
21
-50.838116
31
0
39
0
210
0
220
0
230
1
0
LINE
5
B2
100
AcDbEntity
8
1
62
256
6
ByLayer
370
-1
48
1
60
0
100
AcDbLine
10
69.882702
20
-43.908504
30
0
11
69.878163
21
-44.397021
31
0
39
0
210
0
220
0
230
1
0
LINE
5
B3
100
AcDbEntity
8
1
62
256
6
ByLayer
370
-1
48
1
60
0
100
AcDbLine
10
66.299679
20
-53.917238
30
0
11
66.193764
21
-53.907624
31
0
39
0
210
0
220
0
230
1
0
LINE
5
B4
100
AcDbEntity
8
1
62
256
6
ByLayer
370
-1
48
1
60
0
100
AcDbLine
10
72.992072
20
-44.172116
30
0
11
73.608566
21
-43.811316
31
0
39
0
210
0
220
0
230
1
0
LINE
5
B5
100
AcDbEntity
8
1
62
256
6
ByLayer
370
-1
48
1
60
0
100
AcDbLine
10
71.612205
20
-42.554804
30
0
11
71.582276
21
-43.391019
31
0
39
0
210
0
220
0
230
1
0
LINE
5
B6
100
AcDbEntity
8
1
62
256
6
ByLayer
370
-1
48
1
60
0
100
AcDbLine
10
77.209704
20
-54.963299
30
0
11
78.575961
21
-54.179563
31
0
39
0
210
0
220
0
230
1
0
LINE
5
B7
100
AcDbEntity
8
1
62
256
6
ByLayer
370
-1
48
1
60
0
100
AcDbLine
10
76.345009
20
-54.266864
30
0
11
75.898923
21
-54.988464
31
0
39
0
210
0
220
0
230
1
0
LINE
5
B8
100
AcDbEntity
8
1
62
256
6
ByLayer
370
-1
48
1
60
0
100
AcDbLine
10
77.490893
20
-53.294817
30
0
11
77.349558
21
-53.529185
31
0
39
0
210
0
220
0
230
1
0
LINE
5
B9
100
AcDbEntity
8
1
62
256
6
ByLayer
370
-1
48
1
60
0
100
AcDbLine
10
71.515993
20
-43.502545
30
0
11
71.466623
21
-43.531439
31
0
39
0
210
0
220
0
230
1
0
LINE
5
BA
100
AcDbEntity
8
1
62
256
6
ByLayer
370
-1
48
1
60
0
100
AcDbLine
10
66.216935
20
-52.835013
30
0
11
66.427152
21
-53.201186
31
0
39
0
210
0
220
0
230
1
0
LINE
5
BB
100
AcDbEntity
8
1
62
256
6
ByLayer
370
-1
48
1
60
0
100
AcDbLine
10
77.487078
20
-54.688466
30
0
11
78.431066
21
-54.146959
31
0
39
0
210
0
220
0
230
1
0
LINE
5
BC
100
AcDbEntity
8
1
62
256
6
ByLayer
370
-1
48
1
60
0
100
AcDbLine
10
68.560656
20
-48.448668
30
0
11
67.605172
21
-48.37856
31
0
39
0
210
0
220
0
230
1
0
LINE
5
BD
100
AcDbEntity
8
1
62
256
6
ByLayer
370
-1
48
1
60
0
100
AcDbLine
10
72.423929
20
-55.000188
30
0
11
72.204455
21
-54.997802
31
0
39
0
210
0
220
0
230
1
0
LINE
5
BE
100
AcDbEntity
8
1
62
256
6
ByLayer
370
-1
48
1
60
0
100
AcDbLine
10
68.29292
20
-54.582192
30
0
11
68.960194
21
-54.973966
31
0
39
0
210
0
220
0
230
1
0
LINE
5
BF
100
AcDbEntity
8
1
62
256
6
ByLayer
370
-1
48
1
60
0
100
AcDbLine
10
78.431066
20
-54.146959
30
0
11
78.335935
21
-54.091155
31
0
39
0
210
0
220
0
230
1
0
LINE
5
C0
100
AcDbEntity
8
1
62
256
6
ByLayer
370
-1
48
1
60
0
100
AcDbLine
10
71.466623
20
-43.531439
30
0
11
71.308728
21
-43.517106
31
0
39
0
210
0
220
0
230
1
0
LINE
5
C1
100
AcDbEntity
8
1
62
256
6
ByLayer
370
-1
48
1
60
0
100
AcDbLine
10
77.778818
20
-53.271407
30
0
11
77.778977
21
-53.213619
31
0
39
0
210
0
220
0
230
1
0
LINE
5
C2
100
AcDbEntity
8
1
62
256
6
ByLayer
370
-1
48
1
60
0
100
AcDbLine
10
66.484738
20
-54.20048
30
0
11
65.817892
21
-54.139949
31
0
39
0
210
0
220
0
230
1
0
LINE
5
C3
100
AcDbEntity
8
1
62
256
6
ByLayer
370
-1
48
1
60
0
100
AcDbLine
10
77.871891
20
-52.185852
30
0
11
77.655177
21
-52.059955
31
0
39
0
210
0
220
0
230
1
0
LINE
5
C4
100
AcDbEntity
8
1
62
256
6
ByLayer
370
-1
48
1
60
0
100
AcDbLine
10
71.582276
20
-43.391019
30
0
11
70.918146
21
-43.330734
31
0
39
0
210
0
220
0
230
1
0
LINE
5
C5
100
AcDbEntity
8
1
62
256
6
ByLayer
370
-1
48
1
60
0
100
AcDbLine
10
76.343034
20
-54.988464
30
0
11
76.345009
21
-54.266864
31
0
39
0
210
0
220
0
230
1
0
LINE
5
C6
100
AcDbEntity
8
1
62
256
6
ByLayer
370
-1
48
1
60
0
100
AcDbLine
10
65.115566
20
-52.587606
30
0
11
65.162637
21
-54.148333
31
0
39
0
210
0
220
0
230
1
0
LINE
5
C7
100
AcDbEntity
8
1
62
256
6
ByLayer
370
-1
48
1
60
0
100
AcDbLine
10
66.410654
20
-53.658875
30
0
11
66.248009
21
-53.433858
31
0
39
0
210
0
220
0
230
1
0
LINE
5
C8
100
AcDbEntity
8
1
62
256
6
ByLayer
370
-1
48
1
60
0
100
AcDbLine
10
78.431902
20
-53.841483
30
0
11
77.490893
21
-53.294817
31
0
39
0
210
0
220
0
230
1
0
LINE
5
C9
100
AcDbEntity
8
1
62
256
6
ByLayer
370
-1
48
1
60
0
100
AcDbLine
10
66.484738
20
-54.20048
30
0
11
67.05785
21
-54.536969
31
0
39
0
210
0
220
0
230
1
0
LINE
5
CA
100
AcDbEntity
8
1
62
256
6
ByLayer
370
-1
48
1
60
0
100
AcDbLine
10
70.521971
20
-43.460311
30
0
11
69.947018
21
-43.796799
31
0
39
0
210
0
220
0
230
1
0
LINE
5
CB
100
AcDbEntity
8
1
62
256
6
ByLayer
370
-1
48
1
60
0
100
AcDbLine
10
77.655177
20
-52.059955
30
0
11
76.400576
21
-54.266941
31
0
39
0
210
0
220
0
230
1
0
LINE
5
CC
100
AcDbEntity
8
1
62
256
6
ByLayer
370
-1
48
1
60
0
100
AcDbLine
10
72.010748
20
-43.715769
30
0
11
72.418414
21
-43.717976
31
0
39
0
210
0
220
0
230
1
0
LINE
5
CD
100
AcDbEntity
8
1
62
256
6
ByLayer
370
-1
48
1
60
0
100
AcDbLine
10
65.337825
20
-53.991068
30
0
11
65.485336
21
-53.692361
31
0
39
0
210
0
220
0
230
1
0
LINE
5
CE
100
AcDbEntity
8
1
62
256
6
ByLayer
370
-1
48
1
60
0
100
AcDbLine
10
71.104542
20
-53.768913
30
0
11
71.705252
21
-53.616953
31
0
39
0
210
0
220
0
230
1
0
LINE
5
CF
100
AcDbEntity
8
1
62
256
6
ByLayer
370
-1
48
1
60
0
100
AcDbLine
10
65.162637
20
-54.148333
30
0
11
64.476365
21
-54.086039
31
0
39
0
210
0
220
0
230
1
0
LINE
5
D0
100
AcDbEntity
8
1
62
256
6
ByLayer
370
-1
48
1
60
0
100
AcDbLine
10
71.351001
20
-43.53722
30
0
11
71.30444
21
-43.515061
31
0
39
0
210
0
220
0
230
1
0
LINE
5
D1
100
AcDbEntity
8
1
62
256
6
ByLayer
370
-1
48
1
60
0
100
AcDbLine
10
75.191754
20
-48.142477
30
0
11
75.731595
21
-47.337229
31
0
39
0
210
0
220
0
230
1
0
LINE
5
D2
100
AcDbEntity
8
1
62
256
6
ByLayer
370
-1
48
1
60
0
100
AcDbLine
10
71.932426
20
-43.004386
30
0
11
71.78654
21
-42.709678
31
0
39
0
210
0
220
0
230
1
0
LINE
5
D3
100
AcDbEntity
8
1
62
256
6
ByLayer
370
-1
48
1
60
0
100
AcDbLine
10
66.413732
20
-54.046591
30
0
11
66.419898
21
-54.100021
31
0
39
0
210
0
220
0
230
1
0
LINE
5
D4
100
AcDbEntity
8
1
62
256
6
ByLayer
370
-1
48
1
60
0
100
AcDbLine
10
65.13913
20
-52.486007
30
0
11
65.462908
21
-51.88004
31
0
39
0
210
0
220
0
230
1
0
LINE
5
D5
100
AcDbEntity
8
1
62
256
6
ByLayer
370
-1
48
1
60
0
100
AcDbLine
10
77.106918
20
-54.990479
30
0
11
76.398601
21
-54.988541
31
0
39
0
210
0
220
0
230
1
0
LINE
5
D6
100
AcDbEntity
8
1
62
256
6
ByLayer
370
-1
48
1
60
0
100
AcDbLine
10
71.714178
20
-42.383226
30
0
11
71.024881
21
-42.320656
31
0
39
0
210
0
220
0
230
1
0
LINE
5
D7
100
AcDbEntity
8
1
62
256
6
ByLayer
370
-1
48
1
60
0
100
AcDbLine
10
69.37562
20
-47.731937
30
0
11
69.203438
21
-48.335741
31
0
39
0
210
0
220
0
230
1
0
LINE
5
D8
100
AcDbEntity
8
1
62
256
6
ByLayer
370
-1
48
1
60
0
100
AcDbLine
10
75.606593
20
-54.990932
30
0
11
75.322881
21
-54.9996
31
0
39
0
210
0
220
0
230
1
0
LINE
5
D9
100
AcDbEntity
8
1
62
256
6
ByLayer
370
-1
48
1
60
0
100
AcDbLine
10
72.871559
20
-43.493723
30
0
11
72.65934
21
-43.858714
31
0
39
0
210
0
220
0
230
1
0
LINE
5
DA
100
AcDbEntity
8
1
62
256
6
ByLayer
370
-1
48
1
60
0
100
AcDbLine
10
72.85756
20
-43.03831
30
0
11
71.966299
21
-42.509202
31
0
39
0
210
0
220
0
230
1
0
LINE
5
DB
100
AcDbEntity
8
1
62
256
6
ByLayer
370
-1
48
1
60
0
100
AcDbLine
10
71.735419
20
-42.370795
30
0
11
71.714178
21
-42.383226
31
0
39
0
210
0
220
0
230
1
0
LINE
5
DC
100
AcDbEntity
8
1
62
256
6
ByLayer
370
-1
48
1
60
0
100
AcDbLine
10
65.263669
20
-54.320461
30
0
11
65.284842
21
-54.332892
31
0
39
0
210
0
220
0
230
1
0
LINE
5
DD
100
AcDbEntity
8
1
62
256
6
ByLayer
370
-1
48
1
60
0
100
AcDbLine
10
70.989007
20
-55.000757
30
0
11
70.96919
21
-54.416878
31
0
39
0
210
0
220
0
230
1
0
LINE
5
DE
100
AcDbEntity
8
1
62
256
6
ByLayer
370
-1
48
1
60
0
100
AcDbLine
10
67.810988
20
-47.938709
30
0
11
68.206014
21
-48.051321
31
0
39
0
210
0
220
0
230
1
0
LINE
5
DF
100
AcDbEntity
8
1
62
256
6
ByLayer
370
-1
48
1
60
0
100
AcDbLine
10
76.857493
20
-53.859716
30
0
11
77.074478
21
-53.497523
31
0
39
0
210
0
220
0
230
1
0
LINE
5
E0
100
AcDbEntity
8
1
62
256
6
ByLayer
370
-1
48
1
60
0
100
AcDbLine
10
77.423772
20
-51.829301
30
0
11
77.47301
21
-51.521495
31
0
39
0
210
0
220
0
230
1
0
LINE
5
E1
100
AcDbEntity
8
1
62
256
6
ByLayer
370
-1
48
1
60
0
100
AcDbLine
10
66.348891
20
-53.946132
30
0
11
66.155033
21
-53.928535
31
0
39
0
210
0
220
0
230
1
0
LINE
5
E2
100
AcDbEntity
8
1
62
256
6
ByLayer
370
-1
48
1
60
0
100
AcDbLine
10
70.538735
20
-44.216014
30
0
11
72.992072
21
-44.172116
31
0
39
0
210
0
220
0
230
1
0
LINE
5
E3
100
AcDbEntity
8
1
62
256
6
ByLayer
370
-1
48
1
60
0
100
AcDbLine
10
77.290871
20
-54.352024
30
0
11
77.920301
21
-53.990959
31
0
39
0
210
0
220
0
230
1
0
LINE
5
E4
100
AcDbEntity
8
1
62
256
6
ByLayer
370
-1
48
1
60
0
100
AcDbLine
10
65.589249
20
-53.695633
30
0
11
66.185462
21
-53.339396
31
0
39
0
210
0
220
0
230
1
0
LINE
5
E5
100
AcDbEntity
8
1
62
256
6
ByLayer
370
-1
48
1
60
0
100
AcDbLine
10
65.504286
20
-54.088801
30
0
11
65.516483
21
-54.193141
31
0
39
0
210
0
220
0
230
1
0
LINE
5
E6
100
AcDbEntity
8
1
62
256
6
ByLayer
370
-1
48
1
60
0
100
AcDbLine
10
67.389095
20
-54.414179
30
0
11
66.077427
21
-52.24084
31
0
39
0
210
0
220
0
230
1
0
LINE
5
E7
100
AcDbEntity
8
1
62
256
6
ByLayer
370
-1
48
1
60
0
100
AcDbLine
10
66.274403
20
-50.707577
30
0
11
67.605172
21
-48.37856
31
0
39
0
210
0
220
0
230
1
0
LINE
5
E8
100
AcDbEntity
8
1
62
256
6
ByLayer
370
-1
48
1
60
0
100
AcDbLine
10
78.33647
20
-53.895689
30
0
11
78.431902
21
-53.841483
31
0
39
0
210
0
220
0
230
1
0
LINE
5
E9
100
AcDbEntity
8
1
62
256
6
ByLayer
370
-1
48
1
60
0
100
AcDbLine
10
75.778496
20
-47.430619
30
0
11
75.264922
21
-48.196687
31
0
39
0
210
0
220
0
230
1
0
LINE
5
EA
100
AcDbEntity
8
1
62
256
6
ByLayer
370
-1
48
1
60
0
100
AcDbLine
10
77.934986
20
-52.971143
30
0
11
77.936828
21
-52.298165
31
0
39
0
210
0
220
0
230
1
0
LINE
5
EB
100
AcDbEntity
8
1
62
256
6
ByLayer
370
-1
48
1
60
0
100
AcDbLine
10
64.574371
20
-54.257891
30
0
11
64.595544
21
-54.270322
31
0
39
0
210
0
220
0
230
1
0
LINE
5
EC
100
AcDbEntity
8
1
62
256
6
ByLayer
370
-1
48
1
60
0
100
AcDbLine
10
70.289653
20
-44.732226
30
0
11
74.3263
21
-44.875359
31
0
39
0
210
0
220
0
230
1
0
LINE
5
ED
100
AcDbEntity
8
1
62
256
6
ByLayer
370
-1
48
1
60
0
100
AcDbLine
10
71.059015
20
-54.412676
30
0
11
71.078955
21
-55.000188
31
0
39
0
210
0
220
0
230
1
0
LINE
5
EE
100
AcDbEntity
8
1
62
256
6
ByLayer
370
-1
48
1
60
0
100
AcDbLine
10
76.501897
20
-48.698396
30
0
11
76.01372
21
-49.009166
31
0
39
0
210
0
220
0
230
1
0
LINE
5
EF
100
AcDbEntity
8
1
62
256
6
ByLayer
370
-1
48
1
60
0
100
AcDbLine
10
75.935024
20
-47.769225
30
0
11
76.257091
21
-48.330297
31
0
39
0
210
0
220
0
230
1
0
LINE
5
F0
100
AcDbEntity
8
1
62
256
6
ByLayer
370
-1
48
1
60
0
100
AcDbLine
10
77.071779
20
-54.483484
30
0
11
76.85678
21
-54.120109
31
0
39
0
210
0
220
0
230
1
0
LINE
5
F1
100
AcDbEntity
8
1
62
256
6
ByLayer
370
-1
48
1
60
0
100
AcDbLine
10
65.712682
20
-51.44135
30
0
11
65.489557
21
-51.831846
31
0
39
0
210
0
220
0
230
1
0
LINE
5
F2
100
AcDbEntity
8
1
62
256
6
ByLayer
370
-1
48
1
60
0
100
AcDbLine
10
77.976466
20
-54.089156
30
0
11
77.347037
21
-54.45022
31
0
39
0
210
0
220
0
230
1
0
LINE
5
F3
100
AcDbEntity
8
1
62
256
6
ByLayer
370
-1
48
1
60
0
100
AcDbLine
10
72.099421
20
-42.906653
30
0
11
72.693694
21
-43.25945
31
0
39
0
210
0
220
0
230
1
0
LINE
5
F4
100
AcDbEntity
8
1
62
256
6
ByLayer
370
-1
48
1
60
0
100
AcDbLine
10
70.507993
20
-44.571735
30
0
11
70.289653
21
-44.732226
31
0
39
0
210
0
220
0
230
1
0
LINE
5
F5
100
AcDbEntity
8
1
62
256
6
ByLayer
370
-1
48
1
60
0
100
AcDbLine
10
71.99802
20
-54.99683
30
0
11
71.915102
21
-54.605494
31
0
39
0
210
0
220
0
230
1
0
LINE
5
F6
100
AcDbEntity
8
1
62
256
6
ByLayer
370
-1
48
1
60
0
100
AcDbLine
10
75.956531
20
-48.925926
30
0
11
76.447746
21
-48.613223
31
0
39
0
210
0
220
0
230
1
0
LINE
5
F7
100
AcDbEntity
8
1
62
256
6
ByLayer
370
-1
48
1
60
0
100
AcDbLine
10
70.613864
20
-43.857331
30
0
11
69.947018
21
-43.796799
31
0
39
0
210
0
220
0
230
1
0
LINE
5
F8
100
AcDbEntity
8
1
62
256
6
ByLayer
370
-1
48
1
60
0
100
AcDbLine
10
67.810988
20
-47.938709
30
0
11
68.136123
21
-47.378508
31
0
39
0
210
0
220
0
230
1
0
LINE
5
F9
100
AcDbEntity
8
1
62
256
6
ByLayer
370
-1
48
1
60
0
100
AcDbLine
10
75.185851
20
-55.000757
30
0
11
72.537062
21
-55.000757
31
0
39
0
210
0
220
0
230
1
0
LINE
5
FA
100
AcDbEntity
8
1
62
256
6
ByLayer
370
-1
48
1
60
0
100
AcDbLine
10
77.486423
20
-51.279291
30
0
11
77.488568
21
-50.495743
31
0
39
0
210
0
220
0
230
1
0
LINE
5
FB
100
AcDbEntity
8
1
62
256
6
ByLayer
370
-1
48
1
60
0
100
AcDbLine
10
77.075873
20
-53.988648
30
0
11
77.290871
21
-54.352024
31
0
39
0
210
0
220
0
230
1
0
LINE
5
FC
100
AcDbEntity
8
1
62
256
6
ByLayer
370
-1
48
1
60
0
100
AcDbLine
10
75.898923
20
-54.988464
30
0
11
76.343034
21
-54.988464
31
0
39
0
210
0
220
0
230
1
0
LINE
5
FD
100
AcDbEntity
8
1
62
256
6
ByLayer
370
-1
48
1
60
0
100
AcDbLine
10
72.423929
20
-55.000188
30
0
11
72.028511
21
-54.167425
31
0
39
0
210
0
220
0
230
1
0
LINE
5
FE
100
AcDbEntity
8
1
62
256
6
ByLayer
370
-1
48
1
60
0
100
AcDbLine
10
71.78654
20
-42.709678
30
0
11
71.705318
21
-42.66194
31
0
39
0
210
0
220
0
230
1
0
LINE
5
FF
100
AcDbEntity
8
1
62
256
6
ByLayer
370
-1
48
1
60
0
100
AcDbLine
10
70.853831
20
-43.442438
30
0
11
70.817962
21
-43.463431
31
0
39
0
210
0
220
0
230
1
0
LINE
5
100
100
AcDbEntity
8
1
62
256
6
ByLayer
370
-1
48
1
60
0
100
AcDbLine
10
67.378776
20
-54.420358
30
0
11
68.204918
21
-54.905407
31
0
39
0
210
0
220
0
230
1
0
LINE
5
101
100
AcDbEntity
8
1
62
256
6
ByLayer
370
-1
48
1
60
0
100
AcDbLine
10
66.104076
20
-52.192646
30
0
11
65.712682
21
-51.44135
31
0
39
0
210
0
220
0
230
1
0
LINE
5
102
100
AcDbEntity
8
1
62
256
6
ByLayer
370
-1
48
1
60
0
100
AcDbLine
10
68.206014
20
-48.051321
30
0
11
69.178404
21
-48.328527
31
0
39
0
210
0
220
0
230
1
0
LINE
5
103
100
AcDbEntity
8
1
62
256
6
ByLayer
370
-1
48
1
60
0
100
AcDbLine
10
70.094486
20
-44.855063
30
0
11
69.425067
21
-45.246837
31
0
39
0
210
0
220
0
230
1
0
LINE
5
104
100
AcDbEntity
8
1
62
256
6
ByLayer
370
-1
48
1
60
0
100
AcDbLine
10
76.501897
20
-48.698396
30
0
11
77.462454
21
-50.395756
31
0
39
0
210
0
220
0
230
1
0
LINE
5
105
100
AcDbEntity
8
1
62
256
6
ByLayer
370
-1
48
1
60
0
100
AcDbLine
10
72.03636
20
-43.000188
30
0
11
72.010748
21
-43.715769
31
0
39
0
210
0
220
0
230
1
0
LINE
5
106
100
AcDbEntity
8
1
62
256
6
ByLayer
370
-1
48
1
60
0
100
AcDbLine
10
71.183142
20
-54.998505
30
0
11
71.059015
21
-54.412676
31
0
39
0
210
0
220
0
230
1
0
LINE
5
107
100
AcDbEntity
8
1
62
256
6
ByLayer
370
-1
48
1
60
0
100
AcDbLine
10
78.335935
20
-54.091155
30
0
11
77.976466
21
-54.089156
31
0
39
0
210
0
220
0
230
1
0
LINE
5
108
100
AcDbEntity
8
1
62
256
6
ByLayer
370
-1
48
1
60
0
100
AcDbLine
10
71.915102
20
-54.605494
30
0
11
71.710993
21
-53.642187
31
0
39
0
210
0
220
0
230
1
0
LINE
5
109
100
AcDbEntity
8
1
62
256
6
ByLayer
370
-1
48
1
60
0
100
AcDbLine
10
76.142805
20
-54.123542
30
0
11
77.42248
21
-51.872447
31
0
39
0
210
0
220
0
230
1
0
LINE
5
10A
100
AcDbEntity
8
1
62
256
6
ByLayer
370
-1
48
1
60
0
100
AcDbLine
10
65.900408
20
-51.162868
30
0
11
66.370879
21
-52.065954
31
0
39
0
210
0
220
0
230
1
0
LINE
5
10B
100
AcDbEntity
8
1
62
256
6
ByLayer
370
-1
48
1
60
0
100
AcDbLine
10
70.989007
20
-55.000757
30
0
11
69.058602
21
-55.000757
31
0
39
0
210
0
220
0
230
1
0
LINE
5
10C
100
AcDbEntity
8
1
62
256
6
ByLayer
370
-1
48
1
60
0
100
AcDbLine
10
77.47301
20
-51.521495
30
0
11
75.322881
21
-54.9996
31
0
39
0
210
0
220
0
230
1
0
LINE
5
10D
100
AcDbEntity
8
1
62
256
6
ByLayer
370
-1
48
1
60
0
100
AcDbLine
10
66.413732
20
-54.046591
30
0
11
66.017629
21
-54.010636
31
0
39
0
210
0
220
0
230
1
0
LINE
5
10E
100
AcDbEntity
8
1
62
256
6
ByLayer
370
-1
48
1
60
0
100
AcDbLine
10
67.723371
20
-48.111774
30
0
11
68.561579
21
-48.350727
31
0
39
0
210
0
220
0
230
1
0
LINE
5
10F
100
AcDbEntity
8
1
62
256
6
ByLayer
370
-1
48
1
60
0
100
AcDbLine
10
71.365205
20
-54.997265
30
0
11
71.110283
21
-53.794147
31
0
39
0
210
0
220
0
230
1
0
LINE
5
110
100
AcDbEntity
8
1
62
256
6
ByLayer
370
-1
48
1
60
0
100
AcDbLine
10
69.178404
20
-48.328527
30
0
11
69.350586
21
-47.724723
31
0
39
0
210
0
220
0
230
1
0
LINE
5
111
100
AcDbEntity
8
1
62
256
6
ByLayer
370
-1
48
1
60
0
100
AcDbLine
10
72.436875
20
-43.98891
30
0
11
72.029209
21
-43.986703
31
0
39
0
210
0
220
0
230
1
0
LINE
5
112
100
AcDbEntity
8
1
62
256
6
ByLayer
370
-1
48
1
60
0
100
AcDbLine
10
72.630632
20
-43.352985
30
0
11
72.03636
21
-43.000188
31
0
39
0
210
0
220
0
230
1
0
LINE
5
113
100
AcDbEntity
8
1
62
256
6
ByLayer
370
-1
48
1
60
0
100
AcDbLine
10
75.778496
20
-47.430619
30
0
11
75.84835
21
-47.598106
31
0
39
0
210
0
220
0
230
1
0
LINE
5
114
100
AcDbEntity
8
1
62
256
6
ByLayer
370
-1
48
1
60
0
100
AcDbLine
10
67.183167
20
-54.53722
30
0
11
67.389095
21
-54.414179
31
0
39
0
210
0
220
0
230
1
0
LINE
5
115
100
AcDbEntity
8
1
62
256
6
ByLayer
370
-1
48
1
60
0
100
AcDbLine
10
73.288095
20
-43.209226
30
0
11
73.608566
21
-43.811316
31
0
39
0
210
0
220
0
230
1
0
LINE
5
116
100
AcDbEntity
8
1
62
256
6
ByLayer
370
-1
48
1
60
0
100
AcDbLine
10
65.477638
20
-54.333279
30
0
11
66.174361
21
-53.916987
31
0
39
0
210
0
220
0
230
1
0
LINE
5
117
100
AcDbEntity
8
1
62
256
6
ByLayer
370
-1
48
1
60
0
100
AcDbLine
10
77.834779
20
-53.107835
30
0
11
77.879183
21
-53.076927
31
0
39
0
210
0
220
0
230
1
0
LINE
5
118
100
AcDbEntity
8
1
62
256
6
ByLayer
370
-1
48
1
60
0
100
AcDbLine
10
65.463651
20
-52.97334
30
0
11
65.223815
21
-52.96205
31
0
39
0
210
0
220
0
230
1
0
LINE
5
119
100
AcDbEntity
8
1
62
256
6
ByLayer
370
-1
48
1
60
0
100
AcDbLine
10
68.248112
20
-47.207656
30
0
11
68.328311
21
-47.101428
31
0
39
0
210
0
220
0
230
1
0
LINE
5
11A
100
AcDbEntity
8
1
62
256
6
ByLayer
370
-1
48
1
60
0
100
AcDbLine
10
76.368138
20
-48.503629
30
0
11
75.956531
21
-48.925926
31
0
39
0
210
0
220
0
230
1
0
LINE
5
11B
100
AcDbEntity
8
1
62
256
6
ByLayer
370
-1
48
1
60
0
100
AcDbLine
10
66.274403
20
-50.707577
30
0
11
68.29292
21
-54.582192
31
0
39
0
210
0
220
0
230
1
0
LINE
5
11C
100
AcDbEntity
8
1
62
256
6
ByLayer
370
-1
48
1
60
0
100
AcDbLine
10
66.077427
20
-52.24084
30
0
11
65.462908
21
-51.88004
31
0
39
0
210
0
220
0
230
1
0
LINE
5
11D
100
AcDbEntity
8
1
62
256
6
ByLayer
370
-1
48
1
60
0
100
AcDbLine
10
72.418414
20
-43.717976
30
0
11
72.630632
21
-43.352985
31
0
39
0
210
0
220
0
230
1
0
LINE
5
11E
100
AcDbEntity
8
1
62
256
6
ByLayer
370
-1
48
1
60
0
100
AcDbLine
10
75.393668
20
-49.215696
30
0
11
74.96514
21
-48.763852
31
0
39
0
210
0
220
0
230
1
0
LINE
5
11F
100
AcDbEntity
8
1
62
256
6
ByLayer
370
-1
48
1
60
0
100
AcDbLine
10
67.05785
20
-54.536969
30
0
11
66.391004
21
-54.476437
31
0
39
0
210
0
220
0
230
1
0
LINE
5
120
100
AcDbEntity
8
1
62
256
6
ByLayer
370
-1
48
1
60
0
100
AcDbLine
10
74.413576
20
-45.008212
30
0
11
70.094486
21
-44.855063
31
0
39
0
210
0
220
0
230
1
0
LINE
5
121
100
AcDbEntity
8
1
62
256
6
ByLayer
370
-1
48
1
60
0
100
AcDbLine
10
72.204455
20
-54.997802
30
0
11
72.028511
21
-54.167425
31
0
39
0
210
0
220
0
230
1
0
LINE
5
122
100
AcDbEntity
8
1
62
256
6
ByLayer
370
-1
48
1
60
0
100
AcDbLine
10
73.218163
20
-43.13565
30
0
11
71.928219
21
-42.369859
31
0
39
0
210
0
220
0
230
1
0
LINE
5
123
100
AcDbEntity
8
1
62
256
6
ByLayer
370
-1
48
1
60
0
100
AcDbLine
10
71.99802
20
-54.99683
30
0
11
71.365205
21
-54.997265
31
0
39
0
210
0
220
0
230
1
0
LINE
5
124
100
AcDbEntity
8
1
62
256
6
ByLayer
370
-1
48
1
60
0
100
AcDbLine
10
64.878476
20
-52.566085
30
0
11
65.115566
21
-52.587606
31
0
39
0
210
0
220
0
230
1
0
LINE
5
125
100
AcDbEntity
8
1
62
256
6
ByLayer
370
-1
48
1
60
0
100
AcDbLine
10
71.188818
20
-43.520842
30
0
11
70.521971
21
-43.460311
31
0
39
0
210
0
220
0
230
1
0
LINE
5
126
100
AcDbEntity
8
1
62
256
6
ByLayer
370
-1
48
1
60
0
100
AcDbLine
10
78.676807
20
-54.007323
30
0
11
78.676875
21
-53.982461
31
0
39
0
210
0
220
0
230
1
0
LINE
5
127
100
AcDbEntity
8
1
62
256
6
ByLayer
370
-1
48
1
60
0
100
AcDbLine
10
76.368138
20
-48.503629
30
0
11
76.447746
21
-48.613223
31
0
39
0
210
0
220
0
230
1
0
LINE
5
128
100
AcDbEntity
8
1
62
256
6
ByLayer
370
-1
48
1
60
0
100
AcDbLine
10
68.382926
20
-47.017393
30
0
11
69.352774
21
-45.320033
31
0
39
0
210
0
220
0
230
1
0
LINE
5
129
100
AcDbEntity
8
1
62
256
6
ByLayer
370
-1
48
1
60
0
100
AcDbLine
10
71.966299
20
-42.509202
30
0
11
71.953535
21
-42.611945
31
0
39
0
210
0
220
0
230
1
0
LINE
5
12A
100
AcDbEntity
8
1
62
256
6
ByLayer
370
-1
48
1
60
0
100
AcDbLine
10
69.813848
20
-44.508726
30
0
11
69.318829
21
-44.798433
31
0
39
0
210
0
220
0
230
1
0
LINE
5
12B
100
AcDbEntity
8
1
62
256
6
ByLayer
370
-1
48
1
60
0
100
AcDbLine
10
65.809826
20
-54.134795
30
0
11
65.817892
21
-54.139949
31
0
39
0
210
0
220
0
230
1
0
LINE
5
12C
100
AcDbEntity
8
1
62
256
6
ByLayer
370
-1
48
1
60
0
100
AcDbLine
10
75.84835
20
-47.598106
30
0
11
75.264922
21
-48.196687
31
0
39
0
210
0
220
0
230
1
0
LINE
5
12D
100
AcDbEntity
8
1
62
256
6
ByLayer
370
-1
48
1
60
0
100
AcDbLine
10
77.977001
20
-53.893689
30
0
11
78.33647
21
-53.895689
31
0
39
0
210
0
220
0
230
1
0
LINE
5
12E
100
AcDbEntity
8
1
62
256
6
ByLayer
370
-1
48
1
60
0
100
AcDbLine
10
67.758672
20
-54.298863
30
0
11
68.072925
21
-54.459354
31
0
39
0
210
0
220
0
230
1
0
LINE
5
12F
100
AcDbEntity
8
1
62
256
6
ByLayer
370
-1
48
1
60
0
100
AcDbLine
10
66.248009
20
-53.433858
30
0
11
65.651796
21
-53.790095
31
0
39
0
210
0
220
0
230
1
0
LINE
5
130
100
AcDbEntity
8
1
62
256
6
ByLayer
370
-1
48
1
60
0
100
AcDbLine
10
69.425067
20
-45.246837
30
0
11
69.08039
21
-45.21555
31
0
39
0
210
0
220
0
230
1
0
LINE
5
131
100
AcDbEntity
8
1
62
256
6
ByLayer
370
-1
48
1
60
0
100
AcDbLine
10
71.515993
20
-43.502545
30
0
11
70.853831
21
-43.442438
31
0
39
0
210
0
220
0
230
1
0
LINE
5
132
100
AcDbEntity
8
1
62
256
6
ByLayer
370
-1
48
1
60
0
100
AcDbLine
10
74.983246
20
-48.745724
30
0
11
75.411774
21
-49.197568
31
0
39
0
210
0
220
0
230
1
0
LINE
5
133
100
AcDbEntity
8
1
62
256
6
ByLayer
370
-1
48
1
60
0
100
AcDbLine
10
65.587502
20
-52.708205
30
0
11
65.995183
21
-52.704816
31
0
39
0
210
0
220
0
230
1
0
LINE
5
134
100
AcDbEntity
8
1
62
256
6
ByLayer
370
-1
48
1
60
0
100
AcDbLine
10
73.634952
20
-43.859356
30
0
11
73.018458
21
-44.220156
31
0
39
0
210
0
220
0
230
1
0
LINE
5
135
100
AcDbEntity
8
1
62
256
6
ByLayer
370
-1
48
1
60
0
100
AcDbLine
10
77.349558
20
-53.529185
30
0
11
77.977001
21
-53.893689
31
0
39
0
210
0
220
0
230
1
0
LINE
5
136
100
AcDbEntity
8
1
62
256
6
ByLayer
370
-1
48
1
60
0
100
AcDbLine
10
65.651796
20
-53.790095
30
0
11
65.504286
21
-54.088801
31
0
39
0
210
0
220
0
230
1
0
LINE
5
137
100
AcDbEntity
8
1
62
256
6
ByLayer
370
-1
48
1
60
0
100
AcDbLine
10
68.136123
20
-47.378508
30
0
11
69.350586
21
-47.724723
31
0
39
0
210
0
220
0
230
1
0
LINE
5
138
100
AcDbEntity
8
1
62
256
6
ByLayer
370
-1
48
1
60
0
100
AcDbLine
10
67.652587
20
-48.284031
30
0
11
67.723371
21
-48.111774
31
0
39
0
210
0
220
0
230
1
0
LINE
5
139
100
AcDbEntity
8
1
62
256
6
ByLayer
370
-1
48
1
60
0
100
AcDbLine
10
71.906814
20
-43.719967
30
0
11
71.932426
21
-43.004386
31
0
39
0
210
0
220
0
230
1
0
LINE
5
13A
100
AcDbEntity
8
1
62
256
6
ByLayer
370
-1
48
1
60
0
100
AcDbLine
10
65.489557
20
-51.831846
30
0
11
66.104076
21
-52.192646
31
0
39
0
210
0
220
0
230
1
0
LINE
5
13B
100
AcDbEntity
8
1
62
256
6
ByLayer
370
-1
48
1
60
0
100
AcDbLine
10
71.710993
20
-53.642187
30
0
11
71.110283
21
-53.794147
31
0
39
0
210
0
220
0
230
1
0
LINE
5
13C
100
AcDbEntity
8
1
62
256
6
ByLayer
370
-1
48
1
60
0
100
AcDbLine
10
77.292857
20
-53.626455
30
0
11
77.075873
21
-53.988648
31
0
39
0
210
0
220
0
230
1
0
LINE
5
13D
100
AcDbEntity
8
1
62
256
6
ByLayer
370
-1
48
1
60
0
100
AcDbLine
10
68.382926
20
-47.017393
30
0
11
68.89092
21
-47.290502
31
0
39
0
210
0
220
0
230
1
0
LINE
5
13E
100
AcDbEntity
8
1
62
256
6
ByLayer
370
-1
48
1
60
0
100
AcDbLine
10
75.66007
20
-48.051321
30
0
11
74.983246
21
-48.745724
31
0
39
0
210
0
220
0
230
1
0
LINE
5
13F
100
AcDbEntity
8
1
62
256
6
ByLayer
370
-1
48
1
60
0
100
AcDbLine
10
71.735419
20
-42.370795
30
0
11
71.046121
21
-42.308225
31
0
39
0
210
0
220
0
230
1
0
LINE
5
140
100
AcDbEntity
8
1
62
256
6
ByLayer
370
-1
48
1
60
0
100
AcDbLine
10
71.188818
20
-43.520842
30
0
11
70.613864
21
-43.857331
31
0
39
0
210
0
220
0
230
1
0
LINE
5
141
100
AcDbEntity
8
1
62
256
6
ByLayer
370
-1
48
1
60
0
100
AcDbLine
10
71.953535
20
-42.611945
30
0
11
72.099421
21
-42.906653
31
0
39
0
210
0
220
0
230
1
0
LINE
5
142
100
AcDbEntity
8
1
62
256
6
ByLayer
370
-1
48
1
60
0
100
AcDbLine
10
73.855938
20
-44.249852
30
0
11
73.634952
21
-43.859356
31
0
39
0
210
0
220
0
230
1
0
LINE
5
143
100
AcDbEntity
8
1
62
256
6
ByLayer
370
-1
48
1
60
0
100
AcDbLine
10
71.705318
20
-42.66194
30
0
11
71.666906
21
-43.735134
31
0
39
0
210
0
220
0
230
1
0
LINE
5
144
100
AcDbEntity
8
1
62
256
6
ByLayer
370
-1
48
1
60
0
100
AcDbLine
10
66.299679
20
-53.917238
30
0
11
66.348891
21
-53.946132
31
0
39
0
210
0
220
0
230
1
0
LINE
5
145
100
AcDbEntity
8
1
62
256
6
ByLayer
370
-1
48
1
60
0
100
AcDbLine
10
70.547582
20
-43.968857
30
0
11
69.882702
21
-43.908504
31
0
39
0
210
0
220
0
230
1
0
LINE
5
146
100
AcDbEntity
8
1
62
256
6
ByLayer
370
-1
48
1
60
0
100
AcDbLine
10
68.072925
20
-54.459354
30
0
11
66.186406
21
-50.838116
31
0
39
0
210
0
220
0
230
1
0
LINE
5
147
100
AcDbEntity
8
1
62
256
6
ByLayer
370
-1
48
1
60
0
100
AcDbLine
10
64.473269
20
-53.274942
30
0
11
64.476365
21
-54.086039
31
0
39
0
210
0
220
0
230
1
0
LINE
5
148
100
AcDbEntity
8
1
62
256
6
ByLayer
370
-1
48
1
60
0
100
AcDbLine
10
74.042126
20
-44.533271
30
0
11
73.035443
21
-44.497576
31
0
39
0
210
0
220
0
230
1
0
LINE
5
149
100
AcDbEntity
8
1
62
256
6
ByLayer
370
-1
48
1
60
0
100
AcDbLine
10
68.960194
20
-54.973966
30
0
11
68.204918
21
-54.905407
31
0
39
0
210
0
220
0
230
1
0
LINE
5
14A
100
AcDbEntity
8
1
62
256
6
ByLayer
370
-1
48
1
60
0
100
AcDbLine
10
71.666906
20
-43.735134
30
0
11
71.906814
21
-43.719967
31
0
39
0
210
0
220
0
230
1
0
LINE
5
14B
100
AcDbEntity
8
1
62
256
6
ByLayer
370
-1
48
1
60
0
100
AcDbLine
10
77.920301
20
-53.990959
30
0
11
77.292857
21
-53.626455
31
0
39
0
210
0
220
0
230
1
0
LINE
5
14C
100
AcDbEntity
8
1
62
256
6
ByLayer
370
-1
48
1
60
0
100
AcDbLine
10
74.413576
20
-45.008212
30
0
11
75.731595
21
-47.337229
31
0
39
0
210
0
220
0
230
1
0
LINE
5
14D
100
AcDbEntity
8
1
62
256
6
ByLayer
370
-1
48
1
60
0
100
AcDbLine
10
70.54711
20
-44.457743
30
0
11
69.878163
21
-44.397021
31
0
39
0
210
0
220
0
230
1
0
LINE
5
14E
100
AcDbEntity
8
1
62
256
6
ByLayer
370
-1
48
1
60
0
100
AcDbLine
10
65.817892
20
-54.139949
30
0
11
66.391004
21
-54.476437
31
0
39
0
210
0
220
0
230
1
0
LINE
5
14F
100
AcDbEntity
8
1
62
256
6
ByLayer
370
-1
48
1
60
0
100
AcDbLine
10
65.263669
20
-54.320461
30
0
11
64.574371
21
-54.257891
31
0
39
0
210
0
220
0
230
1
0
LINE
5
150
100
AcDbEntity
8
1
62
256
6
ByLayer
370
-1
48
1
60
0
100
AcDbLine
10
65.485336
20
-53.692361
30
0
11
65.463651
21
-52.97334
31
0
39
0
210
0
220
0
230
1
0
LINE
5
151
100
AcDbEntity
8
1
62
256
6
ByLayer
370
-1
48
1
60
0
100
AcDbLine
10
65.284842
20
-54.332892
30
0
11
64.595544
21
-54.270322
31
0
39
0
210
0
220
0
230
1
0
LINE
5
152
100
AcDbEntity
8
1
62
256
6
ByLayer
370
-1
48
1
60
0
100
AcDbLine
10
72.693694
20
-43.25945
30
0
11
72.85756
21
-43.03831
31
0
39
0
210
0
220
0
230
1
0
LINE
5
153
100
AcDbEntity
8
1
62
256
6
ByLayer
370
-1
48
1
60
0
100
AcDbLine
10
75.935024
20
-47.769225
30
0
11
75.66007
21
-48.051321
31
0
39
0
210
0
220
0
230
1
0
LINE
5
154
100
AcDbEntity
8
1
62
256
6
ByLayer
370
-1
48
1
60
0
100
AcDbLine
10
78.576973
20
-53.809672
30
0
11
77.843755
21
-53.38372
31
0
39
0
210
0
220
0
230
1
0
LINE
5
155
100
AcDbEntity
8
1
62
256
6
ByLayer
370
-1
48
1
60
0
100
AcDbLine
10
65.975245
20
-52.973223
30
0
11
65.567564
21
-52.976612
31
0
39
0
210
0
220
0
230
1
0
LINE
5
156
100
AcDbEntity
8
1
62
256
6
ByLayer
370
-1
48
1
60
0
100
AcDbLine
10
68.839466
20
-47.376237
30
0
11
68.328311
21
-47.101428
31
0
39
0
210
0
220
0
230
1
0
LINE
5
157
100
AcDbEntity
8
1
62
256
6
ByLayer
370
-1
48
1
60
0
100
AcDbLine
10
70.805997
20
-49.170975
30
0
11
70.938865
21
-49.184128
31
0
39
0
210
0
220
0
230
1
0
LINE
5
158
100
AcDbEntity
8
1
62
256
6
ByLayer
370
-1
48
1
60
0
100
AcDbLine
10
72.114273
20
-48.769796
30
0
11
72.118413
21
-48.749799
31
0
39
0
210
0
220
0
230
1
0
LINE
5
159
100
AcDbEntity
8
1
62
256
6
ByLayer
370
-1
48
1
60
0
100
AcDbLine
10
70.738833
20
-51.291328
30
0
11
70.932518
21
-51.310501
31
0
39
0
210
0
220
0
230
1
0
LINE
5
15A
100
AcDbEntity
8
1
62
256
6
ByLayer
370
-1
48
1
60
0
100
AcDbLine
10
73.158087
20
-49.832983
30
0
11
73.177204
21
-49.826572
31
0
39
0
210
0
220
0
230
1
0
LINE
5
15B
100
AcDbEntity
8
1
62
256
6
ByLayer
370
-1
48
1
60
0
100
AcDbLine
10
72.114273
20
-48.769796
30
0
11
72.370412
21
-48.795152
31
0
39
0
210
0
220
0
230
1
0
LINE
5
15C
100
AcDbEntity
8
1
62
256
6
ByLayer
370
-1
48
1
60
0
100
AcDbLine
10
70.764038
20
-51.3089
30
0
11
70.919504
21
-51.32429
31
0
39
0
210
0
220
0
230
1
0
LINE
5
15D
100
AcDbEntity
8
1
62
256
6
ByLayer
370
-1
48
1
60
0
100
AcDbLine
10
72.109625
20
-51.694118
30
0
11
72.105604
21
-51.674121
31
0
39
0
210
0
220
0
230
1
0
LINE
5
15E
100
AcDbEntity
8
1
62
256
6
ByLayer
370
-1
48
1
60
0
100
AcDbLine
10
72.118413
20
-48.749799
30
0
11
72.376596
21
-48.775357
31
0
39
0
210
0
220
0
230
1
0
LINE
5
15F
100
AcDbEntity
8
1
62
256
6
ByLayer
370
-1
48
1
60
0
100
AcDbLine
10
72.109625
20
-51.694118
30
0
11
72.367808
21
-51.719676
31
0
39
0
210
0
220
0
230
1
0
LINE
5
160
100
AcDbEntity
8
1
62
256
6
ByLayer
370
-1
48
1
60
0
100
AcDbLine
10
73.174843
20
-50.617345
30
0
11
73.433026
21
-50.642903
31
0
39
0
210
0
220
0
230
1
0
LINE
5
161
100
AcDbEntity
8
1
62
256
6
ByLayer
370
-1
48
1
60
0
100
AcDbLine
10
73.155765
20
-50.610935
30
0
11
73.411904
21
-50.63629
31
0
39
0
210
0
220
0
230
1
0
LINE
5
162
100
AcDbEntity
8
1
62
256
6
ByLayer
370
-1
48
1
60
0
100
AcDbLine
10
73.158087
20
-49.832983
30
0
11
73.414226
21
-49.858339
31
0
39
0
210
0
220
0
230
1
0
LINE
5
163
100
AcDbEntity
8
1
62
256
6
ByLayer
370
-1
48
1
60
0
100
AcDbLine
10
73.177204
20
-49.826572
30
0
11
73.435387
21
-49.85213
31
0
39
0
210
0
220
0
230
1
0
LINE
5
164
100
AcDbEntity
8
1
62
256
6
ByLayer
370
-1
48
1
60
0
100
AcDbLine
10
73.174843
20
-50.617345
30
0
11
73.155765
21
-50.610935
31
0
39
0
210
0
220
0
230
1
0
LINE
5
165
100
AcDbEntity
8
1
62
256
6
ByLayer
370
-1
48
1
60
0
100
AcDbLine
10
72.105604
20
-51.674121
30
0
11
72.361743
21
-51.699477
31
0
39
0
210
0
220
0
230
1
0
LINE
5
166
100
AcDbEntity
8
1
62
256
6
ByLayer
370
-1
48
1
60
0
100
AcDbLine
10
70.828105
20
-49.16106
30
0
11
70.925932
21
-49.170744
31
0
39
0
210
0
220
0
230
1
0
LINE
5
167
100
AcDbEntity
8
1
62
256
6
ByLayer
370
-1
48
1
60
0
100
AcDbLine
10
74.803846
20
-45.697865
30
0
11
75.442514
21
-45.697865
31
0
39
0
210
0
220
0
230
1
0
LINE
5
168
100
AcDbEntity
8
1
62
256
6
ByLayer
370
-1
48
1
60
0
100
AcDbLine
10
74.937535
20
-45.533506
30
0
11
74.710837
21
-45.533506
31
0
39
0
210
0
220
0
230
1
0
LINE
5
169
100
AcDbEntity
8
1
62
256
6
ByLayer
370
-1
48
1
60
0
100
AcDbLine
10
75.931121
20
-47.44246
30
0
11
75.783393
21
-47.44246
31
0
39
0
210
0
220
0
230
1
0
LINE
5
16A
100
AcDbEntity
8
1
62
256
6
ByLayer
370
-1
48
1
60
0
100
AcDbLine
10
76.003373
20
-47.023782
30
0
11
75.554203
21
-47.023782
31
0
39
0
210
0
220
0
230
1
0
LINE
5
16B
100
AcDbEntity
8
1
62
256
6
ByLayer
370
-1
48
1
60
0
100
AcDbLine
10
75.933613
20
-46.297354
30
0
11
75.143018
21
-46.297354
31
0
39
0
210
0
220
0
230
1
0
LINE
5
16C
100
AcDbEntity
8
1
62
256
6
ByLayer
370
-1
48
1
60
0
100
AcDbLine
10
70.149838
20
-42.597508
30
0
11
70.924976
21
-42.597508
31
0
39
0
210
0
220
0
230
1
0
LINE
5
16D
100
AcDbEntity
8
1
62
256
6
ByLayer
370
-1
48
1
60
0
100
AcDbLine
10
76.00402
20
-46.72633
30
0
11
75.385785
21
-46.72633
31
0
39
0
210
0
220
0
230
1
0
LINE
5
16E
100
AcDbEntity
8
1
62
256
6
ByLayer
370
-1
48
1
60
0
100
AcDbLine
10
75.91353
20
-47.545988
30
0
11
75.826604
21
-47.545988
31
0
39
0
210
0
220
0
230
1
0
LINE
5
16F
100
AcDbEntity
8
1
62
256
6
ByLayer
370
-1
48
1
60
0
100
AcDbLine
10
76.003373
20
-47.023782
30
0
11
76.00402
21
-46.72633
31
0
39
0
210
0
220
0
230
1
0
LINE
5
170
100
AcDbEntity
8
1
62
256
6
ByLayer
370
-1
48
1
60
0
100
AcDbLine
10
69.713449
20
-43.362315
30
0
11
70.149838
21
-42.597508
31
0
39
0
210
0
220
0
230
1
0
LINE
5
171
100
AcDbEntity
8
1
62
256
6
ByLayer
370
-1
48
1
60
0
100
AcDbLine
10
74.937535
20
-45.533506
30
0
11
75.442514
21
-45.697865
31
0
39
0
210
0
220
0
230
1
0
LINE
5
172
100
AcDbEntity
8
1
62
256
6
ByLayer
370
-1
48
1
60
0
100
AcDbLine
10
75.807099
20
-45.86221
30
0
11
74.89682
21
-45.86221
31
0
39
0
210
0
220
0
230
1
0
LINE
5
173
100
AcDbEntity
8
1
62
256
6
ByLayer
370
-1
48
1
60
0
100
AcDbLine
10
75.863544
20
-45.965738
30
0
11
74.955427
21
-45.965738
31
0
39
0
210
0
220
0
230
1
0
LINE
5
174
100
AcDbEntity
8
1
62
256
6
ByLayer
370
-1
48
1
60
0
100
AcDbLine
10
75.990339
20
-46.541008
30
0
11
75.280977
21
-46.541008
31
0
39
0
210
0
220
0
230
1
0
LINE
5
175
100
AcDbEntity
8
1
62
256
6
ByLayer
370
-1
48
1
60
0
100
AcDbLine
10
75.91353
20
-47.545988
30
0
11
75.913129
21
-47.72977
31
0
39
0
210
0
220
0
230
1
0
LINE
5
176
100
AcDbEntity
8
1
62
256
6
ByLayer
370
-1
48
1
60
0
100
AcDbLine
10
75.98889
20
-47.20707
30
0
11
75.657921
21
-47.20707
31
0
39
0
210
0
220
0
230
1
0
LINE
5
177
100
AcDbEntity
8
1
62
256
6
ByLayer
370
-1
48
1
60
0
100
AcDbLine
10
75.916478
20
-46.191319
30
0
11
75.083107
21
-46.191319
31
0
39
0
210
0
220
0
230
1
0
LINE
5
178
100
AcDbEntity
8
1
62
256
6
ByLayer
370
-1
48
1
60
0
100
AcDbLine
10
70.935113
20
-42.433964
30
0
11
69.62453
21
-42.433964
31
0
39
0
210
0
220
0
230
1
0
LINE
5
179
100
AcDbEntity
8
1
62
256
6
ByLayer
370
-1
48
1
60
0
100
AcDbLine
10
65.664758
20
-55.067404
30
0
11
65.664782
21
-55.110775
31
0
39
0
210
0
220
0
230
1
0
LINE
5
17A
100
AcDbEntity
8
1
62
256
6
ByLayer
370
-1
48
1
60
0
100
AcDbLine
10
65.65203
20
-55.067012
30
0
11
65.652047
21
-55.098192
31
0
39
0
210
0
220
0
230
1
0
LINE
5
17B
100
AcDbEntity
8
1
62
256
6
ByLayer
370
-1
48
1
60
0
100
AcDbLine
10
65.041079
20
-55.057005
30
0
11
65.041108
21
-55.110388
31
0
39
0
210
0
220
0
230
1
0
LINE
5
17C
100
AcDbEntity
8
1
62
256
6
ByLayer
370
-1
48
1
60
0
100
AcDbLine
10
63.902188
20
-55.081221
30
0
11
63.902189
21
-55.082717
31
0
39
0
210
0
220
0
230
1
0
LINE
5
17D
100
AcDbEntity
8
1
62
256
6
ByLayer
370
-1
48
1
60
0
100
AcDbLine
10
63.884776
20
-55.082239
30
0
11
63.884783
21
-55.095034
31
0
39
0
210
0
220
0
230
1
0
LINE
5
17E
100
AcDbEntity
8
1
62
256
6
ByLayer
370
-1
48
1
60
0
100
AcDbLine
10
18.852656
20
-0.67085
30
0
11
18.481127
21
-1.691617
31
0
39
0
210
0
220
0
230
1
0
LINE
5
17F
100
AcDbEntity
8
1
62
256
6
ByLayer
370
-1
48
1
60
0
100
AcDbLine
10
21.892296
20
-6.93845
30
0
11
23.49979
21
-2.521895
31
0
39
0
210
0
220
0
230
1
0
LINE
5
180
100
AcDbEntity
8
1
62
256
6
ByLayer
370
-1
48
1
60
0
100
AcDbLine
10
21.700039
20
-7.028101
30
0
11
22.555089
21
-4.67887
31
0
39
0
210
0
220
0
230
1
0
LINE
5
181
100
AcDbEntity
8
1
62
256
6
ByLayer
370
-1
48
1
60
0
100
AcDbLine
10
22.555089
20
-4.67887
30
0
11
23.410139
21
-2.329638
31
0
39
0
210
0
220
0
230
1
0
LINE
5
182
100
AcDbEntity
8
2
62
256
6
ByLayer
370
-1
48
1
60
1
100
AcDbLine
10
0
20
0
30
0
11
0
21
-0.001
31
0
39
0
210
0
220
0
230
1
0
MTEXT
5
2D0
100
AcDbEntity
8
SK6
62
256
6
ByLayer
370
-1
48
1
60
0
100
AcDbMText
10
-23.125
20
56.064728
30
0
210
0
220
0
230
1
1
\W00.721;\fsimplex.shx,bigfont.shx;C8-266LFG-55080-16 
40
3.5
41
0
44
1.084337
50
0
71
7
72
5
7
DEFAULT
0
DIMENSION
5
303
100
AcDbEntity
8
2
62
256
6
ByLayer
370
-3
48
1
60
0
100
AcDbDimension
2
DimnDraft3D1
10
0
20
-79.25
30
0
11
37.371053
21
-79.25
31
0
70
32
71
5
72
1
41
1
210
0
220
0
230
1
3
Standard
100
AcDbAlignedDimension
13
80
23
-56.5
33
0
14
0
24
-1.501
34
0
50
0
100
AcDbRotatedDimension
1001
ACAD
1000
DSTYLE
1002
{
1070
   279
1070
     0
1070
   172
1070
     1
1070
   173
1070
     1
1070
   340
1005
2D1
1070
   271
1070
     3
1070
   272
1070
     3
1070
    77
1070
     1
1070
    73
1070
     0
1070
   171
1070
     4
1070
   274
1070
     4
1070
   177
1070
     2
1070
   176
1070
     2
1070
   178
1070
     7
1070
    78
1070
     8
1070
    41
1041
3.0
1070
   147
1041
2.25
1070
    42
1041
1.5
1070
    44
1041
3.0
1070
   140
1041
4.5
1070
   343
1005
304
1070
   344
1005
304
1002
}
0
DIMENSION
5
319
100
AcDbEntity
8
SK2
62
256
6
ByLayer
370
-3
48
1
60
0
100
AcDbDimension
2
DimnDraft3D2
10
-57.75
20
-40
30
0
11
-57.75
21
-4.784211
31
0
70
32
71
5
72
1
41
1
210
0
220
0
230
1
3
Standard
100
AcDbAlignedDimension
13
-1.5
23
40
33
0
14
-1.5
24
-40
34
0
50
90
100
AcDbRotatedDimension
1001
ACAD
1000
DSTYLE
1002
{
1070
    74
1070
     0
1070
   279
1070
     0
1070
   172
1070
     1
1070
   173
1070
     1
1070
   340
1005
2D1
1070
   271
1070
     3
1070
   272
1070
     3
1070
    77
1070
     1
1070
    73
1070
     0
1070
   171
1070
     4
1070
   274
1070
     4
1070
   177
1070
     2
1070
   176
1070
     2
1070
   178
1070
     7
1070
    78
1070
     8
1070
    41
1041
3.0
1070
   147
1041
2.25
1070
    42
1041
1.5
1070
    44
1041
3.0
1070
   140
1041
4.5
1070
   343
1005
304
1070
   344
1005
304
1002
}
0
DIMENSION
5
327
100
AcDbEntity
8
2
62
256
6
ByLayer
370
-3
48
1
60
0
100
AcDbDimension
2
DimnDraft3D3
10
94.25
20
-55
30
0
11
94.25
21
-30.128947
31
0
70
32
71
5
72
1
41
1
210
0
220
0
230
1
3
Standard
100
AcDbAlignedDimension
13
86.5
23
0
33
0
14
81.5
24
-55
34
0
50
90
100
AcDbRotatedDimension
1001
ACAD
1000
DSTYLE
1002
{
1070
    74
1070
     0
1070
   279
1070
     0
1070
   172
1070
     1
1070
   173
1070
     1
1070
   340
1005
2D1
1070
   271
1070
     3
1070
   272
1070
     3
1070
    77
1070
     1
1070
    73
1070
     0
1070
   171
1070
     4
1070
   274
1070
     4
1070
   177
1070
     2
1070
   176
1070
     2
1070
   178
1070
     7
1070
    78
1070
     8
1070
    41
1041
3.0
1070
   147
1041
2.25
1070
    42
1041
1.5
1070
    44
1041
3.0
1070
   140
1041
4.5
1070
   343
1005
304
1070
   344
1005
304
1002
}
0
ENDSEC
0
SECTION
2
OBJECTS
0
DICTIONARY
5
358
330
0
100
AcDbDictionary
280
0
281
1
3
ACAD_GROUP
350
359
3
ACAD_MLINESTYLE
350
35a
0
DICTIONARY
5
359
330
0
100
AcDbDictionary
280
0
281
1
0
DICTIONARY
5
35a
330
0
100
AcDbDictionary
280
0
281
1
3
Standard
350
18
0
MLINESTYLE
5
18
330
35a
100
AcDbMlineStyle
2
Standard
70
0
3

62
256
51
90
52
90
71
2
49
-0.5
62
256
6
ByLayer
49
0.5
62
256
6
ByLayer
0
RASTERVARIABLES
5
346
330

100
AcDbRasterVariables
90
0
70
1
71
1
72
1
0
ENDSEC
0
EOF
