0
SECTION
2
HEADER
9
$ACADVER
1
AC1015
9
$DWGCODEPAGE
3
ANSI_1252
9
$HANDSEED
5
22f
9
$ANGBASE
50
0
9
$ANGDIR
70
0
9
$ATTMODE
70
1
9
$AUNITS
70
0
9
$AUPREC
70
0
9
$CECOLOR
62
256
9
$CELTSCALE
40
1
9
$CELTYPE
6
ByLayer
9
$CELWEIGHT
370
18
9
$CLAYER
8
0
9
$CMLJUST
70
0
9
$CMLSCALE
40
1
9
$CMLSTYLE
2
Standard
9
$DIMSTYLE
2
Standard
9
$TEXTSIZE
40
0.2
9
$TEXTSTYLE
7
Standard
9
$LUNITS
70
2
9
$LUPREC
70
4
9
$EXTNAMES
290
1
9
$INSUNITS
70
4
9
$LTSCALE
40
1
9
$LWDISPLAY
290
1
9
$PDMODE
70
0
9
$PDSIZE
40
0
9
$PLINEGEN
70
0
0
ENDSEC
0
SECTION
2
CLASSES
0
CLASS
1
RASTERVARIABLES
2
AcDbRasterVariables
3
ISM
90
0
280
0
281
0
0
ENDSEC
0
SECTION
2
TABLES
0
TABLE
2
VPORT
5
225
100
AcDbSymbolTable
0
VPORT
5
1
100
AcDbSymbolTableRecord
100
AcDbViewportTableRecord
2
*Active
70
0
10
0
20
0
11
1
21
1
12
-1
22
1
13
0
23
0
14
0.5
24
0.5
15
10
25
10
16
0
26
0
36
1
17
0
27
0
37
0
0
ENDTAB
0
TABLE
2
LTYPE
5
226
100
AcDbSymbolTable
0
LTYPE
5
14
100
AcDbSymbolTableRecord
100
AcDbLinetypeTableRecord
70
0
2
ByBlock
3

72
65
73
0
40
0
0
LTYPE
5
15
100
AcDbSymbolTableRecord
100
AcDbLinetypeTableRecord
70
0
2
ByLayer
3

72
65
73
0
40
0
0
LTYPE
5
16
100
AcDbSymbolTableRecord
100
AcDbLinetypeTableRecord
70
0
2
Continuous
3
Solid line
72
65
73
0
40
0
0
LTYPE
5
6E
100
AcDbSymbolTableRecord
100
AcDbLinetypeTableRecord
70
0
2
CENTER
3
____ _ ____ _ ____ _ ____
72
65
73
4
40
47.5
49
22
74
0
49
-8.5
74
0
49
8.5
74
0
49
-8.5
74
0
0
LTYPE
5
6F
100
AcDbSymbolTableRecord
100
AcDbLinetypeTableRecord
70
0
2
DASHED
3
__ __ __ __ __ __ __ __ __
72
65
73
2
40
25.72
49
12.86
74
0
49
-12.86
74
0
0
ENDTAB
0
TABLE
2
LAYER
5
227
100
AcDbSymbolTable
0
LAYER
5
10
100
AcDbSymbolTableRecord
100
AcDbLayerTableRecord
2
0
70
0
62
7
6
Continuous
290
1
370
-3
390
0
0
LAYER
5
71
100
AcDbSymbolTableRecord
100
AcDbLayerTableRecord
2
81
70
0
62
-3
6
Continuous
290
1
370
-3
390
0
0
LAYER
5
73
100
AcDbSymbolTableRecord
100
AcDbLayerTableRecord
2
80
70
0
62
-6
6
Continuous
290
1
370
-3
390
0
0
LAYER
5
75
100
AcDbSymbolTableRecord
100
AcDbLayerTableRecord
2
1
70
0
62
4
6
Continuous
290
1
370
-3
390
0
0
LAYER
5
8C
100
AcDbSymbolTableRecord
100
AcDbLayerTableRecord
2
4
70
0
62
-2
6
CENTER
290
1
370
-3
390
0
0
LAYER
5
132
100
AcDbSymbolTableRecord
100
AcDbLayerTableRecord
2
Defpoints
70
0
62
7
6
Continuous
290
0
370
-3
390
0
0
LAYER
5
15B
100
AcDbSymbolTableRecord
100
AcDbLayerTableRecord
2
2
70
0
62
7
6
Continuous
290
1
370
-3
390
0
0
LAYER
5
211
100
AcDbSymbolTableRecord
100
AcDbLayerTableRecord
2
SK1
70
0
62
4
6
Continuous
290
1
370
-3
390
0
0
LAYER
5
212
100
AcDbSymbolTableRecord
100
AcDbLayerTableRecord
2
SK3
70
0
62
1
6
DASHED
290
1
370
-3
390
0
0
LAYER
5
213
100
AcDbSymbolTableRecord
100
AcDbLayerTableRecord
2
SK6
70
0
62
5
6
Continuous
290
1
370
-3
390
0
0
LAYER
5
214
100
AcDbSymbolTableRecord
100
AcDbLayerTableRecord
2
SK2
70
0
62
7
6
Continuous
290
1
370
-3
390
0
0
ENDTAB
0
TABLE
2
STYLE
5
228
100
AcDbSymbolTable
0
STYLE
5
11
100
AcDbSymbolTableRecord
100
AcDbTextStyleTableRecord
2
Standard
3
txt
70
0
71
0
40
0
41
1
42
0
50
0
0
STYLE
5
12B
100
AcDbSymbolTableRecord
100
AcDbTextStyleTableRecord
2
AMGDT
3
AMGDT
70
0
71
0
40
0
41
1
42
0
50
0
0
STYLE
5
12F
100
AcDbSymbolTableRecord
100
AcDbTextStyleTableRecord
2
iso_b_vert
3
simplex.shx
70
0
71
0
40
0
41
1
42
0
50
0
0
STYLE
5
142
100
AcDbSymbolTableRecord
100
AcDbTextStyleTableRecord
2
DWGDirectTextStyle
3
simplex
70
0
71
0
40
0
41
1
42
0
50
0
0
ENDTAB
0
TABLE
2
DIMSTYLE
5
229
100
AcDbSymbolTable
100
AcDbDimStyleTable
0
DIMSTYLE
105
27
100
AcDbSymbolTableRecord
100
AcDbDimStyleTableRecord
2
Standard
70
0
3
<>
41
0.18
42
0.0625
44
0.18
140
0.18
147
0.09
73
0
74
0
77
1
271
2
275
0
278
52
280
0
340
11
0
ENDTAB
0
TABLE
2
VIEW
5
22a
100
AcDbSymbolTable
0
ENDTAB
0
TABLE
2
UCS
5
22b
100
AcDbSymbolTable
0
ENDTAB
0
TABLE
2
APPID
5
22c
100
AcDbSymbolTable
0
APPID
5
12
100
AcDbSymbolTableRecord
100
AcDbRegAppTableRecord
2
ACAD
70
0
0
APPID
5
12D
100
AcDbSymbolTableRecord
100
AcDbRegAppTableRecord
2
ACAD_DSTYLE_DIMBREAK
70
0
0
APPID
5
1D0
100
AcDbSymbolTableRecord
100
AcDbRegAppTableRecord
2
ACAD_DSTYLE_DIM_LINETYPE
70
0
0
APPID
5
1D1
100
AcDbSymbolTableRecord
100
AcDbRegAppTableRecord
2
ACAD_DSTYLE_DIM_EXT1_LINETYPE
70
0
0
APPID
5
1D2
100
AcDbSymbolTableRecord
100
AcDbRegAppTableRecord
2
ACAD_DSTYLE_DIM_EXT2_LINETYPE
70
0
0
APPID
5
20D
100
AcDbSymbolTableRecord
100
AcDbRegAppTableRecord
2
ACAD_MLEADERVER
70
0
0
ENDTAB
0
TABLE
2
BLOCK_RECORD
5
22d
100
AcDbSymbolTable
0
BLOCK_RECORD
5
1F
100
AcDbSymbolTableRecord
100
AcDbBlockTableRecord
2
*Model_Space
340
0
70
0
0
BLOCK_RECORD
5
1B
100
AcDbSymbolTableRecord
100
AcDbBlockTableRecord
2
*Paper_Space
340
0
70
0
0
BLOCK_RECORD
5
23
100
AcDbSymbolTableRecord
100
AcDbBlockTableRecord
2
*Paper_Space0
340
0
70
0
0
BLOCK_RECORD
5
133
100
AcDbSymbolTableRecord
100
AcDbBlockTableRecord
2
*D1
340
0
70
0
0
BLOCK_RECORD
5
140
100
AcDbSymbolTableRecord
100
AcDbBlockTableRecord
2
_U0
340
0
70
0
0
BLOCK_RECORD
5
14D
100
AcDbSymbolTableRecord
100
AcDbBlockTableRecord
2
*D3
340
0
70
0
0
BLOCK_RECORD
5
15C
100
AcDbSymbolTableRecord
100
AcDbBlockTableRecord
2
_U1
340
0
70
0
0
BLOCK_RECORD
5
168
100
AcDbSymbolTableRecord
100
AcDbBlockTableRecord
2
*D5
340
0
70
0
0
BLOCK_RECORD
5
176
100
AcDbSymbolTableRecord
100
AcDbBlockTableRecord
2
_U2
340
0
70
0
0
BLOCK_RECORD
5
183
100
AcDbSymbolTableRecord
100
AcDbBlockTableRecord
2
*D7
340
0
70
0
0
BLOCK_RECORD
5
18F
100
AcDbSymbolTableRecord
100
AcDbBlockTableRecord
2
_U3
340
0
70
0
0
BLOCK_RECORD
5
19B
100
AcDbSymbolTableRecord
100
AcDbBlockTableRecord
2
*D9
340
0
70
0
0
BLOCK_RECORD
5
1A9
100
AcDbSymbolTableRecord
100
AcDbBlockTableRecord
2
_U4
340
0
70
0
0
ENDTAB
0
ENDSEC
0
SECTION
2
BLOCKS
0
BLOCK
5
20
100
AcDbEntity
8
0
100
AcDbBlockBegin
2
*Model_Space
70
0
10
0
20
0
30
0
3
*Model_Space
0
ENDBLK
5
21
100
AcDbEntity
8
0
100
AcDbBlockEnd
0
BLOCK
5
1C
100
AcDbEntity
8
0
100
AcDbBlockBegin
2
*Paper_Space
70
0
10
0
20
0
30
0
3
*Paper_Space
0
ENDBLK
5
1D
100
AcDbEntity
8
0
100
AcDbBlockEnd
0
BLOCK
5
24
100
AcDbEntity
8
0
100
AcDbBlockBegin
2
*Paper_Space0
70
0
10
0
20
0
30
0
3
*Paper_Space0
0
ENDBLK
5
25
100
AcDbEntity
8
0
100
AcDbBlockEnd
0
BLOCK
5
134
100
AcDbEntity
8
0
100
AcDbBlockBegin
2
*D1
70
1
10
0
20
0
30
0
3
*D1
0
LINE
5
136
100
AcDbEntity
8
0
62
256
6
ByLayer
370
-2
48
1
60
0
100
AcDbLine
10
0
20
133.5875
30
0
11
0
21
182
31
0
39
0
210
0
220
0
230
1
0
LINE
5
137
100
AcDbEntity
8
0
62
256
6
ByLayer
370
-2
48
1
60
0
100
AcDbLine
10
92
20
129.5875
30
0
11
92
21
182
31
0
39
0
210
0
220
0
230
1
0
LINE
5
138
100
AcDbEntity
8
0
62
256
6
ByLayer
370
-2
48
1
60
0
100
AcDbLine
10
14
20
172
30
0
11
78
21
172
31
0
39
0
210
0
220
0
230
1
0
SOLID
5
139
100
AcDbEntity
8
0
62
256
6
ByLayer
370
-1
48
1
60
0
100
AcDbTrace
10
14
20
174.333333
30
0
11
14
21
169.666667
31
0
12
0
22
172
32
0
13
0
23
172
33
0
39
0
210
0
220
0
230
1
0
SOLID
5
13A
100
AcDbEntity
8
0
62
256
6
ByLayer
370
-1
48
1
60
0
100
AcDbTrace
10
78
20
169.666667
30
0
11
78
21
174.333333
31
0
12
92
22
172
32
0
13
92
23
172
33
0
39
0
210
0
220
0
230
1
0
MTEXT
5
13B
100
AcDbEntity
8
0
62
256
6
ByLayer
370
18
48
1
60
0
100
AcDbMText
10
46
20
200
30
0
210
0
220
0
230
1
1
\A1;92
40
14
41
0
44
1
50
0
71
5
72
5
7
iso_b_vert
0
POINT
5
13C
100
AcDbEntity
8
Defpoints
62
0
6
ByLayer
370
-1
48
1
60
0
100
AcDbPoint
10
0
20
132
30
0
39
0
210
0
220
0
230
1
50
360
0
POINT
5
13D
100
AcDbEntity
8
Defpoints
62
0
6
ByLayer
370
-1
48
1
60
0
100
AcDbPoint
10
92
20
128
30
0
39
0
210
0
220
0
230
1
50
360
0
POINT
5
13E
100
AcDbEntity
8
Defpoints
62
0
6
ByLayer
370
-1
48
1
60
0
100
AcDbPoint
10
92
20
172
30
0
39
0
210
0
220
0
230
1
50
360
0
ENDBLK
5
135
100
AcDbEntity
8
0
100
AcDbBlockEnd
0
BLOCK
5
148
100
AcDbEntity
8
0
100
AcDbBlockBegin
2
_U0
70
0
10
0
20
0
30
0
3
_U0
0
MTEXT
5
141
100
AcDbEntity
8
SK2
62
256
6
ByLayer
370
18
48
1
60
0
100
AcDbMText
10
38.380135
20
176.130536
30
0
210
0
220
0
230
1
1
\W0.6337;92
40
14
41
0
44
1.084337
50
0
71
7
72
5
7
iso_b_vert
0
LINE
5
143
100
AcDbEntity
8
SK2
62
256
6
ByLayer
370
35
48
1
60
0
100
AcDbLine
10
0
20
133.5875
30
0
11
0
21
182
31
0
39
0
210
0
220
0
230
1
0
LINE
5
144
100
AcDbEntity
8
SK2
62
256
6
ByLayer
370
35
48
1
60
0
100
AcDbLine
10
92
20
129.5875
30
0
11
92
21
182
31
0
39
0
210
0
220
0
230
1
0
LINE
5
145
100
AcDbEntity
8
SK2
62
256
6
ByLayer
370
35
48
1
60
0
100
AcDbLine
10
0
20
172
30
0
11
92
21
172
31
0
39
0
210
0
220
0
230
1
0
SOLID
5
146
100
AcDbEntity
8
SK2
62
256
6
ByLayer
370
18
48
1
60
0
100
AcDbTrace
10
0
20
172
30
0
11
13.999991
21
174.33275
31
0
12
14.000009
22
169.66725
32
0
13
14.000009
23
169.66725
33
0
39
0
210
0
220
0
230
1
0
SOLID
5
147
100
AcDbEntity
8
SK2
62
256
6
ByLayer
370
18
48
1
60
0
100
AcDbTrace
10
92
20
172
30
0
11
78.000009
21
169.66725
31
0
12
77.999991
22
174.33275
32
0
13
77.999991
23
174.33275
33
0
39
0
210
0
220
0
230
1
0
ENDBLK
5
149
100
AcDbEntity
8
0
100
AcDbBlockEnd
0
BLOCK
5
14E
100
AcDbEntity
8
0
100
AcDbBlockBegin
2
*D3
70
1
10
0
20
0
30
0
3
*D3
0
LINE
5
150
100
AcDbEntity
8
0
62
256
6
ByLayer
370
-2
48
1
60
0
100
AcDbLine
10
0
20
-1.5875
30
0
11
0
21
-85.5
31
0
39
0
210
0
220
0
230
1
0
LINE
5
151
100
AcDbEntity
8
0
62
256
6
ByLayer
370
-2
48
1
60
0
100
AcDbLine
10
50
20
-17.5875
30
0
11
50
21
-85.5
31
0
39
0
210
0
220
0
230
1
0
LINE
5
152
100
AcDbEntity
8
0
62
256
6
ByLayer
370
-2
48
1
60
0
100
AcDbLine
10
50
20
-75.5
30
0
11
142.666667
21
-75.5
31
0
39
0
210
0
220
0
230
1
0
LINE
5
153
100
AcDbEntity
8
0
62
256
6
ByLayer
370
-2
48
1
60
0
100
AcDbLine
10
-14
20
-75.5
30
0
11
-28
21
-75.5
31
0
39
0
210
0
220
0
230
1
0
LINE
5
154
100
AcDbEntity
8
0
62
256
6
ByLayer
370
-2
48
1
60
0
100
AcDbLine
10
64
20
-75.5
30
0
11
78
21
-75.5
31
0
39
0
210
0
220
0
230
1
0
SOLID
5
155
100
AcDbEntity
8
0
62
256
6
ByLayer
370
-1
48
1
60
0
100
AcDbTrace
10
-14
20
-77.833333
30
0
11
-14
21
-73.166667
31
0
12
0
22
-75.5
32
0
13
0
23
-75.5
33
0
39
0
210
0
220
0
230
1
0
SOLID
5
156
100
AcDbEntity
8
0
62
256
6
ByLayer
370
-1
48
1
60
0
100
AcDbTrace
10
64
20
-73.166667
30
0
11
64
21
-77.833333
31
0
12
50
22
-75.5
32
0
13
50
23
-75.5
33
0
39
0
210
0
220
0
230
1
0
MTEXT
5
157
100
AcDbEntity
8
0
62
256
6
ByLayer
370
18
48
1
60
0
100
AcDbMText
10
110.333333
20
-47.5
30
0
210
0
220
0
230
1
1
\A1;50
40
14
41
0
44
1
50
0
71
5
72
5
7
iso_b_vert
0
POINT
5
158
100
AcDbEntity
8
Defpoints
62
0
6
ByLayer
370
-1
48
1
60
0
100
AcDbPoint
10
0
20
0
30
0
39
0
210
0
220
0
230
1
50
360
0
POINT
5
159
100
AcDbEntity
8
Defpoints
62
0
6
ByLayer
370
-1
48
1
60
0
100
AcDbPoint
10
50
20
-16
30
0
39
0
210
0
220
0
230
1
50
360
0
POINT
5
15A
100
AcDbEntity
8
Defpoints
62
0
6
ByLayer
370
-1
48
1
60
0
100
AcDbPoint
10
50
20
-75.5
30
0
39
0
210
0
220
0
230
1
50
360
0
ENDBLK
5
14F
100
AcDbEntity
8
0
100
AcDbBlockEnd
0
BLOCK
5
163
100
AcDbEntity
8
0
100
AcDbBlockBegin
2
_U1
70
0
10
0
20
0
30
0
3
_U1
0
MTEXT
5
15D
100
AcDbEntity
8
2
62
256
6
ByLayer
370
18
48
1
60
0
100
AcDbMText
10
58.154161
20
-71.369464
30
0
210
0
220
0
230
1
1
\W0.6337;50
40
14
41
0
44
1.084337
50
0
71
7
72
5
7
iso_b_vert
0
LINE
5
15E
100
AcDbEntity
8
2
62
256
6
ByLayer
370
35
48
1
60
0
100
AcDbLine
10
0
20
-1.5875
30
0
11
0
21
-85.5
31
0
39
0
210
0
220
0
230
1
0
LINE
5
15F
100
AcDbEntity
8
2
62
256
6
ByLayer
370
35
48
1
60
0
100
AcDbLine
10
50
20
-17.5875
30
0
11
50
21
-85.5
31
0
39
0
210
0
220
0
230
1
0
LINE
5
160
100
AcDbEntity
8
2
62
256
6
ByLayer
370
35
48
1
60
0
100
AcDbLine
10
0
20
-75.5
30
0
11
74.135891
21
-75.5
31
0
39
0
210
0
220
0
230
1
0
SOLID
5
161
100
AcDbEntity
8
2
62
256
6
ByLayer
370
18
48
1
60
0
100
AcDbTrace
10
0
20
-75.5
30
0
11
13.999991
21
-73.16725
31
0
12
14.000009
22
-77.83275
32
0
13
14.000009
23
-77.83275
33
0
39
0
210
0
220
0
230
1
0
SOLID
5
162
100
AcDbEntity
8
2
62
256
6
ByLayer
370
18
48
1
60
0
100
AcDbTrace
10
50
20
-75.5
30
0
11
36.000009
21
-77.83275
31
0
12
35.999991
22
-73.16725
32
0
13
35.999991
23
-73.16725
33
0
39
0
210
0
220
0
230
1
0
ENDBLK
5
164
100
AcDbEntity
8
0
100
AcDbBlockEnd
0
BLOCK
5
169
100
AcDbEntity
8
0
100
AcDbBlockBegin
2
*D5
70
1
10
0
20
0
30
0
3
*D5
0
LINE
5
16B
100
AcDbEntity
8
0
62
256
6
ByLayer
370
-2
48
1
60
0
100
AcDbLine
10
81.5
20
-17.5875
30
0
11
81.5
21
-105.5
31
0
39
0
210
0
220
0
230
1
0
LINE
5
16C
100
AcDbEntity
8
0
62
256
6
ByLayer
370
-2
48
1
60
0
100
AcDbLine
10
18.5
20
-17.5875
30
0
11
18.5
21
-105.5
31
0
39
0
210
0
220
0
230
1
0
LINE
5
16D
100
AcDbEntity
8
0
62
256
6
ByLayer
370
-2
48
1
60
0
100
AcDbLine
10
81.5
20
-95.5
30
0
11
173.5
21
-95.5
31
0
39
0
210
0
220
0
230
1
0
LINE
5
16E
100
AcDbEntity
8
0
62
256
6
ByLayer
370
-2
48
1
60
0
100
AcDbLine
10
95.5
20
-95.5
30
0
11
109.5
21
-95.5
31
0
39
0
210
0
220
0
230
1
0
LINE
5
16F
100
AcDbEntity
8
0
62
256
6
ByLayer
370
-2
48
1
60
0
100
AcDbLine
10
4.5
20
-95.5
30
0
11
-9.5
21
-95.5
31
0
39
0
210
0
220
0
230
1
0
SOLID
5
170
100
AcDbEntity
8
0
62
256
6
ByLayer
370
-1
48
1
60
0
100
AcDbTrace
10
95.5
20
-93.166667
30
0
11
95.5
21
-97.833333
31
0
12
81.5
22
-95.5
32
0
13
81.5
23
-95.5
33
0
39
0
210
0
220
0
230
1
0
SOLID
5
171
100
AcDbEntity
8
0
62
256
6
ByLayer
370
-1
48
1
60
0
100
AcDbTrace
10
4.5
20
-97.833333
30
0
11
4.5
21
-93.166667
31
0
12
18.5
22
-95.5
32
0
13
18.5
23
-95.5
33
0
39
0
210
0
220
0
230
1
0
MTEXT
5
172
100
AcDbEntity
8
0
62
256
6
ByLayer
370
18
48
1
60
0
100
AcDbMText
10
141.5
20
-67.5
30
0
210
0
220
0
230
1
1
\A1;63
40
14
41
0
44
1
50
0
71
5
72
5
7
iso_b_vert
0
POINT
5
173
100
AcDbEntity
8
Defpoints
62
0
6
ByLayer
370
-1
48
1
60
0
100
AcDbPoint
10
81.5
20
-16
30
0
39
0
210
0
220
0
230
1
50
360
0
POINT
5
174
100
AcDbEntity
8
Defpoints
62
0
6
ByLayer
370
-1
48
1
60
0
100
AcDbPoint
10
18.5
20
-16
30
0
39
0
210
0
220
0
230
1
50
360
0
POINT
5
175
100
AcDbEntity
8
Defpoints
62
0
6
ByLayer
370
-1
48
1
60
0
100
AcDbPoint
10
18.5
20
-95.5
30
0
39
0
210
0
220
0
230
1
50
360
0
ENDBLK
5
16A
100
AcDbEntity
8
0
100
AcDbBlockEnd
0
BLOCK
5
17E
100
AcDbEntity
8
0
100
AcDbBlockBegin
2
_U2
70
0
10
0
20
0
30
0
3
_U2
0
MTEXT
5
177
100
AcDbEntity
8
2
62
256
6
ByLayer
370
18
48
1
60
0
100
AcDbMText
10
134.636624
20
-87.869464
30
0
210
0
220
0
230
1
1
\W0.6337;63
40
14
41
0
44
1.084337
50
0
71
7
72
5
7
iso_b_vert
0
MTEXT
5
178
100
AcDbEntity
8
2
62
256
6
ByLayer
370
18
48
1
60
0
100
AcDbMText
10
99.636624
20
-87.869464
30
0
210
0
220
0
230
1
1
%%c
40
14
41
0
44
1.084337
50
0
71
7
72
5
7
iso_b_vert
0
LINE
5
179
100
AcDbEntity
8
2
62
256
6
ByLayer
370
35
48
1
60
0
100
AcDbLine
10
81.5
20
-17.5875
30
0
11
81.5
21
-105.5
31
0
39
0
210
0
220
0
230
1
0
LINE
5
17A
100
AcDbEntity
8
2
62
256
6
ByLayer
370
35
48
1
60
0
100
AcDbLine
10
18.5
20
-17.5875
30
0
11
18.5
21
-105.5
31
0
39
0
210
0
220
0
230
1
0
LINE
5
17B
100
AcDbEntity
8
2
62
256
6
ByLayer
370
35
48
1
60
0
100
AcDbLine
10
18.5
20
-95.5
30
0
11
150.618354
21
-95.5
31
0
39
0
210
0
220
0
230
1
0
SOLID
5
17C
100
AcDbEntity
8
2
62
256
6
ByLayer
370
18
48
1
60
0
100
AcDbTrace
10
81.5
20
-95.5
30
0
11
67.500009
21
-97.83275
31
0
12
67.499991
22
-93.16725
32
0
13
67.499991
23
-93.16725
33
0
39
0
210
0
220
0
230
1
0
SOLID
5
17D
100
AcDbEntity
8
2
62
256
6
ByLayer
370
18
48
1
60
0
100
AcDbTrace
10
18.5
20
-95.5
30
0
11
32.499991
21
-93.16725
31
0
12
32.500009
22
-97.83275
32
0
13
32.500009
23
-97.83275
33
0
39
0
210
0
220
0
230
1
0
ENDBLK
5
17F
100
AcDbEntity
8
0
100
AcDbBlockEnd
0
BLOCK
5
184
100
AcDbEntity
8
0
100
AcDbBlockBegin
2
*D7
70
1
10
0
20
0
30
0
3
*D7
0
LINE
5
186
100
AcDbEntity
8
0
62
256
6
ByLayer
370
-2
48
1
60
0
100
AcDbLine
10
-1.5875
20
132
30
0
11
-65.335518
21
132
31
0
39
0
210
0
220
0
230
1
0
LINE
5
187
100
AcDbEntity
8
0
62
256
6
ByLayer
370
-2
48
1
60
0
100
AcDbLine
10
16.9125
20
-16
30
0
11
-65.335518
21
-16
31
0
39
0
210
0
220
0
230
1
0
LINE
5
188
100
AcDbEntity
8
0
62
256
6
ByLayer
370
-2
48
1
60
0
100
AcDbLine
10
-55.335518
20
118
30
0
11
-55.335518
21
-2
31
0
39
0
210
0
220
0
230
1
0
SOLID
5
189
100
AcDbEntity
8
0
62
256
6
ByLayer
370
-1
48
1
60
0
100
AcDbTrace
10
-53.002185
20
118
30
0
11
-57.668852
21
118
31
0
12
-55.335518
22
132
32
0
13
-55.335518
23
132
33
0
39
0
210
0
220
0
230
1
0
SOLID
5
18A
100
AcDbEntity
8
0
62
256
6
ByLayer
370
-1
48
1
60
0
100
AcDbTrace
10
-57.668852
20
-2
30
0
11
-53.002185
21
-2
31
0
12
-55.335518
22
-16
32
0
13
-55.335518
23
-16
33
0
39
0
210
0
220
0
230
1
0
MTEXT
5
18B
100
AcDbEntity
8
0
62
256
6
ByLayer
370
18
48
1
60
0
100
AcDbMText
10
-83.335518
20
58
30
0
210
0
220
0
230
1
1
\A1;148
40
14
41
0
44
1
50
90
71
5
72
5
7
iso_b_vert
0
POINT
5
18C
100
AcDbEntity
8
Defpoints
62
0
6
ByLayer
370
-1
48
1
60
0
100
AcDbPoint
10
0
20
132
30
0
39
0
210
0
220
0
230
1
50
360
0
POINT
5
18D
100
AcDbEntity
8
Defpoints
62
0
6
ByLayer
370
-1
48
1
60
0
100
AcDbPoint
10
18.5
20
-16
30
0
39
0
210
0
220
0
230
1
50
360
0
POINT
5
18E
100
AcDbEntity
8
Defpoints
62
0
6
ByLayer
370
-1
48
1
60
0
100
AcDbPoint
10
-55.335518
20
-16
30
0
39
0
210
0
220
0
230
1
50
360
0
ENDBLK
5
185
100
AcDbEntity
8
0
100
AcDbBlockEnd
0
BLOCK
5
196
100
AcDbEntity
8
0
100
AcDbBlockBegin
2
_U3
70
0
10
0
20
0
30
0
3
_U3
0
MTEXT
5
190
100
AcDbEntity
8
SK2
62
256
6
ByLayer
370
18
48
1
60
0
100
AcDbMText
10
-58.094054
20
46.049869
30
0
210
0
220
0
230
1
1
\W0.6850;148
40
14
41
0
44
1.084337
50
90
71
7
72
5
7
iso_b_vert
0
LINE
5
191
100
AcDbEntity
8
SK2
62
256
6
ByLayer
370
35
48
1
60
0
100
AcDbLine
10
-1.5875
20
132
30
0
11
-65.335518
21
132
31
0
39
0
210
0
220
0
230
1
0
LINE
5
192
100
AcDbEntity
8
SK2
62
256
6
ByLayer
370
35
48
1
60
0
100
AcDbLine
10
16.9125
20
-16
30
0
11
-65.335518
21
-16
31
0
39
0
210
0
220
0
230
1
0
LINE
5
193
100
AcDbEntity
8
SK2
62
256
6
ByLayer
370
35
48
1
60
0
100
AcDbLine
10
-55.335518
20
132
30
0
11
-55.335518
21
-16
31
0
39
0
210
0
220
0
230
1
0
SOLID
5
194
100
AcDbEntity
8
SK2
62
256
6
ByLayer
370
18
48
1
60
0
100
AcDbTrace
10
-55.335518
20
132
30
0
11
-53.002768
21
118.000009
31
0
12
-57.668268
22
117.999991
32
0
13
-57.668268
23
117.999991
33
0
39
0
210
0
220
0
230
1
0
SOLID
5
195
100
AcDbEntity
8
SK2
62
256
6
ByLayer
370
18
48
1
60
0
100
AcDbTrace
10
-55.335518
20
-16
30
0
11
-57.668268
21
-2.000009
31
0
12
-53.002768
22
-1.999991
32
0
13
-53.002768
23
-1.999991
33
0
39
0
210
0
220
0
230
1
0
ENDBLK
5
197
100
AcDbEntity
8
0
100
AcDbBlockEnd
0
BLOCK
5
19C
100
AcDbEntity
8
0
100
AcDbBlockBegin
2
*D9
70
1
10
0
20
0
30
0
3
*D9
0
LINE
5
19E
100
AcDbEntity
8
0
62
256
6
ByLayer
370
-2
48
1
60
0
100
AcDbLine
10
-31.058511
20
0
30
0
11
142.540674
21
0
31
0
39
0
210
0
220
0
230
1
0
LINE
5
19F
100
AcDbEntity
8
0
62
256
6
ByLayer
370
-2
48
1
60
0
100
AcDbLine
10
51.5875
20
-16
30
0
11
142.540674
21
-16
31
0
39
0
210
0
220
0
230
1
0
LINE
5
1A0
100
AcDbEntity
8
0
62
256
6
ByLayer
370
-2
48
1
60
0
100
AcDbLine
10
132.540674
20
0
30
0
11
132.540674
21
90.666667
31
0
39
0
210
0
220
0
230
1
0
LINE
5
1A1
100
AcDbEntity
8
0
62
256
6
ByLayer
370
-2
48
1
60
0
100
AcDbLine
10
132.540674
20
14
30
0
11
132.540674
21
28
31
0
39
0
210
0
220
0
230
1
0
LINE
5
1A2
100
AcDbEntity
8
0
62
256
6
ByLayer
370
-2
48
1
60
0
100
AcDbLine
10
132.540674
20
-30
30
0
11
132.540674
21
-44
31
0
39
0
210
0
220
0
230
1
0
SOLID
5
1A3
100
AcDbEntity
8
0
62
256
6
ByLayer
370
-1
48
1
60
0
100
AcDbTrace
10
130.207341
20
14
30
0
11
134.874007
21
14
31
0
12
132.540674
22
0
32
0
13
132.540674
23
0
33
0
39
0
210
0
220
0
230
1
0
SOLID
5
1A4
100
AcDbEntity
8
0
62
256
6
ByLayer
370
-1
48
1
60
0
100
AcDbTrace
10
134.874007
20
-30
30
0
11
130.207341
21
-30
31
0
12
132.540674
22
-16
32
0
13
132.540674
23
-16
33
0
39
0
210
0
220
0
230
1
0
MTEXT
5
1A5
100
AcDbEntity
8
0
62
256
6
ByLayer
370
18
48
1
60
0
100
AcDbMText
10
104.540674
20
59.333333
30
0
210
0
220
0
230
1
1
\A1;16
40
14
41
0
44
1
50
90
71
5
72
5
7
iso_b_vert
0
POINT
5
1A6
100
AcDbEntity
8
Defpoints
62
0
6
ByLayer
370
-1
48
1
60
0
100
AcDbPoint
10
-32.646011
20
0
30
0
39
0
210
0
220
0
230
1
50
360
0
POINT
5
1A7
100
AcDbEntity
8
Defpoints
62
0
6
ByLayer
370
-1
48
1
60
0
100
AcDbPoint
10
50
20
-16
30
0
39
0
210
0
220
0
230
1
50
360
0
POINT
5
1A8
100
AcDbEntity
8
Defpoints
62
0
6
ByLayer
370
-1
48
1
60
0
100
AcDbPoint
10
132.540674
20
-16
30
0
39
0
210
0
220
0
230
1
50
360
0
ENDBLK
5
19D
100
AcDbEntity
8
0
100
AcDbBlockEnd
0
BLOCK
5
1B0
100
AcDbEntity
8
0
100
AcDbBlockBegin
2
_U4
70
0
10
0
20
0
30
0
3
_U4
0
MTEXT
5
1AA
100
AcDbEntity
8
2
62
256
6
ByLayer
370
18
48
1
60
0
100
AcDbMText
10
129.782138
20
22.414735
30
0
210
0
220
0
230
1
1
\W0.5560;16
40
14
41
0
44
1.084337
50
90
71
7
72
5
7
iso_b_vert
0
LINE
5
1AB
100
AcDbEntity
8
2
62
256
6
ByLayer
370
35
48
1
60
0
100
AcDbLine
10
1.5875
20
0
30
0
11
142.540674
21
0
31
0
39
0
210
0
220
0
230
1
0
LINE
5
1AC
100
AcDbEntity
8
2
62
256
6
ByLayer
370
35
48
1
60
0
100
AcDbLine
10
51.5875
20
-16
30
0
11
142.540674
21
-16
31
0
39
0
210
0
220
0
230
1
0
LINE
5
1AD
100
AcDbEntity
8
2
62
256
6
ByLayer
370
35
48
1
60
0
100
AcDbLine
10
132.540674
20
-51
30
0
11
132.540674
21
35.008999
31
0
39
0
210
0
220
0
230
1
0
SOLID
5
1AE
100
AcDbEntity
8
2
62
256
6
ByLayer
370
18
48
1
60
0
100
AcDbTrace
10
132.540674
20
0
30
0
11
130.207924
21
13.999991
31
0
12
134.873424
22
14.000009
32
0
13
134.873424
23
14.000009
33
0
39
0
210
0
220
0
230
1
0
SOLID
5
1AF
100
AcDbEntity
8
2
62
256
6
ByLayer
370
18
48
1
60
0
100
AcDbTrace
10
132.540674
20
-16
30
0
11
134.873424
21
-29.999991
31
0
12
130.207924
22
-30.000009
32
0
13
130.207924
23
-30.000009
33
0
39
0
210
0
220
0
230
1
0
ENDBLK
5
1B1
100
AcDbEntity
8
0
100
AcDbBlockEnd
0
ENDSEC
0
SECTION
2
ENTITIES
0
ARC
5
121
100
AcDbEntity
8
1
62
256
6
ByLayer
370
18
48
1
60
0
100
AcDbCircle
39
0
10
82.832945
20
58
30
0
40
9.99999999999998
210
0
220
0
230
1
100
AcDbArc
50
336.449174
51
346.11346
0
ARC
5
122
100
AcDbEntity
8
1
62
256
6
ByLayer
370
18
48
1
60
0
100
AcDbCircle
39
0
10
82.832945
20
58
30
0
40
10
210
0
220
0
230
1
100
AcDbArc
50
13.88654
51
23.550826
0
ARC
5
123
100
AcDbEntity
8
1
62
256
6
ByLayer
370
18
48
1
60
0
100
AcDbCircle
39
0
10
103
20
30
30
0
40
12.9999999999996
210
0
220
0
230
1
100
AcDbArc
50
147.795772
51
212.204228
0
ARC
5
124
100
AcDbEntity
8
1
62
256
6
ByLayer
370
18
48
1
60
0
100
AcDbCircle
39
0
10
103
20
110
30
0
40
13.0000000000071
210
0
220
0
230
1
100
AcDbArc
50
147.795772
51
212.204228
0
POINT
5
70
100
AcDbEntity
8
81
62
256
6
ByLayer
370
18
48
1
60
0
100
AcDbPoint
10
50
20
-16
30
0
39
0
210
0
220
0
230
1
50
360
0
POINT
5
72
100
AcDbEntity
8
80
62
256
6
ByLayer
370
18
48
1
60
0
100
AcDbPoint
10
0
20
0
30
0
39
0
210
0
220
0
230
1
50
360
0
POINT
5
74
100
AcDbEntity
8
1
62
256
6
ByLayer
370
13
48
1
60
1
100
AcDbPoint
10
461.895414
20
173.312342
30
0
39
0
210
0
220
0
230
1
50
360
0
POINT
5
76
100
AcDbEntity
8
1
62
256
6
ByLayer
370
13
48
1
60
1
100
AcDbPoint
10
461.895414
20
169.812342
30
0
39
0
210
0
220
0
230
1
50
360
0
POINT
5
77
100
AcDbEntity
8
1
62
256
6
ByLayer
370
13
48
1
60
1
100
AcDbPoint
10
517.834265
20
179.325084
30
0
39
0
210
0
220
0
230
1
50
360
0
POINT
5
78
100
AcDbEntity
8
1
62
256
6
ByLayer
370
13
48
1
60
1
100
AcDbPoint
10
517.834265
20
175.825084
30
0
39
0
210
0
220
0
230
1
50
360
0
POINT
5
79
100
AcDbEntity
8
1
62
256
6
ByLayer
370
13
48
1
60
1
100
AcDbPoint
10
411.57855
20
261.848249
30
0
39
0
210
0
220
0
230
1
50
360
0
POINT
5
7A
100
AcDbEntity
8
1
62
256
6
ByLayer
370
13
48
1
60
1
100
AcDbPoint
10
415.07855
20
261.848249
30
0
39
0
210
0
220
0
230
1
50
360
0
POINT
5
7B
100
AcDbEntity
8
1
62
256
6
ByLayer
370
13
48
1
60
1
100
AcDbPoint
10
380.748255
20
184.075951
30
0
39
0
210
0
220
0
230
1
50
360
0
POINT
5
7C
100
AcDbEntity
8
1
62
256
6
ByLayer
370
13
48
1
60
1
100
AcDbPoint
10
365.248255
20
184.075951
30
0
39
0
210
0
220
0
230
1
50
360
0
POINT
5
7D
100
AcDbEntity
8
1
62
256
6
ByLayer
370
13
48
1
60
1
100
AcDbPoint
10
353.657407
20
240.553676
30
0
39
0
210
0
220
0
230
1
50
360
0
POINT
5
7E
100
AcDbEntity
8
1
62
256
6
ByLayer
370
13
48
1
60
1
100
AcDbPoint
10
338.157407
20
240.553676
30
0
39
0
210
0
220
0
230
1
50
360
0
POINT
5
7F
100
AcDbEntity
8
1
62
256
6
ByLayer
370
13
48
1
60
1
100
AcDbPoint
10
435.859893
20
260.896276
30
0
39
0
210
0
220
0
230
1
50
360
0
POINT
5
80
100
AcDbEntity
8
1
62
256
6
ByLayer
370
13
48
1
60
1
100
AcDbPoint
10
439.559893
20
260.896276
30
0
39
0
210
0
220
0
230
1
50
360
0
POINT
5
81
100
AcDbEntity
8
1
62
256
6
ByLayer
370
13
48
1
60
1
100
AcDbPoint
10
431.559893
20
260.896276
30
0
39
0
210
0
220
0
230
1
50
360
0
POINT
5
82
100
AcDbEntity
8
1
62
256
6
ByLayer
370
13
48
1
60
1
100
AcDbPoint
10
447.559893
20
260.896276
30
0
39
0
210
0
220
0
230
1
50
360
0
POINT
5
83
100
AcDbEntity
8
1
62
256
6
ByLayer
370
13
48
1
60
1
100
AcDbPoint
10
338.049399
20
215.11658
30
0
39
0
210
0
220
0
230
1
50
360
0
POINT
5
84
100
AcDbEntity
8
1
62
256
6
ByLayer
370
13
48
1
60
1
100
AcDbPoint
10
338.049399
20
137.93158
30
0
39
0
210
0
220
0
230
1
50
360
0
POINT
5
85
100
AcDbEntity
8
1
62
256
6
ByLayer
370
13
48
1
60
1
100
AcDbPoint
10
423.149682
20
185.578232
30
0
39
0
210
0
220
0
230
1
50
360
0
POINT
5
86
100
AcDbEntity
8
1
62
256
6
ByLayer
370
13
48
1
60
1
100
AcDbPoint
10
330.749682
20
185.578232
30
0
39
0
210
0
220
0
230
1
50
360
0
POINT
5
87
100
AcDbEntity
8
1
62
256
6
ByLayer
370
13
48
1
60
1
100
AcDbPoint
10
423.149682
20
265.578232
30
0
39
0
210
0
220
0
230
1
50
360
0
POINT
5
88
100
AcDbEntity
8
1
62
256
6
ByLayer
370
13
48
1
60
1
100
AcDbPoint
10
330.749682
20
265.578232
30
0
39
0
210
0
220
0
230
1
50
360
0
SPLINE
5
125
100
AcDbEntity
8
SK3
62
256
6
ByLayer
370
18
48
0.05
60
0
100
AcDbSpline
70
4
71
3
72
254
73
250
40
0
40
0
40
0
40
0
40
0.0069444383789798
40
0.0069444383789798
40
0.0138889049518339
40
0.0138889049518339
40
0.0243055628708558
40
0.0243055628708558
40
0.0347222207898754
40
0.0347222207898754
40
0.0451388787088924
40
0.0451388787088924
40
0.0555555641207098
40
0.0555555641207098
40
0.0625000032008195
40
0.0625000032008195
40
0.069444441579806
40
0.069444441579806
40
0.0755208182005871
40
0.0755208182005871
40
0.0815972237163988
40
0.0815972237163988
40
0.0869140670059992
40
0.0869140670059992
40
0.0922309109966902
40
0.0922309109966902
40
0.101535366659712
40
0.101535366659712
40
0.110839850516606
40
0.110839850516606
40
0.117818198961785
40
0.117818198961785
40
0.124796548108105
40
0.124796548108105
40
0.135264071126432
40
0.135264071126432
40
0.145731594845923
40
0.145731594845923
40
0.15619911786425
40
0.15619911786425
40
0.166666669777606
40
0.166666669777606
40
0.173611108156612
40
0.173611108156612
40
0.180555547236756
40
0.180555547236756
40
0.186631924558716
40
0.186631924558716
40
0.192708330074544
40
0.192708330074544
40
0.198025174065247
40
0.198025174065247
40
0.203341989862079
40
0.203341989862079
40
0.212646474420171
40
0.212646474420171
40
0.221950930083209
40
0.221950930083209
40
0.228929307423411
40
0.228929307423411
40
0.235907656569746
40
0.235907656569746
40
0.246375180990485
40
0.246375180990485
40
0.256842704709987
40
0.256842704709987
40
0.267310228429489
40
0.267310228429489
40
0.277777752850228
40
0.277777752850228
40
0.284722220124241
40
0.284722220124241
40
0.291666659204385
40
0.291666659204385
40
0.297743037227629
40
0.297743037227629
40
0.303819442743456
40
0.303819442743456
40
0.309136258540285
40
0.309136258540285
40
0.314453103232221
40
0.314453103232221
40
0.323757587790309
40
0.323757587790309
40
0.333062044855804
40
0.333062044855804
40
0.340040394002135
40
0.340040394002135
40
0.347018743849721
40
0.347018743849721
40
0.357486296464318
40
0.357486296464318
40
0.367953820885049
40
0.367953820885049
40
0.378421345305779
40
0.378421345305779
40
0.38888886972651
40
0.38888886972651
40
0.395833309507895
40
0.395833309507895
40
0.402777749289281
40
0.402777749289281
40
0.408854155506387
40
0.408854155506387
40
0.414930533529629
40
0.414930533529629
40
0.420247378221568
40
0.420247378221568
40
0.425564222913504
40
0.425564222913504
40
0.434868679978992
40
0.434868679978992
40
0.444173165238343
40
0.444173165238343
40
0.451151515085922
40
0.451151515085922
40
0.458129864933501
40
0.458129864933501
40
0.468597390055535
40
0.468597390055535
40
0.479064915177572
40
0.479064915177572
40
0.489532440299611
40
0.489532440299611
40
0.499999965421654
40
0.499999965421654
40
0.506944434098262
40
0.506944434098262
40
0.513888873879647
40
0.513888873879647
40
0.519965251902892
40
0.519965251902892
40
0.526041658120003
40
0.526041658120003
40
0.53135847531947
40
0.53135847531947
40
0.53667532001141
40
0.53667532001141
40
0.545979805972124
40
0.545979805972124
40
0.555284263738974
40
0.555284263738974
40
0.56226261428793
40
0.56226261428793
40
0.569240964135516
40
0.569240964135516
40
0.579708489958952
40
0.579708489958952
40
0.590176043976249
40
0.590176043976249
40
0.600643569799685
40
0.600643569799685
40
0.611111095623123
40
0.611111095623123
40
0.618055536105872
40
0.618055536105872
40
0.624999976588621
40
0.624999976588621
40
0.63107635461187
40
0.63107635461187
40
0.637152761530398
40
0.637152761530398
40
0.642469606923729
40
0.642469606923729
40
0.647786424123197
40
0.647786424123197
40
0.657090910083917
40
0.657090910083917
40
0.666395368552215
40
0.666395368552215
40
0.673373719101176
40
0.673373719101176
40
0.680352097844002
40
0.680352097844002
40
0.69081962436891
40
0.69081962436891
40
0.701287150192353
40
0.701287150192353
40
0.711754676717261
40
0.711754676717261
40
0.722222203242166
40
0.722222203242166
40
0.729166643724918
40
0.729166643724918
40
0.736111084909144
40
0.736111084909144
40
0.742187491827675
40
0.742187491827675
40
0.748263870552341
40
0.748263870552341
40
0.753580716647208
40
0.753580716647208
40
0.758897562040541
40
0.758897562040541
40
0.76820202050885
40
0.76820202050885
40
0.777506479678686
40
0.777506479678686
40
0.784484858421517
40
0.784484858421517
40
0.791463209671967
40
0.791463209671967
40
0.801930736898426
40
0.801930736898426
40
0.812398263423344
40
0.812398263423344
40
0.822865789948262
40
0.822865789948262
40
0.833333317174721
40
0.833333317174721
40
0.840277758358953
40
0.840277758358953
40
0.847222199543186
40
0.847222199543186
40
0.853298607163265
40
0.853298607163265
40
0.859374986589486
40
0.859374986589486
40
0.864691831982821
40
0.864691831982821
40
0.870008678077694
40
0.870008678077694
40
0.879313137247531
40
0.879313137247531
40
0.888617596417368
40
0.888617596417368
40
0.895595947667821
40
0.895595947667821
40
0.902574327813729
40
0.902574327813729
40
0.913041855040188
40
0.913041855040188
40
0.923509382266644
40
0.923509382266644
40
0.93397691019472
40
0.93397691019472
40
0.944444437421179
40
0.944444437421179
40
0.951388879306996
40
0.951388879306996
40
0.958333320491224
40
0.958333320491224
40
0.96874998331995
40
0.96874998331995
40
0.979166646148679
40
0.979166646148679
40
0.989583337171267
40
0.989583337171267
40
1
40
1
40
1
40
1
41
1
10
28.858676
20
21.4
30
0
41
1
10
28.8566356666667
20
21.3179473333333
30
0
41
1
10
28.8545953333334
20
21.2358946666666
30
0
41
1
10
28.850514658383
20
21.071789000206
30
0
41
1
10
28.8484743333333
20
20.989736
30
0
41
1
10
28.8433735123224
20
20.7846039955491
30
0
41
1
10
28.8403126666667
20
20.661525
30
0
41
1
10
28.8341913333333
20
20.415367
30
0
41
1
10
28.8311306666666
20
20.292288
30
0
41
1
10
28.8250093333333
20
20.04613
30
0
41
1
10
28.8219486666666
20
19.923051
30
0
41
1
10
28.8158273252554
20
19.6768926751562
30
0
41
1
10
28.8127673333333
20
19.5538133333333
30
0
41
1
10
28.8076667830252
20
19.3486813221506
30
0
41
1
10
28.8056256666667
20
19.2666286666667
30
0
41
1
10
28.8015443335394
20
19.1025233416176
30
0
41
1
10
28.7995043333333
20
19.0204706666667
30
0
41
1
10
28.7956787103786
20
18.866621998913
30
0
41
1
10
28.7938933333333
20
18.794826
30
0
41
1
10
28.7903226581769
20
18.6512336585881
30
0
41
1
10
28.7885366666666
20
18.5794373333333
30
0
41
1
10
28.7851885450569
20
18.4448193446467
30
0
41
1
10
28.783627
20
18.3819976666667
30
0
41
1
10
28.7805029997941
20
18.2563543250495
30
0
41
1
10
28.7789403333333
20
18.1935326666666
30
0
41
1
10
28.7746439229319
20
18.0207733352499
30
0
41
1
10
28.7719100000001
20
17.9108356666667
30
0
41
1
10
28.7664419917157
20
17.690960000206
30
0
41
1
10
28.763708
20
17.581022
30
0
41
1
10
28.7589235042452
20
17.3886306707057
30
0
41
1
10
28.7568733333334
20
17.3061773333333
30
0
41
1
10
28.7527726664607
20
17.1412706583822
30
0
41
1
10
28.7507216666667
20
17.0588173333333
30
0
41
1
10
28.745595000206
20
16.8526840082847
30
0
41
1
10
28.7425196666667
20
16.729004
30
0
41
1
10
28.7363683331273
20
16.4816439917154
30
0
41
1
10
28.733292
20
16.357964
30
0
41
1
10
28.727140000206
20
16.1106040082846
30
0
41
1
10
28.7240646666666
20
15.986924
30
0
41
1
10
28.7179133248431
20
15.7395636585881
30
0
41
1
10
28.7148369999999
20
15.6158833333333
30
0
41
1
10
28.7097203038916
20
15.4101503423549
30
0
41
1
10
28.7076803333333
20
15.3280976666667
30
0
41
1
10
28.7035996664607
20
15.163992325049
30
0
41
1
10
28.7015586666667
20
15.0819396666666
30
0
41
1
10
28.6977324186864
20
14.9280909978772
30
0
41
1
10
28.6959466666667
20
14.856295
30
0
41
1
10
28.692375325048
20
14.7127026668727
30
0
41
1
10
28.6905896666667
20
14.6409063333333
30
0
41
1
10
28.687241544851
20
14.5062883363629
30
0
41
1
10
28.6856793333333
20
14.4434666666667
30
0
41
1
10
28.6825546749515
20
14.3178236664606
30
0
41
1
10
28.6809923333333
20
14.2550023333333
30
0
41
1
10
28.6766958999426
20
14.0822429941983
30
0
41
1
10
28.6739613333333
20
13.972305
30
0
41
1
10
28.6684926751581
20
13.7524293414121
30
0
41
1
10
28.665759
20
13.6424916666666
30
0
41
1
10
28.6609744895414
20
13.4501003294485
30
0
41
1
10
28.6589236666667
20
13.3676466666666
30
0
41
1
10
28.6548223416184
20
13.2027396664606
30
0
41
1
10
28.6527716666666
20
13.1202863333333
30
0
41
1
10
28.6476449997938
20
12.9141529917145
30
0
41
1
10
28.6445683333333
20
12.790473
30
0
41
1
10
28.6384156668729
20
12.5431130082855
30
0
41
1
10
28.63534
20
12.419433
30
0
41
1
10
28.6291880000001
20
12.172073
30
0
41
1
10
28.626112
20
12.048393
30
0
41
1
10
28.6199599997939
20
11.8010329917145
30
0
41
1
10
28.6168833333333
20
11.677353
30
0
41
1
10
28.6117660688974
20
11.471620006577
30
0
41
1
10
28.6097256666666
20
11.389567
30
0
41
1
10
28.6056443416183
20
11.2254613331273
30
0
41
1
10
28.6036036666666
20
11.1434086666667
30
0
41
1
10
28.5997774184804
20
10.9895599895911
30
0
41
1
10
28.597991
20
10.917764
30
0
41
1
10
28.5944189919193
20
10.7741716751589
30
0
41
1
10
28.5926336666667
20
10.7023753333333
30
0
41
1
10
28.5892855531362
20
10.5677576694902
30
0
41
1
10
28.5877233333334
20
10.5049363333333
30
0
41
1
10
28.5845986581759
20
10.3792933252538
30
0
41
1
10
28.5830356666667
20
10.3164716666666
30
0
41
1
10
28.5787383314679
20
10.1437120083375
30
0
41
1
10
28.5760043333333
20
10.033774
30
0
41
1
10
28.5705356747459
20
9.81389832484129
30
0
41
1
10
28.5678006666666
20
9.70396066666666
30
0
41
1
10
28.5630149981345
20
9.51156967500393
30
0
41
1
10
28.5609646666667
20
9.42911633333333
30
0
41
1
10
28.5568633331272
20
9.26420965838091
30
0
41
1
10
28.554812
20
9.18175633333334
30
0
41
1
10
28.5496844918166
20
8.97562267101586
30
0
41
1
10
28.5466083333333
20
8.85194233333331
30
0
41
1
10
28.5404556749526
20
8.60458199979385
30
0
41
1
10
28.5373793333333
20
8.48090199999999
30
0
41
1
10
28.5312266666667
20
8.23354199999997
30
0
41
1
10
28.5281503333334
20
8.10986199999999
30
0
41
1
10
28.5219976666667
20
7.86250199999998
30
0
41
1
10
28.5189213333334
20
7.738822
30
0
41
1
10
28.5138040769773
20
7.53308933141861
30
0
41
1
10
28.511763
20
7.45103666666665
30
0
41
1
10
28.5076810000001
20
7.28693133333331
30
0
41
1
10
28.50564
20
7.20487866666664
30
0
41
1
10
28.501813118708
20
7.05102966371379
30
0
41
1
10
28.500027
20
6.97923333333333
30
0
41
1
10
28.496455008287
20
6.83564099979384
30
0
41
1
10
28.494669
20
6.76384499999998
30
0
41
1
10
28.4913202459081
20
6.62922733550806
30
0
41
1
10
28.4897576666667
20
6.56640566666667
30
0
41
1
10
28.4866323333334
20
6.44076233333334
30
0
41
1
10
28.4850696666667
20
6.37794066666666
30
0
41
1
10
28.4807723395481
20
6.20518133317873
30
0
41
1
10
28.4780376666666
20
6.09524366666665
30
0
41
1
10
28.4725683250469
20
5.87536800020612
30
0
41
1
10
28.4698336666667
20
5.76542999999998
30
0
41
1
10
28.4650480041432
20
5.5730386665636
30
0
41
1
10
28.462997
20
5.49058533333331
30
0
41
1
10
28.458895
20
5.32567866666668
30
0
41
1
10
28.456844
20
5.24322533333333
30
0
41
1
10
28.4517164998969
20
5.03709199585666
30
0
41
1
10
28.4486396666667
20
4.91341199999996
30
0
41
1
10
28.4424863333334
20
4.66605199999998
30
0
41
1
10
28.4394096666666
20
4.54237199999997
30
0
41
1
10
28.4332563333334
20
4.29501199999999
30
0
41
1
10
28.4301796666667
20
4.17133199999998
30
0
41
1
10
28.4240263333332
20
3.92397199999996
30
0
41
1
10
28.4209496666667
20
3.80029199999999
30
0
41
1
10
28.4158318474786
20
3.5945589955019
30
0
41
1
10
28.4137903333333
20
3.512506
30
0
41
1
10
28.4097076751604
20
3.34840034141413
30
0
41
1
10
28.407667
20
3.26634766666663
30
0
41
1
10
28.4038401269943
20
3.11249899684097
30
0
41
1
10
28.402054
20
3.04070299999998
30
0
41
1
10
28.3984819917131
20
2.89711066687278
30
0
41
1
10
28.396696
20
2.8253143333333
30
0
41
1
10
28.3933472612397
20
2.6906966601675
30
0
41
1
10
28.391784
20
2.62787533333332
30
0
41
1
10
28.3886579919179
20
2.50223234182684
30
0
41
1
10
28.3870956666666
20
2.43941066666667
30
0
41
1
10
28.3827983310557
20
2.26665099176461
30
0
41
1
10
28.380063
20
2.156713
30
0
41
1
10
28.3745930082874
20
1.93683733312716
30
0
41
1
10
28.371858
20
1.82689966666666
30
0
41
1
10
28.3670717478766
20
1.63450866464632
30
0
41
1
10
28.3650203333333
20
1.5520553333333
30
0
41
1
10
28.360917666873
20
1.38714867495375
30
0
41
1
10
28.358867
20
1.30469533333331
30
0
41
1
10
28.3537394996906
20
1.09856198756933
30
0
41
1
10
28.3506619999999
20
0.974882000000008
30
0
41
1
10
28.3445079917121
20
0.727521666872832
30
0
41
1
10
28.3414309999999
20
0.603841333333293
30
0
41
1
10
28.3352770082877
20
0.356480999793774
30
0
41
1
10
28.3321999999999
20
0.232800999999967
30
0
41
1
10
28.3260459999999
20
-0.0145590000000198
30
0
41
1
10
28.3229689999999
20
-0.138239000000027
30
0
41
1
10
28.3178506347599
20
-0.343971665872886
30
0
41
1
10
28.3158093333333
20
-0.426024333333345
30
0
41
1
10
28.3117266666666
20
-0.590129666666684
30
0
41
1
10
28.3096853333333
20
-0.672182333333382
30
0
41
1
10
28.3058578355082
20
-0.826030995907928
30
0
41
1
10
28.304072
20
-0.897827000000035
30
0
41
1
10
28.3004999915069
20
-1.04141934141481
30
0
41
1
10
28.2987133333333
20
-1.11321566666666
30
0
41
1
10
28.2953639614673
20
-1.24783366570799
30
0
41
1
10
28.293801
20
-1.31065533333336
30
0
41
1
10
28.2906750082881
20
-1.43629833353953
30
0
41
1
10
28.289112
20
-1.49911966666667
30
0
41
1
10
28.2848137335781
20
-1.67187899337174
30
0
41
1
10
28.282079
20
-1.78181700000002
30
0
41
1
10
28.2766090080813
20
-2.0016926751608
30
0
41
1
10
28.2738733333334
20
-2.11163033333335
30
0
41
1
10
28.269086498031
20
-2.30402132913773
30
0
41
1
10
28.2670353333334
20
-2.38647466666669
30
0
41
1
10
28.2629326583788
20
-2.55138166646049
30
0
41
1
10
28.2608813333333
20
-2.63383533333334
30
0
41
1
10
28.2557530122256
20
-2.83996900859754
30
0
41
1
10
28.2526753333333
20
-2.963649
30
0
41
1
10
28.2465206668729
20
-3.21100899171179
30
0
41
1
10
28.243444
20
-3.334689
30
0
41
1
10
28.2372899997937
20
-3.58204900828824
30
0
41
1
10
28.2342123333334
20
-3.70572899999999
30
0
41
1
10
28.2280576666665
20
-3.95308900000003
30
0
41
1
10
28.2249803333333
20
-4.07676900000004
30
0
41
1
10
28.2198614137544
20
-4.28250166037427
30
0
41
1
10
28.2178203333334
20
-4.36455433333336
30
0
41
1
10
28.2137376664604
20
-4.52865967495498
30
0
41
1
10
28.2116956666667
20
-4.61071233333334
30
0
41
1
10
28.2078675355273
20
-4.76456133007042
30
0
41
1
10
28.2060813333334
20
-4.83635766666669
30
0
41
1
10
28.2025086749549
20
-4.97995000020623
30
0
41
1
10
28.2007223333333
20
-5.05174600000001
30
0
41
1
10
28.1973729540088
20
-5.18636367381663
30
0
41
1
10
28.1958093333334
20
-5.24918533333337
30
0
41
1
10
28.1926826668728
20
-5.37482865837762
30
0
41
1
10
28.19112
20
-5.43765033333335
30
0
41
1
10
28.1868217561645
20
-5.61040966889342
30
0
41
1
10
28.1840863333333
20
-5.72034733333334
30
0
41
1
10
28.1786156664605
20
-5.94022267495563
30
0
41
1
10
28.1758796666667
20
-6.05016033333334
30
0
41
1
10
28.1710922398959
20
-6.24255165604808
30
0
41
1
10
28.1690413333334
20
-6.32500533333334
30
0
41
1
10
28.1649386747482
20
-6.48991234182796
30
0
41
1
10
28.1628866666667
20
-6.57236566666668
30
0
41
1
10
28.1577574998969
20
-6.77849900414472
30
0
41
1
10
28.1546796666667
20
-6.90217900000002
30
0
41
1
10
28.1485243335395
20
-7.1495389917109
30
0
41
1
10
28.1454473333333
20
-7.27321900000001
30
0
41
1
10
28.1392926666667
20
-7.52057900000003
30
0
41
1
10
28.1362153333333
20
-7.64425900000001
30
0
41
1
10
28.1300606664604
20
-7.89161900828915
30
0
41
1
10
28.1269826666666
20
-8.015299
30
0
41
1
10
28.1218631925426
20
-8.22103166316336
30
0
41
1
10
28.1198216666666
20
-8.30308433333337
30
0
41
1
10
28.1157383333334
20
-8.46718966666668
30
0
41
1
10
28.1136966666667
20
-8.54924233333335
30
0
41
1
10
28.109868535321
20
-8.70309133835954
30
0
41
1
10
28.1080816666666
20
-8.77488766666667
30
0
41
1
10
28.1045083416233
20
-8.9184800002063
30
0
41
1
10
28.1027216666667
20
-8.99027600000002
30
0
41
1
10
28.0993716627279
20
-9.12489365827443
30
0
41
1
10
28.097809
20
-9.18771533333333
30
0
41
1
10
28.0946829997938
20
-9.31335867495577
30
0
41
1
10
28.0931193333333
20
-9.37618033333334
30
0
41
1
10
28.0888201729873
20
-9.54893966267659
30
0
41
1
10
28.0860846666666
20
-9.65887733333335
30
0
41
1
10
28.0806133333333
20
-9.87875266666668
30
0
41
1
10
28.0778776666667
20
-9.98869033333335
30
0
41
1
10
28.0730902479792
20
-10.1810813312094
30
0
41
1
10
28.0710386666666
20
-10.2635346666667
30
0
41
1
10
28.0669353248379
20
-10.4284416747502
30
0
41
1
10
28.0648830000001
20
-10.5108953333334
30
0
41
1
10
28.0597530126419
20
-10.7170289920195
30
0
41
1
10
28.0566756666666
20
-10.840709
30
0
41
1
10
28.0505203333332
20
-11.088069
30
0
41
1
10
28.0474426666666
20
-11.211749
30
0
41
1
10
28.0412873331272
20
-11.4591090082901
30
0
41
1
10
28.0382089999999
20
-11.582789
30
0
41
1
10
28.0320530002063
20
-11.83014899171
30
0
41
1
10
28.0289756666667
20
-11.953829
30
0
41
1
10
28.0238561923363
20
-12.159561671453
30
0
41
1
10
28.021814
20
-12.2416143333333
30
0
41
1
10
28.0177300002063
20
-12.405719658377
30
0
41
1
10
28.0156886666667
20
-12.4877723333333
30
0
41
1
10
28.0105844996907
20
-12.6929040124345
30
0
41
1
10
28.0075209999999
20
-12.815983
30
0
41
1
10
28.0013950000001
20
-13.062141
30
0
41
1
10
27.998332
20
-13.18522
30
0
41
1
10
27.9922059917096
20
-13.431378333127
30
0
41
1
10
27.9891430000001
20
-13.5544576666667
30
0
41
1
10
27.9830170082903
20
-13.8006160002063
30
0
41
1
10
27.979954
20
-13.923695
30
0
41
1
10
27.976891
20
-14.046774
30
0
0
SPLINE
5
127
100
AcDbEntity
8
SK3
62
256
6
ByLayer
370
18
48
0.05
60
0
100
AcDbSpline
70
4
71
3
72
294
73
290
40
0
40
0
40
0
40
0
40
0.0069444420961657
40
0.0069444420961657
40
0.0138888841923315
40
0.0138888841923315
40
0.0190972293349303
40
0.0190972293349303
40
0.0243055751794773
40
0.0243055751794773
40
0.0321180513045344
40
0.0321180513045344
40
0.0399305556234333
40
0.0399305556234333
40
0.0477430599423321
40
0.0477430599423321
40
0.0555555635593068
40
0.0555555635593068
40
0.0625000056554726
40
0.0625000056554726
40
0.0694444477516409
40
0.0694444477516409
40
0.0755208551169795
40
0.0755208551169795
40
0.081597234990414
40
0.081597234990414
40
0.0869140810378669
40
0.0869140810378669
40
0.0922309270853198
40
0.0922309270853198
40
0.101535386522981
40
0.101535386522981
40
0.110839845960642
40
0.110839845960642
40
0.117818198113812
40
0.117818198113812
40
0.124796549565041
40
0.124796549565041
40
0.130030312802541
40
0.130030312802541
40
0.135264076741921
40
0.135264076741921
40
0.143114750493864
40
0.143114750493864
40
0.150965396051965
40
0.150965396051965
40
0.158816041610068
40
0.158816041610068
40
0.166666686466314
40
0.166666686466314
40
0.173611128562473
40
0.173611128562473
40
0.1805555699567
40
0.1805555699567
40
0.186631949128189
40
0.186631949128189
40
0.192708355791717
40
0.192708355791717
40
0.198025173645324
40
0.198025173645324
40
0.203342019692772
40
0.203342019692772
40
0.212646506622401
40
0.212646506622401
40
0.221950965358186
40
0.221950965358186
40
0.228929316809411
40
0.228929316809411
40
0.235907668260635
40
0.235907668260635
40
0.24114143149813
40
0.24114143149813
40
0.246375194735625
40
0.246375194735625
40
0.254225839591869
40
0.254225839591869
40
0.262076484448113
40
0.262076484448113
40
0.269927158200057
40
0.269927158200057
40
0.277777803056302
40
0.277777803056302
40
0.284722243748713
40
0.284722243748713
40
0.291666684441124
40
0.291666684441124
40
0.297743063612613
40
0.297743063612613
40
0.30381947027614
40
0.30381947027614
40
0.309136288129742
40
0.309136288129742
40
0.314453133475353
40
0.314453133475353
40
0.323757619703198
40
0.323757619703198
40
0.33306207843898
40
0.33306207843898
40
0.340040429188378
40
0.340040429188378
40
0.347018779937779
40
0.347018779937779
40
0.352252542473543
40
0.352252542473543
40
0.357486305711039
40
0.357486305711039
40
0.365336950567283
40
0.365336950567283
40
0.37318762291562
40
0.37318762291562
40
0.381038267771865
40
0.381038267771865
40
0.388888911926353
40
0.388888911926353
40
0.395833352618766
40
0.395833352618766
40
0.402777793311178
40
0.402777793311178
40
0.408854171079177
40
0.408854171079177
40
0.414930577742702
40
0.414930577742702
40
0.420247423088313
40
0.420247423088313
40
0.425564240240075
40
0.425564240240075
40
0.434868725766222
40
0.434868725766222
40
0.44417318380022
40
0.44417318380022
40
0.451151533847908
40
0.451151533847908
40
0.458129884597305
40
0.458129884597305
40
0.46336367532692
40
0.46336367532692
40
0.468597437862688
40
0.468597437862688
40
0.47644808201718
40
0.47644808201718
40
0.484298726171673
40
0.484298726171673
40
0.492149370326165
40
0.492149370326165
40
0.500000013779003
40
0.500000013779003
40
0.506944454471418
40
0.506944454471418
40
0.513888894462132
40
0.513888894462132
40
0.519965300423985
40
0.519965300423985
40
0.526041678191988
40
0.526041678191988
40
0.531358523537603
40
0.531358523537603
40
0.536675368181531
40
0.536675368181531
40
0.54597982551383
40
0.54597982551383
40
0.555284310338367
40
0.555284310338367
40
0.562262660386052
40
0.562262660386052
40
0.569241010433737
40
0.569241010433737
40
0.574474772969501
40
0.574474772969501
40
0.579708535505268
40
0.579708535505268
40
0.587559178958104
40
0.587559178958104
40
0.595409822410939
40
0.595409822410939
40
0.603260465863777
40
0.603260465863777
40
0.611111137510466
40
0.611111137510466
40
0.618055576799592
40
0.618055576799592
40
0.625000016790306
40
0.625000016790306
40
0.631076394558313
40
0.631076394558313
40
0.637152799818626
40
0.637152799818626
40
0.64246961626871
40
0.64246961626871
40
0.647786460912642
40
0.647786460912642
40
0.657090945737189
40
0.657090945737189
40
0.666395402367885
40
0.666395402367885
40
0.67337375171398
40
0.67337375171398
40
0.68035212925393
40
0.68035212925393
40
0.685585891789701
40
0.685585891789701
40
0.690819653623893
40
0.690819653623893
40
0.698670296375183
40
0.698670296375183
40
0.706520939828027
40
0.706520939828027
40
0.714371582579316
40
0.714371582579316
40
0.722222225330606
40
0.722222225330606
40
0.729166664619737
40
0.729166664619737
40
0.736111132102721
40
0.736111132102721
40
0.742187509169185
40
0.742187509169185
40
0.748263886937197
40
0.748263886937197
40
0.753580730879597
40
0.753580730879597
40
0.758897574821998
40
0.758897574821998
40
0.768202058945031
40
0.768202058945031
40
0.777506515575738
40
0.777506515575738
40
0.784484864220356
40
0.784484864220356
40
0.791463213566461
40
0.791463213566461
40
0.796696975400658
40
0.796696975400658
40
0.801930764727285
40
0.801930764727285
40
0.809781407478581
40
0.809781407478581
40
0.817632050229877
40
0.817632050229877
40
0.825482692279718
40
0.825482692279718
40
0.833333335031012
40
0.833333335031012
40
0.840277773618671
40
0.840277773618671
40
0.8472222129078
40
0.8472222129078
40
0.853298617466696
40
0.853298617466696
40
0.859374994533147
40
0.859374994533147
40
0.864691838475537
40
0.864691838475537
40
0.87000868241793
40
0.87000868241793
40
0.879313165839506
40
0.879313165839506
40
0.888617621067225
40
0.888617621067225
40
0.89559596971183
40
0.89559596971183
40
0.902574318356426
40
0.902574318356426
40
0.907808080190608
40
0.907808080190608
40
0.913041869517219
40
0.913041869517219
40
0.92089251156704
40
0.92089251156704
40
0.928743153616861
40
0.928743153616861
40
0.936593795666682
40
0.936593795666682
40
0.944444437716503
40
0.944444437716503
40
0.951388875602787
40
0.951388875602787
40
0.958333342384285
40
0.958333342384285
40
0.96354165722809
40
0.96354165722809
40
0.968749999564418
40
0.968749999564418
40
0.976562500374703
40
0.976562500374703
40
0.98437499978226
40
0.98437499978226
40
0.99218749989113
40
0.99218749989113
40
1
40
1
40
1
40
1
41
1
10
72.021371
20
-14.046774
30
0
41
1
10
72.019328
20
-13.9647213333334
30
0
41
1
10
72.017285
20
-13.8826686666667
30
0
41
1
10
72.013199
20
-13.7185633333333
30
0
41
1
10
72.011156
20
-13.6365106666667
30
0
41
1
10
72.0075807460077
20
-13.4929183396569
30
0
41
1
10
72.006049
20
-13.4313786666667
30
0
41
1
10
72.0029849997936
20
-13.3082993250394
30
0
41
1
10
72.0014523333334
20
-13.2467596666667
30
0
41
1
10
71.9976215125456
20
-13.0929110038375
30
0
41
1
10
71.9953233333334
20
-13.000602
30
0
41
1
10
71.9907266583725
20
-12.8159836668732
30
0
41
1
10
71.9884283333334
20
-12.7236743333333
30
0
41
1
10
71.9838316666667
20
-12.5390556666667
30
0
41
1
10
71.9815333333334
20
-12.4467463333333
30
0
41
1
10
71.9769366668733
20
-12.2621276749603
30
0
41
1
10
71.974639
20
-12.1698183333333
30
0
41
1
10
71.9702983349698
20
-11.9954563249937
30
0
41
1
10
71.9682549999999
20
-11.9134036666666
30
0
41
1
10
71.964169
20
-11.7492983333333
30
0
41
1
10
71.962126
20
-11.6672456666667
30
0
41
1
10
71.9582953689599
20
-11.5133966740786
30
0
41
1
10
71.9565083333333
20
-11.4416003333333
30
0
41
1
10
71.9529336747532
20
-11.2980079914997
30
0
41
1
10
71.9511456666667
20
-11.226212
30
0
41
1
10
71.9477937876484
20
-11.0915943386204
30
0
41
1
10
71.94623
20
-11.0287726666667
30
0
41
1
10
71.943102
20
-10.9031293333333
30
0
41
1
10
71.941538
20
-10.8403076666667
30
0
41
1
10
71.9372370062202
20
-10.6675483331784
30
0
41
1
10
71.9345
20
-10.5576106666667
30
0
41
1
10
71.929026
20
-10.3377353333333
30
0
41
1
10
71.9262889999999
20
-10.2277976666667
30
0
41
1
10
71.9214992477719
20
-10.0354066604978
30
0
41
1
10
71.919446
20
-9.95295333333337
30
0
41
1
10
71.9153400002065
20
-9.78804667496053
30
0
41
1
10
71.9132876666666
20
-9.70559333333333
30
0
41
1
10
71.9096955001032
20
-9.56130000414637
30
0
41
1
10
71.9081563333333
20
-9.49946000000003
30
0
41
1
10
71.9050776664602
20
-9.37577999170685
30
0
41
1
10
71.9035376666666
20
-9.31394000000003
30
0
41
1
10
71.8996884918092
20
-9.15933967102004
30
0
41
1
10
71.8973793333333
20
-9.06657933333335
30
0
41
1
10
71.89276067496
20
-8.88105899979354
30
0
41
1
10
71.8904513333333
20
-8.78829900000002
30
0
41
1
10
71.8858326666668
20
-8.602779
30
0
41
1
10
71.8835233333334
20
-8.510019
30
0
41
1
10
71.878904666873
20
-8.32449900829286
30
0
41
1
10
71.876596
20
-8.231739
30
0
41
1
10
71.8722445287007
20
-8.05692632017113
30
0
41
1
10
71.870201
20
-7.9748736666667
30
0
41
1
10
71.8661150002066
20
-7.8107683416271
30
0
41
1
10
71.8640726666667
20
-7.72871566666669
30
0
41
1
10
71.86024266874
20
-7.5748669999484
30
0
41
1
10
71.8584553333333
20
-7.50307100000001
30
0
41
1
10
71.85488065858
20
-7.35947867516541
30
0
41
1
10
71.853094
20
-7.28768233333335
30
0
41
1
10
71.8497433861686
20
-7.15306465705379
30
0
41
1
10
71.848179
20
-7.09024333333335
30
0
41
1
10
71.8450509917064
20
-6.96460033353983
30
0
41
1
10
71.843487
20
-6.90177866666667
30
0
41
1
10
71.8391859981331
20
-6.72901900834461
30
0
41
1
10
71.8364496666666
20
-6.61908100000002
30
0
41
1
10
71.8309763416257
20
-6.39920533312693
30
0
41
1
10
71.8282396666667
20
-6.28926766666669
30
0
41
1
10
71.8234504978236
20
-6.0968766625719
30
0
41
1
10
71.8213976666667
20
-6.01442333333336
30
0
41
1
10
71.8172923333333
20
-5.84951666666669
30
0
41
1
10
71.8152396666666
20
-5.76706333333334
30
0
41
1
10
71.8116475001033
20
-5.62277000414639
30
0
41
1
10
71.8101083333333
20
-5.56093000000001
30
0
41
1
10
71.8070296666667
20
-5.43725000000003
30
0
41
1
10
71.8054903333333
20
-5.37541000000002
30
0
41
1
10
71.801642
20
-5.22081000000003
30
0
41
1
10
71.799333
20
-5.12805
30
0
41
1
10
71.7947149999998
20
-4.94253000000001
30
0
41
1
10
71.792406
20
-4.84977000000001
30
0
41
1
10
71.7877879915014
20
-4.66424965858027
30
0
41
1
10
71.7854783333333
20
-4.57148933333335
30
0
41
1
10
71.7808596751665
20
-4.38596900808639
30
0
41
1
10
71.778551
20
-4.29320900000002
30
0
41
1
10
71.7741995291135
20
-4.11839633675723
30
0
41
1
10
71.7721573333333
20
-4.03634366666668
30
0
41
1
10
71.7680726666667
20
-3.87223833333334
30
0
41
1
10
71.7660303333333
20
-3.79018566666667
30
0
41
1
10
71.7622009602256
20
-3.63633699269255
30
0
41
1
10
71.7604133333333
20
-3.56454099999999
30
0
41
1
10
71.75683865858
20
-3.42094867516542
30
0
41
1
10
71.755052
20
-3.34915233333337
30
0
41
1
10
71.7517013861686
20
-3.21453465705383
30
0
41
1
10
71.7501369999999
20
-3.15171333333336
30
0
41
1
10
71.7470089919129
20
-3.02607034183242
30
0
41
1
10
71.7454456666666
20
-2.96324866666666
30
0
41
1
10
71.7411455813122
20
-2.7904890021245
30
0
41
1
10
71.7384093333333
20
-2.68055100000001
30
0
41
1
10
71.7329366747518
20
-2.46067532483497
30
0
41
1
10
71.7301996666667
20
-2.35073766666667
30
0
41
1
10
71.72541049803
20
-2.15834667086438
30
0
41
1
10
71.7233583333333
20
-2.07589333333334
30
0
41
1
10
71.7192536666666
20
-1.91098666666667
30
0
41
1
10
71.7172013333333
20
-1.82853333333335
30
0
41
1
10
71.7136097501548
20
-1.68424000621837
30
0
41
1
10
71.712071
20
-1.6224
30
0
41
1
10
71.7089929997937
20
-1.49871999170867
30
0
41
1
10
71.7074533333333
20
-1.43688
30
0
41
1
10
71.703605
20
-1.28228000000001
30
0
41
1
10
71.701296
20
-1.18952000000002
30
0
41
1
10
71.6966779919142
20
-1.00399967516472
30
0
41
1
10
71.6943696666667
20
-0.911239333333356
30
0
41
1
10
71.6897523414181
20
-0.725718991502021
30
0
41
1
10
71.687443
20
-0.632959
30
0
41
1
10
71.6828250002064
20
-0.447439008291667
30
0
41
1
10
71.6805166666667
20
-0.354679000000004
30
0
41
1
10
71.6761658237875
20
-0.17986632942268
30
0
41
1
10
71.6741233333333
20
-0.0978136666666956
30
0
41
1
10
71.6700386666666
20
0.0662916666666433
30
0
41
1
10
71.6679963333333
20
0.148344333333313
30
0
41
1
10
71.6641669606385
20
0.302192990724365
30
0
41
1
10
71.6623806666667
20
0.373988999999966
30
0
41
1
10
71.658807324837
20
0.517581341417724
30
0
41
1
10
71.65702
20
0.58937766666665
30
0
41
1
10
71.6536693780835
20
0.723995667780514
30
0
41
1
10
71.6521056666667
20
0.786817333333317
30
0
41
1
10
71.648978341625
20
0.912460333539713
30
0
41
1
10
71.6474146666666
20
0.97528166666666
30
0
41
1
10
71.643114567008
20
1.14804098922335
30
0
41
1
10
71.640379
20
1.25797899999998
30
0
41
1
10
71.634907008084
20
1.47785467516397
30
0
41
1
10
71.6321703333334
20
1.58779233333331
30
0
41
1
10
71.6273817480819
20
1.7801833270635
30
0
41
1
10
71.62533
20
1.86263666666665
30
0
41
1
10
71.6212259997936
20
2.02754334162446
30
0
41
1
10
71.6191733333333
20
2.10999666666663
30
0
41
1
10
71.6155817418631
20
2.25429032690863
30
0
41
1
10
71.614043
20
2.31613066666665
30
0
41
1
10
71.6109650082905
20
2.4398110002063
30
0
41
1
10
71.609426
20
2.50165100000001
30
0
41
1
10
71.6055784998968
20
2.65625100414539
30
0
41
1
10
71.6032696666667
20
2.749011
30
0
41
1
10
71.5986523333333
20
2.93453099999999
30
0
41
1
10
71.5963436666667
20
3.02729099999999
30
0
41
1
10
71.5917263333334
20
3.21281099999999
30
0
41
1
10
71.5894176666667
20
3.30557099999999
30
0
41
1
10
71.5848003335396
20
3.49109099170951
30
0
41
1
10
71.5824923333333
20
3.58385099999998
30
0
41
1
10
71.5781421184615
20
3.75866367791082
30
0
41
1
10
71.5760993333333
20
3.84071633333332
30
0
41
1
10
71.572014666873
20
4.00482165837562
30
0
41
1
10
71.569973
20
4.08687433333333
30
0
41
1
10
71.5661442438338
20
4.24072333110604
30
0
41
1
10
71.5643576666667
20
4.31251966666665
30
0
41
1
10
71.5607843416232
20
4.45611200020628
30
0
41
1
10
71.5589976666666
20
4.527908
30
0
41
1
10
71.5556476623154
20
4.66252567485435
30
0
41
1
10
71.5540836666667
20
4.7253473333333
30
0
41
1
10
71.5509563335397
20
4.85099065837579
30
0
41
1
10
71.5493933333333
20
4.91381233333331
30
0
41
1
10
71.5450941727808
20
5.08657167096649
30
0
41
1
10
71.542358
20
5.19650933333332
30
0
41
1
10
71.536885991916
20
5.41638499150369
30
0
41
1
10
71.5341506666667
20
5.52632299999999
30
0
41
1
10
71.52936325399
20
5.71871433965393
30
0
41
1
10
71.5273109999999
20
5.80116766666666
30
0
41
1
10
71.523207
20
5.9660743333333
30
0
41
1
10
71.521155
20
6.04852766666664
30
0
41
1
10
71.5175639999999
20
6.19282100000001
30
0
41
1
10
71.516025
20
6.254661
30
0
41
1
10
71.512947
20
6.37834100000001
30
0
41
1
10
71.511408
20
6.44018099999999
30
0
41
1
10
71.507560500103
20
6.5947809958549
30
0
41
1
10
71.5052523333333
20
6.68754099999998
30
0
41
1
10
71.5006356666667
20
6.87306099999998
30
0
41
1
10
71.4983273333334
20
6.96582099999998
30
0
41
1
10
71.4937106666666
20
7.151341
30
0
41
1
10
71.4914023333333
20
7.244101
30
0
41
1
10
71.4867856583768
20
7.42962133312705
30
0
41
1
10
71.4844773333333
20
7.52238166666666
30
0
41
1
10
71.4801271262071
20
7.69719466151261
30
0
41
1
10
71.4780856666667
20
7.77924733333333
30
0
41
1
10
71.4740023331269
20
7.94335267495634
30
0
41
1
10
71.47196
20
8.02540533333334
30
0
41
1
10
71.4681312521243
20
8.17925399797903
30
0
41
1
10
71.4663446666667
20
8.25104999999999
30
0
41
1
10
71.4627713252497
20
8.39464232483789
30
0
41
1
10
71.4609853333333
20
8.46643866666668
30
0
41
1
10
71.4576359695494
20
8.60105634086995
30
0
41
1
10
71.4560723333333
20
8.66387766666665
30
0
41
1
10
71.4529456583766
20
8.78952066646033
30
0
41
1
10
71.4513823333333
20
8.8523423333333
30
0
41
1
10
71.4470831646973
20
9.02510199580357
30
0
41
1
10
71.4443476666667
20
9.13503999999998
30
0
41
1
10
71.4388763416228
20
9.35491566687293
30
0
41
1
10
71.4361406666666
20
9.46485333333331
30
0
41
1
10
71.4313532479793
20
9.6572443312094
30
0
41
1
10
71.4293016666667
20
9.73969766666667
30
0
41
1
10
71.4251983250442
20
9.90460466646041
30
0
41
1
10
71.4231466666666
20
9.98705833333332
30
0
41
1
10
71.4195562560621
20
10.131352006372
30
0
41
1
10
71.418017
20
10.193192
30
0
41
1
10
71.4149390002062
20
10.3168719917105
30
0
41
1
10
71.4134006666667
20
10.378712
30
0
41
1
10
71.4095539999999
20
10.533312
30
0
41
1
10
71.407246
20
10.626072
30
0
41
1
10
71.4026299997938
20
10.8115920082893
30
0
41
1
10
71.4003213333334
20
10.904352
30
0
41
1
10
71.3957046668728
20
11.0898719917107
30
0
41
1
10
71.3933969999999
20
11.182632
30
0
41
1
10
71.3887810000001
20
11.368152
30
0
41
1
10
71.386473
20
11.460912
30
0
41
1
10
71.3821234135482
20
11.6357246686625
30
0
41
1
10
71.3800816666666
20
11.7177773333333
30
0
41
1
10
71.3759983250444
20
11.8818829997937
30
0
41
1
10
71.3739566666667
20
11.963936
30
0
41
1
10
71.3701285510691
20
12.1177849971237
30
0
41
1
10
71.3683423333333
20
12.189581
30
0
41
1
10
71.3647696664605
20
12.3331730082891
30
0
41
1
10
71.3629826666667
20
12.404969
30
0
41
1
10
71.359632662728
20
12.5395866582744
30
0
41
1
10
71.3580700000001
20
12.6024083333333
30
0
41
1
10
71.3549439999998
20
12.7280516666667
30
0
41
1
10
71.353381
20
12.7908733333333
30
0
41
1
10
71.3490827478763
20
12.9636330020205
30
0
41
1
10
71.3463473333333
20
13.073571
30
0
41
1
10
71.3408766747489
20
13.2934466751618
30
0
41
1
10
71.3381406666666
20
13.4033843333333
30
0
41
1
10
71.3333532481855
20
13.595775322921
30
0
41
1
10
71.3313023333333
20
13.6782286666667
30
0
41
1
10
71.3271996664604
20
13.8431353416218
30
0
41
1
10
71.3251476666666
20
13.9255886666666
30
0
41
1
10
71.3215572500516
20
14.0698819979277
30
0
41
1
10
71.3200186666667
20
14.131722
30
0
41
1
10
71.3169413252508
20
14.2554023248393
30
0
41
1
10
71.3154033333333
20
14.3172426666667
30
0
41
1
10
71.3115575121211
20
14.4718430127409
30
0
41
1
10
71.309249
20
14.564603
30
0
41
1
10
71.304633
20
14.750123
30
0
41
1
10
71.302325
20
14.842883
30
0
41
1
10
71.2977090002062
20
15.0284029917119
30
0
41
1
10
71.2954016666666
20
15.121163
30
0
41
1
10
71.2907863331272
20
15.3066830082881
30
0
41
1
10
71.288478
20
15.399443
30
0
41
1
10
71.2841284137543
20
15.5742556603742
30
0
41
1
10
71.2820873333333
20
15.6563083333333
30
0
41
1
10
71.2780046664604
20
15.820413674955
30
0
41
1
10
71.2759626666667
20
15.9024663333333
30
0
41
1
10
71.2721345357333
20
16.0563153217828
30
0
41
1
10
71.270349
20
16.1281116666666
30
0
41
1
10
71.2667770080806
20
16.2717040084938
30
0
41
1
10
71.2649903333333
20
16.3435
30
0
41
1
10
71.2616409542149
20
16.4781176655275
30
0
41
1
10
71.260078
20
16.5409393333333
30
0
41
1
10
71.2569519999999
20
16.6665826666667
30
0
41
1
10
71.255389
20
16.7294043333333
30
0
41
1
10
71.2510907480826
20
16.9021639937326
30
0
41
1
10
71.2483559999999
20
17.012102
30
0
41
1
10
71.2428860082874
20
17.2319776668728
30
0
41
1
10
71.240151
20
17.3419153333333
30
0
41
1
10
71.2353647478766
20
17.5343063353537
30
0
41
1
10
71.2333133333333
20
17.6167596666666
30
0
41
1
10
71.2292106666669
20
17.7816663333333
30
0
41
1
10
71.2271593333333
20
17.8641196666667
30
0
41
1
10
71.2235694998969
20
18.0084130041441
30
0
41
1
10
71.2220306666667
20
18.070253
30
0
41
1
10
71.2189533252508
20
18.1939333248394
30
0
41
1
10
71.2174153333333
20
18.2557736666667
30
0
41
1
10
71.2135695123271
20
18.4103740044528
30
0
41
1
10
71.2112616666667
20
18.503134
30
0
41
1
10
71.2066463333333
20
18.688654
30
0
41
1
10
71.2043386666666
20
18.781414
30
0
41
1
10
71.1997233333333
20
18.966934
30
0
41
1
10
71.1974156666666
20
19.059694
30
0
41
1
10
71.1928003333334
20
19.245214
30
0
41
1
10
71.1904926666667
20
19.337974
30
0
41
1
10
71.1861437086345
20
19.5127866594186
30
0
41
1
10
71.184103
20
19.5948393333333
30
0
41
1
10
71.1800209915075
20
19.7589450080808
30
0
41
1
10
71.1779793333333
20
19.840998
30
0
41
1
10
71.1744070103595
20
19.984590333591
30
0
41
1
10
71.172876
20
20.0461296666666
30
0
41
1
10
71.1698139919186
20
20.1692086581738
30
0
41
1
10
71.1682836666667
20
20.2307483333333
30
0
41
1
10
71.1644570037304
20
20.3845973500105
30
0
41
1
10
71.1621596666667
20
20.4769066666667
30
0
41
1
10
71.1575663337456
20
20.6615253167592
30
0
41
1
10
71.155271
20
20.7538346666667
30
0
41
1
10
71.1506789997937
20
20.9384533416198
30
0
41
1
10
71.1483823333332
20
21.0307626666667
30
0
41
1
10
71.1437896666668
20
21.2153813333333
30
0
41
1
10
71.1414933333334
20
21.3076906666667
30
0
41
1
10
71.1391969999999
20
21.4
30
0
0
SPLINE
5
128
100
AcDbEntity
8
1
62
256
6
ByLayer
370
18
48
1
60
0
100
AcDbSpline
70
4
71
3
72
28
73
24
40
0
40
0
40
0
40
0
40
0.0499930000069598
40
0.0499930000069598
40
0.14998200000587
40
0.14998200000587
40
0.249973000004944
40
0.249973000004944
40
0.349968000004179
40
0.349968000004179
40
0.449965000003324
40
0.449965000003324
40
0.549964999996863
40
0.549964999996863
40
0.649967999995906
40
0.649967999995906
40
0.74997299999503
40
0.74997299999503
40
0.849981999993972
40
0.849981999993972
40
0.949992999992738
40
0.949992999992738
40
1
40
1
40
1
40
1
41
1
10
91.175
20
-15.5
30
0
41
1
10
91.1833323333333
20
-15.491668
30
0
41
1
10
91.1916646666667
20
-15.483336
30
0
41
1
10
91.2166621666742
20
-15.4583395000125
30
0
41
1
10
91.2333263333333
20
-15.441674
30
0
41
1
10
91.2666559999967
20
-15.4083436666633
30
0
41
1
10
91.2833216666667
20
-15.391679
30
0
41
1
10
91.3166530000067
20
-15.35834833334
30
0
41
1
10
91.3333183333334
20
-15.341682
30
0
41
1
10
91.3666499999966
20
-15.3083496666633
30
0
41
1
10
91.3833166666666
20
-15.291684
30
0
41
1
10
91.4166498333376
20
-15.258351500006
30
0
41
1
10
91.4333163333334
20
-15.2416846666667
30
0
41
1
10
91.4666501666674
20
-15.2083508333324
30
0
41
1
10
91.483317
20
-15.1916833333333
30
0
41
1
10
91.51665133333
20
-15.15834833333
30
0
41
1
10
91.5333193333333
20
-15.1416813333334
30
0
41
1
10
91.56665533334
20
-15.1083460000067
30
0
41
1
10
91.583323
20
-15.0916773333334
30
0
41
1
10
91.61665933333
20
-15.05834033333
30
0
41
1
10
91.6333283333333
20
-15.0416723333334
30
0
41
1
10
91.6583315833371
20
-15.0166695833345
30
0
41
1
10
91.6666656666667
20
-15.0083346666667
30
0
41
1
10
91.675
20
-15
30
0
0
SPLINE
5
129
100
AcDbEntity
8
1
62
256
6
ByLayer
370
18
48
1
60
0
100
AcDbSpline
70
4
71
3
72
28
73
24
40
0
40
0
40
0
40
0
40
0.0500079999985583
40
0.0500079999985583
40
0.150017999995435
40
0.150017999995435
40
0.25002799999214
40
0.25002799999214
40
0.350032999994114
40
0.350032999994114
40
0.450035999996008
40
0.450035999996008
40
0.550035999992995
40
0.550035999992995
40
0.650032999995161
40
0.650032999995161
40
0.750027999997246
40
0.750027999997246
40
0.850018999999598
40
0.850018999999598
40
0.950008000001529
40
0.950008000001529
40
1
40
1
40
1
40
1
41
1
10
8.32499999999999
20
-15
30
0
41
1
10
8.33333466666664
20
-15.0083346666667
30
0
41
1
10
8.3416693333333
20
-15.0166693333333
30
0
41
1
10
8.36667233333338
20
-15.0416723333333
30
0
41
1
10
8.3833406666667
20
-15.0583406666667
30
0
41
1
10
8.41667733333327
20
-15.0916773333333
30
0
41
1
10
8.43334566666664
20
-15.1083456666667
30
0
41
1
10
8.46668150000079
20
-15.1416815000009
30
0
41
1
10
8.48334933333336
20
-15.1583486666667
30
0
41
1
10
8.51668433332998
20
-15.1916830000034
30
0
41
1
10
8.53335099999998
20
-15.2083506666667
30
0
41
1
10
8.56668450000416
20
-15.2416848333275
30
0
41
1
10
8.58335133333333
20
-15.2583513333333
30
0
41
1
10
8.61668416666748
20
-15.2916841666675
30
0
41
1
10
8.63335066666667
20
-15.30835
30
0
41
1
10
8.66668299999662
20
-15.34168166667
30
0
41
1
10
8.6833483333333
20
-15.358348
30
0
41
1
10
8.71667900000665
20
-15.3916793333267
30
0
41
1
10
8.7333446666666
20
-15.408344
30
0
41
1
10
8.76667499999672
20
-15.44167366667
30
0
41
1
10
8.78333933333334
20
-15.458339
30
0
41
1
10
8.80833591667039
20
-15.4833360833288
30
0
41
1
10
8.81666799999999
20
-15.491668
30
0
41
1
10
8.82499999999999
20
-15.5
30
0
0
LINE
5
89
100
AcDbEntity
8
80
62
256
6
ByLayer
370
50
48
1
60
0
100
AcDbLine
10
0
20
0
30
0
11
-32.646011
21
0
31
0
39
0
210
0
220
0
230
1
0
LINE
5
8A
100
AcDbEntity
8
81
62
256
6
ByLayer
370
50
48
1
60
0
100
AcDbLine
10
50
20
-35.5
30
0
11
50
21
-16
31
0
39
0
210
0
220
0
230
1
0
LINE
5
8B
100
AcDbEntity
8
4
62
256
6
ByLayer
370
18
48
0.05
60
0
100
AcDbLine
10
0
20
0
30
0
11
22
21
0
31
0
39
0
210
0
220
0
230
1
0
LINE
5
8D
100
AcDbEntity
8
4
62
256
6
ByLayer
370
35
48
0.05
60
0
100
AcDbLine
10
50
20
-17.5
30
0
11
50
21
29.5
31
0
39
0
210
0
220
0
230
1
0
LINE
5
8E
100
AcDbEntity
8
1
62
256
6
ByLayer
370
18
48
1
60
1
100
AcDbLine
10
0
20
0
30
0
11
0
21
420
31
0
39
0
210
0
220
0
230
1
0
LINE
5
8F
100
AcDbEntity
8
1
62
256
6
ByLayer
370
18
48
1
60
1
100
AcDbLine
10
594
20
420
30
0
11
0
21
420
31
0
39
0
210
0
220
0
230
1
0
LINE
5
90
100
AcDbEntity
8
1
62
256
6
ByLayer
370
18
48
1
60
1
100
AcDbLine
10
594
20
420
30
0
11
594
21
0
31
0
39
0
210
0
220
0
230
1
0
LINE
5
91
100
AcDbEntity
8
1
62
256
6
ByLayer
370
18
48
1
60
1
100
AcDbLine
10
0
20
0
30
0
11
594
21
0
31
0
39
0
210
0
220
0
230
1
0
LINE
5
92
100
AcDbEntity
8
1
62
256
6
ByLayer
370
18
48
1
60
1
100
AcDbLine
10
0
20
0
30
0
11
0
21
420
31
0
39
0
210
0
220
0
230
1
0
LINE
5
93
100
AcDbEntity
8
1
62
256
6
ByLayer
370
18
48
1
60
1
100
AcDbLine
10
594
20
420
30
0
11
0
21
420
31
0
39
0
210
0
220
0
230
1
0
LINE
5
94
100
AcDbEntity
8
1
62
256
6
ByLayer
370
18
48
1
60
1
100
AcDbLine
10
594
20
420
30
0
11
594
21
0
31
0
39
0
210
0
220
0
230
1
0
LINE
5
95
100
AcDbEntity
8
1
62
256
6
ByLayer
370
18
48
1
60
1
100
AcDbLine
10
0
20
0
30
0
11
594
21
0
31
0
39
0
210
0
220
0
230
1
0
LINE
5
96
100
AcDbEntity
8
1
62
256
6
ByLayer
370
18
48
1
60
1
100
AcDbLine
10
0
20
0
30
0
11
0
21
420
31
0
39
0
210
0
220
0
230
1
0
LINE
5
97
100
AcDbEntity
8
1
62
256
6
ByLayer
370
18
48
1
60
1
100
AcDbLine
10
594
20
420
30
0
11
0
21
420
31
0
39
0
210
0
220
0
230
1
0
LINE
5
98
100
AcDbEntity
8
1
62
256
6
ByLayer
370
18
48
1
60
1
100
AcDbLine
10
594
20
420
30
0
11
594
21
0
31
0
39
0
210
0
220
0
230
1
0
LINE
5
99
100
AcDbEntity
8
1
62
256
6
ByLayer
370
18
48
1
60
1
100
AcDbLine
10
0
20
0
30
0
11
594
21
0
31
0
39
0
210
0
220
0
230
1
0
LINE
5
9A
100
AcDbEntity
8
1
62
256
6
ByLayer
370
18
48
1
60
1
100
AcDbLine
10
0
20
0
30
0
11
0
21
420
31
0
39
0
210
0
220
0
230
1
0
LINE
5
9B
100
AcDbEntity
8
1
62
256
6
ByLayer
370
18
48
1
60
1
100
AcDbLine
10
594
20
420
30
0
11
0
21
420
31
0
39
0
210
0
220
0
230
1
0
LINE
5
9C
100
AcDbEntity
8
1
62
256
6
ByLayer
370
18
48
1
60
1
100
AcDbLine
10
594
20
420
30
0
11
594
21
0
31
0
39
0
210
0
220
0
230
1
0
LINE
5
9D
100
AcDbEntity
8
1
62
256
6
ByLayer
370
18
48
1
60
1
100
AcDbLine
10
0
20
0
30
0
11
594
21
0
31
0
39
0
210
0
220
0
230
1
0
LINE
5
9E
100
AcDbEntity
8
1
62
256
6
ByLayer
370
18
48
1
60
1
100
AcDbLine
10
0
20
0
30
0
11
0
21
420
31
0
39
0
210
0
220
0
230
1
0
LINE
5
9F
100
AcDbEntity
8
1
62
256
6
ByLayer
370
18
48
1
60
1
100
AcDbLine
10
594
20
420
30
0
11
0
21
420
31
0
39
0
210
0
220
0
230
1
0
LINE
5
A0
100
AcDbEntity
8
1
62
256
6
ByLayer
370
18
48
1
60
1
100
AcDbLine
10
594
20
420
30
0
11
594
21
0
31
0
39
0
210
0
220
0
230
1
0
LINE
5
A1
100
AcDbEntity
8
1
62
256
6
ByLayer
370
18
48
1
60
1
100
AcDbLine
10
0
20
0
30
0
11
594
21
0
31
0
39
0
210
0
220
0
230
1
0
LINE
5
A2
100
AcDbEntity
8
1
62
256
6
ByLayer
370
18
48
1
60
1
100
AcDbLine
10
0
20
0
30
0
11
0
21
420
31
0
39
0
210
0
220
0
230
1
0
LINE
5
A3
100
AcDbEntity
8
1
62
256
6
ByLayer
370
18
48
1
60
1
100
AcDbLine
10
594
20
420
30
0
11
0
21
420
31
0
39
0
210
0
220
0
230
1
0
LINE
5
A4
100
AcDbEntity
8
1
62
256
6
ByLayer
370
18
48
1
60
1
100
AcDbLine
10
594
20
420
30
0
11
594
21
0
31
0
39
0
210
0
220
0
230
1
0
LINE
5
A5
100
AcDbEntity
8
1
62
256
6
ByLayer
370
18
48
1
60
1
100
AcDbLine
10
0
20
0
30
0
11
594
21
0
31
0
39
0
210
0
220
0
230
1
0
LINE
5
A6
100
AcDbEntity
8
1
62
256
6
ByLayer
370
18
48
1
60
1
100
AcDbLine
10
0
20
0
30
0
11
0
21
420
31
0
39
0
210
0
220
0
230
1
0
LINE
5
A7
100
AcDbEntity
8
1
62
256
6
ByLayer
370
18
48
1
60
1
100
AcDbLine
10
594
20
420
30
0
11
0
21
420
31
0
39
0
210
0
220
0
230
1
0
LINE
5
A8
100
AcDbEntity
8
1
62
256
6
ByLayer
370
18
48
1
60
1
100
AcDbLine
10
594
20
420
30
0
11
594
21
0
31
0
39
0
210
0
220
0
230
1
0
LINE
5
A9
100
AcDbEntity
8
1
62
256
6
ByLayer
370
18
48
1
60
1
100
AcDbLine
10
0
20
0
30
0
11
594
21
0
31
0
39
0
210
0
220
0
230
1
0
LINE
5
AA
100
AcDbEntity
8
1
62
256
6
ByLayer
370
18
48
1
60
1
100
AcDbLine
10
0
20
0
30
0
11
0
21
420
31
0
39
0
210
0
220
0
230
1
0
LINE
5
AB
100
AcDbEntity
8
1
62
256
6
ByLayer
370
18
48
1
60
1
100
AcDbLine
10
594
20
420
30
0
11
0
21
420
31
0
39
0
210
0
220
0
230
1
0
LINE
5
AC
100
AcDbEntity
8
1
62
256
6
ByLayer
370
18
48
1
60
1
100
AcDbLine
10
594
20
420
30
0
11
594
21
0
31
0
39
0
210
0
220
0
230
1
0
LINE
5
AD
100
AcDbEntity
8
1
62
256
6
ByLayer
370
18
48
1
60
1
100
AcDbLine
10
0
20
0
30
0
11
594
21
0
31
0
39
0
210
0
220
0
230
1
0
LINE
5
AE
100
AcDbEntity
8
1
62
256
6
ByLayer
370
18
48
1
60
1
100
AcDbLine
10
0
20
0
30
0
11
0
21
420
31
0
39
0
210
0
220
0
230
1
0
LINE
5
AF
100
AcDbEntity
8
1
62
256
6
ByLayer
370
18
48
1
60
1
100
AcDbLine
10
594
20
420
30
0
11
0
21
420
31
0
39
0
210
0
220
0
230
1
0
LINE
5
B0
100
AcDbEntity
8
1
62
256
6
ByLayer
370
18
48
1
60
1
100
AcDbLine
10
594
20
420
30
0
11
594
21
0
31
0
39
0
210
0
220
0
230
1
0
LINE
5
B1
100
AcDbEntity
8
1
62
256
6
ByLayer
370
18
48
1
60
1
100
AcDbLine
10
0
20
0
30
0
11
594
21
0
31
0
39
0
210
0
220
0
230
1
0
LINE
5
B2
100
AcDbEntity
8
1
62
256
6
ByLayer
370
18
48
1
60
1
100
AcDbLine
10
0
20
0
30
0
11
0
21
420
31
0
39
0
210
0
220
0
230
1
0
LINE
5
B3
100
AcDbEntity
8
1
62
256
6
ByLayer
370
18
48
1
60
1
100
AcDbLine
10
594
20
420
30
0
11
0
21
420
31
0
39
0
210
0
220
0
230
1
0
LINE
5
B4
100
AcDbEntity
8
1
62
256
6
ByLayer
370
18
48
1
60
1
100
AcDbLine
10
594
20
420
30
0
11
594
21
0
31
0
39
0
210
0
220
0
230
1
0
LINE
5
B5
100
AcDbEntity
8
1
62
256
6
ByLayer
370
18
48
1
60
1
100
AcDbLine
10
0
20
0
30
0
11
594
21
0
31
0
39
0
210
0
220
0
230
1
0
LINE
5
B6
100
AcDbEntity
8
1
62
256
6
ByLayer
370
18
48
1
60
1
100
AcDbLine
10
0
20
0
30
0
11
0
21
420
31
0
39
0
210
0
220
0
230
1
0
LINE
5
B7
100
AcDbEntity
8
1
62
256
6
ByLayer
370
18
48
1
60
1
100
AcDbLine
10
594
20
420
30
0
11
0
21
420
31
0
39
0
210
0
220
0
230
1
0
LINE
5
B8
100
AcDbEntity
8
1
62
256
6
ByLayer
370
18
48
1
60
1
100
AcDbLine
10
594
20
420
30
0
11
594
21
0
31
0
39
0
210
0
220
0
230
1
0
LINE
5
B9
100
AcDbEntity
8
1
62
256
6
ByLayer
370
18
48
1
60
1
100
AcDbLine
10
0
20
0
30
0
11
594
21
0
31
0
39
0
210
0
220
0
230
1
0
LINE
5
BA
100
AcDbEntity
8
1
62
256
6
ByLayer
370
18
48
1
60
1
100
AcDbLine
10
0
20
0
30
0
11
0
21
420
31
0
39
0
210
0
220
0
230
1
0
LINE
5
BB
100
AcDbEntity
8
1
62
256
6
ByLayer
370
18
48
1
60
1
100
AcDbLine
10
594
20
420
30
0
11
0
21
420
31
0
39
0
210
0
220
0
230
1
0
LINE
5
BC
100
AcDbEntity
8
1
62
256
6
ByLayer
370
18
48
1
60
1
100
AcDbLine
10
594
20
420
30
0
11
594
21
0
31
0
39
0
210
0
220
0
230
1
0
LINE
5
BD
100
AcDbEntity
8
1
62
256
6
ByLayer
370
18
48
1
60
1
100
AcDbLine
10
0
20
0
30
0
11
594
21
0
31
0
39
0
210
0
220
0
230
1
0
LINE
5
BE
100
AcDbEntity
8
1
62
256
6
ByLayer
370
18
48
1
60
1
100
AcDbLine
10
0
20
0
30
0
11
0
21
420
31
0
39
0
210
0
220
0
230
1
0
LINE
5
BF
100
AcDbEntity
8
1
62
256
6
ByLayer
370
18
48
1
60
1
100
AcDbLine
10
594
20
420
30
0
11
0
21
420
31
0
39
0
210
0
220
0
230
1
0
LINE
5
C0
100
AcDbEntity
8
1
62
256
6
ByLayer
370
18
48
1
60
1
100
AcDbLine
10
594
20
420
30
0
11
594
21
0
31
0
39
0
210
0
220
0
230
1
0
LINE
5
C1
100
AcDbEntity
8
1
62
256
6
ByLayer
370
18
48
1
60
1
100
AcDbLine
10
0
20
0
30
0
11
594
21
0
31
0
39
0
210
0
220
0
230
1
0
LINE
5
C2
100
AcDbEntity
8
1
62
256
6
ByLayer
370
18
48
1
60
1
100
AcDbLine
10
0
20
0
30
0
11
0
21
420
31
0
39
0
210
0
220
0
230
1
0
LINE
5
C3
100
AcDbEntity
8
1
62
256
6
ByLayer
370
18
48
1
60
1
100
AcDbLine
10
594
20
420
30
0
11
0
21
420
31
0
39
0
210
0
220
0
230
1
0
LINE
5
C4
100
AcDbEntity
8
1
62
256
6
ByLayer
370
18
48
1
60
1
100
AcDbLine
10
594
20
420
30
0
11
594
21
0
31
0
39
0
210
0
220
0
230
1
0
LINE
5
C5
100
AcDbEntity
8
1
62
256
6
ByLayer
370
18
48
1
60
1
100
AcDbLine
10
0
20
0
30
0
11
594
21
0
31
0
39
0
210
0
220
0
230
1
0
LINE
5
C6
100
AcDbEntity
8
1
62
256
6
ByLayer
370
18
48
1
60
1
100
AcDbLine
10
0
20
0
30
0
11
0
21
420
31
0
39
0
210
0
220
0
230
1
0
LINE
5
C7
100
AcDbEntity
8
1
62
256
6
ByLayer
370
18
48
1
60
1
100
AcDbLine
10
594
20
420
30
0
11
0
21
420
31
0
39
0
210
0
220
0
230
1
0
LINE
5
C8
100
AcDbEntity
8
1
62
256
6
ByLayer
370
18
48
1
60
1
100
AcDbLine
10
594
20
420
30
0
11
594
21
0
31
0
39
0
210
0
220
0
230
1
0
LINE
5
C9
100
AcDbEntity
8
1
62
256
6
ByLayer
370
18
48
1
60
1
100
AcDbLine
10
0
20
0
30
0
11
594
21
0
31
0
39
0
210
0
220
0
230
1
0
LINE
5
CA
100
AcDbEntity
8
1
62
256
6
ByLayer
370
18
48
1
60
1
100
AcDbLine
10
0
20
0
30
0
11
0
21
420
31
0
39
0
210
0
220
0
230
1
0
LINE
5
CB
100
AcDbEntity
8
1
62
256
6
ByLayer
370
18
48
1
60
1
100
AcDbLine
10
594
20
420
30
0
11
0
21
420
31
0
39
0
210
0
220
0
230
1
0
LINE
5
CC
100
AcDbEntity
8
1
62
256
6
ByLayer
370
18
48
1
60
1
100
AcDbLine
10
594
20
420
30
0
11
594
21
0
31
0
39
0
210
0
220
0
230
1
0
LINE
5
CD
100
AcDbEntity
8
1
62
256
6
ByLayer
370
18
48
1
60
1
100
AcDbLine
10
0
20
0
30
0
11
594
21
0
31
0
39
0
210
0
220
0
230
1
0
LINE
5
CE
100
AcDbEntity
8
1
62
256
6
ByLayer
370
18
48
1
60
1
100
AcDbLine
10
0
20
0
30
0
11
0
21
420
31
0
39
0
210
0
220
0
230
1
0
LINE
5
CF
100
AcDbEntity
8
1
62
256
6
ByLayer
370
18
48
1
60
1
100
AcDbLine
10
594
20
420
30
0
11
0
21
420
31
0
39
0
210
0
220
0
230
1
0
LINE
5
D0
100
AcDbEntity
8
1
62
256
6
ByLayer
370
18
48
1
60
1
100
AcDbLine
10
594
20
420
30
0
11
594
21
0
31
0
39
0
210
0
220
0
230
1
0
LINE
5
D1
100
AcDbEntity
8
1
62
256
6
ByLayer
370
18
48
1
60
1
100
AcDbLine
10
0
20
0
30
0
11
594
21
0
31
0
39
0
210
0
220
0
230
1
0
LINE
5
D2
100
AcDbEntity
8
1
62
256
6
ByLayer
370
18
48
1
60
1
100
AcDbLine
10
0
20
0
30
0
11
0
21
420
31
0
39
0
210
0
220
0
230
1
0
LINE
5
D3
100
AcDbEntity
8
1
62
256
6
ByLayer
370
18
48
1
60
1
100
AcDbLine
10
594
20
420
30
0
11
0
21
420
31
0
39
0
210
0
220
0
230
1
0
LINE
5
D4
100
AcDbEntity
8
1
62
256
6
ByLayer
370
18
48
1
60
1
100
AcDbLine
10
594
20
420
30
0
11
594
21
0
31
0
39
0
210
0
220
0
230
1
0
LINE
5
D5
100
AcDbEntity
8
1
62
256
6
ByLayer
370
18
48
1
60
1
100
AcDbLine
10
0
20
0
30
0
11
594
21
0
31
0
39
0
210
0
220
0
230
1
0
LINE
5
D6
100
AcDbEntity
8
1
62
256
6
ByLayer
370
18
48
1
60
1
100
AcDbLine
10
0
20
0
30
0
11
0
21
420
31
0
39
0
210
0
220
0
230
1
0
LINE
5
D7
100
AcDbEntity
8
1
62
256
6
ByLayer
370
18
48
1
60
1
100
AcDbLine
10
594
20
420
30
0
11
0
21
420
31
0
39
0
210
0
220
0
230
1
0
LINE
5
D8
100
AcDbEntity
8
1
62
256
6
ByLayer
370
18
48
1
60
1
100
AcDbLine
10
594
20
420
30
0
11
594
21
0
31
0
39
0
210
0
220
0
230
1
0
LINE
5
D9
100
AcDbEntity
8
1
62
256
6
ByLayer
370
18
48
1
60
1
100
AcDbLine
10
0
20
0
30
0
11
594
21
0
31
0
39
0
210
0
220
0
230
1
0
LINE
5
DA
100
AcDbEntity
8
1
62
256
6
ByLayer
370
18
48
1
60
1
100
AcDbLine
10
0
20
0
30
0
11
0
21
420
31
0
39
0
210
0
220
0
230
1
0
LINE
5
DB
100
AcDbEntity
8
1
62
256
6
ByLayer
370
18
48
1
60
1
100
AcDbLine
10
594
20
420
30
0
11
0
21
420
31
0
39
0
210
0
220
0
230
1
0
LINE
5
DC
100
AcDbEntity
8
1
62
256
6
ByLayer
370
18
48
1
60
1
100
AcDbLine
10
594
20
420
30
0
11
594
21
0
31
0
39
0
210
0
220
0
230
1
0
LINE
5
DD
100
AcDbEntity
8
1
62
256
6
ByLayer
370
18
48
1
60
1
100
AcDbLine
10
0
20
0
30
0
11
594
21
0
31
0
39
0
210
0
220
0
230
1
0
LINE
5
DE
100
AcDbEntity
8
1
62
256
6
ByLayer
370
18
48
1
60
1
100
AcDbLine
10
0
20
0
30
0
11
0
21
420
31
0
39
0
210
0
220
0
230
1
0
LINE
5
DF
100
AcDbEntity
8
1
62
256
6
ByLayer
370
18
48
1
60
1
100
AcDbLine
10
594
20
420
30
0
11
0
21
420
31
0
39
0
210
0
220
0
230
1
0
LINE
5
E0
100
AcDbEntity
8
1
62
256
6
ByLayer
370
18
48
1
60
1
100
AcDbLine
10
594
20
420
30
0
11
594
21
0
31
0
39
0
210
0
220
0
230
1
0
LINE
5
E1
100
AcDbEntity
8
1
62
256
6
ByLayer
370
18
48
1
60
1
100
AcDbLine
10
0
20
0
30
0
11
594
21
0
31
0
39
0
210
0
220
0
230
1
0
LINE
5
E2
100
AcDbEntity
8
1
62
256
6
ByLayer
370
18
48
1
60
1
100
AcDbLine
10
0
20
0
30
0
11
0
21
420
31
0
39
0
210
0
220
0
230
1
0
LINE
5
E3
100
AcDbEntity
8
1
62
256
6
ByLayer
370
18
48
1
60
1
100
AcDbLine
10
594
20
420
30
0
11
0
21
420
31
0
39
0
210
0
220
0
230
1
0
LINE
5
E4
100
AcDbEntity
8
1
62
256
6
ByLayer
370
18
48
1
60
1
100
AcDbLine
10
594
20
420
30
0
11
594
21
0
31
0
39
0
210
0
220
0
230
1
0
LINE
5
E5
100
AcDbEntity
8
1
62
256
6
ByLayer
370
18
48
1
60
1
100
AcDbLine
10
0
20
0
30
0
11
594
21
0
31
0
39
0
210
0
220
0
230
1
0
LINE
5
E6
100
AcDbEntity
8
1
62
256
6
ByLayer
370
18
48
1
60
1
100
AcDbLine
10
0
20
0
30
0
11
0
21
420
31
0
39
0
210
0
220
0
230
1
0
LINE
5
E7
100
AcDbEntity
8
1
62
256
6
ByLayer
370
18
48
1
60
1
100
AcDbLine
10
594
20
420
30
0
11
0
21
420
31
0
39
0
210
0
220
0
230
1
0
LINE
5
E8
100
AcDbEntity
8
1
62
256
6
ByLayer
370
18
48
1
60
1
100
AcDbLine
10
594
20
420
30
0
11
594
21
0
31
0
39
0
210
0
220
0
230
1
0
LINE
5
E9
100
AcDbEntity
8
1
62
256
6
ByLayer
370
18
48
1
60
1
100
AcDbLine
10
0
20
0
30
0
11
594
21
0
31
0
39
0
210
0
220
0
230
1
0
LINE
5
EA
100
AcDbEntity
8
1
62
256
6
ByLayer
370
18
48
1
60
1
100
AcDbLine
10
0
20
0
30
0
11
0
21
420
31
0
39
0
210
0
220
0
230
1
0
LINE
5
EB
100
AcDbEntity
8
1
62
256
6
ByLayer
370
18
48
1
60
1
100
AcDbLine
10
594
20
420
30
0
11
0
21
420
31
0
39
0
210
0
220
0
230
1
0
LINE
5
EC
100
AcDbEntity
8
1
62
256
6
ByLayer
370
18
48
1
60
1
100
AcDbLine
10
594
20
420
30
0
11
594
21
0
31
0
39
0
210
0
220
0
230
1
0
LINE
5
ED
100
AcDbEntity
8
1
62
256
6
ByLayer
370
18
48
1
60
1
100
AcDbLine
10
0
20
0
30
0
11
594
21
0
31
0
39
0
210
0
220
0
230
1
0
LINE
5
EE
100
AcDbEntity
8
1
62
256
6
ByLayer
370
18
48
1
60
1
100
AcDbLine
10
0
20
0
30
0
11
0
21
420
31
0
39
0
210
0
220
0
230
1
0
LINE
5
EF
100
AcDbEntity
8
1
62
256
6
ByLayer
370
18
48
1
60
1
100
AcDbLine
10
594
20
420
30
0
11
0
21
420
31
0
39
0
210
0
220
0
230
1
0
LINE
5
F0
100
AcDbEntity
8
1
62
256
6
ByLayer
370
18
48
1
60
1
100
AcDbLine
10
594
20
420
30
0
11
594
21
0
31
0
39
0
210
0
220
0
230
1
0
LINE
5
F1
100
AcDbEntity
8
1
62
256
6
ByLayer
370
18
48
1
60
1
100
AcDbLine
10
0
20
0
30
0
11
594
21
0
31
0
39
0
210
0
220
0
230
1
0
LINE
5
F2
100
AcDbEntity
8
1
62
256
6
ByLayer
370
18
48
1
60
1
100
AcDbLine
10
0
20
0
30
0
11
0
21
420
31
0
39
0
210
0
220
0
230
1
0
LINE
5
F3
100
AcDbEntity
8
1
62
256
6
ByLayer
370
18
48
1
60
1
100
AcDbLine
10
594
20
420
30
0
11
0
21
420
31
0
39
0
210
0
220
0
230
1
0
LINE
5
F4
100
AcDbEntity
8
1
62
256
6
ByLayer
370
18
48
1
60
1
100
AcDbLine
10
594
20
420
30
0
11
594
21
0
31
0
39
0
210
0
220
0
230
1
0
LINE
5
F5
100
AcDbEntity
8
1
62
256
6
ByLayer
370
18
48
1
60
1
100
AcDbLine
10
0
20
0
30
0
11
594
21
0
31
0
39
0
210
0
220
0
230
1
0
LINE
5
F6
100
AcDbEntity
8
1
62
256
6
ByLayer
370
18
48
1
60
0
100
AcDbLine
10
92.540674
20
55.6
30
0
11
92.540674
21
60.4
31
0
39
0
210
0
220
0
230
1
0
LINE
5
F7
100
AcDbEntity
8
1
62
256
6
ByLayer
370
18
48
1
60
0
100
AcDbLine
10
81.5
20
-16
30
0
11
18.5
21
-16
31
0
39
0
210
0
220
0
230
1
0
LINE
5
F8
100
AcDbEntity
8
1
62
256
6
ByLayer
370
18
48
1
60
0
100
AcDbLine
10
18.5
20
-15.5
30
0
11
18.5
21
-16
31
0
39
0
210
0
220
0
230
1
0
LINE
5
F9
100
AcDbEntity
8
1
62
256
6
ByLayer
370
18
48
1
60
0
100
AcDbLine
10
81.5
20
-16
30
0
11
81.5
21
-15.5
31
0
39
0
210
0
220
0
230
1
0
LINE
5
FA
100
AcDbEntity
8
1
62
256
6
ByLayer
370
18
48
1
60
0
100
AcDbLine
10
91.175
20
-15.5
30
0
11
8.825
21
-15.5
31
0
39
0
210
0
220
0
230
1
0
LINE
5
FB
100
AcDbEntity
8
1
62
256
6
ByLayer
370
18
48
1
60
0
100
AcDbLine
10
8.325
20
-15
30
0
11
8.325
21
-7
31
0
39
0
210
0
220
0
230
1
0
LINE
5
FC
100
AcDbEntity
8
1
62
256
6
ByLayer
370
18
48
1
60
0
100
AcDbLine
10
8.325
20
-15
30
0
11
91.675
21
-15
31
0
39
0
210
0
220
0
230
1
0
LINE
5
FD
100
AcDbEntity
8
1
62
256
6
ByLayer
370
18
48
1
60
0
100
AcDbLine
10
91.675
20
-15
30
0
11
91.675
21
-7
31
0
39
0
210
0
220
0
230
1
0
LINE
5
FE
100
AcDbEntity
8
SK1
62
256
6
ByLayer
370
18
48
1
60
0
100
AcDbLine
10
-24
20
103.227
30
0
11
-24
21
116.773
31
0
39
0
210
0
220
0
230
1
0
LINE
5
100
100
AcDbEntity
8
SK1
62
256
6
ByLayer
370
18
48
1
60
0
100
AcDbLine
10
-24
20
103.227
30
0
11
-22.773
21
102
31
0
39
0
210
0
220
0
230
1
0
LINE
5
101
100
AcDbEntity
8
SK1
62
256
6
ByLayer
370
18
48
1
60
0
100
AcDbLine
10
-22.773
20
118
30
0
11
-24
21
116.773
31
0
39
0
210
0
220
0
230
1
0
LINE
5
102
100
AcDbEntity
8
SK1
62
256
6
ByLayer
370
18
48
1
60
0
100
AcDbLine
10
-22.773
20
118
30
0
11
-22.773
21
102
31
0
39
0
210
0
220
0
230
1
0
LINE
5
103
100
AcDbEntity
8
SK1
62
256
6
ByLayer
370
18
48
1
60
0
100
AcDbLine
10
0.000433
20
118
30
0
11
-22.773
21
118
31
0
39
0
210
0
220
0
230
1
0
LINE
5
104
100
AcDbEntity
8
SK1
62
256
6
ByLayer
370
18
48
1
60
0
100
AcDbLine
10
-22.773
20
102
30
0
11
0.000433
21
102
31
0
39
0
210
0
220
0
230
1
0
LINE
5
105
100
AcDbEntity
8
SK1
62
256
6
ByLayer
370
18
48
1
60
0
100
AcDbLine
10
-24
20
23.227
30
0
11
-24
21
36.773
31
0
39
0
210
0
220
0
230
1
0
LINE
5
106
100
AcDbEntity
8
SK1
62
256
6
ByLayer
370
18
48
1
60
0
100
AcDbLine
10
-24
20
23.227
30
0
11
-22.773
21
22
31
0
39
0
210
0
220
0
230
1
0
LINE
5
107
100
AcDbEntity
8
SK1
62
256
6
ByLayer
370
18
48
1
60
0
100
AcDbLine
10
-22.773
20
38
30
0
11
-24
21
36.773
31
0
39
0
210
0
220
0
230
1
0
LINE
5
108
100
AcDbEntity
8
SK1
62
256
6
ByLayer
370
18
48
1
60
0
100
AcDbLine
10
-22.773
20
38
30
0
11
-22.773
21
22
31
0
39
0
210
0
220
0
230
1
0
LINE
5
109
100
AcDbEntity
8
SK1
62
256
6
ByLayer
370
18
48
1
60
0
100
AcDbLine
10
0.000433
20
38
30
0
11
-22.773
21
38
31
0
39
0
210
0
220
0
230
1
0
LINE
5
10A
100
AcDbEntity
8
SK1
62
256
6
ByLayer
370
18
48
1
60
0
100
AcDbLine
10
-22.773
20
22
30
0
11
0.000433
21
22
31
0
39
0
210
0
220
0
230
1
0
LINE
5
10B
100
AcDbEntity
8
1
62
256
6
ByLayer
370
18
48
1
60
0
100
AcDbLine
10
92
20
23.072416
30
0
11
92
21
36.927584
31
0
39
0
210
0
220
0
230
1
0
LINE
5
10C
100
AcDbEntity
8
1
62
256
6
ByLayer
370
18
48
1
60
0
100
AcDbLine
10
92
20
103.072416
30
0
11
92
21
116.927584
31
0
39
0
210
0
220
0
230
1
0
LINE
5
10D
100
AcDbEntity
8
1
62
256
6
ByLayer
370
18
48
1
60
0
100
AcDbLine
10
-2
20
-7
30
0
11
-6
21
-7
31
0
39
0
210
0
220
0
230
1
0
LINE
5
10E
100
AcDbEntity
8
1
62
256
6
ByLayer
370
18
48
1
60
0
100
AcDbLine
10
-6
20
0
30
0
11
-2
21
0
31
0
39
0
210
0
220
0
230
1
0
LINE
5
10F
100
AcDbEntity
8
1
62
256
6
ByLayer
370
18
48
1
60
0
100
AcDbLine
10
-6
20
-7
30
0
11
-6
21
0
31
0
39
0
210
0
220
0
230
1
0
LINE
5
110
100
AcDbEntity
8
1
62
256
6
ByLayer
370
18
48
1
60
0
100
AcDbLine
10
92
20
103.071797
30
0
11
92
21
36.928203
31
0
39
0
210
0
220
0
230
1
0
LINE
5
111
100
AcDbEntity
8
1
62
256
6
ByLayer
370
18
48
1
60
0
100
AcDbLine
10
92
20
128
30
0
11
92
21
116.928203
31
0
39
0
210
0
220
0
230
1
0
LINE
5
112
100
AcDbEntity
8
1
62
256
6
ByLayer
370
18
48
1
60
0
100
AcDbLine
10
92
20
128
30
0
11
88
21
132
31
0
39
0
210
0
220
0
230
1
0
LINE
5
113
100
AcDbEntity
8
1
62
256
6
ByLayer
370
18
48
1
60
0
100
AcDbLine
10
92
20
-7
30
0
11
88
21
-7
31
0
39
0
210
0
220
0
230
1
0
LINE
5
114
100
AcDbEntity
8
1
62
256
6
ByLayer
370
18
48
1
60
0
100
AcDbLine
10
92
20
23.071797
30
0
11
92
21
-7
31
0
39
0
210
0
220
0
230
1
0
LINE
5
115
100
AcDbEntity
8
1
62
256
6
ByLayer
370
18
48
1
60
0
100
AcDbLine
10
88
20
132
30
0
11
0
21
132
31
0
39
0
210
0
220
0
230
1
0
LINE
5
116
100
AcDbEntity
8
1
62
256
6
ByLayer
370
18
48
1
60
0
100
AcDbLine
10
-2
20
0
30
0
11
0
21
0
31
0
39
0
210
0
220
0
230
1
0
LINE
5
117
100
AcDbEntity
8
1
62
256
6
ByLayer
370
18
48
1
60
0
100
AcDbLine
10
-2
20
0
30
0
11
-2
21
-7
31
0
39
0
210
0
220
0
230
1
0
LINE
5
118
100
AcDbEntity
8
1
62
256
6
ByLayer
370
18
48
1
60
0
100
AcDbLine
10
-2
20
-7
30
0
11
88
21
-7
31
0
39
0
210
0
220
0
230
1
0
LINE
5
119
100
AcDbEntity
8
1
62
256
6
ByLayer
370
18
48
1
60
0
100
AcDbLine
10
88
20
-7
30
0
11
88
21
132
31
0
39
0
210
0
220
0
230
1
0
LINE
5
11A
100
AcDbEntity
8
1
62
256
6
ByLayer
370
18
48
1
60
0
100
AcDbLine
10
0
20
0
30
0
11
0
21
132
31
0
39
0
210
0
220
0
230
1
0
LINE
5
11B
100
AcDbEntity
8
SK1
62
256
6
ByLayer
370
18
48
1
60
0
100
AcDbLine
10
-24
20
103.227
30
0
11
-6.2E-05
21
103.227
31
0
39
0
210
0
220
0
230
1
0
LINE
5
11C
100
AcDbEntity
8
SK1
62
256
6
ByLayer
370
18
48
1
60
0
100
AcDbLine
10
-24
20
116.773
30
0
11
-6.2E-05
21
116.773
31
0
39
0
210
0
220
0
230
1
0
LINE
5
11D
100
AcDbEntity
8
SK1
62
256
6
ByLayer
370
18
48
1
60
0
100
AcDbLine
10
-24
20
23.227
30
0
11
-6.2E-05
21
23.227
31
0
39
0
210
0
220
0
230
1
0
LINE
5
11E
100
AcDbEntity
8
SK1
62
256
6
ByLayer
370
18
48
1
60
0
100
AcDbLine
10
-24
20
36.773
30
0
11
-6.2E-05
21
36.773
31
0
39
0
210
0
220
0
230
1
0
LINE
5
11F
100
AcDbEntity
8
4
62
256
6
ByLayer
370
18
48
0.05
60
0
100
AcDbLine
10
71.9
20
30
30
0
11
-30.5
21
30
31
0
39
0
210
0
220
0
230
1
0
LINE
5
120
100
AcDbEntity
8
4
62
256
6
ByLayer
370
18
48
0.05
60
0
100
AcDbLine
10
71.9
20
110
30
0
11
-30.5
21
110
31
0
39
0
210
0
220
0
230
1
0
MTEXT
5
12A
100
AcDbEntity
8
SK6
62
256
6
ByLayer
370
13
48
1
60
0
100
AcDbMText
10
-196.358532
20
57.126668
30
0
210
0
220
0
230
1
1
\fAMGDT|b0|i0;\W0.9431;C6-TRI-MS-B
40
10
41
0
44
1.174881
50
0
71
7
72
5
7
AMGDT
0
DIMENSION
5
12E
100
AcDbEntity
8
SK2
62
256
6
ByLayer
370
18
48
1
60
0
100
AcDbDimension
2
_U0
10
92
20
172
30
0
11
46
21
172
31
0
70
32
71
1
72
1
41
1
210
0
220
0
230
1
3
Standard
100
AcDbAlignedDimension
13
0
23
132
33
0
14
92
24
128
34
0
50
0
100
AcDbRotatedDimension
1001
ACAD
1000
DSTYLE
1002
{
1070
   371
1070
    35
1070
   372
1070
    35
1070
   170
1070
     0
1070
   144
1040
1.0
1070
   277
1070
     2
1070
   284
1070
     8
1070
   278
1070
    46
1070
   146
1040
0.25
1070
   345
1005
16
1070
   347
1005
16
1070
   346
1005
16
1070
   344
1005
0
1070
   343
1005
0
1070
   172
1070
     1
1070
    76
1070
     0
1070
    75
1070
     0
1070
   282
1070
     0
1070
   281
1070
     0
1070
    71
1070
     0
1070
    74
1070
     0
1070
   279
1070
     0
1070
   173
1070
     1
1070
   340
1005
12F
1070
   271
1070
     2
1070
   272
1070
     2
1070
    77
1070
     1
1070
    73
1070
     1
1070
   171
1070
     3
1070
   274
1070
     4
1070
   177
1070
     7
1070
   176
1070
     7
1070
   178
1070
     7
1070
    78
1070
     8
1070
    48
1040
-0.1
1070
    41
1040
14.0
1070
   147
1040
7.000002
1070
    42
1040
1.5875
1070
    44
1040
10.0
1070
   140
1040
14.0
1002
}
1001
ACAD_DSTYLE_DIM_LINETYPE
1070
   380
1005
16
1001
ACAD_DSTYLE_DIM_EXT1_LINETYPE
1070
   381
1005
16
1001
ACAD_DSTYLE_DIM_EXT2_LINETYPE
1070
   382
1005
16
0
DIMENSION
5
14A
100
AcDbEntity
8
2
62
256
6
ByLayer
370
18
48
1
60
0
100
AcDbDimension
2
_U1
10
50
20
-75.5
30
0
11
110.333333
21
-75.5
31
0
70
32
71
1
72
1
41
1
210
0
220
0
230
1
3
Standard
100
AcDbAlignedDimension
13
0
23
0
33
0
14
50
24
-16
34
0
50
0
100
AcDbRotatedDimension
1001
ACAD
1000
DSTYLE
1002
{
1070
   371
1070
    35
1070
   372
1070
    35
1070
   170
1070
     0
1070
   144
1040
1.0
1070
   277
1070
     2
1070
   284
1070
     8
1070
   278
1070
    46
1070
   146
1040
0.25
1070
   345
1005
16
1070
   347
1005
16
1070
   346
1005
16
1070
   344
1005
0
1070
   343
1005
0
1070
   172
1070
     1
1070
    76
1070
     0
1070
    75
1070
     0
1070
   282
1070
     0
1070
   281
1070
     0
1070
    71
1070
     0
1070
    74
1070
     0
1070
   279
1070
     0
1070
   173
1070
     1
1070
   340
1005
12F
1070
   271
1070
     2
1070
   272
1070
     2
1070
    77
1070
     1
1070
    73
1070
     1
1070
   171
1070
     3
1070
   274
1070
     4
1070
   177
1070
     7
1070
   176
1070
     7
1070
   178
1070
     7
1070
    78
1070
     8
1070
    48
1040
-0.1
1070
    41
1040
14.0
1070
   147
1040
7.000002
1070
    42
1040
1.5875
1070
    44
1040
10.0
1070
   140
1040
14.0
1002
}
1001
ACAD_DSTYLE_DIM_LINETYPE
1070
   380
1005
16
1001
ACAD_DSTYLE_DIM_EXT1_LINETYPE
1070
   381
1005
16
1001
ACAD_DSTYLE_DIM_EXT2_LINETYPE
1070
   382
1005
16
0
DIMENSION
5
165
100
AcDbEntity
8
2
62
256
6
ByLayer
370
18
48
1
60
0
100
AcDbDimension
2
_U2
10
18.5
20
-95.5
30
0
11
141.5
21
-95.5
31
0
70
32
71
1
72
1
41
1
210
0
220
0
230
1
3
Standard
100
AcDbAlignedDimension
13
81.5
23
-16
33
0
14
18.5
24
-16
34
0
50
180
100
AcDbRotatedDimension
1001
ACAD
1000
DSTYLE
1002
{
1070
   371
1070
    35
1070
   372
1070
    35
1070
     3
1000
%%c<>
1070
   170
1070
     0
1070
   144
1040
1.0
1070
   277
1070
     2
1070
   284
1070
     8
1070
   278
1070
    46
1070
   146
1040
0.25
1070
   345
1005
16
1070
   347
1005
16
1070
   346
1005
16
1070
   344
1005
0
1070
   343
1005
0
1070
   172
1070
     1
1070
    76
1070
     0
1070
    75
1070
     0
1070
   282
1070
     0
1070
   281
1070
     0
1070
    71
1070
     0
1070
    74
1070
     0
1070
   279
1070
     0
1070
   173
1070
     1
1070
   340
1005
12F
1070
   271
1070
     2
1070
   272
1070
     2
1070
    77
1070
     1
1070
    73
1070
     0
1070
   171
1070
     3
1070
   274
1070
     4
1070
   177
1070
     7
1070
   176
1070
     7
1070
   178
1070
     7
1070
    78
1070
     8
1070
    48
1040
-0.1
1070
    41
1040
14.0
1070
   147
1040
7.000002
1070
    42
1040
1.5875
1070
    44
1040
10.0
1070
   140
1040
14.0
1002
}
1001
ACAD_DSTYLE_DIM_LINETYPE
1070
   380
1005
16
1001
ACAD_DSTYLE_DIM_EXT1_LINETYPE
1070
   381
1005
16
1001
ACAD_DSTYLE_DIM_EXT2_LINETYPE
1070
   382
1005
16
0
DIMENSION
5
180
100
AcDbEntity
8
SK2
62
256
6
ByLayer
370
18
48
1
60
0
100
AcDbDimension
2
_U3
10
-55.335518
20
-16
30
0
11
-55.335518
21
58
31
0
70
32
71
1
72
1
41
1
210
0
220
0
230
1
3
Standard
100
AcDbAlignedDimension
13
0
23
132
33
0
14
18.5
24
-16
34
0
50
90
100
AcDbRotatedDimension
1001
ACAD
1000
DSTYLE
1002
{
1070
   371
1070
    35
1070
   372
1070
    35
1070
   170
1070
     0
1070
   144
1040
1.0
1070
   277
1070
     2
1070
   284
1070
     8
1070
   278
1070
    46
1070
   146
1040
0.25
1070
   345
1005
16
1070
   347
1005
16
1070
   346
1005
16
1070
   344
1005
0
1070
   343
1005
0
1070
   172
1070
     1
1070
    76
1070
     0
1070
    75
1070
     0
1070
   282
1070
     0
1070
   281
1070
     0
1070
    71
1070
     0
1070
    74
1070
     0
1070
   279
1070
     0
1070
   173
1070
     1
1070
   340
1005
12F
1070
   271
1070
     2
1070
   272
1070
     2
1070
    77
1070
     1
1070
    73
1070
     0
1070
   171
1070
     3
1070
   274
1070
     4
1070
   177
1070
     7
1070
   176
1070
     7
1070
   178
1070
     7
1070
    78
1070
     8
1070
    48
1040
-0.1
1070
    41
1040
14.0
1070
   147
1040
7.000002
1070
    42
1040
1.5875
1070
    44
1040
10.0
1070
   140
1040
14.0
1002
}
1001
ACAD_DSTYLE_DIM_LINETYPE
1070
   380
1005
16
1001
ACAD_DSTYLE_DIM_EXT1_LINETYPE
1070
   381
1005
16
1001
ACAD_DSTYLE_DIM_EXT2_LINETYPE
1070
   382
1005
16
0
DIMENSION
5
198
100
AcDbEntity
8
2
62
256
6
ByLayer
370
18
48
1
60
0
100
AcDbDimension
2
_U4
10
132.540674
20
-16
30
0
11
132.540674
21
59.333333
31
0
70
32
71
1
72
1
41
1
210
0
220
0
230
1
3
Standard
100
AcDbAlignedDimension
13
-32.646011
23
0
33
0
14
50
24
-16
34
0
50
90
100
AcDbRotatedDimension
1001
ACAD
1000
DSTYLE
1002
{
1070
   371
1070
    35
1070
   372
1070
    35
1070
   170
1070
     0
1070
   144
1040
1.0
1070
   277
1070
     2
1070
   284
1070
     8
1070
   278
1070
    46
1070
   146
1040
0.25
1070
   345
1005
16
1070
   347
1005
16
1070
   346
1005
16
1070
   344
1005
0
1070
   343
1005
0
1070
   172
1070
     1
1070
    76
1070
     0
1070
    75
1070
     0
1070
   282
1070
     0
1070
   281
1070
     0
1070
    71
1070
     0
1070
    74
1070
     0
1070
   279
1070
     0
1070
   173
1070
     1
1070
   340
1005
12F
1070
   271
1070
     2
1070
   272
1070
     2
1070
    77
1070
     1
1070
    73
1070
     0
1070
   171
1070
     3
1070
   274
1070
     4
1070
   177
1070
     7
1070
   176
1070
     7
1070
   178
1070
     7
1070
    78
1070
     8
1070
    48
1040
-0.1
1070
    41
1040
14.0
1070
   147
1040
7.000002
1070
    42
1040
1.5875
1070
    44
1040
10.0
1070
   140
1040
14.0
1002
}
1001
ACAD_DSTYLE_DIM_LINETYPE
1070
   380
1005
16
1001
ACAD_DSTYLE_DIM_EXT1_LINETYPE
1070
   381
1005
16
1001
ACAD_DSTYLE_DIM_EXT2_LINETYPE
1070
   382
1005
16
0
ENDSEC
0
SECTION
2
OBJECTS
0
DICTIONARY
5
222
330
0
100
AcDbDictionary
280
0
281
1
3
ACAD_GROUP
350
223
3
ACAD_MLINESTYLE
350
224
0
DICTIONARY
5
223
330
0
100
AcDbDictionary
280
0
281
1
0
DICTIONARY
5
224
330
0
100
AcDbDictionary
280
0
281
1
3
Standard
350
18
0
MLINESTYLE
5
18
330
224
100
AcDbMlineStyle
2
Standard
70
0
3

62
256
51
90
52
90
71
2
49
-0.5
62
256
6
ByLayer
49
0.5
62
256
6
ByLayer
0
RASTERVARIABLES
5
210
330

100
AcDbRasterVariables
90
0
70
1
71
1
72
1
0
ENDSEC
0
EOF
