0
SECTION
2
HEADER
9
$ACADVER
1
AC1015
9
$DWGCODEPAGE
3
ANSI_1252
9
$HANDSEED
5
20a
9
$ANGBASE
50
0
9
$ANGDIR
70
0
9
$ATTMODE
70
1
9
$AUNITS
70
0
9
$AUPREC
70
0
9
$CECOLOR
62
256
9
$CELTSCALE
40
1
9
$CELTYPE
6
ByLayer
9
$CELWEIGHT
370
18
9
$CLAYER
8
0
9
$CMLJUST
70
0
9
$CMLSCALE
40
1
9
$CMLSTYLE
2
Standard
9
$DIMSTYLE
2
Standard
9
$TEXTSIZE
40
0.2
9
$TEXTSTYLE
7
Standard
9
$LUNITS
70
2
9
$LUPREC
70
4
9
$EXTNAMES
290
1
9
$INSUNITS
70
4
9
$LTSCALE
40
1
9
$LWDISPLAY
290
1
9
$PDMODE
70
0
9
$PDSIZE
40
0
9
$PLINEGEN
70
0
0
ENDSEC
0
SECTION
2
CLASSES
0
CLASS
1
RASTERVARIABLES
2
AcDbRasterVariables
3
ISM
90
0
280
0
281
0
0
ENDSEC
0
SECTION
2
TABLES
0
TABLE
2
VPORT
5
200
100
AcDbSymbolTable
0
VPORT
5
1
100
AcDbSymbolTableRecord
100
AcDbViewportTableRecord
2
*Active
70
0
10
0
20
0
11
1
21
1
12
-1
22
1
13
0
23
0
14
0.5
24
0.5
15
10
25
10
16
0
26
0
36
1
17
0
27
0
37
0
0
ENDTAB
0
TABLE
2
LTYPE
5
201
100
AcDbSymbolTable
0
LTYPE
5
14
100
AcDbSymbolTableRecord
100
AcDbLinetypeTableRecord
70
0
2
ByBlock
3

72
65
73
0
40
0
0
LTYPE
5
15
100
AcDbSymbolTableRecord
100
AcDbLinetypeTableRecord
70
0
2
ByLayer
3

72
65
73
0
40
0
0
LTYPE
5
16
100
AcDbSymbolTableRecord
100
AcDbLinetypeTableRecord
70
0
2
Continuous
3
Solid line
72
65
73
0
40
0
0
LTYPE
5
6E
100
AcDbSymbolTableRecord
100
AcDbLinetypeTableRecord
70
0
2
CENTER
3
____ _ ____ _ ____ _ ____
72
65
73
4
40
47.5
49
22
74
0
49
-8.5
74
0
49
8.5
74
0
49
-8.5
74
0
0
LTYPE
5
6F
100
AcDbSymbolTableRecord
100
AcDbLinetypeTableRecord
70
0
2
DASHED
3
__ __ __ __ __ __ __ __ __
72
65
73
2
40
25.72
49
12.86
74
0
49
-12.86
74
0
0
ENDTAB
0
TABLE
2
LAYER
5
202
100
AcDbSymbolTable
0
LAYER
5
10
100
AcDbSymbolTableRecord
100
AcDbLayerTableRecord
2
0
70
0
62
7
6
Continuous
290
1
370
-3
390
0
0
LAYER
5
71
100
AcDbSymbolTableRecord
100
AcDbLayerTableRecord
2
81
70
0
62
-3
6
Continuous
290
1
370
-3
390
0
0
LAYER
5
73
100
AcDbSymbolTableRecord
100
AcDbLayerTableRecord
2
80
70
0
62
-6
6
Continuous
290
1
370
-3
390
0
0
LAYER
5
75
100
AcDbSymbolTableRecord
100
AcDbLayerTableRecord
2
1
70
0
62
4
6
Continuous
290
1
370
-3
390
0
0
LAYER
5
7C
100
AcDbSymbolTableRecord
100
AcDbLayerTableRecord
2
4
70
0
62
-2
6
CENTER
290
1
370
-3
390
0
0
LAYER
5
10F
100
AcDbSymbolTableRecord
100
AcDbLayerTableRecord
2
Defpoints
70
0
62
7
6
Continuous
290
0
370
-3
390
0
0
LAYER
5
11C
100
AcDbSymbolTableRecord
100
AcDbLayerTableRecord
2
2
70
0
62
7
6
Continuous
290
1
370
-3
390
0
0
LAYER
5
1ec
100
AcDbSymbolTableRecord
100
AcDbLayerTableRecord
2
SK1
70
0
62
4
6
Continuous
290
1
370
-3
390
0
0
LAYER
5
1ed
100
AcDbSymbolTableRecord
100
AcDbLayerTableRecord
2
SK3
70
0
62
1
6
DASHED
290
1
370
-3
390
0
0
LAYER
5
1ee
100
AcDbSymbolTableRecord
100
AcDbLayerTableRecord
2
SK6
70
0
62
5
6
Continuous
290
1
370
-3
390
0
0
LAYER
5
1ef
100
AcDbSymbolTableRecord
100
AcDbLayerTableRecord
2
SK2
70
0
62
7
6
Continuous
290
1
370
-3
390
0
0
ENDTAB
0
TABLE
2
STYLE
5
203
100
AcDbSymbolTable
0
STYLE
5
11
100
AcDbSymbolTableRecord
100
AcDbTextStyleTableRecord
2
Standard
3
txt
70
0
71
0
40
0
41
1
42
0
50
0
0
STYLE
5
108
100
AcDbSymbolTableRecord
100
AcDbTextStyleTableRecord
2
AMGDT
3
AMGDT
70
0
71
0
40
0
41
1
42
0
50
0
0
STYLE
5
10C
100
AcDbSymbolTableRecord
100
AcDbTextStyleTableRecord
2
iso_b_vert
3
simplex.shx
70
0
71
0
40
0
41
1
42
0
50
0
0
STYLE
5
11F
100
AcDbSymbolTableRecord
100
AcDbTextStyleTableRecord
2
DWGDirectTextStyle
3
simplex
70
0
71
0
40
0
41
1
42
0
50
0
0
ENDTAB
0
TABLE
2
DIMSTYLE
5
204
100
AcDbSymbolTable
100
AcDbDimStyleTable
0
DIMSTYLE
105
27
100
AcDbSymbolTableRecord
100
AcDbDimStyleTableRecord
2
Standard
70
0
3
<>
41
0.18
42
0.0625
44
0.18
140
0.18
147
0.09
73
0
74
0
77
1
271
2
275
0
278
52
280
0
340
11
0
ENDTAB
0
TABLE
2
VIEW
5
205
100
AcDbSymbolTable
0
ENDTAB
0
TABLE
2
UCS
5
206
100
AcDbSymbolTable
0
ENDTAB
0
TABLE
2
APPID
5
207
100
AcDbSymbolTable
0
APPID
5
12
100
AcDbSymbolTableRecord
100
AcDbRegAppTableRecord
2
ACAD
70
0
0
APPID
5
10A
100
AcDbSymbolTableRecord
100
AcDbRegAppTableRecord
2
ACAD_DSTYLE_DIMBREAK
70
0
0
APPID
5
1AB
100
AcDbSymbolTableRecord
100
AcDbRegAppTableRecord
2
ACAD_DSTYLE_DIM_LINETYPE
70
0
0
APPID
5
1AC
100
AcDbSymbolTableRecord
100
AcDbRegAppTableRecord
2
ACAD_DSTYLE_DIM_EXT1_LINETYPE
70
0
0
APPID
5
1AD
100
AcDbSymbolTableRecord
100
AcDbRegAppTableRecord
2
ACAD_DSTYLE_DIM_EXT2_LINETYPE
70
0
0
APPID
5
1E8
100
AcDbSymbolTableRecord
100
AcDbRegAppTableRecord
2
ACAD_MLEADERVER
70
0
0
ENDTAB
0
TABLE
2
BLOCK_RECORD
5
208
100
AcDbSymbolTable
0
BLOCK_RECORD
5
1F
100
AcDbSymbolTableRecord
100
AcDbBlockTableRecord
2
*Model_Space
340
0
70
0
0
BLOCK_RECORD
5
1B
100
AcDbSymbolTableRecord
100
AcDbBlockTableRecord
2
*Paper_Space
340
0
70
0
0
BLOCK_RECORD
5
23
100
AcDbSymbolTableRecord
100
AcDbBlockTableRecord
2
*Paper_Space0
340
0
70
0
0
BLOCK_RECORD
5
110
100
AcDbSymbolTableRecord
100
AcDbBlockTableRecord
2
*D1
340
0
70
0
0
BLOCK_RECORD
5
11D
100
AcDbSymbolTableRecord
100
AcDbBlockTableRecord
2
_U0
340
0
70
0
0
BLOCK_RECORD
5
12A
100
AcDbSymbolTableRecord
100
AcDbBlockTableRecord
2
*D3
340
0
70
0
0
BLOCK_RECORD
5
136
100
AcDbSymbolTableRecord
100
AcDbBlockTableRecord
2
_U1
340
0
70
0
0
BLOCK_RECORD
5
142
100
AcDbSymbolTableRecord
100
AcDbBlockTableRecord
2
*D5
340
0
70
0
0
BLOCK_RECORD
5
150
100
AcDbSymbolTableRecord
100
AcDbBlockTableRecord
2
_U2
340
0
70
0
0
BLOCK_RECORD
5
15D
100
AcDbSymbolTableRecord
100
AcDbBlockTableRecord
2
*D7
340
0
70
0
0
BLOCK_RECORD
5
169
100
AcDbSymbolTableRecord
100
AcDbBlockTableRecord
2
_U3
340
0
70
0
0
BLOCK_RECORD
5
175
100
AcDbSymbolTableRecord
100
AcDbBlockTableRecord
2
*D9
340
0
70
0
0
BLOCK_RECORD
5
184
100
AcDbSymbolTableRecord
100
AcDbBlockTableRecord
2
_U4
340
0
70
0
0
ENDTAB
0
ENDSEC
0
SECTION
2
BLOCKS
0
BLOCK
5
20
100
AcDbEntity
8
0
100
AcDbBlockBegin
2
*Model_Space
70
0
10
0
20
0
30
0
3
*Model_Space
0
ENDBLK
5
21
100
AcDbEntity
8
0
100
AcDbBlockEnd
0
BLOCK
5
1C
100
AcDbEntity
8
0
100
AcDbBlockBegin
2
*Paper_Space
70
0
10
0
20
0
30
0
3
*Paper_Space
0
ENDBLK
5
1D
100
AcDbEntity
8
0
100
AcDbBlockEnd
0
BLOCK
5
24
100
AcDbEntity
8
0
100
AcDbBlockBegin
2
*Paper_Space0
70
0
10
0
20
0
30
0
3
*Paper_Space0
0
ENDBLK
5
25
100
AcDbEntity
8
0
100
AcDbBlockEnd
0
BLOCK
5
111
100
AcDbEntity
8
0
100
AcDbBlockBegin
2
*D1
70
1
10
0
20
0
30
0
3
*D1
0
LINE
5
113
100
AcDbEntity
8
0
62
256
6
ByLayer
370
-2
48
1
60
0
100
AcDbLine
10
0
20
126.5875
30
0
11
0
21
155.721695
31
0
39
0
210
0
220
0
230
1
0
LINE
5
114
100
AcDbEntity
8
0
62
256
6
ByLayer
370
-2
48
1
60
0
100
AcDbLine
10
172
20
96.5875
30
0
11
172
21
155.721695
31
0
39
0
210
0
220
0
230
1
0
LINE
5
115
100
AcDbEntity
8
0
62
256
6
ByLayer
370
-2
48
1
60
0
100
AcDbLine
10
14
20
145.721695
30
0
11
158
21
145.721695
31
0
39
0
210
0
220
0
230
1
0
SOLID
5
116
100
AcDbEntity
8
0
62
256
6
ByLayer
370
-1
48
1
60
0
100
AcDbTrace
10
14
20
148.055028
30
0
11
14
21
143.388362
31
0
12
0
22
145.721695
32
0
13
0
23
145.721695
33
0
39
0
210
0
220
0
230
1
0
SOLID
5
117
100
AcDbEntity
8
0
62
256
6
ByLayer
370
-1
48
1
60
0
100
AcDbTrace
10
158
20
143.388362
30
0
11
158
21
148.055028
31
0
12
172
22
145.721695
32
0
13
172
23
145.721695
33
0
39
0
210
0
220
0
230
1
0
MTEXT
5
118
100
AcDbEntity
8
0
62
256
6
ByLayer
370
18
48
1
60
0
100
AcDbMText
10
86
20
173.721695
30
0
210
0
220
0
230
1
1
\A1;172
40
14
41
0
44
1
50
0
71
5
72
5
7
iso_b_vert
0
POINT
5
119
100
AcDbEntity
8
Defpoints
62
0
6
ByLayer
370
-1
48
1
60
0
100
AcDbPoint
10
0
20
125
30
0
39
0
210
0
220
0
230
1
50
360
0
POINT
5
11A
100
AcDbEntity
8
Defpoints
62
0
6
ByLayer
370
-1
48
1
60
0
100
AcDbPoint
10
172
20
95
30
0
39
0
210
0
220
0
230
1
50
360
0
POINT
5
11B
100
AcDbEntity
8
Defpoints
62
0
6
ByLayer
370
-1
48
1
60
0
100
AcDbPoint
10
172
20
145.721695
30
0
39
0
210
0
220
0
230
1
50
360
0
ENDBLK
5
112
100
AcDbEntity
8
0
100
AcDbBlockEnd
0
BLOCK
5
125
100
AcDbEntity
8
0
100
AcDbBlockBegin
2
_U0
70
0
10
0
20
0
30
0
3
_U0
0
MTEXT
5
11E
100
AcDbEntity
8
2
62
256
6
ByLayer
370
18
48
1
60
0
100
AcDbMText
10
74.898936
20
149.852231
30
0
210
0
220
0
230
1
1
\W0.6433;172
40
14
41
0
44
1.084337
50
0
71
7
72
5
7
iso_b_vert
0
LINE
5
120
100
AcDbEntity
8
2
62
256
6
ByLayer
370
35
48
1
60
0
100
AcDbLine
10
0
20
126.5875
30
0
11
0
21
155.721695
31
0
39
0
210
0
220
0
230
1
0
LINE
5
121
100
AcDbEntity
8
2
62
256
6
ByLayer
370
35
48
1
60
0
100
AcDbLine
10
172
20
96.5875
30
0
11
172
21
155.721695
31
0
39
0
210
0
220
0
230
1
0
LINE
5
122
100
AcDbEntity
8
2
62
256
6
ByLayer
370
35
48
1
60
0
100
AcDbLine
10
0
20
145.721695
30
0
11
172
21
145.721695
31
0
39
0
210
0
220
0
230
1
0
SOLID
5
123
100
AcDbEntity
8
2
62
256
6
ByLayer
370
18
48
1
60
0
100
AcDbTrace
10
0
20
145.721695
30
0
11
13.999991
21
148.054445
31
0
12
14.000009
22
143.388945
32
0
13
14.000009
23
143.388945
33
0
39
0
210
0
220
0
230
1
0
SOLID
5
124
100
AcDbEntity
8
2
62
256
6
ByLayer
370
18
48
1
60
0
100
AcDbTrace
10
172
20
145.721695
30
0
11
158.000009
21
143.388945
31
0
12
157.999991
22
148.054445
32
0
13
157.999991
23
148.054445
33
0
39
0
210
0
220
0
230
1
0
ENDBLK
5
126
100
AcDbEntity
8
0
100
AcDbBlockEnd
0
BLOCK
5
12B
100
AcDbEntity
8
0
100
AcDbBlockBegin
2
*D3
70
1
10
0
20
0
30
0
3
*D3
0
LINE
5
12D
100
AcDbEntity
8
0
62
256
6
ByLayer
370
-2
48
1
60
0
100
AcDbLine
10
0
20
-1.5875
30
0
11
0
21
-108.5
31
0
39
0
210
0
220
0
230
1
0
LINE
5
12E
100
AcDbEntity
8
0
62
256
6
ByLayer
370
-2
48
1
60
0
100
AcDbLine
10
130
20
-17.5875
30
0
11
130
21
-108.5
31
0
39
0
210
0
220
0
230
1
0
LINE
5
12F
100
AcDbEntity
8
0
62
256
6
ByLayer
370
-2
48
1
60
0
100
AcDbLine
10
14
20
-98.5
30
0
11
116
21
-98.5
31
0
39
0
210
0
220
0
230
1
0
SOLID
5
130
100
AcDbEntity
8
0
62
256
6
ByLayer
370
-1
48
1
60
0
100
AcDbTrace
10
14
20
-96.166667
30
0
11
14
21
-100.833333
31
0
12
0
22
-98.5
32
0
13
0
23
-98.5
33
0
39
0
210
0
220
0
230
1
0
SOLID
5
131
100
AcDbEntity
8
0
62
256
6
ByLayer
370
-1
48
1
60
0
100
AcDbTrace
10
116
20
-100.833333
30
0
11
116
21
-96.166667
31
0
12
130
22
-98.5
32
0
13
130
23
-98.5
33
0
39
0
210
0
220
0
230
1
0
MTEXT
5
132
100
AcDbEntity
8
0
62
256
6
ByLayer
370
18
48
1
60
0
100
AcDbMText
10
65
20
-70.5
30
0
210
0
220
0
230
1
1
\A1;130
40
14
41
0
44
1
50
0
71
5
72
5
7
iso_b_vert
0
POINT
5
133
100
AcDbEntity
8
Defpoints
62
0
6
ByLayer
370
-1
48
1
60
0
100
AcDbPoint
10
0
20
0
30
0
39
0
210
0
220
0
230
1
50
360
0
POINT
5
134
100
AcDbEntity
8
Defpoints
62
0
6
ByLayer
370
-1
48
1
60
0
100
AcDbPoint
10
130
20
-16
30
0
39
0
210
0
220
0
230
1
50
360
0
POINT
5
135
100
AcDbEntity
8
Defpoints
62
0
6
ByLayer
370
-1
48
1
60
0
100
AcDbPoint
10
130
20
-98.5
30
0
39
0
210
0
220
0
230
1
50
360
0
ENDBLK
5
12C
100
AcDbEntity
8
0
100
AcDbBlockEnd
0
BLOCK
5
13D
100
AcDbEntity
8
0
100
AcDbBlockBegin
2
_U1
70
0
10
0
20
0
30
0
3
_U1
0
MTEXT
5
137
100
AcDbEntity
8
2
62
256
6
ByLayer
370
18
48
1
60
0
100
AcDbMText
10
53.898936
20
-94.369464
30
0
210
0
220
0
230
1
1
\W0.6433;130
40
14
41
0
44
1.084337
50
0
71
7
72
5
7
iso_b_vert
0
LINE
5
138
100
AcDbEntity
8
2
62
256
6
ByLayer
370
35
48
1
60
0
100
AcDbLine
10
0
20
-1.5875
30
0
11
0
21
-108.5
31
0
39
0
210
0
220
0
230
1
0
LINE
5
139
100
AcDbEntity
8
2
62
256
6
ByLayer
370
35
48
1
60
0
100
AcDbLine
10
130
20
-17.5875
30
0
11
130
21
-108.5
31
0
39
0
210
0
220
0
230
1
0
LINE
5
13A
100
AcDbEntity
8
2
62
256
6
ByLayer
370
35
48
1
60
0
100
AcDbLine
10
0
20
-98.5
30
0
11
130
21
-98.5
31
0
39
0
210
0
220
0
230
1
0
SOLID
5
13B
100
AcDbEntity
8
2
62
256
6
ByLayer
370
18
48
1
60
0
100
AcDbTrace
10
0
20
-98.5
30
0
11
13.999991
21
-96.16725
31
0
12
14.000009
22
-100.83275
32
0
13
14.000009
23
-100.83275
33
0
39
0
210
0
220
0
230
1
0
SOLID
5
13C
100
AcDbEntity
8
2
62
256
6
ByLayer
370
18
48
1
60
0
100
AcDbTrace
10
130
20
-98.5
30
0
11
116.000009
21
-100.83275
31
0
12
115.999991
22
-96.16725
32
0
13
115.999991
23
-96.16725
33
0
39
0
210
0
220
0
230
1
0
ENDBLK
5
13E
100
AcDbEntity
8
0
100
AcDbBlockEnd
0
BLOCK
5
143
100
AcDbEntity
8
0
100
AcDbBlockBegin
2
*D5
70
1
10
0
20
0
30
0
3
*D5
0
LINE
5
145
100
AcDbEntity
8
0
62
256
6
ByLayer
370
-2
48
1
60
0
100
AcDbLine
10
98.5
20
-17.5875
30
0
11
98.5
21
-74.961901
31
0
39
0
210
0
220
0
230
1
0
LINE
5
146
100
AcDbEntity
8
0
62
256
6
ByLayer
370
-2
48
1
60
0
100
AcDbLine
10
161.5
20
-17.5875
30
0
11
161.5
21
-74.961901
31
0
39
0
210
0
220
0
230
1
0
LINE
5
147
100
AcDbEntity
8
0
62
256
6
ByLayer
370
-2
48
1
60
0
100
AcDbLine
10
161.5
20
-64.961901
30
0
11
253.5
21
-64.961901
31
0
39
0
210
0
220
0
230
1
0
LINE
5
148
100
AcDbEntity
8
0
62
256
6
ByLayer
370
-2
48
1
60
0
100
AcDbLine
10
84.5
20
-64.961901
30
0
11
70.5
21
-64.961901
31
0
39
0
210
0
220
0
230
1
0
LINE
5
149
100
AcDbEntity
8
0
62
256
6
ByLayer
370
-2
48
1
60
0
100
AcDbLine
10
175.5
20
-64.961901
30
0
11
189.5
21
-64.961901
31
0
39
0
210
0
220
0
230
1
0
SOLID
5
14A
100
AcDbEntity
8
0
62
256
6
ByLayer
370
-1
48
1
60
0
100
AcDbTrace
10
84.5
20
-67.295234
30
0
11
84.5
21
-62.628567
31
0
12
98.5
22
-64.961901
32
0
13
98.5
23
-64.961901
33
0
39
0
210
0
220
0
230
1
0
SOLID
5
14B
100
AcDbEntity
8
0
62
256
6
ByLayer
370
-1
48
1
60
0
100
AcDbTrace
10
175.5
20
-62.628567
30
0
11
175.5
21
-67.295234
31
0
12
161.5
22
-64.961901
32
0
13
161.5
23
-64.961901
33
0
39
0
210
0
220
0
230
1
0
MTEXT
5
14C
100
AcDbEntity
8
0
62
256
6
ByLayer
370
18
48
1
60
0
100
AcDbMText
10
221.5
20
-36.961901
30
0
210
0
220
0
230
1
1
\A1;63
40
14
41
0
44
1
50
0
71
5
72
5
7
iso_b_vert
0
POINT
5
14D
100
AcDbEntity
8
Defpoints
62
0
6
ByLayer
370
-1
48
1
60
0
100
AcDbPoint
10
98.5
20
-16
30
0
39
0
210
0
220
0
230
1
50
360
0
POINT
5
14E
100
AcDbEntity
8
Defpoints
62
0
6
ByLayer
370
-1
48
1
60
0
100
AcDbPoint
10
161.5
20
-16
30
0
39
0
210
0
220
0
230
1
50
360
0
POINT
5
14F
100
AcDbEntity
8
Defpoints
62
0
6
ByLayer
370
-1
48
1
60
0
100
AcDbPoint
10
161.5
20
-64.961901
30
0
39
0
210
0
220
0
230
1
50
360
0
ENDBLK
5
144
100
AcDbEntity
8
0
100
AcDbBlockEnd
0
BLOCK
5
158
100
AcDbEntity
8
0
100
AcDbBlockBegin
2
_U2
70
0
10
0
20
0
30
0
3
_U2
0
MTEXT
5
151
100
AcDbEntity
8
2
62
256
6
ByLayer
370
18
48
1
60
0
100
AcDbMText
10
204.19628
20
-57.331365
30
0
210
0
220
0
230
1
1
\W0.6337;63
40
14
41
0
44
1.084337
50
0
71
7
72
5
7
iso_b_vert
0
MTEXT
5
152
100
AcDbEntity
8
2
62
256
6
ByLayer
370
18
48
1
60
0
100
AcDbMText
10
169.19628
20
-57.331365
30
0
210
0
220
0
230
1
1
%%c
40
14
41
0
44
1.084337
50
0
71
7
72
5
7
iso_b_vert
0
LINE
5
153
100
AcDbEntity
8
2
62
256
6
ByLayer
370
35
48
1
60
0
100
AcDbLine
10
98.5
20
-17.5875
30
0
11
98.5
21
-74.961901
31
0
39
0
210
0
220
0
230
1
0
LINE
5
154
100
AcDbEntity
8
2
62
256
6
ByLayer
370
35
48
1
60
0
100
AcDbLine
10
161.5
20
-17.5875
30
0
11
161.5
21
-74.961901
31
0
39
0
210
0
220
0
230
1
0
LINE
5
155
100
AcDbEntity
8
2
62
256
6
ByLayer
370
35
48
1
60
0
100
AcDbLine
10
98.5
20
-64.961901
30
0
11
220.178009
21
-64.961901
31
0
39
0
210
0
220
0
230
1
0
SOLID
5
156
100
AcDbEntity
8
2
62
256
6
ByLayer
370
18
48
1
60
0
100
AcDbTrace
10
98.5
20
-64.961901
30
0
11
112.499991
21
-62.62915
31
0
12
112.500009
22
-67.294651
32
0
13
112.500009
23
-67.294651
33
0
39
0
210
0
220
0
230
1
0
SOLID
5
157
100
AcDbEntity
8
2
62
256
6
ByLayer
370
18
48
1
60
0
100
AcDbTrace
10
161.5
20
-64.961901
30
0
11
147.500009
21
-67.294651
31
0
12
147.499991
22
-62.62915
32
0
13
147.499991
23
-62.62915
33
0
39
0
210
0
220
0
230
1
0
ENDBLK
5
159
100
AcDbEntity
8
0
100
AcDbBlockEnd
0
BLOCK
5
15E
100
AcDbEntity
8
0
100
AcDbBlockBegin
2
*D7
70
1
10
0
20
0
30
0
3
*D7
0
LINE
5
160
100
AcDbEntity
8
0
62
256
6
ByLayer
370
-2
48
1
60
0
100
AcDbLine
10
61.625976
20
125
30
0
11
214.342872
21
125
31
0
39
0
210
0
220
0
230
1
0
LINE
5
161
100
AcDbEntity
8
0
62
256
6
ByLayer
370
-2
48
1
60
0
100
AcDbLine
10
163.0875
20
-16
30
0
11
214.342872
21
-16
31
0
39
0
210
0
220
0
230
1
0
LINE
5
162
100
AcDbEntity
8
0
62
256
6
ByLayer
370
-2
48
1
60
0
100
AcDbLine
10
204.342872
20
111
30
0
11
204.342872
21
-2
31
0
39
0
210
0
220
0
230
1
0
SOLID
5
163
100
AcDbEntity
8
0
62
256
6
ByLayer
370
-1
48
1
60
0
100
AcDbTrace
10
206.676205
20
111
30
0
11
202.009538
21
111
31
0
12
204.342872
22
125
32
0
13
204.342872
23
125
33
0
39
0
210
0
220
0
230
1
0
SOLID
5
164
100
AcDbEntity
8
0
62
256
6
ByLayer
370
-1
48
1
60
0
100
AcDbTrace
10
202.009538
20
-2
30
0
11
206.676205
21
-2
31
0
12
204.342872
22
-16
32
0
13
204.342872
23
-16
33
0
39
0
210
0
220
0
230
1
0
MTEXT
5
165
100
AcDbEntity
8
0
62
256
6
ByLayer
370
18
48
1
60
0
100
AcDbMText
10
176.342872
20
54.5
30
0
210
0
220
0
230
1
1
\A1;141
40
14
41
0
44
1
50
90
71
5
72
5
7
iso_b_vert
0
POINT
5
166
100
AcDbEntity
8
Defpoints
62
0
6
ByLayer
370
-1
48
1
60
0
100
AcDbPoint
10
60.038476
20
125
30
0
39
0
210
0
220
0
230
1
50
360
0
POINT
5
167
100
AcDbEntity
8
Defpoints
62
0
6
ByLayer
370
-1
48
1
60
0
100
AcDbPoint
10
161.5
20
-16
30
0
39
0
210
0
220
0
230
1
50
360
0
POINT
5
168
100
AcDbEntity
8
Defpoints
62
0
6
ByLayer
370
-1
48
1
60
0
100
AcDbPoint
10
204.342872
20
-16
30
0
39
0
210
0
220
0
230
1
50
360
0
ENDBLK
5
15F
100
AcDbEntity
8
0
100
AcDbBlockEnd
0
BLOCK
5
170
100
AcDbEntity
8
0
100
AcDbBlockBegin
2
_U3
70
0
10
0
20
0
30
0
3
_U3
0
MTEXT
5
16A
100
AcDbEntity
8
2
62
256
6
ByLayer
370
18
48
1
60
0
100
AcDbMText
10
201.584336
20
44.299602
30
0
210
0
220
0
230
1
1
\W0.6353;141
40
14
41
0
44
1.084337
50
90
71
7
72
5
7
iso_b_vert
0
LINE
5
16B
100
AcDbEntity
8
2
62
256
6
ByLayer
370
35
48
1
60
0
100
AcDbLine
10
61.625976
20
125
30
0
11
214.342872
21
125
31
0
39
0
210
0
220
0
230
1
0
LINE
5
16C
100
AcDbEntity
8
2
62
256
6
ByLayer
370
35
48
1
60
0
100
AcDbLine
10
163.0875
20
-16
30
0
11
214.342872
21
-16
31
0
39
0
210
0
220
0
230
1
0
LINE
5
16D
100
AcDbEntity
8
2
62
256
6
ByLayer
370
35
48
1
60
0
100
AcDbLine
10
204.342872
20
125
30
0
11
204.342872
21
-16
31
0
39
0
210
0
220
0
230
1
0
SOLID
5
16E
100
AcDbEntity
8
2
62
256
6
ByLayer
370
18
48
1
60
0
100
AcDbTrace
10
204.342872
20
125
30
0
11
206.675622
21
111.000009
31
0
12
202.010122
22
110.999991
32
0
13
202.010122
23
110.999991
33
0
39
0
210
0
220
0
230
1
0
SOLID
5
16F
100
AcDbEntity
8
2
62
256
6
ByLayer
370
18
48
1
60
0
100
AcDbTrace
10
204.342872
20
-16
30
0
11
202.010122
21
-2.000009
31
0
12
206.675622
22
-1.999991
32
0
13
206.675622
23
-1.999991
33
0
39
0
210
0
220
0
230
1
0
ENDBLK
5
171
100
AcDbEntity
8
0
100
AcDbBlockEnd
0
BLOCK
5
176
100
AcDbEntity
8
0
100
AcDbBlockBegin
2
*D9
70
1
10
0
20
0
30
0
3
*D9
0
LINE
5
178
100
AcDbEntity
8
0
62
256
6
ByLayer
370
-2
48
1
60
0
100
AcDbLine
10
-34.233511
20
0
30
0
11
-56.37866
21
0
31
0
39
0
210
0
220
0
230
1
0
LINE
5
179
100
AcDbEntity
8
0
62
256
6
ByLayer
370
-2
48
1
60
0
100
AcDbLine
10
96.9125
20
-16
30
0
11
-56.37866
21
-16
31
0
39
0
210
0
220
0
230
1
0
LINE
5
17A
100
AcDbEntity
8
0
62
256
6
ByLayer
370
-2
48
1
60
0
100
AcDbLine
10
-46.37866
20
-16
30
0
11
-46.37866
21
-106.666667
31
0
39
0
210
0
220
0
230
1
0
LINE
5
17B
100
AcDbEntity
8
0
62
256
6
ByLayer
370
-2
48
1
60
0
100
AcDbLine
10
-46.37866
20
14
30
0
11
-46.37866
21
28
31
0
39
0
210
0
220
0
230
1
0
LINE
5
17C
100
AcDbEntity
8
0
62
256
6
ByLayer
370
-2
48
1
60
0
100
AcDbLine
10
-46.37866
20
-30
30
0
11
-46.37866
21
-44
31
0
39
0
210
0
220
0
230
1
0
SOLID
5
17D
100
AcDbEntity
8
0
62
256
6
ByLayer
370
-1
48
1
60
0
100
AcDbTrace
10
-48.711993
20
14
30
0
11
-44.045327
21
14
31
0
12
-46.37866
22
0
32
0
13
-46.37866
23
0
33
0
39
0
210
0
220
0
230
1
0
SOLID
5
17E
100
AcDbEntity
8
0
62
256
6
ByLayer
370
-1
48
1
60
0
100
AcDbTrace
10
-44.045327
20
-30
30
0
11
-48.711993
21
-30
31
0
12
-46.37866
22
-16
32
0
13
-46.37866
23
-16
33
0
39
0
210
0
220
0
230
1
0
MTEXT
5
17F
100
AcDbEntity
8
0
62
256
6
ByLayer
370
18
48
1
60
0
100
AcDbMText
10
-74.37866
20
-75.333333
30
0
210
0
220
0
230
1
1
\A1;16
40
14
41
0
44
1
50
90
71
5
72
5
7
iso_b_vert
0
POINT
5
180
100
AcDbEntity
8
Defpoints
62
0
6
ByLayer
370
-1
48
1
60
0
100
AcDbPoint
10
-32.646011
20
0
30
0
39
0
210
0
220
0
230
1
50
360
0
POINT
5
181
100
AcDbEntity
8
Defpoints
62
0
6
ByLayer
370
-1
48
1
60
0
100
AcDbPoint
10
98.5
20
-16
30
0
39
0
210
0
220
0
230
1
50
360
0
POINT
5
182
100
AcDbEntity
8
Defpoints
62
0
6
ByLayer
370
-1
48
1
60
0
100
AcDbPoint
10
-46.37866
20
-16
30
0
39
0
210
0
220
0
230
1
50
360
0
ENDBLK
5
177
100
AcDbEntity
8
0
100
AcDbBlockEnd
0
BLOCK
5
18B
100
AcDbEntity
8
0
100
AcDbBlockBegin
2
_U4
70
0
10
0
20
0
30
0
3
_U4
0
MTEXT
5
185
100
AcDbEntity
8
SK2
62
256
6
ByLayer
370
18
48
1
60
0
100
AcDbMText
10
-49.137196
20
-55.278177
30
0
210
0
220
0
230
1
1
\W0.5560;16
40
14
41
0
44
1.084337
50
90
71
7
72
5
7
iso_b_vert
0
LINE
5
186
100
AcDbEntity
8
SK2
62
256
6
ByLayer
370
35
48
1
60
0
100
AcDbLine
10
-34.233511
20
0
30
0
11
-56.37866
21
0
31
0
39
0
210
0
220
0
230
1
0
LINE
5
187
100
AcDbEntity
8
SK2
62
256
6
ByLayer
370
35
48
1
60
0
100
AcDbLine
10
96.9125
20
-16
30
0
11
-56.37866
21
-16
31
0
39
0
210
0
220
0
230
1
0
LINE
5
188
100
AcDbEntity
8
SK2
62
256
6
ByLayer
370
35
48
1
60
0
100
AcDbLine
10
-46.37866
20
-55.908177
30
0
11
-46.37866
21
35
31
0
39
0
210
0
220
0
230
1
0
SOLID
5
189
100
AcDbEntity
8
SK2
62
256
6
ByLayer
370
18
48
1
60
0
100
AcDbTrace
10
-46.37866
20
0
30
0
11
-48.71141
21
13.999991
31
0
12
-44.04591
22
14.000009
32
0
13
-44.04591
23
14.000009
33
0
39
0
210
0
220
0
230
1
0
SOLID
5
18A
100
AcDbEntity
8
SK2
62
256
6
ByLayer
370
18
48
1
60
0
100
AcDbTrace
10
-46.37866
20
-16
30
0
11
-44.04591
21
-29.999991
31
0
12
-48.71141
22
-30.000009
32
0
13
-48.71141
23
-30.000009
33
0
39
0
210
0
220
0
230
1
0
ENDBLK
5
18C
100
AcDbEntity
8
0
100
AcDbBlockEnd
0
ENDSEC
0
SECTION
2
ENTITIES
0
ARC
5
F0
100
AcDbEntity
8
1
62
256
6
ByLayer
370
18
48
1
60
0
100
AcDbCircle
39
0
10
162.832945
20
58
30
0
40
9.99999999999998
210
0
220
0
230
1
100
AcDbArc
50
336.449174
51
346.11346
0
ARC
5
F1
100
AcDbEntity
8
1
62
256
6
ByLayer
370
18
48
1
60
0
100
AcDbCircle
39
0
10
162.832945
20
58
30
0
40
10
210
0
220
0
230
1
100
AcDbArc
50
13.88654
51
23.550826
0
ARC
5
F6
100
AcDbEntity
8
1
62
256
6
ByLayer
370
18
48
1
60
0
100
AcDbCircle
39
0
10
80.1
20
54.4
30
0
40
4
210
0
220
0
230
1
100
AcDbArc
50
75
51
345
0
ARC
5
F7
100
AcDbEntity
8
1
62
256
6
ByLayer
370
18
48
1
60
0
100
AcDbCircle
39
0
10
40.585
20
7.2
30
0
40
1.19999999999999
210
0
220
0
230
1
100
AcDbArc
50
270
51
0
0
ARC
5
F8
100
AcDbEntity
8
1
62
256
6
ByLayer
370
18
48
1
60
0
100
AcDbCircle
39
0
10
40.585
20
22.8
30
0
40
1.19999999999999
210
0
220
0
230
1
100
AcDbArc
50
0
51
90
0
ARC
5
F9
100
AcDbEntity
8
1
62
256
6
ByLayer
370
18
48
1
60
0
100
AcDbCircle
39
0
10
40.585
20
102.2
30
0
40
1.19999999999999
210
0
220
0
230
1
100
AcDbArc
50
270
51
0
0
ARC
5
FA
100
AcDbEntity
8
1
62
256
6
ByLayer
370
18
48
1
60
0
100
AcDbCircle
39
0
10
40.585
20
117.8
30
0
40
1.19999999999999
210
0
220
0
230
1
100
AcDbArc
50
0
51
90
0
ARC
5
FB
100
AcDbEntity
8
1
62
256
6
ByLayer
370
18
48
1
60
0
100
AcDbCircle
39
0
10
40.585
20
54.7
30
0
40
1.19999999999999
210
0
220
0
230
1
100
AcDbArc
50
270
51
0
0
ARC
5
FC
100
AcDbEntity
8
1
62
256
6
ByLayer
370
18
48
1
60
0
100
AcDbCircle
39
0
10
40.585
20
70.3
30
0
40
1.19999999999999
210
0
220
0
230
1
100
AcDbArc
50
0
51
90
0
ARC
5
100
100
AcDbEntity
8
SK1
62
256
6
ByLayer
370
18
48
1
60
0
100
AcDbCircle
39
0
10
0.55
20
33
30
0
40
1
210
0
220
0
230
1
100
AcDbArc
50
180
51
236.635331
0
ARC
5
101
100
AcDbEntity
8
SK1
62
256
6
ByLayer
370
18
48
1
60
0
100
AcDbCircle
39
0
10
0.55
20
47
30
0
40
1.00000000000002
210
0
220
0
230
1
100
AcDbArc
50
123.364669
51
180
0
CIRCLE
5
F2
100
AcDbEntity
8
1
62
256
6
ByLayer
370
18
48
1
60
0
100
AcDbCircle
10
20
20
40
30
0
40
5
39
0
210
0
220
0
230
1
0
CIRCLE
5
F3
100
AcDbEntity
8
1
62
256
6
ByLayer
370
18
48
1
60
0
100
AcDbCircle
10
20
20
40
30
0
40
3.6
39
0
210
0
220
0
230
1
0
CIRCLE
5
F4
100
AcDbEntity
8
1
62
256
6
ByLayer
370
18
48
1
60
0
100
AcDbCircle
10
20
20
40
30
0
40
4.87607037279951
39
0
210
0
220
0
230
1
0
CIRCLE
5
F5
100
AcDbEntity
8
1
62
256
6
ByLayer
370
18
48
1
60
0
100
AcDbCircle
10
20
20
40
30
0
40
4.44120807570045
39
0
210
0
220
0
230
1
0
CIRCLE
5
FD
100
AcDbEntity
8
1
62
256
6
ByLayer
370
18
48
1
60
0
100
AcDbCircle
10
80.1
20
54.4
30
0
40
3.4
39
0
210
0
220
0
230
1
0
CIRCLE
5
FE
100
AcDbEntity
8
1
62
256
6
ByLayer
370
18
48
1
60
0
100
AcDbCircle
10
80.1
20
54.4
30
0
40
4
39
0
210
0
220
0
230
1
0
CIRCLE
5
FF
100
AcDbEntity
8
1
62
256
6
ByLayer
370
18
48
1
60
0
100
AcDbCircle
10
20
20
40
30
0
40
5.025
39
0
210
0
220
0
230
1
0
POINT
5
70
100
AcDbEntity
8
81
62
256
6
ByLayer
370
18
48
1
60
0
100
AcDbPoint
10
130
20
-16
30
0
39
0
210
0
220
0
230
1
50
360
0
POINT
5
72
100
AcDbEntity
8
80
62
256
6
ByLayer
370
18
48
1
60
0
100
AcDbPoint
10
0
20
0
30
0
39
0
210
0
220
0
230
1
50
360
0
POINT
5
74
100
AcDbEntity
8
1
62
256
6
ByLayer
370
13
48
1
60
1
100
AcDbPoint
10
461.895414
20
173.312342
30
0
39
0
210
0
220
0
230
1
50
360
0
POINT
5
76
100
AcDbEntity
8
1
62
256
6
ByLayer
370
13
48
1
60
1
100
AcDbPoint
10
461.895414
20
169.812342
30
0
39
0
210
0
220
0
230
1
50
360
0
POINT
5
77
100
AcDbEntity
8
1
62
256
6
ByLayer
370
13
48
1
60
1
100
AcDbPoint
10
517.834265
20
179.325084
30
0
39
0
210
0
220
0
230
1
50
360
0
POINT
5
78
100
AcDbEntity
8
1
62
256
6
ByLayer
370
13
48
1
60
1
100
AcDbPoint
10
517.834265
20
175.825084
30
0
39
0
210
0
220
0
230
1
50
360
0
SPLINE
5
102
100
AcDbEntity
8
SK3
62
256
6
ByLayer
370
18
48
0.05
60
0
100
AcDbSpline
70
4
71
3
72
294
73
290
40
0
40
0
40
0
40
0
40
0.0069444385827828
40
0.0069444385827828
40
0.0138889046580654
40
0.0138889046580654
40
0.0190972194982251
40
0.0190972194982251
40
0.0243055618308997
40
0.0243055618308997
40
0.032118061934295
40
0.032118061934295
40
0.0399305627391053
40
0.0399305627391053
40
0.0477430628425001
40
0.0477430628425001
40
0.055555562945895
40
0.055555562945895
40
0.0625000015286739
40
0.0625000015286739
40
0.0694444394101011
40
0.0694444394101011
40
0.0755208446661568
40
0.0755208446661568
40
0.0815972210269365
40
0.0815972210269365
40
0.0869140649656021
40
0.0869140649656021
40
0.0922309082028833
40
0.0922309082028833
40
0.101535364125533
40
0.101535364125533
40
0.110839847540599
40
0.110839847540599
40
0.117818196180324
40
0.117818196180324
40
0.124796544820052
40
0.124796544820052
40
0.130030305949156
40
0.130030305949156
40
0.135264067779689
40
0.135264067779689
40
0.143114709824038
40
0.143114709824038
40
0.150965380763698
40
0.150965380763698
40
0.158816022808047
40
0.158816022808047
40
0.166666665553848
40
0.166666665553848
40
0.173611104136651
40
0.173611104136651
40
0.180555542719451
40
0.180555542719451
40
0.186631947975513
40
0.186631947975513
40
0.192708325037715
40
0.192708325037715
40
0.198025168976384
40
0.198025168976384
40
0.203342012915056
40
0.203342012915056
40
0.212646468837711
40
0.212646468837711
40
0.221950952954214
40
0.221950952954214
40
0.228929302295417
40
0.228929302295417
40
0.235907651636619
40
0.235907651636619
40
0.24114141346714
40
0.24114141346714
40
0.246375175297663
40
0.246375175297663
40
0.25422581804345
40
0.25422581804345
40
0.262076460789237
40
0.262076460789237
40
0.269927131728882
40
0.269927131728882
40
0.277777774474668
40
0.277777774474668
40
0.284722213758929
40
0.284722213758929
40
0.291666653043187
40
0.291666653043187
40
0.29774303080693
40
0.29774303080693
40
0.303819436062979
40
0.303819436062979
40
0.30913628070318
40
0.30913628070318
40
0.314453124641845
40
0.314453124641845
40
0.323757581266004
40
0.323757581266004
40
0.333062066084012
40
0.333062066084012
40
0.340040415425194
40
0.340040415425194
40
0.347018764766377
40
0.347018764766377
40
0.352252527298463
40
0.352252527298463
40
0.357486289128973
40
0.357486289128973
40
0.365336932576293
40
0.365336932576293
40
0.373187576023612
40
0.373187576023612
40
0.381038219470933
40
0.381038219470933
40
0.388888862918253
40
0.388888862918253
40
0.395833330396353
40
0.395833330396353
40
0.402777770382186
40
0.402777770382186
40
0.40885414814592
40
0.40885414814592
40
0.414930554103504
40
0.414930554103504
40
0.420247370549851
40
0.420247370549851
40
0.425564215190049
40
0.425564215190049
40
0.434868700709671
40
0.434868700709671
40
0.444173157333826
40
0.444173157333826
40
0.451151507376614
40
0.451151507376614
40
0.458129857419403
40
0.458129857419403
40
0.463363619951496
40
0.463363619951496
40
0.468597410677438
40
0.468597410677438
40
0.476448054826418
40
0.476448054826418
40
0.484298698273743
40
0.484298698273743
40
0.492149342422723
40
0.492149342422723
40
0.499999985870048
40
0.499999985870048
40
0.506944425855883
40
0.506944425855883
40
0.51388886654342
40
0.51388886654342
40
0.519965272501009
40
0.519965272501009
40
0.526041650966429
40
0.526041650966429
40
0.531358495606625
40
0.531358495606625
40
0.53667534094851
40
0.53667534094851
40
0.545979798274284
40
0.545979798274284
40
0.555284284495604
40
0.555284284495604
40
0.562262634538396
40
0.562262634538396
40
0.569240985282903
40
0.569240985282903
40
0.574474747814998
40
0.574474747814998
40
0.579708511048826
40
0.579708511048826
40
0.587559155197811
40
0.587559155197811
40
0.595409799346795
40
0.595409799346795
40
0.603260443495779
40
0.603260443495779
40
0.611111088346518
40
0.611111088346518
40
0.61805552833236
40
0.61805552833236
40
0.624999997213752
40
0.624999997213752
40
0.631076375679169
40
0.631076375679169
40
0.637152754144581
40
0.637152754144581
40
0.642469599486457
40
0.642469599486457
40
0.647786444828335
40
0.647786444828335
40
0.657090903557582
40
0.657090903557582
40
0.666395389778892
40
0.666395389778892
40
0.673373740523389
40
0.673373740523389
40
0.680352091267895
40
0.680352091267895
40
0.685585854501721
40
0.685585854501721
40
0.690819617735548
40
0.690819617735548
40
0.698670262586289
40
0.698670262586289
40
0.706520907437029
40
0.706520907437029
40
0.71437155228777
40
0.71437155228777
40
0.722222197138511
40
0.722222197138511
40
0.729166637826055
40
0.729166637826055
40
0.736111107409259
40
0.736111107409259
40
0.742187485874682
40
0.742187485874682
40
0.748263865041914
40
0.748263865041914
40
0.75358071108564
40
0.75358071108564
40
0.75889755642753
40
0.75889755642753
40
0.768202015156799
40
0.768202015156799
40
0.777506502079909
40
0.777506502079909
40
0.784484853526245
40
0.784484853526245
40
0.791463204972571
40
0.791463204972571
40
0.796696968206393
40
0.796696968206393
40
0.801930731440213
40
0.801930731440213
40
0.809781376992797
40
0.809781376992797
40
0.817632022545383
40
0.817632022545383
40
0.825482667396113
40
0.825482667396113
40
0.833333312948699
40
0.833333312948699
40
0.84027775433805
40
0.84027775433805
40
0.847222195727403
40
0.847222195727403
40
0.853298603088469
40
0.853298603088469
40
0.85937498295763
40
0.85937498295763
40
0.864691829001344
40
0.864691829001344
40
0.870008674343226
40
0.870008674343226
40
0.879313133774355
40
0.879313133774355
40
0.888617621399331
40
0.888617621399331
40
0.895595973547609
40
0.895595973547609
40
0.902574324993944
40
0.902574324993944
40
0.907808088929655
40
0.907808088929655
40
0.913041852865365
40
0.913041852865365
40
0.92089249841796
40
0.92089249841796
40
0.928743143970555
40
0.928743143970555
40
0.936593790225109
40
0.936593790225109
40
0.944444435777704
40
0.944444435777704
40
0.951388877868993
40
0.951388877868993
40
0.958333319960288
40
0.958333319960288
40
0.963541665099235
40
0.963541665099235
40
0.968749982746291
40
0.968749982746291
40
0.976562487059719
40
0.976562487059719
40
0.984374991373146
40
0.984374991373146
40
0.992187495686573
40
0.992187495686573
40
1
40
1
40
1
40
1
41
1
10
108.860804
20
21.4
30
0
41
1
10
108.858762666667
20
21.3179473333334
30
0
41
1
10
108.856721333333
20
21.2358946666667
30
0
41
1
10
108.852638658585
20
21.0717890084931
30
0
41
1
10
108.850598
20
20.989736
30
0
41
1
10
108.847026260203
20
20.8461436601938
30
0
41
1
10
108.845495
20
20.7846043333333
30
0
41
1
10
108.842432991918
20
20.6615253418263
30
0
41
1
10
108.840902666667
20
20.5999856666667
30
0
41
1
10
108.837076003937
20
20.4461366582772
30
0
41
1
10
108.834779333333
20
20.3538273333333
30
0
41
1
10
108.83018666646
20
20.169208658379
30
0
41
1
10
108.827889666667
20
20.0768993333333
30
0
41
1
10
108.823296333539
20
19.8922806749543
30
0
41
1
10
108.821000333333
20
19.7999713333333
30
0
41
1
10
108.816407666667
20
19.6153526666667
30
0
41
1
10
108.814111333333
20
19.5230433333333
30
0
41
1
10
108.809773816565
20
19.3486813296043
30
0
41
1
10
108.807732333333
20
19.2666286666667
30
0
41
1
10
108.803649666873
20
19.1025233416203
30
0
41
1
10
108.801609
20
19.0204706666667
30
0
41
1
10
108.797782118502
20
18.8666216554261
30
0
41
1
10
108.795995333333
20
18.7948253333333
30
0
41
1
10
108.792422675161
20
18.6512330080815
30
0
41
1
10
108.790637
20
18.579437
30
0
41
1
10
108.787288245702
20
18.4448193272208
30
0
41
1
10
108.785725
20
18.3819976666667
30
0
41
1
10
108.782599000206
20
18.2563543416206
30
0
41
1
10
108.781036666667
20
18.1935326666666
30
0
41
1
10
108.776739339136
20
18.0207733166038
30
0
41
1
10
108.774003333333
20
17.9108356666667
30
0
41
1
10
108.768532658584
20
17.6909600084941
30
0
41
1
10
108.765798
20
17.581022
30
0
41
1
10
108.761011754092
20
17.3886306644916
30
0
41
1
10
108.758960333333
20
17.3061773333333
30
0
41
1
10
108.754857666667
20
17.1412706666667
30
0
41
1
10
108.752806333333
20
17.0588173333333
30
0
41
1
10
108.749216500103
20
16.9145240041437
30
0
41
1
10
108.747678333333
20
16.852684
30
0
41
1
10
108.74460166646
20
16.7290039917122
30
0
41
1
10
108.743062666667
20
16.667164
30
0
41
1
10
108.739216000206
20
16.5125640082881
30
0
41
1
10
108.736908666667
20
16.419804
30
0
41
1
10
108.73229332484
20
16.2342836585848
30
0
41
1
10
108.729985
20
16.1415233333334
30
0
41
1
10
108.725369008495
20
15.9560030080818
30
0
41
1
10
108.723061666667
20
15.863243
30
0
41
1
10
108.718446333127
20
15.6777229917119
30
0
41
1
10
108.716138
20
15.584963
30
0
41
1
10
108.711788413754
20
15.4101503396257
30
0
41
1
10
108.709747333333
20
15.3280976666667
30
0
41
1
10
108.705664666667
20
15.1639923333334
30
0
41
1
10
108.703623333333
20
15.0819396666667
30
0
41
1
10
108.699795827014
20
14.9280906626773
30
0
41
1
10
108.698009333333
20
14.8562943333333
30
0
41
1
10
108.694436674955
20
14.7127019997938
30
0
41
1
10
108.692650333333
20
14.640906
30
0
41
1
10
108.689300954215
20
14.5062883344725
30
0
41
1
10
108.687738
20
14.4434666666667
30
0
41
1
10
108.684612
20
14.3178233333333
30
0
41
1
10
108.683049
20
14.2550016666666
30
0
41
1
10
108.678750756165
20
14.0822423311066
30
0
41
1
10
108.676015333333
20
13.9723046666667
30
0
41
1
10
108.670544658378
20
13.7524290002063
30
0
41
1
10
108.667809333333
20
13.642491
30
0
41
1
10
108.663022504041
20
13.4500996624192
30
0
41
1
10
108.660970666667
20
13.3676463333333
30
0
41
1
10
108.656867333333
20
13.2027396666667
30
0
41
1
10
108.654815666667
20
13.1202863333334
30
0
41
1
10
108.651225250052
20
12.9759930020722
30
0
41
1
10
108.649686666667
20
12.914153
30
0
41
1
10
108.646609333333
20
12.790473
30
0
41
1
10
108.645070666667
20
12.728633
30
0
41
1
10
108.641224
20
12.574033
30
0
41
1
10
108.638916
20
12.481273
30
0
41
1
10
108.6343
20
12.295753
30
0
41
1
10
108.631992
20
12.202993
30
0
41
1
10
108.627375991711
20
12.0174726668729
30
0
41
1
10
108.625068
20
11.9247123333334
30
0
41
1
10
108.620452008289
20
11.7391919997937
30
0
41
1
10
108.618144
20
11.646432
30
0
41
1
10
108.613794413548
20
11.4716193313374
30
0
41
1
10
108.611752666667
20
11.3895666666667
30
0
41
1
10
108.607669333333
20
11.2254613333334
30
0
41
1
10
108.605627666667
20
11.1434086666667
30
0
41
1
10
108.60179954361
20
10.9895599947675
30
0
41
1
10
108.600012666667
20
10.917764
30
0
41
1
10
108.59643932525
20
10.7741716751621
30
0
41
1
10
108.594653333333
20
10.7023753333333
30
0
41
1
10
108.591303961261
20
10.5677573260029
30
0
41
1
10
108.589740333333
20
10.5049356666667
30
0
41
1
10
108.586613666873
20
10.3792923416224
30
0
41
1
10
108.585051
20
10.3164706666667
30
0
41
1
10
108.580752755958
20
10.1437113228176
30
0
41
1
10
108.578016666667
20
10.0337736666667
30
0
41
1
10
108.572545325044
20
9.81389800020628
30
0
41
1
10
108.569809666667
20
9.70396
30
0
41
1
10
108.565022254196
20
9.5115686686359
30
0
41
1
10
108.562970666667
20
9.42911533333333
30
0
41
1
10
108.558867333333
20
9.26420866666669
30
0
41
1
10
108.556815666667
20
9.18175533333334
30
0
41
1
10
108.553225249845
20
9.03746199378264
30
0
41
1
10
108.551686
20
8.97562199999999
30
0
41
1
10
108.548608000206
20
8.85194200828954
30
0
41
1
10
108.547069666667
20
8.79010199999999
30
0
41
1
10
108.543222999794
20
8.63550199171073
30
0
41
1
10
108.540914333333
20
8.542742
30
0
41
1
10
108.536297666667
20
8.35722200000001
30
0
41
1
10
108.533989333333
20
8.26446200000001
30
0
41
1
10
108.529372666667
20
8.07894200000001
30
0
41
1
10
108.527064333333
20
7.98618200000001
30
0
41
1
10
108.522447666667
20
7.80066200000002
30
0
41
1
10
108.520139333333
20
7.70790200000002
30
0
41
1
10
108.515789110584
20
7.53308900554279
30
0
41
1
10
108.513747666667
20
7.45103599999999
30
0
41
1
10
108.509664341416
20
7.28693032483741
30
0
41
1
10
108.507622
20
7.20487766666665
30
0
41
1
10
108.503793252124
20
7.05102900202098
30
0
41
1
10
108.502006666667
20
6.97923299999999
30
0
41
1
10
108.498433325043
20
6.83564066687293
30
0
41
1
10
108.496646666667
20
6.76384433333334
30
0
41
1
10
108.493296678065
20
6.629226666383
30
0
41
1
10
108.491733333333
20
6.56640533333331
30
0
41
1
10
108.488606658377
20
6.44076233353965
30
0
41
1
10
108.487043333333
20
6.37794066666669
30
0
41
1
10
108.482744164491
20
6.20518099590649
30
0
41
1
10
108.480008
20
6.09524300000001
30
0
41
1
10
108.474536008497
20
5.87536734141699
30
0
41
1
10
108.471800666667
20
5.76542966666668
30
0
41
1
10
108.467013247773
20
5.57303866050077
30
0
41
1
10
108.464961
20
5.49058533333331
30
0
41
1
10
108.460857
20
5.32567866666665
30
0
41
1
10
108.458805
20
5.24322533333333
30
0
41
1
10
108.455214
20
5.09893200000002
30
0
41
1
10
108.453675
20
5.037092
30
0
41
1
10
108.45059699171
20
4.91341166687295
30
0
41
1
10
108.449058
20
4.85157133333331
30
0
41
1
10
108.445210512332
20
4.69697099554512
30
0
41
1
10
108.442901666667
20
4.60421099999999
30
0
41
1
10
108.43828433354
20
4.41869100829047
30
0
41
1
10
108.435976333333
20
4.325931
30
0
41
1
10
108.43135966646
20
4.14041099170953
30
0
41
1
10
108.429050666667
20
4.047651
30
0
41
1
10
108.42443333354
20
3.86213100829048
30
0
41
1
10
108.422125333333
20
3.76937100000001
30
0
41
1
10
108.417775118668
20
3.59455833038024
30
0
41
1
10
108.415733
20
3.51250566666667
30
0
41
1
10
108.411648999794
20
3.34840032504229
30
0
41
1
10
108.409606333333
20
3.26634766666663
30
0
41
1
10
108.405776952347
20
3.11249867614859
30
0
41
1
10
108.403990666667
20
3.04070233333331
30
0
41
1
10
108.400417341417
20
2.89710999150293
30
0
41
1
10
108.39863
20
2.82531399999999
30
0
41
1
10
108.395279371035
20
2.69069634069089
30
0
41
1
10
108.393716333333
20
2.62787466666666
30
0
41
1
10
108.39058966646
20
2.50223132504249
30
0
41
1
10
108.389025666667
20
2.43940966666668
30
0
41
1
10
108.38472558981
20
2.26665034354244
30
0
41
1
10
108.38199
20
2.15671266666666
30
0
41
1
10
108.376517991503
20
1.93683699191536
30
0
41
1
10
108.373781333333
20
1.826899
30
0
41
1
10
108.368992754301
20
1.63450767278172
30
0
41
1
10
108.366941
20
1.5520543333333
30
0
41
1
10
108.362836999794
20
1.38714765837548
30
0
41
1
10
108.360784333333
20
1.30469433333332
30
0
41
1
10
108.357192750155
20
1.16040100621836
30
0
41
1
10
108.355654
20
1.09856099999999
30
0
41
1
10
108.352575999794
20
0.974880991708631
30
0
41
1
10
108.351036333333
20
0.913040999999993
30
0
41
1
10
108.347188000206
20
0.758441008291669
30
0
41
1
10
108.344879666667
20
0.665681000000006
30
0
41
1
10
108.340262333333
20
0.48016100000001
30
0
41
1
10
108.337953666667
20
0.387401000000011
30
0
41
1
10
108.333336333333
20
0.201880999999986
30
0
41
1
10
108.331027666667
20
0.109120999999988
30
0
41
1
10
108.326410333127
20
-0.0763990082916735
30
0
41
1
10
108.324101
20
-0.169159000000008
30
0
41
1
10
108.31974952932
20
-0.343971654951787
30
0
41
1
10
108.317708
20
-0.426024333333345
30
0
41
1
10
108.313623991503
20
-0.590130008084685
30
0
41
1
10
108.311581333333
20
-0.67218299999999
30
0
41
1
10
108.307751967687
20
-0.82603199919572
30
0
41
1
10
108.305965
20
-0.897827999999976
30
0
41
1
10
108.302391
20
-1.04141999999999
30
0
41
1
10
108.300604
20
-1.11321599999999
30
0
41
1
10
108.297253370829
20
-1.24783366759991
30
0
41
1
10
108.295689666667
20
-1.31065533333336
30
0
41
1
10
108.292562333333
20
-1.43629866666669
30
0
41
1
10
108.290998666667
20
-1.49912033333334
30
0
41
1
10
108.286698589397
20
-1.67187967304056
30
0
41
1
10
108.283961666667
20
-1.78181733333335
30
0
41
1
10
108.278488325247
20
-2.00169299150164
30
0
41
1
10
108.275752333333
20
-2.11163100000002
30
0
41
1
10
108.270963754094
20
-2.30402233550944
30
0
41
1
10
108.268911333333
20
-2.38647566666671
30
0
41
1
10
108.264806666667
20
-2.55138233333335
30
0
41
1
10
108.262754333333
20
-2.6338356666667
30
0
41
1
10
108.259162749948
20
-2.77812900207303
30
0
41
1
10
108.257623333333
20
-2.83996900000002
30
0
41
1
10
108.254544666667
20
-2.963649
30
0
41
1
10
108.253005333333
20
-3.02548900000002
30
0
41
1
10
108.249157
20
-3.18008900000001
30
0
41
1
10
108.246848
20
-3.27284900000001
30
0
41
1
10
108.24223
20
-3.45836900000001
30
0
41
1
10
108.239921
20
-3.551129
30
0
41
1
10
108.235303
20
-3.736649
30
0
41
1
10
108.232994
20
-3.829409
30
0
41
1
10
108.228376
20
-4.014929
30
0
41
1
10
108.226067
20
-4.10768899999999
30
0
41
1
10
108.221715529113
20
-4.28250166324278
30
0
41
1
10
108.219673333333
20
-4.36455433333336
30
0
41
1
10
108.215588658169
20
-4.52866000808592
30
0
41
1
10
108.213545666667
20
-4.61071299999998
30
0
41
1
10
108.209715676203
20
-4.76456199193998
30
0
41
1
10
108.207929
20
-4.83635799999999
30
0
41
1
10
108.204354999794
20
-4.97995000829229
30
0
41
1
10
108.202567333333
20
-5.05174600000001
30
0
41
1
10
108.199216079135
20
-5.1863636686368
30
0
41
1
10
108.197652
20
-5.24918533333337
30
0
41
1
10
108.194524000206
20
-5.37482865837407
30
0
41
1
10
108.192960666667
20
-5.43765033333332
30
0
41
1
10
108.188660589397
20
-5.61040967304058
30
0
41
1
10
108.185923666667
20
-5.72034733333334
30
0
41
1
10
108.180450325041
20
-5.94022299979358
30
0
41
1
10
108.177713666667
20
-6.05016099999997
30
0
41
1
10
108.172924504043
20
-6.24255233758296
30
0
41
1
10
108.170871666667
20
-6.32500566666667
30
0
41
1
10
108.166766333333
20
-6.48991233333331
30
0
41
1
10
108.164713666667
20
-6.57236566666668
30
0
41
1
10
108.161121500103
20
-6.71665899585363
30
0
41
1
10
108.159582333333
20
-6.77849899999998
30
0
41
1
10
108.156503666667
20
-6.90217899999999
30
0
41
1
10
108.154964333333
20
-6.96401899999998
30
0
41
1
10
108.151115999794
20
-7.11861900829285
30
0
41
1
10
108.148806333333
20
-7.21137899999999
30
0
41
1
10
108.144187666666
20
-7.39689900000002
30
0
41
1
10
108.141878333333
20
-7.48965900000002
30
0
41
1
10
108.137259666873
20
-7.67517899170716
30
0
41
1
10
108.134951
20
-7.76793900000001
30
0
41
1
10
108.130332999794
20
-7.95345900829287
30
0
41
1
10
108.128023333333
20
-8.04621900000001
30
0
41
1
10
108.123671234233
20
-8.22103166419956
30
0
41
1
10
108.121628666667
20
-8.30308433333337
30
0
41
1
10
108.117543333333
20
-8.46718966666668
30
0
41
1
10
108.115500666667
20
-8.54924233333333
30
0
41
1
10
108.111670660447
20
-8.70309133317849
30
0
41
1
10
108.109883333333
20
-8.77488766666667
30
0
41
1
10
108.106308674753
20
-8.91848000850027
30
0
41
1
10
108.104520666667
20
-8.99027600000002
30
0
41
1
10
108.101168787648
20
-9.12489366137962
30
0
41
1
10
108.099605
20
-9.18771533333333
30
0
41
1
10
108.096477000206
20
-9.31335865837409
30
0
41
1
10
108.094913666667
20
-9.37618033333337
30
0
41
1
10
108.090613589191
20
-9.54893968133359
30
0
41
1
10
108.087876
20
-9.65887733333335
30
0
41
1
10
108.082401991706
20
-9.87875299979353
30
0
41
1
10
108.079665
20
-9.98869100000005
30
0
41
1
10
108.074875253992
20
-10.1810823396571
30
0
41
1
10
108.072822
20
-10.2635356666667
30
0
41
1
10
108.068716000207
20
-10.4284423250395
30
0
41
1
10
108.066663666667
20
-10.5108956666667
30
0
41
1
10
108.063071499897
20
-10.6551890041468
30
0
41
1
10
108.061531666667
20
-10.717029
30
0
41
1
10
108.058452333333
20
-10.840709
30
0
41
1
10
108.056912666667
20
-10.902549
30
0
41
1
10
108.053063500103
20
-11.0571489958531
30
0
41
1
10
108.050754333333
20
-11.149909
30
0
41
1
10
108.046135666667
20
-11.335429
30
0
41
1
10
108.043826333333
20
-11.428189
30
0
41
1
10
108.03920766646
20
-11.6137090082941
30
0
41
1
10
108.036897666667
20
-11.706469
30
0
41
1
10
108.03227833354
20
-11.8919889917059
30
0
41
1
10
108.029969333333
20
-11.984749
30
0
41
1
10
108.025617234027
20
-12.1595616724933
30
0
41
1
10
108.023574
20
-12.2416143333333
30
0
41
1
10
108.019488
20
-12.4057196666667
30
0
41
1
10
108.017445
20
-12.4877723333333
30
0
41
1
10
108.013869746008
20
-12.6313646603431
30
0
41
1
10
108.012338
20
-12.6929043333334
30
0
41
1
10
108.009274008087
20
-12.8159833418338
30
0
41
1
10
108.007741333333
20
-12.8775226666667
30
0
41
1
10
108.003910491808
20
-13.0313713289795
30
0
41
1
10
108.001612333333
20
-13.1236806666667
30
0
41
1
10
107.997015666667
20
-13.3082993333333
30
0
41
1
10
107.994717333333
20
-13.4006086666667
30
0
41
1
10
107.990120666667
20
-13.5852273333333
30
0
41
1
10
107.987822333333
20
-13.6775366666667
30
0
41
1
10
107.983225666667
20
-13.8621553333333
30
0
41
1
10
107.980927333333
20
-13.9544646666667
30
0
41
1
10
107.978629
20
-14.046774
30
0
0
SPLINE
5
104
100
AcDbEntity
8
SK3
62
256
6
ByLayer
370
18
48
0.05
60
0
100
AcDbSpline
70
4
71
3
72
254
73
250
40
0
40
0
40
0
40
0
40
0.0069444418906769
40
0.0069444418906769
40
0.0138889119752163
40
0.0138889119752163
40
0.0243055748112411
40
0.0243055748112411
40
0.0347222369456589
40
0.0347222369456589
40
0.0451388997816837
40
0.0451388997816837
40
0.0555555626177084
40
0.0555555626177084
40
0.0625000038068022
40
0.0625000038068022
40
0.0694444456974861
40
0.0694444456974861
40
0.0755208533218151
40
0.0755208533218151
40
0.0815972327522856
40
0.0815972327522856
40
0.0869140788508796
40
0.0869140788508796
40
0.0922309249494756
40
0.0922309249494756
40
0.101535384125834
40
0.101535384125834
40
0.110839871496046
40
0.110839871496046
40
0.117818222751386
40
0.117818222751386
40
0.124796574708315
40
0.124796574708315
40
0.135264101240549
40
0.135264101240549
40
0.145731628474327
40
0.145731628474327
40
0.156199155708105
40
0.156199155708105
40
0.166666682941882
40
0.166666682941882
40
0.173611124130968
40
0.173611124130968
40
0.180555565320057
40
0.180555565320057
40
0.186631972242842
40
0.186631972242842
40
0.19270835167331
40
0.19270835167331
40
0.198025197070363
40
0.198025197070363
40
0.203342043168957
40
0.203342043168957
40
0.212646501643784
40
0.212646501643784
40
0.221950960118617
40
0.221950960118617
40
0.228929339567823
40
0.228929339567823
40
0.235907690823167
40
0.235907690823167
40
0.246375217355422
40
0.246375217355422
40
0.256842743887673
40
0.256842743887673
40
0.267310270419922
40
0.267310270419922
40
0.277777796952174
40
0.277777796952174
40
0.284722237439794
40
0.284722237439794
40
0.291666678628895
40
0.291666678628895
40
0.297743085551692
40
0.297743085551692
40
0.303819464280626
40
0.303819464280626
40
0.309136309677685
40
0.309136309677685
40
0.314453155074747
40
0.314453155074747
40
0.32375761354958
40
0.32375761354958
40
0.333062099516837
40
0.333062099516837
40
0.340040450070702
40
0.340040450070702
40
0.34701880132605
40
0.34701880132605
40
0.357486327156854
40
0.357486327156854
40
0.36795385298766
40
0.36795385298766
40
0.378421378818464
40
0.378421378818464
40
0.388888904649265
40
0.388888904649265
40
0.395833345136898
40
0.395833345136898
40
0.402777813818389
40
0.402777813818389
40
0.408854192547323
40
0.408854192547323
40
0.414930570574847
40
0.414930570574847
40
0.420247415971917
40
0.420247415971917
40
0.425564260667598
40
0.425564260667598
40
0.434868718440998
40
0.434868718440998
40
0.444173204408261
40
0.444173204408261
40
0.451151554962129
40
0.451151554962129
40
0.458129904814629
40
0.458129904814629
40
0.468597430645426
40
0.468597430645426
40
0.479064955774832
40
0.479064955774832
40
0.489532480904235
40
0.489532480904235
40
0.500000034227499
40
0.500000034227499
40
0.506944474715122
40
0.506944474715122
40
0.513888914501389
40
0.513888914501389
40
0.519965292528902
40
0.519965292528902
40
0.526041698750282
40
0.526041698750282
40
0.531358515953483
40
0.531358515953483
40
0.53667536064916
40
0.53667536064916
40
0.545979845915051
40
0.545979845915051
40
0.555284302987077
40
0.555284302987077
40
0.56226265283956
40
0.56226265283956
40
0.56924100269204
40
0.56924100269204
40
0.579708556015291
40
0.579708556015291
40
0.590176080443368
40
0.590176080443368
40
0.600643605572755
40
0.600643605572755
40
0.611111130000828
40
0.611111130000828
40
0.618055569787081
40
0.618055569787081
40
0.625000009573332
40
0.625000009573332
40
0.631076415093414
40
0.631076415093414
40
0.637152793120913
40
0.637152793120913
40
0.642469637816582
40
0.642469637816582
40
0.647786481811014
40
0.647786481811014
40
0.657090938883027
40
0.657090938883027
40
0.666395423447631
40
0.666395423447631
40
0.673373773300095
40
0.673373773300095
40
0.68035212315256
40
0.68035212315256
40
0.69081964687937
40
0.69081964687937
40
0.701287171307421
40
0.701287171307421
40
0.711754695034237
40
0.711754695034237
40
0.722222247656159
40
0.722222247656159
40
0.729166686741155
40
0.729166686741155
40
0.736111126527397
40
0.736111126527397
40
0.742187503853603
40
0.742187503853603
40
0.748263909373677
40
0.748263909373677
40
0.753580753368099
40
0.753580753368099
40
0.758897569168652
40
0.758897569168652
40
0.768202053733253
40
0.768202053733253
40
0.777506510103984
40
0.777506510103984
40
0.784484887449063
40
0.784484887449063
40
0.791463236600273
40
0.791463236600273
40
0.801930760327091
40
0.801930760327091
40
0.812398284053907
40
0.812398284053907
40
0.822865807079564
40
0.822865807079564
40
0.833333330806384
40
0.833333330806384
40
0.840277798085255
40
0.840277798085255
40
0.847222237170256
40
0.847222237170256
40
0.853298613795311
40
0.853298613795311
40
0.859375019315389
40
0.859375019315389
40
0.864691835115946
40
0.864691835115946
40
0.870008678409286
40
0.870008678409286
40
0.879313162973898
40
0.879313162973898
40
0.888617617942353
40
0.888617617942353
40
0.895595967093571
40
0.895595967093571
40
0.902574343737514
40
0.902574343737514
40
0.913041866763172
40
0.913041866763172
40
0.923509389788829
40
0.923509389788829
40
0.933976912814487
40
0.933976912814487
40
0.944444435840142
40
0.944444435840142
40
0.951388902417883
40
0.951388902417883
40
0.958333341502879
40
0.958333341502879
40
0.968749998728159
40
0.968749998728159
40
0.979166656654504
40
0.979166656654504
40
0.989583342774725
40
0.989583342774725
40
1
40
1
40
1
40
1
41
1
10
152.023109
20
-14.046774
30
0
41
1
10
152.021067
20
-13.9647213333333
30
0
41
1
10
152.019025
20
-13.8826686666667
30
0
41
1
10
152.01494099171
20
-13.7185630002063
30
0
41
1
10
152.012899
20
-13.63651
30
0
41
1
10
152.007794012435
20
-13.4313779996905
30
0
41
1
10
152.004731
20
-13.308299
30
0
41
1
10
151.998605000206
20
-13.0621410082899
30
0
41
1
10
151.995542666667
20
-12.939062
30
0
41
1
10
151.989417333127
20
-12.6929039917101
30
0
41
1
10
151.986354
20
-12.569825
30
0
41
1
10
151.980228
20
-12.323667
30
0
41
1
10
151.977165
20
-12.200588
30
0
41
1
10
151.972060000206
20
-11.995456341623
30
0
41
1
10
151.970018666667
20
-11.9134036666666
30
0
41
1
10
151.965935333127
20
-11.7492983250437
30
0
41
1
10
151.963893
20
-11.6672456666667
30
0
41
1
10
151.960064243834
20
-11.5133966688939
30
0
41
1
10
151.958277666667
20
-11.4416003333333
30
0
41
1
10
151.954704341623
20
-11.2980079997937
30
0
41
1
10
151.952917666667
20
-11.226212
30
0
41
1
10
151.949567662522
20
-11.0915943334364
30
0
41
1
10
151.948004333333
20
-11.0287726666666
30
0
41
1
10
151.944877666667
20
-10.9031293333333
30
0
41
1
10
151.943314333333
20
-10.8403076666667
30
0
41
1
10
151.939015172987
20
-10.6675483373235
30
0
41
1
10
151.936279666667
20
-10.5576106666667
30
0
41
1
10
151.930808325044
20
-10.3377350002063
30
0
41
1
10
151.928072666667
20
-10.227797
30
0
41
1
10
151.923285254196
20
-10.0354056686359
30
0
41
1
10
151.921233666667
20
-9.95295233333334
30
0
41
1
10
151.917130333127
20
-9.78804565837692
30
0
41
1
10
151.915078
20
-9.70559233333333
30
0
41
1
10
151.909948000412
20
-9.49945901657918
30
0
41
1
10
151.906871333333
20
-9.37577900000002
30
0
41
1
10
151.900716666461
20
-9.12841899171084
30
0
41
1
10
151.897638666667
20
-9.004739
30
0
41
1
10
151.891483333333
20
-8.75737899999999
30
0
41
1
10
151.888405666667
20
-8.63369900000001
30
0
41
1
10
151.882250333333
20
-8.38633899999999
30
0
41
1
10
151.879172666667
20
-8.26265900000001
30
0
41
1
10
151.874053192543
20
-8.05692633683668
30
0
41
1
10
151.872011666667
20
-7.97487366666664
30
0
41
1
10
151.867928333333
20
-7.81076833333333
30
0
41
1
10
151.865886666667
20
-7.72871566666669
30
0
41
1
10
151.862058535527
20
-7.57486666992963
30
0
41
1
10
151.860272333333
20
-7.50307033333334
30
0
41
1
10
151.856699674749
20
-7.3594779915046
30
0
41
1
10
151.854912666667
20
-7.28768199999999
30
0
41
1
10
151.851562662728
20
-7.15306434172558
30
0
41
1
10
151.85
20
-7.09024266666668
30
0
41
1
10
151.846873999794
20
-6.96459932504425
30
0
41
1
10
151.845310333333
20
-6.90177766666665
30
0
41
1
10
151.841011173194
20
-6.72901834561239
30
0
41
1
10
151.838276333333
20
-6.61908066666666
30
0
41
1
10
151.832805666667
20
-6.39920533333333
30
0
41
1
10
151.830070333333
20
-6.28926766666663
30
0
41
1
10
151.825283489536
20
-6.09687632944676
30
0
41
1
10
151.823231666667
20
-6.01442266666669
30
0
41
1
10
151.819128341622
20
-5.84951566646043
30
0
41
1
10
151.817076666667
20
-5.76706233333331
30
0
41
1
10
151.811947500103
20
-5.56092900414447
30
0
41
1
10
151.808870333333
20
-5.43724900000001
30
0
41
1
10
151.802715666667
20
-5.18988900000002
30
0
41
1
10
151.799638333333
20
-5.06620900000001
30
0
41
1
10
151.793483666667
20
-4.81884900000003
30
0
41
1
10
151.790406333333
20
-4.69516900000002
30
0
41
1
10
151.784251666667
20
-4.44780899999998
30
0
41
1
10
151.781174333333
20
-4.324129
30
0
41
1
10
151.776055413754
20
-4.11839633962578
30
0
41
1
10
151.774014333333
20
-4.03634366666668
30
0
41
1
10
151.76993166646
20
-3.872238325045
30
0
41
1
10
151.767889666667
20
-3.79018566666667
30
0
41
1
10
151.764061535527
20
-3.63633666992959
30
0
41
1
10
151.762275333333
20
-3.56454033333333
30
0
41
1
10
151.758702674955
20
-3.42094799979378
30
0
41
1
10
151.756916333333
20
-3.34915200000003
30
0
41
1
10
151.753566954215
20
-3.21453433447249
30
0
41
1
10
151.752004
20
-3.1517126666667
30
0
41
1
10
151.748878
20
-3.02606933333331
30
0
41
1
10
151.747315
20
-2.96324766666666
30
0
41
1
10
151.743016756165
20
-2.79048833110659
30
0
41
1
10
151.740281333333
20
-2.68055066666668
30
0
41
1
10
151.734810658584
20
-2.46067500849412
30
0
41
1
10
151.732076
20
-2.35073700000001
30
0
41
1
10
151.727289754092
20
-2.15834566449166
30
0
41
1
10
151.725238333333
20
-2.07589233333334
30
0
41
1
10
151.72113566646
20
-1.91098565837822
30
0
41
1
10
151.719083666667
20
-1.8285323333333
30
0
41
1
10
151.713954500309
20
-1.62239901243271
30
0
41
1
10
151.710878
20
-1.49871900000002
30
0
41
1
10
151.704724
20
-1.25135900000004
30
0
41
1
10
151.701647
20
-1.127679
30
0
41
1
10
151.695493
20
-0.880319000000014
30
0
41
1
10
151.692416
20
-0.756639000000007
30
0
41
1
10
151.686262
20
-0.509279000000021
30
0
41
1
10
151.683185
20
-0.385599000000013
30
0
41
1
10
151.67806663476
20
-0.179866334127126
30
0
41
1
10
151.676025333333
20
-0.0978136666666956
30
0
41
1
10
151.671942658379
20
0.0662919997938616
30
0
41
1
10
151.669901333333
20
0.148345000000006
30
0
41
1
10
151.666073842554
20
0.302194004375991
30
0
41
1
10
151.664287333333
20
0.37399000000002
30
0
41
1
10
151.660714666873
20
0.517581991712348
30
0
41
1
10
151.658929
20
0.589377999999982
30
0
41
1
10
151.655580245702
20
0.723995672779239
30
0
41
1
10
151.654017
20
0.786817333333317
30
0
41
1
10
151.650891000206
20
0.912460658379359
30
0
41
1
10
151.649328666667
20
0.975282333333354
30
0
41
1
10
151.645031339342
20
1.14804167510818
30
0
41
1
10
151.642296
20
1.25797933333334
30
0
41
1
10
151.636825991713
20
1.47785499979383
30
0
41
1
10
151.634091
20
1.587793
30
0
41
1
10
151.629304754092
20
1.78018433550832
30
0
41
1
10
151.627253333333
20
1.86263766666667
30
0
41
1
10
151.623150666873
20
2.02754432504622
30
0
41
1
10
151.6211
20
2.10999766666666
30
0
41
1
10
151.615972499691
20
2.31613101243067
30
0
41
1
10
151.612895
20
2.43981100000002
30
0
41
1
10
151.606741000206
20
2.68717099171266
30
0
41
1
10
151.603664666667
20
2.81085100000001
30
0
41
1
10
151.597511333333
20
3.058211
30
0
41
1
10
151.594434666667
20
3.18189100000001
30
0
41
1
10
151.588281325046
20
3.42925133312716
30
0
41
1
10
151.585204666667
20
3.55293166666667
30
0
41
1
10
151.580086861263
20
3.75866467150769
30
0
41
1
10
151.578045333333
20
3.84071733333332
30
0
41
1
10
151.573962666873
20
4.00482265837971
30
0
41
1
10
151.571922
20
4.08687533333333
30
0
41
1
10
151.568095126994
20
4.24072400315899
30
0
41
1
10
151.566309
20
4.31251999999998
30
0
41
1
10
151.562736991713
20
4.45611233312721
30
0
41
1
10
151.560951
20
4.52790866666666
30
0
41
1
10
151.55760226124
20
4.66252633983248
30
0
41
1
10
151.556039
20
4.72534766666666
30
0
41
1
10
151.552912991918
20
4.85099065817312
30
0
41
1
10
151.551350666667
20
4.91381233333331
30
0
41
1
10
151.547053331262
20
5.08657199994846
30
0
41
1
10
151.544318666667
20
5.19650999999996
30
0
41
1
10
151.53884934162
20
5.4163856668728
30
0
41
1
10
151.536114666667
20
5.52632333333332
30
0
41
1
10
151.531328997928
20
5.71871433328181
30
0
41
1
10
151.529278
20
5.80116766666666
30
0
41
1
10
151.525176
20
5.96607433333332
30
0
41
1
10
151.523125
20
6.04852766666664
30
0
41
1
10
151.51799749161
20
6.25466133727053
30
0
41
1
10
151.514920666667
20
6.37834166666667
30
0
41
1
10
151.508767341826
20
6.62570199191973
30
0
41
1
10
151.505691333333
20
6.74938200000003
30
0
41
1
10
151.49953866646
20
6.99674200828645
30
0
41
1
10
151.496461666667
20
7.12042200000002
30
0
41
1
10
151.490308333539
20
7.36778199171357
30
0
41
1
10
151.487232333333
20
7.49146200000001
30
0
41
1
10
151.482115076977
20
7.69719466858137
30
0
41
1
10
151.480074
20
7.77924733333333
30
0
41
1
10
151.475992
20
7.94335266666664
30
0
41
1
10
151.473951
20
8.02540533333334
30
0
41
1
10
151.470124118914
20
8.17925432800013
30
0
41
1
10
151.468338666667
20
8.25105066666666
30
0
41
1
10
151.464767341413
20
8.39464300849218
30
0
41
1
10
151.462981
20
8.46643900000001
30
0
41
1
10
151.459632245908
20
8.60105666449192
30
0
41
1
10
151.458069666667
20
8.66387833333334
30
0
41
1
10
151.454944333539
20
8.78952165838112
30
0
41
1
10
151.453382333333
20
8.85234333333332
30
0
41
1
10
151.449085922519
20
9.02510268132093
30
0
41
1
10
151.446350666667
20
9.13504033333331
30
0
41
1
10
151.440881325253
20
9.35491599150794
30
0
41
1
10
151.438147333333
20
9.464854
30
0
41
1
10
151.433362253988
20
9.65724533965079
30
0
41
1
10
151.431311
20
9.73969866666667
30
0
41
1
10
151.427209
20
9.90460533333331
30
0
41
1
10
151.425158
20
9.98705866666666
30
0
41
1
10
151.420030500309
20
10.1931919875714
30
0
41
1
10
151.416955
20
10.316872
30
0
41
1
10
151.410802999794
20
10.5642320082855
30
0
41
1
10
151.407726333333
20
10.687912
30
0
41
1
10
151.401573666873
20
10.9352719917145
30
0
41
1
10
151.398498
20
11.058952
30
0
41
1
10
151.392345991509
20
11.3063123414128
30
0
41
1
10
151.389269333333
20
11.4299926666667
30
0
41
1
10
151.384152082681
20
11.6357256604325
30
0
41
1
10
151.382111666667
20
11.7177783333333
30
0
41
1
10
151.378030333127
20
11.8818836749523
30
0
41
1
10
151.375989
20
11.9639363333334
30
0
41
1
10
151.3721621272
20
12.1177849948729
30
0
41
1
10
151.370376666667
20
12.189581
30
0
41
1
10
151.366805325048
20
12.3331733331273
30
0
41
1
10
151.365019666667
20
12.4049696666667
30
0
41
1
10
151.361671544851
20
12.5395876636371
30
0
41
1
10
151.360109333333
20
12.6024093333334
30
0
41
1
10
151.356984674951
20
12.7280523335394
30
0
41
1
10
151.355422333333
20
12.7908736666666
30
0
41
1
10
151.351125899943
20
12.9636330058017
30
0
41
1
10
151.348391333333
20
13.073571
30
0
41
1
10
151.342922674952
20
13.2934466668727
30
0
41
1
10
151.340188333333
20
13.4033843333333
30
0
41
1
10
151.335403239695
20
13.5957756643377
30
0
41
1
10
151.333352666667
20
13.6782293333334
30
0
41
1
10
151.329251341618
20
13.8431363335394
30
0
41
1
10
151.327200666667
20
13.9255896666667
30
0
41
1
10
151.322074
20
14.131723
30
0
41
1
10
151.318998
20
14.255403
30
0
41
1
10
151.312846
20
14.502763
30
0
41
1
10
151.30977
20
14.626443
30
0
41
1
10
151.303618000206
20
14.8738029917154
30
0
41
1
10
151.300542666667
20
14.997483
30
0
41
1
10
151.294391333127
20
15.2448430082847
30
0
41
1
10
151.291315
20
15.368523
30
0
41
1
10
151.286198289904
20
15.5742559989199
30
0
41
1
10
151.284157666667
20
15.656309
30
0
41
1
10
151.280076341618
20
15.8204146668727
30
0
41
1
10
151.278035666667
20
15.9024673333334
30
0
41
1
10
151.274209418892
20
16.0563159938382
30
0
41
1
10
151.272424333333
20
16.128112
30
0
41
1
10
151.268853658177
20
16.2717043414118
30
0
41
1
10
151.267067666667
20
16.3435006666667
30
0
41
1
10
151.263719553136
20
16.4781183305098
30
0
41
1
10
151.262157333333
20
16.5409396666667
30
0
41
1
10
151.259032658588
20
16.6665826581769
30
0
41
1
10
151.257471
20
16.7294043333333
30
0
41
1
10
151.253175497415
20
16.9021640206589
30
0
41
1
10
151.250440333333
20
17.012102
30
0
41
1
10
151.244971675364
20
17.2319776503039
30
0
41
1
10
151.242238666667
20
17.3419153333333
30
0
41
1
10
151.237454747672
20
17.5343063436371
30
0
41
1
10
151.235403666667
20
17.6167596666666
30
0
41
1
10
151.231302325254
20
17.7816666581762
30
0
41
1
10
151.229252333333
20
17.8641203333333
30
0
41
1
10
151.224126512322
20
18.070254004451
30
0
41
1
10
151.221050666667
20
18.193934
30
0
41
1
10
151.214899333333
20
18.441294
30
0
41
1
10
151.211823666667
20
18.564974
30
0
41
1
10
151.205672333333
20
18.812334
30
0
41
1
10
151.202596666667
20
18.936014
30
0
41
1
10
151.196445333333
20
19.183374
30
0
41
1
10
151.193369666667
20
19.307054
30
0
41
1
10
151.188253511117
20
19.5127869961319
30
0
41
1
10
151.186213333333
20
19.59484
30
0
41
1
10
151.182132674744
20
19.7589456751569
30
0
41
1
10
151.180091666667
20
19.8409983333333
30
0
41
1
10
151.174990000412
20
20.0461299834319
30
0
41
1
10
151.171930333333
20
20.169209
30
0
41
1
10
151.165809666461
20
20.4153670082836
30
0
41
1
10
151.162748666667
20
20.538446
30
0
41
1
10
151.156627325049
20
20.7846043331273
30
0
41
1
10
151.153566666667
20
20.9076836666667
30
0
41
1
10
151.147445341823
20
21.1538419919224
30
0
41
1
10
151.144385333333
20
21.276921
30
0
41
1
10
151.141325
20
21.4
30
0
0
SPLINE
5
105
100
AcDbEntity
8
1
62
256
6
ByLayer
370
18
48
1
60
0
100
AcDbSpline
70
4
71
3
72
28
73
24
40
0
40
0
40
0
40
0
40
0.0500070000081128
40
0.0500070000081128
40
0.150018000008666
40
0.150018000008666
40
0.250026000004484
40
0.250026000004484
40
0.350032000000306
40
0.350032000000306
40
0.450035999996049
40
0.450035999996049
40
0.550035999992228
40
0.550035999992228
40
0.650031999988502
40
0.650031999988502
40
0.75002699998978
40
0.75002699998978
40
0.850017999990812
40
0.850017999990812
40
0.950006999991763
40
0.950006999991763
40
1
40
1
40
1
40
1
41
1
10
171.675
20
-15
30
0
41
1
10
171.666665666667
20
-15.0083346666666
30
0
41
1
10
171.658331333333
20
-15.0166693333333
30
0
41
1
10
171.633328833326
20
-15.0416728333207
30
0
41
1
10
171.616659666667
20
-15.0583406666667
30
0
41
1
10
171.583322833339
20
-15.0916768333375
30
0
41
1
10
171.566655
20
-15.108345
30
0
41
1
10
171.533319333333
20
-15.1416806666666
30
0
41
1
10
171.516651666667
20
-15.1583483333333
30
0
41
1
10
171.483316666667
20
-15.1916833333333
30
0
41
1
10
171.466649333333
20
-15.2083506666667
30
0
41
1
10
171.433315333333
20
-15.2416846666667
30
0
41
1
10
171.416648666667
20
-15.2583513333333
30
0
41
1
10
171.383316
20
-15.291684
30
0
41
1
10
171.36665
20
-15.3083500000001
30
0
41
1
10
171.333318166666
20
-15.3416818333342
30
0
41
1
10
171.316652666667
20
-15.358348
30
0
41
1
10
171.283321999993
20
-15.3916793333266
30
0
41
1
10
171.266656333333
20
-15.408344
30
0
41
1
10
171.233326000003
20
-15.44167366667
30
0
41
1
10
171.216661666667
20
-15.4583390000001
30
0
41
1
10
171.191664916663
20
-15.4833362499988
30
0
41
1
10
171.183332333333
20
-15.491668
30
0
41
1
10
171.175
20
-15.5
30
0
0
SPLINE
5
106
100
AcDbEntity
8
1
62
256
6
ByLayer
370
18
48
1
60
0
100
AcDbSpline
70
4
71
3
72
28
73
24
40
0
40
0
40
0
40
0
40
0.0499930000085458
40
0.0499930000085458
40
0.149982000010116
40
0.149982000010116
40
0.24997300001151
40
0.24997300001151
40
0.349968000012297
40
0.349968000012297
40
0.449964000007911
40
0.449964000007911
40
0.549964000003429
40
0.549964000003429
40
0.649967999999364
40
0.649967999999364
40
0.749973999995378
40
0.749973999995378
40
0.84998199999079
40
0.84998199999079
40
0.949992999991962
40
0.949992999991962
40
1
40
1
40
1
40
1
41
1
10
88.825
20
-15.5
30
0
41
1
10
88.8166676666667
20
-15.491668
30
0
41
1
10
88.8083353333333
20
-15.483336
30
0
41
1
10
88.783337833326
20
-15.4583395000125
30
0
41
1
10
88.7666736666667
20
-15.441674
30
0
41
1
10
88.7333440000033
20
-15.4083436666634
30
0
41
1
10
88.7166783333333
20
-15.391679
30
0
41
1
10
88.6833469999932
20
-15.3583483333401
30
0
41
1
10
88.6666816666667
20
-15.341682
30
0
41
1
10
88.6333501666691
20
-15.3083498333326
30
0
41
1
10
88.616684
20
-15.291684
30
0
41
1
10
88.5833513333333
20
-15.2583513333334
30
0
41
1
10
88.5666846666666
20
-15.2416846666667
30
0
41
1
10
88.5333506666668
20
-15.2083506666666
30
0
41
1
10
88.5166833333333
20
-15.1916833333333
30
0
41
1
10
88.4833483333333
20
-15.1583483333333
30
0
41
1
10
88.4666806666667
20
-15.1416806666667
30
0
41
1
10
88.4333449999999
20
-15.1083450000001
30
0
41
1
10
88.4166769999999
20
-15.091677
30
0
41
1
10
88.3833404999992
20
-15.058340499999
30
0
41
1
10
88.3666716666666
20
-15.0416723333333
30
0
41
1
10
88.3416684166629
20
-15.0166695833346
30
0
41
1
10
88.3333343333333
20
-15.0083346666666
30
0
41
1
10
88.325
20
-15
30
0
0
LINE
5
79
100
AcDbEntity
8
80
62
256
6
ByLayer
370
50
48
1
60
0
100
AcDbLine
10
0
20
0
30
0
11
-32.646011
21
0
31
0
39
0
210
0
220
0
230
1
0
LINE
5
7A
100
AcDbEntity
8
81
62
256
6
ByLayer
370
50
48
1
60
0
100
AcDbLine
10
130
20
-35.5
30
0
11
130
21
-16
31
0
39
0
210
0
220
0
230
1
0
LINE
5
7B
100
AcDbEntity
8
4
62
256
6
ByLayer
370
18
48
0.05
60
0
100
AcDbLine
10
0
20
0
30
0
11
22
21
0
31
0
39
0
210
0
220
0
230
1
0
LINE
5
7D
100
AcDbEntity
8
4
62
256
6
ByLayer
370
35
48
0.05
60
0
100
AcDbLine
10
130
20
-17.5
30
0
11
130
21
83.5
31
0
39
0
210
0
220
0
230
1
0
LINE
5
7E
100
AcDbEntity
8
1
62
256
6
ByLayer
370
18
48
1
60
1
100
AcDbLine
10
0
20
0
30
0
11
0
21
420
31
0
39
0
210
0
220
0
230
1
0
LINE
5
7F
100
AcDbEntity
8
1
62
256
6
ByLayer
370
18
48
1
60
1
100
AcDbLine
10
594
20
420
30
0
11
0
21
420
31
0
39
0
210
0
220
0
230
1
0
LINE
5
80
100
AcDbEntity
8
1
62
256
6
ByLayer
370
18
48
1
60
1
100
AcDbLine
10
594
20
420
30
0
11
594
21
0
31
0
39
0
210
0
220
0
230
1
0
LINE
5
81
100
AcDbEntity
8
1
62
256
6
ByLayer
370
18
48
1
60
1
100
AcDbLine
10
0
20
0
30
0
11
594
21
0
31
0
39
0
210
0
220
0
230
1
0
LINE
5
82
100
AcDbEntity
8
1
62
256
6
ByLayer
370
18
48
1
60
1
100
AcDbLine
10
0
20
0
30
0
11
0
21
420
31
0
39
0
210
0
220
0
230
1
0
LINE
5
83
100
AcDbEntity
8
1
62
256
6
ByLayer
370
18
48
1
60
1
100
AcDbLine
10
594
20
420
30
0
11
0
21
420
31
0
39
0
210
0
220
0
230
1
0
LINE
5
84
100
AcDbEntity
8
1
62
256
6
ByLayer
370
18
48
1
60
1
100
AcDbLine
10
594
20
420
30
0
11
594
21
0
31
0
39
0
210
0
220
0
230
1
0
LINE
5
85
100
AcDbEntity
8
1
62
256
6
ByLayer
370
18
48
1
60
1
100
AcDbLine
10
0
20
0
30
0
11
594
21
0
31
0
39
0
210
0
220
0
230
1
0
LINE
5
86
100
AcDbEntity
8
1
62
256
6
ByLayer
370
18
48
1
60
1
100
AcDbLine
10
0
20
0
30
0
11
0
21
420
31
0
39
0
210
0
220
0
230
1
0
LINE
5
87
100
AcDbEntity
8
1
62
256
6
ByLayer
370
18
48
1
60
1
100
AcDbLine
10
594
20
420
30
0
11
0
21
420
31
0
39
0
210
0
220
0
230
1
0
LINE
5
88
100
AcDbEntity
8
1
62
256
6
ByLayer
370
18
48
1
60
1
100
AcDbLine
10
594
20
420
30
0
11
594
21
0
31
0
39
0
210
0
220
0
230
1
0
LINE
5
89
100
AcDbEntity
8
1
62
256
6
ByLayer
370
18
48
1
60
1
100
AcDbLine
10
0
20
0
30
0
11
594
21
0
31
0
39
0
210
0
220
0
230
1
0
LINE
5
8A
100
AcDbEntity
8
1
62
256
6
ByLayer
370
18
48
1
60
1
100
AcDbLine
10
0
20
0
30
0
11
0
21
420
31
0
39
0
210
0
220
0
230
1
0
LINE
5
8B
100
AcDbEntity
8
1
62
256
6
ByLayer
370
18
48
1
60
1
100
AcDbLine
10
594
20
420
30
0
11
0
21
420
31
0
39
0
210
0
220
0
230
1
0
LINE
5
8C
100
AcDbEntity
8
1
62
256
6
ByLayer
370
18
48
1
60
1
100
AcDbLine
10
594
20
420
30
0
11
594
21
0
31
0
39
0
210
0
220
0
230
1
0
LINE
5
8D
100
AcDbEntity
8
1
62
256
6
ByLayer
370
18
48
1
60
1
100
AcDbLine
10
0
20
0
30
0
11
594
21
0
31
0
39
0
210
0
220
0
230
1
0
LINE
5
8E
100
AcDbEntity
8
4
62
256
6
ByLayer
370
18
48
0.05
60
0
100
AcDbLine
10
44.437956
20
62.5
30
0
11
-22.562044
21
62.5
31
0
39
0
210
0
220
0
230
1
0
LINE
5
8F
100
AcDbEntity
8
1
62
256
6
ByLayer
370
18
48
1
60
1
100
AcDbLine
10
0
20
0
30
0
11
0
21
420
31
0
39
0
210
0
220
0
230
1
0
LINE
5
90
100
AcDbEntity
8
1
62
256
6
ByLayer
370
18
48
1
60
1
100
AcDbLine
10
594
20
420
30
0
11
0
21
420
31
0
39
0
210
0
220
0
230
1
0
LINE
5
91
100
AcDbEntity
8
1
62
256
6
ByLayer
370
18
48
1
60
1
100
AcDbLine
10
594
20
420
30
0
11
594
21
0
31
0
39
0
210
0
220
0
230
1
0
LINE
5
92
100
AcDbEntity
8
1
62
256
6
ByLayer
370
18
48
1
60
1
100
AcDbLine
10
0
20
0
30
0
11
594
21
0
31
0
39
0
210
0
220
0
230
1
0
LINE
5
93
100
AcDbEntity
8
1
62
256
6
ByLayer
370
18
48
1
60
1
100
AcDbLine
10
0
20
0
30
0
11
0
21
420
31
0
39
0
210
0
220
0
230
1
0
LINE
5
94
100
AcDbEntity
8
1
62
256
6
ByLayer
370
18
48
1
60
1
100
AcDbLine
10
594
20
420
30
0
11
0
21
420
31
0
39
0
210
0
220
0
230
1
0
LINE
5
95
100
AcDbEntity
8
1
62
256
6
ByLayer
370
18
48
1
60
1
100
AcDbLine
10
594
20
420
30
0
11
594
21
0
31
0
39
0
210
0
220
0
230
1
0
LINE
5
96
100
AcDbEntity
8
1
62
256
6
ByLayer
370
18
48
1
60
1
100
AcDbLine
10
0
20
0
30
0
11
594
21
0
31
0
39
0
210
0
220
0
230
1
0
LINE
5
97
100
AcDbEntity
8
1
62
256
6
ByLayer
370
18
48
1
60
1
100
AcDbLine
10
0
20
0
30
0
11
0
21
420
31
0
39
0
210
0
220
0
230
1
0
LINE
5
98
100
AcDbEntity
8
1
62
256
6
ByLayer
370
18
48
1
60
1
100
AcDbLine
10
594
20
420
30
0
11
0
21
420
31
0
39
0
210
0
220
0
230
1
0
LINE
5
99
100
AcDbEntity
8
1
62
256
6
ByLayer
370
18
48
1
60
1
100
AcDbLine
10
594
20
420
30
0
11
594
21
0
31
0
39
0
210
0
220
0
230
1
0
LINE
5
9A
100
AcDbEntity
8
1
62
256
6
ByLayer
370
18
48
1
60
1
100
AcDbLine
10
0
20
0
30
0
11
594
21
0
31
0
39
0
210
0
220
0
230
1
0
LINE
5
9B
100
AcDbEntity
8
1
62
256
6
ByLayer
370
18
48
1
60
0
100
AcDbLine
10
172.540673
20
55.6
30
0
11
172.540673
21
60.4
31
0
39
0
210
0
220
0
230
1
0
LINE
5
9C
100
AcDbEntity
8
SK1
62
256
6
ByLayer
370
18
48
1
60
0
100
AcDbLine
10
-20
20
67.536
30
0
11
5.3E-05
21
67.536
31
0
39
0
210
0
220
0
230
1
0
LINE
5
9E
100
AcDbEntity
8
SK1
62
256
6
ByLayer
370
18
48
1
60
0
100
AcDbLine
10
-20
20
104.964
30
0
11
5.3E-05
21
104.964
31
0
39
0
210
0
220
0
230
1
0
LINE
5
9F
100
AcDbEntity
8
SK1
62
256
6
ByLayer
370
18
48
1
60
0
100
AcDbLine
10
-20
20
115.036
30
0
11
5.3E-05
21
115.036
31
0
39
0
210
0
220
0
230
1
0
LINE
5
A0
100
AcDbEntity
8
SK1
62
256
6
ByLayer
370
18
48
1
60
0
100
AcDbLine
10
-20
20
9.964
30
0
11
5.3E-05
21
9.964
31
0
39
0
210
0
220
0
230
1
0
LINE
5
A1
100
AcDbEntity
8
SK1
62
256
6
ByLayer
370
18
48
1
60
0
100
AcDbLine
10
-20
20
20.036
30
0
11
5.3E-05
21
20.036
31
0
39
0
210
0
220
0
230
1
0
LINE
5
A2
100
AcDbEntity
8
SK1
62
256
6
ByLayer
370
18
48
1
60
0
100
AcDbLine
10
-20
20
57.464
30
0
11
5.3E-05
21
57.464
31
0
39
0
210
0
220
0
230
1
0
LINE
5
A3
100
AcDbEntity
8
1
62
256
6
ByLayer
370
18
48
1
60
0
100
AcDbLine
10
41.785
20
22.8
30
0
11
41.785
21
7.2
31
0
39
0
210
0
220
0
230
1
0
LINE
5
A4
100
AcDbEntity
8
SK1
62
256
6
ByLayer
370
18
48
1
60
0
100
AcDbLine
10
-20
20
115.036
30
0
11
-20
21
104.964
31
0
39
0
210
0
220
0
230
1
0
LINE
5
A5
100
AcDbEntity
8
SK1
62
256
6
ByLayer
370
18
48
1
60
0
100
AcDbLine
10
-20
20
104.964
30
0
11
-19.036
21
104
31
0
39
0
210
0
220
0
230
1
0
LINE
5
A6
100
AcDbEntity
8
SK1
62
256
6
ByLayer
370
18
48
1
60
0
100
AcDbLine
10
-19.036
20
116
30
0
11
-20
21
115.036
31
0
39
0
210
0
220
0
230
1
0
LINE
5
A7
100
AcDbEntity
8
SK1
62
256
6
ByLayer
370
18
48
1
60
0
100
AcDbLine
10
-19.036
20
116
30
0
11
-19.036
21
104
31
0
39
0
210
0
220
0
230
1
0
LINE
5
A8
100
AcDbEntity
8
SK1
62
256
6
ByLayer
370
18
48
1
60
0
100
AcDbLine
10
-19.036
20
104
30
0
11
0.000105
21
104
31
0
39
0
210
0
220
0
230
1
0
LINE
5
A9
100
AcDbEntity
8
SK1
62
256
6
ByLayer
370
18
48
1
60
0
100
AcDbLine
10
0.000105
20
116
30
0
11
-19.036
21
116
31
0
39
0
210
0
220
0
230
1
0
LINE
5
AA
100
AcDbEntity
8
1
62
256
6
ByLayer
370
18
48
1
60
0
100
AcDbLine
10
30
20
101
30
0
11
40.585
21
101
31
0
39
0
210
0
220
0
230
1
0
LINE
5
AB
100
AcDbEntity
8
1
62
256
6
ByLayer
370
18
48
1
60
0
100
AcDbLine
10
40.585
20
119
30
0
11
30
21
119
31
0
39
0
210
0
220
0
230
1
0
LINE
5
AC
100
AcDbEntity
8
1
62
256
6
ByLayer
370
18
48
1
60
0
100
AcDbLine
10
40.585
20
119
30
0
11
40.585
21
101
31
0
39
0
210
0
220
0
230
1
0
LINE
5
AD
100
AcDbEntity
8
1
62
256
6
ByLayer
370
18
48
1
60
0
100
AcDbLine
10
41.785
20
117.8
30
0
11
41.785
21
102.2
31
0
39
0
210
0
220
0
230
1
0
LINE
5
AE
100
AcDbEntity
8
SK1
62
256
6
ByLayer
370
18
48
1
60
0
100
AcDbLine
10
-20
20
67.536
30
0
11
-20
21
57.464
31
0
39
0
210
0
220
0
230
1
0
LINE
5
AF
100
AcDbEntity
8
SK1
62
256
6
ByLayer
370
18
48
1
60
0
100
AcDbLine
10
-20
20
57.464
30
0
11
-19.036
21
56.5
31
0
39
0
210
0
220
0
230
1
0
LINE
5
B0
100
AcDbEntity
8
SK1
62
256
6
ByLayer
370
18
48
1
60
0
100
AcDbLine
10
-19.036
20
68.5
30
0
11
-20
21
67.536
31
0
39
0
210
0
220
0
230
1
0
LINE
5
B1
100
AcDbEntity
8
SK1
62
256
6
ByLayer
370
18
48
1
60
0
100
AcDbLine
10
-19.036
20
68.5
30
0
11
-19.036
21
56.5
31
0
39
0
210
0
220
0
230
1
0
LINE
5
B2
100
AcDbEntity
8
SK1
62
256
6
ByLayer
370
18
48
1
60
0
100
AcDbLine
10
-19.036
20
56.5
30
0
11
0.000105
21
56.5
31
0
39
0
210
0
220
0
230
1
0
LINE
5
B3
100
AcDbEntity
8
SK1
62
256
6
ByLayer
370
18
48
1
60
0
100
AcDbLine
10
0.000105
20
68.5
30
0
11
-19.036
21
68.5
31
0
39
0
210
0
220
0
230
1
0
LINE
5
B4
100
AcDbEntity
8
1
62
256
6
ByLayer
370
18
48
1
60
0
100
AcDbLine
10
30
20
53.5
30
0
11
40.585
21
53.5
31
0
39
0
210
0
220
0
230
1
0
LINE
5
B5
100
AcDbEntity
8
1
62
256
6
ByLayer
370
18
48
1
60
0
100
AcDbLine
10
40.585
20
71.5
30
0
11
30
21
71.5
31
0
39
0
210
0
220
0
230
1
0
LINE
5
B6
100
AcDbEntity
8
1
62
256
6
ByLayer
370
18
48
1
60
0
100
AcDbLine
10
40.585
20
71.5
30
0
11
40.585
21
53.5
31
0
39
0
210
0
220
0
230
1
0
LINE
5
B7
100
AcDbEntity
8
1
62
256
6
ByLayer
370
18
48
1
60
0
100
AcDbLine
10
41.785
20
70.3
30
0
11
41.785
21
54.7
31
0
39
0
210
0
220
0
230
1
0
LINE
5
B8
100
AcDbEntity
8
SK1
62
256
6
ByLayer
370
18
48
1
60
0
100
AcDbLine
10
0
20
125
30
0
11
-5
21
125
31
0
39
0
210
0
220
0
230
1
0
LINE
5
B9
100
AcDbEntity
8
SK1
62
256
6
ByLayer
370
18
48
1
60
0
100
AcDbLine
10
-5
20
21.000781
30
0
11
-5
21
56.500625
31
0
39
0
210
0
220
0
230
1
0
LINE
5
BA
100
AcDbEntity
8
SK1
62
256
6
ByLayer
370
18
48
1
60
0
100
AcDbLine
10
-5
20
68.500156
30
0
11
-5
21
103.998359
31
0
39
0
210
0
220
0
230
1
0
LINE
5
BB
100
AcDbEntity
8
SK1
62
256
6
ByLayer
370
18
48
1
60
0
100
AcDbLine
10
-5
20
115.999531
30
0
11
-5
21
125
31
0
39
0
210
0
220
0
230
1
0
LINE
5
BC
100
AcDbEntity
8
1
62
256
6
ByLayer
370
18
48
1
60
0
100
AcDbLine
10
30.4
20
-6
30
0
11
85
21
-6
31
0
39
0
210
0
220
0
230
1
0
LINE
5
BD
100
AcDbEntity
8
1
62
256
6
ByLayer
370
18
48
1
60
0
100
AcDbLine
10
60.038476
20
125
30
0
11
30.4
21
125
31
0
39
0
210
0
220
0
230
1
0
LINE
5
BE
100
AcDbEntity
8
1
62
256
6
ByLayer
370
18
48
1
60
0
100
AcDbLine
10
91.6
20
116.543115
30
0
11
60.038476
21
125
31
0
39
0
210
0
220
0
230
1
0
LINE
5
BF
100
AcDbEntity
8
1
62
256
6
ByLayer
370
18
48
1
60
0
100
AcDbLine
10
91.6
20
-7
30
0
11
85
21
-7
31
0
39
0
210
0
220
0
230
1
0
LINE
5
C0
100
AcDbEntity
8
1
62
256
6
ByLayer
370
18
48
1
60
0
100
AcDbLine
10
98.5
20
-16
30
0
11
130
21
-16
31
0
39
0
210
0
220
0
230
1
0
LINE
5
C1
100
AcDbEntity
8
1
62
256
6
ByLayer
370
18
48
1
60
0
100
AcDbLine
10
130
20
-16
30
0
11
161.5
21
-16
31
0
39
0
210
0
220
0
230
1
0
LINE
5
C2
100
AcDbEntity
8
1
62
256
6
ByLayer
370
18
48
1
60
0
100
AcDbLine
10
98.5
20
-15.5
30
0
11
98.5
21
-16
31
0
39
0
210
0
220
0
230
1
0
LINE
5
C3
100
AcDbEntity
8
1
62
256
6
ByLayer
370
18
48
1
60
0
100
AcDbLine
10
161.5
20
-16
30
0
11
161.5
21
-15.5
31
0
39
0
210
0
220
0
230
1
0
LINE
5
C4
100
AcDbEntity
8
1
62
256
6
ByLayer
370
18
48
1
60
0
100
AcDbLine
10
171.175
20
-15.5
30
0
11
88.825
21
-15.5
31
0
39
0
210
0
220
0
230
1
0
LINE
5
C5
100
AcDbEntity
8
1
62
256
6
ByLayer
370
18
48
1
60
0
100
AcDbLine
10
88.325
20
-7
30
0
11
88.325
21
-15
31
0
39
0
210
0
220
0
230
1
0
LINE
5
C6
100
AcDbEntity
8
1
62
256
6
ByLayer
370
18
48
1
60
0
100
AcDbLine
10
88.325
20
-15
30
0
11
171.675
21
-15
31
0
39
0
210
0
220
0
230
1
0
LINE
5
C7
100
AcDbEntity
8
1
62
256
6
ByLayer
370
18
48
1
60
0
100
AcDbLine
10
171.675
20
-7
30
0
11
171.675
21
-15
31
0
39
0
210
0
220
0
230
1
0
LINE
5
C8
100
AcDbEntity
8
SK1
62
256
6
ByLayer
370
18
48
1
60
0
100
AcDbLine
10
-20
20
20.036
30
0
11
-20
21
9.964
31
0
39
0
210
0
220
0
230
1
0
LINE
5
C9
100
AcDbEntity
8
SK1
62
256
6
ByLayer
370
18
48
1
60
0
100
AcDbLine
10
-20
20
9.964
30
0
11
-19.036
21
9
31
0
39
0
210
0
220
0
230
1
0
LINE
5
CA
100
AcDbEntity
8
SK1
62
256
6
ByLayer
370
18
48
1
60
0
100
AcDbLine
10
-19.036
20
21
30
0
11
-20
21
20.036
31
0
39
0
210
0
220
0
230
1
0
LINE
5
CB
100
AcDbEntity
8
SK1
62
256
6
ByLayer
370
18
48
1
60
0
100
AcDbLine
10
-19.036
20
21
30
0
11
-19.036
21
9
31
0
39
0
210
0
220
0
230
1
0
LINE
5
CC
100
AcDbEntity
8
SK1
62
256
6
ByLayer
370
18
48
1
60
0
100
AcDbLine
10
-19.036
20
9
30
0
11
0.000105
21
9
31
0
39
0
210
0
220
0
230
1
0
LINE
5
CD
100
AcDbEntity
8
SK1
62
256
6
ByLayer
370
18
48
1
60
0
100
AcDbLine
10
0.000105
20
21
30
0
11
-19.036
21
21
31
0
39
0
210
0
220
0
230
1
0
LINE
5
CE
100
AcDbEntity
8
1
62
256
6
ByLayer
370
18
48
1
60
0
100
AcDbLine
10
30
20
6
30
0
11
40.585
21
6
31
0
39
0
210
0
220
0
230
1
0
LINE
5
CF
100
AcDbEntity
8
1
62
256
6
ByLayer
370
18
48
1
60
0
100
AcDbLine
10
40.585
20
24
30
0
11
30
21
24
31
0
39
0
210
0
220
0
230
1
0
LINE
5
D0
100
AcDbEntity
8
1
62
256
6
ByLayer
370
18
48
1
60
0
100
AcDbLine
10
40.585
20
24
30
0
11
40.585
21
6
31
0
39
0
210
0
220
0
230
1
0
LINE
5
D1
100
AcDbEntity
8
1
62
256
6
ByLayer
370
18
48
1
60
0
100
AcDbLine
10
85
20
-6
30
0
11
85
21
-7
31
0
39
0
210
0
220
0
230
1
0
LINE
5
D2
100
AcDbEntity
8
1
62
256
6
ByLayer
370
18
48
1
60
0
100
AcDbLine
10
30.4
20
-6
30
0
11
30
21
-6
31
0
39
0
210
0
220
0
230
1
0
LINE
5
D3
100
AcDbEntity
8
1
62
256
6
ByLayer
370
18
48
1
60
0
100
AcDbLine
10
30
20
125
30
0
11
30.4
21
125
31
0
39
0
210
0
220
0
230
1
0
LINE
5
D4
100
AcDbEntity
8
1
62
256
6
ByLayer
370
18
48
1
60
0
100
AcDbLine
10
30.4
20
125
30
0
11
30.4
21
118.998562
31
0
39
0
210
0
220
0
230
1
0
LINE
5
D5
100
AcDbEntity
8
1
62
256
6
ByLayer
370
18
48
1
60
0
100
AcDbLine
10
30.4
20
100.998344
30
0
11
30.4
21
71.498781
31
0
39
0
210
0
220
0
230
1
0
LINE
5
D6
100
AcDbEntity
8
1
62
256
6
ByLayer
370
18
48
1
60
0
100
AcDbLine
10
30.4
20
53.500609
30
0
11
30.4
21
24.001047
31
0
39
0
210
0
220
0
230
1
0
LINE
5
D7
100
AcDbEntity
8
1
62
256
6
ByLayer
370
18
48
1
60
0
100
AcDbLine
10
30.4
20
6.000828
30
0
11
30.4
21
-6
31
0
39
0
210
0
220
0
230
1
0
LINE
5
D8
100
AcDbEntity
8
1
62
256
6
ByLayer
370
18
48
1
60
0
100
AcDbLine
10
91.6
20
116.543115
30
0
11
92
21
116.435935
31
0
39
0
210
0
220
0
230
1
0
LINE
5
D9
100
AcDbEntity
8
1
62
256
6
ByLayer
370
18
48
1
60
0
100
AcDbLine
10
92
20
-7
30
0
11
91.6
21
-7
31
0
39
0
210
0
220
0
230
1
0
LINE
5
DA
100
AcDbEntity
8
1
62
256
6
ByLayer
370
18
48
1
60
0
100
AcDbLine
10
91.6
20
-7
30
0
11
91.6
21
116.543115
31
0
39
0
210
0
220
0
230
1
0
LINE
5
DB
100
AcDbEntity
8
1
62
256
6
ByLayer
370
18
48
1
60
0
100
AcDbLine
10
92
20
116.435935
30
0
11
104
21
113.220545
31
0
39
0
210
0
220
0
230
1
0
LINE
5
DC
100
AcDbEntity
8
1
62
256
6
ByLayer
370
18
48
1
60
0
100
AcDbLine
10
104
20
-7
30
0
11
92
21
-7
31
0
39
0
210
0
220
0
230
1
0
LINE
5
DD
100
AcDbEntity
8
1
62
256
6
ByLayer
370
18
48
1
60
0
100
AcDbLine
10
92
20
-7
30
0
11
92
21
116.435935
31
0
39
0
210
0
220
0
230
1
0
LINE
5
DE
100
AcDbEntity
8
1
62
256
6
ByLayer
370
18
48
1
60
0
100
AcDbLine
10
152
20
100.358984
30
0
11
104
21
113.220545
31
0
39
0
210
0
220
0
230
1
0
LINE
5
DF
100
AcDbEntity
8
1
62
256
6
ByLayer
370
18
48
1
60
0
100
AcDbLine
10
152
20
-7
30
0
11
104
21
-7
31
0
39
0
210
0
220
0
230
1
0
LINE
5
E0
100
AcDbEntity
8
1
62
256
6
ByLayer
370
18
48
1
60
0
100
AcDbLine
10
104
20
113.220545
30
0
11
104
21
-7
31
0
39
0
210
0
220
0
230
1
0
LINE
5
E1
100
AcDbEntity
8
1
62
256
6
ByLayer
370
18
48
1
60
0
100
AcDbLine
10
172
20
95
30
0
11
152
21
100.358984
31
0
39
0
210
0
220
0
230
1
0
LINE
5
E2
100
AcDbEntity
8
1
62
256
6
ByLayer
370
18
48
1
60
0
100
AcDbLine
10
172
20
95
30
0
11
172
21
-7
31
0
39
0
210
0
220
0
230
1
0
LINE
5
E3
100
AcDbEntity
8
1
62
256
6
ByLayer
370
18
48
1
60
0
100
AcDbLine
10
152
20
-7
30
0
11
152
21
100.358984
31
0
39
0
210
0
220
0
230
1
0
LINE
5
E4
100
AcDbEntity
8
1
62
256
6
ByLayer
370
18
48
1
60
0
100
AcDbLine
10
172
20
-7
30
0
11
152
21
-7
31
0
39
0
210
0
220
0
230
1
0
LINE
5
E5
100
AcDbEntity
8
1
62
256
6
ByLayer
370
18
48
1
60
0
100
AcDbLine
10
0
20
-6
30
0
11
-5
21
-6
31
0
39
0
210
0
220
0
230
1
0
LINE
5
E6
100
AcDbEntity
8
1
62
256
6
ByLayer
370
18
48
1
60
0
100
AcDbLine
10
-5
20
0
30
0
11
0
21
0
31
0
39
0
210
0
220
0
230
1
0
LINE
5
E7
100
AcDbEntity
8
1
62
256
6
ByLayer
370
18
48
1
60
0
100
AcDbLine
10
-5
20
-6
30
0
11
-5
21
0
31
0
39
0
210
0
220
0
230
1
0
LINE
5
E8
100
AcDbEntity
8
1
62
256
6
ByLayer
370
18
48
1
60
0
100
AcDbLine
10
30
20
-6
30
0
11
0
21
-6
31
0
39
0
210
0
220
0
230
1
0
LINE
5
E9
100
AcDbEntity
8
1
62
256
6
ByLayer
370
18
48
1
60
0
100
AcDbLine
10
30
20
125
30
0
11
0
21
125
31
0
39
0
210
0
220
0
230
1
0
LINE
5
EA
100
AcDbEntity
8
1
62
256
6
ByLayer
370
18
48
1
60
0
100
AcDbLine
10
0
20
0
30
0
11
0
21
125
31
0
39
0
210
0
220
0
230
1
0
LINE
5
EB
100
AcDbEntity
8
1
62
256
6
ByLayer
370
18
48
1
60
0
100
AcDbLine
10
0
20
0
30
0
11
0
21
-6
31
0
39
0
210
0
220
0
230
1
0
LINE
5
EC
100
AcDbEntity
8
1
62
256
6
ByLayer
370
18
48
1
60
0
100
AcDbLine
10
30
20
125
30
0
11
30
21
-6
31
0
39
0
210
0
220
0
230
1
0
LINE
5
ED
100
AcDbEntity
8
SK1
62
256
6
ByLayer
370
18
48
1
60
0
100
AcDbLine
10
-0.45
20
47
30
0
11
-0.45
21
33
31
0
39
0
210
0
220
0
230
1
0
LINE
5
EE
100
AcDbEntity
8
4
62
256
6
ByLayer
370
18
48
0.05
60
0
100
AcDbLine
10
44.437956
20
110
30
0
11
-22.562044
21
110
31
0
39
0
210
0
220
0
230
1
0
LINE
5
EF
100
AcDbEntity
8
4
62
256
6
ByLayer
370
18
48
0.05
60
0
100
AcDbLine
10
44.437956
20
15
30
0
11
-22.562044
21
15
31
0
39
0
210
0
220
0
230
1
0
MTEXT
5
107
100
AcDbEntity
8
SK6
62
256
6
ByLayer
370
13
48
1
60
0
100
AcDbMText
10
-153.555877
20
71.493469
30
0
210
0
220
0
230
1
1
\fAMGDT|b0|i0;\W0.9431;C6-TRI-DO-F
40
10
41
0
44
1.174881
50
0
71
7
72
5
7
AMGDT
0
DIMENSION
5
10B
100
AcDbEntity
8
2
62
256
6
ByLayer
370
18
48
1
60
0
100
AcDbDimension
2
_U0
10
172
20
145.721695
30
0
11
86
21
145.721695
31
0
70
32
71
1
72
1
41
1
210
0
220
0
230
1
3
Standard
100
AcDbAlignedDimension
13
0
23
125
33
0
14
172
24
95
34
0
50
0
100
AcDbRotatedDimension
1001
ACAD
1000
DSTYLE
1002
{
1070
   371
1070
    35
1070
   372
1070
    35
1070
   170
1070
     0
1070
   144
1040
1.0
1070
   277
1070
     2
1070
   284
1070
     8
1070
   278
1070
    46
1070
   146
1040
0.25
1070
   345
1005
16
1070
   347
1005
16
1070
   346
1005
16
1070
   344
1005
0
1070
   343
1005
0
1070
   172
1070
     1
1070
    76
1070
     0
1070
    75
1070
     0
1070
   282
1070
     0
1070
   281
1070
     0
1070
    71
1070
     0
1070
    74
1070
     0
1070
   279
1070
     0
1070
   173
1070
     1
1070
   340
1005
10C
1070
   271
1070
     2
1070
   272
1070
     2
1070
    77
1070
     1
1070
    73
1070
     1
1070
   171
1070
     3
1070
   274
1070
     4
1070
   177
1070
     7
1070
   176
1070
     7
1070
   178
1070
     7
1070
    78
1070
     8
1070
    48
1040
-0.1
1070
    41
1040
14.0
1070
   147
1040
7.000002
1070
    42
1040
1.5875
1070
    44
1040
10.0
1070
   140
1040
14.0
1002
}
1001
ACAD_DSTYLE_DIM_LINETYPE
1070
   380
1005
16
1001
ACAD_DSTYLE_DIM_EXT1_LINETYPE
1070
   381
1005
16
1001
ACAD_DSTYLE_DIM_EXT2_LINETYPE
1070
   382
1005
16
0
DIMENSION
5
127
100
AcDbEntity
8
2
62
256
6
ByLayer
370
18
48
1
60
0
100
AcDbDimension
2
_U1
10
130
20
-98.5
30
0
11
65
21
-98.5
31
0
70
32
71
1
72
1
41
1
210
0
220
0
230
1
3
Standard
100
AcDbAlignedDimension
13
0
23
0
33
0
14
130
24
-16
34
0
50
0
100
AcDbRotatedDimension
1001
ACAD
1000
DSTYLE
1002
{
1070
   371
1070
    35
1070
   372
1070
    35
1070
   170
1070
     0
1070
   144
1040
1.0
1070
   277
1070
     2
1070
   284
1070
     8
1070
   278
1070
    46
1070
   146
1040
0.25
1070
   345
1005
16
1070
   347
1005
16
1070
   346
1005
16
1070
   344
1005
0
1070
   343
1005
0
1070
   172
1070
     1
1070
    76
1070
     0
1070
    75
1070
     0
1070
   282
1070
     0
1070
   281
1070
     0
1070
    71
1070
     0
1070
    74
1070
     0
1070
   279
1070
     0
1070
   173
1070
     1
1070
   340
1005
10C
1070
   271
1070
     2
1070
   272
1070
     2
1070
    77
1070
     1
1070
    73
1070
     1
1070
   171
1070
     3
1070
   274
1070
     4
1070
   177
1070
     7
1070
   176
1070
     7
1070
   178
1070
     7
1070
    78
1070
     8
1070
    48
1040
-0.1
1070
    41
1040
14.0
1070
   147
1040
7.000002
1070
    42
1040
1.5875
1070
    44
1040
10.0
1070
   140
1040
14.0
1002
}
1001
ACAD_DSTYLE_DIM_LINETYPE
1070
   380
1005
16
1001
ACAD_DSTYLE_DIM_EXT1_LINETYPE
1070
   381
1005
16
1001
ACAD_DSTYLE_DIM_EXT2_LINETYPE
1070
   382
1005
16
0
DIMENSION
5
13F
100
AcDbEntity
8
2
62
256
6
ByLayer
370
18
48
1
60
0
100
AcDbDimension
2
_U2
10
161.5
20
-64.961901
30
0
11
221.5
21
-64.961901
31
0
70
32
71
1
72
1
41
1
210
0
220
0
230
1
3
Standard
100
AcDbAlignedDimension
13
98.5
23
-16
33
0
14
161.5
24
-16
34
0
50
0
100
AcDbRotatedDimension
1001
ACAD
1000
DSTYLE
1002
{
1070
   371
1070
    35
1070
   372
1070
    35
1070
     3
1000
%%c<>
1070
   170
1070
     0
1070
   144
1040
1.0
1070
   277
1070
     2
1070
   284
1070
     8
1070
   278
1070
    46
1070
   146
1040
0.25
1070
   345
1005
16
1070
   347
1005
16
1070
   346
1005
16
1070
   344
1005
0
1070
   343
1005
0
1070
   172
1070
     1
1070
    76
1070
     0
1070
    75
1070
     0
1070
   282
1070
     0
1070
   281
1070
     0
1070
    71
1070
     0
1070
    74
1070
     0
1070
   279
1070
     0
1070
   173
1070
     1
1070
   340
1005
10C
1070
   271
1070
     2
1070
   272
1070
     2
1070
    77
1070
     1
1070
    73
1070
     0
1070
   171
1070
     3
1070
   274
1070
     4
1070
   177
1070
     7
1070
   176
1070
     7
1070
   178
1070
     7
1070
    78
1070
     8
1070
    48
1040
-0.1
1070
    41
1040
14.0
1070
   147
1040
7.000002
1070
    42
1040
1.5875
1070
    44
1040
10.0
1070
   140
1040
14.0
1002
}
1001
ACAD_DSTYLE_DIM_LINETYPE
1070
   380
1005
16
1001
ACAD_DSTYLE_DIM_EXT1_LINETYPE
1070
   381
1005
16
1001
ACAD_DSTYLE_DIM_EXT2_LINETYPE
1070
   382
1005
16
0
DIMENSION
5
15A
100
AcDbEntity
8
2
62
256
6
ByLayer
370
18
48
1
60
0
100
AcDbDimension
2
_U3
10
204.342872
20
-16
30
0
11
204.342872
21
54.5
31
0
70
32
71
1
72
1
41
1
210
0
220
0
230
1
3
Standard
100
AcDbAlignedDimension
13
60.038476
23
125
33
0
14
161.5
24
-16
34
0
50
90
100
AcDbRotatedDimension
1001
ACAD
1000
DSTYLE
1002
{
1070
   371
1070
    35
1070
   372
1070
    35
1070
   170
1070
     0
1070
   144
1040
1.0
1070
   277
1070
     2
1070
   284
1070
     8
1070
   278
1070
    46
1070
   146
1040
0.25
1070
   345
1005
16
1070
   347
1005
16
1070
   346
1005
16
1070
   344
1005
0
1070
   343
1005
0
1070
   172
1070
     1
1070
    76
1070
     0
1070
    75
1070
     0
1070
   282
1070
     0
1070
   281
1070
     0
1070
    71
1070
     0
1070
    74
1070
     0
1070
   279
1070
     0
1070
   173
1070
     1
1070
   340
1005
10C
1070
   271
1070
     2
1070
   272
1070
     2
1070
    77
1070
     1
1070
    73
1070
     0
1070
   171
1070
     3
1070
   274
1070
     4
1070
   177
1070
     7
1070
   176
1070
     7
1070
   178
1070
     7
1070
    78
1070
     8
1070
    48
1040
-0.1
1070
    41
1040
14.0
1070
   147
1040
7.000002
1070
    42
1040
1.5875
1070
    44
1040
10.0
1070
   140
1040
14.0
1002
}
1001
ACAD_DSTYLE_DIM_LINETYPE
1070
   380
1005
16
1001
ACAD_DSTYLE_DIM_EXT1_LINETYPE
1070
   381
1005
16
1001
ACAD_DSTYLE_DIM_EXT2_LINETYPE
1070
   382
1005
16
0
DIMENSION
5
172
100
AcDbEntity
8
SK2
62
256
6
ByLayer
370
18
48
1
60
0
100
AcDbDimension
2
_U4
10
-46.37866
20
-16
30
0
11
-46.37866
21
-75.333333
31
0
70
32
71
1
72
1
41
1
210
0
220
0
230
1
3
Standard
100
AcDbAlignedDimension
13
-32.646011
23
0
33
0
14
98.5
24
-16
34
0
50
90
100
AcDbRotatedDimension
1001
ACAD
1000
DSTYLE
1002
{
1070
   371
1070
    35
1070
   372
1070
    35
1070
   170
1070
     0
1070
   144
1040
1.0
1070
   277
1070
     2
1070
   284
1070
     8
1070
   278
1070
    46
1070
   146
1040
0.25
1070
   345
1005
16
1070
   347
1005
16
1070
   346
1005
16
1070
   344
1005
0
1070
   343
1005
0
1070
   172
1070
     1
1070
    76
1070
     0
1070
    75
1070
     0
1070
   282
1070
     0
1070
   281
1070
     0
1070
    71
1070
     0
1070
    74
1070
     0
1070
   279
1070
     0
1070
   173
1070
     1
1070
   340
1005
10C
1070
   271
1070
     2
1070
   272
1070
     2
1070
    77
1070
     1
1070
    73
1070
     0
1070
   171
1070
     3
1070
   274
1070
     4
1070
   177
1070
     7
1070
   176
1070
     7
1070
   178
1070
     7
1070
    78
1070
     8
1070
    48
1040
-0.1
1070
    41
1040
14.0
1070
   147
1040
7.000002
1070
    42
1040
1.5875
1070
    44
1040
10.0
1070
   140
1040
14.0
1002
}
1001
ACAD_DSTYLE_DIM_LINETYPE
1070
   380
1005
16
1001
ACAD_DSTYLE_DIM_EXT1_LINETYPE
1070
   381
1005
16
1001
ACAD_DSTYLE_DIM_EXT2_LINETYPE
1070
   382
1005
16
0
ENDSEC
0
SECTION
2
OBJECTS
0
DICTIONARY
5
1fd
330
0
100
AcDbDictionary
280
0
281
1
3
ACAD_GROUP
350
1fe
3
ACAD_MLINESTYLE
350
1ff
0
DICTIONARY
5
1fe
330
0
100
AcDbDictionary
280
0
281
1
0
DICTIONARY
5
1ff
330
0
100
AcDbDictionary
280
0
281
1
3
Standard
350
18
0
MLINESTYLE
5
18
330
1ff
100
AcDbMlineStyle
2
Standard
70
0
3

62
256
51
90
52
90
71
2
49
-0.5
62
256
6
ByLayer
49
0.5
62
256
6
ByLayer
0
RASTERVARIABLES
5
1eb
330

100
AcDbRasterVariables
90
0
70
1
71
1
72
1
0
ENDSEC
0
EOF
