0
SECTION
2
HEADER
9
$ACADVER
1
AC1015
9
$DWGCODEPAGE
3
ANSI_1252
9
$HANDSEED
5
1cc
9
$ANGBASE
50
0
9
$ANGDIR
70
0
9
$ATTMODE
70
1
9
$AUNITS
70
0
9
$AUPREC
70
0
9
$CECOLOR
62
256
9
$CELTSCALE
40
1
9
$CELTYPE
6
ByLayer
9
$CELWEIGHT
370
-1
9
$CLAYER
8
0
9
$CMLJUST
70
0
9
$CMLSCALE
40
1
9
$CMLSTYLE
2
Standard
9
$DIMSTYLE
2
Standard
9
$TEXTSIZE
40
0.2
9
$TEXTSTYLE
7
Standard
9
$LUNITS
70
2
9
$LUPREC
70
4
9
$EXTNAMES
290
1
9
$INSUNITS
70
4
9
$LTSCALE
40
1
9
$LWDISPLAY
290
0
9
$PDMODE
70
0
9
$PDSIZE
40
0
9
$PLINEGEN
70
0
0
ENDSEC
0
SECTION
2
CLASSES
0
CLASS
1
RASTERVARIABLES
2
AcDbRasterVariables
3
ISM
90
0
280
0
281
0
0
ENDSEC
0
SECTION
2
TABLES
0
TABLE
2
VPORT
5
1c2
100
AcDbSymbolTable
0
VPORT
5
1
100
AcDbSymbolTableRecord
100
AcDbViewportTableRecord
2
*Active
70
0
10
0
20
0
11
1
21
1
12
-1
22
1
13
0
23
0
14
0.5
24
0.5
15
10
25
10
16
0
26
0
36
1
17
0
27
0
37
0
0
ENDTAB
0
TABLE
2
LTYPE
5
1c3
100
AcDbSymbolTable
0
LTYPE
5
14
100
AcDbSymbolTableRecord
100
AcDbLinetypeTableRecord
70
0
2
ByBlock
3

72
65
73
0
40
0
0
LTYPE
5
15
100
AcDbSymbolTableRecord
100
AcDbLinetypeTableRecord
70
0
2
ByLayer
3

72
65
73
0
40
0
0
LTYPE
5
16
100
AcDbSymbolTableRecord
100
AcDbLinetypeTableRecord
70
0
2
CONTINUOUS
3
Solid line
72
65
73
0
40
0
0
LTYPE
5
3B
100
AcDbSymbolTableRecord
100
AcDbLinetypeTableRecord
70
0
2
DASHED
3
__ __ __ __ __ __ __ __ __
72
65
73
2
40
25.72
49
12.86
74
0
49
-12.86
74
0
0
LTYPE
5
3C
100
AcDbSymbolTableRecord
100
AcDbLinetypeTableRecord
70
0
2
HIDDEN
3
_ _ _ _ _ _ _ _ _ _ _ _ _ _ _
72
65
73
2
40
0.5
49
0.25
74
0
49
-0.25
74
0
0
LTYPE
5
3D
100
AcDbSymbolTableRecord
100
AcDbLinetypeTableRecord
70
0
2
PHANTOM
3
____ _ _ ____ _ _ _____ _ _ ____
72
65
73
6
40
50.5
49
18
74
0
49
-6.5
74
0
49
6.5
74
0
49
-6.5
74
0
49
6.5
74
0
49
-6.5
74
0
0
LTYPE
5
3E
100
AcDbSymbolTableRecord
100
AcDbLinetypeTableRecord
70
0
2
CENTER
3
____ _ ____ _ ____ _ ____
72
65
73
4
40
47.5
49
22
74
0
49
-8.5
74
0
49
8.5
74
0
49
-8.5
74
0
0
LTYPE
5
3F
100
AcDbSymbolTableRecord
100
AcDbLinetypeTableRecord
70
0
2
DOT
3
.........................
72
65
73
2
40
10
49
0
74
0
49
-10
74
0
0
LTYPE
5
40
100
AcDbSymbolTableRecord
100
AcDbLinetypeTableRecord
70
0
2
DASHDOT
3
_._._._._._._._._._._._._._._._.
72
65
73
4
40
70
49
31
74
0
49
-13
74
0
49
13
74
0
49
-13
74
0
0
ENDTAB
0
TABLE
2
LAYER
5
1c4
100
AcDbSymbolTable
0
LAYER
5
10
100
AcDbSymbolTableRecord
100
AcDbLayerTableRecord
2
0
70
0
62
7
6
CONTINUOUS
290
1
370
-3
390
0
0
LAYER
5
42
100
AcDbSymbolTableRecord
100
AcDbLayerTableRecord
2
80
70
0
62
-6
6
CONTINUOUS
290
1
370
-3
390
0
0
LAYER
5
44
100
AcDbSymbolTableRecord
100
AcDbLayerTableRecord
2
81
70
0
62
-3
6
CONTINUOUS
290
1
370
-3
390
0
0
LAYER
5
46
100
AcDbSymbolTableRecord
100
AcDbLayerTableRecord
2
1
70
0
62
4
6
CONTINUOUS
290
1
370
-3
390
0
0
LAYER
5
48
100
AcDbSymbolTableRecord
100
AcDbLayerTableRecord
2
2
70
0
62
7
6
CONTINUOUS
290
1
370
-3
390
0
0
LAYER
5
4F
100
AcDbSymbolTableRecord
100
AcDbLayerTableRecord
2
4
70
0
62
-2
6
CENTER
290
1
370
-3
390
0
0
LAYER
5
1ae
100
AcDbSymbolTableRecord
100
AcDbLayerTableRecord
2
SK4
70
0
62
2
6
CENTER
290
1
370
-3
390
0
0
LAYER
5
1af
100
AcDbSymbolTableRecord
100
AcDbLayerTableRecord
2
SK1
70
0
62
4
6
CONTINUOUS
290
1
370
-3
390
0
0
LAYER
5
1b0
100
AcDbSymbolTableRecord
100
AcDbLayerTableRecord
2
SK6
70
0
62
5
6
CONTINUOUS
290
1
370
-3
390
0
0
LAYER
5
1b1
100
AcDbSymbolTableRecord
100
AcDbLayerTableRecord
2
SK2
70
0
62
7
6
CONTINUOUS
290
1
370
-3
390
0
0
ENDTAB
0
TABLE
2
STYLE
5
1c5
100
AcDbSymbolTable
0
STYLE
5
11
100
AcDbSymbolTableRecord
100
AcDbTextStyleTableRecord
2
Standard
3
txt
70
0
71
0
40
0
41
1
42
0
50
0
0
STYLE
5
110
100
AcDbSymbolTableRecord
100
AcDbTextStyleTableRecord
2
DEFAULT
3
simplex.shx
70
0
71
0
40
0
41
1
42
0
50
0
0
STYLE
5
133
100
AcDbSymbolTableRecord
100
AcDbTextStyleTableRecord
2
DWGDirectTextStyle
3
SIMPLEX
70
0
71
0
40
0
41
1
42
0
50
0
0
ENDTAB
0
TABLE
2
DIMSTYLE
5
1c6
100
AcDbSymbolTable
100
AcDbDimStyleTable
0
DIMSTYLE
105
27
100
AcDbSymbolTableRecord
100
AcDbDimStyleTableRecord
2
Standard
70
0
3
<>
41
0.18
42
0.0625
44
0.18
140
0.18
147
0.09
73
0
74
0
77
1
271
2
275
0
278
52
280
0
340
11
0
ENDTAB
0
TABLE
2
VIEW
5
1c7
100
AcDbSymbolTable
0
ENDTAB
0
TABLE
2
UCS
5
1c8
100
AcDbSymbolTable
0
ENDTAB
0
TABLE
2
APPID
5
1c9
100
AcDbSymbolTable
0
APPID
5
12
100
AcDbSymbolTableRecord
100
AcDbRegAppTableRecord
2
ACAD
70
0
0
ENDTAB
0
TABLE
2
BLOCK_RECORD
5
1ca
100
AcDbSymbolTable
0
BLOCK_RECORD
5
1F
100
AcDbSymbolTableRecord
100
AcDbBlockTableRecord
2
*Model_Space
340
0
70
0
0
BLOCK_RECORD
5
1B
100
AcDbSymbolTableRecord
100
AcDbBlockTableRecord
2
*Paper_Space
340
0
70
0
0
BLOCK_RECORD
5
23
100
AcDbSymbolTableRecord
100
AcDbBlockTableRecord
2
*Paper_Space0
340
0
70
0
0
BLOCK_RECORD
5
135
100
AcDbSymbolTableRecord
100
AcDbBlockTableRecord
2
DimnDraft3D1
340
0
70
0
0
BLOCK_RECORD
5
144
100
AcDbSymbolTableRecord
100
AcDbBlockTableRecord
2
_CLOSED
340
0
70
0
0
BLOCK_RECORD
5
14B
100
AcDbSymbolTableRecord
100
AcDbBlockTableRecord
2
DimnDraft3D2
340
0
70
0
0
BLOCK_RECORD
5
157
100
AcDbSymbolTableRecord
100
AcDbBlockTableRecord
2
DimnDraft3D3
340
0
70
0
0
BLOCK_RECORD
5
165
100
AcDbSymbolTableRecord
100
AcDbBlockTableRecord
2
DimnDraft3D4
340
0
70
0
0
BLOCK_RECORD
5
173
100
AcDbSymbolTableRecord
100
AcDbBlockTableRecord
2
DimnDraft3D5
340
0
70
0
0
BLOCK_RECORD
5
181
100
AcDbSymbolTableRecord
100
AcDbBlockTableRecord
2
DimnDraft3D6
340
0
70
0
0
ENDTAB
0
ENDSEC
0
SECTION
2
BLOCKS
0
BLOCK
5
20
100
AcDbEntity
8
0
100
AcDbBlockBegin
2
*Model_Space
70
0
10
0
20
0
30
0
3
*Model_Space
0
ENDBLK
5
21
100
AcDbEntity
8
0
100
AcDbBlockEnd
0
BLOCK
5
1C
100
AcDbEntity
8
0
100
AcDbBlockBegin
2
*Paper_Space
70
0
10
0
20
0
30
0
3
*Paper_Space
0
ENDBLK
5
1D
100
AcDbEntity
8
0
100
AcDbBlockEnd
0
BLOCK
5
24
100
AcDbEntity
8
0
100
AcDbBlockBegin
2
*Paper_Space0
70
0
10
0
20
0
30
0
3
*Paper_Space0
0
ENDBLK
5
25
100
AcDbEntity
8
0
100
AcDbBlockEnd
0
BLOCK
5
141
100
AcDbEntity
8
0
100
AcDbBlockBegin
2
DimnDraft3D1
70
0
10
0
20
0
30
0
3
DimnDraft3D1
0
MTEXT
5
136
100
AcDbEntity
8
SK2
62
256
6
ByLayer
370
-1
48
1
60
0
100
AcDbMText
10
-51.875
20
-3.659211
30
0
210
0
220
0
230
1
1
\W01.000;\fsimplex.shx,bigfont.shx;%%c63 
40
4.5
41
0
44
1.084337
50
90
71
7
72
5
7
DEFAULT
0
LINE
5
138
100
AcDbEntity
8
SK2
62
256
6
ByLayer
370
-1
48
1
60
0
100
AcDbLine
10
-2
20
31.5
30
0
11
-52.75
21
31.5
31
0
39
0
210
0
220
0
230
1
0
LINE
5
139
100
AcDbEntity
8
SK2
62
256
6
ByLayer
370
-1
48
1
60
0
100
AcDbLine
10
-2
20
-31.5
30
0
11
-52.75
21
-31.5
31
0
39
0
210
0
220
0
230
1
0
LINE
5
13A
100
AcDbEntity
8
SK2
62
256
6
ByLayer
370
-1
48
1
60
0
100
AcDbLine
10
-50.75
20
31.5
30
0
11
-50.75
21
-31.5
31
0
39
0
210
0
220
0
230
1
0
LINE
5
13B
100
AcDbEntity
8
SK2
62
256
6
ByLayer
370
-1
48
1
60
0
100
AcDbLine
10
-50.75
20
31.5
30
0
11
-50.332003
21
28.325002
31
0
39
0
210
0
220
0
230
1
0
LINE
5
13C
100
AcDbEntity
8
SK2
62
256
6
ByLayer
370
-1
48
1
60
0
100
AcDbLine
10
-50.75
20
31.5
30
0
11
-51.167997
21
28.324998
31
0
39
0
210
0
220
0
230
1
0
LINE
5
13D
100
AcDbEntity
8
SK2
62
256
6
ByLayer
370
-1
48
1
60
0
100
AcDbLine
10
-50.332003
20
28.325002
30
0
11
-51.167997
21
28.324998
31
0
39
0
210
0
220
0
230
1
0
LINE
5
13E
100
AcDbEntity
8
SK2
62
256
6
ByLayer
370
-1
48
1
60
0
100
AcDbLine
10
-50.75
20
-31.5
30
0
11
-51.167997
21
-28.325002
31
0
39
0
210
0
220
0
230
1
0
LINE
5
13F
100
AcDbEntity
8
SK2
62
256
6
ByLayer
370
-1
48
1
60
0
100
AcDbLine
10
-50.75
20
-31.5
30
0
11
-50.332003
21
-28.324998
31
0
39
0
210
0
220
0
230
1
0
LINE
5
140
100
AcDbEntity
8
SK2
62
256
6
ByLayer
370
-1
48
1
60
0
100
AcDbLine
10
-51.167997
20
-28.325002
30
0
11
-50.332003
21
-28.324998
31
0
39
0
210
0
220
0
230
1
0
ENDBLK
5
142
100
AcDbEntity
8
0
100
AcDbBlockEnd
0
BLOCK
5
145
100
AcDbEntity
8
0
100
AcDbBlockBegin
2
_CLOSED
70
0
10
0
20
0
30
0
3
_CLOSED
0
LINE
5
147
100
AcDbEntity
8
0
62
256
6
ByLayer
370
-2
48
1
60
0
100
AcDbLine
10
-1
20
0.166667
30
0
11
0
21
0
31
0
39
0
210
0
220
0
230
1
0
LINE
5
148
100
AcDbEntity
8
0
62
256
6
ByLayer
370
-2
48
1
60
0
100
AcDbLine
10
0
20
0
30
0
11
-1
21
-0.166667
31
0
39
0
210
0
220
0
230
1
0
LINE
5
149
100
AcDbEntity
8
0
62
256
6
ByLayer
370
-2
48
1
60
0
100
AcDbLine
10
-1
20
0.166667
30
0
11
-1
21
-0.166667
31
0
39
0
210
0
220
0
230
1
0
LINE
5
14A
100
AcDbEntity
8
0
62
256
6
ByLayer
370
-2
48
1
60
0
100
AcDbLine
10
0
20
0
30
0
11
-1
21
0
31
0
39
0
210
0
220
0
230
1
0
ENDBLK
5
146
100
AcDbEntity
8
0
100
AcDbBlockEnd
0
BLOCK
5
154
100
AcDbEntity
8
0
100
AcDbBlockBegin
2
DimnDraft3D2
70
0
10
0
20
0
30
0
3
DimnDraft3D2
0
MTEXT
5
14C
100
AcDbEntity
8
2
62
256
6
ByLayer
370
-1
48
1
60
0
100
AcDbMText
10
37.325
20
-6.193421
30
0
210
0
220
0
230
1
1
\W01.000;\fsimplex.shx,bigfont.shx;%%c50.0 
40
4.5
41
0
44
1.084337
50
90
71
7
72
5
7
DEFAULT
0
LINE
5
14D
100
AcDbEntity
8
2
62
256
6
ByLayer
370
-1
48
1
60
0
100
AcDbLine
10
38.45
20
-25
30
0
11
38.45
21
25
31
0
39
0
210
0
220
0
230
1
0
LINE
5
14E
100
AcDbEntity
8
2
62
256
6
ByLayer
370
-1
48
1
60
0
100
AcDbLine
10
38.45
20
-25
30
0
11
38.032003
21
-21.825002
31
0
39
0
210
0
220
0
230
1
0
LINE
5
14F
100
AcDbEntity
8
2
62
256
6
ByLayer
370
-1
48
1
60
0
100
AcDbLine
10
38.45
20
-25
30
0
11
38.867997
21
-21.824998
31
0
39
0
210
0
220
0
230
1
0
LINE
5
150
100
AcDbEntity
8
2
62
256
6
ByLayer
370
-1
48
1
60
0
100
AcDbLine
10
38.032003
20
-21.825002
30
0
11
38.867997
21
-21.824998
31
0
39
0
210
0
220
0
230
1
0
LINE
5
151
100
AcDbEntity
8
2
62
256
6
ByLayer
370
-1
48
1
60
0
100
AcDbLine
10
38.45
20
25
30
0
11
38.867997
21
21.825002
31
0
39
0
210
0
220
0
230
1
0
LINE
5
152
100
AcDbEntity
8
2
62
256
6
ByLayer
370
-1
48
1
60
0
100
AcDbLine
10
38.45
20
25
30
0
11
38.032003
21
21.824998
31
0
39
0
210
0
220
0
230
1
0
LINE
5
153
100
AcDbEntity
8
2
62
256
6
ByLayer
370
-1
48
1
60
0
100
AcDbLine
10
38.867997
20
21.825002
30
0
11
38.032003
21
21.824998
31
0
39
0
210
0
220
0
230
1
0
ENDBLK
5
155
100
AcDbEntity
8
0
100
AcDbBlockEnd
0
BLOCK
5
162
100
AcDbEntity
8
0
100
AcDbBlockBegin
2
DimnDraft3D3
70
0
10
0
20
0
30
0
3
DimnDraft3D3
0
MTEXT
5
158
100
AcDbEntity
8
2
62
256
6
ByLayer
370
-1
48
1
60
0
100
AcDbMText
10
186.125
20
-21.488158
30
0
210
0
220
0
230
1
1
\W01.000;\fsimplex.shx,bigfont.shx;35.0 
40
4.5
41
0
44
1.084337
50
90
71
7
72
5
7
DEFAULT
0
LINE
5
159
100
AcDbEntity
8
2
62
256
6
ByLayer
370
-1
48
1
60
0
100
AcDbLine
10
177
20
0
30
0
11
189.25
21
0
31
0
39
0
210
0
220
0
230
1
0
LINE
5
15A
100
AcDbEntity
8
2
62
256
6
ByLayer
370
-1
48
1
60
0
100
AcDbLine
10
177
20
-34.9
30
0
11
189.25
21
-34.9
31
0
39
0
210
0
220
0
230
1
0
LINE
5
15B
100
AcDbEntity
8
2
62
256
6
ByLayer
370
-1
48
1
60
0
100
AcDbLine
10
187.25
20
0
30
0
11
187.25
21
-34.9
31
0
39
0
210
0
220
0
230
1
0
LINE
5
15C
100
AcDbEntity
8
2
62
256
6
ByLayer
370
-1
48
1
60
0
100
AcDbLine
10
187.25
20
0
30
0
11
187.667997
21
-3.174998
31
0
39
0
210
0
220
0
230
1
0
LINE
5
15D
100
AcDbEntity
8
2
62
256
6
ByLayer
370
-1
48
1
60
0
100
AcDbLine
10
187.25
20
0
30
0
11
186.832003
21
-3.175002
31
0
39
0
210
0
220
0
230
1
0
LINE
5
15E
100
AcDbEntity
8
2
62
256
6
ByLayer
370
-1
48
1
60
0
100
AcDbLine
10
187.667997
20
-3.174998
30
0
11
186.832003
21
-3.175002
31
0
39
0
210
0
220
0
230
1
0
LINE
5
15F
100
AcDbEntity
8
2
62
256
6
ByLayer
370
-1
48
1
60
0
100
AcDbLine
10
187.25
20
-34.9
30
0
11
186.832003
21
-31.725002
31
0
39
0
210
0
220
0
230
1
0
LINE
5
160
100
AcDbEntity
8
2
62
256
6
ByLayer
370
-1
48
1
60
0
100
AcDbLine
10
187.25
20
-34.9
30
0
11
187.667997
21
-31.724998
31
0
39
0
210
0
220
0
230
1
0
LINE
5
161
100
AcDbEntity
8
2
62
256
6
ByLayer
370
-1
48
1
60
0
100
AcDbLine
10
186.832003
20
-31.725002
30
0
11
187.667997
21
-31.724998
31
0
39
0
210
0
220
0
230
1
0
ENDBLK
5
163
100
AcDbEntity
8
0
100
AcDbBlockEnd
0
BLOCK
5
170
100
AcDbEntity
8
0
100
AcDbBlockBegin
2
DimnDraft3D4
70
0
10
0
20
0
30
0
3
DimnDraft3D4
0
MTEXT
5
166
100
AcDbEntity
8
2
62
256
6
ByLayer
370
-1
48
1
60
0
100
AcDbMText
10
82.372368
20
-66.025
30
0
210
0
220
0
230
1
1
\W01.000;\fsimplex.shx,bigfont.shx;175.0 
40
4.5
41
0
44
1.084337
50
0
71
7
72
5
7
DEFAULT
0
LINE
5
167
100
AcDbEntity
8
2
62
256
6
ByLayer
370
-1
48
1
60
0
100
AcDbLine
10
0
20
-33.5
30
0
11
0
21
-69.15
31
0
39
0
210
0
220
0
230
1
0
LINE
5
168
100
AcDbEntity
8
2
62
256
6
ByLayer
370
-1
48
1
60
0
100
AcDbLine
10
175
20
-36.9
30
0
11
175
21
-69.15
31
0
39
0
210
0
220
0
230
1
0
LINE
5
169
100
AcDbEntity
8
2
62
256
6
ByLayer
370
-1
48
1
60
0
100
AcDbLine
10
0
20
-67.15
30
0
11
175
21
-67.15
31
0
39
0
210
0
220
0
230
1
0
LINE
5
16A
100
AcDbEntity
8
2
62
256
6
ByLayer
370
-1
48
1
60
0
100
AcDbLine
10
0
20
-67.15
30
0
11
3.174998
21
-66.732003
31
0
39
0
210
0
220
0
230
1
0
LINE
5
16B
100
AcDbEntity
8
2
62
256
6
ByLayer
370
-1
48
1
60
0
100
AcDbLine
10
0
20
-67.15
30
0
11
3.175002
21
-67.567997
31
0
39
0
210
0
220
0
230
1
0
LINE
5
16C
100
AcDbEntity
8
2
62
256
6
ByLayer
370
-1
48
1
60
0
100
AcDbLine
10
3.174998
20
-66.732003
30
0
11
3.175002
21
-67.567997
31
0
39
0
210
0
220
0
230
1
0
LINE
5
16D
100
AcDbEntity
8
2
62
256
6
ByLayer
370
-1
48
1
60
0
100
AcDbLine
10
175
20
-67.15
30
0
11
171.825002
21
-67.567997
31
0
39
0
210
0
220
0
230
1
0
LINE
5
16E
100
AcDbEntity
8
2
62
256
6
ByLayer
370
-1
48
1
60
0
100
AcDbLine
10
175
20
-67.15
30
0
11
171.824998
21
-66.732003
31
0
39
0
210
0
220
0
230
1
0
LINE
5
16F
100
AcDbEntity
8
2
62
256
6
ByLayer
370
-1
48
1
60
0
100
AcDbLine
10
171.825002
20
-67.567997
30
0
11
171.824998
21
-66.732003
31
0
39
0
210
0
220
0
230
1
0
ENDBLK
5
171
100
AcDbEntity
8
0
100
AcDbBlockEnd
0
BLOCK
5
17E
100
AcDbEntity
8
0
100
AcDbBlockBegin
2
DimnDraft3D5
70
0
10
0
20
0
30
0
3
DimnDraft3D5
0
MTEXT
5
174
100
AcDbEntity
8
2
62
256
6
ByLayer
370
-1
48
1
60
0
100
AcDbMText
10
94.534868
20
-51.025
30
0
210
0
220
0
230
1
1
\W01.000;\fsimplex.shx,bigfont.shx;151.8 
40
4.5
41
0
44
1.084337
50
0
71
7
72
5
7
DEFAULT
0
LINE
5
175
100
AcDbEntity
8
2
62
256
6
ByLayer
370
-1
48
1
60
0
100
AcDbLine
10
23.2
20
-27
30
0
11
23.2
21
-54.15
31
0
39
0
210
0
220
0
230
1
0
LINE
5
176
100
AcDbEntity
8
2
62
256
6
ByLayer
370
-1
48
1
60
0
100
AcDbLine
10
175
20
-36.9
30
0
11
175
21
-54.15
31
0
39
0
210
0
220
0
230
1
0
LINE
5
177
100
AcDbEntity
8
2
62
256
6
ByLayer
370
-1
48
1
60
0
100
AcDbLine
10
23.2
20
-52.15
30
0
11
175
21
-52.15
31
0
39
0
210
0
220
0
230
1
0
LINE
5
178
100
AcDbEntity
8
2
62
256
6
ByLayer
370
-1
48
1
60
0
100
AcDbLine
10
23.2
20
-52.15
30
0
11
26.374998
21
-51.732003
31
0
39
0
210
0
220
0
230
1
0
LINE
5
179
100
AcDbEntity
8
2
62
256
6
ByLayer
370
-1
48
1
60
0
100
AcDbLine
10
23.2
20
-52.15
30
0
11
26.375002
21
-52.567997
31
0
39
0
210
0
220
0
230
1
0
LINE
5
17A
100
AcDbEntity
8
2
62
256
6
ByLayer
370
-1
48
1
60
0
100
AcDbLine
10
26.374998
20
-51.732003
30
0
11
26.375002
21
-52.567997
31
0
39
0
210
0
220
0
230
1
0
LINE
5
17B
100
AcDbEntity
8
2
62
256
6
ByLayer
370
-1
48
1
60
0
100
AcDbLine
10
175
20
-52.15
30
0
11
171.825002
21
-52.567997
31
0
39
0
210
0
220
0
230
1
0
LINE
5
17C
100
AcDbEntity
8
2
62
256
6
ByLayer
370
-1
48
1
60
0
100
AcDbLine
10
175
20
-52.15
30
0
11
171.824998
21
-51.732003
31
0
39
0
210
0
220
0
230
1
0
LINE
5
17D
100
AcDbEntity
8
2
62
256
6
ByLayer
370
-1
48
1
60
0
100
AcDbLine
10
171.825002
20
-52.567997
30
0
11
171.824998
21
-51.732003
31
0
39
0
210
0
220
0
230
1
0
ENDBLK
5
17F
100
AcDbEntity
8
0
100
AcDbBlockEnd
0
BLOCK
5
18C
100
AcDbEntity
8
0
100
AcDbBlockBegin
2
DimnDraft3D6
70
0
10
0
20
0
30
0
3
DimnDraft3D6
0
MTEXT
5
182
100
AcDbEntity
8
2
62
256
6
ByLayer
370
-1
48
1
60
0
100
AcDbMText
10
180.64607
20
36.215882
30
0
210
0
220
0
230
1
1
\W01.000;\fsimplex.shx,bigfont.shx;107%%d30' 
40
4.5
41
0
44
1.084337
50
323.75
71
7
72
5
7
DEFAULT
0
LINE
5
183
100
AcDbEntity
8
2
62
256
6
ByLayer
370
-1
48
1
60
0
100
AcDbLine
10
169.587296
20
-17.733095
30
0
11
151.98997
21
38.078491
31
0
39
0
210
0
220
0
230
1
0
LINE
5
184
100
AcDbEntity
8
2
62
256
6
ByLayer
370
-1
48
1
60
0
100
AcDbLine
10
177
20
0
30
0
11
203.922479
21
0
31
0
39
0
210
0
220
0
230
1
0
ARC
5
185
100
AcDbEntity
8
2
62
256
6
ByLayer
370
-1
48
1
60
0
100
AcDbCircle
39
0
10
163.996072
20
0
30
0
40
37.9264068640929
210
0
220
0
230
1
100
AcDbArc
50
0
51
107.5
0
LINE
5
186
100
AcDbEntity
8
2
62
256
6
ByLayer
370
-1
48
1
60
0
100
AcDbLine
10
152.591382
20
36.171057
30
0
11
155.521409
21
37.463449
31
0
39
0
210
0
220
0
230
1
0
LINE
5
187
100
AcDbEntity
8
2
62
256
6
ByLayer
370
-1
48
1
60
0
100
AcDbLine
10
152.591382
20
36.171057
30
0
11
155.756069
21
36.661066
31
0
39
0
210
0
220
0
230
1
0
LINE
5
188
100
AcDbEntity
8
2
62
256
6
ByLayer
370
-1
48
1
60
0
100
AcDbLine
10
155.521409
20
37.463449
30
0
11
155.756069
21
36.661066
31
0
39
0
210
0
220
0
230
1
0
LINE
5
189
100
AcDbEntity
8
2
62
256
6
ByLayer
370
-1
48
1
60
0
100
AcDbLine
10
201.922479
20
0
30
0
11
201.438169
21
3.165562
31
0
39
0
210
0
220
0
230
1
0
LINE
5
18A
100
AcDbEntity
8
2
62
256
6
ByLayer
370
-1
48
1
60
0
100
AcDbLine
10
201.922479
20
0
30
0
11
202.273979
21
3.183049
31
0
39
0
210
0
220
0
230
1
0
LINE
5
18B
100
AcDbEntity
8
2
62
256
6
ByLayer
370
-1
48
1
60
0
100
AcDbLine
10
201.438169
20
3.165562
30
0
11
202.273979
21
3.183049
31
0
39
0
210
0
220
0
230
1
0
ENDBLK
5
18D
100
AcDbEntity
8
0
100
AcDbBlockEnd
0
ENDSEC
0
SECTION
2
ENTITIES
0
ARC
5
93
100
AcDbEntity
8
1
62
256
6
ByLayer
370
-1
48
1
60
0
100
AcDbCircle
39
0
10
-27.832582
20
-31
30
0
40
6
210
0
220
0
230
-1
100
AcDbArc
50
14.656751
51
90
0
ARC
5
94
100
AcDbEntity
8
1
62
256
6
ByLayer
370
-1
48
1
60
0
100
AcDbCircle
39
0
10
-27.832582
20
31
30
0
40
6
210
0
220
0
230
-1
100
AcDbArc
50
270
51
345.343249
0
ELLIPSE
5
95
100
AcDbEntity
8
1
62
256
6
ByLayer
370
-1
48
1
60
0
100
AcDbEllipse
10
158.15764
20
-11.226859
30
0
11
-1.43057542612235
21
-0.451058699256376
31
0
210
0
220
0
230
1
40
0.995592
41
2.35827684290267
42
0.104917041938758
0
ELLIPSE
5
96
100
AcDbEntity
8
1
62
256
6
ByLayer
370
-1
48
1
60
0
100
AcDbEllipse
10
153.381963
20
-32.121479
30
0
11
74.3968215167151
21
0.0126691063626855
31
0
210
0
220
0
230
-1
40
0.086444
41
-1.62914872067364
42
-1.59802920394747
0
ELLIPSE
5
97
100
AcDbEntity
8
1
62
256
6
ByLayer
370
-1
48
1
60
0
100
AcDbEllipse
10
157.947513
20
-10.560422
30
0
11
-1.43057542612235
21
-0.451058699256376
31
0
210
0
220
0
230
1
40
0.995592
41
0.33718319657138
42
2.13066616624782
0
ELLIPSE
5
98
100
AcDbEntity
8
1
62
256
6
ByLayer
370
-1
48
1
60
0
100
AcDbEllipse
10
160.420082
20
-33.409017
30
0
11
-7.62973560598587
21
-2.40564639603401
31
0
210
0
220
0
230
1
40
0.995592
41
-1.982321875499
42
-1.63462453838944
0
ELLIPSE
5
99
100
AcDbEntity
8
1
62
256
6
ByLayer
370
-1
48
1
60
0
100
AcDbEllipse
10
158.070559
20
-13.298442
30
0
11
1.87406117457964
21
0.590889218630038
31
0
210
0
220
0
230
1
40
0.995592
41
1.98218070164045
42
-2.53072741539155
0
ELLIPSE
5
9A
100
AcDbEntity
8
1
62
256
6
ByLayer
370
-1
48
1
60
0
100
AcDbEllipse
10
178.074445
20
-20.267372
30
0
11
7.62973560598584
21
2.405646396034
31
0
210
0
220
0
230
1
40
0.995592
41
2.71263626959789
42
2.79971524266637
0
ELLIPSE
5
9B
100
AcDbEntity
8
1
62
256
6
ByLayer
370
-1
48
1
60
0
100
AcDbEllipse
10
157.92918
20
-10.502277
30
0
11
1.43057542612235
21
0.451058699256377
31
0
210
0
220
0
230
1
40
0.995592
41
-2.88437906650215
42
-0.257221877362954
0
ELLIPSE
5
9C
100
AcDbEntity
8
1
62
256
6
ByLayer
370
-1
48
1
60
0
100
AcDbEllipse
10
157.860433
20
-12.632005
30
0
11
-1.54979004496588
21
-0.488646924194409
31
0
210
0
220
0
230
1
40
0.995592
41
0.0884671142180377
42
0.61086523819801
0
ELLIPSE
5
9D
100
AcDbEntity
8
1
62
256
6
ByLayer
370
-1
48
1
60
0
100
AcDbEllipse
10
-2.347154
20
0
30
0
11
14.7536831606569
21
31.0932549155818
31
0
210
0
220
0
230
-1
40
0.341999
41
0.157806186645425
42
1.09123958575281
0
ELLIPSE
5
9E
100
AcDbEntity
8
1
62
256
6
ByLayer
370
-1
48
1
60
0
100
AcDbEllipse
10
26.347154
20
0
30
0
11
14.7536831606566
21
31.0932549155815
31
0
210
0
220
0
230
-1
40
0.341999
41
-2.98378646694437
42
-2.05035306783698
0
ELLIPSE
5
9F
100
AcDbEntity
8
1
62
256
6
ByLayer
370
-1
48
1
60
0
100
AcDbEllipse
10
-2.347154
20
0
30
0
11
14.7536831606569
21
-31.0932549155818
31
0
210
0
220
0
230
-1
40
0.341999
41
-1.09123958575281
42
-0.157806186645425
0
ELLIPSE
5
A0
100
AcDbEntity
8
1
62
256
6
ByLayer
370
-1
48
1
60
0
100
AcDbEllipse
10
26.347154
20
0
30
0
11
14.7536831606551
21
-31.0932549155795
31
0
210
0
220
0
230
-1
40
0.341999
41
2.05035306783693
42
2.98378646694436
0
ELLIPSE
5
A1
100
AcDbEntity
8
1
62
256
6
ByLayer
370
-1
48
1
60
0
100
AcDbEllipse
10
160.209955
20
-32.74258
30
0
11
7.62973560598587
21
2.40564639603401
31
0
210
0
220
0
230
1
40
0.995592
41
1.01711991834947
42
1.03982166215358
0
ELLIPSE
5
A2
100
AcDbEntity
8
1
62
256
6
ByLayer
370
-1
48
1
60
0
100
AcDbEllipse
10
157.946401
20
-12.904663
30
0
11
-1.54979004496588
21
-0.488646924194409
31
0
210
0
220
0
230
1
40
0.995592
41
-0.891489230725377
42
0.610865238198012
0
ELLIPSE
5
A3
100
AcDbEntity
8
1
62
256
6
ByLayer
370
-1
48
1
60
0
100
AcDbEllipse
10
159.089329
20
-12.578003
30
0
11
0.776872083150815
21
-0.167712329906771
31
0
210
0
220
0
230
-1
40
0.997462
41
2.7472598946731
42
-1.25263971615333
0
ELLIPSE
5
A4
100
AcDbEntity
8
1
62
256
6
ByLayer
370
-1
48
1
60
0
100
AcDbEllipse
10
159.371076
20
-12.344298
30
0
11
0.596324614242055
21
-0.5336426810547
31
0
210
0
220
0
230
-1
40
0.537965
41
-2.60885248907777
42
-1.83689518438951
0
ELLIPSE
5
A5
100
AcDbEntity
8
1
62
256
6
ByLayer
370
-1
48
1
60
0
100
AcDbEllipse
10
174.216919
20
-34.124178
30
0
11
0.776872083142576
21
-0.167712329946117
31
0
210
0
220
0
230
-1
40
0.997462
41
-0.394332758967074
42
1.88895293738557
0
ELLIPSE
5
A6
100
AcDbEntity
8
1
62
256
6
ByLayer
370
-1
48
1
60
0
100
AcDbEllipse
10
159.193412
20
-12.491667
30
0
11
0.776872083253566
21
-0.16771232940973
31
0
210
0
220
0
230
-1
40
0.997462
41
-2.47710331304517
42
-2.02459702019383
0
ELLIPSE
5
A7
100
AcDbEntity
8
1
62
256
6
ByLayer
370
-1
48
1
60
0
100
AcDbEllipse
10
166.653124
20
-23.35109
30
0
11
2.90362383720894
21
0.915509079232051
31
0
210
0
220
0
230
1
40
0.995592
41
0
42
6.28318530717959
0
ELLIPSE
5
A8
100
AcDbEntity
8
1
62
256
6
ByLayer
370
-1
48
1
60
0
100
AcDbEllipse
10
166.624355
20
-23.259848
30
0
11
2.86115085224472
21
0.902117398512758
31
0
210
0
220
0
230
1
40
0.995592
41
2.83489068352527
42
0
0
ELLIPSE
5
A9
100
AcDbEntity
8
1
62
256
6
ByLayer
370
-1
48
1
60
0
100
AcDbEllipse
10
166.624355
20
-23.259848
30
0
11
2.86115085224472
21
0.902117398512758
31
0
210
0
220
0
230
1
40
0.995592
41
0
42
0.467700647723129
0
ELLIPSE
5
AA
100
AcDbEntity
8
1
62
256
6
ByLayer
370
-1
48
1
60
0
100
AcDbEllipse
10
166.624355
20
-23.259848
30
0
11
2.86115085224472
21
0.902117398512758
31
0
210
0
220
0
230
1
40
0.995592
41
0.481837744228235
42
2.65964877384969
0
ELLIPSE
5
AB
100
AcDbEntity
8
1
62
256
6
ByLayer
370
-1
48
1
60
0
100
AcDbEllipse
10
166.624355
20
-23.259848
30
0
11
2.86115085224472
21
0.902117398512758
31
0
210
0
220
0
230
1
40
0.995592
41
2.67378570993575
42
2.83489034885131
0
ELLIPSE
5
AC
100
AcDbEntity
8
1
62
256
6
ByLayer
370
-1
48
1
60
0
100
AcDbEllipse
10
162.905641
20
-25.968048
30
0
11
0.360923008194518
21
0.176115847085078
31
0
210
0
220
0
230
-1
40
0.991824
41
2.6804660081002
42
-2.99425322193285
0
ELLIPSE
5
AD
100
AcDbEntity
8
1
62
256
6
ByLayer
370
-1
48
1
60
0
100
AcDbEllipse
10
170.400606
20
-20.734132
30
0
11
0.360923008131002
21
0.17611584722767
31
0
210
0
220
0
230
-1
40
0.991824
41
-0.461126645100947
42
0.147339432041108
0
ELLIPSE
5
AE
100
AcDbEntity
8
1
62
256
6
ByLayer
370
-1
48
1
60
0
100
AcDbEllipse
10
166.619808
20
-23.245426
30
0
11
2.80817345793614
21
0.885413690249302
31
0
210
0
220
0
230
1
40
0.995592
41
2.83489074804686
42
0
0
ELLIPSE
5
AF
100
AcDbEntity
8
1
62
256
6
ByLayer
370
-1
48
1
60
0
100
AcDbEllipse
10
166.619808
20
-23.245426
30
0
11
2.80817345793614
21
0.885413690249302
31
0
210
0
220
0
230
1
40
0.995592
41
0
42
1.11005807911913
0
ELLIPSE
5
B0
100
AcDbEntity
8
1
62
256
6
ByLayer
370
-1
48
1
60
0
100
AcDbEllipse
10
166.619808
20
-23.245426
30
0
11
2.80817345793614
21
0.885413690249302
31
0
210
0
220
0
230
1
40
0.995592
41
2.0314283220722
42
2.83489074804686
0
ELLIPSE
5
B1
100
AcDbEntity
8
1
62
256
6
ByLayer
370
-1
48
1
60
0
100
AcDbEllipse
10
166.644736
20
-23.324487
30
0
11
1.59890646792943
21
0.504133272868881
31
0
210
0
220
0
230
1
40
0.995592
41
-0.220956704180613
42
0.831821942378635
0
ELLIPSE
5
B2
100
AcDbEntity
8
1
62
256
6
ByLayer
370
-1
48
1
60
0
100
AcDbEllipse
10
166.644736
20
-23.324487
30
0
11
1.59890646792943
21
0.504133272868881
31
0
210
0
220
0
230
1
40
0.995592
41
2.92063594940921
42
-2.30977071121111
0
ELLIPSE
5
B3
100
AcDbEntity
8
1
62
256
6
ByLayer
370
-1
48
1
60
0
100
AcDbEllipse
10
166.604544
20
-23.197016
30
0
11
-1.15065950107775
21
-0.362801547101881
31
0
210
0
220
0
230
1
40
0.995592
41
2.39843244765154
42
-3.00311831638142
0
ELLIPSE
5
B4
100
AcDbEntity
8
1
62
256
6
ByLayer
370
-1
48
1
60
0
100
AcDbEllipse
10
166.769667
20
-25.074312
30
0
11
-0.654249828213289
21
-0.206284178459916
31
0
210
0
220
0
230
1
40
0.995592
41
-2.57155785307436
42
-1.78756720945353
0
ELLIPSE
5
B5
100
AcDbEntity
8
1
62
256
6
ByLayer
370
-1
48
1
60
0
100
AcDbEllipse
10
166.644736
20
-23.324487
30
0
11
1.71669051134685
21
0.541270439107661
31
0
210
0
220
0
230
1
40
0.995592
41
0
42
6.28318530717959
0
ELLIPSE
5
B6
100
AcDbEntity
8
1
62
256
6
ByLayer
370
-1
48
1
60
0
100
AcDbEllipse
10
166.605249
20
-23.199252
30
0
11
2.50350699571412
21
0.789352723698661
31
0
210
0
220
0
230
1
40
0.995592
41
2.83489077914639
42
-3.14149839893564
0
ELLIPSE
5
B7
100
AcDbEntity
8
1
62
256
6
ByLayer
370
-1
48
1
60
0
100
AcDbEllipse
10
166.605249
20
-23.199252
30
0
11
2.50350699571412
21
0.789352723698661
31
0
210
0
220
0
230
1
40
0.995592
41
0
42
2.8348905284339
0
ELLIPSE
5
B8
100
AcDbEntity
8
1
62
256
6
ByLayer
370
-1
48
1
60
0
100
AcDbEllipse
10
168.149036
20
-22.11846
30
0
11
-0.654249828213289
21
-0.206284178459916
31
0
210
0
220
0
230
1
40
0.995592
41
-0.485828715822268
42
-9.86363279900535E-06
0
ELLIPSE
5
B9
100
AcDbEntity
8
1
62
256
6
ByLayer
370
-1
48
1
60
0
100
AcDbEllipse
10
166.604544
20
-23.197016
30
0
11
-1.15065950107775
21
-0.362801547101881
31
0
210
0
220
0
230
1
40
0.995592
41
-0.51092765609127
42
0.236399985687254
0
ELLIPSE
5
BA
100
AcDbEntity
8
1
62
256
6
ByLayer
370
-1
48
1
60
0
100
AcDbEllipse
10
166.644736
20
-23.324487
30
0
11
1.59890646792943
21
0.504133272868881
31
0
210
0
220
0
230
1
40
0.995592
41
1.87622894589391
42
2.92063594940921
0
ELLIPSE
5
BB
100
AcDbEntity
8
1
62
256
6
ByLayer
370
-1
48
1
60
0
100
AcDbEllipse
10
165.225384
20
-23.31511
30
0
11
-0.278485349618484
21
-0.0878060934552411
31
0
210
0
220
0
230
1
40
0.995592
41
0.269855676954449
42
1.09669395402029
0
ELLIPSE
5
BC
100
AcDbEntity
8
1
62
256
6
ByLayer
370
-1
48
1
60
0
100
AcDbEllipse
10
166.644736
20
-23.324487
30
0
11
1.59890646792943
21
0.504133272868881
31
0
210
0
220
0
230
1
40
0.995592
41
0.831821942378635
42
1.87622894589391
0
ELLIPSE
5
BD
100
AcDbEntity
8
1
62
256
6
ByLayer
370
-1
48
1
60
0
100
AcDbEllipse
10
168.316917
20
-23.99383
30
0
11
-0.654249828213289
21
-0.206284178459916
31
0
210
0
220
0
230
1
40
0.995592
41
-0.743160205938234
42
-1.08563127553464E-05
0
ELLIPSE
5
BE
100
AcDbEntity
8
1
62
256
6
ByLayer
370
-1
48
1
60
0
100
AcDbEllipse
10
166.769667
20
-25.074312
30
0
11
-0.654249828213289
21
-0.206284178459916
31
0
210
0
220
0
230
1
40
0.995592
41
-1.78756720945353
42
-1.00357656583274
0
ELLIPSE
5
BF
100
AcDbEntity
8
1
62
256
6
ByLayer
370
-1
48
1
60
0
100
AcDbEllipse
10
166.644736
20
-23.324487
30
0
11
1.59890646792943
21
0.504133272868881
31
0
210
0
220
0
230
1
40
0.995592
41
-1.26536370769585
42
-0.220956704180613
0
ELLIPSE
5
C0
100
AcDbEntity
8
1
62
256
6
ByLayer
370
-1
48
1
60
0
100
AcDbEllipse
10
166.604544
20
-23.197016
30
0
11
1.15065950107775
21
0.362801547101881
31
0
210
0
220
0
230
1
40
0.995592
41
-1.7875672094535
42
-0.74316020593825
0
ELLIPSE
5
C1
100
AcDbEntity
8
1
62
256
6
ByLayer
370
-1
48
1
60
0
100
AcDbEllipse
10
166.637082
20
-23.300214
30
0
11
1.15065950107776
21
0.362801547101883
31
0
210
0
220
0
230
1
40
0.995592
41
-2.90519266790266
42
-2.76712740107887
0
ELLIPSE
5
C2
100
AcDbEntity
8
1
62
256
6
ByLayer
370
-1
48
1
60
0
100
AcDbEllipse
10
167.39691
20
-24.325581
30
0
11
-0.278485349618484
21
-0.0878060934552411
31
0
210
0
220
0
230
1
40
0.995592
41
0.570034800515486
42
3.06682474034342
0
ELLIPSE
5
C3
100
AcDbEntity
8
1
62
256
6
ByLayer
370
-1
48
1
60
0
100
AcDbEllipse
10
166.636967
20
-23.299848
30
0
11
2.50350699571413
21
0.789352723698664
31
0
210
0
220
0
230
1
40
0.995592
41
0
42
6.28318530717959
0
ELLIPSE
5
C4
100
AcDbEntity
8
1
62
256
6
ByLayer
370
-1
48
1
60
0
100
AcDbEllipse
10
166.644736
20
-23.324487
30
0
11
1.59890646792943
21
0.504133272868881
31
0
210
0
220
0
230
1
40
0.995592
41
-2.30977071121111
42
-1.26536370769585
0
ELLIPSE
5
C5
100
AcDbEntity
8
1
62
256
6
ByLayer
370
-1
48
1
60
0
100
AcDbEllipse
10
167.983705
20
-23.078923
30
0
11
-0.278485349618484
21
-0.0878060934552411
31
0
210
0
220
0
230
1
40
0.995592
41
1.6144418040308
42
2.91341010200093
0
ELLIPSE
5
C6
100
AcDbEntity
8
1
62
256
6
ByLayer
370
-1
48
1
60
0
100
AcDbEllipse
10
166.021576
20
-24.449125
30
0
11
-0.278485349618484
21
-0.0878060934552411
31
0
210
0
220
0
230
1
40
0.995592
41
0.215434998343902
42
2.13801608775708
0
ELLIPSE
5
C7
100
AcDbEntity
8
1
62
256
6
ByLayer
370
-1
48
1
60
0
100
AcDbEllipse
10
168.316917
20
-23.99383
30
0
11
-0.654249828213289
21
-0.206284178459916
31
0
210
0
220
0
230
1
40
0.995592
41
-1.52715084955916
42
-0.743160205938234
0
ELLIPSE
5
C8
100
AcDbEntity
8
1
62
256
6
ByLayer
370
-1
48
1
60
0
100
AcDbEllipse
10
166.604544
20
-23.197016
30
0
11
-1.15065950107775
21
-0.362801547101881
31
0
210
0
220
0
230
1
40
0.995592
41
-2.74175080455162
42
-2.02307511202725
0
ELLIPSE
5
C9
100
AcDbEntity
8
1
62
256
6
ByLayer
370
-1
48
1
60
0
100
AcDbEllipse
10
166.604544
20
-23.197016
30
0
11
-1.15065950107775
21
-0.362801547101881
31
0
210
0
220
0
230
1
40
0.995592
41
-1.5557576105405
42
-0.874200346075086
0
ELLIPSE
5
CA
100
AcDbEntity
8
1
62
256
6
ByLayer
370
-1
48
1
60
0
100
AcDbEllipse
10
166.604544
20
-23.197016
30
0
11
-1.15065950107775
21
-0.362801547101881
31
0
210
0
220
0
230
1
40
0.995592
41
0.374465252510779
42
1.35402544413629
0
ELLIPSE
5
CB
100
AcDbEntity
8
1
62
256
6
ByLayer
370
-1
48
1
60
0
100
AcDbEllipse
10
166.637082
20
-23.300214
30
0
11
1.15065950107776
21
0.362801547101883
31
0
210
0
220
0
230
1
40
0.995592
41
0.236399985687122
42
0.374465252510917
0
POINT
5
41
100
AcDbEntity
8
80
62
256
6
ByLayer
370
-1
48
1
60
0
100
AcDbPoint
10
0
20
0
30
0
39
0
210
0
220
0
230
1
50
360
0
POINT
5
43
100
AcDbEntity
8
81
62
256
6
ByLayer
370
-1
48
1
60
0
100
AcDbPoint
10
175
20
-34.9
30
0
39
0
210
0
220
0
230
1
50
360
0
POINT
5
45
100
AcDbEntity
8
1
62
256
6
ByLayer
370
-1
48
1
60
0
100
AcDbPoint
10
0
20
0
30
0
39
0
210
0
220
0
230
1
50
360
0
POINT
5
47
100
AcDbEntity
8
2
62
256
6
ByLayer
370
-1
48
1
60
0
100
AcDbPoint
10
175
20
34.9
30
0
39
0
210
0
220
0
230
1
50
360
0
POINT
5
49
100
AcDbEntity
8
2
62
256
6
ByLayer
370
-1
48
1
60
0
100
AcDbPoint
10
174.673873
20
32.993486
30
0
39
0
210
0
220
0
230
1
50
360
0
SPLINE
5
CC
100
AcDbEntity
8
SK1
62
256
6
ByLayer
370
-1
48
1
60
0
100
AcDbSpline
70
4
71
2
72
6
73
3
40
0
40
0
40
0
40
1
40
1
40
1
41
1
10
-2.19492488857412
20
22.0202267184689
30
0
41
1
10
-2.59746244428706
20
22.0101135737565
30
0
41
1
10
-3
20
22.0000004290441
30
0
0
SPLINE
5
CD
100
AcDbEntity
8
SK1
62
256
6
ByLayer
370
-1
48
1
60
0
100
AcDbSpline
70
4
71
2
72
6
73
3
40
0
40
0
40
0
40
1
40
1
40
1
41
1
10
-3
20
-22.0000004375346
30
0
41
1
10
-2.59746244428706
20
-22.0101135822509
30
0
41
1
10
-2.19492488857412
20
-22.0202267269672
30
0
0
SPLINE
5
CE
100
AcDbEntity
8
SK1
62
256
6
ByLayer
370
-1
48
1
60
0
100
AcDbSpline
70
4
71
3
72
13
73
9
40
0
40
0
40
0
40
0
40
0.239458036043419
40
0.368362246063121
40
0.500001724232839
40
0.631640912863397
40
0.76054432664118
40
1
40
1
40
1
40
1
41
1
10
-2
20
21.8251283250689
30
0
41
1
10
-2.02607218225586
20
21.8253815693237
30
0
41
1
10
-2.06363558177699
20
21.8324994546095
30
0
41
1
10
-2.11047835033028
20
21.8567272514908
30
0
41
1
10
-2.14242263580763
20
21.8827049776713
30
0
41
1
10
-2.1684006716975
20
21.9146488976998
30
0
41
1
10
-2.192628756261
20
21.9614911120955
30
0
41
1
10
-2.19974671959665
20
21.9990541369823
30
0
41
1
10
-2.20000000000002
20
22.0251260775077
30
0
0
SPLINE
5
CF
100
AcDbEntity
8
SK1
62
256
6
ByLayer
370
-1
48
1
60
0
100
AcDbSpline
70
4
71
3
72
13
73
9
40
0
40
0
40
0
40
0
40
0.239455678458287
40
0.368359092600278
40
0.499998280591693
40
0.63163775747672
40
0.760541965960286
40
1
40
1
40
1
40
1
41
1
10
-2.20000000000002
20
-22.0251260837646
30
0
41
1
10
-2.19974671976326
20
-21.9990541435572
30
0
41
1
10
-2.19262875645049
20
-21.9614911190379
30
0
41
1
10
-2.16840067179331
20
-21.9146489043199
30
0
41
1
10
-2.14242263587786
20
-21.8827049843059
30
0
41
1
10
-2.11047835037542
20
-21.8567272581279
30
0
41
1
10
-2.06363558166035
20
-21.832499461233
30
0
41
1
10
-2.02607218220658
20
-21.8253815759776
30
0
41
1
10
-2
20
-21.8251283317571
30
0
0
SPLINE
5
D0
100
AcDbEntity
8
SK1
62
256
6
ByLayer
370
-1
48
1
60
0
100
AcDbSpline
70
4
71
2
72
6
73
3
40
0
40
0
40
0
40
1
40
1
40
1
41
1
10
-3
20
22.0000004290441
30
0
41
1
10
-19.7502365839533
20
21.5791761751669
30
0
41
1
10
-36.5004731679066
20
21.1583519212896
30
0
0
SPLINE
5
D1
100
AcDbEntity
8
SK1
62
256
6
ByLayer
370
-1
48
1
60
0
100
AcDbSpline
70
4
71
2
72
6
73
3
40
0
40
0
40
0
40
1
40
1
40
1
41
1
10
-36.5004731679067
20
-21.1583519294552
30
0
41
1
10
-19.7502365839533
20
-21.5791761834949
30
0
41
1
10
-3
20
-22.0000004375346
30
0
0
SPLINE
5
D2
100
AcDbEntity
8
SK1
62
256
6
ByLayer
370
-1
48
1
60
0
100
AcDbSpline
70
4
71
2
72
6
73
3
40
0
40
0
40
0
40
1
40
1
40
1
41
1
10
-2
20
-21.8251283317571
30
0
41
1
10
-1.20000000000002
20
-21.8251283317571
30
0
41
1
10
-0.400000000000006
20
-21.8251283317571
30
0
0
SPLINE
5
D3
100
AcDbEntity
8
SK1
62
256
6
ByLayer
370
-1
48
1
60
0
100
AcDbSpline
70
4
71
2
72
6
73
3
40
0
40
0
40
0
40
1
40
1
40
1
41
1
10
-0.400000000000006
20
21.8251283250689
30
0
41
1
10
-1.20000000000002
20
21.8251283250689
30
0
41
1
10
-2
20
21.8251283250689
30
0
0
SPLINE
5
D4
100
AcDbEntity
8
SK1
62
256
6
ByLayer
370
-1
48
1
60
0
100
AcDbSpline
70
4
71
2
72
6
73
3
40
0
40
0
40
0
40
1
40
1
40
1
41
1
10
-38
20
-20.2413583528791
30
0
41
1
10
-37.250216097561
20
-20.6997323883077
30
0
41
1
10
-36.5004321682704
20
-21.1581061531923
30
0
0
SPLINE
5
D5
100
AcDbEntity
8
SK1
62
256
6
ByLayer
370
-1
48
1
60
0
100
AcDbSpline
70
4
71
2
72
6
73
3
40
0
40
0
40
0
40
1
40
1
40
1
41
1
10
-36.500413873027
20
21.1568446673342
30
0
41
1
10
-37.2502068935606
20
20.6982812567361
30
0
41
1
10
-38
20
20.2397162883162
30
0
0
SPLINE
5
D6
100
AcDbEntity
8
SK1
62
256
6
ByLayer
370
-1
48
1
60
0
100
AcDbSpline
70
4
71
2
72
6
73
3
40
0
40
0
40
0
40
1
40
1
40
1
41
1
10
-0.236364239553211
20
21.9101116399906
30
0
41
1
10
-0.263846985495974
20
21.8242676829202
30
0
41
1
10
-0.400000000000006
20
21.8251283250689
30
0
0
SPLINE
5
D7
100
AcDbEntity
8
SK1
62
256
6
ByLayer
370
-1
48
1
60
0
100
AcDbSpline
70
4
71
2
72
6
73
3
40
0
40
0
40
0
40
1
40
1
40
1
41
1
10
-0.400000000000006
20
-21.8251283317571
30
0
41
1
10
-0.26569362178526
20
-21.8236723966925
30
0
41
1
10
-0.237972420189863
20
-21.9072633449935
30
0
0
SPLINE
5
D8
100
AcDbEntity
8
1
62
256
6
ByLayer
370
-1
48
1
60
0
100
AcDbSpline
70
4
71
3
72
18
73
14
40
0
40
0
40
0
40
0
40
0.0048641047853794
40
0.0048641047853794
40
0.113203312756778
40
0.113203312756778
40
0.252307002956694
40
0.252307002956694
40
0.472239664393917
40
0.472239664393917
40
0.894682818087876
40
0.894682818087876
40
1
40
1
40
1
40
1
41
1
10
13.4613248654052
20
-9.34922131452504
30
0
41
1
10
13.4625482550453
20
-9.34922131452504
30
0
41
1
10
13.4637716827108
20
-9.34923052903076
30
0
41
1
10
13.4918849987862
20
-9.34965397724795
30
0
41
1
10
13.5190042093444
20
-9.354712145283
30
0
41
1
10
13.5767029487623
20
-9.37464954573258
30
0
41
1
10
13.6070440683975
20
-9.39202437584845
30
0
41
1
10
13.6765942028226
20
-9.44473147370712
30
0
41
1
10
13.7124906049065
20
-9.48529706929929
30
0
41
1
10
13.8010726383563
20
-9.61035706938739
30
0
41
1
10
13.8419782234534
20
-9.70372859127173
30
0
41
1
10
13.8806741852959
20
-9.82167814889493
30
0
41
1
10
13.8877916772123
20
-9.84548375806273
30
0
41
1
10
13.8943375672974
20
-9.86941261896609
30
0
0
SPLINE
5
D9
100
AcDbEntity
8
1
62
256
6
ByLayer
370
-1
48
1
60
0
100
AcDbSpline
70
4
71
3
72
18
73
14
40
0
40
0
40
0
40
0
40
0.0048641047853628
40
0.0048641047853628
40
0.113203312756749
40
0.113203312756749
40
0.252307002956659
40
0.252307002956659
40
0.472239664393867
40
0.472239664393867
40
0.894682818087803
40
0.894682818087803
40
1
40
1
40
1
40
1
41
1
10
10.5386751345948
20
-30.0805927603169
30
0
41
1
10
10.5374517449547
20
-30.0805927603169
30
0
41
1
10
10.5362283172892
20
-30.0805898964002
30
0
41
1
10
10.5081150012138
20
-30.0804582858311
30
0
41
1
10
10.4809957906556
20
-30.0788870212281
30
0
41
1
10
10.4232970512377
20
-30.0726800181318
30
0
41
1
10
10.3929559316025
20
-30.0672635530197
30
0
41
1
10
10.3234057971774
20
-30.0507602157503
30
0
41
1
10
10.2875093950935
20
-30.0379954087022
30
0
41
1
10
10.1989273616437
20
-29.9983076443639
30
0
41
1
10
10.1580217765466
20
-29.968274932258
30
0
41
1
10
10.1193258147041
20
-29.9296718333698
30
0
41
1
10
10.1122083227877
20
-29.9218496167517
30
0
41
1
10
10.1056624327026
20
-29.9139548464691
30
0
0
SPLINE
5
DA
100
AcDbEntity
8
1
62
256
6
ByLayer
370
-1
48
1
60
0
100
AcDbSpline
70
4
71
3
72
18
73
14
40
0
40
0
40
0
40
0
40
0.0048641047854146
40
0.0048641047854146
40
0.113203312756797
40
0.113203312756797
40
0.252307002956716
40
0.252307002956716
40
0.472239664393974
40
0.472239664393974
40
0.894682818087995
40
0.894682818087995
40
1
40
1
40
1
40
1
41
1
10
10.5386751345948
20
9.34922131452504
30
0
41
1
10
10.5374517449547
20
9.34922131452504
30
0
41
1
10
10.5362283172892
20
9.34923052903073
30
0
41
1
10
10.5081150012137
20
9.34965397724795
30
0
41
1
10
10.4809957906555
20
9.354712145283
30
0
41
1
10
10.4232970512377
20
9.37464954573258
30
0
41
1
10
10.3929559316024
20
9.39202437584845
30
0
41
1
10
10.3234057971774
20
9.44473147370712
30
0
41
1
10
10.2875093950934
20
9.48529706929932
30
0
41
1
10
10.1989273616436
20
9.61035706938745
30
0
41
1
10
10.1580217765465
20
9.70372859127181
30
0
41
1
10
10.1193258147041
20
9.82167814889502
30
0
41
1
10
10.1122083227876
20
9.84548375806278
30
0
41
1
10
10.1056624327026
20
9.86941261896612
30
0
0
SPLINE
5
DB
100
AcDbEntity
8
1
62
256
6
ByLayer
370
-1
48
1
60
0
100
AcDbSpline
70
4
71
3
72
8
73
4
40
0
40
0
40
0
40
0
40
1
40
1
40
1
40
1
41
1
10
148.878555385578
20
-25.601087868067
30
0
41
1
10
148.921853920419
20
-25.6347697582468
30
0
41
1
10
148.976304784795
20
-25.6684105805375
30
0
41
1
10
149.042100135524
20
-25.7019788649079
30
0
0
SPLINE
5
DC
100
AcDbEntity
8
1
62
256
6
ByLayer
370
-1
48
1
60
0
100
AcDbSpline
70
4
71
3
72
18
73
14
40
0
40
0
40
0
40
0
40
0.0048641047853987
40
0.0048641047853987
40
0.113203312756789
40
0.113203312756789
40
0.252307002956709
40
0.252307002956709
40
0.472239664393952
40
0.472239664393952
40
0.894682818087943
40
0.894682818087943
40
1
40
1
40
1
40
1
41
1
10
13.4613248654052
20
30.0805927603169
30
0
41
1
10
13.4625482550453
20
30.0805927603169
30
0
41
1
10
13.4637716827108
20
30.0805898964002
30
0
41
1
10
13.4918849987862
20
30.0804582858311
30
0
41
1
10
13.5190042093444
20
30.0788870212281
30
0
41
1
10
13.5767029487623
20
30.0726800181318
30
0
41
1
10
13.6070440683976
20
30.0672635530197
30
0
41
1
10
13.6765942028226
20
30.0507602157503
30
0
41
1
10
13.7124906049065
20
30.0379954087022
30
0
41
1
10
13.8010726383563
20
29.9983076443639
30
0
41
1
10
13.8419782234534
20
29.968274932258
30
0
41
1
10
13.8806741852959
20
29.9296718333698
30
0
41
1
10
13.8877916772123
20
29.9218496167517
30
0
41
1
10
13.8943375672974
20
29.9139548464691
30
0
0
SPLINE
5
DD
100
AcDbEntity
8
1
62
256
6
ByLayer
370
-1
48
1
60
0
100
AcDbSpline
70
4
71
3
72
16
73
12
40
0
40
0
40
0
40
0
40
0.270525378058565
40
0.270525378058565
40
0.599384185955612
40
0.599384185955612
40
0.76214018865193
40
0.76214018865193
40
0.896616864840277
40
0.896616864840277
40
1
40
1
40
1
40
1
41
1
10
13.8943375672974
20
9.86941261896609
30
0
41
1
10
13.8776365922086
20
9.80836128680863
30
0
41
1
10
13.8572362209579
20
9.7479555758492
30
0
41
1
10
13.8009393101034
20
9.61806206841851
30
0
41
1
10
13.7623213481302
20
9.54815463560524
30
0
41
1
10
13.6864544953215
20
9.45744596321492
30
0
41
1
10
13.6578252730083
20
9.42931579222241
30
0
41
1
10
13.5987984461957
20
9.38709146615406
30
0
41
1
10
13.5689448142149
20
9.37112695979135
30
0
41
1
10
13.5129283913933
20
9.35344618198363
30
0
41
1
10
13.4869872498695
20
9.34922131452504
30
0
41
1
10
13.4613248654052
20
9.34922131452504
30
0
0
SPLINE
5
DE
100
AcDbEntity
8
1
62
256
6
ByLayer
370
-1
48
1
60
0
100
AcDbSpline
70
4
71
3
72
16
73
12
40
0
40
0
40
0
40
0
40
0.270525378058593
40
0.270525378058593
40
0.599384185955625
40
0.599384185955625
40
0.762140188651943
40
0.762140188651943
40
0.896616864840276
40
0.896616864840276
40
1
40
1
40
1
40
1
41
1
10
13.8943375672974
20
-29.9139548464691
30
0
41
1
10
13.8776365922086
20
-29.9340973114522
30
0
41
1
10
13.8572362209579
20
-29.9538166638149
30
0
41
1
10
13.8009393101033
20
-29.9958084253268
30
0
41
1
10
13.7623213481302
20
-30.0181074912897
30
0
41
1
10
13.6864544953215
20
-30.0467588108259
30
0
41
1
10
13.6578252730083
20
-30.0555916882576
30
0
41
1
10
13.5987984461957
20
-30.0688029947856
30
0
41
1
10
13.5689448142149
20
-30.0737774310785
30
0
41
1
10
13.5129283913933
20
-30.0792804002415
30
0
41
1
10
13.4869872498695
20
-30.0805927603169
30
0
41
1
10
13.4613248654052
20
-30.0805927603169
30
0
0
SPLINE
5
DF
100
AcDbEntity
8
1
62
256
6
ByLayer
370
-1
48
1
60
0
100
AcDbSpline
70
4
71
3
72
38
73
34
40
-0.125000000000014
40
-0.125000000000014
40
0
40
0
40
0.124999999999989
40
0.124999999999989
40
0.156249999999987
40
0.156249999999987
40
0.187499999999986
40
0.187499999999986
40
0.218749999999984
40
0.218749999999984
40
0.249999999999982
40
0.249999999999982
40
0.31249999999998
40
0.31249999999998
40
0.374999999999977
40
0.374999999999977
40
0.499999999999972
40
0.499999999999972
40
0.624999999999968
40
0.624999999999968
40
0.656249999999968
40
0.656249999999968
40
0.687499999999968
40
0.687499999999968
40
0.703124999999969
40
0.703124999999969
40
0.718749999999969
40
0.718749999999969
40
0.749999999999973
40
0.749999999999973
40
0.874999999999986
40
0.874999999999986
40
1
40
1
40
1.12499999999999
40
1.12499999999999
41
1
10
138.725701680295
20
-14.4091542725378
30
0
41
1
10
135.612594962491
20
-12.8672913916318
30
0
41
1
10
134.026193705119
20
-12.1904242117414
30
0
41
1
10
131.915023678209
20
-11.868356418877
30
0
41
1
10
131.489553756483
20
-11.8335296655543
30
0
41
1
10
130.627491619083
20
-11.8953283346752
30
0
41
1
10
130.177580383469
20
-11.9849331156838
30
0
41
1
10
129.478666036411
20
-12.5510579393175
30
0
41
1
10
129.364525447578
20
-13.0667882886692
30
0
41
1
10
129.571434674704
20
-13.9293426316465
30
0
41
1
10
129.802410833571
20
-14.3019102638948
30
0
41
1
10
130.575944380277
20
-15.3136613917096
30
0
41
1
10
131.233982485553
20
-15.8649244507347
30
0
41
1
10
132.600065402183
20
-16.8473372854288
30
0
41
1
10
133.326001710455
20
-17.2794374400769
30
0
41
1
10
135.586842995849
20
-18.4747292632539
30
0
41
1
10
137.194433802229
20
-19.1319874729826
30
0
41
1
10
140.485741981392
20
-20.2729368026518
30
0
41
1
10
142.185051224598
20
-20.773680060378
30
0
41
1
10
144.364036848733
20
-21.2207124476857
30
0
41
1
10
144.803159529207
20
-21.3004394269434
30
0
41
1
10
145.691901012068
20
-21.4126335669818
30
0
41
1
10
146.146851160756
20
-21.470597006771
30
0
41
1
10
146.809736345633
20
-21.3357491550318
30
0
41
1
10
147.044101029479
20
-21.1763453994152
30
0
41
1
10
146.99448262383
20
-20.7298748810343
30
0
41
1
10
146.855392281619
20
-20.5381871466588
30
0
41
1
10
146.455025372481
20
-20.0101707815952
30
0
41
1
10
146.133417944122
20
-19.7009909253217
30
0
41
1
10
144.5092549515
20
-18.2141595410172
30
0
41
1
10
143.072463710888
20
-17.195200648386
30
0
41
1
10
140.180750971444
20
-15.2774111811013
30
0
41
1
10
138.725701680295
20
-14.4091542725378
30
0
41
1
10
135.612594962491
20
-12.8672913916318
30
0
0
SPLINE
5
E0
100
AcDbEntity
8
1
62
256
6
ByLayer
370
-1
48
1
60
0
100
AcDbSpline
70
4
71
3
72
16
73
12
40
0
40
0
40
0
40
0
40
0.270525378058462
40
0.270525378058462
40
0.5993841859556
40
0.5993841859556
40
0.762140188651907
40
0.762140188651907
40
0.896616864840263
40
0.896616864840263
40
1
40
1
40
1
40
1
41
1
10
10.1056624327026
20
-9.86941261896612
30
0
41
1
10
10.1223634077914
20
-9.80836128680866
30
0
41
1
10
10.1427637790421
20
-9.74795557584926
30
0
41
1
10
10.1990606898966
20
-9.61806206841857
30
0
41
1
10
10.2376786518697
20
-9.54815463560527
30
0
41
1
10
10.3135455046785
20
-9.45744596321495
30
0
41
1
10
10.3421747269917
20
-9.42931579222241
30
0
41
1
10
10.4012015538043
20
-9.38709146615406
30
0
41
1
10
10.4310551857851
20
-9.37112695979135
30
0
41
1
10
10.4870716086066
20
-9.35344618198363
30
0
41
1
10
10.5130127501305
20
-9.34922131452504
30
0
41
1
10
10.5386751345948
20
-9.34922131452504
30
0
0
SPLINE
5
E1
100
AcDbEntity
8
1
62
256
6
ByLayer
370
-1
48
1
60
0
100
AcDbSpline
70
4
71
3
72
26
73
22
40
0
40
0
40
0
40
0
40
0.125
40
0.125
40
0.25
40
0.25
40
0.375
40
0.375
40
0.4375
40
0.4375
40
0.5
40
0.5
40
0.5625
40
0.5625
40
0.625
40
0.625
40
0.75
40
0.75
40
0.875
40
0.875
40
1
40
1
40
1
40
1
41
1
10
144.312991156867
20
23.5443358244241
30
0
41
1
10
139.787527304323
20
23.0715256063409
30
0
41
1
10
135.446188364821
20
22.3596971687294
30
0
41
1
10
127.139134745061
20
19.9632078490247
30
0
41
1
10
123.147992499368
20
18.2466994668265
30
0
41
1
10
116.033987004935
20
13.3413119005352
30
0
41
1
10
112.85642700349
20
10.1091217190346
30
0
41
1
10
109.178652693456
20
4.10479871655383
30
0
41
1
10
108.154936485419
20
1.95381190094773
30
0
41
1
10
106.620151008452
20
-2.61002256207357
30
0
41
1
10
106.13381821416
20
-4.97187172178678
30
0
41
1
10
105.913321680714
20
-9.54213786247396
30
0
41
1
10
106.192343011952
20
-11.7472619410872
30
0
41
1
10
107.571504209523
20
-15.5769693681103
30
0
41
1
10
108.677402411671
20
-17.2178998863268
30
0
41
1
10
112.854410621103
20
-21.1501082624215
30
0
41
1
10
116.716703378847
20
-22.52774897524
30
0
41
1
10
124.964901794009
20
-24.2124555033202
30
0
41
1
10
129.439251676971
20
-24.5438702241879
30
0
41
1
10
138.618869162388
20
-24.9181333917418
30
0
41
1
10
143.305150681628
20
-24.9515052320773
30
0
41
1
10
148.079052959386
20
-24.9691394347781
30
0
0
SPLINE
5
E2
100
AcDbEntity
8
1
62
256
6
ByLayer
370
-1
48
1
60
0
100
AcDbSpline
70
4
71
3
72
16
73
12
40
0
40
0
40
0
40
0
40
0.270525378058744
40
0.270525378058744
40
0.599384185955696
40
0.599384185955696
40
0.762140188652004
40
0.762140188652004
40
0.896616864840327
40
0.896616864840327
40
1
40
1
40
1
40
1
41
1
10
10.1056624327026
20
29.9139548464691
30
0
41
1
10
10.1223634077914
20
29.9340973114522
30
0
41
1
10
10.1427637790421
20
29.9538166638149
30
0
41
1
10
10.1990606898967
20
29.9958084253268
30
0
41
1
10
10.2376786518698
20
30.0181074912897
30
0
41
1
10
10.3135455046785
20
30.0467588108259
30
0
41
1
10
10.3421747269917
20
30.0555916882576
30
0
41
1
10
10.4012015538043
20
30.0688029947856
30
0
41
1
10
10.4310551857851
20
30.0737774310785
30
0
41
1
10
10.4870716086067
20
30.0792804002415
30
0
41
1
10
10.5130127501305
20
30.0805927603169
30
0
41
1
10
10.5386751345948
20
30.0805927603169
30
0
0
SPLINE
5
E3
100
AcDbEntity
8
1
62
256
6
ByLayer
370
-1
48
1
60
0
100
AcDbSpline
70
4
71
3
72
10
73
6
40
0
40
0
40
0
40
0
40
0.679347771445089
40
0.679347771445089
40
1
40
1
40
1
40
1
41
1
10
156.83202801521
20
-11.7299309836159
30
0
41
1
10
156.813791342045
20
-11.7573681681824
30
0
41
1
10
156.799969678428
20
-11.780717977573
30
0
41
1
10
156.7869204107
20
-11.8091032084869
30
0
41
1
10
156.783844970182
20
-11.8172994506521
30
0
41
1
10
156.781959803785
20
-11.8245934122421
30
0
0
SPLINE
5
E4
100
AcDbEntity
8
1
62
256
6
ByLayer
370
-1
48
1
60
0
100
AcDbSpline
70
4
71
3
72
8
73
4
40
0
40
0
40
0
40
0
40
1
40
1
40
1
40
1
41
1
10
149.042100135523
20
-25.7019788649072
30
0
41
1
10
148.72074684343
20
-25.4577601309414
30
0
41
1
10
148.399718910809
20
-25.2134964352518
30
0
41
1
10
148.079052959386
20
-24.969139434778
30
0
0
SPLINE
5
E5
100
AcDbEntity
8
1
62
256
6
ByLayer
370
-1
48
1
60
0
100
AcDbSpline
70
4
71
3
72
18
73
14
40
0
40
0
40
0
40
0
40
0.205116821224661
40
0.205116821224661
40
0.380549329193615
40
0.380549329193615
40
0.557749675423281
40
0.557749675423281
40
0.710987673538162
40
0.710987673538162
40
0.912552078003871
40
0.912552078003871
40
1
40
1
40
1
40
1
41
1
10
167.708714092419
20
-24.3442559706776
30
0
41
1
10
167.684552084148
20
-24.2769235057457
30
0
41
1
10
167.669495769342
20
-24.2041878349014
30
0
41
1
10
167.663111932324
20
-24.0663455048367
30
0
41
1
10
167.668764956122
20
-24.0000895458369
30
0
41
1
10
167.699390964987
20
-23.8717110907919
30
0
41
1
10
167.725222276433
20
-23.8077846272499
30
0
41
1
10
167.788468376798
20
-23.7023323607922
30
0
41
1
10
167.824523705999
20
-23.6576310499497
30
0
41
1
10
167.916048860562
20
-23.5700476853434
30
0
41
1
10
167.97545099198
20
-23.5304727665586
30
0
41
1
10
168.064354590332
20
-23.4891776301789
30
0
41
1
10
168.092140391117
20
-23.4785317708055
30
0
41
1
10
168.120310234981
20
-23.4698107632751
30
0
0
SPLINE
5
E6
100
AcDbEntity
8
1
62
256
6
ByLayer
370
-1
48
1
60
0
100
AcDbSpline
70
4
71
3
72
20
73
16
40
0
40
0
40
0
40
0
40
0.103939174994453
40
0.103939174994453
40
0.299857271617112
40
0.299857271617112
40
0.460083197380311
40
0.460083197380311
40
0.620963561681726
40
0.620963561681726
40
0.773799366126998
40
0.773799366126998
40
0.993322106508688
40
0.993322106508688
40
1
40
1
40
1
40
1
41
1
10
165.57461197696
20
-22.2852277207946
30
0
41
1
10
165.585871811007
20
-22.3162136424557
30
0
41
1
10
165.594793194305
20
-22.3485546938864
30
0
41
1
10
165.612925977275
20
-22.4446083968751
30
0
41
1
10
165.615544383754
20
-22.5122254785973
30
0
41
1
10
165.600120081793
20
-22.636937783427
30
0
41
1
10
165.585430117569
20
-22.6950887717152
30
0
41
1
10
165.541280864411
20
-22.8065314672183
30
0
41
1
10
165.511147989518
20
-22.861208386712
30
0
41
1
10
165.44237045012
20
-22.9564467482835
30
0
41
1
10
165.403507083041
20
-22.9987463373052
30
0
41
1
10
165.302915422833
20
-23.0868270550902
30
0
41
1
10
165.236907599039
20
-23.1278694086616
30
0
41
1
10
165.167190127264
20
-23.157909474442
30
0
41
1
10
165.165104177186
20
-23.1587965353624
30
0
41
1
10
165.163015834398
20
-23.1596729281971
30
0
0
SPLINE
5
E7
100
AcDbEntity
8
1
62
256
6
ByLayer
370
-1
48
1
60
0
100
AcDbSpline
70
4
71
3
72
16
73
12
40
0
40
0
40
0
40
0
40
0.117645634125269
40
0.117645634125269
40
0.42392426437472
40
0.42392426437472
40
0.701112859458672
40
0.701112859458672
40
0.946209607757122
40
0.946209607757122
40
1
40
1
40
1
40
1
41
1
10
167.001274615216
20
-21.8759721433938
30
0
41
1
10
167.010455994679
20
-21.8659641190134
30
0
41
1
10
167.020482009886
20
-21.8564856150838
30
0
41
1
10
167.059072470642
20
-21.8249870780875
30
0
41
1
10
167.092696540505
20
-21.8064528481399
30
0
41
1
10
167.162260949625
20
-21.7842838517186
30
0
41
1
10
167.198789444349
20
-21.7791261454335
30
0
41
1
10
167.267219978131
20
-21.781908553028
30
0
41
1
10
167.300163875721
20
-21.7884837245459
30
0
41
1
10
167.337423922192
20
-21.8024970678349
30
0
41
1
10
167.344100782635
20
-21.8052844237885
30
0
41
1
10
167.350655214109
20
-21.8083010817631
30
0
0
SPLINE
5
E8
100
AcDbEntity
8
1
62
256
6
ByLayer
370
-1
48
1
60
0
100
AcDbSpline
70
4
71
3
72
16
73
12
40
0
40
0
40
0
40
0
40
0.0513649257731264
40
0.0513649257731264
40
0.274412838333747
40
0.274412838333747
40
0.499594209972384
40
0.499594209972384
40
0.738692688248949
40
0.738692688248949
40
1
40
1
40
1
40
1
41
1
10
164.974701168704
20
-23.4674875382945
30
0
41
1
10
164.974129489021
20
-23.46065939869
30
0
41
1
10
164.973796818235
20
-23.4537948688773
30
0
41
1
10
164.973305557334
20
-23.4173299152609
30
0
41
1
10
164.977491152493
20
-23.3871586590791
30
0
41
1
10
164.994062787447
20
-23.3301988617897
30
0
41
1
10
165.006716130065
20
-23.3027134309797
30
0
41
1
10
165.039112047983
20
-23.2522064212801
30
0
41
1
10
165.059624183408
20
-23.2289161044001
30
0
41
1
10
165.106827634652
20
-23.1885151181422
30
0
41
1
10
165.13448302249
20
-23.1716469930172
30
0
41
1
10
165.163015834398
20
-23.1596729281972
30
0
0
SPLINE
5
E9
100
AcDbEntity
8
1
62
256
6
ByLayer
370
-1
48
1
60
0
100
AcDbSpline
70
4
71
3
72
12
73
8
40
0
40
0
40
0
40
0
40
0.284071889673154
40
0.284071889673154
40
0.742417631736265
40
0.742417631736265
40
1
40
1
40
1
40
1
41
1
10
165.69827833761
20
-24.0569011858202
30
0
41
1
10
165.719947395501
20
-24.0977057484805
30
0
41
1
10
165.737515871781
20
-24.1409600435996
30
0
41
1
10
165.77156421623
20
-24.2547021009686
30
0
41
1
10
165.781400783121
20
-24.3274290990629
30
0
41
1
10
165.781059223377
20
-24.4371793345529
30
0
41
1
10
165.777764172467
20
-24.4765136547535
30
0
41
1
10
165.771565308148
20
-24.5148775081972
30
0
0
SPLINE
5
EA
100
AcDbEntity
8
1
62
256
6
ByLayer
370
-1
48
1
60
0
100
AcDbSpline
70
4
71
3
72
16
73
12
40
0
40
0
40
0
40
0
40
0.216636772038699
40
0.216636772038699
40
0.440029689255342
40
0.440029689255342
40
0.674490025387608
40
0.674490025387608
40
0.92998088727734
40
0.92998088727734
40
1
40
1
40
1
40
1
41
1
10
168.314770324861
20
-23.1814869485831
30
0
41
1
10
168.317161566713
20
-23.2100479306919
30
0
41
1
10
168.315153766623
20
-23.2391557554757
30
0
41
1
10
168.302693603159
20
-23.2948546254852
30
0
41
1
10
168.291829094393
20
-23.3220537717397
30
0
41
1
10
168.262575029935
20
-23.3716544390848
30
0
41
1
10
168.243498185346
20
-23.3943896709048
30
0
41
1
10
168.198643473902
20
-23.4336353143323
30
0
41
1
10
168.171880093001
20
-23.4499223051427
30
0
41
1
10
168.136122564401
20
-23.4645359190162
30
0
41
1
10
168.128259077664
20
-23.4673499077152
30
0
41
1
10
168.120310234981
20
-23.4698107632751
30
0
0
SPLINE
5
EB
100
AcDbEntity
8
1
62
256
6
ByLayer
370
-1
48
1
60
0
100
AcDbSpline
70
4
71
3
72
12
73
8
40
0
40
0
40
0
40
0
40
0.490196318993412
40
0.490196318993412
40
0.896040799054341
40
0.896040799054341
40
1
40
1
40
1
40
1
41
1
10
168.070137419824
20
-22.9097287367196
30
0
41
1
10
167.999572724135
20
-22.8947270504045
30
0
41
1
10
167.928648536294
20
-22.8686624183979
30
0
41
1
10
167.806977996322
20
-22.8008603693794
30
0
41
1
10
167.753562084686
20
-22.7616969602518
30
0
41
1
10
167.694270571153
20
-22.7041412093121
30
0
41
1
10
167.682480074346
20
-22.6918708921518
30
0
41
1
10
167.671143905583
20
-22.6792012099861
30
0
0
SPLINE
5
EC
100
AcDbEntity
8
1
62
256
6
ByLayer
370
-1
48
1
60
0
100
AcDbSpline
70
4
71
3
72
14
73
10
40
0
40
0
40
0
40
0
40
0.271412377570953
40
0.271412377570953
40
0.559311752860329
40
0.559311752860329
40
0.819752430973185
40
0.819752430973185
40
1
40
1
40
1
40
1
41
1
10
166.28205145416
20
-24.7535115480762
30
0
41
1
10
166.261896314808
20
-24.7794765964022
30
0
41
1
10
166.236985734172
20
-24.8026420221961
30
0
41
1
10
166.178891500162
20
-24.8401304985846
30
0
41
1
10
166.144342015422
20
-24.8543576820793
30
0
41
1
10
166.075664662884
20
-24.8675669455539
30
0
41
1
10
166.040760513762
20
-24.8680113909957
30
0
41
1
10
165.983792267641
20
-24.8579385606444
30
0
41
1
10
165.960589952365
20
-24.8506946745829
30
0
41
1
10
165.938816279456
20
-24.8406734051145
30
0
0
SPLINE
5
ED
100
AcDbEntity
8
1
62
256
6
ByLayer
370
-1
48
1
60
0
100
AcDbSpline
70
4
71
3
72
16
73
12
40
0
40
0
40
0
40
0
40
0.0893925983587761
40
0.0893925983587761
40
0.311798519405693
40
0.311798519405693
40
0.53849108366601
40
0.53849108366601
40
0.78083922175751
40
0.78083922175751
40
1
40
1
40
1
40
1
41
1
10
167.604217070769
20
-24.6910732235597
30
0
41
1
10
167.594433772862
20
-24.6979051382675
30
0
41
1
10
167.584197024291
20
-24.7041213153406
30
0
41
1
10
167.547518026497
20
-24.7233108237418
30
0
41
1
10
167.518949711412
20
-24.7328419509251
30
0
41
1
10
167.461047455872
20
-24.7426461182628
30
0
41
1
10
167.43097932094
20
-24.7428866131556
30
0
41
1
10
167.371558343645
20
-24.7344467760483
30
0
41
1
10
167.341651029126
20
-24.7250765049975
30
0
41
1
10
167.289843536738
20
-24.6998643162092
30
0
41
1
10
167.266976582631
20
-24.684543547645
30
0
41
1
10
167.246754011747
20
-24.6668539227683
30
0
0
SPLINE
5
EE
100
AcDbEntity
8
1
62
256
6
ByLayer
370
-1
48
1
60
0
100
AcDbSpline
70
4
71
3
72
16
73
12
40
0
40
0
40
0
40
0
40
0.190784766589257
40
0.190784766589257
40
0.486819413293521
40
0.486819413293521
40
0.754211624584483
40
0.754211624584483
40
0.991982519595655
40
0.991982519595655
40
1
40
1
40
1
40
1
41
1
10
168.070137419826
20
-22.9097287367172
30
0
41
1
10
168.092880318794
20
-22.914563758435
30
0
41
1
10
168.115547066411
20
-22.9220654619352
30
0
41
1
10
168.170815578197
20
-22.9477610013561
30
0
41
1
10
168.202972399943
20
-22.9701488132271
30
0
41
1
10
168.254300884014
20
-23.0228503030082
30
0
41
1
10
168.275168510561
20
-23.0530497293429
30
0
41
1
10
168.302920022474
20
-23.1147090875996
30
0
41
1
10
168.311463610186
20
-23.1465574212647
30
0
41
1
10
168.314582375437
20
-23.17931645149
30
0
41
1
10
168.314679453337
20
-23.1804015795032
30
0
41
1
10
168.314770324861
20
-23.1814869485831
30
0
0
SPLINE
5
EF
100
AcDbEntity
8
1
62
256
6
ByLayer
370
-1
48
1
60
0
100
AcDbSpline
70
4
71
3
72
14
73
10
40
0
40
0
40
0
40
0
40
0.274455606088775
40
0.274455606088775
40
0.560153866535208
40
0.560153866535208
40
0.818562910906018
40
0.818562910906018
40
1
40
1
40
1
40
1
41
1
10
165.213090544594
20
-23.7194438055874
30
0
41
1
10
165.181378180784
20
-23.7155445889892
30
0
41
1
10
165.149629525712
20
-23.7059003600878
30
0
41
1
10
165.090197283833
20
-23.6748226547173
30
0
41
1
10
165.061834949481
20
-23.6523724318451
30
0
41
1
10
165.017963161706
20
-23.6000335974752
30
0
41
1
10
165.00086785766
20
-23.5702263211967
30
0
41
1
10
164.981847157245
20
-23.5157364470509
30
0
41
1
10
164.976728372264
20
-23.4917004486572
30
0
41
1
10
164.974701168704
20
-23.4674875382945
30
0
0
SPLINE
5
F0
100
AcDbEntity
8
1
62
256
6
ByLayer
370
-1
48
1
60
0
100
AcDbSpline
70
4
71
3
72
14
73
10
40
0
40
0
40
0
40
0
40
0.311428356918122
40
0.311428356918122
40
0.602251971220017
40
0.602251971220017
40
0.857987337404269
40
0.857987337404269
40
1
40
1
40
1
40
1
41
1
10
167.708714092419
20
-24.3442559706776
30
0
41
1
10
167.721642488384
20
-24.3802836368436
30
0
41
1
10
167.728300525352
20
-24.4198884243958
30
0
41
1
10
167.726054241588
20
-24.4962960131549
30
0
41
1
10
167.71801894214
20
-24.5343293907379
30
0
41
1
10
167.689803738303
20
-24.6000019062745
30
0
41
1
10
167.670728834808
20
-24.629300400135
30
0
41
1
10
167.634305570891
20
-24.6676872546757
30
0
41
1
10
167.619766204543
20
-24.6802148855302
30
0
41
1
10
167.604217070769
20
-24.6910732235597
30
0
0
SPLINE
5
F1
100
AcDbEntity
8
1
62
256
6
ByLayer
370
-1
48
1
60
0
100
AcDbSpline
70
4
71
3
72
12
73
8
40
0
40
0
40
0
40
0
40
0.318531797671914
40
0.318531797671914
40
0.786371461430497
40
0.786371461430497
40
1
40
1
40
1
40
1
41
1
10
167.575886283229
20
-22.5435261030778
30
0
41
1
10
167.551880884652
20
-22.4987320320811
30
0
41
1
10
167.533347139426
20
-22.4517574374812
30
0
41
1
10
167.502203123664
20
-22.3371101986098
30
0
41
1
10
167.495748637293
20
-22.2681392759107
30
0
41
1
10
167.501607491769
20
-22.172691034927
30
0
41
1
10
167.505629870553
20
-22.1431298468122
30
0
41
1
10
167.511662656277
20
-22.1142950341113
30
0
0
SPLINE
5
F2
100
AcDbEntity
8
1
62
256
6
ByLayer
370
-1
48
1
60
0
100
AcDbSpline
70
4
71
3
72
18
73
14
40
0
40
0
40
0
40
0
40
0.053533538407719
40
0.053533538407719
40
0.274456440637726
40
0.274456440637726
40
0.497644855656895
40
0.497644855656895
40
0.734744276460347
40
0.734744276460347
40
0.994896837488806
40
0.994896837488806
40
1
40
1
40
1
40
1
41
1
10
165.938816279456
20
-24.8406734051145
30
0
41
1
10
165.932255578613
20
-24.8376538616813
30
0
41
1
10
165.92579921546
20
-24.8343764887046
30
0
41
1
10
165.893597609122
20
-24.8164495722918
30
0
41
1
10
165.869653282706
20
-24.7976457610681
30
0
41
1
10
165.829043605872
20
-24.7543555194305
30
0
41
1
10
165.811921272003
20
-24.7292777230631
30
0
41
1
10
165.785331531553
20
-24.6749518590535
30
0
41
1
10
165.776046427385
20
-24.6448754622398
30
0
41
1
10
165.766153496885
20
-24.5820801019154
30
0
41
1
10
165.766317301707
20
-24.5486047874566
30
0
41
1
10
165.771363498052
20
-24.5161384868594
30
0
41
1
10
165.771463472884
20
-24.5155077515672
30
0
41
1
10
165.771565308148
20
-24.5148775081972
30
0
0
SPLINE
5
F3
100
AcDbEntity
8
1
62
256
6
ByLayer
370
-1
48
1
60
0
100
AcDbSpline
70
4
71
3
72
18
73
14
40
0
40
0
40
0
40
0
40
0.203593712134111
40
0.203593712134111
40
0.379299248995965
40
0.379299248995965
40
0.556790366466705
40
0.556790366466705
40
0.7100904135442
40
0.7100904135442
40
0.911391312098538
40
0.911391312098538
40
1
40
1
40
1
40
1
41
1
10
166.28205145416
20
-24.7535115480762
30
0
41
1
10
166.324815394249
20
-24.6984204990102
30
0
41
1
10
166.376852844787
20
-24.6484159203042
30
0
41
1
10
166.488023021555
20
-24.572346279503
30
0
41
1
10
166.546580200299
20
-24.5432243602355
30
0
41
1
10
166.671293834808
20
-24.5040459750415
30
0
41
1
10
166.739466947092
20
-24.4938192020722
30
0
41
1
10
166.863718600325
20
-24.4950931161588
30
0
41
1
10
166.921660236045
20
-24.5037419107676
30
0
41
1
10
167.046871803298
20
-24.5389420188168
30
0
41
1
10
167.113590925812
20
-24.5705912502433
30
0
41
1
10
167.198540332651
20
-24.6273172737391
30
0
41
1
10
167.223386304248
20
-24.6464131003687
30
0
41
1
10
167.246754011747
20
-24.6668539227682
30
0
0
SPLINE
5
F4
100
AcDbEntity
8
1
62
256
6
ByLayer
370
-1
48
1
60
0
100
AcDbSpline
70
4
71
3
72
14
73
10
40
0
40
0
40
0
40
0
40
0.256451893215869
40
0.256451893215869
40
0.546227929277558
40
0.546227929277558
40
0.808214509090443
40
0.808214509090443
40
1
40
1
40
1
40
1
41
1
10
165.57461197696
20
-22.2852277207946
30
0
41
1
10
165.564815702583
20
-22.2582693669545
30
0
41
1
10
165.559246295346
20
-22.2288549282073
30
0
41
1
10
165.558225348183
20
-22.1649621859677
30
0
41
1
10
165.564252223729
20
-22.1292860935737
30
0
41
1
10
165.58874141437
20
-22.0649820550071
30
0
41
1
10
165.606387352693
20
-22.0350494023899
30
0
41
1
10
165.645088163921
20
-21.9899450624445
30
0
41
1
10
165.664316515904
20
-21.9725227125878
30
0
41
1
10
165.685254422796
20
-21.9579012633178
30
0
0
SPLINE
5
F5
100
AcDbEntity
8
1
62
256
6
ByLayer
370
-1
48
1
60
0
100
AcDbSpline
70
4
71
3
72
12
73
8
40
0
40
0
40
0
40
0
40
0.429112159493692
40
0.429112159493692
40
0.846004847309826
40
0.846004847309826
40
1
40
1
40
1
40
1
41
1
10
165.213090544594
20
-23.719443805585
30
0
41
1
10
165.273086738221
20
-23.7268206809078
30
0
41
1
10
165.333324982716
20
-23.7429055385702
30
0
41
1
10
165.446883332588
20
-23.7929239800398
30
0
41
1
10
165.501629634539
20
-23.8271046476271
30
0
41
1
10
165.568891393166
20
-23.8858419275349
30
0
41
1
10
165.586425095845
20
-23.9029948687127
30
0
41
1
10
165.603020715256
20
-23.921226078912
30
0
0
SPLINE
5
F6
100
AcDbEntity
8
1
62
256
6
ByLayer
370
-1
48
1
60
0
100
AcDbSpline
70
4
71
3
72
16
73
12
40
0
40
0
40
0
40
0
40
0.171169743684781
40
0.171169743684781
40
0.391718544395903
40
0.391718544395903
40
0.620984686151575
40
0.620984686151575
40
0.869335650640771
40
0.869335650640771
40
1
40
1
40
1
40
1
41
1
10
167.350655214109
20
-21.8083010817631
30
0
41
1
10
167.371473596303
20
-21.8178826814651
30
0
41
1
10
167.391262242619
20
-21.8299237593175
30
0
41
1
10
167.431996323729
20
-21.861642743849
30
0
41
1
10
167.452121020792
20
-21.8829561305029
30
0
41
1
10
167.484761582585
20
-21.9297516753783
30
0
41
1
10
167.497380027827
20
-21.95593933419
30
0
41
1
10
167.514300132169
20
-22.0111087150109
30
0
41
1
10
167.51806689122
20
-22.0408225379364
30
0
41
1
10
167.516559376656
20
-22.0846500826036
30
0
41
1
10
167.514721632924
20
-22.0996740907044
30
0
41
1
10
167.511662656277
20
-22.1142950341113
30
0
0
SPLINE
5
F7
100
AcDbEntity
8
1
62
256
6
ByLayer
370
-1
48
1
60
0
100
AcDbSpline
70
4
71
3
72
16
73
12
40
0
40
0
40
0
40
0
40
0.0433517272978597
40
0.0433517272978597
40
0.266473114177554
40
0.266473114177554
40
0.491266414768853
40
0.491266414768853
40
0.729596823508977
40
0.729596823508977
40
1
40
1
40
1
40
1
41
1
10
165.685254422796
20
-21.9579012633178
30
0
41
1
10
165.690020068615
20
-21.9545732970153
30
0
41
1
10
165.694885518182
20
-21.9513778700387
30
0
41
1
10
165.725084277055
20
-21.9327517368843
30
0
41
1
10
165.752981412941
20
-21.9207635205667
30
0
41
1
10
165.809639556364
20
-21.9055081907794
30
0
41
1
10
165.839122978623
20
-21.9020910789868
30
0
41
1
10
165.897487015337
20
-21.9035479222258
30
0
41
1
10
165.926957654966
20
-21.908921159118
30
0
41
1
10
165.984479206782
20
-21.928403088937
30
0
41
1
10
166.012602864052
20
-21.9438040179094
30
0
41
1
10
166.036572057632
20
-21.9626297687039
30
0
0
SPLINE
5
F8
100
AcDbEntity
8
1
62
256
6
ByLayer
370
-1
48
1
60
0
100
AcDbSpline
70
4
71
3
72
18
73
14
40
0
40
0
40
0
40
0
40
0.208908974417936
40
0.208908974417936
40
0.38363025735195
40
0.38363025735195
40
0.560074355500082
40
0.560074355500082
40
0.713137704085626
40
0.713137704085626
40
0.915336016558771
40
0.915336016558771
40
1
40
1
40
1
40
1
41
1
10
167.001274615219
20
-21.875972143396
30
0
41
1
10
166.955345012001
20
-21.9260370155229
30
0
41
1
10
166.899730103087
20
-21.9711228502535
30
0
41
1
10
166.783601659028
20
-22.038109008513
30
0
41
1
10
166.723977828858
20
-22.0632364951662
30
0
41
1
10
166.598296440004
20
-22.0973102123169
30
0
41
1
10
166.530261521462
20
-22.1064440994714
30
0
41
1
10
166.407121551678
20
-22.1063827299509
30
0
41
1
10
166.350023019337
20
-22.0995267884429
30
0
41
1
10
166.226966239682
20
-22.0703504444382
30
0
41
1
10
166.161846092171
20
-22.0434737986213
30
0
41
1
10
166.080848294568
20
-21.9951786020428
30
0
41
1
10
166.058027644891
20
-21.9794812967942
30
0
41
1
10
166.036572057632
20
-21.9626297687042
30
0
0
SPLINE
5
F9
100
AcDbEntity
8
SK1
62
256
6
ByLayer
370
-1
48
1
60
0
100
AcDbSpline
70
4
71
3
72
8
73
4
40
0
40
0
40
0
40
0
40
1
40
1
40
1
40
1
41
1
10
-2.84E-14
20
7.47795498707185
30
0
41
1
10
-0.0666668441596983
20
7.47000684507091
30
0
41
1
10
-0.133333513168509
20
7.46205581415995
30
0
41
1
10
-0.199999999999989
20
7.45410184860194
30
0
0
SPLINE
5
FA
100
AcDbEntity
8
SK1
62
256
6
ByLayer
370
-1
48
1
60
0
100
AcDbSpline
70
4
71
3
72
8
73
4
40
0
40
0
40
0
40
0
40
1
40
1
40
1
40
1
41
1
10
-0.199999999999989
20
-7.45410255809307
30
0
41
1
10
-0.13333351319929
20
-7.46205653145404
30
0
41
1
10
-0.06666684419136
20
-7.47000756994314
30
0
41
1
10
-2.84E-14
20
-7.47795571927756
30
0
0
SPLINE
5
FB
100
AcDbEntity
8
SK1
62
256
6
ByLayer
370
-1
48
1
60
0
100
AcDbSpline
70
4
71
3
72
24
73
20
40
0
40
0
40
0
40
0
40
0.360879502691496
40
0.360879502691496
40
0.679522527249465
40
0.679522527249465
40
0.773125538541259
40
0.773125538541259
40
0.824378815352241
40
0.824378815352241
40
0.862175757855351
40
0.862175757855351
40
0.892530262599779
40
0.892530262599779
40
0.922882097305825
40
0.922882097305825
40
0.965340403806628
40
0.965340403806628
40
1
40
1
40
1
40
1
41
1
10
-1.30710678118655
20
4.69591747913023
30
0
41
1
10
-1.26533314969214
20
4.9280006140346
30
0
41
1
10
-1.21563689128735
20
5.15732729985041
30
0
41
1
10
-1.09208849439545
20
5.57726964614551
30
0
41
1
10
-1.02458712063205
20
5.77316566660494
30
0
41
1
10
-0.886361634688797
20
6.00127451080465
30
0
41
1
10
-0.850777002090695
20
6.05190263088906
30
0
41
1
10
-0.783955064248175
20
6.12096806939894
30
0
41
1
10
-0.757647970575704
20
6.14385724295292
30
0
41
1
10
-0.706249370394545
20
6.17602680222078
30
0
41
1
10
-0.682168850057224
20
6.18745435634119
30
0
41
1
10
-0.636302078399041
20
6.20006250680512
30
0
41
1
10
-0.614540165939815
20
6.20282738019478
30
0
41
1
10
-0.571796256965456
20
6.20141682079489
30
0
41
1
10
-0.550342277966621
20
6.19724496298289
30
0
41
1
10
-0.502408394194077
20
6.18104812749763
30
0
41
1
10
-0.476466316815021
20
6.16651733970684
30
0
41
1
10
-0.434092524691693
20
6.13600824129722
30
0
41
1
10
-0.416431789013416
20
6.12055641171887
30
0
41
1
10
-0.400000000000063
20
6.10423156158006
30
0
0
SPLINE
5
FC
100
AcDbEntity
8
SK1
62
256
6
ByLayer
370
-1
48
1
60
0
100
AcDbSpline
70
4
71
3
72
22
73
18
40
0
40
0
40
0
40
0
40
0.0423762482151073
40
0.0423762482151073
40
0.0854249042403576
40
0.0854249042403576
40
0.115510710892585
40
0.115510710892585
40
0.145562977863389
40
0.145562977863389
40
0.188866560319605
40
0.188866560319605
40
0.269464421829291
40
0.269464421829291
40
0.539576062841086
40
0.539576062841086
40
1
40
1
40
1
40
1
41
1
10
-0.400000000000063
20
-6.10423197315535
30
0
41
1
10
-0.420133409127487
20
-6.12423434429553
30
0
41
1
10
-0.442149896508255
20
-6.14298369126584
30
0
41
1
10
-0.490914524716317
20
-6.17485278184395
30
0
41
1
10
-0.518425990074348
20
-6.18818802917735
30
0
41
1
10
-0.568088809269341
20
-6.2007917866726
30
0
41
1
10
-0.589839550198434
20
-6.20307835596932
30
0
41
1
10
-0.632358101077472
20
-6.20079662668147
30
0
41
1
10
-0.65359418173702
20
-6.19624019805292
30
0
41
1
10
-0.701806923597019
20
-6.17907520886138
30
0
41
1
10
-0.728087274871882
20
-6.16375377211619
30
0
41
1
10
-0.795263795653284
20
-6.11374953177531
30
0
41
1
10
-0.831450402468533
20
-6.07313839594474
30
0
41
1
10
-0.968479126013762
20
-5.89027783727639
30
0
41
1
10
-1.03459250955694
20
-5.72638662078546
30
0
41
1
10
-1.18908100646803
20
-5.28349358994365
30
0
41
1
10
-1.25390182158543
20
-4.99150600000522
30
0
41
1
10
-1.30710678118655
20
-4.69591515673878
30
0
0
SPLINE
5
FD
100
AcDbEntity
8
SK1
62
256
6
ByLayer
370
-1
48
1
60
0
100
AcDbSpline
70
4
71
3
72
8
73
4
40
0
40
0
40
0
40
0
40
1
40
1
40
1
40
1
41
1
10
-0.200000000000074
20
7.06635637915059
30
0
41
1
10
-0.200000000000074
20
7.19430994365547
30
0
41
1
10
-0.200000000000074
20
7.32358212001932
30
0
41
1
10
-0.200000000000074
20
7.45410184860194
30
0
0
SPLINE
5
FE
100
AcDbEntity
8
SK1
62
256
6
ByLayer
370
-1
48
1
60
0
100
AcDbSpline
70
4
71
3
72
8
73
4
40
0
40
0
40
0
40
0
40
1
40
1
40
1
40
1
41
1
10
-0.200000000000074
20
-7.45410255809307
30
0
41
1
10
-0.200000000000074
20
-7.3235826688034
30
0
41
1
10
-0.200000000000074
20
-7.19431032038869
30
0
41
1
10
-0.200000000000074
20
-7.06635659049329
30
0
0
SPLINE
5
FF
100
AcDbEntity
8
SK1
62
256
6
ByLayer
370
-1
48
1
60
0
100
AcDbSpline
70
4
71
3
72
89
73
85
40
0
40
0
40
0
40
0
40
0.0069866519746636
40
0.0210727456086413
40
0.035158839242619
40
0.0422018860596079
40
0.0492449328765967
40
0.0527664562850911
40
0.0562879796935856
40
0.05980950310208
40
0.0633310265105744
40
0.0703740733275633
40
0.0774171201445521
40
0.0915032137785298
40
0.105589307412507
40
0.119675401046485
40
0.133761494680463
40
0.147847588314441
40
0.161933681948418
40
0.176019775582396
40
0.190105869216374
40
0.204191962850351
40
0.218278056484329
40
0.232364150118307
40
0.246450243752284
40
0.260536337386262
40
0.27462243102024
40
0.288708524654218
40
0.302794618288195
40
0.316880711922173
40
0.330966805556151
40
0.345052899190128
40
0.359138992824106
40
0.373225086458084
40
0.387311180092062
40
0.401397273726039
40
0.415483367360017
40
0.429569460993995
40
0.443655554627972
40
0.45774164826195
40
0.471827741895928
40
0.485913835529905
40
0.499999929163883
40
0.514086022797861
40
0.528172116431838
40
0.542258210065816
40
0.556344303699794
40
0.570430397333772
40
0.584516490967749
40
0.598602584601727
40
0.612688678235705
40
0.626774771869682
40
0.64086086550366
40
0.654946959137638
40
0.669033052771616
40
0.683119146405593
40
0.697205240039571
40
0.711291333673549
40
0.725377427307526
40
0.739463520941504
40
0.753549614575482
40
0.767635708209459
40
0.781721801843437
40
0.795807895477415
40
0.809893989111393
40
0.82398008274537
40
0.838066176379348
40
0.852152270013326
40
0.866238363647303
40
0.880324457281281
40
0.894410550915259
40
0.908496644549237
40
0.922582738183214
40
0.929625785000203
40
0.936668831817192
40
0.940190355225686
40
0.943711878634181
40
0.947233402042675
40
0.95075492545117
40
0.957797972268158
40
0.964841019085147
40
0.978927112719125
40
0.993013206353103
40
1
40
1
40
1
40
1
41
1
10
-2.00000000000003
20
-21.5597582036618
30
0
41
1
10
-2.00000000000003
20
-21.5823348025434
30
0
41
1
10
-2.00000000000003
20
-21.6471330997758
30
0
41
1
10
-2
20
-21.7367552760374
30
0
41
1
10
-2
20
-21.795767724447
30
0
41
1
10
-2
20
-21.8207574214533
30
0
41
1
10
-2
20
-21.8262248087307
30
0
41
1
10
-2
20
-21.8240288460024
30
0
41
1
10
-2
20
-21.8189793414588
30
0
41
1
10
-2
20
-21.8103813172626
30
0
41
1
10
-2
20
-21.7940462079955
30
0
41
1
10
-2
20
-21.7642160490035
30
0
41
1
10
-2
20
-21.6949779936854
30
0
41
1
10
-2
20
-21.5661676526815
30
0
41
1
10
-2
20
-21.3371910810194
30
0
41
1
10
-2
20
-21.0285622078674
30
0
41
1
10
-2
20
-20.6365187777369
30
0
41
1
10
-2
20
-20.1589996983693
30
0
41
1
10
-2.00000000000003
20
-19.5958617698656
30
0
41
1
10
-2.00000000000003
20
-18.9489598758679
30
0
41
1
10
-2.00000000000003
20
-18.2221705966385
30
0
41
1
10
-2.00000000000003
20
-17.4213307857328
30
0
41
1
10
-2.00000000000003
20
-16.5541009338831
30
0
41
1
10
-2.00000000000003
20
-15.6297568996197
30
0
41
1
10
-2.00000000000003
20
-14.6589138549468
30
0
41
1
10
-2.00000000000003
20
-13.6532009067709
30
0
41
1
10
-2.00000000000003
20
-12.6248857298215
30
0
41
1
10
-2.00000000000003
20
-11.5864803035381
30
0
41
1
10
-2.00000000000003
20
-10.5503219390466
30
0
41
1
10
-2.00000000000003
20
-9.5281693138144
30
0
41
1
10
-2.00000000000003
20
-8.53080274713156
30
0
41
1
10
-2.00000000000003
20
-7.56767168233321
30
0
41
1
10
-2.00000000000003
20
-6.64657466016962
30
0
41
1
10
-2.00000000000003
20
-5.77341249237057
30
0
41
1
10
-2.00000000000003
20
-4.95199325849538
30
0
41
1
10
-2.00000000000003
20
-4.18393961035022
30
0
41
1
10
-2.00000000000003
20
-3.46864023496266
30
0
41
1
10
-2.00000000000003
20
-2.80331262467871
30
0
41
1
10
-2.00000000000003
20
-2.18314518734891
30
0
41
1
10
-2.00000000000003
20
-1.60149397612398
30
0
41
1
10
-2.00000000000003
20
-1.05016386127724
30
0
41
1
10
-2.00000000000003
20
-0.519747329370034
30
0
41
1
10
-2.00000000000003
20
-2.174625422E-07
30
0
41
1
10
-2.00000000000003
20
0.519747796859832
30
0
41
1
10
-2.00000000000003
20
1.05016384629153
30
0
41
1
10
-2.00000000000003
20
1.60149393775734
30
0
41
1
10
-2.00000000000003
20
2.18314499792095
30
0
41
1
10
-2.00000000000003
20
2.80331286928887
30
0
41
1
10
-2.00000000000003
20
3.46863999985663
30
0
41
1
10
-2.00000000000003
20
4.18394012013403
30
0
41
1
10
-2.00000000000003
20
4.95199329354998
30
0
41
1
10
-2.00000000000003
20
5.77341227102076
30
0
41
1
10
-2.00000000000003
20
6.64657476441815
30
0
41
1
10
-2.00000000000003
20
7.56767138772486
30
0
41
1
10
-2.00000000000003
20
8.53080293175961
30
0
41
1
10
-2.00000000000003
20
9.52816888083231
30
0
41
1
10
-2.00000000000003
20
10.5503221797328
30
0
41
1
10
-2.00000000000003
20
11.5864797887658
30
0
41
1
10
-2.00000000000003
20
12.6248859949608
30
0
41
1
10
-2.00000000000003
20
13.6532003777634
30
0
41
1
10
-2.00000000000003
20
14.6589141102143
30
0
41
1
10
-2.00000000000003
20
15.6297564245795
30
0
41
1
10
-2.00000000000003
20
16.5541011472568
30
0
41
1
10
-2.00000000000003
20
17.4213304234775
30
0
41
1
10
-2.00000000000003
20
18.2221707430851
30
0
41
1
10
-2.00000000000003
20
18.9489596670075
30
0
41
1
10
-2.00000000000003
20
19.5958618349948
30
0
41
1
10
-2
20
20.1589996510313
30
0
41
1
10
-2
20
20.6365184914532
30
0
41
1
10
-2
20
21.0285634421464
30
0
41
1
10
-2
20
21.337187169909
30
0
41
1
10
-2
20
21.5661689793568
30
0
41
1
10
-2
20
21.694977581428
30
0
41
1
10
-2
20
21.7642160759136
30
0
41
1
10
-2
20
21.7940468728384
30
0
41
1
10
-2
20
21.810382005051
30
0
41
1
10
-2
20
21.8189797158788
30
0
41
1
10
-2
20
21.8240291114512
30
0
41
1
10
-2
20
21.8262247109581
30
0
41
1
10
-2
20
21.8207568792357
30
0
41
1
10
-2
20
21.7957672612685
30
0
41
1
10
-2
20
21.7367554969224
30
0
41
1
10
-2
20
21.6471329115655
30
0
41
1
10
-2.00000000000003
20
21.5823341885471
30
0
41
1
10
-2.00000000000003
20
21.5597571092483
30
0
0
SPLINE
5
100
100
AcDbEntity
8
SK1
62
256
6
ByLayer
370
-1
48
1
60
0
100
AcDbSpline
70
4
71
3
72
35
73
31
40
0
40
0
40
0
40
0
40
0.0142712161724369
40
0.0251637230848168
40
0.0360562299971967
40
0.0469487369095766
40
0.0578412438219565
40
0.0796262576467163
40
0.101411271471476
40
0.144981299120996
40
0.188551326770515
40
0.232121354420035
40
0.275691382069554
40
0.319261409719074
40
0.362831437368594
40
0.406401465018113
40
0.449971492667633
40
0.493541520317152
40
0.537111547966672
40
0.580681575616191
40
0.624251603265711
40
0.667821630915231
40
0.71139165856475
40
0.75496168621427
40
0.798531713863789
40
0.842101741513309
40
0.885671769162829
40
0.929241796812348
40
0.972811824461868
40
1
40
1
40
1
40
1
41
1
10
-0.400000000000034
20
-21.8223596902958
30
0
41
1
10
-0.400000000000034
20
-21.8241924484932
30
0
41
1
10
-0.400000000000034
20
-21.8258461075803
30
0
41
1
10
-0.400000000000006
20
-21.8240288460024
30
0
41
1
10
-0.400000000000006
20
-21.8189793414588
30
0
41
1
10
-0.400000000000006
20
-21.8103813172626
30
0
41
1
10
-0.400000000000034
20
-21.7940462079955
30
0
41
1
10
-0.400000000000034
20
-21.7642160490035
30
0
41
1
10
-0.400000000000034
20
-21.6949779936854
30
0
41
1
10
-0.400000000000034
20
-21.5661676526815
30
0
41
1
10
-0.400000000000034
20
-21.3371910810194
30
0
41
1
10
-0.400000000000034
20
-21.0285622078674
30
0
41
1
10
-0.400000000000034
20
-20.6365187777369
30
0
41
1
10
-0.400000000000034
20
-20.1589996983693
30
0
41
1
10
-0.400000000000034
20
-19.5958617698656
30
0
41
1
10
-0.400000000000034
20
-18.9489598758679
30
0
41
1
10
-0.400000000000034
20
-18.2221705966385
30
0
41
1
10
-0.400000000000034
20
-17.4213307857328
30
0
41
1
10
-0.400000000000034
20
-16.5541009338831
30
0
41
1
10
-0.400000000000034
20
-15.6297568996197
30
0
41
1
10
-0.400000000000034
20
-14.6589138549468
30
0
41
1
10
-0.400000000000034
20
-13.6532009067709
30
0
41
1
10
-0.400000000000034
20
-12.6248857298215
30
0
41
1
10
-0.400000000000034
20
-11.5864803035381
30
0
41
1
10
-0.400000000000034
20
-10.5503219390466
30
0
41
1
10
-0.400000000000034
20
-9.5281693138144
30
0
41
1
10
-0.400000000000034
20
-8.53080274713156
30
0
41
1
10
-0.400000000000063
20
-7.56767168233321
30
0
41
1
10
-0.400000000000063
20
-6.76201544986952
30
0
41
1
10
-0.400000000000063
20
-6.28446221538795
30
0
41
1
10
-0.400000000000063
20
-6.10423197315535
30
0
0
SPLINE
5
101
100
AcDbEntity
8
SK1
62
256
6
ByLayer
370
-1
48
1
60
0
100
AcDbSpline
70
4
71
3
72
35
73
31
40
0
40
0
40
0
40
0
40
0.0271881725140123
40
0.0707581687414135
40
0.114328164968815
40
0.157898161196216
40
0.201468157423617
40
0.245038153651018
40
0.288608149878419
40
0.332178146105821
40
0.375748142333222
40
0.419318138560623
40
0.462888134788024
40
0.506458131015426
40
0.550028127242827
40
0.593598123470228
40
0.637168119697629
40
0.680738115925031
40
0.724308112152432
40
0.767878108379833
40
0.811448104607234
40
0.855018100834635
40
0.898588097062037
40
0.920373095175737
40
0.942158093289438
40
0.953050592346288
40
0.963943091403138
40
0.974835590459989
40
0.985728089516839
40
1
40
1
40
1
40
1
41
1
10
-0.400000000000063
20
6.10423156158009
30
0
41
1
10
-0.400000000000063
20
6.28446194326722
30
0
41
1
10
-0.400000000000063
20
6.76201538726676
30
0
41
1
10
-0.400000000000063
20
7.56767138772486
30
0
41
1
10
-0.400000000000034
20
8.53080293175961
30
0
41
1
10
-0.400000000000034
20
9.52816888083231
30
0
41
1
10
-0.400000000000034
20
10.5503221797328
30
0
41
1
10
-0.400000000000034
20
11.5864797887658
30
0
41
1
10
-0.400000000000034
20
12.6248859949608
30
0
41
1
10
-0.400000000000034
20
13.6532003777634
30
0
41
1
10
-0.400000000000034
20
14.6589141102143
30
0
41
1
10
-0.400000000000034
20
15.6297564245795
30
0
41
1
10
-0.400000000000034
20
16.5541011472568
30
0
41
1
10
-0.400000000000034
20
17.4213304234775
30
0
41
1
10
-0.400000000000034
20
18.2221707430851
30
0
41
1
10
-0.400000000000034
20
18.9489596670075
30
0
41
1
10
-0.400000000000034
20
19.5958618349948
30
0
41
1
10
-0.400000000000034
20
20.1589996510313
30
0
41
1
10
-0.400000000000034
20
20.6365184914532
30
0
41
1
10
-0.400000000000034
20
21.0285634421464
30
0
41
1
10
-0.400000000000034
20
21.337187169909
30
0
41
1
10
-0.400000000000034
20
21.5661689793568
30
0
41
1
10
-0.400000000000034
20
21.694977581428
30
0
41
1
10
-0.400000000000034
20
21.7642160759136
30
0
41
1
10
-0.400000000000034
20
21.7940468728384
30
0
41
1
10
-0.400000000000006
20
21.810382005051
30
0
41
1
10
-0.400000000000006
20
21.8189797158788
30
0
41
1
10
-0.400000000000006
20
21.8240291114512
30
0
41
1
10
-0.400000000000006
20
21.8258461079532
30
0
41
1
10
-0.400000000000034
20
21.82419211437
30
0
41
1
10
-0.400000000000006
20
21.8223590884182
30
0
0
SPLINE
5
102
100
AcDbEntity
8
SK1
62
256
6
ByLayer
370
-1
48
1
60
0
100
AcDbSpline
70
4
71
3
72
24
73
20
40
0
40
0
40
0
40
0
40
0.029415339938921
40
0.029415339938921
40
0.0518467100213713
40
0.0518467100213713
40
0.0692787757243899
40
0.0692787757243899
40
0.0867341179257951
40
0.0867341179257951
40
0.110052112814911
40
0.110052112814911
40
0.151327143358807
40
0.151327143358807
40
0.280433151236762
40
0.280433151236762
40
0.826010984226231
40
0.826010984226231
40
1
40
1
40
1
40
1
41
1
10
-0.400000000000063
20
6.10423156158006
30
0
41
1
10
-0.39416832201357
20
6.0984378364349
30
0
41
1
10
-0.387759070234381
20
6.09310363146565
30
0
41
1
10
-0.375252799010866
20
6.08576185737678
30
0
41
1
10
-0.369325414442443
20
6.08323164407952
30
0
41
1
10
-0.358286953254265
20
6.08095158529639
30
0
41
1
10
-0.35318139109782
20
6.08071718931328
30
0
41
1
10
-0.343215930012207
20
6.08206381901587
30
0
41
1
10
-0.338244421136807
20
6.08366165110795
30
0
41
1
10
-0.327535291974414
20
6.08894854878486
30
0
41
1
10
-0.321910546955053
20
6.09319179328202
30
0
41
1
10
-0.308125841787699
20
6.1063104020192
30
0
41
1
10
-0.300919930144914
20
6.11641452751712
30
0
41
1
10
-0.27546743580686
20
6.15911632586153
30
0
41
1
10
-0.263960841290896
20
6.19549277148192
30
0
41
1
10
-0.214259344319259
20
6.38188374133708
30
0
41
1
10
-0.20677942828101
20
6.5373918542702
30
0
41
1
10
-0.2006609556407
20
6.7376412219165
30
0
41
1
10
-0.200000000000216
20
6.78608759881158
30
0
41
1
10
-0.200000000000074
20
6.83438537300094
30
0
0
SPLINE
5
103
100
AcDbEntity
8
SK1
62
256
6
ByLayer
370
-1
48
1
60
0
100
AcDbSpline
70
4
71
3
72
26
73
22
40
0
40
0
40
0
40
0
40
0.457923600856105
40
0.457923600856105
40
0.670531455381564
40
0.670531455381564
40
0.777312304321628
40
0.777312304321628
40
0.85562458160685
40
0.85562458160685
40
0.882245097500193
40
0.882245097500193
40
0.909233674833636
40
0.909233674833636
40
0.927145375687168
40
0.927145375687168
40
0.94513595423867
40
0.94513595423867
40
0.967293802310239
40
0.967293802310239
40
1
40
1
40
1
40
1
41
1
10
-0.200000000000046
20
-6.83438539664965
30
0
41
1
10
-0.200000000000046
20
-6.70719073091024
30
0
41
1
10
-0.203979144864121
20
-6.57870929193157
30
0
41
1
10
-0.223627541461042
20
-6.39017150226596
30
0
41
1
10
-0.231853472691626
20
-6.33010102013236
30
0
41
1
10
-0.251444012213824
20
-6.24081591520616
30
0
41
1
10
-0.259216096655962
20
-6.21099031479625
30
0
41
1
10
-0.277247637353241
20
-6.16071699918317
30
0
41
1
10
-0.286250660556362
20
-6.13953740203621
30
0
41
1
10
-0.302932806634829
20
-6.11392996324469
30
0
41
1
10
-0.307645108303149
20
-6.10762540709976
30
0
41
1
10
-0.318350610916298
20
-6.09617933549782
30
0
41
1
10
-0.324493078466162
20
-6.09093379280867
30
0
41
1
10
-0.335880535666092
20
-6.08462414761274
30
0
41
1
10
-0.340842620996938
20
-6.08272810789859
30
0
41
1
10
-0.350925208731582
20
-6.08080706244004
30
0
41
1
10
-0.356163682835501
20
-6.08077671184125
30
0
41
1
10
-0.367263062380886
20
-6.08257928125934
30
0
41
1
10
-0.373161858956763
20
-6.08482424567788
30
0
41
1
10
-0.386495243089513
20
-6.09205228504601
30
0
41
1
10
-0.393601922598037
20
-6.09787553754282
30
0
41
1
10
-0.400000000000063
20
-6.10423197315535
30
0
0
SPLINE
5
104
100
AcDbEntity
8
SK1
62
256
6
ByLayer
370
-1
48
1
60
0
100
AcDbSpline
70
4
71
3
72
10
73
6
40
0
40
0
40
0
40
0
40
0.5
40
0.5
40
1
40
1
40
1
40
1
41
1
10
-1.30710678118655
20
4.69591747913023
30
0
41
1
10
-1.57554674537735
20
3.20453676372955
30
0
41
1
10
-1.78936151312067
20
1.60679765765514
30
0
41
1
10
-1.7893657244158
20
-1.60676394111792
30
0
41
1
10
-1.57555073250512
20
-3.20452084810844
30
0
41
1
10
-1.30710678118655
20
-4.69591515673878
30
0
0
SPLINE
5
105
100
AcDbEntity
8
SK1
62
256
6
ByLayer
370
-1
48
1
60
0
100
AcDbSpline
70
4
71
3
72
41
73
37
40
0
40
0
40
0
40
0
40
0.007391494237509
40
0.0381795271858079
40
0.0689675601341068
40
0.0997555930824056
40
0.130543626030704
40
0.161331658979003
40
0.192119691927302
40
0.222907724875601
40
0.2536957578239
40
0.284483790772199
40
0.315271823720498
40
0.346059856668797
40
0.376847889617095
40
0.407635922565394
40
0.438423955513693
40
0.469211988461992
40
0.500000021410291
40
0.53078805435859
40
0.561576087306889
40
0.592364120255187
40
0.623152153203486
40
0.653940186151785
40
0.684728219100084
40
0.715516252048383
40
0.746304284996682
40
0.777092317944981
40
0.80788035089328
40
0.838668383841578
40
0.869456416789877
40
0.900244449738176
40
0.931032482686475
40
0.961820515634774
40
0.992608548583073
40
1
40
1
40
1
40
1
41
1
10
-2.20000000000002
20
-13.0172213663963
30
0
41
1
10
-2.20000000000002
20
-12.9342686300227
30
0
41
1
10
-2.20000000000002
20
-12.5051206457301
30
0
41
1
10
-2.20000000000002
20
-11.7250496651539
30
0
41
1
10
-2.20000000000005
20
-10.6821841203164
30
0
41
1
10
-2.20000000000005
20
-9.65290702831456
30
0
41
1
10
-2.20000000000005
20
-8.64799550189099
30
0
41
1
10
-2.20000000000005
20
-7.67690008468335
30
0
41
1
10
-2.20000000000005
20
-6.74742564249959
30
0
41
1
10
-2.20000000000005
20
-5.86548459766766
30
0
41
1
10
-2.20000000000005
20
-5.03490606621628
30
0
41
1
10
-2.20000000000005
20
-4.25733224556416
30
0
41
1
10
-2.20000000000005
20
-3.53218547491991
30
0
41
1
10
-2.20000000000005
20
-2.85672457058874
30
0
41
1
10
-2.20000000000005
20
-2.22617587980838
30
0
41
1
10
-2.20000000000005
20
-1.63394237813659
30
0
41
1
10
-2.20000000000005
20
-1.07188018667165
30
0
41
1
10
-2.20000000000005
20
-0.530630287446883
30
0
41
1
10
-2.20000000000005
20
-1.106293723E-07
30
0
41
1
10
-2.20000000000005
20
0.530630729964514
30
0
41
1
10
-2.20000000000005
20
1.071879983012
30
0
41
1
10
-2.20000000000005
20
1.63394275025792
30
0
41
1
10
-2.20000000000005
20
2.22617572634954
30
0
41
1
10
-2.20000000000005
20
2.85672481230316
30
0
41
1
10
-2.20000000000005
20
3.53218539687694
30
0
41
1
10
-2.20000000000005
20
4.25733231602189
30
0
41
1
10
-2.20000000000005
20
5.03490607772241
30
0
41
1
10
-2.20000000000005
20
5.86548448118575
30
0
41
1
10
-2.20000000000005
20
6.74742574458529
30
0
41
1
10
-2.20000000000005
20
7.67689979282272
30
0
41
1
10
-2.20000000000005
20
8.64799568243498
30
0
41
1
10
-2.20000000000005
20
9.65290659799953
30
0
41
1
10
-2.20000000000005
20
10.682184355967
30
0
41
1
10
-2.20000000000002
20
11.7250491528666
30
0
41
1
10
-2.20000000000002
20
12.5051202255836
30
0
41
1
10
-2.20000000000002
20
12.9342676512693
30
0
41
1
10
-2.20000000000002
20
13.0172198852614
30
0
0
SPLINE
5
106
100
AcDbEntity
8
SK1
62
256
6
ByLayer
370
-1
48
1
60
0
100
AcDbSpline
70
4
71
3
72
14
73
10
40
0
40
0
40
0
40
0
40
0.0892778036656113
40
0.247391405879012
40
0.405505008092413
40
0.563618610305814
40
0.721732212519214
40
0.879845814732615
40
1
40
1
40
1
40
1
41
1
10
-2.20000000000005
20
-18.8057993596818
30
0
41
1
10
-2.20000000000005
20
-18.6693910739181
30
0
41
1
10
-2.20000000000005
20
-18.2799599309246
30
0
41
1
10
-2.20000000000005
20
-17.5918777596154
30
0
41
1
10
-2.20000000000005
20
-16.7202497496932
30
0
41
1
10
-2.20000000000005
20
-15.7911485945393
30
0
41
1
10
-2.20000000000005
20
-14.815180008725
30
0
41
1
10
-2.20000000000005
20
-13.8848855782656
30
0
41
1
10
-2.20000000000005
20
-13.2797943787494
30
0
41
1
10
-2.20000000000005
20
-13.0172213663963
30
0
0
SPLINE
5
107
100
AcDbEntity
8
SK1
62
256
6
ByLayer
370
-1
48
1
60
0
100
AcDbSpline
70
4
71
3
72
14
73
10
40
0
40
0
40
0
40
0
40
0.120154373856292
40
0.278267934857049
40
0.436381495857807
40
0.594495056858564
40
0.752608617859322
40
0.910722178860079
40
1
40
1
40
1
40
1
41
1
10
-2.20000000000005
20
13.0172198852615
30
0
41
1
10
-2.20000000000005
20
13.2797933091173
30
0
41
1
10
-2.20000000000005
20
13.8848846449069
30
0
41
1
10
-2.20000000000005
20
14.8151802586186
30
0
41
1
10
-2.20000000000005
20
15.7911481216639
30
0
41
1
10
-2.20000000000005
20
16.7202499579617
30
0
41
1
10
-2.20000000000005
20
17.5918773994171
30
0
41
1
10
-2.20000000000005
20
18.2799600689861
30
0
41
1
10
-2.20000000000005
20
18.6693911858535
30
0
41
1
10
-2.20000000000005
20
18.8057994981524
30
0
0
SPLINE
5
108
100
AcDbEntity
8
SK1
62
256
6
ByLayer
370
-1
48
1
60
0
100
AcDbSpline
70
4
71
3
72
10
73
6
40
0
40
0
40
0
40
0
40
0.815535209407514
40
0.815535209407514
40
1
40
1
40
1
40
1
41
1
10
-2.20000000000002
20
18.8057994981526
30
0
41
1
10
-2.20000000000002
20
20.4449035848964
30
0
41
1
10
-2.20000226725097
20
21.5642089788153
30
0
41
1
10
-2.19995739562611
20
21.9906791116888
30
0
41
1
10
-2.1999466131706
20
22.0297937659104
30
0
41
1
10
-2.1999324903999
20
22.0201003651303
30
0
0
SPLINE
5
109
100
AcDbEntity
8
SK1
62
256
6
ByLayer
370
-1
48
1
60
0
100
AcDbSpline
70
4
71
3
72
10
73
6
40
0
40
0
40
0
40
0
40
0.184720294171111
40
0.184720294171111
40
1
40
1
40
1
40
1
41
1
10
-2.19993251944561
20
-22.0200998352693
30
0
41
1
10
-2.19994665903528
20
-22.0297472180208
30
0
41
1
10
-2.19995744775554
20
-21.9904506733853
30
0
41
1
10
-2.20000225739005
20
-21.5631208004151
30
0
41
1
10
-2.20000000000002
20
-20.4409087780279
30
0
41
1
10
-2.20000000000002
20
-18.8057993596817
30
0
0
SPLINE
5
10A
100
AcDbEntity
8
SK1
62
256
6
ByLayer
370
-1
48
1
60
0
100
AcDbSpline
70
4
71
3
72
30
73
26
40
0
40
0
40
0
40
0
40
0.0494254068211986
40
0.0494254068211986
40
0.162151696848637
40
0.162151696848637
40
0.274877986876075
40
0.274877986876075
40
0.387604276903514
40
0.387604276903514
40
0.443967421917232
40
0.443967421917232
40
0.500330566930951
40
0.500330566930951
40
0.556693711944671
40
0.556693711944671
40
0.61305685695839
40
0.61305685695839
40
0.725783146985828
40
0.725783146985828
40
0.838509437013266
40
0.838509437013266
40
0.951235727040704
40
0.951235727040704
40
1
40
1
40
1
40
1
41
1
10
-38
20
20.2392632073042
30
0
41
1
10
-38
20
20.2297766251566
30
0
41
1
10
-38
20
20.1189253475731
30
0
41
1
10
-38
20
19.5109775832533
30
0
41
1
10
-38
20
18.6889979072776
30
0
41
1
10
-38
20
16.4175846149627
30
0
41
1
10
-38
20
15.00539897115
30
0
41
1
10
-38
20
11.5689429816358
30
0
41
1
10
-38
20
9.61803198977765
30
0
41
1
10
-38
20
6.24193582485267
30
0
41
1
10
-38
20
5.05699985536288
30
0
41
1
10
-38.0000000000001
20
2.5463534500615
30
0
41
1
10
-38
20
1.22336920362281
30
0
41
1
10
-38
20
-1.46022125994642
30
0
41
1
10
-38.0000000000001
20
-2.7469681303283
30
0
41
1
10
-38
20
-5.25145536838906
30
0
41
1
10
-38
20
-6.41785776757257
30
0
41
1
10
-38
20
-9.7409919139817
30
0
41
1
10
-38
20
-11.7132395268024
30
0
41
1
10
-38
20
-15.0659846264138
30
0
41
1
10
-38
20
-16.5093616755975
30
0
41
1
10
-38
20
-18.7169170461929
30
0
41
1
10
-38
20
-19.5446051221466
30
0
41
1
10
-38
20
-20.1301478242477
30
0
41
1
10
-38
20
-20.2343728630619
30
0
41
1
10
-38
20
-20.2414197927467
30
0
0
SPLINE
5
10B
100
AcDbEntity
8
SK1
62
256
6
ByLayer
370
-1
48
1
60
0
100
AcDbSpline
70
4
71
3
72
30
73
26
40
0
40
0
40
0
40
0
40
0.0542490546581282
40
0.0542490546581282
40
0.165460101417734
40
0.165460101417734
40
0.27667114817734
40
0.27667114817734
40
0.387882194936946
40
0.387882194936946
40
0.443487718316749
40
0.443487718316749
40
0.499093241696552
40
0.499093241696552
40
0.554698765076355
40
0.554698765076355
40
0.610304288456158
40
0.610304288456158
40
0.721515335215764
40
0.721515335215764
40
0.832726381975371
40
0.832726381975371
40
0.943937428734976
40
0.943937428734976
40
1
40
1
40
1
40
1
41
1
10
-36.5005632538168
20
-21.1559417479129
30
0
41
1
10
-36.500179333071
20
-21.1775059213569
30
0
41
1
10
-36.4998534187812
20
-21.0651308056636
30
0
41
1
10
-36.4990234278431
20
-20.4359824847083
30
0
41
1
10
-36.4986513003428
20
-19.5809467365899
30
0
41
1
10
-36.4982289992221
20
-17.3073839665174
30
0
41
1
10
-36.4981680301126
20
-15.8226883694876
30
0
41
1
10
-36.4983497010421
20
-12.3657594161816
30
0
41
1
10
-36.4986235554555
20
-10.3317895107231
30
0
41
1
10
-36.4992226044754
20
-6.86901382935184
30
0
41
1
10
-36.4995063752797
20
-5.6480080347103
30
0
41
1
10
-36.5000888678234
20
-2.99378711493711
30
0
41
1
10
-36.5004483212166
20
-1.60517711662916
30
0
41
1
10
-36.5004962021382
20
1.34546150294656
30
0
41
1
10
-36.5001371439227
20
2.77915130117415
30
0
41
1
10
-36.4995516267145
20
5.44330349430788
30
0
41
1
10
-36.4992583435906
20
6.68532501177498
30
0
41
1
10
-36.4986445388472
20
10.2043262286463
30
0
41
1
10
-36.4983633305393
20
12.2168021926579
30
0
41
1
10
-36.4981658319002
20
15.7604142418405
30
0
41
1
10
-36.4982196339561
20
17.2128923729824
30
0
41
1
10
-36.4986381979556
20
19.5521593073096
30
0
41
1
10
-36.4990008651294
20
20.401522180746
30
0
41
1
10
-36.4998341357646
20
21.0586613189451
30
0
41
1
10
-36.5001553634033
20
21.1795976769367
30
0
41
1
10
-36.5005431558405
20
21.153596144717
30
0
0
SPLINE
5
10C
100
AcDbEntity
8
SK1
62
256
6
ByLayer
370
-1
48
1
60
0
100
AcDbSpline
70
4
71
3
72
10
73
6
40
0
40
0
40
0
40
0
40
0.931951483854432
40
0.931951483854432
40
1
40
1
40
1
40
1
41
1
10
-2.84E-14
20
-6.53762644691741
30
0
41
1
10
-0.04849145953483
20
-6.70686335370419
30
0
41
1
10
-0.104961398284928
20
-6.8740004138196
30
0
41
1
10
-0.188237156292189
20
-7.04340072103489
30
0
41
1
10
-0.194048735538786
20
-7.05491037332897
30
0
41
1
10
-0.200000000000273
20
-7.06635659049311
30
0
0
SPLINE
5
10D
100
AcDbEntity
8
SK1
62
256
6
ByLayer
370
-1
48
1
60
0
100
AcDbSpline
70
4
71
3
72
10
73
6
40
0
40
0
40
0
40
0
40
0.368997675669209
40
0.368997675669209
40
1
40
1
40
1
40
1
41
1
10
-0.200000000000159
20
7.06635637915053
30
0
41
1
10
-0.167862826598565
20
7.00454621757669
30
0
41
1
10
-0.139671627572142
20
6.94091959541149
30
0
41
1
10
-0.0698615112816867
20
6.76585631953489
30
0
41
1
10
-0.0328909637924539
20
6.65241705190053
30
0
41
1
10
-2.84E-14
20
6.53762631735268
30
0
0
SPLINE
5
10E
100
AcDbEntity
8
SK1
62
256
6
ByLayer
370
-1
48
1
60
0
100
AcDbSpline
70
4
71
3
72
87
73
83
40
0
40
0
40
0
40
0
40
0.0064304548278423
40
0.0205324396951169
40
0.0346344245623915
40
0.0416854169960288
40
0.0487364094296661
40
0.0522619056464847
40
0.0557874018633034
40
0.0628383942969406
40
0.0698893867305779
40
0.0769403791642152
40
0.0910423640314898
40
0.105144348898764
40
0.119246333766039
40
0.133348318633314
40
0.147450303500588
40
0.161552288367863
40
0.175654273235137
40
0.189756258102412
40
0.203858242969686
40
0.217960227836961
40
0.232062212704236
40
0.24616419757151
40
0.260266182438785
40
0.27436816730606
40
0.288470152173334
40
0.302572137040609
40
0.316674121907883
40
0.330776106775158
40
0.344878091642432
40
0.358980076509707
40
0.373082061376982
40
0.387184046244256
40
0.401286031111531
40
0.415388015978805
40
0.42949000084608
40
0.443591985713355
40
0.457693970580629
40
0.471795955447904
40
0.485897940315178
40
0.499999925182453
40
0.514101910049728
40
0.528203894917002
40
0.542305879784277
40
0.556407864651551
40
0.570509849518826
40
0.5846118343861
40
0.598713819253375
40
0.61281580412065
40
0.626917788987924
40
0.641019773855199
40
0.655121758722473
40
0.669223743589748
40
0.683325728457023
40
0.697427713324297
40
0.711529698191572
40
0.725631683058846
40
0.739733667926121
40
0.753835652793395
40
0.76793763766067
40
0.782039622527945
40
0.796141607395219
40
0.810243592262494
40
0.824345577129768
40
0.838447561997043
40
0.852549546864318
40
0.866651531731592
40
0.880753516598867
40
0.894855501466141
40
0.908957486333416
40
0.923059471200691
40
0.930110463634328
40
0.937161456067965
40
0.944212448501602
40
0.947737944718421
40
0.95126344093524
40
0.958314433368877
40
0.965365425802514
40
0.979467410669789
40
0.993569395537063
40
1
40
1
40
1
40
1
41
1
10
-2.99999999999997
20
21.7373117305314
30
0
41
1
10
-2.99999999999997
20
21.7581505749654
30
0
41
1
10
-2.99999999999997
20
21.8216572689876
30
0
41
1
10
-3
20
21.9107797633372
30
0
41
1
10
-3
20
21.9704004421262
30
0
41
1
10
-3
20
21.9955838514163
30
0
41
1
10
-3
20
22.0011048464384
30
0
41
1
10
-3
20
21.9988957932114
30
0
41
1
10
-3
20
21.9921074341117
30
0
41
1
10
-3
20
21.9747088550401
30
0
41
1
10
-3
20
21.9386456245555
30
0
41
1
10
-3
20
21.868993702256
30
0
41
1
10
-3
20
21.7393283758615
30
0
41
1
10
-3
20
21.5090390087807
30
0
41
1
10
-3
20
21.1987879004755
30
0
41
1
10
-3
20
20.8048153118584
30
0
41
1
10
-3
20
20.3250833271079
30
0
41
1
10
-3
20
19.7594566764181
30
0
41
1
10
-3
20
19.1097943347758
30
0
41
1
10
-3
20
18.3799726709714
30
0
41
1
10
-3
20
17.5758204617336
30
0
41
1
10
-3
20
16.7049885958267
30
0
41
1
10
-3
20
15.7767347946731
30
0
41
1
10
-3
20
14.8016577436088
30
0
41
1
10
-3
20
13.7913621958653
30
0
41
1
10
-3
20
12.7580964435599
30
0
41
1
10
-3
20
11.7143471465197
30
0
41
1
10
-3.00000000000003
20
10.6724342215934
30
0
41
1
10
-3.00000000000003
20
9.64409593406697
30
0
41
1
10
-3.00000000000003
20
8.64010224817511
30
0
41
1
10
-3.00000000000003
20
7.66989272366362
30
0
41
1
10
-3.00000000000003
20
6.74126705030582
30
0
41
1
10
-3.00000000000003
20
5.86013077636733
30
0
41
1
10
-3.00000000000003
20
5.03031048105601
30
0
41
1
10
-3.00000000000003
20
4.25344644766659
30
0
41
1
10
-3.00000000000003
20
3.5289614043765
30
0
41
1
10
-3.00000000000003
20
2.85411734459242
30
0
41
1
10
-3.00000000000003
20
2.22414379058173
30
0
41
1
10
-3.00000000000003
20
1.63245137350921
30
0
41
1
10
-3.00000000000003
20
1.07090162750731
30
0
41
1
10
-3.00000000000003
20
0.530146398226037
30
0
41
1
10
-3.00000000000003
20
-1.1052839E-07
30
0
41
1
10
-3.00000000000003
20
-0.530145956112307
30
0
41
1
10
-3.00000000000003
20
-1.07090183098106
30
0
41
1
10
-3.00000000000003
20
-1.63245100172756
30
0
41
1
10
-3.00000000000003
20
-2.22414394390051
30
0
41
1
10
-3.00000000000003
20
-2.85411710309862
30
0
41
1
10
-3.00000000000003
20
-3.52896148234822
30
0
41
1
10
-3.00000000000003
20
-4.25344637727321
30
0
41
1
10
-3.00000000000003
20
-5.03031046956039
30
0
41
1
10
-3.00000000000003
20
-5.86013089274292
30
0
41
1
10
-3.00000000000003
20
-6.7412669483133
30
0
41
1
10
-3.00000000000003
20
-7.66989301525788
30
0
41
1
10
-3.00000000000003
20
-8.64010206779591
30
0
41
1
10
-3.00000000000003
20
-9.64409636398926
30
0
41
1
10
-3.00000000000003
20
-10.6724339861579
30
0
41
1
10
-3.00000000000003
20
-11.7143476583394
30
0
41
1
10
-3
20
-12.7580961840504
30
0
41
1
10
-3
20
-13.7913627220832
30
0
41
1
10
-3
20
-14.8016574939434
30
0
41
1
10
-3
20
-15.7767352671169
30
0
41
1
10
-3
20
-16.7049883877483
30
0
41
1
10
-3
20
-17.5758208216031
30
0
41
1
10
-3
20
-18.3799725293323
30
0
41
1
10
-3
20
-19.1097945414623
30
0
41
1
10
-3
20
-19.759456615498
30
0
41
1
10
-3
20
-20.3250833641014
30
0
41
1
10
-3
20
-20.804815632754
30
0
41
1
10
-3
20
-21.1987865798995
30
0
41
1
10
-3
20
-21.5090429333437
30
0
41
1
10
-3
20
-21.7393270779667
30
0
41
1
10
-3
20
-21.868994103416
30
0
41
1
10
-3
20
-21.9386456157424
30
0
41
1
10
-3
20
-21.9747080149673
30
0
41
1
10
-3
20
-21.9921069826245
30
0
41
1
10
-3
20
-21.9988955684255
30
0
41
1
10
-3
20
-22.0011049359544
30
0
41
1
10
-3
20
-21.9955842966017
30
0
41
1
10
-3
20
-21.9704009616837
30
0
41
1
10
-3
20
-21.9107795104958
30
0
41
1
10
-3
20
-21.8216567028267
30
0
41
1
10
-2.99999999999997
20
-21.7581493948353
30
0
41
1
10
-2.99999999999997
20
-21.7373100020496
30
0
0
LINE
5
4A
100
AcDbEntity
8
80
62
256
6
ByLayer
370
-1
48
1
60
0
100
AcDbLine
10
0
20
0
30
0
11
-10
21
0
31
0
39
0
210
0
220
0
230
1
0
LINE
5
4B
100
AcDbEntity
8
81
62
256
6
ByLayer
370
-1
48
1
60
0
100
AcDbLine
10
175
20
-34.9
30
0
11
185
21
-34.9
31
0
39
0
210
0
220
0
230
1
0
LINE
5
4C
100
AcDbEntity
8
SK4
62
256
6
ByLayer
370
-1
48
0.05
60
0
100
AcDbLine
10
-43
20
0
30
0
11
179.673873
21
0
31
0
39
0
210
0
220
0
230
1
0
LINE
5
4E
100
AcDbEntity
8
4
62
256
6
ByLayer
370
-1
48
0.05
60
0
100
AcDbLine
10
0
20
0
30
0
11
217.673873
21
0
31
0
39
0
210
0
220
0
230
1
0
LINE
5
50
100
AcDbEntity
8
SK1
62
256
6
ByLayer
370
-1
48
1
60
0
100
AcDbLine
10
0
20
22.45
30
0
11
-0.2
21
22.45
31
0
39
0
210
0
220
0
230
1
0
LINE
5
52
100
AcDbEntity
8
SK1
62
256
6
ByLayer
370
-1
48
1
60
0
100
AcDbLine
10
-0.2
20
-22.45
30
0
11
0
21
-22.45
31
0
39
0
210
0
220
0
230
1
0
LINE
5
53
100
AcDbEntity
8
1
62
256
6
ByLayer
370
-1
48
1
60
0
100
AcDbLine
10
165.583153
20
-22.310414
30
0
11
165.573779
21
-22.280684
31
0
39
0
210
0
220
0
230
1
0
LINE
5
54
100
AcDbEntity
8
1
62
256
6
ByLayer
370
-1
48
1
60
0
100
AcDbLine
10
167.494787
20
-22.324744
30
0
11
167.528048
21
-22.430235
31
0
39
0
210
0
220
0
230
1
0
LINE
5
55
100
AcDbEntity
8
1
62
256
6
ByLayer
370
-1
48
1
60
0
100
AcDbLine
10
164.101742
20
-23.988605
30
0
11
164.13346
21
-24.089201
31
0
39
0
210
0
220
0
230
1
0
LINE
5
56
100
AcDbEntity
8
1
62
256
6
ByLayer
370
-1
48
1
60
0
100
AcDbLine
10
169.140474
20
-22.510495
30
0
11
169.108756
21
-22.4099
31
0
39
0
210
0
220
0
230
1
0
LINE
5
57
100
AcDbEntity
8
1
62
256
6
ByLayer
370
-1
48
1
60
0
100
AcDbLine
10
167.662667
20
-24.200114
30
0
11
167.699427
21
-24.316702
31
0
39
0
210
0
220
0
230
1
0
LINE
5
58
100
AcDbEntity
8
1
62
256
6
ByLayer
370
-1
48
1
60
0
100
AcDbLine
10
165.747529
20
-24.174671
30
0
11
165.714302
21
-24.069288
31
0
39
0
210
0
220
0
230
1
0
LINE
5
59
100
AcDbEntity
8
1
62
256
6
ByLayer
370
-1
48
1
60
0
100
AcDbLine
10
158.684988
20
-11.881795
30
0
11
158.580904
21
-11.968131
31
0
39
0
210
0
220
0
230
1
0
LINE
5
5A
100
AcDbEntity
8
1
62
256
6
ByLayer
370
-1
48
1
60
0
100
AcDbLine
10
0.3
20
31.5
30
0
11
0
21
31.2
31
0
39
0
210
0
220
0
230
1
0
LINE
5
5B
100
AcDbEntity
8
1
62
256
6
ByLayer
370
-1
48
1
60
0
100
AcDbLine
10
0
20
-31.2
30
0
11
0.3
21
-31.5
31
0
39
0
210
0
220
0
230
1
0
LINE
5
5C
100
AcDbEntity
8
1
62
256
6
ByLayer
370
-1
48
1
60
0
100
AcDbLine
10
21.5
20
31.5
30
0
11
0.3
21
31.5
31
0
39
0
210
0
220
0
230
1
0
LINE
5
5D
100
AcDbEntity
8
1
62
256
6
ByLayer
370
-1
48
1
60
0
100
AcDbLine
10
0.3
20
-31.5
30
0
11
21.5
21
-31.5
31
0
39
0
210
0
220
0
230
1
0
LINE
5
5E
100
AcDbEntity
8
1
62
256
6
ByLayer
370
-1
48
1
60
0
100
AcDbLine
10
21.5
20
-31.5
30
0
11
22.027828
21
-29.481834
31
0
39
0
210
0
220
0
230
1
0
LINE
5
5F
100
AcDbEntity
8
1
62
256
6
ByLayer
370
-1
48
1
60
0
100
AcDbLine
10
22.027828
20
29.481834
30
0
11
21.5
21
31.5
31
0
39
0
210
0
220
0
230
1
0
LINE
5
60
100
AcDbEntity
8
1
62
256
6
ByLayer
370
-1
48
1
60
0
100
AcDbLine
10
27.832582
20
-25
30
0
11
148.079053
21
-25
31
0
39
0
210
0
220
0
230
1
0
LINE
5
61
100
AcDbEntity
8
1
62
256
6
ByLayer
370
-1
48
1
60
0
100
AcDbLine
10
143.079053
20
25
30
0
11
27.832582
21
25
31
0
39
0
210
0
220
0
230
1
0
LINE
5
62
100
AcDbEntity
8
1
62
256
6
ByLayer
370
-1
48
1
60
0
100
AcDbLine
10
148.079053
20
-25
30
0
11
148.881252
21
-25.6045
31
0
39
0
210
0
220
0
230
1
0
LINE
5
63
100
AcDbEntity
8
1
62
256
6
ByLayer
370
-1
48
1
60
0
100
AcDbLine
10
13.461325
20
30.080593
30
0
11
10.538675
21
30.080593
31
0
39
0
210
0
220
0
230
1
0
LINE
5
64
100
AcDbEntity
8
1
62
256
6
ByLayer
370
-1
48
1
60
0
100
AcDbLine
10
10.105662
20
-9.869413
30
0
11
10.105662
21
-29.913955
31
0
39
0
210
0
220
0
230
1
0
LINE
5
65
100
AcDbEntity
8
1
62
256
6
ByLayer
370
-1
48
1
60
0
100
AcDbLine
10
156.872844
20
-14.852649
30
0
11
156.955929
21
-14.189943
31
0
39
0
210
0
220
0
230
1
0
LINE
5
66
100
AcDbEntity
8
1
62
256
6
ByLayer
370
-1
48
1
60
0
100
AcDbLine
10
0.3
20
31.5
30
0
11
0.3
21
-31.5
31
0
39
0
210
0
220
0
230
1
0
LINE
5
67
100
AcDbEntity
8
1
62
256
6
ByLayer
370
-1
48
1
60
0
100
AcDbLine
10
27.832582
20
-25
30
0
11
27.832582
21
25
31
0
39
0
210
0
220
0
230
1
0
LINE
5
68
100
AcDbEntity
8
1
62
256
6
ByLayer
370
-1
48
1
60
0
100
AcDbLine
10
170.316144
20
-19.172538
30
0
11
164.271067
21
0
31
0
39
0
210
0
220
0
230
1
0
LINE
5
69
100
AcDbEntity
8
1
62
256
6
ByLayer
370
-1
48
1
60
0
100
AcDbLine
10
13.461325
20
-9.349221
30
0
11
13.461325
21
-30.080593
31
0
39
0
210
0
220
0
230
1
0
LINE
5
6A
100
AcDbEntity
8
1
62
256
6
ByLayer
370
-1
48
1
60
0
100
AcDbLine
10
10.538675
20
-30.080593
30
0
11
13.461325
21
-30.080593
31
0
39
0
210
0
220
0
230
1
0
LINE
5
6B
100
AcDbEntity
8
1
62
256
6
ByLayer
370
-1
48
1
60
0
100
AcDbLine
10
21.5
20
31.5
30
0
11
21.5
21
-31.5
31
0
39
0
210
0
220
0
230
1
0
LINE
5
6C
100
AcDbEntity
8
1
62
256
6
ByLayer
370
-1
48
1
60
0
100
AcDbLine
10
10.105662
20
29.913955
30
0
11
10.105662
21
9.869413
31
0
39
0
210
0
220
0
230
1
0
LINE
5
6D
100
AcDbEntity
8
1
62
256
6
ByLayer
370
-1
48
1
60
0
100
AcDbLine
10
10.538675
20
9.349221
30
0
11
13.461325
21
9.349221
31
0
39
0
210
0
220
0
230
1
0
LINE
5
6E
100
AcDbEntity
8
1
62
256
6
ByLayer
370
-1
48
1
60
0
100
AcDbLine
10
158.516579
20
-25.674941
30
0
11
151.355079
21
-25.693024
31
0
39
0
210
0
220
0
230
1
0
LINE
5
6F
100
AcDbEntity
8
1
62
256
6
ByLayer
370
-1
48
1
60
0
100
AcDbLine
10
10.538675
20
30.080593
30
0
11
10.538675
21
9.349221
31
0
39
0
210
0
220
0
230
1
0
LINE
5
70
100
AcDbEntity
8
1
62
256
6
ByLayer
370
-1
48
1
60
0
100
AcDbLine
10
159.087766
20
-11.527693
30
0
11
159.154934
21
-11.740724
31
0
39
0
210
0
220
0
230
1
0
LINE
5
71
100
AcDbEntity
8
1
62
256
6
ByLayer
370
-1
48
1
60
0
100
AcDbLine
10
148.079053
20
-25
30
0
11
148.079053
21
-24.969139
31
0
39
0
210
0
220
0
230
1
0
LINE
5
72
100
AcDbEntity
8
1
62
256
6
ByLayer
370
-1
48
1
60
0
100
AcDbLine
10
161.276954
20
-25.484825
30
0
11
162.141823
21
-24.880865
31
0
39
0
210
0
220
0
230
1
0
LINE
5
73
100
AcDbEntity
8
1
62
256
6
ByLayer
370
-1
48
1
60
0
100
AcDbLine
10
13.461325
20
30.080593
30
0
11
13.461325
21
9.349221
31
0
39
0
210
0
220
0
230
1
0
LINE
5
74
100
AcDbEntity
8
1
62
256
6
ByLayer
370
-1
48
1
60
0
100
AcDbLine
10
13.894338
20
-9.869413
30
0
11
13.894338
21
-29.913955
31
0
39
0
210
0
220
0
230
1
0
LINE
5
75
100
AcDbEntity
8
1
62
256
6
ByLayer
370
-1
48
1
60
0
100
AcDbLine
10
22.027828
20
29.481834
30
0
11
22.027828
21
-29.481834
31
0
39
0
210
0
220
0
230
1
0
LINE
5
76
100
AcDbEntity
8
1
62
256
6
ByLayer
370
-1
48
1
60
0
100
AcDbLine
10
151.355079
20
-25.693024
30
0
11
159.706802
21
5.384416
31
0
39
0
210
0
220
0
230
1
0
LINE
5
77
100
AcDbEntity
8
1
62
256
6
ByLayer
370
-1
48
1
60
0
100
AcDbLine
10
13.894338
20
29.913955
30
0
11
13.894338
21
9.869413
31
0
39
0
210
0
220
0
230
1
0
LINE
5
78
100
AcDbEntity
8
1
62
256
6
ByLayer
370
-1
48
1
60
0
100
AcDbLine
10
156.86996
20
-13.917285
30
0
11
159.261021
21
-15.744132
31
0
39
0
210
0
220
0
230
1
0
LINE
5
79
100
AcDbEntity
8
1
62
256
6
ByLayer
370
-1
48
1
60
0
100
AcDbLine
10
156.832028
20
-11.729931
30
0
11
156.746059
21
-11.457273
31
0
39
0
210
0
220
0
230
1
0
LINE
5
7A
100
AcDbEntity
8
1
62
256
6
ByLayer
370
-1
48
1
60
0
100
AcDbLine
10
144.312991
20
23.544336
30
0
11
159.706802
21
5.384416
31
0
39
0
210
0
220
0
230
1
0
LINE
5
7B
100
AcDbEntity
8
1
62
256
6
ByLayer
370
-1
48
1
60
0
100
AcDbLine
10
159.648635
20
-16.97344
30
0
11
156.872844
21
-14.852649
31
0
39
0
210
0
220
0
230
1
0
LINE
5
7C
100
AcDbEntity
8
1
62
256
6
ByLayer
370
-1
48
1
60
0
100
AcDbLine
10
156.955929
20
-14.189943
30
0
11
159.346989
21
-16.01679
31
0
39
0
210
0
220
0
230
1
0
LINE
5
7D
100
AcDbEntity
8
1
62
256
6
ByLayer
370
-1
48
1
60
0
100
AcDbLine
10
13.461325
20
-9.349221
30
0
11
10.538675
21
-9.349221
31
0
39
0
210
0
220
0
230
1
0
LINE
5
7E
100
AcDbEntity
8
1
62
256
6
ByLayer
370
-1
48
1
60
0
100
AcDbLine
10
0
20
31.2
30
0
11
0
21
-31.2
31
0
39
0
210
0
220
0
230
1
0
LINE
5
7F
100
AcDbEntity
8
1
62
256
6
ByLayer
370
-1
48
1
60
0
100
AcDbLine
10
156.86996
20
-13.917285
30
0
11
156.955929
21
-14.189943
31
0
39
0
210
0
220
0
230
1
0
LINE
5
80
100
AcDbEntity
8
1
62
256
6
ByLayer
370
-1
48
1
60
0
100
AcDbLine
10
159.706802
20
5.384416
30
0
11
164.271067
21
0
31
0
39
0
210
0
220
0
230
1
0
LINE
5
81
100
AcDbEntity
8
1
62
256
6
ByLayer
370
-1
48
1
60
0
100
AcDbLine
10
170.316144
20
-19.172538
30
0
11
169.63746
21
-19.64648
31
0
39
0
210
0
220
0
230
1
0
LINE
5
82
100
AcDbEntity
8
1
62
256
6
ByLayer
370
-1
48
1
60
0
100
AcDbLine
10
144.312991
20
23.544336
30
0
11
143.079053
21
25
31
0
39
0
210
0
220
0
230
1
0
LINE
5
83
100
AcDbEntity
8
1
62
256
6
ByLayer
370
-1
48
1
60
0
100
AcDbLine
10
10.538675
20
-9.349221
30
0
11
10.538675
21
-30.080593
31
0
39
0
210
0
220
0
230
1
0
LINE
5
84
100
AcDbEntity
8
SK1
62
256
6
ByLayer
370
-1
48
1
60
0
100
AcDbLine
10
-1.307107
20
-4.695915
30
0
11
-1.307107
21
4.695917
31
0
39
0
210
0
220
0
230
1
0
LINE
5
85
100
AcDbEntity
8
1
62
256
6
ByLayer
370
-1
48
1
60
0
100
AcDbLine
10
174.998438
20
-33.981308
30
0
11
170.783262
21
-20.612477
31
0
39
0
210
0
220
0
230
1
0
LINE
5
86
100
AcDbEntity
8
1
62
256
6
ByLayer
370
-1
48
1
60
0
100
AcDbLine
10
162.660139
20
-26.285051
30
0
11
173.815009
21
-34.807725
31
0
39
0
210
0
220
0
230
1
0
LINE
5
87
100
AcDbEntity
8
1
62
256
6
ByLayer
370
-1
48
1
60
0
100
AcDbLine
10
158.307809
20
-12.720873
30
0
11
162.522985
21
-26.089703
31
0
39
0
210
0
220
0
230
1
0
LINE
5
88
100
AcDbEntity
8
1
62
256
6
ByLayer
370
-1
48
1
60
0
100
AcDbLine
10
170.646108
20
-20.417129
30
0
11
159.491238
21
-11.894455
31
0
39
0
210
0
220
0
230
1
0
LINE
5
89
100
AcDbEntity
8
1
62
256
6
ByLayer
370
-1
48
1
60
0
100
AcDbLine
10
168.083191
20
-23.352085
30
0
11
168.12031
21
-23.469811
31
0
39
0
210
0
220
0
230
1
0
LINE
5
8A
100
AcDbEntity
8
1
62
256
6
ByLayer
370
-1
48
1
60
0
100
AcDbLine
10
167.474593
20
-21.996725
30
0
11
167.511663
21
-22.114295
31
0
39
0
210
0
220
0
230
1
0
LINE
5
8B
100
AcDbEntity
8
1
62
256
6
ByLayer
370
-1
48
1
60
0
100
AcDbLine
10
165.176021
20
-23.601874
30
0
11
165.213091
21
-23.719444
31
0
39
0
210
0
220
0
230
1
0
LINE
5
8C
100
AcDbEntity
8
1
62
256
6
ByLayer
370
-1
48
1
60
0
100
AcDbLine
10
166.244933
20
-24.635786
30
0
11
166.282051
21
-24.753512
31
0
39
0
210
0
220
0
230
1
0
LINE
5
8D
100
AcDbEntity
8
1
62
256
6
ByLayer
370
-1
48
1
60
0
100
AcDbLine
10
167.209635
20
-24.549128
30
0
11
167.246754
21
-24.666854
31
0
39
0
210
0
220
0
230
1
0
LINE
5
8E
100
AcDbEntity
8
SK1
62
256
6
ByLayer
370
-1
48
1
60
0
100
AcDbLine
10
-0.2
20
-7.454103
30
0
11
-0.2
21
-22.45
31
0
39
0
210
0
220
0
230
1
0
LINE
5
8F
100
AcDbEntity
8
SK1
62
256
6
ByLayer
370
-1
48
1
60
0
100
AcDbLine
10
-0.2
20
22.45
30
0
11
-0.2
21
7.454102
31
0
39
0
210
0
220
0
230
1
0
LINE
5
90
100
AcDbEntity
8
SK1
62
256
6
ByLayer
370
-1
48
1
60
0
100
AcDbLine
10
-0.2
20
7.066356
30
0
11
-0.2
21
6.834385
31
0
39
0
210
0
220
0
230
1
0
LINE
5
91
100
AcDbEntity
8
SK1
62
256
6
ByLayer
370
-1
48
1
60
0
100
AcDbLine
10
-0.2
20
-6.834385
30
0
11
-0.2
21
-7.066357
31
0
39
0
210
0
220
0
230
1
0
LINE
5
92
100
AcDbEntity
8
2
62
256
6
ByLayer
370
-1
48
1
60
1
100
AcDbLine
10
175
20
0
30
0
11
175.001
21
0.001
31
0
39
0
210
0
220
0
230
1
0
MTEXT
5
10F
100
AcDbEntity
8
SK6
62
256
6
ByLayer
370
-1
48
1
60
0
100
AcDbMText
10
3.011936
20
38.91649
30
0
210
0
220
0
230
1
1
\W00.730;\fsimplex.shx,bigfont.shx;C6-SVQBL-35175-16 
40
3.5
41
0
44
1.084337
50
0
71
7
72
5
7
DEFAULT
0
DIMENSION
5
143
100
AcDbEntity
8
SK2
62
256
6
ByLayer
370
-3
48
1
60
0
100
AcDbDimension
2
DimnDraft3D1
10
-50.75
20
-31.5
30
0
11
-50.75
21
-4.784211
31
0
70
32
71
5
72
1
41
1
210
0
220
0
230
1
3
Standard
100
AcDbAlignedDimension
13
-2
23
31.5
33
0
14
-2
24
-31.5
34
0
50
90
100
AcDbRotatedDimension
1001
ACAD
1000
DSTYLE
1002
{
1070
    74
1070
     0
1070
   279
1070
     0
1070
   172
1070
     1
1070
   173
1070
     1
1070
   340
1005
110
1070
    77
1070
     1
1070
    73
1070
     0
1070
   171
1070
     4
1070
   274
1070
     4
1070
   177
1070
     2
1070
   176
1070
     2
1070
   178
1070
     7
1070
    78
1070
     8
1070
    41
1041
3.175
1070
   147
1041
2.25
1070
    42
1041
2.0
1070
    44
1041
2.0
1070
   140
1041
4.5
1070
   343
1005
144
1070
   344
1005
144
1002
}
0
DIMENSION
5
156
100
AcDbEntity
8
2
62
256
6
ByLayer
370
-3
48
1
60
0
100
AcDbDimension
2
DimnDraft3D2
10
38.45
20
25
30
0
11
38.45
21
-7.318421
31
0
70
32
71
5
72
1
41
1
210
0
220
0
230
1
3
Standard
100
AcDbAlignedDimension
13
23.2
23
25
33
0
14
0
24
0
34
0
50
90
100
AcDbRotatedDimension
1001
ACAD
1000
DSTYLE
1002
{
1070
    74
1070
     0
1070
   279
1070
     0
1070
   172
1070
     1
1070
   173
1070
     1
1070
   340
1005
110
1070
    75
1070
     1
1070
    76
1070
     1
1070
    77
1070
     1
1070
    73
1070
     0
1070
   171
1070
     4
1070
   274
1070
     4
1070
   177
1070
     2
1070
   176
1070
     2
1070
   178
1070
     7
1070
    78
1070
     8
1070
    41
1041
3.175
1070
   147
1041
2.25
1070
    42
1041
2.0
1070
    44
1041
2.0
1070
   140
1041
4.5
1070
   343
1005
144
1070
   344
1005
144
1002
}
0
DIMENSION
5
164
100
AcDbEntity
8
2
62
256
6
ByLayer
370
-3
48
1
60
0
100
AcDbDimension
2
DimnDraft3D3
10
187.25
20
-34.9
30
0
11
187.25
21
-22.613158
31
0
70
32
71
5
72
1
41
1
210
0
220
0
230
1
3
Standard
100
AcDbAlignedDimension
13
177
23
0
33
0
14
177
24
-34.9
34
0
50
90
100
AcDbRotatedDimension
1001
ACAD
1000
DSTYLE
1002
{
1070
    74
1070
     0
1070
   279
1070
     0
1070
   172
1070
     1
1070
   173
1070
     1
1070
   340
1005
110
1070
    77
1070
     1
1070
    73
1070
     0
1070
   171
1070
     4
1070
   274
1070
     4
1070
   177
1070
     2
1070
   176
1070
     2
1070
   178
1070
     7
1070
    78
1070
     8
1070
    41
1041
3.175
1070
   147
1041
2.25
1070
    42
1041
2.0
1070
    44
1041
2.0
1070
   140
1041
4.5
1070
   343
1005
144
1070
   344
1005
144
1002
}
0
DIMENSION
5
172
100
AcDbEntity
8
2
62
256
6
ByLayer
370
-3
48
1
60
0
100
AcDbDimension
2
DimnDraft3D4
10
175
20
-67.15
30
0
11
81.247368
21
-67.15
31
0
70
32
71
5
72
1
41
1
210
0
220
0
230
1
3
Standard
100
AcDbAlignedDimension
13
0
23
-33.5
33
0
14
175
24
-36.9
34
0
50
0
100
AcDbRotatedDimension
1001
ACAD
1000
DSTYLE
1002
{
1070
   279
1070
     0
1070
   172
1070
     1
1070
   173
1070
     1
1070
   340
1005
110
1070
    77
1070
     1
1070
    73
1070
     0
1070
   171
1070
     4
1070
   274
1070
     4
1070
   177
1070
     2
1070
   176
1070
     2
1070
   178
1070
     7
1070
    78
1070
     8
1070
    41
1041
3.175
1070
   147
1041
2.25
1070
    42
1041
2.0
1070
    44
1041
2.0
1070
   140
1041
4.5
1070
   343
1005
144
1070
   344
1005
144
1002
}
0
DIMENSION
5
180
100
AcDbEntity
8
2
62
256
6
ByLayer
370
-3
48
1
60
0
100
AcDbDimension
2
DimnDraft3D5
10
175
20
-52.15
30
0
11
93.409868
21
-52.15
31
0
70
32
71
5
72
1
41
1
210
0
220
0
230
1
3
Standard
100
AcDbAlignedDimension
13
23.2
23
-27
33
0
14
175
24
-36.9
34
0
50
0
100
AcDbRotatedDimension
1001
ACAD
1000
DSTYLE
1002
{
1070
   279
1070
     0
1070
   172
1070
     1
1070
   173
1070
     1
1070
   340
1005
110
1070
    77
1070
     1
1070
    73
1070
     0
1070
   171
1070
     4
1070
   274
1070
     4
1070
   177
1070
     2
1070
   176
1070
     2
1070
   178
1070
     7
1070
    78
1070
     8
1070
    41
1041
3.175
1070
   147
1041
2.25
1070
    42
1041
2.0
1070
    44
1041
2.0
1070
   140
1041
4.5
1070
   343
1005
144
1070
   344
1005
144
1002
}
0
DIMENSION
5
18E
100
AcDbEntity
8
2
62
256
6
ByLayer
370
-3
48
1
60
0
100
AcDbDimension
2
DimnDraft3D6
10
203.922479
20
0
30
0
11
180.404043
21
37.788356
31
0
70
34
71
5
72
1
41
1
210
0
220
0
230
1
3
Standard
100
AcDb2LineAngularDimension
13
169.587296
23
-17.733095
33
0
14
151.98997
24
38.078491
34
0
15
177
25
0
35
0
16
189.083216
26
34.214547
36
0
40
0
0
ENDSEC
0
SECTION
2
OBJECTS
0
DICTIONARY
5
1bf
330
0
100
AcDbDictionary
280
0
281
1
3
ACAD_GROUP
350
1c0
3
ACAD_MLINESTYLE
350
1c1
0
DICTIONARY
5
1c0
330
0
100
AcDbDictionary
280
0
281
1
0
DICTIONARY
5
1c1
330
0
100
AcDbDictionary
280
0
281
1
3
Standard
350
18
0
MLINESTYLE
5
18
330
1c1
100
AcDbMlineStyle
2
Standard
70
0
3

62
256
51
90
52
90
71
2
49
-0.5
62
256
6
ByLayer
49
0.5
62
256
6
ByLayer
0
RASTERVARIABLES
5
1ad
330

100
AcDbRasterVariables
90
0
70
1
71
1
72
1
0
ENDSEC
0
EOF
