0
SECTION
2
HEADER
9
$ACADVER
1
AC1015
9
$DWGCODEPAGE
3
ANSI_1252
9
$HANDSEED
5
1f1
9
$ANGBASE
50
0
9
$ANGDIR
70
0
9
$ATTMODE
70
1
9
$AUNITS
70
0
9
$AUPREC
70
0
9
$CECOLOR
62
256
9
$CELTSCALE
40
1
9
$CELTYPE
6
ByLayer
9
$CELWEIGHT
370
-1
9
$CLAYER
8
0
9
$CMLJUST
70
0
9
$CMLSCALE
40
1
9
$CMLSTYLE
2
Standard
9
$DIMSTYLE
2
Standard
9
$TEXTSIZE
40
0.2
9
$TEXTSTYLE
7
Standard
9
$LUNITS
70
2
9
$LUPREC
70
4
9
$EXTNAMES
290
1
9
$INSUNITS
70
4
9
$LTSCALE
40
1
9
$LWDISPLAY
290
0
9
$PDMODE
70
0
9
$PDSIZE
40
0
9
$PLINEGEN
70
0
0
ENDSEC
0
SECTION
2
CLASSES
0
CLASS
1
RASTERVARIABLES
2
AcDbRasterVariables
3
ISM
90
0
280
0
281
0
0
ENDSEC
0
SECTION
2
TABLES
0
TABLE
2
VPORT
5
1e7
100
AcDbSymbolTable
0
VPORT
5
1
100
AcDbSymbolTableRecord
100
AcDbViewportTableRecord
2
*Active
70
0
10
0
20
0
11
1
21
1
12
-1
22
1
13
0
23
0
14
0.5
24
0.5
15
10
25
10
16
0
26
0
36
1
17
0
27
0
37
0
0
ENDTAB
0
TABLE
2
LTYPE
5
1e8
100
AcDbSymbolTable
0
LTYPE
5
14
100
AcDbSymbolTableRecord
100
AcDbLinetypeTableRecord
70
0
2
ByBlock
3

72
65
73
0
40
0
0
LTYPE
5
15
100
AcDbSymbolTableRecord
100
AcDbLinetypeTableRecord
70
0
2
ByLayer
3

72
65
73
0
40
0
0
LTYPE
5
16
100
AcDbSymbolTableRecord
100
AcDbLinetypeTableRecord
70
0
2
CONTINUOUS
3
Solid line
72
65
73
0
40
0
0
LTYPE
5
3B
100
AcDbSymbolTableRecord
100
AcDbLinetypeTableRecord
70
0
2
DASHED
3
__ __ __ __ __ __ __ __ __
72
65
73
2
40
25.72
49
12.86
74
0
49
-12.86
74
0
0
LTYPE
5
3C
100
AcDbSymbolTableRecord
100
AcDbLinetypeTableRecord
70
0
2
HIDDEN
3
_ _ _ _ _ _ _ _ _ _ _ _ _ _ _
72
65
73
2
40
0.5
49
0.25
74
0
49
-0.25
74
0
0
LTYPE
5
3D
100
AcDbSymbolTableRecord
100
AcDbLinetypeTableRecord
70
0
2
PHANTOM
3
____ _ _ ____ _ _ _____ _ _ ____
72
65
73
6
40
50.5
49
18
74
0
49
-6.5
74
0
49
6.5
74
0
49
-6.5
74
0
49
6.5
74
0
49
-6.5
74
0
0
LTYPE
5
3E
100
AcDbSymbolTableRecord
100
AcDbLinetypeTableRecord
70
0
2
CENTER
3
____ _ ____ _ ____ _ ____
72
65
73
4
40
47.5
49
22
74
0
49
-8.5
74
0
49
8.5
74
0
49
-8.5
74
0
0
LTYPE
5
3F
100
AcDbSymbolTableRecord
100
AcDbLinetypeTableRecord
70
0
2
DOT
3
.........................
72
65
73
2
40
10
49
0
74
0
49
-10
74
0
0
LTYPE
5
40
100
AcDbSymbolTableRecord
100
AcDbLinetypeTableRecord
70
0
2
DASHDOT
3
_._._._._._._._._._._._._._._._.
72
65
73
4
40
70
49
31
74
0
49
-13
74
0
49
13
74
0
49
-13
74
0
0
ENDTAB
0
TABLE
2
LAYER
5
1e9
100
AcDbSymbolTable
0
LAYER
5
10
100
AcDbSymbolTableRecord
100
AcDbLayerTableRecord
2
0
70
0
62
7
6
CONTINUOUS
290
1
370
-3
390
0
0
LAYER
5
42
100
AcDbSymbolTableRecord
100
AcDbLayerTableRecord
2
80
70
0
62
-6
6
CONTINUOUS
290
1
370
-3
390
0
0
LAYER
5
44
100
AcDbSymbolTableRecord
100
AcDbLayerTableRecord
2
81
70
0
62
-3
6
CONTINUOUS
290
1
370
-3
390
0
0
LAYER
5
46
100
AcDbSymbolTableRecord
100
AcDbLayerTableRecord
2
1
70
0
62
4
6
CONTINUOUS
290
1
370
-3
390
0
0
LAYER
5
48
100
AcDbSymbolTableRecord
100
AcDbLayerTableRecord
2
2
70
0
62
7
6
CONTINUOUS
290
1
370
-3
390
0
0
LAYER
5
63
100
AcDbSymbolTableRecord
100
AcDbLayerTableRecord
2
4
70
0
62
-2
6
CENTER
290
1
370
-3
390
0
0
LAYER
5
1d3
100
AcDbSymbolTableRecord
100
AcDbLayerTableRecord
2
SK1
70
0
62
4
6
CONTINUOUS
290
1
370
-3
390
0
0
LAYER
5
1d4
100
AcDbSymbolTableRecord
100
AcDbLayerTableRecord
2
SK4
70
0
62
2
6
CENTER
290
1
370
-3
390
0
0
LAYER
5
1d5
100
AcDbSymbolTableRecord
100
AcDbLayerTableRecord
2
SK6
70
0
62
5
6
CONTINUOUS
290
1
370
-3
390
0
0
LAYER
5
1d6
100
AcDbSymbolTableRecord
100
AcDbLayerTableRecord
2
SK2
70
0
62
7
6
CONTINUOUS
290
1
370
-3
390
0
0
ENDTAB
0
TABLE
2
STYLE
5
1ea
100
AcDbSymbolTable
0
STYLE
5
11
100
AcDbSymbolTableRecord
100
AcDbTextStyleTableRecord
2
Standard
3
txt
70
0
71
0
40
0
41
1
42
0
50
0
0
STYLE
5
135
100
AcDbSymbolTableRecord
100
AcDbTextStyleTableRecord
2
DEFAULT
3
simplex.shx
70
0
71
0
40
0
41
1
42
0
50
0
0
STYLE
5
158
100
AcDbSymbolTableRecord
100
AcDbTextStyleTableRecord
2
DWGDirectTextStyle
3
SIMPLEX
70
0
71
0
40
0
41
1
42
0
50
0
0
ENDTAB
0
TABLE
2
DIMSTYLE
5
1eb
100
AcDbSymbolTable
100
AcDbDimStyleTable
0
DIMSTYLE
105
27
100
AcDbSymbolTableRecord
100
AcDbDimStyleTableRecord
2
Standard
70
0
3
<>
41
0.18
42
0.0625
44
0.18
140
0.18
147
0.09
73
0
74
0
77
1
271
2
275
0
278
52
280
0
340
11
0
ENDTAB
0
TABLE
2
VIEW
5
1ec
100
AcDbSymbolTable
0
ENDTAB
0
TABLE
2
UCS
5
1ed
100
AcDbSymbolTable
0
ENDTAB
0
TABLE
2
APPID
5
1ee
100
AcDbSymbolTable
0
APPID
5
12
100
AcDbSymbolTableRecord
100
AcDbRegAppTableRecord
2
ACAD
70
0
0
ENDTAB
0
TABLE
2
BLOCK_RECORD
5
1ef
100
AcDbSymbolTable
0
BLOCK_RECORD
5
1F
100
AcDbSymbolTableRecord
100
AcDbBlockTableRecord
2
*Model_Space
340
0
70
0
0
BLOCK_RECORD
5
1B
100
AcDbSymbolTableRecord
100
AcDbBlockTableRecord
2
*Paper_Space
340
0
70
0
0
BLOCK_RECORD
5
23
100
AcDbSymbolTableRecord
100
AcDbBlockTableRecord
2
*Paper_Space0
340
0
70
0
0
BLOCK_RECORD
5
15A
100
AcDbSymbolTableRecord
100
AcDbBlockTableRecord
2
DimnDraft3D1
340
0
70
0
0
BLOCK_RECORD
5
169
100
AcDbSymbolTableRecord
100
AcDbBlockTableRecord
2
_CLOSED
340
0
70
0
0
BLOCK_RECORD
5
170
100
AcDbSymbolTableRecord
100
AcDbBlockTableRecord
2
DimnDraft3D2
340
0
70
0
0
BLOCK_RECORD
5
17C
100
AcDbSymbolTableRecord
100
AcDbBlockTableRecord
2
DimnDraft3D3
340
0
70
0
0
BLOCK_RECORD
5
18A
100
AcDbSymbolTableRecord
100
AcDbBlockTableRecord
2
DimnDraft3D4
340
0
70
0
0
BLOCK_RECORD
5
198
100
AcDbSymbolTableRecord
100
AcDbBlockTableRecord
2
DimnDraft3D5
340
0
70
0
0
BLOCK_RECORD
5
1A6
100
AcDbSymbolTableRecord
100
AcDbBlockTableRecord
2
DimnDraft3D6
340
0
70
0
0
ENDTAB
0
ENDSEC
0
SECTION
2
BLOCKS
0
BLOCK
5
20
100
AcDbEntity
8
0
100
AcDbBlockBegin
2
*Model_Space
70
0
10
0
20
0
30
0
3
*Model_Space
0
ENDBLK
5
21
100
AcDbEntity
8
0
100
AcDbBlockEnd
0
BLOCK
5
1C
100
AcDbEntity
8
0
100
AcDbBlockBegin
2
*Paper_Space
70
0
10
0
20
0
30
0
3
*Paper_Space
0
ENDBLK
5
1D
100
AcDbEntity
8
0
100
AcDbBlockEnd
0
BLOCK
5
24
100
AcDbEntity
8
0
100
AcDbBlockBegin
2
*Paper_Space0
70
0
10
0
20
0
30
0
3
*Paper_Space0
0
ENDBLK
5
25
100
AcDbEntity
8
0
100
AcDbBlockEnd
0
BLOCK
5
166
100
AcDbEntity
8
0
100
AcDbBlockBegin
2
DimnDraft3D1
70
0
10
0
20
0
30
0
3
DimnDraft3D1
0
MTEXT
5
15B
100
AcDbEntity
8
SK2
62
256
6
ByLayer
370
-1
48
1
60
0
100
AcDbMText
10
-51.875
20
-3.659211
30
0
210
0
220
0
230
1
1
\W01.000;\fsimplex.shx,bigfont.shx;%%c63 
40
4.5
41
0
44
1.084337
50
90
71
7
72
5
7
DEFAULT
0
LINE
5
15D
100
AcDbEntity
8
SK2
62
256
6
ByLayer
370
-1
48
1
60
0
100
AcDbLine
10
-2
20
31.5
30
0
11
-52.75
21
31.5
31
0
39
0
210
0
220
0
230
1
0
LINE
5
15E
100
AcDbEntity
8
SK2
62
256
6
ByLayer
370
-1
48
1
60
0
100
AcDbLine
10
-2
20
-31.5
30
0
11
-52.75
21
-31.5
31
0
39
0
210
0
220
0
230
1
0
LINE
5
15F
100
AcDbEntity
8
SK2
62
256
6
ByLayer
370
-1
48
1
60
0
100
AcDbLine
10
-50.75
20
31.5
30
0
11
-50.75
21
-31.5
31
0
39
0
210
0
220
0
230
1
0
LINE
5
160
100
AcDbEntity
8
SK2
62
256
6
ByLayer
370
-1
48
1
60
0
100
AcDbLine
10
-50.75
20
31.5
30
0
11
-50.332003
21
28.325002
31
0
39
0
210
0
220
0
230
1
0
LINE
5
161
100
AcDbEntity
8
SK2
62
256
6
ByLayer
370
-1
48
1
60
0
100
AcDbLine
10
-50.75
20
31.5
30
0
11
-51.167997
21
28.324998
31
0
39
0
210
0
220
0
230
1
0
LINE
5
162
100
AcDbEntity
8
SK2
62
256
6
ByLayer
370
-1
48
1
60
0
100
AcDbLine
10
-50.332003
20
28.325002
30
0
11
-51.167997
21
28.324998
31
0
39
0
210
0
220
0
230
1
0
LINE
5
163
100
AcDbEntity
8
SK2
62
256
6
ByLayer
370
-1
48
1
60
0
100
AcDbLine
10
-50.75
20
-31.5
30
0
11
-51.167997
21
-28.325002
31
0
39
0
210
0
220
0
230
1
0
LINE
5
164
100
AcDbEntity
8
SK2
62
256
6
ByLayer
370
-1
48
1
60
0
100
AcDbLine
10
-50.75
20
-31.5
30
0
11
-50.332003
21
-28.324998
31
0
39
0
210
0
220
0
230
1
0
LINE
5
165
100
AcDbEntity
8
SK2
62
256
6
ByLayer
370
-1
48
1
60
0
100
AcDbLine
10
-51.167997
20
-28.325002
30
0
11
-50.332003
21
-28.324998
31
0
39
0
210
0
220
0
230
1
0
ENDBLK
5
167
100
AcDbEntity
8
0
100
AcDbBlockEnd
0
BLOCK
5
16A
100
AcDbEntity
8
0
100
AcDbBlockBegin
2
_CLOSED
70
0
10
0
20
0
30
0
3
_CLOSED
0
LINE
5
16C
100
AcDbEntity
8
0
62
256
6
ByLayer
370
-2
48
1
60
0
100
AcDbLine
10
-1
20
0.166667
30
0
11
0
21
0
31
0
39
0
210
0
220
0
230
1
0
LINE
5
16D
100
AcDbEntity
8
0
62
256
6
ByLayer
370
-2
48
1
60
0
100
AcDbLine
10
0
20
0
30
0
11
-1
21
-0.166667
31
0
39
0
210
0
220
0
230
1
0
LINE
5
16E
100
AcDbEntity
8
0
62
256
6
ByLayer
370
-2
48
1
60
0
100
AcDbLine
10
-1
20
0.166667
30
0
11
-1
21
-0.166667
31
0
39
0
210
0
220
0
230
1
0
LINE
5
16F
100
AcDbEntity
8
0
62
256
6
ByLayer
370
-2
48
1
60
0
100
AcDbLine
10
0
20
0
30
0
11
-1
21
0
31
0
39
0
210
0
220
0
230
1
0
ENDBLK
5
16B
100
AcDbEntity
8
0
100
AcDbBlockEnd
0
BLOCK
5
179
100
AcDbEntity
8
0
100
AcDbBlockBegin
2
DimnDraft3D2
70
0
10
0
20
0
30
0
3
DimnDraft3D2
0
MTEXT
5
171
100
AcDbEntity
8
2
62
256
6
ByLayer
370
-1
48
1
60
0
100
AcDbMText
10
39.725
20
-6.193421
30
0
210
0
220
0
230
1
1
\W01.000;\fsimplex.shx,bigfont.shx;%%c32.0 
40
4.5
41
0
44
1.084337
50
90
71
7
72
5
7
DEFAULT
0
LINE
5
172
100
AcDbEntity
8
2
62
256
6
ByLayer
370
-1
48
1
60
0
100
AcDbLine
10
40.85
20
-16
30
0
11
40.85
21
16
31
0
39
0
210
0
220
0
230
1
0
LINE
5
173
100
AcDbEntity
8
2
62
256
6
ByLayer
370
-1
48
1
60
0
100
AcDbLine
10
40.85
20
-16
30
0
11
40.432003
21
-12.825002
31
0
39
0
210
0
220
0
230
1
0
LINE
5
174
100
AcDbEntity
8
2
62
256
6
ByLayer
370
-1
48
1
60
0
100
AcDbLine
10
40.85
20
-16
30
0
11
41.267997
21
-12.824998
31
0
39
0
210
0
220
0
230
1
0
LINE
5
175
100
AcDbEntity
8
2
62
256
6
ByLayer
370
-1
48
1
60
0
100
AcDbLine
10
40.432003
20
-12.825002
30
0
11
41.267997
21
-12.824998
31
0
39
0
210
0
220
0
230
1
0
LINE
5
176
100
AcDbEntity
8
2
62
256
6
ByLayer
370
-1
48
1
60
0
100
AcDbLine
10
40.85
20
16
30
0
11
41.267997
21
12.825002
31
0
39
0
210
0
220
0
230
1
0
LINE
5
177
100
AcDbEntity
8
2
62
256
6
ByLayer
370
-1
48
1
60
0
100
AcDbLine
10
40.85
20
16
30
0
11
40.432003
21
12.824998
31
0
39
0
210
0
220
0
230
1
0
LINE
5
178
100
AcDbEntity
8
2
62
256
6
ByLayer
370
-1
48
1
60
0
100
AcDbLine
10
41.267997
20
12.825002
30
0
11
40.432003
21
12.824998
31
0
39
0
210
0
220
0
230
1
0
ENDBLK
5
17A
100
AcDbEntity
8
0
100
AcDbBlockEnd
0
BLOCK
5
187
100
AcDbEntity
8
0
100
AcDbBlockBegin
2
DimnDraft3D3
70
0
10
0
20
0
30
0
3
DimnDraft3D3
0
MTEXT
5
17D
100
AcDbEntity
8
2
62
256
6
ByLayer
370
-1
48
1
60
0
100
AcDbMText
10
131.125
20
-14.988158
30
0
210
0
220
0
230
1
1
\W01.000;\fsimplex.shx,bigfont.shx;22.0 
40
4.5
41
0
44
1.084337
50
90
71
7
72
5
7
DEFAULT
0
LINE
5
17E
100
AcDbEntity
8
2
62
256
6
ByLayer
370
-1
48
1
60
0
100
AcDbLine
10
122
20
0
30
0
11
134.25
21
0
31
0
39
0
210
0
220
0
230
1
0
LINE
5
17F
100
AcDbEntity
8
2
62
256
6
ByLayer
370
-1
48
1
60
0
100
AcDbLine
10
122
20
-21.9
30
0
11
134.25
21
-21.9
31
0
39
0
210
0
220
0
230
1
0
LINE
5
180
100
AcDbEntity
8
2
62
256
6
ByLayer
370
-1
48
1
60
0
100
AcDbLine
10
132.25
20
0
30
0
11
132.25
21
-21.9
31
0
39
0
210
0
220
0
230
1
0
LINE
5
181
100
AcDbEntity
8
2
62
256
6
ByLayer
370
-1
48
1
60
0
100
AcDbLine
10
132.25
20
0
30
0
11
132.667997
21
-3.174998
31
0
39
0
210
0
220
0
230
1
0
LINE
5
182
100
AcDbEntity
8
2
62
256
6
ByLayer
370
-1
48
1
60
0
100
AcDbLine
10
132.25
20
0
30
0
11
131.832003
21
-3.175002
31
0
39
0
210
0
220
0
230
1
0
LINE
5
183
100
AcDbEntity
8
2
62
256
6
ByLayer
370
-1
48
1
60
0
100
AcDbLine
10
132.667997
20
-3.174998
30
0
11
131.832003
21
-3.175002
31
0
39
0
210
0
220
0
230
1
0
LINE
5
184
100
AcDbEntity
8
2
62
256
6
ByLayer
370
-1
48
1
60
0
100
AcDbLine
10
132.25
20
-21.9
30
0
11
131.832003
21
-18.725002
31
0
39
0
210
0
220
0
230
1
0
LINE
5
185
100
AcDbEntity
8
2
62
256
6
ByLayer
370
-1
48
1
60
0
100
AcDbLine
10
132.25
20
-21.9
30
0
11
132.667997
21
-18.724998
31
0
39
0
210
0
220
0
230
1
0
LINE
5
186
100
AcDbEntity
8
2
62
256
6
ByLayer
370
-1
48
1
60
0
100
AcDbLine
10
131.832003
20
-18.725002
30
0
11
132.667997
21
-18.724998
31
0
39
0
210
0
220
0
230
1
0
ENDBLK
5
188
100
AcDbEntity
8
0
100
AcDbBlockEnd
0
BLOCK
5
195
100
AcDbEntity
8
0
100
AcDbBlockBegin
2
DimnDraft3D4
70
0
10
0
20
0
30
0
3
DimnDraft3D4
0
MTEXT
5
18B
100
AcDbEntity
8
2
62
256
6
ByLayer
370
-1
48
1
60
0
100
AcDbMText
10
54.872368
20
-47.625
30
0
210
0
220
0
230
1
1
\W01.000;\fsimplex.shx,bigfont.shx;120.0 
40
4.5
41
0
44
1.084337
50
0
71
7
72
5
7
DEFAULT
0
LINE
5
18C
100
AcDbEntity
8
2
62
256
6
ByLayer
370
-1
48
1
60
0
100
AcDbLine
10
0
20
-33.5
30
0
11
0
21
-50.75
31
0
39
0
210
0
220
0
230
1
0
LINE
5
18D
100
AcDbEntity
8
2
62
256
6
ByLayer
370
-1
48
1
60
0
100
AcDbLine
10
120
20
-23.9
30
0
11
120
21
-50.75
31
0
39
0
210
0
220
0
230
1
0
LINE
5
18E
100
AcDbEntity
8
2
62
256
6
ByLayer
370
-1
48
1
60
0
100
AcDbLine
10
0
20
-48.75
30
0
11
120
21
-48.75
31
0
39
0
210
0
220
0
230
1
0
LINE
5
18F
100
AcDbEntity
8
2
62
256
6
ByLayer
370
-1
48
1
60
0
100
AcDbLine
10
0
20
-48.75
30
0
11
3.174998
21
-48.332003
31
0
39
0
210
0
220
0
230
1
0
LINE
5
190
100
AcDbEntity
8
2
62
256
6
ByLayer
370
-1
48
1
60
0
100
AcDbLine
10
0
20
-48.75
30
0
11
3.175002
21
-49.167997
31
0
39
0
210
0
220
0
230
1
0
LINE
5
191
100
AcDbEntity
8
2
62
256
6
ByLayer
370
-1
48
1
60
0
100
AcDbLine
10
3.174998
20
-48.332003
30
0
11
3.175002
21
-49.167997
31
0
39
0
210
0
220
0
230
1
0
LINE
5
192
100
AcDbEntity
8
2
62
256
6
ByLayer
370
-1
48
1
60
0
100
AcDbLine
10
120
20
-48.75
30
0
11
116.825002
21
-49.167997
31
0
39
0
210
0
220
0
230
1
0
LINE
5
193
100
AcDbEntity
8
2
62
256
6
ByLayer
370
-1
48
1
60
0
100
AcDbLine
10
120
20
-48.75
30
0
11
116.824998
21
-48.332003
31
0
39
0
210
0
220
0
230
1
0
LINE
5
194
100
AcDbEntity
8
2
62
256
6
ByLayer
370
-1
48
1
60
0
100
AcDbLine
10
116.825002
20
-49.167997
30
0
11
116.824998
21
-48.332003
31
0
39
0
210
0
220
0
230
1
0
ENDBLK
5
196
100
AcDbEntity
8
0
100
AcDbBlockEnd
0
BLOCK
5
1A3
100
AcDbEntity
8
0
100
AcDbBlockBegin
2
DimnDraft3D5
70
0
10
0
20
0
30
0
3
DimnDraft3D5
0
MTEXT
5
199
100
AcDbEntity
8
2
62
256
6
ByLayer
370
-1
48
1
60
0
100
AcDbMText
10
68.288158
20
-38.025
30
0
210
0
220
0
230
1
1
\W01.000;\fsimplex.shx,bigfont.shx;94.4 
40
4.5
41
0
44
1.084337
50
0
71
7
72
5
7
DEFAULT
0
LINE
5
19A
100
AcDbEntity
8
2
62
256
6
ByLayer
370
-1
48
1
60
0
100
AcDbLine
10
25.6
20
-18
30
0
11
25.6
21
-41.15
31
0
39
0
210
0
220
0
230
1
0
LINE
5
19B
100
AcDbEntity
8
2
62
256
6
ByLayer
370
-1
48
1
60
0
100
AcDbLine
10
120
20
-23.9
30
0
11
120
21
-41.15
31
0
39
0
210
0
220
0
230
1
0
LINE
5
19C
100
AcDbEntity
8
2
62
256
6
ByLayer
370
-1
48
1
60
0
100
AcDbLine
10
25.6
20
-39.15
30
0
11
120
21
-39.15
31
0
39
0
210
0
220
0
230
1
0
LINE
5
19D
100
AcDbEntity
8
2
62
256
6
ByLayer
370
-1
48
1
60
0
100
AcDbLine
10
25.6
20
-39.15
30
0
11
28.774998
21
-38.732003
31
0
39
0
210
0
220
0
230
1
0
LINE
5
19E
100
AcDbEntity
8
2
62
256
6
ByLayer
370
-1
48
1
60
0
100
AcDbLine
10
25.6
20
-39.15
30
0
11
28.775002
21
-39.567997
31
0
39
0
210
0
220
0
230
1
0
LINE
5
19F
100
AcDbEntity
8
2
62
256
6
ByLayer
370
-1
48
1
60
0
100
AcDbLine
10
28.774998
20
-38.732003
30
0
11
28.775002
21
-39.567997
31
0
39
0
210
0
220
0
230
1
0
LINE
5
1A0
100
AcDbEntity
8
2
62
256
6
ByLayer
370
-1
48
1
60
0
100
AcDbLine
10
120
20
-39.15
30
0
11
116.825002
21
-39.567997
31
0
39
0
210
0
220
0
230
1
0
LINE
5
1A1
100
AcDbEntity
8
2
62
256
6
ByLayer
370
-1
48
1
60
0
100
AcDbLine
10
120
20
-39.15
30
0
11
116.824998
21
-38.732003
31
0
39
0
210
0
220
0
230
1
0
LINE
5
1A2
100
AcDbEntity
8
2
62
256
6
ByLayer
370
-1
48
1
60
0
100
AcDbLine
10
116.825002
20
-39.567997
30
0
11
116.824998
21
-38.732003
31
0
39
0
210
0
220
0
230
1
0
ENDBLK
5
1A4
100
AcDbEntity
8
0
100
AcDbBlockEnd
0
BLOCK
5
1B1
100
AcDbEntity
8
0
100
AcDbBlockBegin
2
DimnDraft3D6
70
0
10
0
20
0
30
0
3
DimnDraft3D6
0
MTEXT
5
1A7
100
AcDbEntity
8
2
62
256
6
ByLayer
370
-1
48
1
60
0
100
AcDbMText
10
129.744954
20
36.215882
30
0
210
0
220
0
230
1
1
\W01.000;\fsimplex.shx,bigfont.shx;107%%d30' 
40
4.5
41
0
44
1.084337
50
323.75
71
7
72
5
7
DEFAULT
0
LINE
5
1A8
100
AcDbEntity
8
2
62
256
6
ByLayer
370
-1
48
1
60
0
100
AcDbLine
10
114.587296
20
-4.733095
30
0
11
101.088854
21
38.078491
31
0
39
0
210
0
220
0
230
1
0
LINE
5
1A9
100
AcDbEntity
8
2
62
256
6
ByLayer
370
-1
48
1
60
0
100
AcDbLine
10
122
20
0
30
0
11
153.021363
21
0
31
0
39
0
210
0
220
0
230
1
0
ARC
5
1AA
100
AcDbEntity
8
2
62
256
6
ByLayer
370
-1
48
1
60
0
100
AcDbCircle
39
0
10
113.094957
20
0
30
0
40
37.9264068640929
210
0
220
0
230
1
100
AcDbArc
50
0
51
107.5
0
LINE
5
1AB
100
AcDbEntity
8
2
62
256
6
ByLayer
370
-1
48
1
60
0
100
AcDbLine
10
101.690266
20
36.171057
30
0
11
104.620293
21
37.463449
31
0
39
0
210
0
220
0
230
1
0
LINE
5
1AC
100
AcDbEntity
8
2
62
256
6
ByLayer
370
-1
48
1
60
0
100
AcDbLine
10
101.690266
20
36.171057
30
0
11
104.854954
21
36.661066
31
0
39
0
210
0
220
0
230
1
0
LINE
5
1AD
100
AcDbEntity
8
2
62
256
6
ByLayer
370
-1
48
1
60
0
100
AcDbLine
10
104.620293
20
37.463449
30
0
11
104.854954
21
36.661066
31
0
39
0
210
0
220
0
230
1
0
LINE
5
1AE
100
AcDbEntity
8
2
62
256
6
ByLayer
370
-1
48
1
60
0
100
AcDbLine
10
151.021363
20
0
30
0
11
150.537053
21
3.165562
31
0
39
0
210
0
220
0
230
1
0
LINE
5
1AF
100
AcDbEntity
8
2
62
256
6
ByLayer
370
-1
48
1
60
0
100
AcDbLine
10
151.021363
20
0
30
0
11
151.372864
21
3.183049
31
0
39
0
210
0
220
0
230
1
0
LINE
5
1B0
100
AcDbEntity
8
2
62
256
6
ByLayer
370
-1
48
1
60
0
100
AcDbLine
10
150.537053
20
3.165562
30
0
11
151.372864
21
3.183049
31
0
39
0
210
0
220
0
230
1
0
ENDBLK
5
1B2
100
AcDbEntity
8
0
100
AcDbBlockEnd
0
ENDSEC
0
SECTION
2
ENTITIES
0
ARC
5
A2
100
AcDbEntity
8
1
62
256
6
ByLayer
370
-1
48
1
60
0
100
AcDbCircle
39
0
10
-30.989138
20
-23
30
0
40
7
210
0
220
0
230
-1
100
AcDbArc
50
14.816319
51
90
0
ARC
5
A3
100
AcDbEntity
8
1
62
256
6
ByLayer
370
-1
48
1
60
0
100
AcDbCircle
39
0
10
-30.989138
20
23
30
0
40
7
210
0
220
0
230
-1
100
AcDbArc
50
270
51
345.183681
0
ELLIPSE
5
A4
100
AcDbEntity
8
1
62
256
6
ByLayer
370
-1
48
1
60
0
100
AcDbEllipse
10
103.157944
20
-0.582274
30
0
11
1.87405380822027
21
0.590886896025895
31
0
210
0
220
0
230
1
40
0.982115
41
1.98218194544962
42
-2.53072741539178
0
ELLIPSE
5
A5
100
AcDbEntity
8
1
62
256
6
ByLayer
370
-1
48
1
60
0
100
AcDbEllipse
10
101.632969
20
-4.863238
30
0
11
-1.4986703150126
21
0.560345685180162
31
0
210
0
220
0
230
1
40
0.149374
41
-1.45461581353599
42
-0.622265155936845
0
ELLIPSE
5
A6
100
AcDbEntity
8
1
62
256
6
ByLayer
370
-1
48
1
60
0
100
AcDbEllipse
10
88.405968
20
-13.777273
30
0
11
9.79685083057902E-17
21
1.6
31
0
210
0
220
0
230
1
40
0.057553
41
1.09277954570432
42
1.39024933780528
0
ELLIPSE
5
A7
100
AcDbEntity
8
1
62
256
6
ByLayer
370
-1
48
1
60
0
100
AcDbEllipse
10
103.059779
20
2.076832
30
0
11
2.33018943749123
21
-2.4708698393509
31
0
210
0
220
0
230
-1
40
0.081159
41
-1.17710453489985
42
-0.949499090476814
0
ELLIPSE
5
A8
100
AcDbEntity
8
1
62
256
6
ByLayer
370
-1
48
1
60
0
100
AcDbEllipse
10
98.539532
20
0
30
0
11
9.43875886400171
21
-15.9961608197464
31
0
210
0
220
0
230
-1
40
0.037132
41
1.75064479929824
42
2.54850490239314
0
ELLIPSE
5
A9
100
AcDbEntity
8
1
62
256
6
ByLayer
370
-1
48
1
60
0
100
AcDbEllipse
10
114.025873
20
0
30
0
11
16.1061578295723
21
15.8848750364529
31
0
210
0
220
0
230
-1
40
0.118956
41
2.90749177933768
42
3.02157005518864
0
ELLIPSE
5
AA
100
AcDbEntity
8
1
62
256
6
ByLayer
370
-1
48
1
60
0
100
AcDbEllipse
10
102.794359
20
2.91864
30
0
11
1.43057542612234
21
0.451058699256409
31
0
210
0
220
0
230
1
40
0.982115
41
-2.59743149239748
42
-0.544008136933848
0
ELLIPSE
5
AB
100
AcDbEntity
8
1
62
256
6
ByLayer
370
-1
48
1
60
0
100
AcDbEllipse
10
101.391176
20
-2.179545
30
0
11
-1.37208151538098
21
-0.823038465170268
31
0
210
0
220
0
230
1
40
0.183288
41
-1.61462743996543
42
-0.043831113170555
0
ELLIPSE
5
AC
100
AcDbEntity
8
1
62
256
6
ByLayer
370
-1
48
1
60
0
100
AcDbEllipse
10
180.803354
20
0
30
0
11
282.144897405415
21
2.8866805575388
31
0
210
0
220
0
230
-1
40
0.055778
41
1.86627517925361
42
1.92798727101987
0
ELLIPSE
5
AD
100
AcDbEntity
8
1
62
256
6
ByLayer
370
-1
48
1
60
0
100
AcDbEllipse
10
-991.282339
20
0.000281
30
0
11
1548.13144687476
21
-15.7411079390296
31
0
210
0
220
0
230
-1
40
0.001853
41
0.791809816708328
42
0.798743395902739
0
ELLIPSE
5
AE
100
AcDbEntity
8
1
62
256
6
ByLayer
370
-1
48
1
60
0
100
AcDbEllipse
10
88.226503
20
-21.950177
30
0
11
8.20196577643475
21
2.58606987573674
31
0
210
0
220
0
230
1
40
0.982115
41
1.26014973155469
42
1.8710149697527
0
ELLIPSE
5
AF
100
AcDbEntity
8
1
62
256
6
ByLayer
370
-1
48
1
60
0
100
AcDbEllipse
10
180.803352
20
1E-06
30
0
11
282.144892384857
21
2.88668069670952
31
0
210
0
220
0
230
-1
40
0.055778
41
-1.89133886013866
42
-1.85196026406787
0
ELLIPSE
5
B0
100
AcDbEntity
8
1
62
256
6
ByLayer
370
-1
48
1
60
0
100
AcDbEllipse
10
26.347154
20
0
30
0
11
14.7536831606566
21
31.0932549155815
31
0
210
0
220
0
230
-1
40
0.341999
41
-2.98378646694437
42
-2.05035306783698
0
ELLIPSE
5
B1
100
AcDbEntity
8
1
62
256
6
ByLayer
370
-1
48
1
60
0
100
AcDbEllipse
10
83.465314
20
-15.307285
30
0
11
0.90420804160672
21
-1.32000296116855
31
0
210
0
220
0
230
1
40
0.05568
41
1.75192502332233
42
2.37776473086925
0
ELLIPSE
5
B2
100
AcDbEntity
8
1
62
256
6
ByLayer
370
-1
48
1
60
0
100
AcDbEllipse
10
-2.347154
20
0
30
0
11
14.7536831606569
21
31.0932549155818
31
0
210
0
220
0
230
-1
40
0.341999
41
0.157806186645425
42
1.09123958575281
0
ELLIPSE
5
B3
100
AcDbEntity
8
1
62
256
6
ByLayer
370
-1
48
1
60
0
100
AcDbEllipse
10
105.426521
20
-20.436122
30
0
11
-7.62973560598583
21
-2.40564639603418
31
0
210
0
220
0
230
1
40
0.982115
41
-1.98232334481446
42
-1.09083078249646
0
ELLIPSE
5
B4
100
AcDbEntity
8
1
62
256
6
ByLayer
370
-1
48
1
60
0
100
AcDbEllipse
10
98.636429
20
-3.802002
30
0
11
1.52594712119716
21
0.481129279206836
31
0
210
0
220
0
230
1
40
0.982115
41
-1.11283032658571E-05
42
0.230822270222234
0
ELLIPSE
5
B5
100
AcDbEntity
8
1
62
256
6
ByLayer
370
-1
48
1
60
0
100
AcDbEllipse
10
95.993152
20
-10.341978
30
0
11
-3.05189424239433
21
-0.962258558413671
31
0
210
0
220
0
230
1
40
0.982115
41
1.26014973155469
42
2.48709418409192
0
ELLIPSE
5
B6
100
AcDbEntity
8
1
62
256
6
ByLayer
370
-1
48
1
60
0
100
AcDbEllipse
10
99.080279
20
-11.690523
30
0
11
-1.4986703150126
21
0.560345685180162
31
0
210
0
220
0
230
1
40
0.149374
41
-1.45461581353599
42
-0.96651512965298
0
ELLIPSE
5
B7
100
AcDbEntity
8
1
62
256
6
ByLayer
370
-1
48
1
60
0
100
AcDbEllipse
10
98.997098
20
-4.945899
30
0
11
1.1924306976315
21
1.10853754541404
31
0
210
0
220
0
230
-1
40
0.902271
41
0.174144096903415
42
1.05946483662622
0
ELLIPSE
5
B8
100
AcDbEntity
8
1
62
256
6
ByLayer
370
-1
48
1
60
0
100
AcDbEllipse
10
102.83116
20
2.801921
30
0
11
-1.43057542612234
21
-0.451058699256408
31
0
210
0
220
0
230
1
40
0.982115
41
0.496214400522302
42
2.13066616624783
0
ELLIPSE
5
B9
100
AcDbEntity
8
1
62
256
6
ByLayer
370
-1
48
1
60
0
100
AcDbEllipse
10
-2.347154
20
0
30
0
11
14.7536831606569
21
-31.0932549155818
31
0
210
0
220
0
230
-1
40
0.341999
41
-1.09123958575281
42
-0.157806186645425
0
ELLIPSE
5
BA
100
AcDbEntity
8
1
62
256
6
ByLayer
370
-1
48
1
60
0
100
AcDbEllipse
10
96.050669
20
-13.777273
30
0
11
9.79685083057902E-17
21
1.6
31
0
210
0
220
0
230
1
40
0.057553
41
1.131411797753
42
1.39024933780528
0
ELLIPSE
5
BB
100
AcDbEntity
8
1
62
256
6
ByLayer
370
-1
48
1
60
0
100
AcDbEllipse
10
103.25296
20
1.464141
30
0
11
-1.43057542612234
21
-0.451058699256408
31
0
210
0
220
0
230
1
40
0.982115
41
2.35827161230988
42
0.10492244281584
0
ELLIPSE
5
BC
100
AcDbEntity
8
1
62
256
6
ByLayer
370
-1
48
1
60
0
100
AcDbEllipse
10
26.347154
20
0
30
0
11
14.7536831606551
21
-31.0932549155795
31
0
210
0
220
0
230
-1
40
0.341999
41
2.05035306783693
42
2.98378646694436
0
ELLIPSE
5
BD
100
AcDbEntity
8
1
62
256
6
ByLayer
370
-1
48
1
60
0
100
AcDbEllipse
10
101.077832
20
0
30
0
11
23.3602375215959
21
15.8196902955076
31
0
210
0
220
0
230
-1
40
0.102537
41
2.54325320501454
42
2.69966442561072
0
ELLIPSE
5
BE
100
AcDbEntity
8
1
62
256
6
ByLayer
370
-1
48
1
60
0
100
AcDbEllipse
10
102.908717
20
0.208175
30
0
11
-1.54979004496587
21
-0.488646924194442
31
0
210
0
220
0
230
1
40
0.982115
41
-0.18078671288925
42
0.610865238198011
0
ELLIPSE
5
BF
100
AcDbEntity
8
1
62
256
6
ByLayer
370
-1
48
1
60
0
100
AcDbEllipse
10
98.545841
20
-3.514693
30
0
11
-3.05189424239433
21
-0.962258558413671
31
0
210
0
220
0
230
1
40
0.982115
41
2.48709418409192
42
-2.91077038336755
0
ELLIPSE
5
C0
100
AcDbEntity
8
1
62
256
6
ByLayer
370
-1
48
1
60
0
100
AcDbEllipse
10
96.460925
20
-11.825566
30
0
11
1.19243041955457
21
1.10853770558625
31
0
210
0
220
0
230
-1
40
0.902271
41
1.05946502370422
42
1.14212923903306
0
ELLIPSE
5
C1
100
AcDbEntity
8
1
62
256
6
ByLayer
370
-1
48
1
60
0
100
AcDbEllipse
10
123.758813
20
0
30
0
11
30.6410399315277
21
6.352669796861
31
0
210
0
220
0
230
-1
40
0.479253
41
2.66875344081061
42
-2.57535966493646
0
ELLIPSE
5
C2
100
AcDbEntity
8
1
62
256
6
ByLayer
370
-1
48
1
60
0
100
AcDbEllipse
10
102.736144
20
0.755506
30
0
11
-1.54979004496587
21
-0.488646924194442
31
0
210
0
220
0
230
1
40
0.982115
41
0.180767847001634
42
0.610865238198027
0
ELLIPSE
5
C3
100
AcDbEntity
8
1
62
256
6
ByLayer
370
-1
48
1
60
0
100
AcDbEllipse
10
122.895774
20
-6.707382
30
0
11
7.6297356059858
21
2.40564639603417
31
0
210
0
220
0
230
1
40
0.982115
41
2.8239506045593
42
2.8524227173931
0
ELLIPSE
5
C4
100
AcDbEntity
8
1
62
256
6
ByLayer
370
-1
48
1
60
0
100
AcDbEllipse
10
111.638213
20
-10.310483
30
0
11
2.80817345793617
21
0.885413690249378
31
0
210
0
220
0
230
1
40
0.982115
41
2.83094613457971
42
0
0
ELLIPSE
5
C5
100
AcDbEntity
8
1
62
256
6
ByLayer
370
-1
48
1
60
0
100
AcDbEllipse
10
111.638213
20
-10.310483
30
0
11
2.80817345793617
21
0.885413690249378
31
0
210
0
220
0
230
1
40
0.982115
41
0
42
0.423504504993611
0
ELLIPSE
5
C6
100
AcDbEntity
8
1
62
256
6
ByLayer
370
-1
48
1
60
0
100
AcDbEllipse
10
111.638213
20
-10.310483
30
0
11
2.80817345793617
21
0.885413690249378
31
0
210
0
220
0
230
1
40
0.982115
41
2.71794675552026
42
2.8309457893654
0
ELLIPSE
5
C7
100
AcDbEntity
8
1
62
256
6
ByLayer
370
-1
48
1
60
0
100
AcDbEllipse
10
104.159604
20
0.608876
30
0
11
0.772929822908315
21
0.183168988606486
31
0
210
0
220
0
230
-1
40
0.98503
41
-2.31866936929319
42
-1.57929828230461
0
ELLIPSE
5
C8
100
AcDbEntity
8
1
62
256
6
ByLayer
370
-1
48
1
60
0
100
AcDbEllipse
10
107.952036
20
-13.121877
30
0
11
0.375651667237923
21
0.141886067331968
31
0
210
0
220
0
230
-1
40
0.978619
41
2.58764657628731
42
-3.08707265374981
0
ELLIPSE
5
C9
100
AcDbEntity
8
1
62
256
6
ByLayer
370
-1
48
1
60
0
100
AcDbEllipse
10
104.192375
20
0.088492
30
0
11
0.772929822860921
21
0.183168988771102
31
0
210
0
220
0
230
-1
40
0.98503
41
-3.09062667375801
42
-0.807340977405206
0
ELLIPSE
5
CA
100
AcDbEntity
8
1
62
256
6
ByLayer
370
-1
48
1
60
0
100
AcDbEllipse
10
111.705091
20
-10.522592
30
0
11
2.90362383720893
21
0.915509079232119
31
0
210
0
220
0
230
1
40
0.982115
41
0
42
6.28318530717959
0
ELLIPSE
5
CB
100
AcDbEntity
8
1
62
256
6
ByLayer
370
-1
48
1
60
0
100
AcDbEllipse
10
104.103665
20
1.497141
30
0
11
0.840409330122497
21
-0.91798690174079
31
0
210
0
220
0
230
-1
40
0.147381
41
0.793794015982516
42
1.56575132064654
0
ELLIPSE
5
CC
100
AcDbEntity
8
1
62
256
6
ByLayer
370
-1
48
1
60
0
100
AcDbEllipse
10
104.103665
20
1.497141
30
0
11
0.548153714859961
21
1.8117701971178
31
0
210
0
220
0
230
-1
40
0.248059
41
-2.55425582340849
42
-1.89863534131599
0
ELLIPSE
5
CD
100
AcDbEntity
8
1
62
256
6
ByLayer
370
-1
48
1
60
0
100
AcDbEllipse
10
119.217806
20
-21.133676
30
0
11
0.772929822859446
21
0.183168988776634
31
0
210
0
220
0
230
-1
40
0.98503
41
0.0509659798384804
42
2.33425167619184
0
ELLIPSE
5
CE
100
AcDbEntity
8
1
62
256
6
ByLayer
370
-1
48
1
60
0
100
AcDbEllipse
10
111.647341
20
-10.339433
30
0
11
2.86115085224467
21
0.902117398512813
31
0
210
0
220
0
230
1
40
0.982115
41
2.94355241743359
42
0
0
ELLIPSE
5
CF
100
AcDbEntity
8
1
62
256
6
ByLayer
370
-1
48
1
60
0
100
AcDbEllipse
10
111.647341
20
-10.339433
30
0
11
2.86115085224467
21
0.902117398512813
31
0
210
0
220
0
230
1
40
0.982115
41
0
42
0.198095206510299
0
ELLIPSE
5
D0
100
AcDbEntity
8
1
62
256
6
ByLayer
370
-1
48
1
60
0
100
AcDbEllipse
10
114.830253
20
-7.31678
30
0
11
0.375651667183582
21
0.141886067618081
31
0
210
0
220
0
230
-1
40
0.978619
41
-0.553946076567755
42
-0.433270364181285
0
ELLIPSE
5
D1
100
AcDbEntity
8
1
62
256
6
ByLayer
370
-1
48
1
60
0
100
AcDbEllipse
10
115.458145
20
-7.923307
30
0
11
0.375651667247774
21
0.141886067304872
31
0
210
0
220
0
230
-1
40
0.978619
41
-0.553946077372999
42
0.0545199997700289
0
ELLIPSE
5
D2
100
AcDbEntity
8
1
62
256
6
ByLayer
370
-1
48
1
60
0
100
AcDbEllipse
10
110.060784
20
-11.284578
30
0
11
-0.654249828213284
21
-0.20628417845993
31
0
210
0
220
0
230
1
40
0.982115
41
3.14158331963407
42
-2.95777407570791
0
ELLIPSE
5
D3
100
AcDbEntity
8
1
62
256
6
ByLayer
370
-1
48
1
60
0
100
AcDbEllipse
10
112.985504
20
-10.091312
30
0
11
-0.278485349618482
21
-0.0878060934552474
31
0
210
0
220
0
230
1
40
0.982115
41
1.61444180403071
42
2.65184608374781
0
ELLIPSE
5
D4
100
AcDbEntity
8
1
62
256
6
ByLayer
370
-1
48
1
60
0
100
AcDbEllipse
10
111.607573
20
-10.213305
30
0
11
1.15065950107773
21
0.362801547101903
31
0
210
0
220
0
230
1
40
0.982115
41
-1.78756720945351
42
-0.743160205938254
0
ELLIPSE
5
D5
100
AcDbEntity
8
1
62
256
6
ByLayer
370
-1
48
1
60
0
100
AcDbEllipse
10
112.394588
20
-11.324899
30
0
11
-0.278485349618482
21
-0.0878060934552474
31
0
210
0
220
0
230
1
40
0.982115
41
0.570034800515405
42
3.06682428310379
0
ELLIPSE
5
D6
100
AcDbEntity
8
1
62
256
6
ByLayer
370
-1
48
1
60
0
100
AcDbEllipse
10
113.154362
20
-9.142033
30
0
11
-0.654249828213284
21
-0.20628417845993
31
0
210
0
220
0
230
1
40
0.982115
41
-0.485828715822159
42
-9.88714280860368E-06
0
ELLIPSE
5
D7
100
AcDbEntity
8
1
62
256
6
ByLayer
370
-1
48
1
60
0
100
AcDbEllipse
10
111.765206
20
-12.066847
30
0
11
-0.654249828213284
21
-0.20628417845993
31
0
210
0
220
0
230
1
40
0.982115
41
-1.7875672094535
42
-1.00357656583276
0
ELLIPSE
5
D8
100
AcDbEntity
8
1
62
256
6
ByLayer
370
-1
48
1
60
0
100
AcDbEllipse
10
111.607573
20
-10.213305
30
0
11
-1.15065950107773
21
-0.362801547101902
31
0
210
0
220
0
230
1
40
0.982115
41
2.39843244765154
42
-3.1046247507899
0
ELLIPSE
5
D9
100
AcDbEntity
8
1
62
256
6
ByLayer
370
-1
48
1
60
0
100
AcDbEllipse
10
111.67289
20
-10.420463
30
0
11
1.15065950107773
21
0.362801547101903
31
0
210
0
220
0
230
1
40
0.982115
41
-2.90519266790281
42
-2.7671274010787
0
ELLIPSE
5
DA
100
AcDbEntity
8
1
62
256
6
ByLayer
370
-1
48
1
60
0
100
AcDbEllipse
10
111.67289
20
-10.420463
30
0
11
1.15065950107773
21
0.362801547101903
31
0
210
0
220
0
230
1
40
0.982115
41
0.236399985687371
42
0.374465252510634
0
ELLIPSE
5
DB
100
AcDbEntity
8
1
62
256
6
ByLayer
370
-1
48
1
60
0
100
AcDbEllipse
10
111.688253
20
-10.469189
30
0
11
1.5989064679294
21
0.504133272868912
31
0
210
0
220
0
230
1
40
0.982115
41
-1.26536370769584
42
-0.220956704180641
0
ELLIPSE
5
DC
100
AcDbEntity
8
1
62
256
6
ByLayer
370
-1
48
1
60
0
100
AcDbEllipse
10
110.229642
20
-10.335299
30
0
11
-0.278485349618482
21
-0.0878060934552474
31
0
210
0
220
0
230
1
40
0.982115
41
0.482263379362291
42
1.09669395402018
0
ELLIPSE
5
DD
100
AcDbEntity
8
1
62
256
6
ByLayer
370
-1
48
1
60
0
100
AcDbEllipse
10
111.688253
20
-10.469189
30
0
11
1.5989064679294
21
0.504133272868912
31
0
210
0
220
0
230
1
40
0.982115
41
-0.220956704180641
42
0.831821942378613
0
ELLIPSE
5
DE
100
AcDbEntity
8
1
62
256
6
ByLayer
370
-1
48
1
60
0
100
AcDbEllipse
10
111.688253
20
-10.469189
30
0
11
1.5989064679294
21
0.504133272868912
31
0
210
0
220
0
230
1
40
0.982115
41
0.831821942378614
42
1.87622894589389
0
ELLIPSE
5
DF
100
AcDbEntity
8
1
62
256
6
ByLayer
370
-1
48
1
60
0
100
AcDbEllipse
10
111.688253
20
-10.469189
30
0
11
1.5989064679294
21
0.504133272868912
31
0
210
0
220
0
230
1
40
0.982115
41
2.92063594940917
42
-2.30977071121109
0
ELLIPSE
5
E0
100
AcDbEntity
8
1
62
256
6
ByLayer
370
-1
48
1
60
0
100
AcDbEllipse
10
111.607573
20
-10.213305
30
0
11
1.15065950107773
21
0.362801547101903
31
0
210
0
220
0
230
1
40
0.982115
41
-2.9051926679028
42
-2.7671274010787
0
ELLIPSE
5
E1
100
AcDbEntity
8
1
62
256
6
ByLayer
370
-1
48
1
60
0
100
AcDbEllipse
10
110.060784
20
-11.284578
30
0
11
-0.654249828213284
21
-0.20628417845993
31
0
210
0
220
0
230
1
40
0.982115
41
-2.71454599327361
42
-2.04489869956956
0
ELLIPSE
5
E2
100
AcDbEntity
8
1
62
256
6
ByLayer
370
-1
48
1
60
0
100
AcDbEllipse
10
111.607573
20
-10.213305
30
0
11
-1.15065950107773
21
-0.362801547101902
31
0
210
0
220
0
230
1
40
0.982115
41
-2.74175074133578
42
-2.22351735227913
0
ELLIPSE
5
E3
100
AcDbEntity
8
1
62
256
6
ByLayer
370
-1
48
1
60
0
100
AcDbEllipse
10
111.688253
20
-10.469189
30
0
11
1.5989064679294
21
0.504133272868912
31
0
210
0
220
0
230
1
40
0.982115
41
1.87622894589389
42
2.92063594940917
0
ELLIPSE
5
E4
100
AcDbEntity
8
1
62
256
6
ByLayer
370
-1
48
1
60
0
100
AcDbEllipse
10
111.688253
20
-10.469189
30
0
11
1.7166905113468
21
0.541270439107689
31
0
210
0
220
0
230
1
40
0.982115
41
0
42
6.28318530717959
0
ELLIPSE
5
E5
100
AcDbEntity
8
1
62
256
6
ByLayer
370
-1
48
1
60
0
100
AcDbEllipse
10
113.314756
20
-10.993661
30
0
11
-0.654249828213284
21
-0.20628417845993
31
0
210
0
220
0
230
1
40
0.982115
41
-1.52715084955903
42
-0.743160205938203
0
ELLIPSE
5
E6
100
AcDbEntity
8
1
62
256
6
ByLayer
370
-1
48
1
60
0
100
AcDbEllipse
10
111.688253
20
-10.469189
30
0
11
1.5989064679294
21
0.504133272868912
31
0
210
0
220
0
230
1
40
0.982115
41
-2.30977071121109
42
-1.26536370769584
0
ELLIPSE
5
E7
100
AcDbEntity
8
1
62
256
6
ByLayer
370
-1
48
1
60
0
100
AcDbEllipse
10
111.672658
20
-10.419729
30
0
11
2.50350699571409
21
0.789352723698714
31
0
210
0
220
0
230
1
40
0.982115
41
0
42
6.28318530717959
0
ELLIPSE
5
E8
100
AcDbEntity
8
1
62
256
6
ByLayer
370
-1
48
1
60
0
100
AcDbEllipse
10
111.765206
20
-12.066847
30
0
11
-0.654249828213284
21
-0.20628417845993
31
0
210
0
220
0
230
1
40
0.982115
41
-2.57155785307435
42
-1.7875672094535
0
ELLIPSE
5
E9
100
AcDbEntity
8
1
62
256
6
ByLayer
370
-1
48
1
60
0
100
AcDbEllipse
10
111.608989
20
-10.217795
30
0
11
2.5035069957141
21
0.789352723698714
31
0
210
0
220
0
230
1
40
0.982115
41
2.83094619520398
42
-3.14151577684905
0
ELLIPSE
5
EA
100
AcDbEntity
8
1
62
256
6
ByLayer
370
-1
48
1
60
0
100
AcDbEllipse
10
111.608989
20
-10.217795
30
0
11
2.5035069957141
21
0.789352723698714
31
0
210
0
220
0
230
1
40
0.982115
41
0
42
2.83094604633229
0
ELLIPSE
5
EB
100
AcDbEntity
8
1
62
256
6
ByLayer
370
-1
48
1
60
0
100
AcDbEllipse
10
113.314756
20
-10.993661
30
0
11
-0.654249828213284
21
-0.20628417845993
31
0
210
0
220
0
230
1
40
0.982115
41
-0.743160205938203
42
-1.0916039067624E-05
0
ELLIPSE
5
EC
100
AcDbEntity
8
1
62
256
6
ByLayer
370
-1
48
1
60
0
100
AcDbEllipse
10
111.607573
20
-10.213305
30
0
11
-1.15065950107773
21
-0.362801547101902
31
0
210
0
220
0
230
1
40
0.982115
41
-0.376039018102137
42
0.236399985686993
0
ELLIPSE
5
ED
100
AcDbEntity
8
1
62
256
6
ByLayer
370
-1
48
1
60
0
100
AcDbEllipse
10
111.607573
20
-10.213305
30
0
11
-1.15065950107773
21
-0.362801547101902
31
0
210
0
220
0
230
1
40
0.982115
41
-1.42953155292089
42
-0.917576535630775
0
ELLIPSE
5
EE
100
AcDbEntity
8
1
62
256
6
ByLayer
370
-1
48
1
60
0
100
AcDbEllipse
10
111.607573
20
-10.213305
30
0
11
-1.15065950107773
21
-0.362801547101902
31
0
210
0
220
0
230
1
40
0.982115
41
0.374465252511088
42
1.35402544413629
0
ELLIPSE
5
EF
100
AcDbEntity
8
1
62
256
6
ByLayer
370
-1
48
1
60
0
100
AcDbEllipse
10
111.020458
20
-11.452261
30
0
11
-0.278485349618482
21
-0.0878060934552474
31
0
210
0
220
0
230
1
40
0.982115
41
0.434076427275121
42
2.13801608775703
0
ELLIPSE
5
F0
100
AcDbEntity
8
1
62
256
6
ByLayer
370
-1
48
1
60
0
100
AcDbEllipse
10
103.905818
20
1.16779
30
0
11
-0.410098288821738
21
-0.129303493786837
31
0
210
0
220
0
230
1
40
0.982115
41
-2.22913601157335
42
9.98994337819229E-14
0
POINT
5
41
100
AcDbEntity
8
80
62
256
6
ByLayer
370
-1
48
1
60
0
100
AcDbPoint
10
0
20
0
30
0
39
0
210
0
220
0
230
1
50
360
0
POINT
5
43
100
AcDbEntity
8
81
62
256
6
ByLayer
370
-1
48
1
60
0
100
AcDbPoint
10
120
20
-21.9
30
0
39
0
210
0
220
0
230
1
50
360
0
POINT
5
45
100
AcDbEntity
8
1
62
256
6
ByLayer
370
-1
48
1
60
0
100
AcDbPoint
10
0
20
0
30
0
39
0
210
0
220
0
230
1
50
360
0
POINT
5
47
100
AcDbEntity
8
2
62
256
6
ByLayer
370
-1
48
1
60
0
100
AcDbPoint
10
120
20
21.9
30
0
39
0
210
0
220
0
230
1
50
360
0
POINT
5
49
100
AcDbEntity
8
2
62
256
6
ByLayer
370
-1
48
1
60
0
100
AcDbPoint
10
119.448793
20
19.286308
30
0
39
0
210
0
220
0
230
1
50
360
0
SPLINE
5
F1
100
AcDbEntity
8
SK1
62
256
6
ByLayer
370
-1
48
1
60
0
100
AcDbSpline
70
4
71
3
72
13
73
9
40
0
40
0
40
0
40
0
40
0.239458036043419
40
0.368362246063121
40
0.500001724232839
40
0.631640912863397
40
0.76054432664118
40
1
40
1
40
1
40
1
41
1
10
-2
20
21.8251283250689
30
0
41
1
10
-2.02607218225586
20
21.8253815693237
30
0
41
1
10
-2.06363558177699
20
21.8324994546095
30
0
41
1
10
-2.11047835033028
20
21.8567272514908
30
0
41
1
10
-2.14242263580763
20
21.8827049776713
30
0
41
1
10
-2.1684006716975
20
21.9146488976998
30
0
41
1
10
-2.192628756261
20
21.9614911120955
30
0
41
1
10
-2.19974671959665
20
21.9990541369822
30
0
41
1
10
-2.20000000000002
20
22.0251260775077
30
0
0
SPLINE
5
F2
100
AcDbEntity
8
SK1
62
256
6
ByLayer
370
-1
48
1
60
0
100
AcDbSpline
70
4
71
3
72
13
73
9
40
0
40
0
40
0
40
0
40
0.239455678458287
40
0.368359092600278
40
0.499998280591693
40
0.63163775747672
40
0.760541965960286
40
1
40
1
40
1
40
1
41
1
10
-2.20000000000002
20
-22.0251260837646
30
0
41
1
10
-2.19974671976326
20
-21.9990541435572
30
0
41
1
10
-2.19262875645049
20
-21.9614911190379
30
0
41
1
10
-2.16840067179331
20
-21.9146489043199
30
0
41
1
10
-2.14242263587786
20
-21.8827049843059
30
0
41
1
10
-2.11047835037542
20
-21.8567272581279
30
0
41
1
10
-2.06363558166035
20
-21.832499461233
30
0
41
1
10
-2.02607218220658
20
-21.8253815759776
30
0
41
1
10
-2
20
-21.8251283317571
30
0
0
SPLINE
5
F3
100
AcDbEntity
8
SK1
62
256
6
ByLayer
370
-1
48
1
60
0
100
AcDbSpline
70
4
71
2
72
6
73
3
40
0
40
0
40
0
40
1
40
1
40
1
41
1
10
-2.19492488857412
20
22.0202267184689
30
0
41
1
10
-2.59746244428706
20
22.0101135737565
30
0
41
1
10
-3
20
22.0000004290441
30
0
0
SPLINE
5
F4
100
AcDbEntity
8
SK1
62
256
6
ByLayer
370
-1
48
1
60
0
100
AcDbSpline
70
4
71
2
72
6
73
3
40
0
40
0
40
0
40
1
40
1
40
1
41
1
10
-3
20
-22.0000004375346
30
0
41
1
10
-2.59746244428706
20
-22.0101135822509
30
0
41
1
10
-2.19492488857412
20
-22.0202267269672
30
0
0
SPLINE
5
F5
100
AcDbEntity
8
SK1
62
256
6
ByLayer
370
-1
48
1
60
0
100
AcDbSpline
70
4
71
2
72
6
73
3
40
0
40
0
40
0
40
1
40
1
40
1
41
1
10
-3
20
22.0000004290441
30
0
41
1
10
-19.7502365839533
20
21.5791761751669
30
0
41
1
10
-36.5004731679066
20
21.1583519212896
30
0
0
SPLINE
5
F6
100
AcDbEntity
8
SK1
62
256
6
ByLayer
370
-1
48
1
60
0
100
AcDbSpline
70
4
71
2
72
6
73
3
40
0
40
0
40
0
40
1
40
1
40
1
41
1
10
-36.5004731679067
20
-21.1583519294552
30
0
41
1
10
-19.7502365839533
20
-21.5791761834948
30
0
41
1
10
-3
20
-22.0000004375346
30
0
0
SPLINE
5
F7
100
AcDbEntity
8
SK1
62
256
6
ByLayer
370
-1
48
1
60
0
100
AcDbSpline
70
4
71
2
72
6
73
3
40
0
40
0
40
0
40
1
40
1
40
1
41
1
10
-2
20
-21.8251283317571
30
0
41
1
10
-1.20000000000002
20
-21.8251283317571
30
0
41
1
10
-0.400000000000006
20
-21.8251283317571
30
0
0
SPLINE
5
F8
100
AcDbEntity
8
SK1
62
256
6
ByLayer
370
-1
48
1
60
0
100
AcDbSpline
70
4
71
2
72
6
73
3
40
0
40
0
40
0
40
1
40
1
40
1
41
1
10
-0.400000000000006
20
21.8251283250689
30
0
41
1
10
-1.20000000000002
20
21.8251283250689
30
0
41
1
10
-2
20
21.8251283250689
30
0
0
SPLINE
5
F9
100
AcDbEntity
8
SK1
62
256
6
ByLayer
370
-1
48
1
60
0
100
AcDbSpline
70
4
71
2
72
6
73
3
40
0
40
0
40
0
40
1
40
1
40
1
41
1
10
-38
20
-20.2413583528791
30
0
41
1
10
-37.250216097561
20
-20.6997323883077
30
0
41
1
10
-36.5004321682704
20
-21.1581061531923
30
0
0
SPLINE
5
FA
100
AcDbEntity
8
SK1
62
256
6
ByLayer
370
-1
48
1
60
0
100
AcDbSpline
70
4
71
2
72
6
73
3
40
0
40
0
40
0
40
1
40
1
40
1
41
1
10
-36.500413873027
20
21.1568446673342
30
0
41
1
10
-37.2502068935606
20
20.6982812567361
30
0
41
1
10
-38
20
20.2397162883162
30
0
0
SPLINE
5
FB
100
AcDbEntity
8
SK1
62
256
6
ByLayer
370
-1
48
1
60
0
100
AcDbSpline
70
4
71
2
72
6
73
3
40
0
40
0
40
0
40
1
40
1
40
1
41
1
10
-0.236364239553211
20
21.9101116399906
30
0
41
1
10
-0.263846985495974
20
21.8242676829202
30
0
41
1
10
-0.400000000000006
20
21.8251283250689
30
0
0
SPLINE
5
FC
100
AcDbEntity
8
SK1
62
256
6
ByLayer
370
-1
48
1
60
0
100
AcDbSpline
70
4
71
2
72
6
73
3
40
0
40
0
40
0
40
1
40
1
40
1
41
1
10
-0.400000000000006
20
-21.8251283317571
30
0
41
1
10
-0.26569362178526
20
-21.8236723966925
30
0
41
1
10
-0.237972420189863
20
-21.9072633449935
30
0
0
SPLINE
5
FD
100
AcDbEntity
8
1
62
256
6
ByLayer
370
-1
48
1
60
0
100
AcDbSpline
70
4
71
3
72
18
73
14
40
0
40
0
40
0
40
0
40
0.0048641047853987
40
0.0048641047853987
40
0.113203312756789
40
0.113203312756789
40
0.252307002956709
40
0.252307002956709
40
0.472239664393952
40
0.472239664393952
40
0.894682818087943
40
0.894682818087943
40
1
40
1
40
1
40
1
41
1
10
13.4613248654052
20
30.0805927603169
30
0
41
1
10
13.4625482550453
20
30.0805927603169
30
0
41
1
10
13.4637716827108
20
30.0805898964002
30
0
41
1
10
13.4918849987862
20
30.0804582858311
30
0
41
1
10
13.5190042093444
20
30.0788870212281
30
0
41
1
10
13.5767029487623
20
30.0726800181318
30
0
41
1
10
13.6070440683976
20
30.0672635530197
30
0
41
1
10
13.6765942028226
20
30.0507602157503
30
0
41
1
10
13.7124906049065
20
30.0379954087022
30
0
41
1
10
13.8010726383563
20
29.9983076443639
30
0
41
1
10
13.8419782234535
20
29.968274932258
30
0
41
1
10
13.8806741852959
20
29.9296718333698
30
0
41
1
10
13.8877916772123
20
29.9218496167517
30
0
41
1
10
13.8943375672974
20
29.9139548464691
30
0
0
SPLINE
5
FE
100
AcDbEntity
8
1
62
256
6
ByLayer
370
-1
48
1
60
0
100
AcDbSpline
70
4
71
3
72
18
73
14
40
0
40
0
40
0
40
0
40
0.0048641047854146
40
0.0048641047854146
40
0.113203312756797
40
0.113203312756797
40
0.252307002956716
40
0.252307002956716
40
0.472239664393974
40
0.472239664393974
40
0.894682818087995
40
0.894682818087995
40
1
40
1
40
1
40
1
41
1
10
10.5386751345948
20
9.34922131452504
30
0
41
1
10
10.5374517449547
20
9.34922131452504
30
0
41
1
10
10.5362283172892
20
9.34923052903073
30
0
41
1
10
10.5081150012137
20
9.34965397724795
30
0
41
1
10
10.4809957906555
20
9.354712145283
30
0
41
1
10
10.4232970512377
20
9.37464954573258
30
0
41
1
10
10.3929559316024
20
9.39202437584845
30
0
41
1
10
10.3234057971774
20
9.44473147370712
30
0
41
1
10
10.2875093950935
20
9.48529706929932
30
0
41
1
10
10.1989273616436
20
9.61035706938748
30
0
41
1
10
10.1580217765465
20
9.70372859127181
30
0
41
1
10
10.1193258147041
20
9.82167814889502
30
0
41
1
10
10.1122083227876
20
9.84548375806278
30
0
41
1
10
10.1056624327026
20
9.86941261896612
30
0
0
SPLINE
5
FF
100
AcDbEntity
8
1
62
256
6
ByLayer
370
-1
48
1
60
0
100
AcDbSpline
70
4
71
3
72
10
73
6
40
0
40
0
40
0
40
0
40
0.679363206623597
40
0.679363206623597
40
1
40
1
40
1
40
1
41
1
10
101.80026747273
20
1.36411743421638
30
0
41
1
10
101.810653300665
20
1.2459012739323
30
0
41
1
10
101.825463773575
20
1.13174192915108
30
0
41
1
10
101.854569678212
20
0.969659157899798
30
0
41
1
10
101.865012432248
20
0.918589639281038
30
0
41
1
10
101.876646447716
20
0.86841858785607
30
0
0
SPLINE
5
100
100
AcDbEntity
8
1
62
256
6
ByLayer
370
-1
48
1
60
0
100
AcDbSpline
70
4
71
3
72
16
73
12
40
0
40
0
40
0
40
0
40
0.270525378058462
40
0.270525378058462
40
0.5993841859556
40
0.5993841859556
40
0.762140188651907
40
0.762140188651907
40
0.896616864840263
40
0.896616864840263
40
1
40
1
40
1
40
1
41
1
10
10.1056624327026
20
-9.86941261896612
30
0
41
1
10
10.1223634077913
20
-9.80836128680866
30
0
41
1
10
10.1427637790421
20
-9.74795557584926
30
0
41
1
10
10.1990606898966
20
-9.61806206841857
30
0
41
1
10
10.2376786518697
20
-9.54815463560527
30
0
41
1
10
10.3135455046785
20
-9.45744596321495
30
0
41
1
10
10.3421747269917
20
-9.42931579222244
30
0
41
1
10
10.4012015538043
20
-9.38709146615406
30
0
41
1
10
10.4310551857851
20
-9.37112695979135
30
0
41
1
10
10.4870716086066
20
-9.35344618198363
30
0
41
1
10
10.5130127501305
20
-9.34922131452504
30
0
41
1
10
10.5386751345948
20
-9.34922131452504
30
0
0
SPLINE
5
101
100
AcDbEntity
8
1
62
256
6
ByLayer
370
-1
48
1
60
0
100
AcDbSpline
70
4
71
3
72
16
73
12
40
0
40
0
40
0
40
0
40
0.270525378058593
40
0.270525378058593
40
0.599384185955625
40
0.599384185955625
40
0.762140188651943
40
0.762140188651943
40
0.896616864840276
40
0.896616864840276
40
1
40
1
40
1
40
1
41
1
10
13.8943375672974
20
-29.9139548464691
30
0
41
1
10
13.8776365922086
20
-29.9340973114522
30
0
41
1
10
13.8572362209579
20
-29.9538166638149
30
0
41
1
10
13.8009393101033
20
-29.9958084253268
30
0
41
1
10
13.7623213481302
20
-30.0181074912897
30
0
41
1
10
13.6864544953215
20
-30.0467588108259
30
0
41
1
10
13.6578252730083
20
-30.0555916882576
30
0
41
1
10
13.5987984461956
20
-30.0688029947856
30
0
41
1
10
13.5689448142149
20
-30.0737774310785
30
0
41
1
10
13.5129283913934
20
-30.0792804002415
30
0
41
1
10
13.4869872498695
20
-30.0805927603169
30
0
41
1
10
13.4613248654052
20
-30.0805927603169
30
0
0
SPLINE
5
102
100
AcDbEntity
8
1
62
256
6
ByLayer
370
-1
48
1
60
0
100
AcDbSpline
70
4
71
3
72
16
73
12
40
0
40
0
40
0
40
0
40
0.270525378058565
40
0.270525378058565
40
0.599384185955612
40
0.599384185955612
40
0.76214018865193
40
0.76214018865193
40
0.896616864840277
40
0.896616864840277
40
1
40
1
40
1
40
1
41
1
10
13.8943375672974
20
9.86941261896609
30
0
41
1
10
13.8776365922086
20
9.80836128680863
30
0
41
1
10
13.8572362209579
20
9.7479555758492
30
0
41
1
10
13.8009393101034
20
9.61806206841851
30
0
41
1
10
13.7623213481302
20
9.54815463560524
30
0
41
1
10
13.6864544953215
20
9.45744596321492
30
0
41
1
10
13.6578252730083
20
9.42931579222241
30
0
41
1
10
13.5987984461957
20
9.38709146615406
30
0
41
1
10
13.5689448142149
20
9.37112695979135
30
0
41
1
10
13.5129283913934
20
9.35344618198363
30
0
41
1
10
13.4869872498695
20
9.34922131452504
30
0
41
1
10
13.4613248654052
20
9.34922131452504
30
0
0
SPLINE
5
103
100
AcDbEntity
8
1
62
256
6
ByLayer
370
-1
48
1
60
0
100
AcDbSpline
70
4
71
3
72
18
73
14
40
0
40
0
40
0
40
0
40
0.222061570307522
40
0.222061570307522
40
0.409459290450519
40
0.409459290450519
40
0.598541490836877
40
0.598541490836877
40
0.76284528088185
40
0.76284528088185
40
0.92354034672958
40
0.92354034672958
40
1
40
1
40
1
40
1
41
1
10
91.7519024079709
20
14.0263094691874
30
0
41
1
10
91.5573315907183
20
14.0207146955952
30
0
41
1
10
91.3615517386776
20
14.0011362110834
30
0
41
1
10
91.0279356988123
20
13.9356834399837
30
0
41
1
10
90.8822356610573
20
13.8934515794319
30
0
41
1
10
90.6326263862813
20
13.7849842231802
30
0
41
1
10
90.5256360125562
20
13.71656739898
30
0
41
1
10
90.3852564396429
20
13.5720670040189
30
0
41
1
10
90.3422611420087
20
13.4962315366786
30
0
41
1
10
90.3057973211882
20
13.3416267215463
30
0
41
1
10
90.3105369549839
20
13.2611741865062
30
0
41
1
10
90.3455703205217
20
13.144000746093
30
0
41
1
10
90.3612739055765
20
13.106008121755
30
0
41
1
10
90.3807476478237
20
13.0684235893468
30
0
0
SPLINE
5
104
100
AcDbEntity
8
1
62
256
6
ByLayer
370
-1
48
1
60
0
100
AcDbSpline
70
4
71
3
72
8
73
4
40
0
40
0
40
0
40
0
40
1
40
1
40
1
40
1
41
1
10
88.6850156180849
20
-13.0358604303722
30
0
41
1
10
86.4014502436862
20
-13.0167612422819
30
0
41
1
10
84.2209166729411
20
-13.6884533488345
30
0
41
1
10
82.6896033373701
20
-14.4205647108791
30
0
0
SPLINE
5
105
100
AcDbEntity
8
1
62
256
6
ByLayer
370
-1
48
1
60
0
100
AcDbSpline
70
4
71
3
72
16
73
12
40
0
40
0
40
0
40
0
40
0.270525378058744
40
0.270525378058744
40
0.599384185955696
40
0.599384185955696
40
0.762140188652004
40
0.762140188652004
40
0.896616864840327
40
0.896616864840327
40
1
40
1
40
1
40
1
41
1
10
10.1056624327026
20
29.9139548464691
30
0
41
1
10
10.1223634077914
20
29.9340973114522
30
0
41
1
10
10.1427637790421
20
29.9538166638149
30
0
41
1
10
10.1990606898967
20
29.9958084253268
30
0
41
1
10
10.2376786518698
20
30.0181074912897
30
0
41
1
10
10.3135455046785
20
30.0467588108259
30
0
41
1
10
10.3421747269917
20
30.0555916882576
30
0
41
1
10
10.4012015538044
20
30.0688029947856
30
0
41
1
10
10.4310551857851
20
30.0737774310785
30
0
41
1
10
10.4870716086066
20
30.0792804002415
30
0
41
1
10
10.5130127501305
20
30.0805927603169
30
0
41
1
10
10.5386751345948
20
30.0805927603169
30
0
0
SPLINE
5
106
100
AcDbEntity
8
1
62
256
6
ByLayer
370
-1
48
1
60
0
100
AcDbSpline
70
4
71
3
72
20
73
16
40
0
40
0
40
0
40
0
40
0.115330984887983
40
0.115330984887983
40
0.232687742872008
40
0.232687742872008
40
0.318105297175714
40
0.318105297175714
40
0.403164446417225
40
0.403164446417225
40
0.530017674925229
40
0.530017674925229
40
0.740241110812869
40
0.740241110812869
40
1
40
1
40
1
40
1
41
1
10
80.6555896814219
20
-15.3242957129455
30
0
41
1
10
80.5848134771568
20
-15.352716334458
30
0
41
1
10
80.5232680322802
20
-15.3826428800109
30
0
41
1
10
80.4356348764719
20
-15.4438528012478
30
0
41
1
10
80.4096604218016
20
-15.4760677638299
30
0
41
1
10
80.4143593650418
20
-15.5284995917551
30
0
41
1
10
80.4319088994475
20
-15.5501265786665
30
0
41
1
10
80.4953778785704
20
-15.5888844331589
30
0
41
1
10
80.5416635502692
20
-15.6065067844936
30
0
41
1
10
80.679029155509
20
-15.6445240841563
30
0
41
1
10
80.7825477044567
20
-15.6628703756378
30
0
41
1
10
81.0766401653337
20
-15.7021098636245
30
0
41
1
10
81.2851175837106
20
-15.7180924942995
30
0
41
1
10
81.7584312841626
20
-15.7434429907668
30
0
41
1
10
82.0316439097004
20
-15.7505649295789
30
0
41
1
10
82.3039734557585
20
-15.7534469396857
30
0
0
SPLINE
5
107
100
AcDbEntity
8
1
62
256
6
ByLayer
370
-1
48
1
60
0
100
AcDbSpline
70
4
71
3
72
18
73
14
40
0
40
0
40
0
40
0
40
0.0048641047853794
40
0.0048641047853794
40
0.113203312756778
40
0.113203312756778
40
0.252307002956694
40
0.252307002956694
40
0.472239664393917
40
0.472239664393917
40
0.894682818087876
40
0.894682818087876
40
1
40
1
40
1
40
1
41
1
10
13.4613248654052
20
-9.34922131452504
30
0
41
1
10
13.4625482550453
20
-9.34922131452504
30
0
41
1
10
13.4637716827108
20
-9.34923052903076
30
0
41
1
10
13.4918849987862
20
-9.34965397724795
30
0
41
1
10
13.5190042093444
20
-9.354712145283
30
0
41
1
10
13.5767029487623
20
-9.37464954573258
30
0
41
1
10
13.6070440683976
20
-9.39202437584845
30
0
41
1
10
13.6765942028226
20
-9.44473147370712
30
0
41
1
10
13.7124906049065
20
-9.48529706929929
30
0
41
1
10
13.8010726383563
20
-9.61035706938739
30
0
41
1
10
13.8419782234534
20
-9.70372859127173
30
0
41
1
10
13.8806741852959
20
-9.82167814889493
30
0
41
1
10
13.8877916772123
20
-9.84548375806273
30
0
41
1
10
13.8943375672974
20
-9.86941261896609
30
0
0
SPLINE
5
108
100
AcDbEntity
8
1
62
256
6
ByLayer
370
-1
48
1
60
0
100
AcDbSpline
70
4
71
3
72
14
73
10
40
0
40
0
40
0
40
0
40
0.213988391845618
40
0.213988391845618
40
0.425750401145198
40
0.425750401145198
40
0.739642324276395
40
0.739642324276395
40
1
40
1
40
1
40
1
41
1
10
96.3498983661343
20
-13.0998714203748
30
0
41
1
10
96.4978883490487
20
-13.101105444012
30
0
41
1
10
96.6483724108269
20
-13.085095070338
30
0
41
1
10
96.92504853525
20
-13.0257391398435
30
0
41
1
10
97.0553664926351
20
-12.9821918109727
30
0
41
1
10
97.3449071319122
20
-12.8521144898653
30
0
41
1
10
97.4938058892287
20
-12.7530417700595
30
0
41
1
10
97.7161182658002
20
-12.5511477751816
30
0
41
1
10
97.8001239763884
20
-12.4501172059377
30
0
41
1
10
97.8662727685141
20
-12.3433413160184
30
0
0
SPLINE
5
109
100
AcDbEntity
8
1
62
256
6
ByLayer
370
-1
48
1
60
0
100
AcDbSpline
70
4
71
3
72
18
73
14
40
0
40
0
40
0
40
0
40
0.0048641047853628
40
0.0048641047853628
40
0.113203312756749
40
0.113203312756749
40
0.252307002956659
40
0.252307002956659
40
0.472239664393867
40
0.472239664393867
40
0.894682818087803
40
0.894682818087803
40
1
40
1
40
1
40
1
41
1
10
10.5386751345948
20
-30.0805927603169
30
0
41
1
10
10.5374517449547
20
-30.0805927603169
30
0
41
1
10
10.5362283172892
20
-30.0805898964002
30
0
41
1
10
10.5081150012138
20
-30.0804582858311
30
0
41
1
10
10.4809957906556
20
-30.0788870212281
30
0
41
1
10
10.4232970512377
20
-30.0726800181318
30
0
41
1
10
10.3929559316024
20
-30.0672635530197
30
0
41
1
10
10.3234057971774
20
-30.0507602157503
30
0
41
1
10
10.2875093950935
20
-30.0379954087022
30
0
41
1
10
10.1989273616437
20
-29.9983076443639
30
0
41
1
10
10.1580217765465
20
-29.968274932258
30
0
41
1
10
10.1193258147041
20
-29.9296718333698
30
0
41
1
10
10.1122083227877
20
-29.9218496167517
30
0
41
1
10
10.1056624327026
20
-29.9139548464691
30
0
0
SPLINE
5
10A
100
AcDbEntity
8
SK1
62
256
6
ByLayer
370
-1
48
1
60
0
100
AcDbSpline
70
4
71
3
72
8
73
4
40
0
40
0
40
0
40
0
40
1
40
1
40
1
40
1
41
1
10
-2.84E-14
20
7.47795498707188
30
0
41
1
10
-0.0666668441596983
20
7.47000684507091
30
0
41
1
10
-0.133333513168509
20
7.46205581415995
30
0
41
1
10
-0.199999999999989
20
7.45410184860194
30
0
0
SPLINE
5
10B
100
AcDbEntity
8
SK1
62
256
6
ByLayer
370
-1
48
1
60
0
100
AcDbSpline
70
4
71
3
72
8
73
4
40
0
40
0
40
0
40
0
40
1
40
1
40
1
40
1
41
1
10
-0.199999999999989
20
-7.45410255809307
30
0
41
1
10
-0.13333351319929
20
-7.46205653145404
30
0
41
1
10
-0.06666684419136
20
-7.47000756994314
30
0
41
1
10
-2.84E-14
20
-7.47795571927756
30
0
0
SPLINE
5
10C
100
AcDbEntity
8
SK1
62
256
6
ByLayer
370
-1
48
1
60
0
100
AcDbSpline
70
4
71
3
72
24
73
20
40
0
40
0
40
0
40
0
40
0.360879502691496
40
0.360879502691496
40
0.679522527249465
40
0.679522527249465
40
0.773125538541259
40
0.773125538541259
40
0.824378815352241
40
0.824378815352241
40
0.862175757855351
40
0.862175757855351
40
0.892530262599779
40
0.892530262599779
40
0.922882097305825
40
0.922882097305825
40
0.965340403806628
40
0.965340403806628
40
1
40
1
40
1
40
1
41
1
10
-1.30710678118655
20
4.69591747913023
30
0
41
1
10
-1.26533314969214
20
4.9280006140346
30
0
41
1
10
-1.21563689128735
20
5.15732729985041
30
0
41
1
10
-1.09208849439545
20
5.57726964614551
30
0
41
1
10
-1.02458712063205
20
5.77316566660494
30
0
41
1
10
-0.886361634688797
20
6.00127451080465
30
0
41
1
10
-0.850777002090695
20
6.05190263088906
30
0
41
1
10
-0.783955064248175
20
6.12096806939894
30
0
41
1
10
-0.757647970575704
20
6.14385724295292
30
0
41
1
10
-0.706249370394545
20
6.17602680222078
30
0
41
1
10
-0.682168850057224
20
6.18745435634116
30
0
41
1
10
-0.636302078399041
20
6.20006250680512
30
0
41
1
10
-0.614540165939815
20
6.20282738019478
30
0
41
1
10
-0.571796256965456
20
6.20141682079489
30
0
41
1
10
-0.550342277966621
20
6.19724496298289
30
0
41
1
10
-0.502408394194077
20
6.18104812749763
30
0
41
1
10
-0.476466316815021
20
6.16651733970684
30
0
41
1
10
-0.434092524691693
20
6.13600824129722
30
0
41
1
10
-0.416431789013416
20
6.12055641171887
30
0
41
1
10
-0.400000000000063
20
6.10423156158009
30
0
0
SPLINE
5
10D
100
AcDbEntity
8
SK1
62
256
6
ByLayer
370
-1
48
1
60
0
100
AcDbSpline
70
4
71
3
72
22
73
18
40
0
40
0
40
0
40
0
40
0.0423762482151073
40
0.0423762482151073
40
0.0854249042403576
40
0.0854249042403576
40
0.115510710892585
40
0.115510710892585
40
0.145562977863389
40
0.145562977863389
40
0.188866560319605
40
0.188866560319605
40
0.269464421829291
40
0.269464421829291
40
0.539576062841086
40
0.539576062841086
40
1
40
1
40
1
40
1
41
1
10
-0.400000000000063
20
-6.10423197315535
30
0
41
1
10
-0.420133409127487
20
-6.12423434429553
30
0
41
1
10
-0.442149896508255
20
-6.14298369126584
30
0
41
1
10
-0.490914524716317
20
-6.17485278184395
30
0
41
1
10
-0.518425990074348
20
-6.18818802917735
30
0
41
1
10
-0.568088809269341
20
-6.2007917866726
30
0
41
1
10
-0.589839550198434
20
-6.20307835596932
30
0
41
1
10
-0.632358101077472
20
-6.20079662668147
30
0
41
1
10
-0.65359418173702
20
-6.19624019805292
30
0
41
1
10
-0.701806923597019
20
-6.17907520886138
30
0
41
1
10
-0.728087274871882
20
-6.16375377211619
30
0
41
1
10
-0.795263795653284
20
-6.11374953177531
30
0
41
1
10
-0.831450402468533
20
-6.07313839594474
30
0
41
1
10
-0.968479126013762
20
-5.89027783727639
30
0
41
1
10
-1.03459250955694
20
-5.72638662078546
30
0
41
1
10
-1.18908100646803
20
-5.28349358994365
30
0
41
1
10
-1.25390182158543
20
-4.99150600000522
30
0
41
1
10
-1.30710678118655
20
-4.69591515673878
30
0
0
SPLINE
5
10E
100
AcDbEntity
8
SK1
62
256
6
ByLayer
370
-1
48
1
60
0
100
AcDbSpline
70
4
71
3
72
8
73
4
40
0
40
0
40
0
40
0
40
1
40
1
40
1
40
1
41
1
10
-0.200000000000074
20
7.06635637915059
30
0
41
1
10
-0.200000000000074
20
7.19430994365547
30
0
41
1
10
-0.200000000000074
20
7.32358212001932
30
0
41
1
10
-0.200000000000074
20
7.45410184860194
30
0
0
SPLINE
5
10F
100
AcDbEntity
8
SK1
62
256
6
ByLayer
370
-1
48
1
60
0
100
AcDbSpline
70
4
71
3
72
8
73
4
40
0
40
0
40
0
40
0
40
1
40
1
40
1
40
1
41
1
10
-0.200000000000074
20
-7.45410255809307
30
0
41
1
10
-0.200000000000074
20
-7.3235826688034
30
0
41
1
10
-0.200000000000074
20
-7.19431032038869
30
0
41
1
10
-0.200000000000074
20
-7.06635659049329
30
0
0
SPLINE
5
110
100
AcDbEntity
8
SK1
62
256
6
ByLayer
370
-1
48
1
60
0
100
AcDbSpline
70
4
71
3
72
89
73
85
40
0
40
0
40
0
40
0
40
0.0069866520584861
40
0.0210727456941142
40
0.0351588393297422
40
0.0422018861475563
40
0.0492449329653703
40
0.0527664563742773
40
0.0562879797831843
40
0.0598095031920913
40
0.0633310266009984
40
0.0703740734188124
40
0.0774171202366264
40
0.0915032138722545
40
0.105589307507882
40
0.119675401143511
40
0.133761494779139
40
0.147847588414767
40
0.161933682050395
40
0.176019775686023
40
0.190105869321651
40
0.204191962957279
40
0.218278056592907
40
0.232364150228535
40
0.246450243864163
40
0.260536337499791
40
0.274622431135419
40
0.288708524771047
40
0.302794618406675
40
0.316880712042303
40
0.330966805677932
40
0.345052899313559
40
0.359138992949188
40
0.373225086584816
40
0.387311180220444
40
0.401397273856072
40
0.4154833674917
40
0.429569461127328
40
0.443655554762956
40
0.457741648398584
40
0.471827742034212
40
0.48591383566984
40
0.499999929305468
40
0.514086022941096
40
0.528172116576724
40
0.542258210212352
40
0.556344303847981
40
0.570430397483608
40
0.584516491119237
40
0.598602584754865
40
0.612688678390493
40
0.626774772026121
40
0.640860865661749
40
0.654946959297377
40
0.669033052933005
40
0.683119146568633
40
0.697205240204261
40
0.711291333839889
40
0.725377427475517
40
0.739463521111145
40
0.753549614746773
40
0.767635708382401
40
0.781721802018029
40
0.795807895653657
40
0.809893989289285
40
0.823980082924914
40
0.838066176560542
40
0.85215227019617
40
0.866238363831798
40
0.880324457467426
40
0.894410551103054
40
0.908496644738682
40
0.92258273837431
40
0.929625785192124
40
0.936668832009938
40
0.940190355418845
40
0.943711878827752
40
0.947233402236659
40
0.950754925645566
40
0.95779797246338
40
0.964841019281194
40
0.978927112916822
40
0.99301320655245
40
1
40
1
40
1
40
1
41
1
10
-2
20
-21.5597582028572
30
0
41
1
10
-2
20
-21.5823348020329
30
0
41
1
10
-1.99999999999997
20
-21.6471330995642
30
0
41
1
10
-2
20
-21.7367552760374
30
0
41
1
10
-2
20
-21.795767724447
30
0
41
1
10
-2
20
-21.8207574214533
30
0
41
1
10
-2
20
-21.8262248087307
30
0
41
1
10
-2
20
-21.8240288460024
30
0
41
1
10
-2
20
-21.8189793414588
30
0
41
1
10
-2
20
-21.8103813172626
30
0
41
1
10
-2
20
-21.7940462079955
30
0
41
1
10
-2
20
-21.7642160490035
30
0
41
1
10
-2
20
-21.6949779936854
30
0
41
1
10
-2
20
-21.5661676526815
30
0
41
1
10
-2
20
-21.3371910810194
30
0
41
1
10
-2
20
-21.0285622078674
30
0
41
1
10
-2
20
-20.6365187777369
30
0
41
1
10
-2
20
-20.1589996983693
30
0
41
1
10
-2.00000000000003
20
-19.5958617698656
30
0
41
1
10
-2.00000000000003
20
-18.9489598758679
30
0
41
1
10
-2.00000000000003
20
-18.2221705966385
30
0
41
1
10
-2.00000000000003
20
-17.4213307857328
30
0
41
1
10
-2.00000000000003
20
-16.5541009338831
30
0
41
1
10
-2.00000000000003
20
-15.6297568996197
30
0
41
1
10
-2.00000000000003
20
-14.6589138549468
30
0
41
1
10
-2.00000000000003
20
-13.6532009067709
30
0
41
1
10
-2.00000000000003
20
-12.6248857298215
30
0
41
1
10
-2.00000000000003
20
-11.5864803035381
30
0
41
1
10
-2.00000000000003
20
-10.5503219390466
30
0
41
1
10
-2.00000000000003
20
-9.5281693138144
30
0
41
1
10
-2.00000000000003
20
-8.53080274713156
30
0
41
1
10
-2.00000000000003
20
-7.56767168233321
30
0
41
1
10
-2.00000000000003
20
-6.64657466016962
30
0
41
1
10
-2.00000000000003
20
-5.77341249237057
30
0
41
1
10
-2.00000000000003
20
-4.95199325849538
30
0
41
1
10
-2.00000000000003
20
-4.18393961035022
30
0
41
1
10
-2.00000000000003
20
-3.46864023496266
30
0
41
1
10
-2.00000000000003
20
-2.80331262467871
30
0
41
1
10
-2.00000000000003
20
-2.18314518734891
30
0
41
1
10
-2.00000000000003
20
-1.60149397612398
30
0
41
1
10
-2.00000000000003
20
-1.05016386127724
30
0
41
1
10
-2.00000000000003
20
-0.519747329370034
30
0
41
1
10
-2.00000000000003
20
-2.174625422E-07
30
0
41
1
10
-2.00000000000003
20
0.519747796859832
30
0
41
1
10
-2.00000000000003
20
1.05016384629153
30
0
41
1
10
-2.00000000000003
20
1.60149393775734
30
0
41
1
10
-2.00000000000003
20
2.18314499792092
30
0
41
1
10
-2.00000000000003
20
2.80331286928887
30
0
41
1
10
-2.00000000000003
20
3.46863999985663
30
0
41
1
10
-2.00000000000003
20
4.18394012013403
30
0
41
1
10
-2.00000000000003
20
4.95199329354998
30
0
41
1
10
-2.00000000000003
20
5.77341227102076
30
0
41
1
10
-2.00000000000003
20
6.64657476441815
30
0
41
1
10
-2.00000000000003
20
7.56767138772486
30
0
41
1
10
-2.00000000000003
20
8.53080293175961
30
0
41
1
10
-2.00000000000003
20
9.52816888083231
30
0
41
1
10
-2.00000000000003
20
10.5503221797328
30
0
41
1
10
-2.00000000000003
20
11.5864797887658
30
0
41
1
10
-2.00000000000003
20
12.6248859949608
30
0
41
1
10
-2.00000000000003
20
13.6532003777634
30
0
41
1
10
-2.00000000000003
20
14.6589141102143
30
0
41
1
10
-2.00000000000003
20
15.6297564245795
30
0
41
1
10
-2.00000000000003
20
16.5541011472568
30
0
41
1
10
-2.00000000000003
20
17.4213304234775
30
0
41
1
10
-2.00000000000003
20
18.2221707430851
30
0
41
1
10
-2.00000000000003
20
18.9489596670075
30
0
41
1
10
-2.00000000000003
20
19.5958618349948
30
0
41
1
10
-2
20
20.1589996510313
30
0
41
1
10
-2
20
20.6365184914532
30
0
41
1
10
-2
20
21.0285634421464
30
0
41
1
10
-2
20
21.337187169909
30
0
41
1
10
-2
20
21.5661689793568
30
0
41
1
10
-2
20
21.694977581428
30
0
41
1
10
-2
20
21.7642160759136
30
0
41
1
10
-2
20
21.7940468728384
30
0
41
1
10
-2
20
21.810382005051
30
0
41
1
10
-2
20
21.8189797158788
30
0
41
1
10
-2
20
21.8240291114512
30
0
41
1
10
-2
20
21.8262247109582
30
0
41
1
10
-2
20
21.8207568792357
30
0
41
1
10
-2
20
21.7957672612685
30
0
41
1
10
-2
20
21.7367554969224
30
0
41
1
10
-2
20
21.6471329120757
30
0
41
1
10
-2
20
21.5823341897782
30
0
41
1
10
-2
20
21.5597571111887
30
0
0
SPLINE
5
111
100
AcDbEntity
8
SK1
62
256
6
ByLayer
370
-1
48
1
60
0
100
AcDbSpline
70
4
71
3
72
35
73
31
40
0
40
0
40
0
40
0
40
0.0142712161925807
40
0.025163723104738
40
0.0360562300168953
40
0.0469487369290526
40
0.0578412438412099
40
0.0796262576655245
40
0.101411271489839
40
0.144981299138468
40
0.188551326787097
40
0.232121354435727
40
0.275691382084356
40
0.319261409732985
40
0.362831437381614
40
0.406401465030243
40
0.449971492678873
40
0.493541520327502
40
0.537111547976131
40
0.58068157562476
40
0.624251603273389
40
0.667821630922019
40
0.711391658570648
40
0.754961686219277
40
0.798531713867906
40
0.842101741516536
40
0.885671769165165
40
0.929241796813794
40
0.972811824462423
40
1
40
1
40
1
40
1
41
1
10
-0.400000000000006
20
-21.8223596902879
30
0
41
1
10
-0.400000000000006
20
-21.8241924484905
30
0
41
1
10
-0.400000000000006
20
-21.8258461075813
30
0
41
1
10
-0.400000000000006
20
-21.8240288460024
30
0
41
1
10
-0.400000000000006
20
-21.8189793414588
30
0
41
1
10
-0.400000000000006
20
-21.8103813172626
30
0
41
1
10
-0.400000000000034
20
-21.7940462079955
30
0
41
1
10
-0.400000000000034
20
-21.7642160490035
30
0
41
1
10
-0.400000000000034
20
-21.6949779936854
30
0
41
1
10
-0.400000000000034
20
-21.5661676526815
30
0
41
1
10
-0.400000000000034
20
-21.3371910810194
30
0
41
1
10
-0.400000000000034
20
-21.0285622078674
30
0
41
1
10
-0.400000000000034
20
-20.6365187777369
30
0
41
1
10
-0.400000000000034
20
-20.1589996983693
30
0
41
1
10
-0.400000000000034
20
-19.5958617698656
30
0
41
1
10
-0.400000000000034
20
-18.9489598758679
30
0
41
1
10
-0.400000000000034
20
-18.2221705966385
30
0
41
1
10
-0.400000000000034
20
-17.4213307857328
30
0
41
1
10
-0.400000000000034
20
-16.5541009338831
30
0
41
1
10
-0.400000000000034
20
-15.6297568996197
30
0
41
1
10
-0.400000000000034
20
-14.6589138549468
30
0
41
1
10
-0.400000000000034
20
-13.6532009067709
30
0
41
1
10
-0.400000000000034
20
-12.6248857298215
30
0
41
1
10
-0.400000000000034
20
-11.5864803035381
30
0
41
1
10
-0.400000000000034
20
-10.5503219390466
30
0
41
1
10
-0.400000000000034
20
-9.5281693138144
30
0
41
1
10
-0.400000000000034
20
-8.53080274713156
30
0
41
1
10
-0.400000000000063
20
-7.56767168233324
30
0
41
1
10
-0.400000000000063
20
-6.76201544986952
30
0
41
1
10
-0.400000000000063
20
-6.28446221538795
30
0
41
1
10
-0.400000000000063
20
-6.10423197315535
30
0
0
SPLINE
5
112
100
AcDbEntity
8
SK1
62
256
6
ByLayer
370
-1
48
1
60
0
100
AcDbSpline
70
4
71
3
72
35
73
31
40
0
40
0
40
0
40
0
40
0.0271881725131368
40
0.0707581687391349
40
0.114328164965133
40
0.157898161191131
40
0.20146815741713
40
0.245038153643128
40
0.288608149869126
40
0.332178146095124
40
0.375748142321122
40
0.41931813854712
40
0.462888134773119
40
0.506458130999117
40
0.550028127225115
40
0.593598123451113
40
0.637168119677111
40
0.680738115903109
40
0.724308112129108
40
0.767878108355106
40
0.811448104581104
40
0.855018100807102
40
0.8985880970331
40
0.920373095146099
40
0.942158093259099
40
0.953050592315598
40
0.963943091372097
40
0.974835590428597
40
0.985728089485097
40
1
40
1
40
1
40
1
41
1
10
-0.400000000000063
20
6.10423156158009
30
0
41
1
10
-0.400000000000063
20
6.28446194326722
30
0
41
1
10
-0.400000000000063
20
6.76201538726676
30
0
41
1
10
-0.400000000000063
20
7.56767138772486
30
0
41
1
10
-0.400000000000034
20
8.53080293175961
30
0
41
1
10
-0.400000000000034
20
9.52816888083231
30
0
41
1
10
-0.400000000000034
20
10.5503221797328
30
0
41
1
10
-0.400000000000034
20
11.5864797887658
30
0
41
1
10
-0.400000000000034
20
12.6248859949608
30
0
41
1
10
-0.400000000000034
20
13.6532003777634
30
0
41
1
10
-0.400000000000034
20
14.6589141102143
30
0
41
1
10
-0.400000000000034
20
15.6297564245795
30
0
41
1
10
-0.400000000000034
20
16.5541011472568
30
0
41
1
10
-0.400000000000034
20
17.4213304234775
30
0
41
1
10
-0.400000000000034
20
18.2221707430851
30
0
41
1
10
-0.400000000000034
20
18.9489596670075
30
0
41
1
10
-0.400000000000034
20
19.5958618349948
30
0
41
1
10
-0.400000000000034
20
20.1589996510313
30
0
41
1
10
-0.400000000000034
20
20.6365184914532
30
0
41
1
10
-0.400000000000034
20
21.0285634421464
30
0
41
1
10
-0.400000000000034
20
21.337187169909
30
0
41
1
10
-0.400000000000034
20
21.5661689793568
30
0
41
1
10
-0.400000000000034
20
21.694977581428
30
0
41
1
10
-0.400000000000034
20
21.7642160759136
30
0
41
1
10
-0.400000000000034
20
21.7940468728384
30
0
41
1
10
-0.400000000000006
20
21.810382005051
30
0
41
1
10
-0.400000000000006
20
21.8189797158788
30
0
41
1
10
-0.400000000000006
20
21.8240291114512
30
0
41
1
10
-0.400000000000006
20
21.8258461079548
30
0
41
1
10
-0.400000000000063
20
21.8241921143658
30
0
41
1
10
-0.400000000000034
20
21.8223590884058
30
0
0
SPLINE
5
113
100
AcDbEntity
8
SK1
62
256
6
ByLayer
370
-1
48
1
60
0
100
AcDbSpline
70
4
71
3
72
24
73
20
40
0
40
0
40
0
40
0
40
0.029415339938921
40
0.029415339938921
40
0.0518467100213713
40
0.0518467100213713
40
0.0692787757243899
40
0.0692787757243899
40
0.0867341179257951
40
0.0867341179257951
40
0.110052112814911
40
0.110052112814911
40
0.151327143358807
40
0.151327143358807
40
0.280433151236762
40
0.280433151236762
40
0.826010984226231
40
0.826010984226231
40
1
40
1
40
1
40
1
41
1
10
-0.400000000000063
20
6.10423156158009
30
0
41
1
10
-0.39416832201357
20
6.0984378364349
30
0
41
1
10
-0.387759070234381
20
6.09310363146565
30
0
41
1
10
-0.375252799010866
20
6.08576185737678
30
0
41
1
10
-0.369325414442443
20
6.08323164407952
30
0
41
1
10
-0.358286953254265
20
6.08095158529639
30
0
41
1
10
-0.35318139109782
20
6.08071718931328
30
0
41
1
10
-0.343215930012207
20
6.08206381901587
30
0
41
1
10
-0.338244421136807
20
6.08366165110795
30
0
41
1
10
-0.327535291974414
20
6.08894854878486
30
0
41
1
10
-0.321910546955053
20
6.09319179328202
30
0
41
1
10
-0.308125841787699
20
6.1063104020192
30
0
41
1
10
-0.300919930144914
20
6.11641452751712
30
0
41
1
10
-0.27546743580686
20
6.15911632586153
30
0
41
1
10
-0.263960841290896
20
6.19549277148192
30
0
41
1
10
-0.214259344319259
20
6.38188374133708
30
0
41
1
10
-0.20677942828101
20
6.5373918542702
30
0
41
1
10
-0.2006609556407
20
6.7376412219165
30
0
41
1
10
-0.200000000000216
20
6.78608759881158
30
0
41
1
10
-0.200000000000074
20
6.83438537300094
30
0
0
SPLINE
5
114
100
AcDbEntity
8
SK1
62
256
6
ByLayer
370
-1
48
1
60
0
100
AcDbSpline
70
4
71
3
72
26
73
22
40
0
40
0
40
0
40
0
40
0.457923600856105
40
0.457923600856105
40
0.670531455381564
40
0.670531455381564
40
0.777312304321628
40
0.777312304321628
40
0.85562458160685
40
0.85562458160685
40
0.882245097500193
40
0.882245097500193
40
0.909233674833636
40
0.909233674833636
40
0.927145375687168
40
0.927145375687168
40
0.94513595423867
40
0.94513595423867
40
0.967293802310239
40
0.967293802310239
40
1
40
1
40
1
40
1
41
1
10
-0.200000000000046
20
-6.83438539664965
30
0
41
1
10
-0.200000000000046
20
-6.70719073091024
30
0
41
1
10
-0.203979144864121
20
-6.57870929193157
30
0
41
1
10
-0.223627541461042
20
-6.39017150226596
30
0
41
1
10
-0.231853472691626
20
-6.33010102013236
30
0
41
1
10
-0.251444012213824
20
-6.24081591520616
30
0
41
1
10
-0.259216096655962
20
-6.21099031479625
30
0
41
1
10
-0.277247637353241
20
-6.16071699918314
30
0
41
1
10
-0.286250660556362
20
-6.13953740203621
30
0
41
1
10
-0.302932806634829
20
-6.11392996324469
30
0
41
1
10
-0.307645108303149
20
-6.10762540709976
30
0
41
1
10
-0.318350610916298
20
-6.09617933549782
30
0
41
1
10
-0.324493078466162
20
-6.09093379280867
30
0
41
1
10
-0.335880535666092
20
-6.08462414761271
30
0
41
1
10
-0.340842620996938
20
-6.08272810789859
30
0
41
1
10
-0.350925208731582
20
-6.08080706244004
30
0
41
1
10
-0.356163682835501
20
-6.08077671184125
30
0
41
1
10
-0.367263062380886
20
-6.08257928125934
30
0
41
1
10
-0.373161858956763
20
-6.08482424567788
30
0
41
1
10
-0.386495243089513
20
-6.09205228504601
30
0
41
1
10
-0.393601922598037
20
-6.09787553754282
30
0
41
1
10
-0.400000000000063
20
-6.10423197315532
30
0
0
SPLINE
5
115
100
AcDbEntity
8
SK1
62
256
6
ByLayer
370
-1
48
1
60
0
100
AcDbSpline
70
4
71
3
72
10
73
6
40
0
40
0
40
0
40
0
40
0.5
40
0.5
40
1
40
1
40
1
40
1
41
1
10
-1.30710678118655
20
4.69591747913023
30
0
41
1
10
-1.57554674537735
20
3.20453676372955
30
0
41
1
10
-1.78936151312067
20
1.60679765765514
30
0
41
1
10
-1.7893657244158
20
-1.60676394111792
30
0
41
1
10
-1.57555073250512
20
-3.20452084810844
30
0
41
1
10
-1.30710678118655
20
-4.69591515673878
30
0
0
SPLINE
5
116
100
AcDbEntity
8
SK1
62
256
6
ByLayer
370
-1
48
1
60
0
100
AcDbSpline
70
4
71
3
72
41
73
37
40
0
40
0
40
0
40
0
40
0.007391494237509
40
0.0381795271858079
40
0.0689675601341068
40
0.0997555930824056
40
0.130543626030704
40
0.161331658979003
40
0.192119691927302
40
0.222907724875601
40
0.2536957578239
40
0.284483790772199
40
0.315271823720498
40
0.346059856668797
40
0.376847889617095
40
0.407635922565394
40
0.438423955513693
40
0.469211988461992
40
0.500000021410291
40
0.53078805435859
40
0.561576087306889
40
0.592364120255187
40
0.623152153203486
40
0.653940186151785
40
0.684728219100084
40
0.715516252048383
40
0.746304284996682
40
0.777092317944981
40
0.80788035089328
40
0.838668383841578
40
0.869456416789877
40
0.900244449738176
40
0.931032482686475
40
0.961820515634774
40
0.992608548583073
40
1
40
1
40
1
40
1
41
1
10
-2.20000000000002
20
-13.0172213663963
30
0
41
1
10
-2.20000000000002
20
-12.9342686300227
30
0
41
1
10
-2.20000000000002
20
-12.5051206457301
30
0
41
1
10
-2.20000000000002
20
-11.7250496651539
30
0
41
1
10
-2.20000000000005
20
-10.6821841203163
30
0
41
1
10
-2.20000000000005
20
-9.65290702831456
30
0
41
1
10
-2.20000000000005
20
-8.64799550189099
30
0
41
1
10
-2.20000000000005
20
-7.67690008468335
30
0
41
1
10
-2.20000000000005
20
-6.74742564249959
30
0
41
1
10
-2.20000000000005
20
-5.86548459766766
30
0
41
1
10
-2.20000000000005
20
-5.03490606621628
30
0
41
1
10
-2.20000000000005
20
-4.25733224556416
30
0
41
1
10
-2.20000000000005
20
-3.53218547491991
30
0
41
1
10
-2.20000000000005
20
-2.85672457058874
30
0
41
1
10
-2.20000000000005
20
-2.22617587980838
30
0
41
1
10
-2.20000000000005
20
-1.63394237813659
30
0
41
1
10
-2.20000000000005
20
-1.07188018667165
30
0
41
1
10
-2.20000000000005
20
-0.530630287446883
30
0
41
1
10
-2.20000000000005
20
-1.106293723E-07
30
0
41
1
10
-2.20000000000005
20
0.530630729964514
30
0
41
1
10
-2.20000000000005
20
1.071879983012
30
0
41
1
10
-2.20000000000005
20
1.63394275025792
30
0
41
1
10
-2.20000000000005
20
2.22617572634954
30
0
41
1
10
-2.20000000000005
20
2.85672481230316
30
0
41
1
10
-2.20000000000005
20
3.53218539687694
30
0
41
1
10
-2.20000000000005
20
4.25733231602189
30
0
41
1
10
-2.20000000000005
20
5.03490607772241
30
0
41
1
10
-2.20000000000005
20
5.86548448118575
30
0
41
1
10
-2.20000000000005
20
6.74742574458529
30
0
41
1
10
-2.20000000000005
20
7.67689979282272
30
0
41
1
10
-2.20000000000005
20
8.64799568243498
30
0
41
1
10
-2.20000000000005
20
9.65290659799953
30
0
41
1
10
-2.20000000000005
20
10.682184355967
30
0
41
1
10
-2.20000000000002
20
11.7250491528666
30
0
41
1
10
-2.20000000000002
20
12.5051202255836
30
0
41
1
10
-2.20000000000002
20
12.9342676512693
30
0
41
1
10
-2.20000000000002
20
13.0172198852614
30
0
0
SPLINE
5
117
100
AcDbEntity
8
SK1
62
256
6
ByLayer
370
-1
48
1
60
0
100
AcDbSpline
70
4
71
3
72
14
73
10
40
0
40
0
40
0
40
0
40
0.0892778036656113
40
0.247391405879012
40
0.405505008092413
40
0.563618610305814
40
0.721732212519214
40
0.879845814732615
40
1
40
1
40
1
40
1
41
1
10
-2.20000000000005
20
-18.8057993596818
30
0
41
1
10
-2.20000000000005
20
-18.6693910739181
30
0
41
1
10
-2.20000000000005
20
-18.2799599309246
30
0
41
1
10
-2.20000000000005
20
-17.5918777596154
30
0
41
1
10
-2.20000000000005
20
-16.7202497496933
30
0
41
1
10
-2.20000000000005
20
-15.7911485945393
30
0
41
1
10
-2.20000000000005
20
-14.815180008725
30
0
41
1
10
-2.20000000000005
20
-13.8848855782656
30
0
41
1
10
-2.20000000000005
20
-13.2797943787494
30
0
41
1
10
-2.20000000000005
20
-13.0172213663963
30
0
0
SPLINE
5
118
100
AcDbEntity
8
SK1
62
256
6
ByLayer
370
-1
48
1
60
0
100
AcDbSpline
70
4
71
3
72
14
73
10
40
0
40
0
40
0
40
0
40
0.120154373856292
40
0.278267934857049
40
0.436381495857807
40
0.594495056858564
40
0.752608617859322
40
0.910722178860079
40
1
40
1
40
1
40
1
41
1
10
-2.20000000000005
20
13.0172198852615
30
0
41
1
10
-2.20000000000005
20
13.2797933091173
30
0
41
1
10
-2.20000000000005
20
13.8848846449069
30
0
41
1
10
-2.20000000000005
20
14.8151802586186
30
0
41
1
10
-2.20000000000005
20
15.7911481216639
30
0
41
1
10
-2.20000000000005
20
16.7202499579617
30
0
41
1
10
-2.20000000000005
20
17.5918773994171
30
0
41
1
10
-2.20000000000005
20
18.2799600689861
30
0
41
1
10
-2.20000000000005
20
18.6693911858535
30
0
41
1
10
-2.20000000000005
20
18.8057994981524
30
0
0
SPLINE
5
119
100
AcDbEntity
8
SK1
62
256
6
ByLayer
370
-1
48
1
60
0
100
AcDbSpline
70
4
71
3
72
10
73
6
40
0
40
0
40
0
40
0
40
0.815514531482176
40
0.815514531482176
40
1
40
1
40
1
40
1
41
1
10
-2.20000000000002
20
18.8057994981526
30
0
41
1
10
-2.20000000000002
20
20.4449035848964
30
0
41
1
10
-2.20000226725097
20
21.5642089788153
30
0
41
1
10
-2.19995739448834
20
21.9906899251288
30
0
41
1
10
-2.19994661020635
20
22.0298045182032
30
0
41
1
10
-2.19993248457604
20
22.0200963651331
30
0
0
SPLINE
5
11A
100
AcDbEntity
8
SK1
62
256
6
ByLayer
370
-1
48
1
60
0
100
AcDbSpline
70
4
71
3
72
10
73
6
40
0
40
0
40
0
40
0
40
0.184725497211557
40
0.184725497211557
40
1
40
1
40
1
40
1
41
1
10
-2.19993251798007
20
-22.0200988351643
30
0
41
1
10
-2.1999466582898
20
-22.0297499333065
30
0
41
1
10
-2.19995744746956
20
-21.9904534005828
30
0
41
1
10
-2.20000225739005
20
-21.5631208004151
30
0
41
1
10
-2.20000000000002
20
-20.4409087780279
30
0
41
1
10
-2.20000000000002
20
-18.8057993596817
30
0
0
SPLINE
5
11B
100
AcDbEntity
8
SK1
62
256
6
ByLayer
370
-1
48
1
60
0
100
AcDbSpline
70
4
71
3
72
30
73
26
40
0
40
0
40
0
40
0
40
0.0494254089686436
40
0.0494254089686436
40
0.162151699007994
40
0.162151699007994
40
0.274877989047344
40
0.274877989047344
40
0.387604279086693
40
0.387604279086693
40
0.443967424106368
40
0.443967424106368
40
0.500330569126043
40
0.500330569126043
40
0.556693714145718
40
0.556693714145718
40
0.613056859165393
40
0.613056859165393
40
0.725783149204743
40
0.725783149204743
40
0.838509439244093
40
0.838509439244093
40
0.951235729283442
40
0.951235729283442
40
1
40
1
40
1
40
1
41
1
10
-38
20
20.2392632085377
30
0
41
1
10
-38
20
20.2297766347658
30
0
41
1
10
-38
20
20.1189253556048
30
0
41
1
10
-38
20
19.5109775832533
30
0
41
1
10
-38
20
18.6889979072776
30
0
41
1
10
-38
20
16.4175846149627
30
0
41
1
10
-38
20
15.00539897115
30
0
41
1
10
-38
20
11.5689429816358
30
0
41
1
10
-38
20
9.61803198977765
30
0
41
1
10
-38
20
6.24193582485267
30
0
41
1
10
-38
20
5.05699985536288
30
0
41
1
10
-38.0000000000001
20
2.5463534500615
30
0
41
1
10
-38
20
1.22336920362281
30
0
41
1
10
-38
20
-1.46022125994642
30
0
41
1
10
-38.0000000000001
20
-2.7469681303283
30
0
41
1
10
-38
20
-5.25145536838906
30
0
41
1
10
-38
20
-6.41785776757257
30
0
41
1
10
-38
20
-9.7409919139817
30
0
41
1
10
-38
20
-11.7132395268024
30
0
41
1
10
-38
20
-15.0659846264138
30
0
41
1
10
-38
20
-16.5093616755975
30
0
41
1
10
-38
20
-18.7169170461929
30
0
41
1
10
-38
20
-19.5446051221466
30
0
41
1
10
-38
20
-20.1301478160972
30
0
41
1
10
-38
20
-20.234372853453
30
0
41
1
10
-38
20
-20.241419791772
30
0
0
SPLINE
5
11C
100
AcDbEntity
8
SK1
62
256
6
ByLayer
370
-1
48
1
60
0
100
AcDbSpline
70
4
71
3
72
30
73
26
40
0
40
0
40
0
40
0
40
0.0542490539683294
40
0.0542490539683294
40
0.165460100725006
40
0.165460100725006
40
0.276671147481682
40
0.276671147481682
40
0.387882194238359
40
0.387882194238359
40
0.443487717616696
40
0.443487717616696
40
0.499093240995035
40
0.499093240995035
40
0.554698764373373
40
0.554698764373373
40
0.610304287751711
40
0.610304287751711
40
0.721515334508387
40
0.721515334508387
40
0.832726381265064
40
0.832726381265064
40
0.94393742802174
40
0.94393742802174
40
1
40
1
40
1
40
1
41
1
10
-36.5005632538023
20
-21.1559417487338
30
0
41
1
10
-36.5001793330628
20
-21.1775059185051
30
0
41
1
10
-36.4998534187777
20
-21.0651308030462
30
0
41
1
10
-36.4990234278431
20
-20.4359824847083
30
0
41
1
10
-36.4986513003428
20
-19.5809467365899
30
0
41
1
10
-36.4982289992221
20
-17.3073839665174
30
0
41
1
10
-36.4981680301126
20
-15.8226883694876
30
0
41
1
10
-36.4983497010421
20
-12.3657594161816
30
0
41
1
10
-36.4986235554555
20
-10.3317895107231
30
0
41
1
10
-36.4992226044754
20
-6.86901382935184
30
0
41
1
10
-36.4995063752797
20
-5.6480080347103
30
0
41
1
10
-36.5000888678234
20
-2.99378711493711
30
0
41
1
10
-36.5004483212166
20
-1.60517711662916
30
0
41
1
10
-36.5004962021382
20
1.34546150294656
30
0
41
1
10
-36.5001371439227
20
2.77915130117415
30
0
41
1
10
-36.4995516267145
20
5.44330349430788
30
0
41
1
10
-36.4992583435906
20
6.68532501177498
30
0
41
1
10
-36.4986445388472
20
10.2043262286463
30
0
41
1
10
-36.4983633305393
20
12.2168021926579
30
0
41
1
10
-36.4981658319002
20
15.7604142418405
30
0
41
1
10
-36.4982196339561
20
17.2128923729824
30
0
41
1
10
-36.4986381979556
20
19.5521593073096
30
0
41
1
10
-36.4990008651294
20
20.4015221807459
30
0
41
1
10
-36.4998341357682
20
21.0586613217529
30
0
41
1
10
-36.5001553634115
20
21.1795976800202
30
0
41
1
10
-36.5005431558553
20
21.1535961437225
30
0
0
SPLINE
5
11D
100
AcDbEntity
8
SK1
62
256
6
ByLayer
370
-1
48
1
60
0
100
AcDbSpline
70
4
71
3
72
10
73
6
40
0
40
0
40
0
40
0
40
0.931951483854432
40
0.931951483854432
40
1
40
1
40
1
40
1
41
1
10
-2.84E-14
20
-6.53762644691741
30
0
41
1
10
-0.04849145953483
20
-6.70686335370419
30
0
41
1
10
-0.104961398284928
20
-6.8740004138196
30
0
41
1
10
-0.188237156292189
20
-7.04340072103489
30
0
41
1
10
-0.194048735538786
20
-7.05491037332897
30
0
41
1
10
-0.200000000000273
20
-7.06635659049311
30
0
0
SPLINE
5
11E
100
AcDbEntity
8
SK1
62
256
6
ByLayer
370
-1
48
1
60
0
100
AcDbSpline
70
4
71
3
72
10
73
6
40
0
40
0
40
0
40
0
40
0.368997675669209
40
0.368997675669209
40
1
40
1
40
1
40
1
41
1
10
-0.200000000000159
20
7.06635637915053
30
0
41
1
10
-0.167862826598565
20
7.00454621757669
30
0
41
1
10
-0.139671627572142
20
6.94091959541149
30
0
41
1
10
-0.0698615112816867
20
6.76585631953489
30
0
41
1
10
-0.0328909637924539
20
6.65241705190053
30
0
41
1
10
-2.84E-14
20
6.53762631735268
30
0
0
SPLINE
5
11F
100
AcDbEntity
8
SK1
62
256
6
ByLayer
370
-1
48
1
60
0
100
AcDbSpline
70
4
71
3
72
87
73
83
40
0
40
0
40
0
40
0
40
0.0064304546078801
40
0.0205324394764587
40
0.0346344243450373
40
0.0416854167793266
40
0.0487364092136159
40
0.0522619054307606
40
0.0557874016479052
40
0.0628383940821945
40
0.0698893865164838
40
0.0769403789507731
40
0.0910423638193518
40
0.10514434868793
40
0.119246333556509
40
0.133348318425088
40
0.147450303293666
40
0.161552288162245
40
0.175654273030823
40
0.189756257899402
40
0.203858242767981
40
0.217960227636559
40
0.232062212505138
40
0.246164197373716
40
0.260266182242295
40
0.274368167110874
40
0.288470151979452
40
0.302572136848031
40
0.31667412171661
40
0.330776106585188
40
0.344878091453767
40
0.358980076322345
40
0.373082061190924
40
0.387184046059503
40
0.401286030928081
40
0.41538801579666
40
0.429490000665238
40
0.443591985533817
40
0.457693970402396
40
0.471795955270974
40
0.485897940139553
40
0.499999925008131
40
0.51410190987671
40
0.528203894745289
40
0.542305879613867
40
0.556407864482446
40
0.570509849351024
40
0.584611834219603
40
0.598713819088182
40
0.61281580395676
40
0.626917788825339
40
0.641019773693917
40
0.655121758562496
40
0.669223743431075
40
0.683325728299653
40
0.697427713168232
40
0.711529698036811
40
0.725631682905389
40
0.739733667773968
40
0.753835652642546
40
0.767937637511125
40
0.782039622379704
40
0.796141607248282
40
0.810243592116861
40
0.824345576985439
40
0.838447561854018
40
0.852549546722597
40
0.866651531591175
40
0.880753516459754
40
0.894855501328332
40
0.908957486196911
40
0.92305947106549
40
0.930110463499779
40
0.937161455934068
40
0.944212448368358
40
0.947737944585502
40
0.951263440802647
40
0.958314433236936
40
0.965365425671226
40
0.979467410539804
40
0.993569395408383
40
1
40
1
40
1
40
1
41
1
10
-3
20
21.7373117326757
30
0
41
1
10
-3
20
21.7581505763298
30
0
41
1
10
-2.99999999999997
20
21.8216572695551
30
0
41
1
10
-3
20
21.9107797633372
30
0
41
1
10
-3
20
21.9704004421262
30
0
41
1
10
-3
20
21.9955838514163
30
0
41
1
10
-3
20
22.0011048464384
30
0
41
1
10
-3
20
21.9988957932114
30
0
41
1
10
-3
20
21.9921074341117
30
0
41
1
10
-3
20
21.9747088550401
30
0
41
1
10
-3
20
21.9386456245555
30
0
41
1
10
-3
20
21.868993702256
30
0
41
1
10
-3
20
21.7393283758615
30
0
41
1
10
-3
20
21.5090390087807
30
0
41
1
10
-3
20
21.1987879004756
30
0
41
1
10
-3
20
20.8048153118584
30
0
41
1
10
-3
20
20.3250833271079
30
0
41
1
10
-3
20
19.7594566764181
30
0
41
1
10
-3
20
19.1097943347758
30
0
41
1
10
-3
20
18.3799726709714
30
0
41
1
10
-3
20
17.5758204617336
30
0
41
1
10
-3
20
16.7049885958267
30
0
41
1
10
-3
20
15.7767347946731
30
0
41
1
10
-3
20
14.8016577436089
30
0
41
1
10
-3
20
13.7913621958654
30
0
41
1
10
-3
20
12.7580964435599
30
0
41
1
10
-3
20
11.7143471465197
30
0
41
1
10
-3.00000000000003
20
10.6724342215934
30
0
41
1
10
-3.00000000000003
20
9.64409593406697
30
0
41
1
10
-3.00000000000003
20
8.64010224817511
30
0
41
1
10
-3.00000000000003
20
7.66989272366362
30
0
41
1
10
-3.00000000000003
20
6.74126705030582
30
0
41
1
10
-3.00000000000003
20
5.86013077636733
30
0
41
1
10
-3.00000000000003
20
5.03031048105601
30
0
41
1
10
-3.00000000000003
20
4.25344644766659
30
0
41
1
10
-3.00000000000003
20
3.5289614043765
30
0
41
1
10
-3.00000000000003
20
2.85411734459242
30
0
41
1
10
-3.00000000000003
20
2.22414379058173
30
0
41
1
10
-3.00000000000003
20
1.63245137350921
30
0
41
1
10
-3.00000000000003
20
1.07090162750731
30
0
41
1
10
-3.00000000000003
20
0.530146398226009
30
0
41
1
10
-3.00000000000003
20
-1.1052839E-07
30
0
41
1
10
-3.00000000000003
20
-0.530145956112307
30
0
41
1
10
-3.00000000000003
20
-1.07090183098106
30
0
41
1
10
-3.00000000000003
20
-1.63245100172756
30
0
41
1
10
-3.00000000000003
20
-2.22414394390051
30
0
41
1
10
-3.00000000000003
20
-2.85411710309862
30
0
41
1
10
-3.00000000000003
20
-3.52896148234822
30
0
41
1
10
-3.00000000000003
20
-4.25344637727321
30
0
41
1
10
-3.00000000000003
20
-5.03031046956039
30
0
41
1
10
-3.00000000000003
20
-5.86013089274292
30
0
41
1
10
-3.00000000000003
20
-6.7412669483133
30
0
41
1
10
-3.00000000000003
20
-7.66989301525788
30
0
41
1
10
-3.00000000000003
20
-8.64010206779591
30
0
41
1
10
-3.00000000000003
20
-9.64409636398926
30
0
41
1
10
-3.00000000000003
20
-10.6724339861579
30
0
41
1
10
-3.00000000000003
20
-11.7143476583394
30
0
41
1
10
-3
20
-12.7580961840504
30
0
41
1
10
-3
20
-13.7913627220832
30
0
41
1
10
-3
20
-14.8016574939434
30
0
41
1
10
-3
20
-15.7767352671169
30
0
41
1
10
-3
20
-16.7049883877483
30
0
41
1
10
-3
20
-17.5758208216031
30
0
41
1
10
-3
20
-18.3799725293323
30
0
41
1
10
-3
20
-19.1097945414623
30
0
41
1
10
-3
20
-19.759456615498
30
0
41
1
10
-3
20
-20.3250833641014
30
0
41
1
10
-3
20
-20.804815632754
30
0
41
1
10
-3
20
-21.1987865798995
30
0
41
1
10
-3
20
-21.5090429333437
30
0
41
1
10
-3
20
-21.7393270779667
30
0
41
1
10
-3
20
-21.868994103416
30
0
41
1
10
-3
20
-21.9386456157424
30
0
41
1
10
-3
20
-21.9747080149673
30
0
41
1
10
-3
20
-21.9921069826245
30
0
41
1
10
-3
20
-21.9988955684255
30
0
41
1
10
-3
20
-22.0011049359544
30
0
41
1
10
-3
20
-21.9955842966017
30
0
41
1
10
-3
20
-21.9704009616837
30
0
41
1
10
-3
20
-21.9107795104958
30
0
41
1
10
-3
20
-21.8216567024971
30
0
41
1
10
-3
20
-21.758149394043
30
0
41
1
10
-3
20
-21.7373100008043
30
0
0
SPLINE
5
120
100
AcDbEntity
8
1
62
256
6
ByLayer
370
-1
48
1
60
0
100
AcDbSpline
70
4
71
3
72
18
73
14
40
0
40
0
40
0
40
0
40
0.020273837850034
40
0.020273837850034
40
0.244136096663692
40
0.244136096663692
40
0.468322852784292
40
0.468322852784292
40
0.704958742090688
40
0.704958742090688
40
0.963681437568256
40
0.963681437568256
40
1
40
1
40
1
40
1
41
1
10
110.735251194007
20
-9.12315391664137
30
0
41
1
10
110.737487818978
20
-9.12160487805698
30
0
41
1
10
110.739745373085
20
-9.12008302231888
30
0
41
1
10
110.766872007128
20
-9.10228830800563
30
0
41
1
10
110.79445749556
20
-9.08922725760453
30
0
41
1
10
110.850508049963
20
-9.07143414602359
30
0
41
1
10
110.879686138592
20
-9.06646724388776
30
0
41
1
10
110.937454824854
20
-9.06440722202714
30
0
41
1
10
110.966648613696
20
-9.06771179485062
30
0
41
1
10
111.022724405677
20
-9.08228742430504
30
0
41
1
10
111.04985192906
20
-9.09442395127718
30
0
41
1
10
111.076553437588
20
-9.11195532426817
30
0
41
1
10
111.079803798161
20
-9.11420129840084
30
0
41
1
10
111.082983454214
20
-9.1165110664877
30
0
0
SPLINE
5
121
100
AcDbEntity
8
1
62
256
6
ByLayer
370
-1
48
1
60
0
100
AcDbSpline
70
4
71
3
72
16
73
12
40
0
40
0
40
0
40
0
40
0.15957287413493
40
0.15957287413493
40
0.466707389787425
40
0.466707389787425
40
0.738850838235596
40
0.738850838235596
40
0.980078396089813
40
0.980078396089813
40
1
40
1
40
1
40
1
41
1
10
112.046841623348
20
-9.0271753831698
30
0
41
1
10
112.05957825977
20
-9.01465179891289
30
0
41
1
10
112.073865862702
20
-9.00303891739105
30
0
41
1
10
112.119249233991
20
-8.97291948323303
30
0
41
1
10
112.154718296676
20
-8.95743235985333
30
0
41
1
10
112.226137717817
20
-8.94107484886783
30
0
41
1
10
112.262698847005
20
-8.93855588904913
30
0
41
1
10
112.330291464427
20
-8.94526988142692
30
0
41
1
10
112.362450138182
20
-8.9533312999491
30
0
41
1
10
112.394316058684
20
-8.96676290502441
30
0
41
1
10
112.396763695264
20
-8.96783173516107
30
0
41
1
10
112.399194287116
20
-8.96893050703969
30
0
0
SPLINE
5
122
100
AcDbEntity
8
1
62
256
6
ByLayer
370
-1
48
1
60
0
100
AcDbSpline
70
4
71
3
72
18
73
14
40
0
40
0
40
0
40
0
40
0.0441834409734748
40
0.0441834409734748
40
0.265317468229224
40
0.265317468229224
40
0.488178804862768
40
0.488178804862768
40
0.724515235133956
40
0.724515235133956
40
0.983584852974368
40
0.983584852974368
40
1
40
1
40
1
40
1
41
1
10
110.977311674514
20
-11.9694483536101
30
0
41
1
10
110.971908173149
20
-11.9670056500597
30
0
41
1
10
110.966574552461
20
-11.9643812809677
30
0
41
1
10
110.935302552756
20
-11.947707653768
30
0
41
1
10
110.911100564792
20
-11.9292372589687
30
0
41
1
10
110.869871956203
20
-11.8862207088126
30
0
41
1
10
110.852360896929
20
-11.8610962810456
30
0
41
1
10
110.824869079732
20
-11.8063154542071
30
0
41
1
10
110.81503549772
20
-11.7758059603341
30
0
41
1
10
110.803890849704
20
-11.711748872367
30
0
41
1
10
110.803315410732
20
-11.6773932074435
30
0
41
1
10
110.807751945155
20
-11.6424004990217
30
0
41
1
10
110.808037985992
20
-11.6403003429048
30
0
41
1
10
110.808343084456
20
-11.6382048659932
30
0
0
SPLINE
5
123
100
AcDbEntity
8
1
62
256
6
ByLayer
370
-1
48
1
60
0
100
AcDbSpline
70
4
71
3
72
18
73
14
40
0
40
0
40
0
40
0
40
0.198114377192962
40
0.198114377192962
40
0.374811943626198
40
0.374811943626198
40
0.553358666814056
40
0.553358666814056
40
0.706896298281608
40
0.706896298281608
40
0.90726148694082
40
0.90726148694082
40
1
40
1
40
1
40
1
41
1
10
112.743833235351
20
-11.4623228154799
30
0
41
1
10
112.719788756525
20
-11.3950457479995
30
0
41
1
10
112.704304085903
20
-11.3229676692211
30
0
41
1
10
112.695648168365
20
-11.1845436459047
30
0
41
1
10
112.700326919944
20
-11.1168367896838
30
0
41
1
10
112.729683738332
20
-10.986605234577
30
0
41
1
10
112.755241772447
20
-10.922267428789
30
0
41
1
10
112.818639153543
20
-10.8176735703602
30
0
41
1
10
112.854938932056
20
-10.7739899630985
30
0
41
1
10
112.947024554044
20
-10.6899391681022
30
0
41
1
10
113.006764396458
20
-10.6529780226633
30
0
41
1
10
113.098086492684
20
-10.6147593792658
30
0
41
1
10
113.12798719567
20
-10.6048124575327
30
0
41
1
10
113.158320209206
20
-10.5970461535796
30
0
0
SPLINE
5
124
100
AcDbEntity
8
1
62
256
6
ByLayer
370
-1
48
1
60
0
100
AcDbSpline
70
4
71
3
72
12
73
8
40
0
40
0
40
0
40
0
40
0.484902853316012
40
0.484902853316012
40
0.891670785463973
40
0.891670785463973
40
1
40
1
40
1
40
1
41
1
10
113.110332983612
20
-10.0438959315019
30
0
41
1
10
113.039622357389
20
-10.0261862985788
30
0
41
1
10
112.968671981919
20
-9.99796829656964
30
0
41
1
10
112.846367049592
20
-9.92752997676905
30
0
41
1
10
112.792392196093
20
-9.88738695619702
30
0
41
1
10
112.73220782177
20
-9.82904089820568
30
0
41
1
10
112.719896045275
20
-9.81624911355456
30
0
41
1
10
112.708096260474
20
-9.80308226030905
30
0
0
SPLINE
5
125
100
AcDbEntity
8
1
62
256
6
ByLayer
370
-1
48
1
60
0
100
AcDbSpline
70
4
71
3
72
16
73
12
40
0
40
0
40
0
40
0
40
0.173627814912686
40
0.173627814912686
40
0.479357118494835
40
0.479357118494835
40
0.749911611192901
40
0.749911611192901
40
0.99004513741067
40
0.99004513741067
40
1
40
1
40
1
40
1
41
1
10
112.743833235359
20
-11.4623228154765
30
0
41
1
10
112.751288618888
20
-11.4831831695039
30
0
41
1
10
112.756776805583
20
-11.5050085563407
30
0
41
1
10
112.765630975989
20
-11.5661120552893
30
0
41
1
10
112.764235021886
20
-11.6072717558509
30
0
41
1
10
112.746720744329
20
-11.6808349378508
30
0
41
1
10
112.73197102699
20
-11.7148156266375
30
0
41
1
10
112.693567970823
20
-11.7707162773791
30
0
41
1
10
112.670521413178
20
-11.7943443383724
30
0
41
1
10
112.643458130161
20
-11.8136868413915
30
0
41
1
10
112.642359202102
20
-11.8144600363264
30
0
41
1
10
112.641254767623
20
-11.8152249440084
30
0
0
SPLINE
5
126
100
AcDbEntity
8
1
62
256
6
ByLayer
370
-1
48
1
60
0
100
AcDbSpline
70
4
71
3
72
14
73
10
40
0
40
0
40
0
40
0
40
0.223765969413498
40
0.223765969413498
40
0.517619232810812
40
0.517619232810812
40
0.783074939747076
40
0.783074939747076
40
1
40
1
40
1
40
1
41
1
10
110.620336476937
20
-9.43693046088086
30
0
41
1
10
110.612281007184
20
-9.41497106818363
30
0
41
1
10
110.607430307389
20
-9.39114379547371
30
0
41
1
10
110.604936218147
20
-9.33438905072029
30
0
41
1
10
110.610088299309
20
-9.29996492556316
30
0
41
1
10
110.633128793852
20
-9.23697185027123
30
0
41
1
10
110.650154077259
20
-9.20721168261733
30
0
41
1
10
110.689933705403
20
-9.15936746525782
30
0
41
1
10
110.711546081795
20
-9.13957156999732
30
0
41
1
10
110.735251194007
20
-9.12315391664137
30
0
0
SPLINE
5
127
100
AcDbEntity
8
1
62
256
6
ByLayer
370
-1
48
1
60
0
100
AcDbSpline
70
4
71
3
72
20
73
16
40
0
40
0
40
0
40
0
40
0.0960672522170769
40
0.0960672522170769
40
0.293747236242429
40
0.293747236242429
40
0.454712432603273
40
0.454712432603273
40
0.616400515245804
40
0.616400515245804
40
0.769025603661653
40
0.769025603661653
40
0.987230811190126
40
0.987230811190126
40
1
40
1
40
1
40
1
41
1
10
110.620336476938
20
-9.43693046088049
30
0
41
1
10
110.630143479412
20
-9.46366457138055
30
0
41
1
10
110.637962084895
20
-9.4915899549604
30
0
41
1
10
110.655099249571
20
-9.57972790029848
30
0
41
1
10
110.657404083705
20
-9.64427543587064
30
0
41
1
10
110.641591715727
20
-9.76478870314068
30
0
41
1
10
110.626864245225
20
-9.821480955971
30
0
41
1
10
110.582887011192
20
-9.93171928756576
30
0
41
1
10
110.552951869121
20
-9.98666197069878
30
0
41
1
10
110.484947332771
20
-10.0835056778386
30
0
41
1
10
110.446710851882
20
-10.1271344642803
30
0
41
1
10
110.348116451974
20
-10.2192351997035
30
0
41
1
10
110.28364565232
20
-10.2635615067726
30
0
41
1
10
110.213700039846
20
-10.2984203038488
30
0
41
1
10
110.209778886178
20
-10.3003325218345
30
0
41
1
10
110.205849503083
20
-10.3022071227805
30
0
0
SPLINE
5
128
100
AcDbEntity
8
1
62
256
6
ByLayer
370
-1
48
1
60
0
100
AcDbSpline
70
4
71
3
72
12
73
8
40
0
40
0
40
0
40
0
40
0.174034041267045
40
0.174034041267045
40
0.532961644678229
40
0.532961644678229
40
1
40
1
40
1
40
1
41
1
10
110.732297203841
20
-11.1714783987564
30
0
41
1
10
110.745584346534
20
-11.1964673067677
30
0
41
1
10
110.757367720804
20
-11.2224774828873
30
0
41
1
10
110.788398369892
20
-11.3036105843776
30
0
41
1
10
110.802543189691
20
-11.3611657044023
30
0
41
1
10
110.819793055258
20
-11.4920605521796
30
0
41
1
10
110.818737178749
20
-11.5668161597374
30
0
41
1
10
110.808343084456
20
-11.6382048659932
30
0
0
SPLINE
5
129
100
AcDbEntity
8
1
62
256
6
ByLayer
370
-1
48
1
60
0
100
AcDbSpline
70
4
71
3
72
12
73
8
40
0
40
0
40
0
40
0
40
0.358452553756326
40
0.358452553756326
40
0.789477838141338
40
0.789477838141338
40
1
40
1
40
1
40
1
41
1
10
110.253639793992
20
-10.8547327478328
30
0
41
1
10
110.302921735474
20
-10.8581682698788
30
0
41
1
10
110.352296353352
20
-10.8676857603122
30
0
41
1
10
110.457768784183
20
-10.9031559493704
30
0
41
1
10
110.514461409175
20
-10.9326696938999
30
0
41
1
10
110.591053847672
20
-10.9916650124723
30
0
41
1
10
110.615228997089
20
-11.0136578241328
30
0
41
1
10
110.637682872076
20
-11.0378435489349
30
0
0
SPLINE
5
12A
100
AcDbEntity
8
1
62
256
6
ByLayer
370
-1
48
1
60
0
100
AcDbSpline
70
4
71
3
72
18
73
14
40
0
40
0
40
0
40
0
40
0.195541640010878
40
0.195541640010878
40
0.3727096815967
40
0.3727096815967
40
0.551756580125964
40
0.551756580125964
40
0.705412952916364
40
0.705412952916364
40
0.905344893638965
40
0.905344893638965
40
1
40
1
40
1
40
1
41
1
10
111.317328088934
20
-11.8720778931856
30
0
41
1
10
111.357581778663
20
-11.8165631814734
30
0
41
1
10
111.406375042115
20
-11.7658416941154
30
0
41
1
10
111.513135337569
20
-11.6857038527119
30
0
41
1
10
111.57115889704
20
-11.6539728664659
30
0
41
1
10
111.695593465436
20
-11.6108562032474
30
0
41
1
10
111.764071330243
20
-11.5992942812418
30
0
41
1
10
111.889196887168
20
-11.5998290046938
30
0
41
1
10
111.947635770622
20
-11.6087072984538
30
0
41
1
10
112.073664592884
20
-11.6452811016226
30
0
41
1
10
112.140908259948
20
-11.6781717650978
30
0
41
1
10
112.228874444169
20
-11.7383547021157
30
0
41
1
10
112.255870420937
20
-11.7597667275273
30
0
41
1
10
112.281186258076
20
-11.7827422098725
30
0
0
SPLINE
5
12B
100
AcDbEntity
8
1
62
256
6
ByLayer
370
-1
48
1
60
0
100
AcDbSpline
70
4
71
3
72
16
73
12
40
0
40
0
40
0
40
0
40
0.203316514891153
40
0.203316514891153
40
0.424385571794103
40
0.424385571794103
40
0.655841056479878
40
0.655841056479878
40
0.907685270296087
40
0.907685270296087
40
1
40
1
40
1
40
1
41
1
10
112.399194287116
20
-8.96893050703969
30
0
41
1
10
112.423838061214
20
-8.98007095661382
30
0
41
1
10
112.446991636294
20
-8.994515321525
30
0
41
1
10
112.488969402942
20
-9.02931250032313
30
0
41
1
10
112.507770131987
20
-9.05051879006658
30
0
41
1
10
112.537591295777
20
-9.09654609311607
30
0
41
1
10
112.548605009439
20
-9.12205437739564
30
0
41
1
10
112.562054888008
20
-9.17532031629096
30
0
41
1
10
112.563852685773
20
-9.20373773728559
30
0
41
1
10
112.559750880668
20
-9.24084105697742
30
0
41
1
10
112.557996246352
20
-9.25073206696231
30
0
41
1
10
112.555629693148
20
-9.26042381334167
30
0
0
SPLINE
5
12C
100
AcDbEntity
8
1
62
256
6
ByLayer
370
-1
48
1
60
0
100
AcDbSpline
70
4
71
3
72
12
73
8
40
0
40
0
40
0
40
0
40
0.315312240516605
40
0.315312240516605
40
0.782102488351367
40
0.782102488351367
40
1
40
1
40
1
40
1
41
1
10
112.613481928709
20
-9.66944741048829
30
0
41
1
10
112.590073949931
20
-9.62624090652164
30
0
41
1
10
112.572180067514
20
-9.581375158692
30
0
41
1
10
112.54242323721
20
-9.47207639516739
30
0
41
1
10
112.536919674448
20
-9.40675362726483
30
0
41
1
10
112.54427353412
20
-9.31629037206429
30
0
41
1
10
112.548904195497
20
-9.28796674683795
30
0
41
1
10
112.555629693148
20
-9.26042381334165
30
0
0
SPLINE
5
12D
100
AcDbEntity
8
1
62
256
6
ByLayer
370
-1
48
1
60
0
100
AcDbSpline
70
4
71
3
72
16
73
12
40
0
40
0
40
0
40
0
40
0.0991908256190304
40
0.0991908256190304
40
0.405370754593139
40
0.405370754593139
40
0.682916974092006
40
0.682916974092006
40
0.927912724718639
40
0.927912724718639
40
1
40
1
40
1
40
1
41
1
10
113.110332983612
20
-10.0438959314988
30
0
41
1
10
113.122358058768
20
-10.0469076382006
30
0
41
1
10
113.13433654891
20
-10.0506164225625
30
0
41
1
10
113.182285587499
20
-10.068467820748
30
0
41
1
10
113.217668207412
20
-10.0888910641215
30
0
41
1
10
113.275969560712
20
-10.1388275642795
30
0
41
1
10
113.300607889596
20
-10.168153243411
30
0
41
1
10
113.335217722992
20
-10.2290212394614
30
0
41
1
10
113.347036776371
20
-10.2608134942053
30
0
41
1
10
113.354750091985
20
-10.302322710382
30
0
41
1
10
113.356026075425
20
-10.311901391131
30
0
41
1
10
113.356798567956
20
-10.3214666595505
30
0
0
SPLINE
5
12E
100
AcDbEntity
8
1
62
256
6
ByLayer
370
-1
48
1
60
0
100
AcDbSpline
70
4
71
3
72
14
73
10
40
0
40
0
40
0
40
0
40
0.258173010349353
40
0.258173010349353
40
0.547733357626672
40
0.547733357626672
40
0.809540687773643
40
0.809540687773643
40
1
40
1
40
1
40
1
41
1
10
111.317328088935
20
-11.8720778931859
30
0
41
1
10
111.298535774402
20
-11.8979947701401
30
0
41
1
10
111.27545756203
20
-11.9213499298039
30
0
41
1
10
111.220015747204
20
-11.9613411820631
30
0
41
1
10
111.185925741093
20
-11.9773847712513
30
0
41
1
10
111.117778996565
20
-11.9936506912946
30
0
41
1
10
111.082985434257
20
-11.9954248563478
30
0
41
1
10
111.024749854083
20
-11.9869649517744
30
0
41
1
10
111.000244532723
20
-11.9798153675852
30
0
41
1
10
110.977311674514
20
-11.9694483536101
30
0
0
SPLINE
5
12F
100
AcDbEntity
8
1
62
256
6
ByLayer
370
-1
48
1
60
0
100
AcDbSpline
70
4
71
3
72
18
73
14
40
0
40
0
40
0
40
0
40
0.205510270209297
40
0.205510270209297
40
0.380789309279267
40
0.380789309279267
40
0.557829967726616
40
0.557829967726616
40
0.710988950744447
40
0.710988950744447
40
0.912556624672917
40
0.912556624672917
40
1
40
1
40
1
40
1
41
1
10
112.046841623355
20
-9.02717538317438
30
0
41
1
10
112.000488333138
20
-9.07275329843861
30
0
41
1
10
111.944863501689
20
-9.11377268872886
30
0
41
1
10
111.82846837211
20
-9.17574509017322
30
0
41
1
10
111.768249099226
20
-9.19936753688862
30
0
41
1
10
111.64172630913
20
-9.23204899244746
30
0
41
1
10
111.573431582642
20
-9.24131874167196
30
0
41
1
10
111.450416138866
20
-9.24310036344073
30
0
41
1
10
111.39362828337
20
-9.23778068805089
30
0
41
1
10
111.271869954163
20
-9.21323053902935
30
0
41
1
10
111.207803183672
20
-9.18988376127274
30
0
41
1
10
111.127598472956
20
-9.14667884273419
30
0
41
1
10
111.104557941647
20
-9.13218322150669
30
0
41
1
10
111.082983454214
20
-9.1165110664877
30
0
0
SPLINE
5
130
100
AcDbEntity
8
1
62
256
6
ByLayer
370
-1
48
1
60
0
100
AcDbSpline
70
4
71
3
72
16
73
12
40
0
40
0
40
0
40
0
40
0.214802864943232
40
0.214802864943232
40
0.438120377168244
40
0.438120377168244
40
0.672411851075662
40
0.672411851075662
40
0.927660019506249
40
0.927660019506249
40
1
40
1
40
1
40
1
41
1
10
112.641254767623
20
-11.8152249440084
30
0
41
1
10
112.61782827311
20
-11.8314496327095
30
0
41
1
10
112.591544270654
20
-11.8440446961162
30
0
41
1
10
112.536273196505
20
-11.8605945455029
30
0
41
1
10
112.506515134021
20
-11.8644047279493
30
0
41
1
10
112.446983527745
20
-11.8628251920702
30
0
41
1
10
112.416534082342
20
-11.8569849962635
30
0
41
1
10
112.35727755715
20
-11.8361045042162
30
0
41
1
10
112.328108635348
20
-11.8200605849169
30
0
41
1
10
112.295076806774
20
-11.7948277816178
30
0
41
1
10
112.287994793802
20
-11.7889213218465
30
0
41
1
10
112.281186258075
20
-11.7827422098731
30
0
0
SPLINE
5
131
100
AcDbEntity
8
1
62
256
6
ByLayer
370
-1
48
1
60
0
100
AcDbSpline
70
4
71
3
72
18
73
14
40
0
40
0
40
0
40
0
40
0.0454196319138506
40
0.0454196319138506
40
0.268605656968663
40
0.268605656968663
40
0.493582665524173
40
0.493582665524173
40
0.732199488886314
40
0.732199488886314
40
0.99379083022096
40
0.99379083022096
40
1
40
1
40
1
40
1
41
1
10
110.019707393674
20
-10.6169122010993
30
0
41
1
10
110.019225664553
20
-10.6109472653023
30
0
41
1
10
110.018928260551
20
-10.6049456377634
30
0
41
1
10
110.018269065259
20
-10.5696151571743
30
0
41
1
10
110.022242579789
20
-10.5394641570057
30
0
41
1
10
110.038293648061
20
-10.4820863471315
30
0
41
1
10
110.050619203291
20
-10.4541480369482
30
0
41
1
10
110.082252374921
20
-10.4022924067981
30
0
41
1
10
110.102308559429
20
-10.3780561793261
30
0
41
1
10
110.148584378125
20
-10.3352135926586
30
0
41
1
10
110.175770942373
20
-10.3168091354329
30
0
41
1
10
110.204501000858
20
-10.3028533753302
30
0
41
1
10
110.205174919563
20
-10.3025289480838
30
0
41
1
10
110.205849503083
20
-10.3022071227806
30
0
0
SPLINE
5
132
100
AcDbEntity
8
1
62
256
6
ByLayer
370
-1
48
1
60
0
100
AcDbSpline
70
4
71
3
72
16
73
12
40
0
40
0
40
0
40
0
40
0.15461588154414
40
0.15461588154414
40
0.376918220526797
40
0.376918220526797
40
0.607060142260786
40
0.607060142260786
40
0.855700038099734
40
0.855700038099734
40
1
40
1
40
1
40
1
41
1
10
113.356798567956
20
-10.3214666595505
30
0
41
1
10
113.358426514301
20
-10.3416244515515
30
0
41
1
10
113.357807004037
20
-10.3619217574026
30
0
41
1
10
113.350958684489
20
-10.4097443791705
30
0
41
1
10
113.34224838789
20
-10.4371484704689
30
0
41
1
10
113.316933401893
20
-10.4871956141305
30
0
41
1
10
113.299767358062
20
-10.5102803691657
30
0
41
1
10
113.25843865842
20
-10.5504730731532
30
0
41
1
10
113.233332986845
20
-10.5674777987076
30
0
41
1
10
113.191094365676
20
-10.5870668601725
30
0
41
1
10
113.174872713186
20
-10.5928081382282
30
0
41
1
10
113.158320209207
20
-10.5970461535818
30
0
0
SPLINE
5
133
100
AcDbEntity
8
1
62
256
6
ByLayer
370
-1
48
1
60
0
100
AcDbSpline
70
4
71
3
72
14
73
10
40
0
40
0
40
0
40
0
40
0.266197651678086
40
0.266197651678086
40
0.55292921051574
40
0.55292921051574
40
0.812189603596431
40
0.812189603596431
40
1
40
1
40
1
40
1
41
1
10
110.253639793992
20
-10.8547327478328
30
0
41
1
10
110.223406819874
20
-10.8526251594145
30
0
41
1
10
110.193153643687
20
-10.8451215658983
30
0
41
1
10
110.135241833648
20
-10.8183845087437
30
0
41
1
10
110.107079796647
20
-10.79779585707
30
0
41
1
10
110.063409943803
20
-10.7484101786507
30
0
41
1
10
110.046333181564
20
-10.7197957605358
30
0
41
1
10
110.026972098739
20
-10.6660603244133
30
0
41
1
10
110.021705686906
20
-10.6416557557288
30
0
41
1
10
110.019707393674
20
-10.6169122010993
30
0
0
LINE
5
4A
100
AcDbEntity
8
80
62
256
6
ByLayer
370
-1
48
1
60
0
100
AcDbLine
10
0
20
0
30
0
11
-10
21
0
31
0
39
0
210
0
220
0
230
1
0
LINE
5
4B
100
AcDbEntity
8
81
62
256
6
ByLayer
370
-1
48
1
60
0
100
AcDbLine
10
120
20
-21.9
30
0
11
130
21
-21.9
31
0
39
0
210
0
220
0
230
1
0
LINE
5
4C
100
AcDbEntity
8
1
62
256
6
ByLayer
370
-1
48
1
60
0
100
AcDbLine
10
109.105482
20
-11.007147
30
0
11
109.169151
21
-11.209082
31
0
39
0
210
0
220
0
230
1
0
LINE
5
4D
100
AcDbEntity
8
1
62
256
6
ByLayer
370
-1
48
1
60
0
100
AcDbLine
10
114.176165
20
-9.630377
30
0
11
114.112496
21
-9.428442
31
0
39
0
210
0
220
0
230
1
0
LINE
5
4E
100
AcDbEntity
8
1
62
256
6
ByLayer
370
-1
48
1
60
0
100
AcDbLine
10
110.628369
20
-9.460505
30
0
11
110.619313
21
-9.431783
31
0
39
0
210
0
220
0
230
1
0
LINE
5
4F
100
AcDbEntity
8
1
62
256
6
ByLayer
370
-1
48
1
60
0
100
AcDbLine
10
112.500112
20
-9.348317
30
0
11
112.566874
21
-9.560059
31
0
39
0
210
0
220
0
230
1
0
LINE
5
50
100
AcDbEntity
8
1
62
256
6
ByLayer
370
-1
48
1
60
0
100
AcDbLine
10
112.660506
20
-11.199945
30
0
11
112.734293
21
-11.433967
31
0
39
0
210
0
220
0
230
1
0
LINE
5
51
100
AcDbEntity
8
1
62
256
6
ByLayer
370
-1
48
1
60
0
100
AcDbLine
10
110.781849
20
-11.290202
30
0
11
110.715034
21
-11.078294
31
0
39
0
210
0
220
0
230
1
0
LINE
5
52
100
AcDbEntity
8
1
62
256
6
ByLayer
370
-1
48
1
60
0
100
AcDbLine
10
103.398324
20
0.064335
30
0
11
103.400192
21
0.034663
31
0
39
0
210
0
220
0
230
1
0
LINE
5
53
100
AcDbEntity
8
1
62
256
6
ByLayer
370
-1
48
1
60
0
100
AcDbLine
10
115.74079
20
-7.640189
30
0
11
115.112897
21
-7.033663
31
0
39
0
210
0
220
0
230
1
0
LINE
5
54
100
AcDbEntity
8
1
62
256
6
ByLayer
370
-1
48
1
60
0
100
AcDbLine
10
0.3
20
31.5
30
0
11
0
21
31.2
31
0
39
0
210
0
220
0
230
1
0
LINE
5
55
100
AcDbEntity
8
1
62
256
6
ByLayer
370
-1
48
1
60
0
100
AcDbLine
10
0
20
-31.2
30
0
11
0.3
21
-31.5
31
0
39
0
210
0
220
0
230
1
0
LINE
5
56
100
AcDbEntity
8
1
62
256
6
ByLayer
370
-1
48
1
60
0
100
AcDbLine
10
21.5
20
-31.5
30
0
11
24.221884
21
-21.209952
31
0
39
0
210
0
220
0
230
1
0
LINE
5
57
100
AcDbEntity
8
1
62
256
6
ByLayer
370
-1
48
1
60
0
100
AcDbLine
10
24.221884
20
21.209952
30
0
11
21.5
21
31.5
31
0
39
0
210
0
220
0
230
1
0
LINE
5
58
100
AcDbEntity
8
1
62
256
6
ByLayer
370
-1
48
1
60
0
100
AcDbLine
10
21.5
20
31.5
30
0
11
0.3
21
31.5
31
0
39
0
210
0
220
0
230
1
0
LINE
5
59
100
AcDbEntity
8
1
62
256
6
ByLayer
370
-1
48
1
60
0
100
AcDbLine
10
0.3
20
-31.5
30
0
11
21.5
21
-31.5
31
0
39
0
210
0
220
0
230
1
0
LINE
5
5A
100
AcDbEntity
8
1
62
256
6
ByLayer
370
-1
48
1
60
0
100
AcDbLine
10
100.763505
20
16
30
0
11
30.989138
21
16
31
0
39
0
210
0
220
0
230
1
0
LINE
5
5B
100
AcDbEntity
8
1
62
256
6
ByLayer
370
-1
48
1
60
0
100
AcDbLine
10
30.989138
20
-16
30
0
11
98.261873
21
-16
31
0
39
0
210
0
220
0
230
1
0
LINE
5
5C
100
AcDbEntity
8
1
62
256
6
ByLayer
370
-1
48
1
60
0
100
AcDbLine
10
100.487147
20
-4.350914
30
0
11
100.162376
21
-3.320872
31
0
39
0
210
0
220
0
230
1
0
LINE
5
5D
100
AcDbEntity
8
SK1
62
256
6
ByLayer
370
-1
48
1
60
0
100
AcDbLine
10
0
20
22.45
30
0
11
-0.2
21
22.45
31
0
39
0
210
0
220
0
230
1
0
LINE
5
5F
100
AcDbEntity
8
SK1
62
256
6
ByLayer
370
-1
48
1
60
0
100
AcDbLine
10
-0.2
20
-22.45
30
0
11
0
21
-22.45
31
0
39
0
210
0
220
0
230
1
0
LINE
5
60
100
AcDbEntity
8
SK4
62
256
6
ByLayer
370
-1
48
0.05
60
0
100
AcDbLine
10
-43
20
0
30
0
11
124.448793
21
0
31
0
39
0
210
0
220
0
230
1
0
LINE
5
62
100
AcDbEntity
8
4
62
256
6
ByLayer
370
-1
48
0.05
60
0
100
AcDbLine
10
0
20
0
30
0
11
162.448793
21
0
31
0
39
0
210
0
220
0
230
1
0
LINE
5
64
100
AcDbEntity
8
1
62
256
6
ByLayer
370
-1
48
1
60
0
100
AcDbLine
10
95.960081
20
-13.489964
30
0
11
88.315381
21
-13.489964
31
0
39
0
210
0
220
0
230
1
0
LINE
5
65
100
AcDbEntity
8
1
62
256
6
ByLayer
370
-1
48
1
60
0
100
AcDbLine
10
100.344794
20
-4.040543
30
0
11
96.266726
21
2.51657
31
0
39
0
210
0
220
0
230
1
0
LINE
5
66
100
AcDbEntity
8
1
62
256
6
ByLayer
370
-1
48
1
60
0
100
AcDbLine
10
101.800267
20
1.364117
30
0
11
101.756383
21
1.503302
31
0
39
0
210
0
220
0
230
1
0
LINE
5
67
100
AcDbEntity
8
1
62
256
6
ByLayer
370
-1
48
1
60
0
100
AcDbLine
10
10.538675
20
30.080593
30
0
11
10.538675
21
9.349221
31
0
39
0
210
0
220
0
230
1
0
LINE
5
68
100
AcDbEntity
8
1
62
256
6
ByLayer
370
-1
48
1
60
0
100
AcDbLine
10
10.538675
20
-30.080593
30
0
11
13.461325
21
-30.080593
31
0
39
0
210
0
220
0
230
1
0
LINE
5
69
100
AcDbEntity
8
1
62
256
6
ByLayer
370
-1
48
1
60
0
100
AcDbLine
10
24.221884
20
21.209952
30
0
11
24.221884
21
-21.209952
31
0
39
0
210
0
220
0
230
1
0
LINE
5
6A
100
AcDbEntity
8
1
62
256
6
ByLayer
370
-1
48
1
60
0
100
AcDbLine
10
97.916697
20
-12.221397
30
0
11
100.45287
21
-5.34173
31
0
39
0
210
0
220
0
230
1
0
LINE
5
6B
100
AcDbEntity
8
1
62
256
6
ByLayer
370
-1
48
1
60
0
100
AcDbLine
10
103.966262
20
1.850985
30
0
11
104.138834
21
1.303655
31
0
39
0
210
0
220
0
230
1
0
LINE
5
6C
100
AcDbEntity
8
1
62
256
6
ByLayer
370
-1
48
1
60
0
100
AcDbLine
10
104.719785
20
-4.205861
30
0
11
101.955666
21
-2.121988
31
0
39
0
210
0
220
0
230
1
0
LINE
5
6D
100
AcDbEntity
8
1
62
256
6
ByLayer
370
-1
48
1
60
0
100
AcDbLine
10
101.542381
20
-4.57593
30
0
11
98.989691
21
-11.403215
31
0
39
0
210
0
220
0
230
1
0
LINE
5
6E
100
AcDbEntity
8
1
62
256
6
ByLayer
370
-1
48
1
60
0
100
AcDbLine
10
13.461325
20
30.080593
30
0
11
13.461325
21
9.349221
31
0
39
0
210
0
220
0
230
1
0
LINE
5
6F
100
AcDbEntity
8
1
62
256
6
ByLayer
370
-1
48
1
60
0
100
AcDbLine
10
10.538675
20
9.349221
30
0
11
13.461325
21
9.349221
31
0
39
0
210
0
220
0
230
1
0
LINE
5
70
100
AcDbEntity
8
1
62
256
6
ByLayer
370
-1
48
1
60
0
100
AcDbLine
10
101.955666
20
-2.121988
30
0
11
101.914466
21
-1.065126
31
0
39
0
210
0
220
0
230
1
0
LINE
5
71
100
AcDbEntity
8
1
62
256
6
ByLayer
370
-1
48
1
60
0
100
AcDbLine
10
91.751902
20
14.026309
30
0
11
101.300588
21
-1.892236
31
0
39
0
210
0
220
0
230
1
0
LINE
5
72
100
AcDbEntity
8
1
62
256
6
ByLayer
370
-1
48
1
60
0
100
AcDbLine
10
115.36574
20
-6.336516
30
0
11
114.67225
21
-6.816813
31
0
39
0
210
0
220
0
230
1
0
LINE
5
73
100
AcDbEntity
8
1
62
256
6
ByLayer
370
-1
48
1
60
0
100
AcDbLine
10
102.36077
20
14.318503
30
0
11
112.078958
21
4.087823
31
0
39
0
210
0
220
0
230
1
0
LINE
5
74
100
AcDbEntity
8
1
62
256
6
ByLayer
370
-1
48
1
60
0
100
AcDbLine
10
13.894338
20
29.913955
30
0
11
13.894338
21
9.869413
31
0
39
0
210
0
220
0
230
1
0
LINE
5
75
100
AcDbEntity
8
1
62
256
6
ByLayer
370
-1
48
1
60
0
100
AcDbLine
10
115.36574
20
-6.336516
30
0
11
112.078958
21
4.087823
31
0
39
0
210
0
220
0
230
1
0
LINE
5
76
100
AcDbEntity
8
1
62
256
6
ByLayer
370
-1
48
1
60
0
100
AcDbLine
10
21.5
20
31.5
30
0
11
21.5
21
-31.5
31
0
39
0
210
0
220
0
230
1
0
LINE
5
77
100
AcDbEntity
8
1
62
256
6
ByLayer
370
-1
48
1
60
0
100
AcDbLine
10
99.80783
20
-14.900307
30
0
11
98.797364
21
-15.896021
31
0
39
0
210
0
220
0
230
1
0
LINE
5
78
100
AcDbEntity
8
1
62
256
6
ByLayer
370
-1
48
1
60
0
100
AcDbLine
10
10.105662
20
-9.869413
30
0
11
10.105662
21
-29.913955
31
0
39
0
210
0
220
0
230
1
0
LINE
5
79
100
AcDbEntity
8
1
62
256
6
ByLayer
370
-1
48
1
60
0
100
AcDbLine
10
101.741894
20
-0.517795
30
0
11
104.122936
21
-2.312867
31
0
39
0
210
0
220
0
230
1
0
LINE
5
7A
100
AcDbEntity
8
1
62
256
6
ByLayer
370
-1
48
1
60
0
100
AcDbLine
10
10.538675
20
-9.349221
30
0
11
10.538675
21
-30.080593
31
0
39
0
210
0
220
0
230
1
0
LINE
5
7B
100
AcDbEntity
8
1
62
256
6
ByLayer
370
-1
48
1
60
0
100
AcDbLine
10
106.313117
20
-12.606169
30
0
11
107.179271
21
-12.006289
31
0
39
0
210
0
220
0
230
1
0
LINE
5
7C
100
AcDbEntity
8
1
62
256
6
ByLayer
370
-1
48
1
60
0
100
AcDbLine
10
0.3
20
31.5
30
0
11
0.3
21
-31.5
31
0
39
0
210
0
220
0
230
1
0
LINE
5
7D
100
AcDbEntity
8
1
62
256
6
ByLayer
370
-1
48
1
60
0
100
AcDbLine
10
100.344794
20
-4.040543
30
0
11
100.013803
21
-2.990773
31
0
39
0
210
0
220
0
230
1
0
LINE
5
7E
100
AcDbEntity
8
1
62
256
6
ByLayer
370
-1
48
1
60
0
100
AcDbLine
10
100.763505
20
16
30
0
11
102.36077
21
14.318503
31
0
39
0
210
0
220
0
230
1
0
LINE
5
7F
100
AcDbEntity
8
1
62
256
6
ByLayer
370
-1
48
1
60
0
100
AcDbLine
10
13.461325
20
-9.349221
30
0
11
13.461325
21
-30.080593
31
0
39
0
210
0
220
0
230
1
0
LINE
5
80
100
AcDbEntity
8
1
62
256
6
ByLayer
370
-1
48
1
60
0
100
AcDbLine
10
101.914466
20
-1.065126
30
0
11
104.295509
21
-2.860197
31
0
39
0
210
0
220
0
230
1
0
LINE
5
81
100
AcDbEntity
8
1
62
256
6
ByLayer
370
-1
48
1
60
0
100
AcDbLine
10
114.67225
20
-6.816813
30
0
11
104.57922
21
0.792338
31
0
39
0
210
0
220
0
230
1
0
LINE
5
82
100
AcDbEntity
8
1
62
256
6
ByLayer
370
-1
48
1
60
0
100
AcDbLine
10
13.461325
20
-9.349221
30
0
11
10.538675
21
-9.349221
31
0
39
0
210
0
220
0
230
1
0
LINE
5
83
100
AcDbEntity
8
1
62
256
6
ByLayer
370
-1
48
1
60
0
100
AcDbLine
10
83.374726
20
-15.019977
30
0
11
82.303973
21
-15.753447
31
0
39
0
210
0
220
0
230
1
0
LINE
5
84
100
AcDbEntity
8
1
62
256
6
ByLayer
370
-1
48
1
60
0
100
AcDbLine
10
30.989138
20
-16
30
0
11
30.989138
21
16
31
0
39
0
210
0
220
0
230
1
0
LINE
5
85
100
AcDbEntity
8
1
62
256
6
ByLayer
370
-1
48
1
60
0
100
AcDbLine
10
13.894338
20
-9.869413
30
0
11
13.894338
21
-29.913955
31
0
39
0
210
0
220
0
230
1
0
LINE
5
86
100
AcDbEntity
8
1
62
256
6
ByLayer
370
-1
48
1
60
0
100
AcDbLine
10
10.105662
20
29.913955
30
0
11
10.105662
21
9.869413
31
0
39
0
210
0
220
0
230
1
0
LINE
5
87
100
AcDbEntity
8
1
62
256
6
ByLayer
370
-1
48
1
60
0
100
AcDbLine
10
101.741894
20
-0.517795
30
0
11
101.914466
21
-1.065126
31
0
39
0
210
0
220
0
230
1
0
LINE
5
88
100
AcDbEntity
8
1
62
256
6
ByLayer
370
-1
48
1
60
0
100
AcDbLine
10
13.461325
20
30.080593
30
0
11
10.538675
21
30.080593
31
0
39
0
210
0
220
0
230
1
0
LINE
5
89
100
AcDbEntity
8
1
62
256
6
ByLayer
370
-1
48
1
60
0
100
AcDbLine
10
0
20
31.2
30
0
11
0
21
-31.2
31
0
39
0
210
0
220
0
230
1
0
LINE
5
8A
100
AcDbEntity
8
1
62
256
6
ByLayer
370
-1
48
1
60
0
100
AcDbLine
10
100.013803
20
-2.990773
30
0
11
90.380748
21
13.068424
31
0
39
0
210
0
220
0
230
1
0
LINE
5
8B
100
AcDbEntity
8
SK1
62
256
6
ByLayer
370
-1
48
1
60
0
100
AcDbLine
10
-1.307107
20
-4.695915
30
0
11
-1.307107
21
4.695917
31
0
39
0
210
0
220
0
230
1
0
LINE
5
8C
100
AcDbEntity
8
SK1
62
256
6
ByLayer
370
-1
48
1
60
0
100
AcDbLine
10
-0.2
20
-7.454103
30
0
11
-0.2
21
-22.45
31
0
39
0
210
0
220
0
230
1
0
LINE
5
8D
100
AcDbEntity
8
SK1
62
256
6
ByLayer
370
-1
48
1
60
0
100
AcDbLine
10
-0.2
20
22.45
30
0
11
-0.2
21
7.454102
31
0
39
0
210
0
220
0
230
1
0
LINE
5
8E
100
AcDbEntity
8
SK1
62
256
6
ByLayer
370
-1
48
1
60
0
100
AcDbLine
10
-0.2
20
7.066356
30
0
11
-0.2
21
6.834385
31
0
39
0
210
0
220
0
230
1
0
LINE
5
8F
100
AcDbEntity
8
SK1
62
256
6
ByLayer
370
-1
48
1
60
0
100
AcDbLine
10
-0.2
20
-6.834385
30
0
11
-0.2
21
-7.066357
31
0
39
0
210
0
220
0
230
1
0
LINE
5
90
100
AcDbEntity
8
1
62
256
6
ByLayer
370
-1
48
1
60
0
100
AcDbLine
10
119.998924
20
-20.989531
30
0
11
115.840805
21
-7.801664
31
0
39
0
210
0
220
0
230
1
0
LINE
5
91
100
AcDbEntity
8
1
62
256
6
ByLayer
370
-1
48
1
60
0
100
AcDbLine
10
115.076685
20
-7.002727
30
0
11
114.754493
21
-6.759826
31
0
39
0
210
0
220
0
230
1
0
LINE
5
92
100
AcDbEntity
8
1
62
256
6
ByLayer
370
-1
48
1
60
0
100
AcDbLine
10
104.293936
20
1.126403
30
0
11
103.972612
21
1.36865
31
0
39
0
210
0
220
0
230
1
0
LINE
5
93
100
AcDbEntity
8
1
62
256
6
ByLayer
370
-1
48
1
60
0
100
AcDbLine
10
107.705604
20
-13.43593
30
0
11
118.813735
21
-21.810367
31
0
39
0
210
0
220
0
230
1
0
LINE
5
94
100
AcDbEntity
8
1
62
256
6
ByLayer
370
-1
48
1
60
0
100
AcDbLine
10
115.704577
20
-7.609253
30
0
11
104.596446
21
0.765183
31
0
39
0
210
0
220
0
230
1
0
LINE
5
95
100
AcDbEntity
8
1
62
256
6
ByLayer
370
-1
48
1
60
0
100
AcDbLine
10
115.076685
20
-7.002727
30
0
11
115.704577
21
-7.609253
31
0
39
0
210
0
220
0
230
1
0
LINE
5
96
100
AcDbEntity
8
1
62
256
6
ByLayer
370
-1
48
1
60
0
100
AcDbLine
10
103.411258
20
-0.055653
30
0
11
107.569376
21
-13.24352
31
0
39
0
210
0
220
0
230
1
0
LINE
5
97
100
AcDbEntity
8
1
62
256
6
ByLayer
370
-1
48
1
60
0
100
AcDbLine
10
110.637683
20
-11.037844
30
0
11
110.572366
21
-10.830686
31
0
39
0
210
0
220
0
230
1
0
LINE
5
98
100
AcDbEntity
8
1
62
256
6
ByLayer
370
-1
48
1
60
0
100
AcDbLine
10
112.481216
20
-9.024415
30
0
11
112.55563
21
-9.260424
31
0
39
0
210
0
220
0
230
1
0
LINE
5
99
100
AcDbEntity
8
1
62
256
6
ByLayer
370
-1
48
1
60
0
100
AcDbLine
10
112.206674
20
-11.546421
30
0
11
112.281186
21
-11.782742
31
0
39
0
210
0
220
0
230
1
0
LINE
5
9A
100
AcDbEntity
8
1
62
256
6
ByLayer
370
-1
48
1
60
0
100
AcDbLine
10
113.083808
20
-10.360725
30
0
11
113.15832
21
-10.597046
31
0
39
0
210
0
220
0
230
1
0
LINE
5
9B
100
AcDbEntity
8
1
62
256
6
ByLayer
370
-1
48
1
60
0
100
AcDbLine
10
110.179226
20
-10.618724
30
0
11
110.25364
21
-10.854733
31
0
39
0
210
0
220
0
230
1
0
LINE
5
9C
100
AcDbEntity
8
1
62
256
6
ByLayer
370
-1
48
1
60
0
100
AcDbLine
10
110.666981
20
-10.964321
30
0
11
110.732297
21
-11.171478
31
0
39
0
210
0
220
0
230
1
0
LINE
5
9D
100
AcDbEntity
8
1
62
256
6
ByLayer
370
-1
48
1
60
0
100
AcDbLine
10
111.242816
20
-11.635757
30
0
11
111.317328
21
-11.872078
31
0
39
0
210
0
220
0
230
1
0
LINE
5
9E
100
AcDbEntity
8
1
62
256
6
ByLayer
370
-1
48
1
60
0
100
AcDbLine
10
103.498777
20
1.028791
30
0
11
103.49572
21
1.038486
31
0
39
0
210
0
220
0
230
1
0
LINE
5
9F
100
AcDbEntity
8
1
62
256
6
ByLayer
370
-1
48
1
60
0
100
AcDbLine
10
114.764555
20
-6.767414
30
0
11
114.760796
21
-6.755491
31
0
39
0
210
0
220
0
230
1
0
LINE
5
A0
100
AcDbEntity
8
1
62
256
6
ByLayer
370
-1
48
1
60
0
100
AcDbLine
10
104.286405
20
1.132084
30
0
11
104.284948
21
1.136706
31
0
39
0
210
0
220
0
230
1
0
LINE
5
A1
100
AcDbEntity
8
2
62
256
6
ByLayer
370
-1
48
1
60
1
100
AcDbLine
10
120
20
0
30
0
11
120.001
21
0.001
31
0
39
0
210
0
220
0
230
1
0
MTEXT
5
134
100
AcDbEntity
8
SK6
62
256
6
ByLayer
370
-1
48
1
60
0
100
AcDbMText
10
-2.600603
20
40.625
30
0
210
0
220
0
230
1
1
\W00.741;\fsimplex.shx,bigfont.shx;C6-SVQBL-22120-16HP 
40
3.5
41
0
44
1.084337
50
0
71
7
72
5
7
DEFAULT
0
DIMENSION
5
168
100
AcDbEntity
8
SK2
62
256
6
ByLayer
370
-3
48
1
60
0
100
AcDbDimension
2
DimnDraft3D1
10
-50.75
20
-31.5
30
0
11
-50.75
21
-4.784211
31
0
70
32
71
5
72
1
41
1
210
0
220
0
230
1
3
Standard
100
AcDbAlignedDimension
13
-2
23
31.5
33
0
14
-2
24
-31.5
34
0
50
90
100
AcDbRotatedDimension
1001
ACAD
1000
DSTYLE
1002
{
1070
    74
1070
     0
1070
   279
1070
     0
1070
   172
1070
     1
1070
   173
1070
     1
1070
   340
1005
135
1070
    77
1070
     1
1070
    73
1070
     0
1070
   171
1070
     4
1070
   274
1070
     4
1070
   177
1070
     2
1070
   176
1070
     2
1070
   178
1070
     7
1070
    78
1070
     8
1070
    41
1041
3.175
1070
   147
1041
2.25
1070
    42
1041
2.0
1070
    44
1041
2.0
1070
   140
1041
4.5
1070
   343
1005
169
1070
   344
1005
169
1002
}
0
DIMENSION
5
17B
100
AcDbEntity
8
2
62
256
6
ByLayer
370
-3
48
1
60
0
100
AcDbDimension
2
DimnDraft3D2
10
40.85
20
16
30
0
11
40.85
21
-7.318421
31
0
70
32
71
5
72
1
41
1
210
0
220
0
230
1
3
Standard
100
AcDbAlignedDimension
13
25.6
23
16
33
0
14
0
24
0
34
0
50
90
100
AcDbRotatedDimension
1001
ACAD
1000
DSTYLE
1002
{
1070
    74
1070
     0
1070
   279
1070
     0
1070
   172
1070
     1
1070
   173
1070
     1
1070
   340
1005
135
1070
    75
1070
     1
1070
    76
1070
     1
1070
    77
1070
     1
1070
    73
1070
     0
1070
   171
1070
     4
1070
   274
1070
     4
1070
   177
1070
     2
1070
   176
1070
     2
1070
   178
1070
     7
1070
    78
1070
     8
1070
    41
1041
3.175
1070
   147
1041
2.25
1070
    42
1041
2.0
1070
    44
1041
2.0
1070
   140
1041
4.5
1070
   343
1005
169
1070
   344
1005
169
1002
}
0
DIMENSION
5
189
100
AcDbEntity
8
2
62
256
6
ByLayer
370
-3
48
1
60
0
100
AcDbDimension
2
DimnDraft3D3
10
132.25
20
-21.9
30
0
11
132.25
21
-16.113158
31
0
70
32
71
5
72
1
41
1
210
0
220
0
230
1
3
Standard
100
AcDbAlignedDimension
13
122
23
0
33
0
14
122
24
-21.9
34
0
50
90
100
AcDbRotatedDimension
1001
ACAD
1000
DSTYLE
1002
{
1070
    74
1070
     0
1070
   279
1070
     0
1070
   172
1070
     1
1070
   173
1070
     1
1070
   340
1005
135
1070
    77
1070
     1
1070
    73
1070
     0
1070
   171
1070
     4
1070
   274
1070
     4
1070
   177
1070
     2
1070
   176
1070
     2
1070
   178
1070
     7
1070
    78
1070
     8
1070
    41
1041
3.175
1070
   147
1041
2.25
1070
    42
1041
2.0
1070
    44
1041
2.0
1070
   140
1041
4.5
1070
   343
1005
169
1070
   344
1005
169
1002
}
0
DIMENSION
5
197
100
AcDbEntity
8
2
62
256
6
ByLayer
370
-3
48
1
60
0
100
AcDbDimension
2
DimnDraft3D4
10
120
20
-48.75
30
0
11
53.747368
21
-48.75
31
0
70
32
71
5
72
1
41
1
210
0
220
0
230
1
3
Standard
100
AcDbAlignedDimension
13
0
23
-33.5
33
0
14
120
24
-23.9
34
0
50
0
100
AcDbRotatedDimension
1001
ACAD
1000
DSTYLE
1002
{
1070
   279
1070
     0
1070
   172
1070
     1
1070
   173
1070
     1
1070
   340
1005
135
1070
    77
1070
     1
1070
    73
1070
     0
1070
   171
1070
     4
1070
   274
1070
     4
1070
   177
1070
     2
1070
   176
1070
     2
1070
   178
1070
     7
1070
    78
1070
     8
1070
    41
1041
3.175
1070
   147
1041
2.25
1070
    42
1041
2.0
1070
    44
1041
2.0
1070
   140
1041
4.5
1070
   343
1005
169
1070
   344
1005
169
1002
}
0
DIMENSION
5
1A5
100
AcDbEntity
8
2
62
256
6
ByLayer
370
-3
48
1
60
0
100
AcDbDimension
2
DimnDraft3D5
10
120
20
-39.15
30
0
11
67.163158
21
-39.15
31
0
70
32
71
5
72
1
41
1
210
0
220
0
230
1
3
Standard
100
AcDbAlignedDimension
13
25.6
23
-18
33
0
14
120
24
-23.9
34
0
50
0
100
AcDbRotatedDimension
1001
ACAD
1000
DSTYLE
1002
{
1070
   279
1070
     0
1070
   172
1070
     1
1070
   173
1070
     1
1070
   340
1005
135
1070
    77
1070
     1
1070
    73
1070
     0
1070
   171
1070
     4
1070
   274
1070
     4
1070
   177
1070
     2
1070
   176
1070
     2
1070
   178
1070
     7
1070
    78
1070
     8
1070
    41
1041
3.175
1070
   147
1041
2.25
1070
    42
1041
2.0
1070
    44
1041
2.0
1070
   140
1041
4.5
1070
   343
1005
169
1070
   344
1005
169
1002
}
0
DIMENSION
5
1B3
100
AcDbEntity
8
2
62
256
6
ByLayer
370
-3
48
1
60
0
100
AcDbDimension
2
DimnDraft3D6
10
153.021363
20
0
30
0
11
129.502927
21
37.788356
31
0
70
34
71
5
72
1
41
1
210
0
220
0
230
1
3
Standard
100
AcDb2LineAngularDimension
13
114.587296
23
-4.733095
33
0
14
101.088854
24
38.078491
34
0
15
122
25
0
35
0
16
138.1821
26
34.214547
36
0
40
0
0
ENDSEC
0
SECTION
2
OBJECTS
0
DICTIONARY
5
1e4
330
0
100
AcDbDictionary
280
0
281
1
3
ACAD_GROUP
350
1e5
3
ACAD_MLINESTYLE
350
1e6
0
DICTIONARY
5
1e5
330
0
100
AcDbDictionary
280
0
281
1
0
DICTIONARY
5
1e6
330
0
100
AcDbDictionary
280
0
281
1
3
Standard
350
18
0
MLINESTYLE
5
18
330
1e6
100
AcDbMlineStyle
2
Standard
70
0
3

62
256
51
90
52
90
71
2
49
-0.5
62
256
6
ByLayer
49
0.5
62
256
6
ByLayer
0
RASTERVARIABLES
5
1d2
330

100
AcDbRasterVariables
90
0
70
1
71
1
72
1
0
ENDSEC
0
EOF
