0
SECTION
2
HEADER
9
$ACADVER
1
AC1015
9
$DWGCODEPAGE
3
ANSI_1252
9
$HANDSEED
5
18f
9
$ANGBASE
50
0
9
$ANGDIR
70
0
9
$ATTMODE
70
1
9
$AUNITS
70
0
9
$AUPREC
70
0
9
$CECOLOR
62
256
9
$CELTSCALE
40
1
9
$CELTYPE
6
ByLayer
9
$CELWEIGHT
370
-1
9
$CLAYER
8
0
9
$CMLJUST
70
0
9
$CMLSCALE
40
1
9
$CMLSTYLE
2
Standard
9
$DIMSTYLE
2
Standard
9
$TEXTSIZE
40
0.2
9
$TEXTSTYLE
7
Standard
9
$LUNITS
70
2
9
$LUPREC
70
4
9
$EXTNAMES
290
1
9
$INSUNITS
70
4
9
$LTSCALE
40
1
9
$LWDISPLAY
290
0
9
$PDMODE
70
0
9
$PDSIZE
40
0
9
$PLINEGEN
70
0
0
ENDSEC
0
SECTION
2
CLASSES
0
CLASS
1
RASTERVARIABLES
2
AcDbRasterVariables
3
ISM
90
0
280
0
281
0
0
ENDSEC
0
SECTION
2
TABLES
0
TABLE
2
VPORT
5
185
100
AcDbSymbolTable
0
VPORT
5
1
100
AcDbSymbolTableRecord
100
AcDbViewportTableRecord
2
*Active
70
0
10
0
20
0
11
1
21
1
12
-1
22
1
13
0
23
0
14
0.5
24
0.5
15
10
25
10
16
0
26
0
36
1
17
0
27
0
37
0
0
ENDTAB
0
TABLE
2
LTYPE
5
186
100
AcDbSymbolTable
0
LTYPE
5
14
100
AcDbSymbolTableRecord
100
AcDbLinetypeTableRecord
70
0
2
ByBlock
3

72
65
73
0
40
0
0
LTYPE
5
15
100
AcDbSymbolTableRecord
100
AcDbLinetypeTableRecord
70
0
2
ByLayer
3

72
65
73
0
40
0
0
LTYPE
5
16
100
AcDbSymbolTableRecord
100
AcDbLinetypeTableRecord
70
0
2
CONTINUOUS
3
Solid line
72
65
73
0
40
0
0
LTYPE
5
3B
100
AcDbSymbolTableRecord
100
AcDbLinetypeTableRecord
70
0
2
DASHED
3
__ __ __ __ __ __ __ __ __
72
65
73
2
40
25.72
49
12.86
74
0
49
-12.86
74
0
0
LTYPE
5
3C
100
AcDbSymbolTableRecord
100
AcDbLinetypeTableRecord
70
0
2
HIDDEN
3
_ _ _ _ _ _ _ _ _ _ _ _ _ _ _
72
65
73
2
40
0.5
49
0.25
74
0
49
-0.25
74
0
0
LTYPE
5
3D
100
AcDbSymbolTableRecord
100
AcDbLinetypeTableRecord
70
0
2
PHANTOM
3
____ _ _ ____ _ _ _____ _ _ ____
72
65
73
6
40
50.5
49
18
74
0
49
-6.5
74
0
49
6.5
74
0
49
-6.5
74
0
49
6.5
74
0
49
-6.5
74
0
0
LTYPE
5
3E
100
AcDbSymbolTableRecord
100
AcDbLinetypeTableRecord
70
0
2
CENTER
3
____ _ ____ _ ____ _ ____
72
65
73
4
40
47.5
49
22
74
0
49
-8.5
74
0
49
8.5
74
0
49
-8.5
74
0
0
LTYPE
5
3F
100
AcDbSymbolTableRecord
100
AcDbLinetypeTableRecord
70
0
2
DOT
3
.........................
72
65
73
2
40
10
49
0
74
0
49
-10
74
0
0
LTYPE
5
40
100
AcDbSymbolTableRecord
100
AcDbLinetypeTableRecord
70
0
2
DASHDOT
3
_._._._._._._._._._._._._._._._.
72
65
73
4
40
70
49
31
74
0
49
-13
74
0
49
13
74
0
49
-13
74
0
0
ENDTAB
0
TABLE
2
LAYER
5
187
100
AcDbSymbolTable
0
LAYER
5
10
100
AcDbSymbolTableRecord
100
AcDbLayerTableRecord
2
0
70
0
62
7
6
CONTINUOUS
290
1
370
-3
390
0
0
LAYER
5
45
100
AcDbSymbolTableRecord
100
AcDbLayerTableRecord
2
81
70
0
62
-3
6
CONTINUOUS
290
1
370
-3
390
0
0
LAYER
5
49
100
AcDbSymbolTableRecord
100
AcDbLayerTableRecord
2
2
70
0
62
7
6
CONTINUOUS
290
1
370
-3
390
0
0
LAYER
5
4C
100
AcDbSymbolTableRecord
100
AcDbLayerTableRecord
2
80
70
0
62
-6
6
CONTINUOUS
290
1
370
-3
390
0
0
LAYER
5
4F
100
AcDbSymbolTableRecord
100
AcDbLayerTableRecord
2
1
70
0
62
4
6
CONTINUOUS
290
1
370
-3
390
0
0
LAYER
5
55
100
AcDbSymbolTableRecord
100
AcDbLayerTableRecord
2
4
70
0
62
-2
6
CENTER
290
1
370
-3
390
0
0
LAYER
5
171
100
AcDbSymbolTableRecord
100
AcDbLayerTableRecord
2
SK2
70
0
62
7
6
CONTINUOUS
290
1
370
-3
390
0
0
LAYER
5
172
100
AcDbSymbolTableRecord
100
AcDbLayerTableRecord
2
SK4
70
0
62
2
6
CENTER
290
1
370
-3
390
0
0
LAYER
5
173
100
AcDbSymbolTableRecord
100
AcDbLayerTableRecord
2
SK1
70
0
62
4
6
CONTINUOUS
290
1
370
-3
390
0
0
LAYER
5
174
100
AcDbSymbolTableRecord
100
AcDbLayerTableRecord
2
SK6
70
0
62
5
6
CONTINUOUS
290
1
370
-3
390
0
0
ENDTAB
0
TABLE
2
STYLE
5
188
100
AcDbSymbolTable
0
STYLE
5
11
100
AcDbSymbolTableRecord
100
AcDbTextStyleTableRecord
2
Standard
3
txt
70
0
71
0
40
0
41
1
42
0
50
0
0
STYLE
5
FC
100
AcDbSymbolTableRecord
100
AcDbTextStyleTableRecord
2
DEFAULT
3
simplex.shx
70
0
71
0
40
0
41
1
42
0
50
0
0
STYLE
5
11F
100
AcDbSymbolTableRecord
100
AcDbTextStyleTableRecord
2
DWGDirectTextStyle
3
SIMPLEX
70
0
71
0
40
0
41
1
42
0
50
0
0
ENDTAB
0
TABLE
2
DIMSTYLE
5
189
100
AcDbSymbolTable
100
AcDbDimStyleTable
0
DIMSTYLE
105
27
100
AcDbSymbolTableRecord
100
AcDbDimStyleTableRecord
2
Standard
70
0
3
<>
41
0.18
42
0.0625
44
0.18
140
0.18
147
0.09
73
0
74
0
77
1
271
2
275
0
278
52
280
0
340
11
0
ENDTAB
0
TABLE
2
VIEW
5
18a
100
AcDbSymbolTable
0
ENDTAB
0
TABLE
2
UCS
5
18b
100
AcDbSymbolTable
0
ENDTAB
0
TABLE
2
APPID
5
18c
100
AcDbSymbolTable
0
APPID
5
12
100
AcDbSymbolTableRecord
100
AcDbRegAppTableRecord
2
ACAD
70
0
0
ENDTAB
0
TABLE
2
BLOCK_RECORD
5
18d
100
AcDbSymbolTable
0
BLOCK_RECORD
5
1F
100
AcDbSymbolTableRecord
100
AcDbBlockTableRecord
2
*Model_Space
340
0
70
0
0
BLOCK_RECORD
5
1B
100
AcDbSymbolTableRecord
100
AcDbBlockTableRecord
2
*Paper_Space
340
0
70
0
0
BLOCK_RECORD
5
23
100
AcDbSymbolTableRecord
100
AcDbBlockTableRecord
2
*Paper_Space0
340
0
70
0
0
BLOCK_RECORD
5
121
100
AcDbSymbolTableRecord
100
AcDbBlockTableRecord
2
DimnDraft3D1
340
0
70
0
0
BLOCK_RECORD
5
12F
100
AcDbSymbolTableRecord
100
AcDbBlockTableRecord
2
_CLOSED
340
0
70
0
0
BLOCK_RECORD
5
136
100
AcDbSymbolTableRecord
100
AcDbBlockTableRecord
2
DimnDraft3D2
340
0
70
0
0
BLOCK_RECORD
5
144
100
AcDbSymbolTableRecord
100
AcDbBlockTableRecord
2
DimnDraft3D3
340
0
70
0
0
ENDTAB
0
ENDSEC
0
SECTION
2
BLOCKS
0
BLOCK
5
20
100
AcDbEntity
8
0
100
AcDbBlockBegin
2
*Model_Space
70
0
10
0
20
0
30
0
3
*Model_Space
0
ENDBLK
5
21
100
AcDbEntity
8
0
100
AcDbBlockEnd
0
BLOCK
5
1C
100
AcDbEntity
8
0
100
AcDbBlockBegin
2
*Paper_Space
70
0
10
0
20
0
30
0
3
*Paper_Space
0
ENDBLK
5
1D
100
AcDbEntity
8
0
100
AcDbBlockEnd
0
BLOCK
5
24
100
AcDbEntity
8
0
100
AcDbBlockBegin
2
*Paper_Space0
70
0
10
0
20
0
30
0
3
*Paper_Space0
0
ENDBLK
5
25
100
AcDbEntity
8
0
100
AcDbBlockEnd
0
BLOCK
5
12C
100
AcDbEntity
8
0
100
AcDbBlockBegin
2
DimnDraft3D1
70
0
10
0
20
0
30
0
3
DimnDraft3D1
0
MTEXT
5
122
100
AcDbEntity
8
SK2
62
256
6
ByLayer
370
-1
48
1
60
0
100
AcDbMText
10
-48.875
20
-3.659211
30
0
210
0
220
0
230
1
1
\W01.000;\fsimplex.shx,bigfont.shx;%%c63 
40
4.5
41
0
44
1.084337
50
90
71
7
72
5
7
DEFAULT
0
LINE
5
123
100
AcDbEntity
8
SK2
62
256
6
ByLayer
370
-1
48
1
60
0
100
AcDbLine
10
-2
20
-31.5
30
0
11
-49.75
21
-31.5
31
0
39
0
210
0
220
0
230
1
0
LINE
5
124
100
AcDbEntity
8
SK2
62
256
6
ByLayer
370
-1
48
1
60
0
100
AcDbLine
10
-2
20
31.5
30
0
11
-49.75
21
31.5
31
0
39
0
210
0
220
0
230
1
0
LINE
5
125
100
AcDbEntity
8
SK2
62
256
6
ByLayer
370
-1
48
1
60
0
100
AcDbLine
10
-47.75
20
-31.5
30
0
11
-47.75
21
31.5
31
0
39
0
210
0
220
0
230
1
0
LINE
5
126
100
AcDbEntity
8
SK2
62
256
6
ByLayer
370
-1
48
1
60
0
100
AcDbLine
10
-47.75
20
-31.5
30
0
11
-48.167997
21
-28.325002
31
0
39
0
210
0
220
0
230
1
0
LINE
5
127
100
AcDbEntity
8
SK2
62
256
6
ByLayer
370
-1
48
1
60
0
100
AcDbLine
10
-47.75
20
-31.5
30
0
11
-47.332003
21
-28.324998
31
0
39
0
210
0
220
0
230
1
0
LINE
5
128
100
AcDbEntity
8
SK2
62
256
6
ByLayer
370
-1
48
1
60
0
100
AcDbLine
10
-48.167997
20
-28.325002
30
0
11
-47.332003
21
-28.324998
31
0
39
0
210
0
220
0
230
1
0
LINE
5
129
100
AcDbEntity
8
SK2
62
256
6
ByLayer
370
-1
48
1
60
0
100
AcDbLine
10
-47.75
20
31.5
30
0
11
-47.332003
21
28.325002
31
0
39
0
210
0
220
0
230
1
0
LINE
5
12A
100
AcDbEntity
8
SK2
62
256
6
ByLayer
370
-1
48
1
60
0
100
AcDbLine
10
-47.75
20
31.5
30
0
11
-48.167997
21
28.324998
31
0
39
0
210
0
220
0
230
1
0
LINE
5
12B
100
AcDbEntity
8
SK2
62
256
6
ByLayer
370
-1
48
1
60
0
100
AcDbLine
10
-47.332003
20
28.325002
30
0
11
-48.167997
21
28.324998
31
0
39
0
210
0
220
0
230
1
0
ENDBLK
5
12D
100
AcDbEntity
8
0
100
AcDbBlockEnd
0
BLOCK
5
130
100
AcDbEntity
8
0
100
AcDbBlockBegin
2
_CLOSED
70
0
10
0
20
0
30
0
3
_CLOSED
0
LINE
5
132
100
AcDbEntity
8
0
62
256
6
ByLayer
370
-2
48
1
60
0
100
AcDbLine
10
-1
20
0.166667
30
0
11
0
21
0
31
0
39
0
210
0
220
0
230
1
0
LINE
5
133
100
AcDbEntity
8
0
62
256
6
ByLayer
370
-2
48
1
60
0
100
AcDbLine
10
0
20
0
30
0
11
-1
21
-0.166667
31
0
39
0
210
0
220
0
230
1
0
LINE
5
134
100
AcDbEntity
8
0
62
256
6
ByLayer
370
-2
48
1
60
0
100
AcDbLine
10
-1
20
0.166667
30
0
11
-1
21
-0.166667
31
0
39
0
210
0
220
0
230
1
0
LINE
5
135
100
AcDbEntity
8
0
62
256
6
ByLayer
370
-2
48
1
60
0
100
AcDbLine
10
0
20
0
30
0
11
-1
21
0
31
0
39
0
210
0
220
0
230
1
0
ENDBLK
5
131
100
AcDbEntity
8
0
100
AcDbBlockEnd
0
BLOCK
5
141
100
AcDbEntity
8
0
100
AcDbBlockBegin
2
DimnDraft3D2
70
0
10
0
20
0
30
0
3
DimnDraft3D2
0
MTEXT
5
137
100
AcDbEntity
8
2
62
256
6
ByLayer
370
-1
48
1
60
0
100
AcDbMText
10
78.125
20
-24.240789
30
0
210
0
220
0
230
1
1
\W01.000;\fsimplex.shx,bigfont.shx;45 
40
4.5
41
0
44
1.084337
50
90
71
7
72
5
7
DEFAULT
0
LINE
5
138
100
AcDbEntity
8
2
62
256
6
ByLayer
370
-1
48
1
60
0
100
AcDbLine
10
67
20
0
30
0
11
81.25
21
0
31
0
39
0
210
0
220
0
230
1
0
LINE
5
139
100
AcDbEntity
8
2
62
256
6
ByLayer
370
-1
48
1
60
0
100
AcDbLine
10
67
20
-45
30
0
11
81.25
21
-45
31
0
39
0
210
0
220
0
230
1
0
LINE
5
13A
100
AcDbEntity
8
2
62
256
6
ByLayer
370
-1
48
1
60
0
100
AcDbLine
10
79.25
20
0
30
0
11
79.25
21
-45
31
0
39
0
210
0
220
0
230
1
0
LINE
5
13B
100
AcDbEntity
8
2
62
256
6
ByLayer
370
-1
48
1
60
0
100
AcDbLine
10
79.25
20
0
30
0
11
79.667997
21
-3.174998
31
0
39
0
210
0
220
0
230
1
0
LINE
5
13C
100
AcDbEntity
8
2
62
256
6
ByLayer
370
-1
48
1
60
0
100
AcDbLine
10
79.25
20
0
30
0
11
78.832003
21
-3.175002
31
0
39
0
210
0
220
0
230
1
0
LINE
5
13D
100
AcDbEntity
8
2
62
256
6
ByLayer
370
-1
48
1
60
0
100
AcDbLine
10
79.667997
20
-3.174998
30
0
11
78.832003
21
-3.175002
31
0
39
0
210
0
220
0
230
1
0
LINE
5
13E
100
AcDbEntity
8
2
62
256
6
ByLayer
370
-1
48
1
60
0
100
AcDbLine
10
79.25
20
-45
30
0
11
78.832003
21
-41.825002
31
0
39
0
210
0
220
0
230
1
0
LINE
5
13F
100
AcDbEntity
8
2
62
256
6
ByLayer
370
-1
48
1
60
0
100
AcDbLine
10
79.25
20
-45
30
0
11
79.667997
21
-41.824998
31
0
39
0
210
0
220
0
230
1
0
LINE
5
140
100
AcDbEntity
8
2
62
256
6
ByLayer
370
-1
48
1
60
0
100
AcDbLine
10
78.832003
20
-41.825002
30
0
11
79.667997
21
-41.824998
31
0
39
0
210
0
220
0
230
1
0
ENDBLK
5
142
100
AcDbEntity
8
0
100
AcDbBlockEnd
0
BLOCK
5
14F
100
AcDbEntity
8
0
100
AcDbBlockBegin
2
DimnDraft3D3
70
0
10
0
20
0
30
0
3
DimnDraft3D3
0
MTEXT
5
145
100
AcDbEntity
8
2
62
256
6
ByLayer
370
-1
48
1
60
0
100
AcDbMText
10
30.996053
20
-68.125
30
0
210
0
220
0
230
1
1
\W01.000;\fsimplex.shx,bigfont.shx;65 
40
4.5
41
0
44
1.084337
50
0
71
7
72
5
7
DEFAULT
0
LINE
5
146
100
AcDbEntity
8
2
62
256
6
ByLayer
370
-1
48
1
60
0
100
AcDbLine
10
0
20
-33.5
30
0
11
0
21
-71.25
31
0
39
0
210
0
220
0
230
1
0
LINE
5
147
100
AcDbEntity
8
2
62
256
6
ByLayer
370
-1
48
1
60
0
100
AcDbLine
10
65
20
-47
30
0
11
65
21
-71.25
31
0
39
0
210
0
220
0
230
1
0
LINE
5
148
100
AcDbEntity
8
2
62
256
6
ByLayer
370
-1
48
1
60
0
100
AcDbLine
10
0
20
-69.25
30
0
11
65
21
-69.25
31
0
39
0
210
0
220
0
230
1
0
LINE
5
149
100
AcDbEntity
8
2
62
256
6
ByLayer
370
-1
48
1
60
0
100
AcDbLine
10
0
20
-69.25
30
0
11
3.174998
21
-68.832003
31
0
39
0
210
0
220
0
230
1
0
LINE
5
14A
100
AcDbEntity
8
2
62
256
6
ByLayer
370
-1
48
1
60
0
100
AcDbLine
10
0
20
-69.25
30
0
11
3.175002
21
-69.667997
31
0
39
0
210
0
220
0
230
1
0
LINE
5
14B
100
AcDbEntity
8
2
62
256
6
ByLayer
370
-1
48
1
60
0
100
AcDbLine
10
3.174998
20
-68.832003
30
0
11
3.175002
21
-69.667997
31
0
39
0
210
0
220
0
230
1
0
LINE
5
14C
100
AcDbEntity
8
2
62
256
6
ByLayer
370
-1
48
1
60
0
100
AcDbLine
10
65
20
-69.25
30
0
11
61.825002
21
-69.667997
31
0
39
0
210
0
220
0
230
1
0
LINE
5
14D
100
AcDbEntity
8
2
62
256
6
ByLayer
370
-1
48
1
60
0
100
AcDbLine
10
65
20
-69.25
30
0
11
61.824998
21
-68.832003
31
0
39
0
210
0
220
0
230
1
0
LINE
5
14E
100
AcDbEntity
8
2
62
256
6
ByLayer
370
-1
48
1
60
0
100
AcDbLine
10
61.825002
20
-69.667997
30
0
11
61.824998
21
-68.832003
31
0
39
0
210
0
220
0
230
1
0
ENDBLK
5
150
100
AcDbEntity
8
0
100
AcDbBlockEnd
0
ENDSEC
0
SECTION
2
ENTITIES
0
ARC
5
98
100
AcDbEntity
8
SK1
62
256
6
ByLayer
370
-1
48
1
60
0
100
AcDbCircle
39
0
10
0.6
20
-23.45
30
0
40
0.999999999999999
210
0
220
0
230
-1
100
AcDbArc
50
113.578178
51
126.869898
0
ARC
5
99
100
AcDbEntity
8
SK1
62
256
6
ByLayer
370
-1
48
1
60
0
100
AcDbCircle
39
0
10
0.6
20
23.45
30
0
40
0.999999999999999
210
0
220
0
230
-1
100
AcDbArc
50
233.130102
51
246.421822
0
ARC
5
9A
100
AcDbEntity
8
1
62
256
6
ByLayer
370
-1
48
1
60
0
100
AcDbCircle
39
0
10
-44.106855
20
-34.1701
30
0
40
3.2
210
0
220
0
230
-1
100
AcDbArc
50
217
51
268.750161
0
ARC
5
9B
100
AcDbEntity
8
1
62
256
6
ByLayer
370
-1
48
1
60
0
100
AcDbCircle
39
0
10
44.106855
20
-34.1701
30
0
40
1.60000000007188
210
0
220
0
230
1
100
AcDbArc
50
298.926492
51
323
0
ARC
5
9C
100
AcDbEntity
8
1
62
256
6
ByLayer
370
-1
48
1
60
0
100
AcDbCircle
39
0
10
50.819551
20
-25.262051
30
0
40
1.60000000000023
210
0
220
0
230
1
100
AcDbArc
50
323
51
3.001757
0
ARC
5
9D
100
AcDbEntity
8
1
62
256
6
ByLayer
370
-1
48
1
60
0
100
AcDbCircle
39
0
10
-50.819551
20
-25.262051
30
0
40
3.2
210
0
220
0
230
-1
100
AcDbArc
50
176.998243
51
217
0
ARC
5
9E
100
AcDbEntity
8
1
62
256
6
ByLayer
370
-1
48
1
60
0
100
AcDbCircle
39
0
10
-56.848184
20
-36.848184
30
0
40
7.82
210
0
220
0
230
-1
100
AcDbArc
50
11.542827
51
26.169721
0
ARC
5
9F
100
AcDbEntity
8
1
62
256
6
ByLayer
370
-1
48
1
60
0
100
AcDbCircle
39
0
10
-56.848184
20
-36.848184
30
0
40
7.82
210
0
220
0
230
-1
100
AcDbArc
50
63.830279
51
78.457173
0
ARC
5
A0
100
AcDbEntity
8
1
62
256
6
ByLayer
370
-1
48
1
60
0
100
AcDbCircle
39
0
10
-65.461884
20
-21.420254
30
0
40
10.2
210
0
220
0
230
-1
100
AcDbArc
50
315
51
328.665177
0
ARC
5
A1
100
AcDbEntity
8
1
62
256
6
ByLayer
370
-1
48
1
60
0
100
AcDbCircle
39
0
10
-54.666548
20
-34.666548
30
0
40
5
210
0
220
0
230
-1
100
AcDbArc
50
14.681531
51
75.318469
0
ARC
5
A2
100
AcDbEntity
8
1
62
256
6
ByLayer
370
-1
48
1
60
0
100
AcDbCircle
39
0
10
57
20
-37
30
0
40
1.9685
210
0
220
0
230
1
100
AcDbArc
50
315
51
14.618578
0
ARC
5
A4
100
AcDbEntity
8
1
62
256
6
ByLayer
370
-1
48
1
60
0
100
AcDbCircle
39
0
10
-57
20
-37
30
0
40
1.41600000000001
210
0
220
0
230
-1
100
AcDbArc
50
321.192438
51
15.190711
0
ARC
5
A7
100
AcDbEntity
8
1
62
256
6
ByLayer
370
-1
48
1
60
0
100
AcDbCircle
39
0
10
57
20
-37
30
0
40
1.9685
210
0
220
0
230
1
100
AcDbArc
50
135
51
194.618578
0
ARC
5
A8
100
AcDbEntity
8
1
62
256
6
ByLayer
370
-1
48
1
60
0
100
AcDbCircle
39
0
10
57
20
-37
30
0
40
1.9685
210
0
220
0
230
1
100
AcDbArc
50
75.381422
51
135
0
ARC
5
A9
100
AcDbEntity
8
1
62
256
6
ByLayer
370
-1
48
1
60
0
100
AcDbCircle
39
0
10
-57
20
-37
30
0
40
1.41600000000001
210
0
220
0
230
-1
100
AcDbArc
50
74.809289
51
128.807562
0
ARC
5
AA
100
AcDbEntity
8
1
62
256
6
ByLayer
370
-1
48
1
60
0
100
AcDbCircle
39
0
10
-57
20
-37
30
0
40
1.41600000000001
210
0
220
0
230
-1
100
AcDbArc
50
141.192438
51
195.190711
0
ARC
5
AC
100
AcDbEntity
8
1
62
256
6
ByLayer
370
-1
48
1
60
0
100
AcDbCircle
39
0
10
-57
20
-37
30
0
40
1.416
210
0
220
0
230
-1
100
AcDbArc
50
254.809289
51
308.807562
0
ARC
5
AD
100
AcDbEntity
8
1
62
256
6
ByLayer
370
-1
48
1
60
0
100
AcDbCircle
39
0
10
57
20
-37
30
0
40
1.41600000000001
210
0
220
0
230
1
100
AcDbArc
50
38.807562
51
51.192438
0
ARC
5
AE
100
AcDbEntity
8
1
62
256
6
ByLayer
370
-1
48
1
60
0
100
AcDbCircle
39
0
10
57
20
-37
30
0
40
1.9685
210
0
220
0
230
1
100
AcDbArc
50
255.381422
51
315
0
ARC
5
B1
100
AcDbEntity
8
1
62
256
6
ByLayer
370
-1
48
1
60
0
100
AcDbCircle
39
0
10
57
20
-37
30
0
40
1.9685
210
0
220
0
230
1
100
AcDbArc
50
14.618578
51
75.381422
0
ARC
5
B2
100
AcDbEntity
8
1
62
256
6
ByLayer
370
-1
48
1
60
0
100
AcDbCircle
39
0
10
57
20
-37
30
0
40
1.9685
210
0
220
0
230
1
100
AcDbArc
50
194.618578
51
255.381422
0
ARC
5
B3
100
AcDbEntity
8
1
62
256
6
ByLayer
370
-1
48
1
60
0
100
AcDbCircle
39
0
10
-57
20
-37
30
0
40
1.41600000000001
210
0
220
0
230
-1
100
AcDbArc
50
195.190711
51
254.809289
0
ARC
5
B4
100
AcDbEntity
8
1
62
256
6
ByLayer
370
-1
48
1
60
0
100
AcDbCircle
39
0
10
57
20
-37
30
0
40
1.41600000000001
210
0
220
0
230
1
100
AcDbArc
50
218.807562
51
231.192438
0
ARC
5
B5
100
AcDbEntity
8
1
62
256
6
ByLayer
370
-1
48
1
60
0
100
AcDbCircle
39
0
10
-57
20
-37
30
0
40
1.41600000000001
210
0
220
0
230
-1
100
AcDbArc
50
15.190711
51
74.809289
0
CIRCLE
5
A3
100
AcDbEntity
8
1
62
256
6
ByLayer
370
-1
48
1
60
0
100
AcDbCircle
10
57
20
-37
30
0
40
3.6936655976655
39
0
210
0
220
0
230
1
0
CIRCLE
5
A5
100
AcDbEntity
8
1
62
256
6
ByLayer
370
-1
48
1
60
0
100
AcDbCircle
10
57
20
-37
30
0
40
3.575
39
0
210
0
220
0
230
1
0
CIRCLE
5
A6
100
AcDbEntity
8
1
62
256
6
ByLayer
370
-1
48
1
60
0
100
AcDbCircle
10
57
20
-37
30
0
40
8.00000000000001
39
0
210
0
220
0
230
1
0
CIRCLE
5
AB
100
AcDbEntity
8
1
62
256
6
ByLayer
370
-1
48
1
60
0
100
AcDbCircle
10
57
20
-37
30
0
40
3.78929484861765
39
0
210
0
220
0
230
1
0
CIRCLE
5
AF
100
AcDbEntity
8
1
62
256
6
ByLayer
370
-1
48
1
60
0
100
AcDbCircle
10
57
20
-37
30
0
40
3.74999999999999
39
0
210
0
220
0
230
1
0
CIRCLE
5
B0
100
AcDbEntity
8
1
62
256
6
ByLayer
370
-1
48
1
60
0
100
AcDbCircle
10
57
20
-37
30
0
40
2.4
39
0
210
0
220
0
230
1
0
ELLIPSE
5
B6
100
AcDbEntity
8
1
62
256
6
ByLayer
370
-1
48
1
60
0
100
AcDbEllipse
10
-2.347154
20
0
30
0
11
-14.7536831606544
21
-31.0932549155788
31
0
210
0
220
0
230
1
40
0.341999
41
2.05035306783691
42
2.98378646694435
0
ELLIPSE
5
B7
100
AcDbEntity
8
1
62
256
6
ByLayer
370
-1
48
1
60
0
100
AcDbEllipse
10
26.347154
20
0
30
0
11
-14.7536831606557
21
-31.0932549155804
31
0
210
0
220
0
230
1
40
0.341999
41
-1.09123958575284
42
-0.157806186645435
0
ELLIPSE
5
B8
100
AcDbEntity
8
1
62
256
6
ByLayer
370
-1
48
1
60
0
100
AcDbEllipse
10
21.56949
20
-38.082794
30
0
11
-23.4899025555963
21
-4.98619883705656
31
0
210
0
220
0
230
1
40
0.417413
41
2.90156422989622
42
-2.63053346471152
0
ELLIPSE
5
B9
100
AcDbEntity
8
1
62
256
6
ByLayer
370
-1
48
1
60
0
100
AcDbEllipse
10
26.347154
20
0
30
0
11
-14.7536831606557
21
31.0932549155804
31
0
210
0
220
0
230
1
40
0.341999
41
0.157806186645435
42
1.09123958575284
0
ELLIPSE
5
BA
100
AcDbEntity
8
1
62
256
6
ByLayer
370
-1
48
1
60
0
100
AcDbEllipse
10
-2.347154
20
0
30
0
11
-14.7536831606537
21
31.0932549155778
31
0
210
0
220
0
230
1
40
0.341999
41
-2.98378646694435
42
-2.05035306783689
0
POINT
5
41
100
AcDbEntity
8
SK2
62
256
6
ByLayer
370
-1
48
1
60
0
100
AcDbPoint
10
65
20
45
30
0
39
0
210
0
220
0
230
1
50
360
0
POINT
5
43
100
AcDbEntity
8
SK2
62
256
6
ByLayer
370
-1
48
1
60
0
100
AcDbPoint
10
65
20
45
30
0
39
0
210
0
220
0
230
1
50
360
0
POINT
5
44
100
AcDbEntity
8
81
62
256
6
ByLayer
370
-1
48
1
60
0
100
AcDbPoint
10
65
20
-45
30
0
39
0
210
0
220
0
230
1
50
360
0
POINT
5
46
100
AcDbEntity
8
SK2
62
256
6
ByLayer
370
-1
48
1
60
0
100
AcDbPoint
10
115
20
95
30
0
39
0
210
0
220
0
230
1
50
360
0
POINT
5
47
100
AcDbEntity
8
SK2
62
256
6
ByLayer
370
-1
48
1
60
0
100
AcDbPoint
10
65
20
45
30
0
39
0
210
0
220
0
230
1
50
360
0
POINT
5
48
100
AcDbEntity
8
2
62
256
6
ByLayer
370
-1
48
1
60
0
100
AcDbPoint
10
65
20
45
30
0
39
0
210
0
220
0
230
1
50
360
0
POINT
5
4A
100
AcDbEntity
8
SK2
62
256
6
ByLayer
370
-1
48
1
60
0
100
AcDbPoint
10
65
20
45
30
0
39
0
210
0
220
0
230
1
50
360
0
POINT
5
4B
100
AcDbEntity
8
80
62
256
6
ByLayer
370
-1
48
1
60
0
100
AcDbPoint
10
0
20
0
30
0
39
0
210
0
220
0
230
1
50
360
0
POINT
5
4D
100
AcDbEntity
8
SK2
62
256
6
ByLayer
370
-1
48
1
60
0
100
AcDbPoint
10
115
20
95
30
0
39
0
210
0
220
0
230
1
50
360
0
SPLINE
5
BB
100
AcDbEntity
8
SK1
62
256
6
ByLayer
370
-1
48
1
60
0
100
AcDbSpline
70
4
71
2
72
6
73
3
40
0
40
0
40
0
40
1
40
1
40
1
41
1
10
-36.5
20
-21.1521149580209
30
0
41
1
10
-19.3499999999869
20
-21.5828539542124
30
0
41
1
10
-2.19999999999999
20
-22.0135927638551
30
0
0
SPLINE
5
BC
100
AcDbEntity
8
SK1
62
256
6
ByLayer
370
-1
48
1
60
0
100
AcDbSpline
70
4
71
2
72
6
73
3
40
0
40
0
40
0
40
1
40
1
40
1
41
1
10
-2.19999999999999
20
22.0135928951589
30
0
41
1
10
-19.34999999997
20
21.5828554470541
30
0
41
1
10
-36.5
20
21.1521177089669
30
0
0
SPLINE
5
BD
100
AcDbEntity
8
SK1
62
256
6
ByLayer
370
-1
48
1
60
0
100
AcDbSpline
70
4
71
3
72
13
73
9
40
0
40
0
40
0
40
0
40
0.239456135835251
40
0.368359722028403
40
0.499998984123528
40
0.631638415376586
40
0.76054246784685
40
1
40
1
40
1
40
1
41
1
10
-2.19999999999999
20
-22.0200986775813
30
0
41
1
10
-2.19909198642385
20
-21.994041201451
30
0
41
1
10
-2.19103284107057
20
-21.956668617092
30
0
41
1
10
-2.16563592203492
20
-21.9104494432232
30
0
41
1
10
-2.13886378679463
20
-21.8791678893422
30
0
41
1
10
-2.10627712750083
20
-21.854000519123
30
0
41
1
10
-2.05884064234347
20
-21.8309567166392
30
0
41
1
10
-2.02111030873168
20
-21.8247844616134
30
0
41
1
10
-1.9950399779393
20
-21.8251861015554
30
0
0
SPLINE
5
BE
100
AcDbEntity
8
SK1
62
256
6
ByLayer
370
-1
48
1
60
0
100
AcDbSpline
70
4
71
3
72
13
73
9
40
0
40
0
40
0
40
0
40
0.239457532221988
40
0.36836158471651
40
0.500001015979217
40
0.63164027806674
40
0.760543864236707
40
1
40
1
40
1
40
1
41
1
10
-1.9950399779393
20
21.825186084775
30
0
41
1
10
-2.02111030873027
20
21.8247844448325
30
0
41
1
10
-2.05884064234083
20
21.8309566998545
30
0
41
1
10
-2.10627712749874
20
21.854000502323
30
0
41
1
10
-2.13886378679267
20
21.8791678725254
30
0
41
1
10
-2.16563592203345
20
21.9104494263859
30
0
41
1
10
-2.19103284106944
20
21.9566686002239
30
0
41
1
10
-2.19909198642273
20
21.9940411845603
30
0
41
1
10
-2.19999999999999
20
22.0200986606755
30
0
0
SPLINE
5
BF
100
AcDbEntity
8
SK1
62
256
6
ByLayer
370
-1
48
1
60
0
100
AcDbSpline
70
4
71
2
72
6
73
3
40
0
40
0
40
0
40
1
40
1
40
1
41
1
10
-1.9950399779393
20
-21.8251813124779
30
0
41
1
10
-1.19500843340728
20
-21.8452807593862
30
0
41
1
10
-0.394976888875291
20
-21.8653802062992
30
0
0
SPLINE
5
C0
100
AcDbEntity
8
SK1
62
256
6
ByLayer
370
-1
48
1
60
0
100
AcDbSpline
70
4
71
2
72
6
73
3
40
0
40
0
40
0
40
1
40
1
40
1
41
1
10
-0.394976888875291
20
21.8653801495793
30
0
41
1
10
-1.19500843340728
20
21.8452807024746
30
0
41
1
10
-1.9950399779393
20
21.8251812553753
30
0
0
SPLINE
5
C1
100
AcDbEntity
8
SK1
62
256
6
ByLayer
370
-1
48
1
60
0
100
AcDbSpline
70
4
71
2
72
6
73
3
40
0
40
0
40
0
40
1
40
1
40
1
41
1
10
-36.5
20
21.1553029418638
30
0
41
1
10
-37.2500000000012
20
20.7223540793631
30
0
41
1
10
-38
20
20.289405225553
30
0
0
SPLINE
5
C2
100
AcDbEntity
8
SK1
62
256
6
ByLayer
370
-1
48
1
60
0
100
AcDbSpline
70
4
71
2
72
6
73
3
40
0
40
0
40
0
40
1
40
1
40
1
41
1
10
-38
20
-20.2894050057151
30
0
41
1
10
-37.2500000000012
20
-20.7223538609616
30
0
41
1
10
-36.5
20
-21.155302724897
30
0
0
SPLINE
5
C3
100
AcDbEntity
8
SK1
62
256
6
ByLayer
370
-1
48
1
60
0
100
AcDbSpline
70
4
71
2
72
6
73
3
40
0
40
0
40
0
40
1
40
1
40
1
41
1
10
-0.240502439654293
20
21.9465691723769
30
0
41
1
10
-0.265172990617032
20
21.868901290676
30
0
41
1
10
-0.394976888875291
20
21.8653849865467
30
0
0
SPLINE
5
C4
100
AcDbEntity
8
SK1
62
256
6
ByLayer
370
-1
48
1
60
0
100
AcDbSpline
70
4
71
2
72
6
73
3
40
0
40
0
40
0
40
1
40
1
40
1
41
1
10
-0.394976888875291
20
-21.865385003355
30
0
41
1
10
-0.264174311740348
20
-21.8692639605625
30
0
41
1
10
-0.239684768755765
20
-21.9481214799356
30
0
0
SPLINE
5
C5
100
AcDbEntity
8
1
62
256
6
ByLayer
370
-1
48
1
60
0
100
AcDbSpline
70
4
71
3
72
12
73
8
40
0
40
0
40
0
40
0
40
0.395490500857035
40
0.395490500857035
40
0.78839296045868
40
0.78839296045868
40
1
40
1
40
1
40
1
41
1
10
26
20
-28.9380626804102
30
0
41
1
10
25.5971397200157
20
-28.9380626804102
30
0
41
1
10
25.1887581141927
20
-28.8950739477016
30
0
41
1
10
24.4344582070315
20
-28.7446615071414
30
0
41
1
10
24.0778973902779
20
-28.6367941956064
30
0
41
1
10
23.5887743784286
20
-28.4493378675728
30
0
41
1
10
23.4264077179767
20
-28.3788200104126
30
0
41
1
10
23.2758205277631
20
-28.3065805070129
30
0
0
SPLINE
5
C6
100
AcDbEntity
8
1
62
256
6
ByLayer
370
-1
48
1
60
0
100
AcDbSpline
70
4
71
3
72
16
73
12
40
0
40
0
40
0
40
0
40
0.113316224833592
40
0.113316224833592
40
0.252990411571568
40
0.252990411571568
40
0.473309013928318
40
0.473309013928318
40
0.896716357718825
40
0.896716357718825
40
1
40
1
40
1
40
1
41
1
10
13.4613248654052
20
-9.3492213145251
30
0
41
1
10
13.4894125595718
20
-9.3492213145251
30
0
41
1
10
13.517849357763
20
-9.35431657338981
30
0
41
1
10
13.5767970345725
20
-9.37467777536565
30
0
41
1
10
13.6072473721288
20
-9.39213979793414
30
0
41
1
10
13.6769143636602
20
-9.44503542604383
30
0
41
1
10
13.7128266507651
20
-9.4856938043188
30
0
41
1
10
13.8014637450836
20
-9.61105923366807
30
0
41
1
10
13.842370839753
20
-9.70465429390066
30
0
41
1
10
13.8809034737598
20
-9.82244573862474
30
0
41
1
10
13.8878971837969
20
-9.84586944318031
30
0
41
1
10
13.8943375672975
20
-9.86941261896621
30
0
0
SPLINE
5
C7
100
AcDbEntity
8
1
62
256
6
ByLayer
370
-1
48
1
60
0
100
AcDbSpline
70
4
71
3
72
12
73
8
40
0
40
0
40
0
40
0
40
0.500000000000001
40
0.500000000000001
40
0.75
40
0.75
40
1
40
1
40
1
40
1
41
1
10
26.9887758771159
20
-31.2448754515734
30
0
41
1
10
26.3086868676317
20
-30.6682585678088
30
0
41
1
10
25.6052839583759
20
-30.1579777506948
30
0
41
1
10
24.5448848042086
20
-29.4651828503935
30
0
41
1
10
24.1889598523812
20
-29.2467734530798
30
0
41
1
10
23.5055630080582
20
-28.8220244215107
30
0
41
1
10
23.1137800713045
20
-28.6197121727383
30
0
41
1
10
23.0150156979652
20
-28.3828770838622
30
0
0
SPLINE
5
C8
100
AcDbEntity
8
1
62
256
6
ByLayer
370
-1
48
1
60
0
100
AcDbSpline
70
4
71
3
72
8
73
4
40
0
40
0
40
0
40
0
40
1
40
1
40
1
40
1
41
1
10
23.0150156979657
20
-31.4230866853254
30
0
41
1
10
22.970751423798
20
-31.4250718053515
30
0
41
1
10
22.9391866935703
20
-31.4264873888953
30
0
41
1
10
22.92079238
20
-31.4273123187269
30
0
0
SPLINE
5
C9
100
AcDbEntity
8
1
62
256
6
ByLayer
370
-1
48
1
60
0
100
AcDbSpline
70
4
71
3
72
16
73
12
40
0
40
0
40
0
40
0
40
0.113316224833594
40
0.113316224833594
40
0.252990411571577
40
0.252990411571577
40
0.473309013928351
40
0.473309013928351
40
0.896716357718897
40
0.896716357718897
40
1
40
1
40
1
40
1
41
1
10
10.5386751345948
20
-30.0805927603169
30
0
41
1
10
10.5105874404282
20
-30.0805927603169
30
0
41
1
10
10.482150642237
20
-30.0790101689566
30
0
41
1
10
10.4232029654275
20
-30.0726712338969
30
0
41
1
10
10.3927526278712
20
-30.0672275748685
30
0
41
1
10
10.3230856363398
20
-30.0506647867052
30
0
41
1
10
10.2871733492349
20
-30.0378702684275
30
0
41
1
10
10.1985362549164
20
-29.9980833386355
30
0
41
1
10
10.1576291602469
20
-29.967975934908
30
0
41
1
10
10.1190965262402
20
-29.9294196064672
30
0
41
1
10
10.112102816203
20
-29.9217223689309
30
0
41
1
10
10.1056624327025
20
-29.9139548464691
30
0
0
SPLINE
5
CA
100
AcDbEntity
8
1
62
256
6
ByLayer
370
-1
48
1
60
0
100
AcDbSpline
70
4
71
3
72
16
73
12
40
0
40
0
40
0
40
0
40
0.113316224833593
40
0.113316224833593
40
0.252990411571579
40
0.252990411571579
40
0.473309013928354
40
0.473309013928354
40
0.896716357718913
40
0.896716357718913
40
1
40
1
40
1
40
1
41
1
10
10.5386751345948
20
9.34922131452512
30
0
41
1
10
10.5105874404282
20
9.34922131452512
30
0
41
1
10
10.482150642237
20
9.35431657338984
30
0
41
1
10
10.4232029654275
20
9.37467777536568
30
0
41
1
10
10.3927526278712
20
9.39213979793414
30
0
41
1
10
10.3230856363398
20
9.44503542604386
30
0
41
1
10
10.2871733492349
20
9.48569380431883
30
0
41
1
10
10.1985362549164
20
9.6110592336681
30
0
41
1
10
10.1576291602469
20
9.70465429390072
30
0
41
1
10
10.1190965262402
20
9.82244573862477
30
0
41
1
10
10.112102816203
20
9.84586944318031
30
0
41
1
10
10.1056624327025
20
9.86941261896618
30
0
0
SPLINE
5
CB
100
AcDbEntity
8
1
62
256
6
ByLayer
370
-1
48
1
60
0
100
AcDbSpline
70
4
71
3
72
16
73
12
40
0
40
0
40
0
40
0
40
0.463423600832209
40
0.463423600832209
40
0.646243952932815
40
0.646243952932815
40
0.831657283224495
40
0.831657283224495
40
0.947504344290837
40
0.947504344290837
40
1
40
1
40
1
40
1
41
1
10
13.8943375672974
20
9.86941261896621
30
0
41
1
10
13.8656609252735
20
9.76458357826289
30
0
41
1
10
13.8263500123909
20
9.66039292789941
30
0
41
1
10
13.7453819366532
20
9.52957658281042
30
0
41
1
10
13.7190869808859
20
9.49380155568073
30
0
41
1
10
13.6579862203325
20
9.42941539787637
30
0
41
1
10
13.6222599905467
20
9.40014891155712
30
0
41
1
10
13.556648346355
20
9.36662118733784
30
0
41
1
10
13.5289597975987
20
9.35698328824239
30
0
41
1
10
13.4876776374751
20
9.35029954873104
30
0
41
1
10
13.47447899686
20
9.34922131452501
30
0
41
1
10
13.4613248654052
20
9.34922131452501
30
0
0
SPLINE
5
CC
100
AcDbEntity
8
1
62
256
6
ByLayer
370
-1
48
1
60
0
100
AcDbSpline
70
4
71
3
72
10
73
6
40
0
40
0
40
0
40
0
40
0.683337649504993
40
0.683337649504993
40
1
40
1
40
1
40
1
41
1
10
44.1417541183081
20
-35.769719224471
30
0
41
1
10
44.3172737403151
20
-35.7658898660772
30
0
41
1
10
44.4945357566576
20
-35.7322592701627
30
0
41
1
10
44.735282624666
20
-35.643773303956
30
0
41
1
10
44.8097037689332
20
-35.6097502603105
30
0
41
1
10
44.8807541828875
20
-35.5704854513908
30
0
0
SPLINE
5
CD
100
AcDbEntity
8
1
62
256
6
ByLayer
370
-1
48
1
60
0
100
AcDbSpline
70
4
71
3
72
16
73
12
40
0
40
0
40
0
40
0
40
0.463423600832241
40
0.463423600832241
40
0.646243952932834
40
0.646243952932834
40
0.831657283224497
40
0.831657283224497
40
0.947504344290847
40
0.947504344290847
40
1
40
1
40
1
40
1
41
1
10
13.8943375672974
20
-29.9139548464691
30
0
41
1
10
13.8656609252735
20
-29.9485407466772
30
0
41
1
10
13.8263500123909
20
-29.982269090612
30
0
41
1
10
13.7453819366532
20
-30.0239686896252
30
0
41
1
10
13.7190869808859
20
-30.0352936109065
30
0
41
1
10
13.6579862203325
20
-30.0555697561518
30
0
41
1
10
13.6222599905467
20
-30.0647246060481
30
0
41
1
10
13.556648346355
20
-30.0751823136668
30
0
41
1
10
13.5289597975987
20
-30.0781795790239
30
0
41
1
10
13.4876776374751
20
-30.0802576981002
30
0
41
1
10
13.47447899686
20
-30.0805927603169
30
0
41
1
10
13.4613248654052
20
-30.0805927603169
30
0
0
SPLINE
5
CE
100
AcDbEntity
8
1
62
256
6
ByLayer
370
-1
48
1
60
0
100
AcDbSpline
70
4
71
3
72
8
73
4
40
0
40
0
40
0
40
0
40
1
40
1
40
1
40
1
41
1
10
23.0145745973509
20
-28.167380692395
30
0
41
1
10
22.9830178956806
20
-28.0155340245703
30
0
41
1
10
22.9517499998734
20
-27.8638535113092
30
0
41
1
10
22.92079238
20
-27.7123502887768
30
0
0
SPLINE
5
CF
100
AcDbEntity
8
1
62
256
6
ByLayer
370
-1
48
1
60
0
100
AcDbSpline
70
4
71
3
72
8
73
4
40
0
40
0
40
0
40
0
40
1
40
1
40
1
40
1
41
1
10
22.92079238
20
28.8379110041843
30
0
41
1
10
22.9466530498408
20
28.7954358510228
30
0
41
1
10
22.9734553252031
20
28.7514141470957
30
0
41
1
10
23.0011771377293
20
28.7058821388292
30
0
0
SPLINE
5
D0
100
AcDbEntity
8
1
62
256
6
ByLayer
370
-1
48
1
60
0
100
AcDbSpline
70
4
71
3
72
8
73
4
40
0
40
0
40
0
40
0
40
1
40
1
40
1
40
1
41
1
10
23.2779315777954
20
28.251323641223
30
0
41
1
10
23.1803906666546
20
28.2045138969168
30
0
41
1
10
23.0879697478552
20
28.1549081610519
30
0
41
1
10
23.0011771377293
20
28.1028398816868
30
0
0
SPLINE
5
D1
100
AcDbEntity
8
1
62
256
6
ByLayer
370
-1
48
1
60
0
100
AcDbSpline
70
4
71
3
72
8
73
4
40
0
40
0
40
0
40
0
40
1
40
1
40
1
40
1
41
1
10
23.0145745973509
20
-28.3065805070129
30
0
41
1
10
23.0145745973509
20
-28.3316520936165
30
0
41
1
10
23.0147216443877
20
-28.3570843003568
30
0
41
1
10
23.0150156979659
20
-28.3828770838619
30
0
0
SPLINE
5
D2
100
AcDbEntity
8
1
62
256
6
ByLayer
370
-1
48
1
60
0
100
AcDbSpline
70
4
71
3
72
8
73
4
40
0
40
0
40
0
40
0
40
1
40
1
40
1
40
1
41
1
10
22
20
-26.1722242997127
30
0
41
1
10
22
20
-26.7659434100195
30
0
41
1
10
22.2902896606184
20
-27.3014178291733
30
0
41
1
10
22.92079238
20
-27.7123502887768
30
0
0
SPLINE
5
D3
100
AcDbEntity
8
1
62
256
6
ByLayer
370
-1
48
1
60
0
100
AcDbSpline
70
4
71
3
72
8
73
4
40
0
40
0
40
0
40
0
40
1
40
1
40
1
40
1
41
1
10
22.92079238
20
27.7123502887768
30
0
41
1
10
22.2911160084369
20
27.3019564043944
30
0
41
1
10
22
20
26.7653666164851
30
0
41
1
10
22
20
26.1722242997127
30
0
0
SPLINE
5
D4
100
AcDbEntity
8
1
62
256
6
ByLayer
370
-1
48
1
60
0
100
AcDbSpline
70
4
71
3
72
8
73
4
40
0
40
0
40
0
40
0
40
1
40
1
40
1
40
1
41
1
10
22.92079238
20
27.7123502887768
30
0
41
1
10
22.9473632480123
20
27.8423852251125
30
0
41
1
10
22.9741627356969
20
27.9725508015723
30
0
41
1
10
23.0011771377293
20
28.1028398816868
30
0
0
SPLINE
5
D5
100
AcDbEntity
8
1
62
256
6
ByLayer
370
-1
48
1
60
0
100
AcDbSpline
70
4
71
3
72
10
73
6
40
0
40
0
40
0
40
0
40
0.5
40
0.5
40
1
40
1
40
1
40
1
41
1
10
23.0150156979657
20
-31.4230866853254
30
0
41
1
10
23.9097363988134
20
-31.3829611435782
30
0
41
1
10
24.5575923705824
20
-31.3539067450193
30
0
41
1
10
25.8371180212195
20
-31.2965238546241
30
0
41
1
10
26.4297282518534
20
-31.2699470619708
30
0
41
1
10
26.9887758771159
20
-31.2448754515734
30
0
0
SPLINE
5
D6
100
AcDbEntity
8
1
62
256
6
ByLayer
370
-1
48
1
60
0
100
AcDbSpline
70
4
71
3
72
8
73
4
40
0
40
0
40
0
40
0
40
1
40
1
40
1
40
1
41
1
10
35.5478184725458
20
-32.4665408813987
30
0
41
1
10
33.9020324268185
20
-31.5163458648695
30
0
41
1
10
31.9757966936288
20
-31.0212225152134
30
0
41
1
10
29.9908383649366
20
-31.1102419468738
30
0
0
SPLINE
5
D7
100
AcDbEntity
8
1
62
256
6
ByLayer
370
-1
48
1
60
0
100
AcDbSpline
70
4
71
3
72
16
73
12
40
0
40
0
40
0
40
0
40
0.113316224833596
40
0.113316224833596
40
0.252990411571581
40
0.252990411571581
40
0.473309013928343
40
0.473309013928343
40
0.896716357718895
40
0.896716357718895
40
1
40
1
40
1
40
1
41
1
10
13.4613248654052
20
30.0805927603169
30
0
41
1
10
13.4894125595718
20
30.0805927603169
30
0
41
1
10
13.517849357763
20
30.0790101689567
30
0
41
1
10
13.5767970345725
20
30.0726712338969
30
0
41
1
10
13.6072473721288
20
30.0672275748685
30
0
41
1
10
13.6769143636602
20
30.0506647867052
30
0
41
1
10
13.7128266507651
20
30.0378702684275
30
0
41
1
10
13.8014637450836
20
29.9980833386355
30
0
41
1
10
13.8423708397531
20
29.967975934908
30
0
41
1
10
13.8809034737598
20
29.9294196064672
30
0
41
1
10
13.8878971837969
20
29.9217223689309
30
0
41
1
10
13.8943375672975
20
29.9139548464691
30
0
0
SPLINE
5
D8
100
AcDbEntity
8
1
62
256
6
ByLayer
370
-1
48
1
60
0
100
AcDbSpline
70
4
71
3
72
16
73
12
40
0
40
0
40
0
40
0
40
0.463423600832241
40
0.463423600832241
40
0.646243952932837
40
0.646243952932837
40
0.831657283224505
40
0.831657283224505
40
0.947504344290848
40
0.947504344290848
40
1
40
1
40
1
40
1
41
1
10
10.1056624327026
20
-9.86941261896621
30
0
41
1
10
10.1343390747265
20
-9.76458357826289
30
0
41
1
10
10.1736499876091
20
-9.66039292789938
30
0
41
1
10
10.2546180633468
20
-9.52957658281042
30
0
41
1
10
10.2809130191141
20
-9.49380155568073
30
0
41
1
10
10.3420137796675
20
-9.42941539787637
30
0
41
1
10
10.3777400094532
20
-9.40014891155712
30
0
41
1
10
10.4433516536449
20
-9.36662118733787
30
0
41
1
10
10.4710402024013
20
-9.35698328824239
30
0
41
1
10
10.5123223625249
20
-9.35029954873107
30
0
41
1
10
10.5255210031399
20
-9.34922131452504
30
0
41
1
10
10.5386751345948
20
-9.34922131452504
30
0
0
SPLINE
5
D9
100
AcDbEntity
8
1
62
256
6
ByLayer
370
-1
48
1
60
0
100
AcDbSpline
70
4
71
3
72
8
73
4
40
0
40
0
40
0
40
0
40
1
40
1
40
1
40
1
41
1
10
23.2758205277631
20
-28.3065805070129
30
0
41
1
10
23.1840527592772
20
-28.2625577849332
30
0
41
1
10
23.0968281919367
20
-28.2160654662123
30
0
41
1
10
23.0145745973508
20
-28.1673806923951
30
0
0
SPLINE
5
DA
100
AcDbEntity
8
1
62
256
6
ByLayer
370
-1
48
1
60
0
100
AcDbSpline
70
4
71
3
72
8
73
4
40
0
40
0
40
0
40
0
40
1
40
1
40
1
40
1
41
1
10
49.8298001259069
20
-33.3993169176658
30
0
41
1
10
49.8095848259914
20
-33.4764743767693
30
0
41
1
10
49.791392632074
20
-33.5518330146299
30
0
41
1
10
49.7750915315787
20
-33.6254909881824
30
0
0
SPLINE
5
DB
100
AcDbEntity
8
1
62
256
6
ByLayer
370
-1
48
1
60
0
100
AcDbSpline
70
4
71
3
72
16
73
12
40
0
40
0
40
0
40
0
40
0.463423600832262
40
0.463423600832262
40
0.646243952932856
40
0.646243952932856
40
0.831657283224518
40
0.831657283224518
40
0.94750434429086
40
0.94750434429086
40
1
40
1
40
1
40
1
41
1
10
10.1056624327026
20
29.9139548464691
30
0
41
1
10
10.1343390747265
20
29.9485407466772
30
0
41
1
10
10.1736499876091
20
29.982269090612
30
0
41
1
10
10.2546180633468
20
30.0239686896252
30
0
41
1
10
10.2809130191141
20
30.0352936109065
30
0
41
1
10
10.3420137796675
20
30.0555697561518
30
0
41
1
10
10.3777400094533
20
30.0647246060481
30
0
41
1
10
10.443351653645
20
30.0751823136668
30
0
41
1
10
10.4710402024013
20
30.0781795790239
30
0
41
1
10
10.5123223625249
20
30.0802576981002
30
0
41
1
10
10.5255210031399
20
30.0805927603169
30
0
41
1
10
10.5386751345948
20
30.0805927603169
30
0
0
SPLINE
5
DC
100
AcDbEntity
8
SK1
62
256
6
ByLayer
370
-1
48
1
60
0
100
AcDbSpline
70
4
71
3
72
295
73
291
40
0
40
0
40
0
40
0
40
0.002946303867318
40
0.0065222287480453
40
0.0100981536287726
40
0.0136740785094998
40
0.0172500033902271
40
0.0208259282709544
40
0.0279777780324089
40
0.0351296277938635
40
0.0422814775553181
40
0.0458574024360453
40
0.0494333273167726
40
0.0530092521974999
40
0.0565851770782272
40
0.0637370268396817
40
0.067312951720409
40
0.0708888766011363
40
0.0744648014818636
40
0.0780407263625909
40
0.0816166512433181
40
0.0851925761240454
40
0.0923444258855
40
0.0959203507662272
40
0.0994962756469545
40
0.103072200527682
40
0.106648125408409
40
0.110224050289136
40
0.113799975169864
40
0.117375900050591
40
0.120951824931318
40
0.124527749812045
40
0.128103674692773
40
0.1316795995735
40
0.135255524454227
40
0.138831449334955
40
0.142407374215682
40
0.149559223977136
40
0.153135148857864
40
0.156711073738591
40
0.158499036178955
40
0.160286998619318
40
0.163862923500046
40
0.1710147732615
40
0.174590698142227
40
0.178166623022955
40
0.181742547903682
40
0.185318472784409
40
0.192470322545864
40
0.196046247426591
40
0.199622172307318
40
0.201410134747682
40
0.203198097188046
40
0.206774022068773
40
0.213925871830227
40
0.217501796710955
40
0.221077721591682
40
0.224653646472409
40
0.228229571353137
40
0.235381421114591
40
0.238957345995318
40
0.242533270876046
40
0.244321233316409
40
0.246109195756773
40
0.2496851206375
40
0.253261045518227
40
0.256836970398955
40
0.258624932839318
40
0.260412895279682
40
0.263988820160409
40
0.267564745041137
40
0.271140669921864
40
0.274716594802591
40
0.278292519683318
40
0.281868444564046
40
0.285444369444773
40
0.2890202943255
40
0.292596219206228
40
0.296172144086955
40
0.299748068967682
40
0.303323993848409
40
0.306899918729137
40
0.310475843609864
40
0.314051768490591
40
0.321203618252046
40
0.324779543132773
40
0.3283554680135
40
0.331931392894228
40
0.335507317774955
40
0.339083242655682
40
0.34265916753641
40
0.346235092417137
40
0.349811017297864
40
0.356962867059319
40
0.364114716820773
40
0.371266566582228
40
0.374842491462955
40
0.378418416343682
40
0.38199434122441
40
0.385570266105137
40
0.389146190985864
40
0.392722115866591
40
0.396298040747319
40
0.399873965628046
40
0.403449890508773
40
0.407025815389501
40
0.410601740270228
40
0.414177665150955
40
0.417753590031682
40
0.42132951491241
40
0.424905439793137
40
0.428481364673864
40
0.432057289554591
40
0.433845251994955
40
0.435633214435319
40
0.437421176875682
40
0.439209139316046
40
0.442785064196773
40
0.4463609890775
40
0.448148951517864
40
0.449936913958228
40
0.451724876398591
40
0.453512838838955
40
0.457088763719682
40
0.458876726160046
40
0.46066468860041
40
0.462452651040773
40
0.464240613481137
40
0.466028575921501
40
0.467816538361864
40
0.469604500802228
40
0.471392463242591
40
0.473180425682955
40
0.474968388123319
40
0.476756350563682
40
0.478544313004046
40
0.48033227544441
40
0.482120237884773
40
0.483908200325137
40
0.485696162765501
40
0.487484125205864
40
0.489272087646228
40
0.491060050086592
40
0.492848012526955
40
0.494635974967319
40
0.496423937407682
40
0.498211899848046
40
0.49999986228841
40
0.501787824728773
40
0.503575787169137
40
0.505363749609501
40
0.507151712049864
40
0.508939674490228
40
0.510727636930592
40
0.512515599370955
40
0.514303561811319
40
0.516091524251682
40
0.517879486692046
40
0.51966744913241
40
0.521455411572773
40
0.523243374013137
40
0.525031336453501
40
0.526819298893864
40
0.528607261334228
40
0.530395223774592
40
0.532183186214955
40
0.533971148655319
40
0.535759111095683
40
0.537547073536046
40
0.53933503597641
40
0.541122998416773
40
0.542910960857137
40
0.546486885737864
40
0.548274848178228
40
0.550062810618592
40
0.551850773058955
40
0.553638735499319
40
0.557214660380046
40
0.560790585260774
40
0.562578547701137
40
0.564366510141501
40
0.566154472581864
40
0.567942435022228
40
0.571518359902955
40
0.575094284783683
40
0.57867020966441
40
0.582246134545137
40
0.585822059425865
40
0.589397984306592
40
0.592973909187319
40
0.596549834068046
40
0.600125758948774
40
0.603701683829501
40
0.607277608710228
40
0.610853533590955
40
0.614429458471683
40
0.61800538335241
40
0.621581308233137
40
0.625157233113865
40
0.628733157994592
40
0.635885007756046
40
0.643036857517501
40
0.650188707278955
40
0.653764632159683
40
0.65734055704041
40
0.660916481921137
40
0.664492406801865
40
0.668068331682592
40
0.671644256563319
40
0.675220181444046
40
0.678796106324774
40
0.685947956086228
40
0.689523880966955
40
0.693099805847683
40
0.69667573072841
40
0.700251655609137
40
0.703827580489865
40
0.707403505370592
40
0.710979430251319
40
0.714555355132046
40
0.718131280012774
40
0.721707204893501
40
0.725283129774228
40
0.728859054654955
40
0.73601090441641
40
0.739586829297137
40
0.743162754177865
40
0.750314603939319
40
0.753890528820047
40
0.757466453700774
40
0.761042378581501
40
0.764618303462228
40
0.771770153223683
40
0.77534607810441
40
0.778922002985137
40
0.782497927865865
40
0.786073852746592
40
0.793225702508047
40
0.796801627388774
40
0.800377552269501
40
0.803953477150229
40
0.807529402030956
40
0.81468125179241
40
0.818257176673138
40
0.821833101553865
40
0.825409026434592
40
0.828984951315319
40
0.836136801076774
40
0.839712725957501
40
0.843288650838228
40
0.846864575718956
40
0.850440500599683
40
0.857592350361138
40
0.861168275241865
40
0.864744200122592
40
0.868320125003319
40
0.871896049884047
40
0.875471974764774
40
0.879047899645501
40
0.882623824526229
40
0.886199749406956
40
0.889775674287683
40
0.89335159916841
40
0.896927524049138
40
0.900503448929865
40
0.904079373810592
40
0.90765529869132
40
0.914807148452774
40
0.918383073333501
40
0.921958998214229
40
0.925534923094956
40
0.929110847975683
40
0.93268677285641
40
0.936262697737138
40
0.943414547498592
40
0.94699047237932
40
0.950566397260047
40
0.954142322140774
40
0.957718247021501
40
0.964870096782956
40
0.968446021663683
40
0.972021946544411
40
0.975597871425138
40
0.979173796305865
40
0.982749721186592
40
0.98632564606732
40
0.989901570948047
40
0.993477495828774
40
0.997053420709501
40
1
40
1
40
1
40
1
41
1
10
-2.19999999999999
20
-22.0135196685734
30
0
41
1
10
-2.19999999999999
20
-22.0117276032767
30
0
41
1
10
-2.19999999999999
20
-22.0069596861814
30
0
41
1
10
-2.19999999999999
20
-21.9968726461305
30
0
41
1
10
-2.19999999999999
20
-21.9830583750197
30
0
41
1
10
-2.19999999999999
20
-21.9661971621578
30
0
41
1
10
-2.19999999999999
20
-21.9463373083127
30
0
41
1
10
-2.19999999999999
20
-21.9159230944434
30
0
41
1
10
-2.19999999999999
20
-21.870633664349
30
0
41
1
10
-2.19999999999999
20
-21.8049949078793
30
0
41
1
10
-2.19999999999999
20
-21.7411390111089
30
0
41
1
10
-2.19999999999999
20
-21.6847072709128
30
0
41
1
10
-2.19999999999999
20
-21.6397397481888
30
0
41
1
10
-2.19999999999999
20
-21.5921615264853
30
0
41
1
10
-2.19999999999999
20
-21.5252891523049
30
0
41
1
10
-2.19999999999999
20
-21.453308753177
30
0
41
1
10
-2.19999999999999
20
-21.3763547276269
30
0
41
1
10
-2.19999999999999
20
-21.3161703964091
30
0
41
1
10
-2.19999999999999
20
-21.2535469243879
30
0
41
1
10
-2.19999999999999
20
-21.1885090229233
30
0
41
1
10
-2.19999999999999
20
-21.121080083473
30
0
41
1
10
-2.19999999999999
20
-21.0280237507364
30
0
41
1
10
-2.19999999999999
20
-20.9302657445266
30
0
41
1
10
-2.19999999999999
20
-20.8279188369072
30
0
41
1
10
-2.19999999999999
20
-20.7488739070252
30
0
41
1
10
-2.19999999999999
20
-20.6675681841826
30
0
41
1
10
-2.19999999999999
20
-20.5840212184218
30
0
41
1
10
-2.19999999999999
20
-20.4982502525025
30
0
41
1
10
-2.19999999999999
20
-20.4102747128949
30
0
41
1
10
-2.19999999999999
20
-20.3201119071544
30
0
41
1
10
-2.19999999999999
20
-20.2277776663919
30
0
41
1
10
-2.19999999999999
20
-20.1332899477274
30
0
41
1
10
-2.19999999999999
20
-20.0366642357894
30
0
41
1
10
-2.19999999999999
20
-19.9379151599299
30
0
41
1
10
-2.19999999999999
20
-19.8370591957147
30
0
41
1
10
-2.19999999999999
20
-19.7341102362335
30
0
41
1
10
-2.19999999999999
20
-19.5940778412012
30
0
41
1
10
-2.19999999999999
20
-19.4499005336558
30
0
41
1
10
-2.19999999999999
20
-19.3016622310533
30
0
41
1
10
-2.19999999999999
20
-19.2073184270571
30
0
41
1
10
-2.19999999999999
20
-19.1308417758755
30
0
41
1
10
-2.19999999999999
20
-19.0536957086557
30
0
41
1
10
-2.19999999999999
20
-18.9169360704622
30
0
41
1
10
-2.19999999999999
20
-18.756645794641
30
0
41
1
10
-2.19999999999999
20
-18.5924362845557
30
0
41
1
10
-2.19999999999999
20
-18.4673177976698
30
0
41
1
10
-2.19999999999999
20
-18.3402521463352
30
0
41
1
10
-2.19999999999999
20
-18.1682545122203
30
0
41
1
10
-2.19999999999999
20
-17.9923842356821
30
0
41
1
10
-2.19999999999999
20
-17.8127164551587
30
0
41
1
10
-2.19999999999999
20
-17.6988333809735
30
0
41
1
10
-2.19999999999999
20
-17.606787767091
30
0
41
1
10
-2.19999999999999
20
-17.5141131161323
30
0
41
1
10
-2.19999999999999
20
-17.3502824417036
30
0
41
1
10
-2.19999999999999
20
-17.1592829447589
30
0
41
1
10
-2.19999999999999
20
-16.9645867974536
30
0
41
1
10
-2.19999999999999
20
-16.8167088060477
30
0
41
1
10
-2.19999999999999
20
-16.6669871400996
30
0
41
1
10
-2.19999999999999
20
-16.4649164953067
30
0
41
1
10
-2.19999999999999
20
-16.2591646002876
30
0
41
1
10
-2.19999999999999
20
-16.049802831716
30
0
41
1
10
-2.19999999999999
20
-15.9174340084588
30
0
41
1
10
-2.19999999999999
20
-15.8106442286412
30
0
41
1
10
-2.19999999999999
20
-15.7032538676567
30
0
41
1
10
-2.19999999999999
20
-15.567882396309
30
0
41
1
10
-2.19999999999999
20
-15.4036502143979
30
0
41
1
10
-2.19999999999999
20
-15.2652965264295
30
0
41
1
10
-2.19999999999999
20
-15.1537302031574
30
0
41
1
10
-2.19999999999999
20
-15.0415708470876
30
0
41
1
10
-2.19999999999999
20
-14.90025131083
30
0
41
1
10
-2.19999999999999
20
-14.7289012367181
30
0
41
1
10
-2.19999999999999
20
-14.5557843226631
30
0
41
1
10
-2.19999999999999
20
-14.3809062427341
30
0
41
1
10
-2.19999999999999
20
-14.2042700822291
30
0
41
1
10
-2.19999999999999
20
-14.0258803741545
30
0
41
1
10
-2.19999999999999
20
-13.8457420253844
30
0
41
1
10
-2.19999999999999
20
-13.6638579861817
30
0
41
1
10
-2.19999999999999
20
-13.4802328481714
30
0
41
1
10
-2.19999999999999
20
-13.2948705974071
30
0
41
1
10
-2.19999999999999
20
-13.1077737485311
30
0
41
1
10
-2.19999999999999
20
-12.9189467805057
30
0
41
1
10
-2.19999999999999
20
-12.728392778749
30
0
41
1
10
-2.19999999999999
20
-12.5361142588231
30
0
41
1
10
-2.19999999999999
20
-12.2774598592137
30
0
41
1
10
-2.19999999999999
20
-12.0153352592314
30
0
41
1
10
-2.19999999999999
20
-11.7498207258852
30
0
41
1
10
-2.19999999999999
20
-11.5489655826483
30
0
41
1
10
-2.19999999999999
20
-11.3464032807099
30
0
41
1
10
-2.19999999999999
20
-11.1421359853758
30
0
41
1
10
-2.19999999999999
20
-10.9361655879759
30
0
41
1
10
-2.19999999999999
20
-10.7284950970913
30
0
41
1
10
-2.19999999999999
20
-10.5191258614377
30
0
41
1
10
-2.19999999999999
20
-10.2377184130835
30
0
41
1
10
-2.19999999999999
20
-9.88169304970987
30
0
41
1
10
-2.19999999999999
20
-9.44771865839311
30
0
41
1
10
-2.19999999999999
20
-9.08043848955603
30
0
41
1
10
-2.19999999999999
20
-8.78327689677775
30
0
41
1
10
-2.19999999999999
20
-8.55871419535617
30
0
41
1
10
-2.19999999999999
20
-8.33247380011301
30
0
41
1
10
-2.19999999999999
20
-8.10455852701506
30
0
41
1
10
-2.19999999999999
20
-7.87497060194644
30
0
41
1
10
-2.19999999999999
20
-7.6437128367312
30
0
41
1
10
-2.19999999999999
20
-7.41078884464241
30
0
41
1
10
-2.19999999999999
20
-7.17620220160032
30
0
41
1
10
-2.19999999999999
20
-6.93995692090419
30
0
41
1
10
-2.19999999999999
20
-6.70205758660663
30
0
41
1
10
-2.19999999999999
20
-6.46250918569618
30
0
41
1
10
-2.19999999999999
20
-6.2213178400012
30
0
41
1
10
-2.19999999999999
20
-5.97849049576266
30
0
41
1
10
-2.19999999999999
20
-5.73403521575827
30
0
41
1
10
-2.19999999999999
20
-5.48796107357256
30
0
41
1
10
-2.19999999999999
20
-5.24027911118978
30
0
41
1
10
-2.19999999999999
20
-5.03253661023487
30
0
41
1
10
-2.19999999999999
20
-4.86557359122418
30
0
41
1
10
-2.19999999999999
20
-4.73994908127321
30
0
41
1
10
-2.19999999999999
20
-4.61393371339017
30
0
41
1
10
-2.19999999999999
20
-4.44540774959788
30
0
41
1
10
-2.19999999999999
20
-4.23375652596863
30
0
41
1
10
-2.19999999999999
20
-4.02083961713782
30
0
41
1
10
-2.19999999999999
20
-3.84978439152417
30
0
41
1
10
-2.19999999999999
20
-3.72111342731068
30
0
41
1
10
-2.19999999999999
20
-3.59207749308624
30
0
41
1
10
-2.19999999999999
20
-3.41956369464535
30
0
41
1
10
-2.19999999999999
20
-3.24629481959221
30
0
41
1
10
-2.19999999999999
20
-3.0723836150739
30
0
41
1
10
-2.19999999999999
20
-2.94160046512798
30
0
41
1
10
-2.19999999999999
20
-2.81048647644627
30
0
41
1
10
-2.19999999999999
20
-2.67904892732182
30
0
41
1
10
-2.19999999999999
20
-2.54729562722176
30
0
41
1
10
-2.19999999999999
20
-2.41523551097489
30
0
41
1
10
-2.19999999999999
20
-2.28287740252156
30
0
41
1
10
-2.19999999999999
20
-2.15023166945255
30
0
41
1
10
-2.19999999999999
20
-2.01730873413072
30
0
41
1
10
-2.19999999999999
20
-1.88412021099791
30
0
41
1
10
-2.19999999999999
20
-1.75067841854351
30
0
41
1
10
-2.19999999999999
20
-1.61699634722072
30
0
41
1
10
-2.19999999999999
20
-1.48308821885627
30
0
41
1
10
-2.19999999999999
20
-1.34896859254377
30
0
41
1
10
-2.19999999999999
20
-1.21465350310541
30
0
41
1
10
-2.19999999999999
20
-1.0801592162689
30
0
41
1
10
-2.19999999999999
20
-0.945503442662783
30
0
41
1
10
-2.19999999999999
20
-0.810704113119073
30
0
41
1
10
-2.19999999999999
20
-0.675780421912322
30
0
41
1
10
-2.19999999999999
20
-0.540751787789588
30
0
41
1
10
-2.19999999999999
20
-0.405638599098921
30
0
41
1
10
-2.19999999999999
20
-0.270461428271432
30
0
41
1
10
-2.19999999999999
20
-0.135241462279822
30
0
41
1
10
-2.19999999999999
20
5.3654787E-09
30
0
41
1
10
-2.19999999999999
20
0.135241472589996
30
0
41
1
10
-2.19999999999999
20
0.270461437853925
30
0
41
1
10
-2.19999999999999
20
0.405638608907907
30
0
41
1
10
-2.19999999999999
20
0.540751798686529
30
0
41
1
10
-2.19999999999999
20
0.675780432522174
30
0
41
1
10
-2.19999999999999
20
0.810704122044939
30
0
41
1
10
-2.19999999999999
20
0.945503451789534
30
0
41
1
10
-2.19999999999999
20
1.08015922751395
30
0
41
1
10
-2.19999999999999
20
1.21465351395383
30
0
41
1
10
-2.19999999999999
20
1.34896860046499
30
0
41
1
10
-2.19999999999999
20
1.48308822685564
30
0
41
1
10
-2.19999999999999
20
1.61699635855226
30
0
41
1
10
-2.19999999999999
20
1.75067843002711
30
0
41
1
10
-2.19999999999999
20
1.88412021847037
30
0
41
1
10
-2.19999999999999
20
2.01730874020455
30
0
41
1
10
-2.19999999999999
20
2.15023167925048
30
0
41
1
10
-2.19999999999999
20
2.28287741514001
30
0
41
1
10
-2.19999999999999
20
2.41523552035437
30
0
41
1
10
-2.19999999999999
20
2.54729563151926
30
0
41
1
10
-2.19999999999999
20
2.67904893291683
30
0
41
1
10
-2.19999999999999
20
2.81048648769612
30
0
41
1
10
-2.19999999999999
20
2.94160047796311
30
0
41
1
10
-2.19999999999999
20
3.072383622975
30
0
41
1
10
-2.19999999999999
20
3.24629481975686
30
0
41
1
10
-2.19999999999999
20
3.41956370437865
30
0
41
1
10
-2.19999999999999
20
3.59207750684843
30
0
41
1
10
-2.19999999999999
20
3.72111343644576
30
0
41
1
10
-2.19999999999999
20
3.84978439330678
30
0
41
1
10
-2.19999999999999
20
4.020839617489
30
0
41
1
10
-2.19999999999999
20
4.23375654375474
30
0
41
1
10
-2.19999999999999
20
4.44540775759583
30
0
41
1
10
-2.19999999999999
20
4.61393371339872
30
0
41
1
10
-2.19999999999999
20
4.73994907984499
30
0
41
1
10
-2.19999999999999
20
4.86557359653659
30
0
41
1
10
-2.19999999999999
20
5.03253662624778
30
0
41
1
10
-2.19999999999999
20
5.24027911954084
30
0
41
1
10
-2.19999999999999
20
5.48796106514416
30
0
41
1
10
-2.19999999999999
20
5.73403522651989
30
0
41
1
10
-2.19999999999999
20
5.97849051253721
30
0
41
1
10
-2.19999999999999
20
6.22131783489101
30
0
41
1
10
-2.19999999999999
20
6.46250917346816
30
0
41
1
10
-2.19999999999999
20
6.70205756880287
30
0
41
1
10
-2.19999999999999
20
6.93995689241024
30
0
41
1
10
-2.19999999999999
20
7.17620223308296
30
0
41
1
10
-2.19999999999999
20
7.41078904293681
30
0
41
1
10
-2.19999999999999
20
7.64371312168015
30
0
41
1
10
-2.19999999999999
20
7.87497052861914
30
0
41
1
10
-2.19999999999999
20
8.10455846042146
30
0
41
1
10
-2.19999999999999
20
8.33247384441506
30
0
41
1
10
-2.19999999999999
20
8.55871423477029
30
0
41
1
10
-2.19999999999999
20
8.78327691067398
30
0
41
1
10
-2.19999999999999
20
9.08043846702645
30
0
41
1
10
-2.19999999999999
20
9.44771866001565
30
0
41
1
10
-2.19999999999999
20
9.88169305528194
30
0
41
1
10
-2.19999999999999
20
10.2377183913447
30
0
41
1
10
-2.19999999999999
20
10.5191258633122
30
0
41
1
10
-2.19999999999999
20
10.7284951094206
30
0
41
1
10
-2.19999999999999
20
10.9361655882296
30
0
41
1
10
-2.19999999999999
20
11.1421359694817
30
0
41
1
10
-2.19999999999999
20
11.3464032666245
30
0
41
1
10
-2.19999999999999
20
11.5489655840494
30
0
41
1
10
-2.19999999999999
20
11.7498207382014
30
0
41
1
10
-2.19999999999999
20
12.015335258712
30
0
41
1
10
-2.19999999999999
20
12.277459839655
30
0
41
1
10
-2.19999999999999
20
12.5361142561418
30
0
41
1
10
-2.19999999999999
20
12.7283927892775
30
0
41
1
10
-2.19999999999999
20
12.9189467887917
30
0
41
1
10
-2.19999999999999
20
13.1077737445537
30
0
41
1
10
-2.19999999999999
20
13.2948705838035
30
0
41
1
10
-2.19999999999999
20
13.4802328404438
30
0
41
1
10
-2.19999999999999
20
13.6638579908945
30
0
41
1
10
-2.19999999999999
20
13.845742035678
30
0
41
1
10
-2.19999999999999
20
14.0258803815961
30
0
41
1
10
-2.19999999999999
20
14.2042701267483
30
0
41
1
10
-2.19999999999999
20
14.3809064511142
30
0
41
1
10
-2.19999999999999
20
14.61406817927
30
0
41
1
10
-2.19999999999999
20
14.8437340716545
30
0
41
1
10
-2.19999999999999
20
15.069828938707
30
0
41
1
10
-2.19999999999999
20
15.2935559429894
30
0
41
1
10
-2.19999999999999
20
15.513744330902
30
0
41
1
10
-2.19999999999999
20
15.7303232767805
30
0
41
1
10
-2.19999999999999
20
15.8909649274654
30
0
41
1
10
-2.19999999999999
20
16.0498023362736
30
0
41
1
10
-2.19999999999999
20
16.2591647559547
30
0
41
1
10
-2.19999999999999
20
16.4649171124643
30
0
41
1
10
-2.19999999999999
20
16.666987304737
30
0
41
1
10
-2.19999999999999
20
16.8167085043733
30
0
41
1
10
-2.19999999999999
20
16.9645862898264
30
0
41
1
10
-2.19999999999999
20
17.1592828976246
30
0
41
1
10
-2.19999999999999
20
17.3502835148979
30
0
41
1
10
-2.19999999999999
20
17.5375147595292
30
0
41
1
10
-2.19999999999999
20
17.676060438985
30
0
41
1
10
-2.19999999999999
20
17.8127154575359
30
0
41
1
10
-2.19999999999999
20
17.9923842415009
30
0
41
1
10
-2.19999999999999
20
18.1682547291306
30
0
41
1
10
-2.19999999999999
20
18.3402522143585
30
0
41
1
10
-2.19999999999999
20
18.4673177032107
30
0
41
1
10
-2.19999999999999
20
18.5924361073221
30
0
41
1
10
-2.19999999999999
20
18.7566457425986
30
0
41
1
10
-2.19999999999999
20
18.9169371900015
30
0
41
1
10
-2.19999999999999
20
19.0732305996174
30
0
41
1
10
-2.19999999999999
20
19.1884526890887
30
0
41
1
10
-2.19999999999999
20
19.3016611759423
30
0
41
1
10
-2.19999999999999
20
19.4499005391959
30
0
41
1
10
-2.19999999999999
20
19.5940785255289
30
0
41
1
10
-2.19999999999999
20
19.7341104289282
30
0
41
1
10
-2.19999999999999
20
19.8370589164793
30
0
41
1
10
-2.19999999999999
20
19.9379146863563
30
0
41
1
10
-2.19999999999999
20
20.0366640227898
30
0
41
1
10
-2.19999999999999
20
20.133289903145
30
0
41
1
10
-2.19999999999999
20
20.2277776697998
30
0
41
1
10
-2.19999999999999
20
20.3201119082527
30
0
41
1
10
-2.19999999999999
20
20.4102747220553
30
0
41
1
10
-2.19999999999999
20
20.4982502752196
30
0
41
1
10
-2.19999999999999
20
20.5840212474559
30
0
41
1
10
-2.19999999999999
20
20.6675682022903
30
0
41
1
10
-2.19999999999999
20
20.7488739108727
30
0
41
1
10
-2.19999999999999
20
20.82791883753
30
0
41
1
10
-2.19999999999999
20
20.9302657657864
30
0
41
1
10
-2.19999999999999
20
21.0280237880878
30
0
41
1
10
-2.19999999999999
20
21.1210800961781
30
0
41
1
10
-2.19999999999999
20
21.1885090211437
30
0
41
1
10
-2.19999999999999
20
21.2535469320083
30
0
41
1
10
-2.19999999999999
20
21.3161704250344
30
0
41
1
10
-2.19999999999999
20
21.3763547664481
30
0
41
1
10
-2.19999999999999
20
21.4533087676779
30
0
41
1
10
-2.19999999999999
20
21.5252891448141
30
0
41
1
10
-2.19999999999999
20
21.5921615531195
30
0
41
1
10
-2.19999999999999
20
21.6397397916631
30
0
41
1
10
-2.19999999999999
20
21.6847072964973
30
0
41
1
10
-2.19999999999999
20
21.7411389990572
30
0
41
1
10
-2.19999999999999
20
21.7922265879071
30
0
41
1
10
-2.19999999999999
20
21.8378144981283
30
0
41
1
10
-2.19999999999999
20
21.8692221254414
30
0
41
1
10
-2.19999999999999
20
21.8978063777089
30
0
41
1
10
-2.19999999999999
20
21.9235254752891
30
0
41
1
10
-2.19999999999999
20
21.9463373508774
30
0
41
1
10
-2.19999999999999
20
21.9661972037607
30
0
41
1
10
-2.19999999999999
20
21.9830583809744
30
0
41
1
10
-2.19999999999999
20
21.9968726399857
30
0
41
1
10
-2.19999999999999
20
22.0069599971015
30
0
41
1
10
-2.19999999999999
20
22.0117281253392
30
0
41
1
10
-2.19999999999999
20
22.0135203323236
30
0
0
SPLINE
5
DD
100
AcDbEntity
8
SK1
62
256
6
ByLayer
370
-1
48
1
60
0
100
AcDbSpline
70
4
71
3
72
303
73
299
40
0
40
0
40
0
40
0
40
0.0005133387394395
40
0.0040062551246123
40
0.007499171509785
40
0.0109920878949577
40
0.0144850042801304
40
0.0179779206653032
40
0.0214708370504759
40
0.0249637534356487
40
0.0284566698208214
40
0.0319495862059941
40
0.0389354189763396
40
0.0459212517466851
40
0.0529070845170305
40
0.0564000009022033
40
0.059892917287376
40
0.0633858336725487
40
0.0668787500577214
40
0.0738645828280669
40
0.0773574992132396
40
0.0808504155984124
40
0.0843433319835851
40
0.0878362483687578
40
0.0913291647539306
40
0.0948220811391033
40
0.101807913909449
40
0.105300830294622
40
0.108793746679794
40
0.112286663064967
40
0.11577957945014
40
0.119272495835312
40
0.122765412220485
40
0.126258328605658
40
0.129751244990831
40
0.133244161376003
40
0.136737077761176
40
0.140229994146349
40
0.143722910531522
40
0.147215826916694
40
0.150708743301867
40
0.157694576072212
40
0.161187492457385
40
0.164680408842558
40
0.166426867035144
40
0.168173325227731
40
0.171666241612903
40
0.178652074383249
40
0.182144990768422
40
0.185637907153594
40
0.189130823538767
40
0.19262373992394
40
0.199609572694285
40
0.203102489079458
40
0.206595405464631
40
0.208341863657217
40
0.210088321849803
40
0.213581238234976
40
0.220567071005322
40
0.224059987390494
40
0.227552903775667
40
0.23104582016084
40
0.234538736546013
40
0.241524569316358
40
0.245017485701531
40
0.248510402086703
40
0.25025686027929
40
0.252003318471876
40
0.255496234857049
40
0.258989151242222
40
0.262482067627394
40
0.264228525819981
40
0.265974984012567
40
0.26946790039774
40
0.272960816782913
40
0.276453733168085
40
0.279946649553258
40
0.283439565938431
40
0.286932482323604
40
0.290425398708776
40
0.293918315093949
40
0.297411231479122
40
0.300904147864294
40
0.304397064249467
40
0.30788998063464
40
0.311382897019813
40
0.314875813404985
40
0.318368729790158
40
0.325354562560504
40
0.328847478945676
40
0.332340395330849
40
0.335833311716022
40
0.339326228101195
40
0.342819144486367
40
0.34631206087154
40
0.349804977256713
40
0.353297893641886
40
0.360283726412231
40
0.367269559182576
40
0.374255391952922
40
0.377748308338095
40
0.381241224723267
40
0.38473414110844
40
0.388227057493613
40
0.391719973878786
40
0.395212890263958
40
0.398705806649131
40
0.402198723034304
40
0.405691639419477
40
0.409184555804649
40
0.412677472189822
40
0.416170388574995
40
0.419663304960167
40
0.42315622134534
40
0.426649137730513
40
0.430142054115686
40
0.433634970500858
40
0.435381428693445
40
0.437127886886031
40
0.438874345078617
40
0.440620803271204
40
0.444113719656377
40
0.447606636041549
40
0.449353094234136
40
0.451099552426722
40
0.452846010619308
40
0.454592468811895
40
0.458085385197067
40
0.459831843389654
40
0.46157830158224
40
0.463324759774827
40
0.465071217967413
40
0.466817676159999
40
0.468564134352586
40
0.470310592545172
40
0.472057050737758
40
0.473803508930345
40
0.475549967122931
40
0.477296425315518
40
0.479042883508104
40
0.48078934170069
40
0.482535799893277
40
0.484282258085863
40
0.486028716278449
40
0.487775174471036
40
0.489521632663622
40
0.491268090856208
40
0.493014549048795
40
0.494761007241381
40
0.496507465433968
40
0.498253923626554
40
0.50000038181914
40
0.501746840011727
40
0.503493298204313
40
0.505239756396899
40
0.506986214589486
40
0.508732672782072
40
0.510479130974658
40
0.512225589167245
40
0.513972047359831
40
0.515718505552417
40
0.517464963745004
40
0.51921142193759
40
0.520957880130177
40
0.522704338322763
40
0.524450796515349
40
0.526197254707936
40
0.527943712900522
40
0.529690171093109
40
0.531436629285695
40
0.533183087478281
40
0.534929545670868
40
0.536676003863454
40
0.53842246205604
40
0.540168920248627
40
0.541915378441213
40
0.545408294826386
40
0.547154753018972
40
0.548901211211558
40
0.550647669404145
40
0.552394127596731
40
0.555887043981904
40
0.559379960367077
40
0.561126418559663
40
0.56287287675225
40
0.564619334944836
40
0.566365793137422
40
0.569858709522595
40
0.573351625907768
40
0.57684454229294
40
0.580337458678113
40
0.583830375063286
40
0.587323291448459
40
0.590816207833632
40
0.594309124218804
40
0.597802040603977
40
0.60129495698915
40
0.604787873374322
40
0.608280789759495
40
0.611773706144668
40
0.615266622529841
40
0.618759538915013
40
0.622252455300186
40
0.625745371685359
40
0.632731204455704
40
0.63971703722605
40
0.646702869996395
40
0.650195786381568
40
0.653688702766741
40
0.657181619151913
40
0.660674535537086
40
0.664167451922259
40
0.667660368307432
40
0.671153284692604
40
0.674646201077777
40
0.681632033848122
40
0.685124950233295
40
0.688617866618468
40
0.692110783003641
40
0.695603699388814
40
0.699096615773986
40
0.702589532159159
40
0.706082448544332
40
0.709575364929504
40
0.713068281314677
40
0.71656119769985
40
0.720054114085023
40
0.723547030470195
40
0.730532863240541
40
0.734025779625713
40
0.737518696010886
40
0.744504528781232
40
0.747997445166404
40
0.751490361551577
40
0.75498327793675
40
0.758476194321923
40
0.765462027092268
40
0.768954943477441
40
0.772447859862614
40
0.775940776247786
40
0.779433692632959
40
0.786419525403305
40
0.789912441788477
40
0.79340535817365
40
0.796898274558823
40
0.800391190943995
40
0.807377023714341
40
0.810869940099513
40
0.814362856484687
40
0.817855772869859
40
0.821348689255032
40
0.828334522025377
40
0.83182743841055
40
0.835320354795723
40
0.838813271180896
40
0.842306187566068
40
0.849292020336414
40
0.852784936721586
40
0.856277853106759
40
0.859770769491932
40
0.863263685877105
40
0.866756602262277
40
0.87024951864745
40
0.873742435032623
40
0.877235351417795
40
0.880728267802968
40
0.884221184188141
40
0.887714100573314
40
0.891207016958487
40
0.894699933343659
40
0.898192849728832
40
0.905178682499177
40
0.90867159888435
40
0.912164515269523
40
0.915657431654696
40
0.919150348039868
40
0.922643264425041
40
0.926136180810214
40
0.933122013580559
40
0.936614929965732
40
0.940107846350905
40
0.943600762736078
40
0.94709367912125
40
0.954079511891596
40
0.957572428276768
40
0.961065344661941
40
0.964558261047114
40
0.968051177432287
40
0.971544093817459
40
0.975037010202632
40
0.978529926587805
40
0.982022842972977
40
0.98551575935815
40
0.989008675743323
40
0.992501592128496
40
0.995994508513668
40
0.999487424898841
40
1
40
1
40
1
40
1
41
1
10
-36.5
20
-21.1555776126385
30
0
41
1
10
-36.5
20
-21.1557858243739
30
0
41
1
10
-36.5
20
-21.1573191520044
30
0
41
1
10
-36.5
20
-21.1588544331657
30
0
41
1
10
-36.5
20
-21.1578038223016
30
0
41
1
10
-36.5
20
-21.1536126358382
30
0
41
1
10
-36.5
20
-21.1463317213717
30
0
41
1
10
-36.5
20
-21.1360112678938
30
0
41
1
10
-36.5
20
-21.1226986497682
30
0
41
1
10
-36.5
20
-21.1064402158535
30
0
41
1
10
-36.5
20
-21.0872797426226
30
0
41
1
10
-36.5
20
-21.0578537406018
30
0
41
1
10
-36.5
20
-21.0141777773224
30
0
41
1
10
-36.5
20
-20.950713074722
30
0
41
1
10
-36.5
20
-20.8890285612071
30
0
41
1
10
-36.5
20
-20.8342802658871
30
0
41
1
10
-36.5
20
-20.7907267804185
30
0
41
1
10
-36.5
20
-20.7446291690672
30
0
41
1
10
-36.5
20
-20.6796864194097
30
0
41
1
10
-36.5
20
-20.6101652524536
30
0
41
1
10
-36.5
20
-20.5353747251341
30
0
41
1
10
-36.5
20
-20.4769783324059
30
0
41
1
10
-36.5
20
-20.4161995895792
30
0
41
1
10
-36.5
20
-20.3530628196555
30
0
41
1
10
-36.5
20
-20.2875896826626
30
0
41
1
10
-36.5
20
-20.1970436182683
30
0
41
1
10
-36.5
20
-20.1024192722933
30
0
41
1
10
-36.5
20
-20.0027815031752
30
0
41
1
10
-36.5
20
-19.9259535572617
30
0
41
1
10
-36.5
20
-19.8469141355251
30
0
41
1
10
-36.5
20
-19.7656833730651
30
0
41
1
10
-36.5
20
-19.6822775189499
30
0
41
1
10
-36.5
20
-19.5967148149262
30
0
41
1
10
-36.5
20
-19.5090135394173
30
0
41
1
10
-36.5
20
-19.4191882696517
30
0
41
1
10
-36.5
20
-19.3272561697677
30
0
41
1
10
-36.5
20
-19.2332338822713
30
0
41
1
10
-36.5
20
-19.1371346902892
30
0
41
1
10
-36.5
20
-19.0389746878943
30
0
41
1
10
-36.5
20
-18.9387689752275
30
0
41
1
10
-36.5
20
-18.8022215100789
30
0
41
1
10
-36.5
20
-18.6623317385554
30
0
41
1
10
-36.5
20
-18.5177544284038
30
0
41
1
10
-36.5
20
-18.4260133905722
30
0
41
1
10
-36.5
20
-18.3514175898237
30
0
41
1
10
-36.5
20
-18.2761667145511
30
0
41
1
10
-36.5
20
-18.1428549391526
30
0
41
1
10
-36.5
20
-17.987269645424
30
0
41
1
10
-36.5
20
-17.8270700659299
30
0
41
1
10
-36.5
20
-17.705205542109
30
0
41
1
10
-36.5
20
-17.5814423770725
30
0
41
1
10
-36.5
20
-17.4136311437529
30
0
41
1
10
-36.5
20
-17.2428939764416
30
0
41
1
10
-36.5
20
-17.0675963011876
30
0
41
1
10
-36.5
20
-16.9568152899196
30
0
41
1
10
-36.5
20
-16.867008999151
30
0
41
1
10
-36.5
20
-16.7765898513273
30
0
41
1
10
-36.5
20
-16.6168596157572
30
0
41
1
10
-36.5
20
-16.4314438788638
30
0
41
1
10
-36.5
20
-16.2414991337765
30
0
41
1
10
-36.5
20
-16.097474719741
30
0
41
1
10
-36.5
20
-15.9516616651348
30
0
41
1
10
-36.5
20
-15.7545445351489
30
0
41
1
10
-36.5
20
-15.5548613446891
30
0
41
1
10
-36.5
20
-15.350663385132
30
0
41
1
10
-36.5
20
-15.2219600388738
30
0
41
1
10
-36.5
20
-15.1178164480938
30
0
41
1
10
-36.5
20
-15.0130920883853
30
0
41
1
10
-36.5
20
-14.8814910451208
30
0
41
1
10
-36.5
20
-14.7216281332594
30
0
41
1
10
-36.5
20
-14.5871530954062
30
0
41
1
10
-36.5
20
-14.4783873813363
30
0
41
1
10
-36.5
20
-14.3690494022437
30
0
41
1
10
-36.5
20
-14.2317235183089
30
0
41
1
10
-36.5
20
-14.0650028858775
30
0
41
1
10
-36.5
20
-13.8965816080865
30
0
41
1
10
-36.5
20
-13.7264689694465
30
0
41
1
10
-36.5
20
-13.5546710496343
30
0
41
1
10
-36.5
20
-13.3811910773122
30
0
41
1
10
-36.5
20
-13.2060373742644
30
0
41
1
10
-36.5
20
-13.0292149133303
30
0
41
1
10
-36.5
20
-12.850728177302
30
0
41
1
10
-36.5
20
-12.6705857874604
30
0
41
1
10
-36.5
20
-12.4887914218501
30
0
41
1
10
-36.5
20
-12.3053503484466
30
0
41
1
10
-36.5
20
-12.1202706879328
30
0
41
1
10
-36.5
20
-11.9335555855444
30
0
41
1
10
-36.5
20
-11.6819759204348
30
0
41
1
10
-36.5
20
-11.4285505376587
30
0
41
1
10
-36.5
20
-11.1704660874499
30
0
41
1
10
-36.5
20
-10.9756651586938
30
0
41
1
10
-36.5
20
-10.7792636737398
30
0
41
1
10
-36.5
20
-10.5812696725585
30
0
41
1
10
-36.5
20
-10.3816871154457
30
0
41
1
10
-36.5
20
-10.180523710493
30
0
41
1
10
-36.5
20
-9.97778558435027
30
0
41
1
10
-36.5
20
-9.70483576808863
30
0
41
1
10
-36.5
20
-9.36101276272154
30
0
41
1
10
-36.5
20
-8.94153438933262
30
0
41
1
10
-36.5
20
-8.58745787193689
30
0
41
1
10
-36.5
20
-8.30004464023602
30
0
41
1
10
-36.5
20
-8.08346950394392
30
0
41
1
10
-36.5
20
-7.86540102208471
30
0
41
1
10
-36.5
20
-7.64585131899614
30
0
41
1
10
-36.5
20
-7.42483318088833
30
0
41
1
10
-36.5
20
-7.20235735193418
30
0
41
1
10
-36.5
20
-6.97843755879967
30
0
41
1
10
-36.5
20
-6.75308981071325
30
0
41
1
10
-36.5
20
-6.52633035082275
30
0
41
1
10
-36.5
20
-6.29817753233076
30
0
41
1
10
-36.5
20
-6.06865022444896
30
0
41
1
10
-36.5
20
-5.83776884649418
30
0
41
1
10
-36.5
20
-5.60555660448861
30
0
41
1
10
-36.5
20
-5.37203985998678
30
0
41
1
10
-36.5
20
-5.13724579696881
30
0
41
1
10
-36.5
20
-4.90120595303733
30
0
41
1
10
-36.5
20
-4.70396583147402
30
0
41
1
10
-36.5
20
-4.54469638576828
30
0
41
1
10
-36.5
20
-4.42533999597057
30
0
41
1
10
-36.5
20
-4.30569972295402
30
0
41
1
10
-36.5
20
-4.14529336499854
30
0
41
1
10
-36.5
20
-3.94531865595207
30
0
41
1
10
-36.5
20
-3.74444957084984
30
0
41
1
10
-36.5
20
-3.58224076117995
30
0
41
1
10
-36.5
20
-3.46078958963511
30
0
41
1
10
-36.5
20
-3.33910702605107
30
0
41
1
10
-36.5
20
-3.17597085922341
30
0
41
1
10
-36.5
20
-3.01425651604552
30
0
41
1
10
-36.5
20
-2.85023149996007
30
0
41
1
10
-36.5
20
-2.72752154931175
30
0
41
1
10
-36.5
20
-2.60463052157442
30
0
41
1
10
-36.5
20
-2.48157378937663
30
0
41
1
10
-36.5
20
-2.35835621123036
30
0
41
1
10
-36.5
20
-2.23499061660055
30
0
41
1
10
-36.5
20
-2.11148761081347
30
0
41
1
10
-36.5
20
-1.9878545152765
30
0
41
1
10
-36.5
20
-1.86410632124094
30
0
41
1
10
-36.5
20
-1.74024827700825
30
0
41
1
10
-36.5
20
-1.61629526151512
30
0
41
1
10
-36.5
20
-1.49225310041959
30
0
41
1
10
-36.5
20
-1.3681347814894
30
0
41
1
10
-36.5
20
-1.2439473222278
30
0
41
1
10
-36.5
20
-1.11970117534864
30
0
41
1
10
-36.5
20
-0.995403485642782
30
0
41
1
10
-36.5
20
-0.8710629170684
30
0
41
1
10
-36.5
20
-0.746686102657719
30
0
41
1
10
-36.5
20
-0.622280124115576
30
0
41
1
10
-36.5
20
-0.497850420758397
30
0
41
1
10
-36.5
20
-0.373402935182185
30
0
41
1
10
-36.5
20
-0.248942238793148
30
0
41
1
10
-36.5
20
-0.124473257200918
30
0
41
1
10
-36.5
20
-9.2462358E-09
30
0
41
1
10
-36.5
20
0.124473254673973
30
0
41
1
10
-36.5
20
0.248942266430618
30
0
41
1
10
-36.5
20
0.373402960091397
30
0
41
1
10
-36.5
20
0.497850400790554
30
0
41
1
10
-36.5
20
0.622280094010847
30
0
41
1
10
-36.5
20
0.746686131491799
30
0
41
1
10
-36.5
20
0.871062970095124
30
0
41
1
10
-36.5
20
0.995403468230791
30
0
41
1
10
-36.5
20
1.11970111692671
30
0
41
1
10
-36.5
20
1.24394734076813
30
0
41
1
10
-36.5
20
1.36813486147517
30
0
41
1
10
-36.5
20
1.49225310642996
30
0
41
1
10
-36.5
20
1.61629518356963
30
0
41
1
10
-36.5
20
1.7402482546413
30
0
41
1
10
-36.5
20
1.86410640329151
30
0
41
1
10
-36.5
20
1.98785458048855
30
0
41
1
10
-36.5
20
2.11148756075909
30
0
41
1
10
-36.5
20
2.2349905278607
30
0
41
1
10
-36.5
20
2.3583562279822
30
0
41
1
10
-36.5
20
2.48157389743918
30
0
41
1
10
-36.5
20
2.60463057106841
30
0
41
1
10
-36.5
20
2.72752148004804
30
0
41
1
10
-36.5
20
2.8502314065623
30
0
41
1
10
-36.5
20
3.01425656877106
30
0
41
1
10
-36.5
20
3.17597095993784
30
0
41
1
10
-36.5
20
3.33910698167958
30
0
41
1
10
-36.5
20
3.46078948211164
30
0
41
1
10
-36.5
20
3.58224072191865
30
0
41
1
10
-36.5
20
3.74444967050349
30
0
41
1
10
-36.5
20
3.94531869048151
30
0
41
1
10
-36.5
20
4.14529326648051
30
0
41
1
10
-36.5
20
4.30569969171859
30
0
41
1
10
-36.5
20
4.42534006396792
30
0
41
1
10
-36.5
20
4.54469650094606
30
0
41
1
10
-36.5
20
4.70396584910503
30
0
41
1
10
-36.5
20
4.90120586463618
30
0
41
1
10
-36.5
20
5.1372458114655
30
0
41
1
10
-36.5
20
5.37203995090806
30
0
41
1
10
-36.5
20
5.6055565552935
30
0
41
1
10
-36.5
20
5.83776875015039
30
0
41
1
10
-36.5
20
6.06865017711209
30
0
41
1
10
-36.5
20
6.29817748211653
30
0
41
1
10
-36.5
20
6.52633051401983
30
0
41
1
10
-36.5
20
6.75309051279777
30
0
41
1
10
-36.5
20
6.97843834484934
30
0
41
1
10
-36.5
20
7.20235684280954
30
0
41
1
10
-36.5
20
7.42483229470756
30
0
41
1
10
-36.5
20
7.64585158611581
30
0
41
1
10
-36.5
20
7.86540128403743
30
0
41
1
10
-36.5
20
8.08346945831602
30
0
41
1
10
-36.5
20
8.30004452993893
30
0
41
1
10
-36.5
20
8.58745782596952
30
0
41
1
10
-36.5
20
8.94153442741853
30
0
41
1
10
-36.5
20
9.36101273737586
30
0
41
1
10
-36.5
20
9.70483575174822
30
0
41
1
10
-36.5
20
9.97778564072317
30
0
41
1
10
-36.5
20
10.18052371466
30
0
41
1
10
-36.5
20
10.3816870614505
30
0
41
1
10
-36.5
20
10.5812696339219
30
0
41
1
10
-36.5
20
10.7792636942327
30
0
41
1
10
-36.5
20
10.9756652058486
30
0
41
1
10
-36.5
20
11.1704660987636
30
0
41
1
10
-36.5
20
11.4285504962004
30
0
41
1
10
-36.5
20
11.6819759007756
30
0
41
1
10
-36.5
20
11.9335556252714
30
0
41
1
10
-36.5
20
12.1202707134412
30
0
41
1
10
-36.5
20
12.3053503320752
30
0
41
1
10
-36.5
20
12.4887913848281
30
0
41
1
10
-36.5
20
12.6705857704289
30
0
41
1
10
-36.5
20
12.8507281979538
30
0
41
1
10
-36.5
20
13.0292149436136
30
0
41
1
10
-36.5
20
13.2060373895955
30
0
41
1
10
-36.5
20
13.3811911431361
30
0
41
1
10
-36.5
20
13.5546713888901
30
0
41
1
10
-36.5
20
13.7264696827894
30
0
41
1
10
-36.5
20
13.9536769173599
30
0
41
1
10
-36.5
20
14.176348576809
30
0
41
1
10
-36.5
20
14.3967384349214
30
0
41
1
10
-36.5
20
14.6148460432235
30
0
41
1
10
-36.5
20
14.8284315021107
30
0
41
1
10
-36.5
20
15.0396227184095
30
0
41
1
10
-36.5
20
15.1960147192182
30
0
41
1
10
-36.5
20
15.3506631330603
30
0
41
1
10
-36.5
20
15.5548624364723
30
0
41
1
10
-36.5
20
15.7545451164335
30
0
41
1
10
-36.5
20
15.9516609547094
30
0
41
1
10
-36.5
20
16.0974737380165
30
0
41
1
10
-36.5
20
16.241498813278
30
0
41
1
10
-36.5
20
16.4314450331352
30
0
41
1
10
-36.5
20
16.6168608854212
30
0
41
1
10
-36.5
20
16.7995343923805
30
0
41
1
10
-36.5
20
16.9344844206004
30
0
41
1
10
-36.5
20
17.0675955495037
30
0
41
1
10
-36.5
20
17.2428947983014
30
0
41
1
10
-36.5
20
17.4136313821348
30
0
41
1
10
-36.5
20
17.5814422063202
30
0
41
1
10
-36.5
20
17.7052052466277
30
0
41
1
10
-36.5
20
17.827069915531
30
0
41
1
10
-36.5
20
17.9872703841193
30
0
41
1
10
-36.5
20
18.1428562465544
30
0
41
1
10
-36.5
20
18.2953166794047
30
0
41
1
10
-36.5
20
18.4075180436267
30
0
41
1
10
-36.5
20
18.5177535555592
30
0
41
1
10
-36.5
20
18.6623326618876
30
0
41
1
10
-36.5
20
18.8022222651529
30
0
41
1
10
-36.5
20
18.9387686023437
30
0
41
1
10
-36.5
20
19.0389739868785
30
0
41
1
10
-36.5
20
19.1371342717784
30
0
41
1
10
-36.5
20
19.2332339353276
30
0
41
1
10
-36.5
20
19.3272562516113
30
0
41
1
10
-36.5
20
19.4191882978898
30
0
41
1
10
-36.5
20
19.5090135437133
30
0
41
1
10
-36.5
20
19.5967148362678
30
0
41
1
10
-36.5
20
19.6822775521962
30
0
41
1
10
-36.5
20
19.7656833992675
30
0
41
1
10
-36.5
20
19.8469141406672
30
0
41
1
10
-36.5
20
19.9259535527381
30
0
41
1
10
-36.5
20
20.0027815100322
30
0
41
1
10
-36.5
20
20.1024193061391
30
0
41
1
10
-36.5
20
20.1970436522849
30
0
41
1
10
-36.5
20
20.287589681624
30
0
41
1
10
-36.5
20
20.353062816238
30
0
41
1
10
-36.5
20
20.4161996091986
30
0
41
1
10
-36.5
20
20.4769783724375
30
0
41
1
10
-36.5
20
20.5353747607017
30
0
41
1
10
-36.5
20
20.6101652553123
30
0
41
1
10
-36.5
20
20.6796864153796
30
0
41
1
10
-36.5
20
20.7446292080422
30
0
41
1
10
-36.5
20
20.7907268231738
30
0
41
1
10
-36.5
20
20.8342802793506
30
0
41
1
10
-36.5
20
20.8890285523336
30
0
41
1
10
-36.5
20
20.9382580424269
30
0
41
1
10
-36.5
20
20.9824409225429
30
0
41
1
10
-36.5
20
21.0128017234864
30
0
41
1
10
-36.5
20
21.0404207944711
30
0
41
1
10
-36.5
20
21.0652596303332
30
0
41
1
10
-36.5
20
21.0872797892674
30
0
41
1
10
-36.5
20
21.1064402531507
30
0
41
1
10
-36.5
20
21.1226986516191
30
0
41
1
10
-36.5
20
21.1360112646484
30
0
41
1
10
-36.5
20
21.1463317710584
30
0
41
1
10
-36.5
20
21.1536128319466
30
0
41
1
10
-36.5
20
21.1578041644649
30
0
41
1
10
-36.5
20
21.1588543296933
30
0
41
1
10
-36.5
20
21.1573189702233
30
0
41
1
10
-36.5
20
21.1557860251164
30
0
41
1
10
-36.5
20
21.1555781535312
30
0
0
SPLINE
5
DE
100
AcDbEntity
8
SK1
62
256
6
ByLayer
370
-1
48
1
60
0
100
AcDbSpline
70
4
71
3
72
299
73
295
40
0
40
0
40
0
40
0
40
0.0032949635918655
40
0.0068176905876675
40
0.0103404175834696
40
0.0138631445792716
40
0.0173858715750736
40
0.0209085985708756
40
0.0244313255666776
40
0.0279540525624796
40
0.0349995065540837
40
0.0420449605456877
40
0.0490904145372918
40
0.0526131415330938
40
0.0561358685288958
40
0.0596585955246978
40
0.0631813225204998
40
0.0702267765121039
40
0.0737495035079059
40
0.0772722305037079
40
0.0807949574995099
40
0.084317684495312
40
0.087840411491114
40
0.091363138486916
40
0.0984085924785201
40
0.101931319474322
40
0.105454046470124
40
0.108976773465926
40
0.112499500461728
40
0.11602222745753
40
0.119544954453332
40
0.123067681449134
40
0.126590408444936
40
0.130113135440738
40
0.13363586243654
40
0.137158589432342
40
0.140681316428144
40
0.144204043423946
40
0.147726770419748
40
0.154772224411352
40
0.158294951407154
40
0.161817678402956
40
0.163579041900857
40
0.165340405398758
40
0.16886313239456
40
0.175908586386164
40
0.179431313381966
40
0.182954040377768
40
0.186476767373571
40
0.189999494369373
40
0.197044948360977
40
0.200567675356779
40
0.204090402352581
40
0.205851765850482
40
0.207613129348383
40
0.211135856344185
40
0.218181310335789
40
0.221704037331591
40
0.225226764327393
40
0.228749491323195
40
0.232272218318997
40
0.239317672310601
40
0.242840399306403
40
0.246363126302205
40
0.248124489800106
40
0.249885853298007
40
0.253408580293809
40
0.256931307289611
40
0.260454034285413
40
0.262215397783314
40
0.263976761281215
40
0.267499488277017
40
0.271022215272819
40
0.274544942268621
40
0.278067669264423
40
0.281590396260225
40
0.285113123256027
40
0.288635850251829
40
0.292158577247631
40
0.295681304243433
40
0.299204031239235
40
0.302726758235037
40
0.306249485230839
40
0.309772212226641
40
0.313294939222443
40
0.316817666218245
40
0.323863120209849
40
0.327385847205651
40
0.330908574201453
40
0.334431301197255
40
0.337954028193057
40
0.341476755188859
40
0.344999482184661
40
0.348522209180463
40
0.352044936176265
40
0.359090390167869
40
0.366135844159473
40
0.373181298151078
40
0.37670402514688
40
0.380226752142682
40
0.383749479138484
40
0.387272206134286
40
0.390794933130088
40
0.39431766012589
40
0.397840387121692
40
0.401363114117494
40
0.404885841113296
40
0.408408568109098
40
0.4119312951049
40
0.415454022100702
40
0.418976749096504
40
0.422499476092306
40
0.426022203088108
40
0.42954493008391
40
0.433067657079712
40
0.434829020577613
40
0.436590384075514
40
0.438351747573415
40
0.440113111071316
40
0.443635838067118
40
0.44715856506292
40
0.448919928560821
40
0.450681292058722
40
0.452442655556623
40
0.454204019054524
40
0.457726746050326
40
0.459488109548227
40
0.461249473046128
40
0.463010836544029
40
0.46477220004193
40
0.466533563539831
40
0.468294927037732
40
0.470056290535633
40
0.471817654033534
40
0.473579017531435
40
0.475340381029336
40
0.477101744527237
40
0.478863108025138
40
0.480624471523039
40
0.48238583502094
40
0.484147198518841
40
0.485908562016742
40
0.487669925514643
40
0.489431289012544
40
0.491192652510445
40
0.492954016008346
40
0.494715379506247
40
0.496476743004148
40
0.498238106502049
40
0.49999946999995
40
0.501760833497851
40
0.503522196995752
40
0.505283560493653
40
0.507044923991554
40
0.508806287489455
40
0.510567650987356
40
0.512329014485257
40
0.514090377983158
40
0.515851741481059
40
0.51761310497896
40
0.519374468476861
40
0.521135831974762
40
0.522897195472663
40
0.524658558970564
40
0.526419922468465
40
0.528181285966366
40
0.529942649464268
40
0.531704012962168
40
0.533465376460069
40
0.535226739957971
40
0.536988103455871
40
0.538749466953772
40
0.540510830451673
40
0.542272193949575
40
0.545794920945377
40
0.547556284443278
40
0.549317647941179
40
0.55107901143908
40
0.552840374936981
40
0.556363101932783
40
0.559885828928585
40
0.561647192426486
40
0.563408555924387
40
0.565169919422288
40
0.566931282920189
40
0.570454009915991
40
0.573976736911793
40
0.577499463907595
40
0.581022190903397
40
0.584544917899199
40
0.588067644895001
40
0.591590371890803
40
0.595113098886605
40
0.598635825882407
40
0.602158552878209
40
0.605681279874011
40
0.609204006869813
40
0.612726733865615
40
0.616249460861417
40
0.619772187857219
40
0.623294914853021
40
0.626817641848823
40
0.633863095840427
40
0.640908549832031
40
0.647954003823635
40
0.651476730819437
40
0.654999457815239
40
0.658522184811041
40
0.662044911806843
40
0.665567638802645
40
0.669090365798447
40
0.672613092794249
40
0.676135819790051
40
0.683181273781655
40
0.686704000777457
40
0.690226727773259
40
0.693749454769061
40
0.697272181764863
40
0.700794908760665
40
0.704317635756467
40
0.707840362752269
40
0.711363089748072
40
0.714885816743874
40
0.718408543739676
40
0.721931270735477
40
0.72545399773128
40
0.732499451722884
40
0.736022178718686
40
0.739544905714488
40
0.746590359706092
40
0.750113086701894
40
0.753635813697696
40
0.757158540693498
40
0.7606812676893
40
0.767726721680904
40
0.771249448676706
40
0.774772175672508
40
0.77829490266831
40
0.781817629664112
40
0.788863083655716
40
0.792385810651518
40
0.79590853764732
40
0.799431264643122
40
0.802953991638924
40
0.809999445630528
40
0.81352217262633
40
0.817044899622132
40
0.820567626617934
40
0.824090353613736
40
0.83113580760534
40
0.834658534601142
40
0.838181261596944
40
0.841703988592746
40
0.845226715588548
40
0.852272169580152
40
0.855794896575954
40
0.859317623571756
40
0.862840350567558
40
0.86636307756336
40
0.869885804559162
40
0.873408531554964
40
0.876931258550766
40
0.880453985546568
40
0.88397671254237
40
0.887499439538172
40
0.891022166533975
40
0.894544893529776
40
0.898067620525579
40
0.901590347521381
40
0.908635801512985
40
0.912158528508787
40
0.915681255504589
40
0.919203982500391
40
0.922726709496193
40
0.926249436491995
40
0.929772163487797
40
0.936817617479401
40
0.940340344475203
40
0.943863071471005
40
0.947385798466807
40
0.950908525462609
40
0.957953979454213
40
0.961476706450015
40
0.964999433445817
40
0.968522160441619
40
0.972044887437421
40
0.975567614433223
40
0.979090341429025
40
0.982613068424827
40
0.986135795420629
40
0.989658522416431
40
0.993181249412233
40
0.996703976408035
40
1
40
1
40
1
40
1
41
1
10
-1.9950399779393
20
-21.8251672690642
30
0
41
1
10
-1.9950399779393
20
-21.8252770425638
30
0
41
1
10
-1.9950399779393
20
-21.8245105574689
30
0
41
1
10
-1.9950399779393
20
-21.8202836860757
30
0
41
1
10
-1.9950399779393
20
-21.812783044142
30
0
41
1
10
-1.9950399779393
20
-21.8021565364934
30
0
41
1
10
-1.9950399779393
20
-21.7884557330328
30
0
41
1
10
-1.9950399779393
20
-21.7717308612526
30
0
41
1
10
-1.9950399779393
20
-21.7520291985819
30
0
41
1
10
-1.9950399779393
20
-21.7218385059106
30
0
41
1
10
-1.9950399779393
20
-21.6769140218914
30
0
41
1
10
-1.9950399779393
20
-21.6117670092986
30
0
41
1
10
-1.9950399779393
20
-21.5484022523455
30
0
41
1
10
-1.9950399779393
20
-21.4923512863894
30
0
41
1
10
-1.9950399779393
20
-21.4477036012609
30
0
41
1
10
-1.9950399779393
20
-21.4004602751572
30
0
41
1
10
-1.9950399779393
20
-21.3340243579833
30
0
41
1
10
-1.9950399779393
20
-21.2626002065085
30
0
41
1
10
-1.9950399779393
20
-21.1861355372814
30
0
41
1
10
-1.9950399779393
20
-21.126355615456
30
0
41
1
10
-1.9950399779393
20
-21.0641493981766
30
0
41
1
10
-1.9950399779393
20
-20.9995415089612
30
0
41
1
10
-1.9950399779393
20
-20.9325549476398
30
0
41
1
10
-1.9950399779393
20
-20.8400664063016
30
0
41
1
10
-1.9950399779393
20
-20.7430171949632
30
0
41
1
10
-1.9950399779393
20
-20.6412830606924
30
0
41
1
10
-1.9950399779393
20
-20.5627395849404
30
0
41
1
10
-1.9950399779393
20
-20.4819464711493
30
0
41
1
10
-1.9950399779393
20
-20.3989234016943
30
0
41
1
10
-1.9950399779393
20
-20.3136873945745
30
0
41
1
10
-1.9950399779393
20
-20.2262576082901
30
0
41
1
10
-1.9950399779393
20
-20.136651569995
30
0
41
1
10
-1.9950399779393
20
-20.0448848271876
30
0
41
1
10
-1.9950399779393
20
-19.9509751576252
30
0
41
1
10
-1.9950399779393
20
-19.8549383078336
30
0
41
1
10
-1.9950399779393
20
-19.7567886026657
30
0
41
1
10
-1.9950399779393
20
-19.6565424313982
30
0
41
1
10
-1.9950399779393
20
-19.5542139601407
30
0
41
1
10
-1.9950399779393
20
-19.4149698127943
30
0
41
1
10
-1.9950399779393
20
-19.2717622924356
30
0
41
1
10
-1.9950399779393
20
-19.1243520606764
30
0
41
1
10
-1.9950399779393
20
-19.0305969699326
30
0
41
1
10
-1.9950399779393
20
-18.9545457436666
30
0
41
1
10
-1.9950399779393
20
-18.877828345234
30
0
41
1
10
-1.9950399779393
20
-18.7418485706132
30
0
41
1
10
-1.9950399779393
20
-18.5826225030747
30
0
41
1
10
-1.9950399779393
20
-18.4193199892891
30
0
41
1
10
-1.9950399779393
20
-18.2949375082747
30
0
41
1
10
-1.9950399779393
20
-18.1686188381619
30
0
41
1
10
-1.9950399779393
20
-17.9975681157064
30
0
41
1
10
-1.9950399779393
20
-17.8228588844704
30
0
41
1
10
-1.9950399779393
20
-17.6441795672679
30
0
41
1
10
-1.9950399779393
20
-17.5309981410348
30
0
41
1
10
-1.9950399779393
20
-17.4394590341184
30
0
41
1
10
-1.9950399779393
20
-17.3472945498449
30
0
41
1
10
-1.9950399779393
20
-17.1843913435575
30
0
41
1
10
-1.9950399779393
20
-16.9946548235122
30
0
41
1
10
-1.9950399779393
20
-16.8010333841432
30
0
41
1
10
-1.9950399779393
20
-16.654027023888
30
0
41
1
10
-1.9950399779393
20
-16.5051894370887
30
0
41
1
10
-1.9950399779393
20
-16.3042392155796
30
0
41
1
10
-1.9950399779393
20
-16.0998599858609
30
0
41
1
10
-1.9950399779393
20
-15.8916662065006
30
0
41
1
10
-1.9950399779393
20
-15.7601264684356
30
0
41
1
10
-1.9950399779393
20
-15.6539352235828
30
0
41
1
10
-1.9950399779393
20
-15.5471478788444
30
0
41
1
10
-1.9950399779393
20
-15.4126292313156
30
0
41
1
10
-1.9950399779393
20
-15.2493853238091
30
0
41
1
10
-1.9950399779393
20
-15.1119089381336
30
0
41
1
10
-1.9950399779393
20
-15.0009760777421
30
0
41
1
10
-1.9950399779393
20
-14.8894548819647
30
0
41
1
10
-1.9950399779393
20
-14.7490386600655
30
0
41
1
10
-1.9950399779393
20
-14.578735707937
30
0
41
1
10
-1.9950399779393
20
-14.4066808882548
30
0
41
1
10
-1.9950399779393
20
-14.2328806917249
30
0
41
1
10
-1.9950399779393
20
-14.0573388809364
30
0
41
1
10
-1.9950399779393
20
-13.8800596938692
30
0
41
1
10
-1.9950399779393
20
-13.7010488098078
30
0
41
1
10
-1.9950399779393
20
-13.5203096364964
30
0
41
1
10
-1.9950399779393
20
-13.3378467409434
30
0
41
1
10
-1.9950399779393
20
-13.1536651576331
30
0
41
1
10
-1.9950399779393
20
-12.967767664355
30
0
41
1
10
-1.9950399779393
20
-12.7801589185361
30
0
41
1
10
-1.9950399779393
20
-12.5908431445087
30
0
41
1
10
-1.9950399779393
20
-12.3998230002593
30
0
41
1
10
-1.9950399779393
20
-12.1427688173785
30
0
41
1
10
-1.9950399779393
20
-11.8826118718573
30
0
41
1
10
-1.9950399779393
20
-11.6187779306707
30
0
41
1
10
-1.9950399779393
20
-11.4192921752591
30
0
41
1
10
-1.9950399779393
20
-11.2181233733031
30
0
41
1
10
-1.9950399779393
20
-11.0152750188843
30
0
41
1
10
-1.9950399779393
20
-10.8107494713072
30
0
41
1
10
-1.9950399779393
20
-10.6045508021232
30
0
41
1
10
-1.9950399779393
20
-10.3966814407573
30
0
41
1
10
-1.9950399779393
20
-10.1171870033238
30
0
41
1
10
-1.9950399779393
20
-9.76392166117952
30
0
41
1
10
-1.9950399779393
20
-9.33322608836653
30
0
41
1
10
-1.9950399779393
20
-8.96893242084855
30
0
41
1
10
-1.9950399779393
20
-8.67397578579323
30
0
41
1
10
-1.9950399779393
20
-8.45121977200662
30
0
41
1
10
-1.9950399779393
20
-8.22682776167494
30
0
41
1
10
-1.9950399779393
20
-8.00080467620245
30
0
41
1
10
-1.9950399779393
20
-7.77315513008728
30
0
41
1
10
-1.9950399779393
20
-7.54388372935193
30
0
41
1
10
-1.9950399779393
20
-7.31299637479285
30
0
41
1
10
-1.9950399779393
20
-7.08049945458953
30
0
41
1
10
-1.9950399779393
20
-6.8463997482805
30
0
41
1
10
-1.9950399779393
20
-6.61070495432838
30
0
41
1
10
-1.9950399779393
20
-6.37342319970753
30
0
41
1
10
-1.9950399779393
20
-6.13456384015993
30
0
41
1
10
-1.9950399779393
20
-5.89413749968628
30
0
41
1
10
-1.9950399779393
20
-5.65215638001948
30
0
41
1
10
-1.9950399779393
20
-5.4086336510897
30
0
41
1
10
-1.9950399779393
20
-5.16358499073451
30
0
41
1
10
-1.9950399779393
20
-4.95821799704331
30
0
41
1
10
-1.9950399779393
20
-4.79299516838267
30
0
41
1
10
-1.9950399779393
20
-4.66878842905288
30
0
41
1
10
-1.9950399779393
20
-4.5442150281373
30
0
41
1
10
-1.9950399779393
20
-4.37752561794156
30
0
41
1
10
-1.9950399779393
20
-4.16851547631595
30
0
41
1
10
-1.9950399779393
20
-3.95832363498766
30
0
41
1
10
-1.9950399779393
20
-3.78926935835412
30
0
41
1
10
-1.9950399779393
20
-3.66223142121836
30
0
41
1
10
-1.9950399779393
20
-3.53485872774326
30
0
41
1
10
-1.9950399779393
20
-3.36446603264318
30
0
41
1
10
-1.9950399779393
20
-3.19381064862623
30
0
41
1
10
-1.9950399779393
20
-3.02213557666008
30
0
41
1
10
-1.9950399779393
20
-2.8931784837302
30
0
41
1
10
-1.9950399779393
20
-2.76392442628162
30
0
41
1
10
-1.9950399779393
20
-2.63438251344519
30
0
41
1
10
-1.9950399779393
20
-2.50455988721876
30
0
41
1
10
-1.9950399779393
20
-2.37446636334928
30
0
41
1
10
-1.9950399779393
20
-2.24411116870439
30
0
41
1
10
-1.9950399779393
20
-2.11350398186613
30
0
41
1
10
-1.9950399779393
20
-1.98265625862297
30
0
41
1
10
-1.9950399779393
20
-1.85157817347522
30
0
41
1
10
-1.9950399779393
20
-1.72028262405345
30
0
41
1
10
-1.9950399779393
20
-1.58878098022359
30
0
41
1
10
-1.9950399779393
20
-1.45708718468359
30
0
41
1
10
-1.9950399779393
20
-1.32521409071333
30
0
41
1
10
-1.9950399779393
20
-1.19317647053177
30
0
41
1
10
-1.9950399779393
20
-1.06098852682439
30
0
41
1
10
-1.9950399779393
20
-0.928665923975672
30
0
41
1
10
-1.9950399779393
20
-0.796224037396229
30
0
41
1
10
-1.9950399779393
20
-0.663679321648374
30
0
41
1
10
-1.9950399779393
20
-0.531048033506266
30
0
41
1
10
-1.9950399779393
20
-0.398347293868937
30
0
41
1
10
-1.9950399779393
20
-0.265594055935196
30
0
41
1
10
-1.9950399779393
20
-0.132805828560237
30
0
41
1
10
-1.9950399779393
20
2.0604887E-09
30
0
41
1
10
-1.9950399779393
20
0.132805835966792
30
0
41
1
10
-1.9950399779393
20
0.265594069601519
30
0
41
1
10
-1.9950399779393
20
0.398347307093388
30
0
41
1
10
-1.9950399779393
20
0.531048037421954
30
0
41
1
10
-1.9950399779393
20
0.663679323049081
30
0
41
1
10
-1.9950399779393
20
0.796224050825089
30
0
41
1
10
-1.9950399779393
20
0.92866594303203
30
0
41
1
10
-1.9950399779393
20
1.06098853158755
30
0
41
1
10
-1.9950399779393
20
1.1931764657121
30
0
41
1
10
-1.9950399779393
20
1.32521410103647
30
0
41
1
10
-1.9950399779393
20
1.45708720896539
30
0
41
1
10
-1.9950399779393
20
1.58878099035152
30
0
41
1
10
-1.9950399779393
20
1.72028261530932
30
0
41
1
10
-1.9950399779393
20
1.85157817419838
30
0
41
1
10
-1.9950399779393
20
1.98265628188182
30
0
41
1
10
-1.9950399779393
20
2.11350400419804
30
0
41
1
10
-1.9950399779393
20
2.24411116714702
30
0
41
1
10
-1.9950399779393
20
2.37446635053539
30
0
41
1
10
-1.9950399779393
20
2.50455989433328
30
0
41
1
10
-1.9950399779393
20
2.63438254221708
30
0
41
1
10
-1.9950399779393
20
2.76392444618182
30
0
41
1
10
-1.9950399779393
20
2.89317847799558
30
0
41
1
10
-1.9950399779393
20
3.02213556164864
30
0
41
1
10
-1.9950399779393
20
3.19381066067948
30
0
41
1
10
-1.9950399779393
20
3.36446606295527
30
0
41
1
10
-1.9950399779393
20
3.53485872835634
30
0
41
1
10
-1.9950399779393
20
3.66223140396673
30
0
41
1
10
-1.9950399779393
20
3.78926935085312
30
0
41
1
10
-1.9950399779393
20
3.95832365779984
30
0
41
1
10
-1.9950399779393
20
4.16851549788919
30
0
41
1
10
-1.9950399779393
20
4.37752560184694
30
0
41
1
10
-1.9950399779393
20
4.54421502107886
30
0
41
1
10
-1.9950399779393
20
4.66878844332788
30
0
41
1
10
-1.9950399779393
20
4.79299519854527
30
0
41
1
10
-1.9950399779393
20
4.95821801342223
30
0
41
1
10
-1.9950399779393
20
5.16358497720142
30
0
41
1
10
-1.9950399779393
20
5.40863364784667
30
0
41
1
10
-1.9950399779393
20
5.65215640891225
30
0
41
1
10
-1.9950399779393
20
5.89413750153935
30
0
41
1
10
-1.9950399779393
20
6.13456381441384
30
0
41
1
10
-1.9950399779393
20
6.37342317953835
30
0
41
1
10
-1.9950399779393
20
6.61070492919379
30
0
41
1
10
-1.9950399779393
20
6.84639976314463
30
0
41
1
10
-1.9950399779393
20
7.08049963775395
30
0
41
1
10
-1.9950399779393
20
7.31299670603016
30
0
41
1
10
-1.9950399779393
20
7.54388383469134
30
0
41
1
10
-1.9950399779393
20
7.77315487290267
30
0
41
1
10
-1.9950399779393
20
8.00080468509063
30
0
41
1
10
-1.9950399779393
20
8.22682785520686
30
0
41
1
10
-1.9950399779393
20
8.4512197921853
30
0
41
1
10
-1.9950399779393
20
8.67397577159846
30
0
41
1
10
-1.9950399779393
20
8.96893239301764
30
0
41
1
10
-1.9950399779393
20
9.33322609823665
30
0
41
1
10
-1.9950399779393
20
9.76392165975841
30
0
41
1
10
-1.9950399779393
20
10.1171869828061
30
0
41
1
10
-1.9950399779393
20
10.3966814549587
30
0
41
1
10
-1.9950399779393
20
10.6045508126063
30
0
41
1
10
-1.9950399779393
20
10.8107494592904
30
0
41
1
10
-1.9950399779393
20
11.0152749978462
30
0
41
1
10
-1.9950399779393
20
11.2181233670389
30
0
41
1
10
-1.9950399779393
20
11.4192921870092
30
0
41
1
10
-1.9950399779393
20
11.6187779427602
30
0
41
1
10
-1.9950399779393
20
11.8826118620781
30
0
41
1
10
-1.9950399779393
20
12.1427687977971
30
0
41
1
10
-1.9950399779393
20
12.3998230071702
30
0
41
1
10
-1.9950399779393
20
12.5908431584255
30
0
41
1
10
-1.9950399779393
20
12.7801589212449
30
0
41
1
10
-1.9950399779393
20
12.9677676529033
30
0
41
1
10
-1.9950399779393
20
13.1536651432542
30
0
41
1
10
-1.9950399779393
20
13.3378467396349
30
0
41
1
10
-1.9950399779393
20
13.520309646993
30
0
41
1
10
-1.9950399779393
20
13.7010488212408
30
0
41
1
10
-1.9950399779393
20
13.8800597145162
30
0
41
1
10
-1.9950399779393
20
14.0573389921213
30
0
41
1
10
-1.9950399779393
20
14.2328810143213
30
0
41
1
10
-1.9950399779393
20
14.4646959102749
30
0
41
1
10
-1.9950399779393
20
14.6927797943809
30
0
41
1
10
-1.9950399779393
20
14.9175842595472
30
0
41
1
10
-1.9950399779393
20
15.1400402265273
30
0
41
1
10
-1.9950399779393
20
15.3587351142266
30
0
41
1
10
-1.9950399779393
20
15.574095422854
30
0
41
1
10
-1.9950399779393
20
15.733775855726
30
0
41
1
10
-1.9950399779393
20
15.8916657661057
30
0
41
1
10
-1.9950399779393
20
16.0998603532658
30
0
41
1
10
-1.9950399779393
20
16.3042398246232
30
0
41
1
10
-1.9950399779393
20
16.5051894037979
30
0
41
1
10
-1.9950399779393
20
16.6540265683948
30
0
41
1
10
-1.9950399779393
20
16.8010329188422
30
0
41
1
10
-1.9950399779393
20
16.9946550481209
30
0
41
1
10
-1.9950399779393
20
17.1843924611907
30
0
41
1
10
-1.9950399779393
20
17.3705928023913
30
0
41
1
10
-1.9950399779393
20
17.5083251903719
30
0
41
1
10
-1.9950399779393
20
17.6441786252734
30
0
41
1
10
-1.9950399779393
20
17.8228590748674
30
0
41
1
10
-1.9950399779393
20
17.9975683374733
30
0
41
1
10
-1.9950399779393
20
18.1686188521771
30
0
41
1
10
-1.9950399779393
20
18.2949373683468
30
0
41
1
10
-1.9950399779393
20
18.4193198181252
30
0
41
1
10
-1.9950399779393
20
18.5826226298873
30
0
41
1
10
-1.9950399779393
20
18.7418497326446
30
0
41
1
10
-1.9950399779393
20
18.8972761707097
30
0
41
1
10
-1.9950399779393
20
19.0118150097952
30
0
41
1
10
-1.9950399779393
20
19.1243510467918
30
0
41
1
10
-1.9950399779393
20
19.2717625055688
30
0
41
1
10
-1.9950399779393
20
19.414970513124
30
0
41
1
10
-1.9950399779393
20
19.5542140249085
30
0
41
1
10
-1.9950399779393
20
19.6565420567613
30
0
41
1
10
-1.9950399779393
20
19.7567881415466
30
0
41
1
10
-1.9950399779393
20
19.8549381550126
30
0
41
1
10
-1.9950399779393
20
19.9509751416388
30
0
41
1
10
-1.9950399779393
20
20.0448848362119
30
0
41
1
10
-1.9950399779393
20
20.1366515718167
30
0
41
1
10
-1.9950399779393
20
20.2262576202058
30
0
41
1
10
-1.9950399779393
20
20.3136874196731
30
0
41
1
10
-1.9950399779393
20
20.398923430088
30
0
41
1
10
-1.9950399779393
20
20.4819464863244
30
0
41
1
10
-1.9950399779393
20
20.5627395868944
30
0
41
1
10
-1.9950399779393
20
20.6412830627252
30
0
41
1
10
-1.9950399779393
20
20.7430172190698
30
0
41
1
10
-1.9950399779393
20
20.8400664428987
30
0
41
1
10
-1.9950399779393
20
20.9325549572362
30
0
41
1
10
-1.9950399779393
20
20.9995415068112
30
0
41
1
10
-1.9950399779393
20
21.064149408511
30
0
41
1
10
-1.9950399779393
20
21.1263556466612
30
0
41
1
10
-1.9950399779393
20
21.1861355753666
30
0
41
1
10
-1.9950399779393
20
21.262600218376
30
0
41
1
10
-1.9950399779393
20
21.3340243512753
30
0
41
1
10
-1.9950399779393
20
21.4004603045828
30
0
41
1
10
-1.9950399779393
20
21.4477036445725
30
0
41
1
10
-1.9950399779393
20
21.4923513092323
30
0
41
1
10
-1.9950399779393
20
21.5484022410126
30
0
41
1
10
-1.9950399779393
20
21.5990695510926
30
0
41
1
10
-1.9950399779393
20
21.6443396610233
30
0
41
1
10
-1.9950399779393
20
21.6755105092645
30
0
41
1
10
-1.9950399779393
20
21.7038764495607
30
0
41
1
10
-1.9950399779393
20
21.7293964429163
30
0
41
1
10
-1.9950399779393
20
21.7520292420694
30
0
41
1
10
-1.9950399779393
20
21.7717309018817
30
0
41
1
10
-1.9950399779393
20
21.7884557380592
30
0
41
1
10
-1.9950399779393
20
21.8021565310045
30
0
41
1
10
-1.9950399779393
20
21.8127830851058
30
0
41
1
10
-1.9950399779393
20
21.8202838734724
30
0
41
1
10
-1.9950399779393
20
21.8245113377553
30
0
41
1
10
-1.9950399779393
20
21.8252773458651
30
0
41
1
10
-1.99503997793928
20
21.8251671028095
30
0
0
SPLINE
5
DF
100
AcDbEntity
8
SK1
62
256
6
ByLayer
370
-1
48
1
60
0
100
AcDbSpline
70
4
71
3
72
115
73
111
40
0
40
0
40
0
40
0
40
0.0065652247023795
40
0.015109392384923
40
0.0236535600674665
40
0.03219772775001
40
0.0407418954325535
40
0.049286063115097
40
0.0578302307976405
40
0.066374398480184
40
0.083462733845271
40
0.100551069210358
40
0.117639404575445
40
0.126183572257989
40
0.134727739940532
40
0.143271907623076
40
0.151816075305619
40
0.168904410670706
40
0.17744857835325
40
0.185992746035793
40
0.194536913718337
40
0.20308108140088
40
0.211625249083424
40
0.220169416765967
40
0.237257752131054
40
0.245801919813598
40
0.254346087496141
40
0.262890255178684
40
0.271434422861228
40
0.279978590543772
40
0.288522758226315
40
0.297066925908859
40
0.305611093591402
40
0.314155261273945
40
0.322699428956489
40
0.331243596639033
40
0.339787764321576
40
0.348331932004119
40
0.356876099686663
40
0.37396443505175
40
0.382508602734293
40
0.391052770416837
40
0.395324854258109
40
0.399596938099381
40
0.408141105781924
40
0.425229441147011
40
0.433773608829554
40
0.442317776512098
40
0.450861944194641
40
0.459406111877185
40
0.476494447242272
40
0.485038614924815
40
0.493582782607359
40
0.497854866448631
40
0.502126950289902
40
0.510671117972446
40
0.527759453337533
40
0.536303621020076
40
0.54484778870262
40
0.553391956385163
40
0.561936124067707
40
0.579024459432794
40
0.587568627115337
40
0.596112794797881
40
0.600384878639153
40
0.604656962480424
40
0.613201130162968
40
0.621745297845511
40
0.630289465528055
40
0.634561549369327
40
0.638833633210598
40
0.647377800893142
40
0.655921968575685
40
0.664466136258229
40
0.673010303940772
40
0.681554471623316
40
0.690098639305859
40
0.698642806988403
40
0.707186974670946
40
0.71573114235349
40
0.724275310036033
40
0.732819477718577
40
0.74136364540112
40
0.749907813083664
40
0.758451980766207
40
0.766996148448751
40
0.784084483813838
40
0.792628651496381
40
0.801172819178925
40
0.809716986861468
40
0.818261154544012
40
0.826805322226555
40
0.835349489909099
40
0.843893657591642
40
0.852437825274186
40
0.869526160639273
40
0.88661449600436
40
0.903702831369447
40
0.91224699905199
40
0.920791166734534
40
0.929335334417077
40
0.937879502099621
40
0.946423669782164
40
0.954967837464708
40
0.963512005147251
40
0.972056172829795
40
0.980600340512338
40
0.989144508194882
40
0.997688675877425
40
1
40
1
40
1
40
1
41
1
10
-0.394976888875263
20
-21.8653790908409
30
0
41
1
10
-0.394976888875263
20
-21.8653285678162
30
0
41
1
10
-0.394976888875291
20
-21.8644673830606
30
0
41
1
10
-0.394976888875291
20
-21.8604737650697
30
0
41
1
10
-0.394976888875291
20
-21.8529598769268
30
0
41
1
10
-0.394976888875291
20
-21.8423149188875
30
0
41
1
10
-0.394976888875291
20
-21.8285907137819
30
0
41
1
10
-0.394976888875291
20
-21.8118377229246
30
0
41
1
10
-0.394976888875291
20
-21.7921034347989
30
0
41
1
10
-0.394976888875291
20
-21.7618666429643
30
0
41
1
10
-0.394976888875291
20
-21.7168668922192
30
0
41
1
10
-0.394976888875291
20
-21.651618462036
30
0
41
1
10
-0.394976888875291
20
-21.5881524120742
30
0
41
1
10
-0.394976888875291
20
-21.5320229149808
30
0
41
1
10
-0.394976888875291
20
-21.4873092663299
30
0
41
1
10
-0.394976888875291
20
-21.4399968711307
30
0
41
1
10
-0.394976888875291
20
-21.3734709387681
30
0
41
1
10
-0.394976888875291
20
-21.3019320664004
30
0
41
1
10
-0.394976888875291
20
-21.2253664719936
30
0
41
1
10
-0.394976888875291
20
-21.1655031445011
30
0
41
1
10
-0.394976888875291
20
-21.1032108723211
30
0
41
1
10
-0.394976888875291
20
-21.038514297088
30
0
41
1
10
-0.394976888875291
20
-20.9714364994015
30
0
41
1
10
-0.394976888875291
20
-20.8788308563806
30
0
41
1
10
-0.394976888875291
20
-20.7816354627076
30
0
41
1
10
-0.394976888875291
20
-20.6797749496461
30
0
41
1
10
-0.394976888875291
20
-20.6011280536546
30
0
41
1
10
-0.394976888875291
20
-20.5202292190253
30
0
41
1
10
-0.394976888875291
20
-20.4370981008412
30
0
41
1
10
-0.394976888875291
20
-20.3517517634561
30
0
41
1
10
-0.394976888875291
20
-20.2642094206366
30
0
41
1
10
-0.394976888875291
20
-20.1744885542463
30
0
41
1
10
-0.394976888875291
20
-20.082604770276
30
0
41
1
10
-0.394976888875291
20
-19.9885758834751
30
0
41
1
10
-0.394976888875291
20
-19.8924175863555
30
0
41
1
10
-0.394976888875291
20
-19.79414426657
30
0
41
1
10
-0.394976888875291
20
-19.6937723311917
30
0
41
1
10
-0.394976888875291
20
-19.5913158900225
30
0
41
1
10
-0.394976888875291
20
-19.4519091739392
30
0
41
1
10
-0.394976888875291
20
-19.308501644014
30
0
41
1
10
-0.394976888875291
20
-19.160920630363
30
0
41
1
10
-0.394976888875291
20
-19.0670441229991
30
0
41
1
10
-0.394976888875291
20
-18.9909051568102
30
0
41
1
10
-0.394976888875291
20
-18.9140993494365
30
0
41
1
10
-0.394976888875291
20
-18.777958735224
30
0
41
1
10
-0.394976888875291
20
-18.6185131846482
30
0
41
1
10
-0.394976888875291
20
-18.4550236113311
30
0
41
1
10
-0.394976888875291
20
-18.330489335967
30
0
41
1
10
-0.394976888875291
20
-18.2040166079408
30
0
41
1
10
-0.394976888875291
20
-18.0327705937831
30
0
41
1
10
-0.394976888875291
20
-17.8578219077773
30
0
41
1
10
-0.394976888875291
20
-17.6789387292296
30
0
41
1
10
-0.394976888875291
20
-17.5656125946474
30
0
41
1
10
-0.394976888875291
20
-17.4739690253912
30
0
41
1
10
-0.394976888875291
20
-17.3816993239948
30
0
41
1
10
-0.394976888875291
20
-17.2186048360495
30
0
41
1
10
-0.394976888875291
20
-17.0286078387926
30
0
41
1
10
-0.394976888875291
20
-16.8347647509306
30
0
41
1
10
-0.394976888875291
20
-16.6875786248762
30
0
41
1
10
-0.394976888875291
20
-16.5385587049943
30
0
41
1
10
-0.394976888875291
20
-16.3373774066279
30
0
41
1
10
-0.394976888875291
20
-16.1327150774874
30
0
41
1
10
-0.394976888875291
20
-15.9242804112408
30
0
41
1
10
-0.394976888875291
20
-15.7925696820839
30
0
41
1
10
-0.394976888875291
20
-15.6862549949744
30
0
41
1
10
-0.394976888875291
20
-15.5793432837569
30
0
41
1
10
-0.394976888875291
20
-15.4446487492657
30
0
41
1
10
-0.394976888875291
20
-15.2812010193763
30
0
41
1
10
-0.394976888875291
20
-15.1435436982815
30
0
41
1
10
-0.394976888875291
20
-15.0324801920763
30
0
41
1
10
-0.394976888875291
20
-14.9208273816877
30
0
41
1
10
-0.394976888875291
20
-14.7802248596231
30
0
41
1
10
-0.394976888875291
20
-14.6097059483473
30
0
41
1
10
-0.394976888875291
20
-14.4374320816019
30
0
41
1
10
-0.394976888875291
20
-14.2634095816694
30
0
41
1
10
-0.394976888875291
20
-14.0876420714538
30
0
41
1
10
-0.394976888875291
20
-13.9101338497815
30
0
41
1
10
-0.394976888875291
20
-13.7308904366346
30
0
41
1
10
-0.394976888875291
20
-13.549915145406
30
0
41
1
10
-0.394976888875291
20
-13.3672125481811
30
0
41
1
10
-0.394976888875291
20
-13.182787463215
30
0
41
1
10
-0.394976888875291
20
-12.9966426140257
30
0
41
1
10
-0.394976888875291
20
-12.8087826212334
30
0
41
1
10
-0.394976888875291
20
-12.6192114742801
30
0
41
1
10
-0.394976888875291
20
-12.4279318017785
30
0
41
1
10
-0.394976888875291
20
-12.1705475891153
30
0
41
1
10
-0.394976888875291
20
-11.9099848332047
30
0
41
1
10
-0.394976888875291
20
-11.6458042855523
30
0
41
1
10
-0.394976888875291
20
-11.4460361066677
30
0
41
1
10
-0.394976888875291
20
-11.2445799083311
30
0
41
1
10
-0.394976888875291
20
-11.0414389105764
30
0
41
1
10
-0.394976888875291
20
-10.8366153761928
30
0
41
1
10
-0.394976888875291
20
-10.630113157504
30
0
41
1
10
-0.394976888875291
20
-10.4219344610486
30
0
41
1
10
-0.394976888875291
20
-10.1420454829465
30
0
41
1
10
-0.394976888875291
20
-9.78821091215369
30
0
41
1
10
-0.394976888875291
20
-9.3568391135907
30
0
41
1
10
-0.394976888875291
20
-8.99192950801697
30
0
41
1
10
-0.394976888875291
20
-8.69651812098675
30
0
41
1
10
-0.394976888875291
20
-8.47338949471808
30
0
41
1
10
-0.394976888875291
20
-8.24861627222975
30
0
41
1
10
-0.394976888875291
20
-8.0222029406992
30
0
41
1
10
-0.394976888875291
20
-7.79415362199521
30
0
41
1
10
-0.394976888875291
20
-7.56447255210355
30
0
41
1
10
-0.394976888875291
20
-7.33316516004027
30
0
41
1
10
-0.394976888875291
20
-7.10023725398264
30
0
41
1
10
-0.394976888875291
20
-6.86569504295815
30
0
41
1
10
-0.394976888875291
20
-6.62954558311137
30
0
41
1
10
-0.394976888875291
20
-6.44960786563362
30
0
41
1
10
-0.394976888875291
20
-6.34849183540922
30
0
41
1
10
-0.394976888875291
20
-6.32694309067119
30
0
0
SPLINE
5
E0
100
AcDbEntity
8
SK1
62
256
6
ByLayer
370
-1
48
1
60
0
100
AcDbSpline
70
4
71
3
72
111
73
107
40
0
40
0
40
0
40
0
40
0.00231136417794
40
0.0108556433221967
40
0.0193999224664535
40
0.0279442016107103
40
0.0364884807549671
40
0.0450327598992238
40
0.0535770390434806
40
0.0621213181877374
40
0.0706655973319942
40
0.079209876476251
40
0.0877541556205077
40
0.0962984347647645
40
0.113386993053278
40
0.130475551341792
40
0.147564109630305
40
0.156108388774562
40
0.164652667918819
40
0.173196947063076
40
0.181741226207332
40
0.190285505351589
40
0.198829784495846
40
0.207374063640103
40
0.215918342784359
40
0.233006901072873
40
0.24155118021713
40
0.250095459361387
40
0.258639738505643
40
0.2671840176499
40
0.275728296794157
40
0.284272575938414
40
0.29281685508267
40
0.301361134226927
40
0.309905413371184
40
0.318449692515441
40
0.326993971659698
40
0.335538250803954
40
0.352626809092468
40
0.361171088236725
40
0.369715367380981
40
0.386803925669495
40
0.395348204813752
40
0.403892483958008
40
0.412436763102265
40
0.420981042246522
40
0.438069600535036
40
0.446613879679292
40
0.455158158823549
40
0.463702437967806
40
0.472246717112063
40
0.489335275400576
40
0.497879554544833
40
0.50642383368909
40
0.514968112833347
40
0.523512391977603
40
0.540600950266117
40
0.549145229410374
40
0.557689508554631
40
0.566233787698887
40
0.574778066843144
40
0.591866625131658
40
0.600410904275914
40
0.608955183420171
40
0.617499462564428
40
0.626043741708685
40
0.643132299997198
40
0.651676579141455
40
0.660220858285712
40
0.668765137429969
40
0.677309416574225
40
0.685853695718482
40
0.694397974862739
40
0.702942254006996
40
0.711486533151253
40
0.720030812295509
40
0.728575091439766
40
0.737119370584023
40
0.74566364972828
40
0.754207928872536
40
0.762752208016793
40
0.779840766305307
40
0.788385045449564
40
0.79692932459382
40
0.805473603738077
40
0.814017882882334
40
0.822562162026591
40
0.831106441170847
40
0.848194999459361
40
0.856739278603618
40
0.865283557747874
40
0.873827836892131
40
0.882372116036388
40
0.899460674324902
40
0.908004953469158
40
0.916549232613415
40
0.925093511757672
40
0.933637790901929
40
0.942182070046186
40
0.950726349190442
40
0.959270628334699
40
0.967814907478956
40
0.976359186623213
40
0.984903465767469
40
0.993447744911726
40
1
40
1
40
1
40
1
41
1
10
-0.394976888875291
20
6.32694279392976
30
0
41
1
10
-0.394976888875291
20
6.3484916311391
30
0
41
1
10
-0.394976888875291
20
6.44960775400912
30
0
41
1
10
-0.394976888875291
20
6.62954555948869
30
0
41
1
10
-0.394976888875291
20
6.8656950488801
30
0
41
1
10
-0.394976888875291
20
7.10023740586411
30
0
41
1
10
-0.394976888875291
20
7.33316546385933
30
0
41
1
10
-0.394976888875291
20
7.56447269448574
30
0
41
1
10
-0.394976888875291
20
7.79415340272945
30
0
41
1
10
-0.394976888875291
20
8.02220293401996
30
0
41
1
10
-0.394976888875291
20
8.24861635560848
30
0
41
1
10
-0.394976888875291
20
8.47338951886385
30
0
41
1
10
-0.394976888875291
20
8.69651811258549
30
0
41
1
10
-0.394976888875291
20
8.99192948127941
30
0
41
1
10
-0.394976888875291
20
9.35683912175983
30
0
41
1
10
-0.394976888875291
20
9.78821091217483
30
0
41
1
10
-0.394976888875291
20
10.142045462177
30
0
41
1
10
-0.394976888875291
20
10.4219344727077
30
0
41
1
10
-0.394976888875291
20
10.6301131683678
30
0
41
1
10
-0.394976888875291
20
10.8366153667066
30
0
41
1
10
-0.394976888875291
20
11.0414388905992
30
0
41
1
10
-0.394976888875291
20
11.2445799004538
30
0
41
1
10
-0.394976888875291
20
11.4460361162834
30
0
41
1
10
-0.394976888875291
20
11.6458042976885
30
0
41
1
10
-0.394976888875291
20
11.9099848253352
30
0
41
1
10
-0.394976888875291
20
12.1705475695385
30
0
41
1
10
-0.394976888875291
20
12.4279318067111
30
0
41
1
10
-0.394976888875291
20
12.6192114874981
30
0
41
1
10
-0.394976888875291
20
12.8087826250924
30
0
41
1
10
-0.394976888875291
20
12.9966426041155
30
0
41
1
10
-0.394976888875291
20
13.182787448996
30
0
41
1
10
-0.394976888875291
20
13.3672125455487
30
0
41
1
10
-0.394976888875291
20
13.5499151547097
30
0
41
1
10
-0.394976888875291
20
13.7308904478326
30
0
41
1
10
-0.394976888875291
20
13.910133867705
30
0
41
1
10
-0.394976888875291
20
14.0876421688895
30
0
41
1
10
-0.394976888875291
20
14.2634098807097
30
0
41
1
10
-0.394976888875291
20
14.4955025482493
30
0
41
1
10
-0.394976888875291
20
14.7239127068147
30
0
41
1
10
-0.394976888875291
20
14.9489833053404
30
0
41
1
10
-0.394976888875291
20
15.171701411915
30
0
41
1
10
-0.394976888875291
20
15.3907043201103
30
0
41
1
10
-0.394976888875291
20
15.6063159613101
30
0
41
1
10
-0.394976888875291
20
15.7661946363952
30
0
41
1
10
-0.394976888875291
20
15.9242799594928
30
0
41
1
10
-0.394976888875291
20
16.1327154012234
30
0
41
1
10
-0.394976888875291
20
16.3373780173449
30
0
41
1
10
-0.394976888875291
20
16.5385587125243
30
0
41
1
10
-0.394976888875291
20
16.6875782011067
30
0
41
1
10
-0.394976888875291
20
16.8347642769002
30
0
41
1
10
-0.394976888875291
20
17.0286080073569
30
0
41
1
10
-0.394976888875291
20
17.2186059445175
30
0
41
1
10
-0.394976888875291
20
17.4050188999402
30
0
41
1
10
-0.394976888875291
20
17.5429190217058
30
0
41
1
10
-0.394976888875291
20
17.6789377757623
30
0
41
1
10
-0.394976888875291
20
17.8578220601067
30
0
41
1
10
-0.394976888875291
20
18.0327708145484
30
0
41
1
10
-0.394976888875291
20
18.2040166330947
30
0
41
1
10
-0.394976888875291
20
18.3304892054167
30
0
41
1
10
-0.394976888875291
20
18.4550234389153
30
0
41
1
10
-0.394976888875291
20
18.6185132745736
30
0
41
1
10
-0.394976888875291
20
18.7779598884918
30
0
41
1
10
-0.394976888875291
20
18.933565131357
30
0
41
1
10
-0.394976888875291
20
19.048244884465
30
0
41
1
10
-0.394976888875291
20
19.1609196079758
30
0
41
1
10
-0.394976888875291
20
19.3085018143331
30
0
41
1
10
-0.394976888875291
20
19.4519098709686
30
0
41
1
10
-0.394976888875291
20
19.5913159811741
30
0
41
1
10
-0.394976888875291
20
19.6937719762305
30
0
41
1
10
-0.394976888875291
20
19.7941438028822
30
0
41
1
10
-0.394976888875291
20
19.8924174211231
30
0
41
1
10
-0.394976888875291
20
19.988575861591
30
0
41
1
10
-0.394976888875291
20
20.082604778142
30
0
41
1
10
-0.394976888875291
20
20.1744885559187
30
0
41
1
10
-0.394976888875291
20
20.264209431984
30
0
41
1
10
-0.394976888875291
20
20.3517517880635
30
0
41
1
10
-0.394976888875291
20
20.437098129367
30
0
41
1
10
-0.394976888875291
20
20.5202292348052
30
0
41
1
10
-0.394976888875291
20
20.6011280559991
30
0
41
1
10
-0.394976888875291
20
20.6797749513881
30
0
41
1
10
-0.394976888875291
20
20.781635486227
30
0
41
1
10
-0.394976888875291
20
20.8788308931333
30
0
41
1
10
-0.394976888875291
20
20.9714365096391
30
0
41
1
10
-0.394976888875291
20
21.0385142950144
30
0
41
1
10
-0.394976888875291
20
21.1032108820957
30
0
41
1
10
-0.394976888875291
20
21.1655031751743
30
0
41
1
10
-0.394976888875291
20
21.2253665102307
30
0
41
1
10
-0.394976888875291
20
21.301932078811
30
0
41
1
10
-0.394976888875291
20
21.3734709318986
30
0
41
1
10
-0.394976888875291
20
21.4399968999807
30
0
41
1
10
-0.394976888875291
20
21.4873093096751
30
0
41
1
10
-0.394976888875291
20
21.5320229383892
30
0
41
1
10
-0.394976888875291
20
21.5881524005931
30
0
41
1
10
-0.394976888875291
20
21.6389063892513
30
0
41
1
10
-0.394976888875291
20
21.6842420425293
30
0
41
1
10
-0.394976888875291
20
21.7154617242468
30
0
41
1
10
-0.394976888875291
20
21.7438726893518
30
0
41
1
10
-0.394976888875291
20
21.7694337460976
30
0
41
1
10
-0.394976888875291
20
21.7921034780961
30
0
41
1
10
-0.394976888875291
20
21.8118377637545
30
0
41
1
10
-0.394976888875291
20
21.8285907189997
30
0
41
1
10
-0.394976888875291
20
21.8423149132633
30
0
41
1
10
-0.394976888875291
20
21.8529599173647
30
0
41
1
10
-0.394976888875291
20
21.8604739519412
30
0
41
1
10
-0.394976888875291
20
21.8644655171007
30
0
41
1
10
-0.394976888875291
20
21.8653271897383
30
0
41
1
10
-0.394976888875291
20
21.8653787936742
30
0
0
SPLINE
5
E1
100
AcDbEntity
8
SK1
62
256
6
ByLayer
370
-1
48
1
60
0
100
AcDbSpline
70
4
71
3
72
299
73
295
40
0
40
0
40
0
40
0
40
0.0029465688214742
40
0.0064716431157908
40
0.0099967174101075
40
0.0135217917044241
40
0.0170468659987407
40
0.0205719402930573
40
0.0240970145873739
40
0.0276220888816905
40
0.0346722374703237
40
0.0417223860589569
40
0.0487725346475901
40
0.0522976089419068
40
0.0558226832362234
40
0.05934775753054
40
0.0628728318248566
40
0.0699229804134898
40
0.0734480547078065
40
0.076973129002123
40
0.0804982032964396
40
0.0840232775907562
40
0.0875483518850729
40
0.0910734261793895
40
0.0981235747680227
40
0.101648649062339
40
0.105173723356656
40
0.108698797650972
40
0.112223871945289
40
0.115748946239606
40
0.119274020533922
40
0.122799094828239
40
0.126324169122556
40
0.129849243416872
40
0.133374317711189
40
0.136899392005505
40
0.140424466299822
40
0.143949540594139
40
0.147474614888455
40
0.154524763477088
40
0.158049837771405
40
0.161574912065722
40
0.16333744921288
40
0.165099986360038
40
0.168625060654355
40
0.175675209242988
40
0.179200283537305
40
0.182725357831621
40
0.186250432125938
40
0.189775506420255
40
0.196825655008888
40
0.200350729303204
40
0.203875803597521
40
0.205638340744679
40
0.207400877891838
40
0.210925952186154
40
0.217976100774787
40
0.221501175069104
40
0.225026249363421
40
0.228551323657737
40
0.232076397952054
40
0.239126546540687
40
0.242651620835004
40
0.24617669512932
40
0.247939232276479
40
0.249701769423637
40
0.253226843717954
40
0.25675191801227
40
0.260276992306587
40
0.262039529453745
40
0.263802066600903
40
0.26732714089522
40
0.270852215189537
40
0.274377289483853
40
0.27790236377817
40
0.281427438072486
40
0.284952512366803
40
0.28847758666112
40
0.292002660955436
40
0.295527735249753
40
0.299052809544069
40
0.302577883838386
40
0.306102958132703
40
0.309628032427019
40
0.313153106721336
40
0.316678181015652
40
0.323728329604286
40
0.327253403898602
40
0.330778478192919
40
0.334303552487236
40
0.337828626781552
40
0.341353701075869
40
0.344878775370185
40
0.348403849664502
40
0.351928923958819
40
0.358979072547452
40
0.366029221136085
40
0.373079369724718
40
0.376604444019035
40
0.380129518313352
40
0.383654592607668
40
0.387179666901985
40
0.390704741196301
40
0.394229815490618
40
0.397754889784935
40
0.401279964079251
40
0.404805038373568
40
0.408330112667884
40
0.411855186962201
40
0.415380261256518
40
0.418905335550834
40
0.422430409845151
40
0.425955484139468
40
0.429480558433784
40
0.433005632728101
40
0.434768169875259
40
0.436530707022417
40
0.438293244169576
40
0.440055781316734
40
0.443580855611051
40
0.447105929905367
40
0.448868467052525
40
0.450631004199684
40
0.452393541346842
40
0.454156078494
40
0.457681152788317
40
0.459443689935475
40
0.461206227082634
40
0.462968764229792
40
0.46473130137695
40
0.466493838524108
40
0.468256375671267
40
0.470018912818425
40
0.471781449965584
40
0.473543987112742
40
0.4753065242599
40
0.477069061407058
40
0.478831598554217
40
0.480594135701375
40
0.482356672848533
40
0.484119209995692
40
0.48588174714285
40
0.487644284290008
40
0.489406821437167
40
0.491169358584325
40
0.492931895731483
40
0.494694432878641
40
0.4964569700258
40
0.498219507172958
40
0.499982044320116
40
0.501744581467275
40
0.503507118614433
40
0.505269655761591
40
0.50703219290875
40
0.508794730055908
40
0.510557267203066
40
0.512319804350225
40
0.514082341497383
40
0.515844878644541
40
0.517607415791699
40
0.519369952938858
40
0.521132490086016
40
0.522895027233174
40
0.524657564380333
40
0.526420101527491
40
0.528182638674649
40
0.529945175821807
40
0.531707712968966
40
0.533470250116124
40
0.535232787263282
40
0.536995324410441
40
0.538757861557599
40
0.540520398704757
40
0.542282935851916
40
0.545808010146232
40
0.547570547293391
40
0.549333084440549
40
0.551095621587707
40
0.552858158734865
40
0.556383233029182
40
0.559908307323499
40
0.561670844470657
40
0.563433381617815
40
0.565195918764974
40
0.566958455912132
40
0.570483530206448
40
0.574008604500765
40
0.577533678795082
40
0.581058753089398
40
0.584583827383715
40
0.588108901678032
40
0.591633975972348
40
0.595159050266665
40
0.598684124560981
40
0.602209198855298
40
0.605734273149615
40
0.609259347443931
40
0.612784421738248
40
0.616309496032564
40
0.619834570326881
40
0.623359644621198
40
0.626884718915514
40
0.633934867504147
40
0.640985016092781
40
0.648035164681414
40
0.65156023897573
40
0.655085313270047
40
0.658610387564364
40
0.66213546185868
40
0.665660536152997
40
0.669185610447314
40
0.67271068474163
40
0.676235759035947
40
0.68328590762458
40
0.686810981918897
40
0.690336056213213
40
0.69386113050753
40
0.697386204801846
40
0.700911279096163
40
0.70443635339048
40
0.707961427684796
40
0.711486501979113
40
0.715011576273429
40
0.718536650567746
40
0.722061724862063
40
0.725586799156379
40
0.732636947745013
40
0.736162022039329
40
0.739687096333646
40
0.746737244922279
40
0.750262319216596
40
0.753787393510912
40
0.757312467805229
40
0.760837542099546
40
0.767887690688179
40
0.771412764982495
40
0.774937839276812
40
0.778462913571129
40
0.781987987865445
40
0.789038136454078
40
0.792563210748395
40
0.796088285042712
40
0.799613359337028
40
0.803138433631345
40
0.810188582219978
40
0.813713656514295
40
0.817238730808611
40
0.820763805102928
40
0.824288879397244
40
0.831339027985878
40
0.834864102280194
40
0.838389176574511
40
0.841914250868827
40
0.845439325163144
40
0.852489473751777
40
0.856014548046094
40
0.859539622340411
40
0.863064696634727
40
0.866589770929044
40
0.87011484522336
40
0.873639919517677
40
0.877164993811994
40
0.88069006810631
40
0.884215142400627
40
0.887740216694943
40
0.89126529098926
40
0.894790365283577
40
0.898315439577893
40
0.90184051387221
40
0.908890662460843
40
0.91241573675516
40
0.915940811049476
40
0.919465885343793
40
0.92299095963811
40
0.926516033932426
40
0.930041108226743
40
0.937091256815376
40
0.940616331109693
40
0.944141405404009
40
0.947666479698326
40
0.951191553992643
40
0.958241702581276
40
0.961766776875592
40
0.965291851169909
40
0.968816925464225
40
0.972341999758542
40
0.975867074052859
40
0.979392148347175
40
0.982917222641492
40
0.986442296935808
40
0.989967371230125
40
0.993492445524442
40
0.997017519818758
40
1
40
1
40
1
40
1
41
1
10
-38
20
-20.2923486545712
30
0
41
1
10
-38
20
-20.2923547799844
30
0
41
1
10
-38
20
-20.2915865418939
30
0
41
1
10
-38
20
-20.2877827415225
30
0
41
1
10
-38
20
-20.2807871950942
30
0
41
1
10
-38
20
-20.270864225278
30
0
41
1
10
-38
20
-20.2580557575388
30
0
41
1
10
-38
20
-20.2424031034125
30
0
41
1
10
-38
20
-20.2239454925533
30
0
41
1
10
-38
20
-20.19551262204
30
0
41
1
10
-38
20
-20.153458157969
30
0
41
1
10
-38
20
-20.0921783324266
30
0
41
1
10
-38
20
-20.0326760120608
30
0
41
1
10
-38
20
-19.9796195423852
30
0
41
1
10
-38
20
-19.9374871337363
30
0
41
1
10
-38
20
-19.8928775037255
30
0
41
1
10
-38
20
-19.8298739849263
30
0
41
1
10
-38
20
-19.7628242930463
30
0
41
1
10
-38
20
-19.6902080345968
30
0
41
1
10
-38
20
-19.6336084813315
30
0
41
1
10
-38
20
-19.5746836513967
30
0
41
1
10
-38
20
-19.5134574775013
30
0
41
1
10
-38
20
-19.4499498796239
30
0
41
1
10
-38
20
-19.361926580552
30
0
41
1
10
-38
20
-19.2704514952516
30
0
41
1
10
-38
20
-19.1735363516591
30
0
41
1
10
-38
20
-19.0989364266239
30
0
41
1
10
-38
20
-19.0221745884206
30
0
41
1
10
-38
20
-18.9432715601189
30
0
41
1
10
-38
20
-18.8622425921487
30
0
41
1
10
-38
20
-18.7791047356355
30
0
41
1
10
-38
20
-18.6938772447032
30
0
41
1
10
-38
20
-18.6065734364562
30
0
41
1
10
-38
20
-18.5172096781029
30
0
41
1
10
-38
20
-18.4258037757915
30
0
41
1
10
-38
20
-18.3323676597213
30
0
41
1
10
-38
20
-18.236917040573
30
0
41
1
10
-38
20
-18.1394682315479
30
0
41
1
10
-38
20
-18.006423045464
30
0
41
1
10
-38
20
-17.870842154793
30
0
41
1
10
-38
20
-17.7299440627733
30
0
41
1
10
-38
20
-17.6408187485726
30
0
41
1
10
-38
20
-17.5681131617785
30
0
41
1
10
-38
20
-17.4947669133713
30
0
41
1
10
-38
20
-17.3649201654158
30
0
41
1
10
-38
20
-17.2140632768009
30
0
41
1
10
-38
20
-17.0578935907134
30
0
41
1
10
-38
20
-16.9392992293059
30
0
41
1
10
-38
20
-16.8188549914818
30
0
41
1
10
-38
20
-16.6552510003021
30
0
41
1
10
-38
20
-16.489672496603
30
0
41
1
10
-38
20
-16.3187666825072
30
0
41
1
10
-38
20
-16.2111031772939
30
0
41
1
10
-38
20
-16.1235473577608
30
0
41
1
10
-38
20
-16.0353949417433
30
0
41
1
10
-38
20
-15.8797855584285
30
0
41
1
10
-38
20
-15.6999813794666
30
0
41
1
10
-38
20
-15.5148116907138
30
0
41
1
10
-38
20
-15.3746600384839
30
0
41
1
10
-38
20
-15.2327750536327
30
0
41
1
10
-38
20
-15.0406360987563
30
0
41
1
10
-38
20
-14.8470518249568
30
0
41
1
10
-38
20
-14.6480433816337
30
0
41
1
10
-38
20
-14.5230237603812
30
0
41
1
10
-38
20
-14.4215395322791
30
0
41
1
10
-38
20
-14.319494446119
30
0
41
1
10
-38
20
-14.1916826014269
30
0
41
1
10
-38
20
-14.0362107113462
30
0
41
1
10
-38
20
-13.905633632864
30
0
41
1
10
-38
20
-13.7996824703933
30
0
41
1
10
-38
20
-13.6931799140641
30
0
41
1
10
-38
20
-13.5598675642285
30
0
41
1
10
-38
20
-13.3977994204325
30
0
41
1
10
-38
20
-13.2340971553998
30
0
41
1
10
-38
20
-13.0687736820565
30
0
41
1
10
-38
20
-12.9018380893652
30
0
41
1
10
-38
20
-12.7332922951509
30
0
41
1
10
-38
20
-12.5631480531082
30
0
41
1
10
-38
20
-12.3914123687224
30
0
41
1
10
-38
20
-12.2180896154105
30
0
41
1
10
-38
20
-12.0431930727568
30
0
41
1
10
-38
20
-11.8667275879997
30
0
41
1
10
-38
20
-11.6886992220563
30
0
41
1
10
-38
20
-11.5091211559413
30
0
41
1
10
-38
20
-11.3279971676986
30
0
41
1
10
-38
20
-11.0835274575533
30
0
41
1
10
-38
20
-10.8388445996823
30
0
41
1
10
-38
20
-10.5882272221232
30
0
41
1
10
-38
20
-10.3995106478125
30
0
41
1
10
-38
20
-10.2093006505112
30
0
41
1
10
-38
20
-10.0176111741013
30
0
41
1
10
-38
20
-9.82444825814403
30
0
41
1
10
-38
20
-9.62982433363783
30
0
41
1
10
-38
20
-9.43375032895256
30
0
41
1
10
-38
20
-9.16930024978845
30
0
41
1
10
-38
20
-8.83774034996793
30
0
41
1
10
-38
20
-8.43283016067576
30
0
41
1
10
-38
20
-8.09202302704495
30
0
41
1
10
-38
20
-7.81440668711983
30
0
41
1
10
-38
20
-7.60585888080686
30
0
41
1
10
-38
20
-7.39600299493051
30
0
41
1
10
-38
20
-7.18486050853949
30
0
41
1
10
-38
20
-6.972454820743
30
0
41
1
10
-38
20
-6.75880464755275
30
0
41
1
10
-38
20
-6.54393387937549
30
0
41
1
10
-38
20
-6.32787102064523
30
0
41
1
10
-38
20
-6.11064460524278
30
0
41
1
10
-38
20
-5.89228682406826
30
0
41
1
10
-38
20
-5.67283049766698
30
0
41
1
10
-38
20
-5.45231041402207
30
0
41
1
10
-38
20
-5.2307661198837
30
0
41
1
10
-38
20
-5.00824236668089
30
0
41
1
10
-38
20
-4.78478453894905
30
0
41
1
10
-38
20
-4.56044477194348
30
0
41
1
10
-38
20
-4.3737593142329
30
0
41
1
10
-38
20
-4.22222174308928
30
0
41
1
10
-38
20
-4.10916467830538
30
0
41
1
10
-38
20
-3.99593123757285
30
0
41
1
10
-38
20
-3.84368490764803
30
0
41
1
10
-38
20
-3.65544484289478
30
0
41
1
10
-38
20
-3.46668355973628
30
0
41
1
10
-38
20
-3.31336520651504
30
0
41
1
10
-38
20
-3.19916977025284
30
0
41
1
10
-38
20
-3.0848771849204
30
0
41
1
10
-38
20
-2.93116533478539
30
0
41
1
10
-38
20
-2.7810630459212
30
0
41
1
10
-38
20
-2.62697343511894
30
0
41
1
10
-38
20
-2.51237687493429
30
0
41
1
10
-38
20
-2.39774974487253
30
0
41
1
10
-38
20
-2.28311555219403
30
0
41
1
10
-38
20
-2.16847618976473
30
0
41
1
10
-38
20
-2.05384840107453
30
0
41
1
10
-38
20
-1.93924458170406
30
0
41
1
10
-38
20
-1.82466899171223
30
0
41
1
10
-38
20
-1.71014121398446
30
0
41
1
10
-38
20
-1.59566009898879
30
0
41
1
10
-38
20
-1.48124309885608
30
0
41
1
10
-38
20
-1.36688883878045
30
0
41
1
10
-38
20
-1.25260906632701
30
0
41
1
10
-38
20
-1.13840321986405
30
0
41
1
10
-38
20
-1.02427614220741
30
0
41
1
10
-38
20
-0.910225811803912
30
0
41
1
10
-38
20
-0.796251800903974
30
0
41
1
10
-38
20
-0.682349388495624
30
0
41
1
10
-38
20
-0.568513483413511
30
0
41
1
10
-38
20
-0.454735475948979
30
0
41
1
10
-38
20
-0.341006791030111
30
0
41
1
10
-38
20
-0.227315919379521
30
0
41
1
10
-38
20
-0.113651444289076
30
0
41
1
10
-38
20
-2.39306814E-08
30
0
41
1
10
-38
20
0.113651428861147
30
0
41
1
10
-38
20
0.227315965161807
30
0
41
1
10
-38
20
0.341006831114754
30
0
41
1
10
-38
20
0.454735424962735
30
0
41
1
10
-38
20
0.568513412391525
30
0
41
1
10
-38
20
0.682349437337052
30
0
41
1
10
-38
20
0.796251898049235
30
0
41
1
10
-38
20
0.910225765592202
30
0
41
1
10
-38
20
1.02427601417025
30
0
41
1
10
-38
20
1.13840324907633
30
0
41
1
10
-38
20
1.25260921865757
30
0
41
1
10
-38
20
1.36688883944316
30
0
41
1
10
-38
20
1.48124293103632
30
0
41
1
10
-38
20
1.59566004663384
30
0
41
1
10
-38
20
1.71014137238996
30
0
41
1
10
-38
20
1.82466911261432
30
0
41
1
10
-38
20
1.93924446866484
30
0
41
1
10
-38
20
2.05384821372689
30
0
41
1
10
-38
20
2.1684762190329
30
0
41
1
10
-38
20
2.28311576323418
30
0
41
1
10
-38
20
2.39774983280105
30
0
41
1
10
-38
20
2.51237672316307
30
0
41
1
10
-38
20
2.62697323991799
30
0
41
1
10
-38
20
2.78106315146928
30
0
41
1
10
-38
20
2.93116552693385
30
0
41
1
10
-38
20
3.08487708212581
30
0
41
1
10
-38
20
3.19916954549007
30
0
41
1
10
-38
20
3.31336512600546
30
0
41
1
10
-38
20
3.46668375918677
30
0
41
1
10
-38
20
3.65544489425088
30
0
41
1
10
-38
20
3.84368470208372
30
0
41
1
10
-38
20
3.99593117493791
30
0
41
1
10
-38
20
4.10916481607396
30
0
41
1
10
-38
20
4.22222196867938
30
0
41
1
10
-38
20
4.37375933349006
30
0
41
1
10
-38
20
4.56044458630845
30
0
41
1
10
-38
20
4.78478457648492
30
0
41
1
10
-38
20
5.00824253816086
30
0
41
1
10
-38
20
5.23076600439052
30
0
41
1
10
-38
20
5.45231022599046
30
0
41
1
10
-38
20
5.67283041504652
30
0
41
1
10
-38
20
5.89228674128222
30
0
41
1
10
-38
20
6.11064496108523
30
0
41
1
10
-38
20
6.32787239667013
30
0
41
1
10
-38
20
6.54393525610644
30
0
41
1
10
-38
20
6.75880334040127
30
0
41
1
10
-38
20
6.97245311766207
30
0
41
1
10
-38
20
7.18486111103374
30
0
41
1
10
-38
20
7.39600347561742
30
0
41
1
10
-38
20
7.60585874971361
30
0
41
1
10
-38
20
7.8144064520111
30
0
41
1
10
-38
20
8.09202295752311
30
0
41
1
10
-38
20
8.43283023540656
30
0
41
1
10
-38
20
8.83774029355055
30
0
41
1
10
-38
20
9.16930023887323
30
0
41
1
10
-38
20
9.43375044009511
30
0
41
1
10
-38
20
9.62982432960192
30
0
41
1
10
-38
20
9.82444814962994
30
0
41
1
10
-38
20
10.0176111126089
30
0
41
1
10
-38
20
10.2093007057547
30
0
41
1
10
-38
20
10.3995107409486
30
0
41
1
10
-38
20
10.5882272324294
30
0
41
1
10
-38
20
10.8388445170812
30
0
41
1
10
-38
20
11.0835274377931
30
0
41
1
10
-38
20
11.327997250045
30
0
41
1
10
-38
20
11.5091211965041
30
0
41
1
10
-38
20
11.6886991809046
30
0
41
1
10
-38
20
11.8667275177687
30
0
41
1
10
-38
20
12.0431930522803
30
0
41
1
10
-38
20
12.2180896645831
30
0
41
1
10
-38
20
12.3914124247035
30
0
41
1
10
-38
20
12.5631480735019
30
0
41
1
10
-38
20
12.7332924196477
30
0
41
1
10
-38
20
12.9018387248249
30
0
41
1
10
-38
20
13.068774902876
30
0
41
1
10
-38
20
13.2899980003418
30
0
41
1
10
-38
20
13.5056406071554
30
0
41
1
10
-38
20
13.7202970548285
30
0
41
1
10
-38
20
13.9327572918622
30
0
41
1
10
-38
20
14.1397069500695
30
0
41
1
10
-38
20
14.3454836148157
30
0
41
1
10
-38
20
14.4976048095277
30
0
41
1
10
-38
20
14.6480433741443
30
0
41
1
10
-38
20
14.8470538575164
30
0
41
1
10
-38
20
15.0406366439893
30
0
41
1
10
-38
20
15.2327734637881
30
0
41
1
10
-38
20
15.3746583733236
30
0
41
1
10
-38
20
15.5148115582755
30
0
41
1
10
-38
20
15.6999837411247
30
0
41
1
10
-38
20
15.8797870255403
30
0
41
1
10
-38
20
16.0578801048401
30
0
41
1
10
-38
20
16.189216581434
30
0
41
1
10
-38
20
16.3187661779867
30
0
41
1
10
-38
20
16.4896741385663
30
0
41
1
10
-38
20
16.6552512602625
30
0
41
1
10
-38
20
16.8188545807649
30
0
41
1
10
-38
20
16.9392987318018
30
0
41
1
10
-38
20
17.0578934672827
30
0
41
1
10
-38
20
17.2140648101705
30
0
41
1
10
-38
20
17.3649216616153
30
0
41
1
10
-38
20
17.513530035822
30
0
41
1
10
-38
20
17.6226956365842
30
0
41
1
10
-38
20
17.7299433731025
30
0
41
1
10
-38
20
17.8708440004863
30
0
41
1
10
-38
20
18.0064238716364
30
0
41
1
10
-38
20
18.1394672902698
30
0
41
1
10
-38
20
18.236915915677
30
0
41
1
10
-38
20
18.3323672965474
30
0
41
1
10
-38
20
18.4258040962282
30
0
41
1
10
-38
20
18.517209887002
30
0
41
1
10
-38
20
18.6065734896479
30
0
41
1
10
-38
20
18.6938772522127
30
0
41
1
10
-38
20
18.7791047692188
30
0
41
1
10
-38
20
18.8622426359768
30
0
41
1
10
-38
20
18.9432715834756
30
0
41
1
10
-38
20
19.0221745805325
30
0
41
1
10
-38
20
19.0989364136873
30
0
41
1
10
-38
20
19.1735363647814
30
0
41
1
10
-38
20
19.2704515417461
30
0
41
1
10
-38
20
19.3619266112172
30
0
41
1
10
-38
20
19.4499498647732
30
0
41
1
10
-38
20
19.5134574724377
30
0
41
1
10
-38
20
19.5746836830748
30
0
41
1
10
-38
20
19.6336085328263
30
0
41
1
10
-38
20
19.6902080668946
30
0
41
1
10
-38
20
19.7628242842049
30
0
41
1
10
-38
20
19.829873984374
30
0
41
1
10
-38
20
19.8928775551026
30
0
41
1
10
-38
20
19.9374871757691
30
0
41
1
10
-38
20
19.9796195436674
30
0
41
1
10
-38
20
20.0326760063813
30
0
41
1
10
-38
20
20.0800381474625
30
0
41
1
10
-38
20
20.1228090027496
30
0
41
1
10
-38
20
20.1521177658612
30
0
41
1
10
-38
20
20.1787668505585
30
0
41
1
10
-38
20
20.2027210424566
30
0
41
1
10
-38
20
20.2239455432986
30
0
41
1
10
-38
20
20.2424031363825
30
0
41
1
10
-38
20
20.2580557552655
30
0
41
1
10
-38
20
20.2708642249464
30
0
41
1
10
-38
20
20.2807872561095
30
0
41
1
10
-38
20
20.2877829489451
30
0
41
1
10
-38
20
20.2916005313382
30
0
41
1
10
-38
20
20.2923633398884
30
0
41
1
10
-38
20
20.2923482494886
30
0
0
SPLINE
5
E2
100
AcDbEntity
8
SK1
62
256
6
ByLayer
370
-1
48
1
60
0
100
AcDbSpline
70
4
71
3
72
10
73
6
40
0
40
0
40
0
40
0
40
0.5
40
0.5
40
1
40
1
40
1
40
1
41
1
10
-1.30710678118655
20
-4.81101329740289
30
0
41
1
10
-1.57713284158248
20
-3.28321078789992
30
0
41
1
10
-1.79449339715802
20
-1.64680798700616
30
0
41
1
10
-1.79438545511842
20
1.6481258022005
30
0
41
1
10
-1.57704898370507
20
3.28368386467716
30
0
41
1
10
-1.30710678118665
20
4.81101321788435
30
0
0
SPLINE
5
E3
100
AcDbEntity
8
1
62
256
6
ByLayer
370
-1
48
1
60
0
100
AcDbSpline
70
4
71
3
72
14
73
10
40
0
40
0
40
0
40
0
40
0.284964196832648
40
0.284964196832648
40
0.572306425237643
40
0.572306425237643
40
0.832127738068823
40
0.832127738068823
40
1
40
1
40
1
40
1
41
1
10
55.5544917231165
20
-36.004440695481
30
0
41
1
10
55.5357674962892
20
-35.9714892788308
30
0
41
1
10
55.5222725262612
20
-35.9341932467794
30
0
41
1
10
55.5093578513305
20
-35.8561526882075
30
0
41
1
10
55.5099266073472
20
-35.8141593864607
30
0
41
1
10
55.5261733667776
20
-35.7368176910942
30
0
41
1
10
55.5407125751506
20
-35.7000632784316
30
0
41
1
10
55.5743421187702
20
-35.6459433694579
30
0
41
1
10
55.590229309329
20
-35.6258912931396
30
0
41
1
10
55.6080603012343
20
-35.6080603012343
30
0
0
SPLINE
5
E4
100
AcDbEntity
8
1
62
256
6
ByLayer
370
-1
48
1
60
0
100
AcDbSpline
70
4
71
3
72
10
73
6
40
0
40
0
40
0
40
0
40
0.541904960061475
40
0.541904960061475
40
1
40
1
40
1
40
1
41
1
10
58.5808788656392
20
-36.2565020221153
30
0
41
1
10
58.4943417027956
20
-36.2577028037053
30
0
41
1
10
58.4047764405605
20
-36.2451408654364
30
0
41
1
10
58.2442953779673
20
-36.1938162067917
30
0
41
1
10
58.1707255076201
20
-36.158567638123
30
0
41
1
10
58.1034254452049
20
-36.1125833634226
30
0
0
SPLINE
5
E5
100
AcDbEntity
8
1
62
256
6
ByLayer
370
-1
48
1
60
0
100
AcDbSpline
70
4
71
3
72
18
73
14
40
0
40
0
40
0
40
0
40
0.21306658289654
40
0.21306658289654
40
0.387148856106952
40
0.387148856106952
40
0.562939679009021
40
0.562939679009021
40
0.715629616728351
40
0.715629616728351
40
0.919159491961089
40
0.919159491961089
40
1
40
1
40
1
40
1
41
1
10
57.127775117706
20
-35.2494840684392
30
0
41
1
10
57.0850343802987
20
-35.3234782373365
30
0
41
1
10
57.0292004494242
20
-35.3932259108409
30
0
41
1
10
56.9067146950077
20
-35.5022914753822
30
0
41
1
10
56.8424024866395
20
-35.5459255783508
30
0
41
1
10
56.7021377183923
20
-35.6138380934965
30
0
41
1
10
56.62389600535
20
-35.6387214292768
30
0
41
1
10
56.4780221866071
20
-35.6626174071938
30
0
41
1
10
56.4086285636787
20
-35.6649904539683
30
0
41
1
10
56.2546512986198
20
-35.6518903944557
30
0
41
1
10
56.1699911012446
20
-35.6302831840414
30
0
41
1
10
56.062650347151
20
-35.5853217437283
30
0
41
1
10
56.0329340968875
20
-35.5706827390198
30
0
41
1
10
56.004440695481
20
-35.5544917231165
30
0
0
SPLINE
5
E6
100
AcDbEntity
8
SK1
62
256
6
ByLayer
370
-1
48
1
60
0
100
AcDbSpline
70
4
71
3
72
26
73
22
40
0
40
0
40
0
40
0
40
0.462420532187944
40
0.462420532187944
40
0.662465761698283
40
0.662465761698283
40
0.830433309169693
40
0.830433309169693
40
0.87601894963741
40
0.87601894963741
40
0.905535493032455
40
0.905535493032455
40
0.92577818311669
40
0.92577818311669
40
0.946307111163799
40
0.946307111163799
40
0.963675313617857
40
0.963675313617857
40
0.991859972782862
40
0.991859972782862
40
1
40
1
40
1
40
1
41
1
10
-0.199999999999989
20
7.05951749342083
30
0
41
1
10
-0.199999999999989
20
6.93273416480454
30
0
41
1
10
-0.203968014086527
20
6.80463429773329
30
0
41
1
10
-0.22322220630393
20
6.62063667774228
30
0
41
1
10
-0.230822389897881
20
6.56482953243432
30
0
41
1
10
-0.252035566714554
20
6.46316921019911
30
0
41
1
10
-0.263798801619998
20
6.41617607028249
30
0
41
1
10
-0.290531391619595
20
6.36108887379029
30
0
41
1
10
-0.297103000772424
20
6.34947181616241
30
0
41
1
10
-0.31031392876541
20
6.33213067856883
30
0
41
1
10
-0.316208846631113
20
6.32567949173321
30
0
41
1
10
-0.327595492701022
20
6.31681373578161
30
0
41
1
10
-0.332739264568531
20
6.31372817209197
30
0
41
1
10
-0.343644708736434
20
6.30958040401461
30
0
41
1
10
-0.349575964479982
20
6.30853210514005
30
0
41
1
10
-0.360183897281416
20
6.30881607347521
30
0
41
1
10
-0.365032052617437
20
6.30978620719449
30
0
41
1
10
-0.37692290916398
20
6.31387292952667
30
0
41
1
10
-0.383695246431145
20
6.3179475897727
30
0
41
1
10
-0.391564614808274
20
6.32402624429125
30
0
41
1
10
-0.393293161608796
20
6.32546009510432
30
0
41
1
10
-0.394976888875291
20
6.32694279392757
30
0
0
SPLINE
5
E7
100
AcDbEntity
8
SK1
62
256
6
ByLayer
370
-1
48
1
60
0
100
AcDbSpline
70
4
71
3
72
22
73
18
40
0
40
0
40
0
40
0
40
0.366862607601256
40
0.366862607601256
40
0.737339621375052
40
0.737339621375052
40
0.838459586400285
40
0.838459586400285
40
0.872990642836393
40
0.872990642836393
40
0.908114554314301
40
0.908114554314301
40
0.93841147631739
40
0.93841147631739
40
0.978567405872927
40
0.978567405872927
40
1
40
1
40
1
40
1
41
1
10
-1.30710678118655
20
-4.81101329740289
30
0
41
1
10
-1.26411319574365
20
-5.05427021725674
30
0
41
1
10
-1.2129192661193
20
-5.29463858107241
30
0
41
1
10
-1.0775163929171
20
-5.76447191425098
30
0
41
1
10
-0.999993942630866
20
-6.0024064332149
30
0
41
1
10
-0.818580317119483
20
-6.26150782359156
30
0
41
1
10
-0.772786229091963
20
-6.31609141287933
30
0
41
1
10
-0.69395817555143
20
-6.37002132562083
30
0
41
1
10
-0.671742895995564
20
-6.38213989760789
30
0
41
1
10
-0.624176343099663
20
-6.39933264200099
30
0
41
1
10
-0.598041368844491
20
-6.40433410743103
30
0
41
1
10
-0.55009587381268
20
-6.4042038836908
30
0
41
1
10
-0.527645089252005
20
-6.40038614973912
30
0
41
1
10
-0.479150674129698
20
-6.38487542657816
30
0
41
1
10
-0.453444961156862
20
-6.37100758594852
30
0
41
1
10
-0.417985764291785
20
-6.34622757774423
30
0
41
1
10
-0.406197231050172
20
-6.33682378409867
30
0
41
1
10
-0.394976888874737
20
-6.32694309068151
30
0
0
SPLINE
5
E8
100
AcDbEntity
8
1
62
256
6
ByLayer
370
-1
48
1
60
0
100
AcDbSpline
70
4
71
3
72
16
73
12
40
0
40
0
40
0
40
0
40
0.0518597302178289
40
0.0518597302178289
40
0.275230155769271
40
0.275230155769271
40
0.500795347243865
40
0.500795347243865
40
0.740544239763301
40
0.740544239763301
40
1
40
1
40
1
40
1
41
1
10
55.09522548814
20
-37.4968161722093
30
0
41
1
10
55.0932497104213
20
-37.4892411147729
30
0
41
1
10
55.0915424479356
20
-37.4815897400321
30
0
41
1
10
55.0839945192479
20
-37.4410255308721
30
0
41
1
10
55.0829697563918
20
-37.4068538335866
30
0
41
1
10
55.0908736954653
20
-37.3410945310376
30
0
41
1
10
55.0999745585663
20
-37.3086951873775
30
0
41
1
10
55.1270995943232
20
-37.2478333199765
30
0
41
1
10
55.145955330701
20
-37.2189699201035
30
0
41
1
10
55.1916784747006
20
-37.1675410489107
30
0
41
1
10
55.2196066422802
20
-37.1450330076844
30
0
41
1
10
55.2494840684392
20
-37.1277751177061
30
0
0
SPLINE
5
E9
100
AcDbEntity
8
1
62
256
6
ByLayer
370
-1
48
1
60
0
100
AcDbSpline
70
4
71
3
72
14
73
10
40
0
40
0
40
0
40
0
40
0.284590154787247
40
0.284590154787247
40
0.571979731773118
40
0.571979731773118
40
0.831839106768297
40
0.831839106768297
40
1
40
1
40
1
40
1
41
1
10
57.1277751177061
20
-35.2494840684392
30
0
41
1
10
57.1467069076497
20
-35.2167087316623
30
0
41
1
10
57.1720138163568
20
-35.186241751341
30
0
41
1
10
57.2327438070476
20
-35.1356340565028
30
0
41
1
10
57.2692528003519
20
-35.114867341491
30
0
41
1
10
57.3441881378243
20
-35.0897318567606
30
0
41
1
10
57.3832506970427
20
-35.0836687450453
30
0
41
1
10
57.4469950604363
20
-35.0852849804056
30
0
41
1
10
57.4723738863538
20
-35.0888502858139
30
0
41
1
10
57.4968161722092
20
-35.09522548814
30
0
0
SPLINE
5
EA
100
AcDbEntity
8
1
62
256
6
ByLayer
370
-1
48
1
60
0
100
AcDbSpline
70
4
71
3
72
12
73
8
40
0
40
0
40
0
40
0
40
0.137204687534012
40
0.137204687534012
40
0.554727373247717
40
0.554727373247717
40
1
40
1
40
1
40
1
41
1
10
56.1125833634226
20
-38.1034254452049
30
0
41
1
10
56.1264460766939
20
-38.1237141520397
30
0
41
1
10
56.1393332157637
20
-38.1445259156133
30
0
41
1
10
56.1870778946445
20
-38.2297353106107
30
0
41
1
10
56.2136952049343
20
-38.2976263101414
30
0
41
1
10
56.2492505707107
20
-38.4369643856016
30
0
41
1
10
56.2574877333249
20
-38.5098412579937
30
0
41
1
10
56.2565020221153
20
-38.5808788656401
30
0
0
SPLINE
5
EB
100
AcDbEntity
8
1
62
256
6
ByLayer
370
-1
48
1
60
0
100
AcDbSpline
70
4
71
3
72
18
73
14
40
0
40
0
40
0
40
0
40
0.213066582896527
40
0.213066582896527
40
0.387148856106936
40
0.387148856106936
40
0.562939679009005
40
0.562939679009005
40
0.71562961672833
40
0.71562961672833
40
0.919159491961057
40
0.919159491961057
40
1
40
1
40
1
40
1
41
1
10
56.8722248822939
20
-38.7505159315608
30
0
41
1
10
56.9149656197013
20
-38.6765217626635
30
0
41
1
10
56.9707995505758
20
-38.6067740891592
30
0
41
1
10
57.0932853049923
20
-38.4977085246178
30
0
41
1
10
57.1575975133605
20
-38.4540744216493
30
0
41
1
10
57.2978622816077
20
-38.3861619065035
30
0
41
1
10
57.37610399465
20
-38.3612785707233
30
0
41
1
10
57.5219778133929
20
-38.3373825928063
30
0
41
1
10
57.5913714363213
20
-38.3350095460317
30
0
41
1
10
57.7453487013802
20
-38.3481096055444
30
0
41
1
10
57.8300088987554
20
-38.3697168159586
30
0
41
1
10
57.937349652849
20
-38.4146782562717
30
0
41
1
10
57.9670659031125
20
-38.4293172609803
30
0
41
1
10
57.995559304519
20
-38.4455082768835
30
0
0
SPLINE
5
EC
100
AcDbEntity
8
1
62
256
6
ByLayer
370
-1
48
1
60
0
100
AcDbSpline
70
4
71
3
72
14
73
10
40
0
40
0
40
0
40
0
40
0.281225706613456
40
0.281225706613456
40
0.564721801443898
40
0.564721801443898
40
0.820844725776702
40
0.820844725776702
40
1
40
1
40
1
40
1
41
1
10
58.5808788656392
20
-36.2565020221153
30
0
41
1
10
58.6190253576177
20
-36.255972704955
30
0
41
1
10
58.6584456767466
20
-36.2622066013826
30
0
41
1
10
58.7334292691812
20
-36.288820153277
30
0
41
1
10
58.7701020485158
20
-36.3097955510877
30
0
41
1
10
58.8301650667901
20
-36.3618739417975
30
0
41
1
10
58.8553606880958
20
-36.3926489339226
30
0
41
1
10
58.8874247419463
20
-36.4505965356343
30
0
41
1
10
58.8978325701232
20
-36.4765686843581
30
0
41
1
10
58.90477451186
20
-36.5031838277908
30
0
0
SPLINE
5
ED
100
AcDbEntity
8
1
62
256
6
ByLayer
370
-1
48
1
60
0
100
AcDbSpline
70
4
71
3
72
16
73
12
40
0
40
0
40
0
40
0
40
0.0642991671445159
40
0.0642991671445159
40
0.282454928837906
40
0.282454928837906
40
0.503546945938645
40
0.503546945938645
40
0.739145751040108
40
0.739145751040108
40
1
40
1
40
1
40
1
41
1
10
56.5031838277908
20
-38.90477451186
30
0
41
1
10
56.4935916063101
20
-38.9022726037709
30
0
41
1
10
56.4841005391812
20
-38.8993340856669
30
0
41
1
10
56.4433628959217
20
-38.8846816233023
30
0
41
1
10
56.4134138108927
20
-38.8683549603721
30
0
41
1
10
56.3606578323501
20
-38.8283963146954
30
0
41
1
10
56.3372653888662
20
-38.8041828424014
30
0
41
1
10
56.2983387191215
20
-38.7499736500715
30
0
41
1
10
56.2829040167858
20
-38.7190458666775
30
0
41
1
10
56.2613123516333
20
-38.6526634158832
30
0
41
1
10
56.2560112754197
20
-38.6162456859449
30
0
41
1
10
56.2565020221153
20
-38.5808788656401
30
0
0
SPLINE
5
EE
100
AcDbEntity
8
1
62
256
6
ByLayer
370
-1
48
1
60
0
100
AcDbSpline
70
4
71
3
72
14
73
10
40
0
40
0
40
0
40
0
40
0.284590154787186
40
0.284590154787186
40
0.571979731773067
40
0.571979731773067
40
0.831839106768266
40
0.831839106768266
40
1
40
1
40
1
40
1
41
1
10
56.872224882294
20
-38.7505159315608
30
0
41
1
10
56.8532930923503
20
-38.7832912683377
30
0
41
1
10
56.8279861836433
20
-38.813758248659
30
0
41
1
10
56.7672561929524
20
-38.8643659434972
30
0
41
1
10
56.7307471996481
20
-38.8851326585091
30
0
41
1
10
56.6558118621758
20
-38.9102681432394
30
0
41
1
10
56.6167493029573
20
-38.9163312549547
30
0
41
1
10
56.5530049395637
20
-38.9147150195944
30
0
41
1
10
56.5276261136463
20
-38.9111497141861
30
0
41
1
10
56.5031838277908
20
-38.90477451186
30
0
0
SPLINE
5
EF
100
AcDbEntity
8
1
62
256
6
ByLayer
370
-1
48
1
60
0
100
AcDbSpline
70
4
71
3
72
18
73
14
40
0
40
0
40
0
40
0
40
0.213067132472618
40
0.213067132472618
40
0.38714930769726
40
0.38714930769726
40
0.56294002601973
40
0.56294002601973
40
0.715629944215709
40
0.715629944215709
40
0.919159917634231
40
0.919159917634231
40
1
40
1
40
1
40
1
41
1
10
55.5544917231165
20
-36.004440695481
30
0
41
1
10
55.5967086499766
20
-36.0787352209364
30
0
41
1
10
55.628640231914
20
-36.1621773221452
30
0
41
1
10
55.6607808986625
20
-36.3230036482903
30
0
41
1
10
55.6658968399937
20
-36.400552455234
30
0
41
1
10
55.653543865101
20
-36.5559026921291
30
0
41
1
10
55.635439054991
20
-36.6359848621001
30
0
41
1
10
55.582277246505
20
-36.7739123526185
30
0
41
1
10
55.5492282874588
20
-36.8349768285319
30
0
41
1
10
55.46005245292
20
-36.9611841401894
30
0
41
1
10
55.3985950964655
20
-37.0232906560073
30
0
41
1
10
55.3055199154583
20
-37.0931515505051
30
0
41
1
10
55.2778622006035
20
-37.1113832544955
30
0
41
1
10
55.2494840684392
20
-37.1277751177061
30
0
0
SPLINE
5
F0
100
AcDbEntity
8
SK1
62
256
6
ByLayer
370
-1
48
1
60
0
100
AcDbSpline
70
4
71
3
72
22
73
18
40
0
40
0
40
0
40
0
40
0.038427246458711
40
0.038427246458711
40
0.0775026456766427
40
0.0775026456766427
40
0.106475059033524
40
0.106475059033524
40
0.135305917881828
40
0.135305917881828
40
0.182167074412018
40
0.182167074412018
40
0.275660663800869
40
0.275660663800869
40
0.616530102228659
40
0.616530102228659
40
1
40
1
40
1
40
1
41
1
10
-0.394976888875291
20
6.32694279392757
30
0
41
1
10
-0.414867561016209
20
6.34445862132063
30
0
41
1
10
-0.436644357284209
20
6.36058691921457
30
0
41
1
10
-0.484524151203374
20
6.3868168818706
30
0
41
1
10
-0.511419954277358
20
6.39702622866628
30
0
41
1
10
-0.560078773491583
20
6.40490957850619
30
0
41
1
10
-0.58185248496946
20
6.40512642059926
30
0
41
1
10
-0.623683911276842
20
6.39912423041605
30
0
41
1
10
-0.644207278837669
20
6.39293597600829
30
0
41
1
10
-0.694134540330921
20
6.37121870092642
30
0
41
1
10
-0.722113964046528
20
6.35215911803172
30
0
41
1
10
-0.796598131612939
20
6.28903777408343
30
0
41
1
10
-0.836555557792792
20
6.23798237717094
30
0
41
1
10
-0.997773060879837
20
5.995390913813
30
0
41
1
10
-1.07178904300879
20
5.77805690787602
30
0
41
1
10
-1.20827315239352
20
5.31693201445015
30
0
41
1
10
-1.26212533694984
20
5.06551762472202
30
0
41
1
10
-1.30710678118655
20
4.81101321788441
30
0
0
SPLINE
5
F1
100
AcDbEntity
8
1
62
256
6
ByLayer
370
-1
48
1
60
0
100
AcDbSpline
70
4
71
3
72
14
73
10
40
0
40
0
40
0
40
0
40
0.284964196832626
40
0.284964196832626
40
0.572306425237637
40
0.572306425237637
40
0.832127738068834
40
0.832127738068834
40
1
40
1
40
1
40
1
41
1
10
58.4455082768835
20
-37.995559304519
30
0
41
1
10
58.4642325037108
20
-38.0285107211692
30
0
41
1
10
58.4777274737388
20
-38.0658067532206
30
0
41
1
10
58.4906421486695
20
-38.1438473117925
30
0
41
1
10
58.4900733926528
20
-38.1858406135394
30
0
41
1
10
58.4738266332224
20
-38.2631823089058
30
0
41
1
10
58.4592874248494
20
-38.2999367215684
30
0
41
1
10
58.4256578812298
20
-38.3540566305421
30
0
41
1
10
58.409770690671
20
-38.3741087068604
30
0
41
1
10
58.3919396987657
20
-38.3919396987657
30
0
0
SPLINE
5
F2
100
AcDbEntity
8
1
62
256
6
ByLayer
370
-1
48
1
60
0
100
AcDbSpline
70
4
71
3
72
16
73
12
40
0
40
0
40
0
40
0
40
0.066041983565969
40
0.066041983565969
40
0.289197337625583
40
0.289197337625583
40
0.515371789747682
40
0.515371789747682
40
0.756398282445793
40
0.756398282445793
40
1
40
1
40
1
40
1
41
1
10
58.3919396987657
20
-38.3919396987657
30
0
41
1
10
58.3849016776698
20
-38.3989777198617
30
0
41
1
10
58.3775354787471
20
-38.4057051882033
30
0
41
1
10
58.3442517094407
20
-38.4334510353267
30
0
41
1
10
58.3150150428048
20
-38.4510188447117
30
0
41
1
10
58.2538539506119
20
-38.4762990498972
30
0
41
1
10
58.2211315584869
20
-38.4842215158582
30
0
41
1
10
58.1546748811719
20
-38.4903626367244
30
0
41
1
10
58.1201871152228
20
-38.4880232243522
30
0
41
1
10
58.0550609483981
20
-38.473722093018
30
0
41
1
10
58.0237593191062
20
-38.4615325794277
30
0
41
1
10
57.995559304519
20
-38.4455082768835
30
0
0
SPLINE
5
F3
100
AcDbEntity
8
1
62
256
6
ByLayer
370
-1
48
1
60
0
100
AcDbSpline
70
4
71
3
72
10
73
6
40
0
40
0
40
0
40
0
40
0.541904960061462
40
0.541904960061462
40
1
40
1
40
1
40
1
41
1
10
55.4191211343608
20
-37.7434979778847
30
0
41
1
10
55.5056582972044
20
-37.7422971962947
30
0
41
1
10
55.5952235594395
20
-37.7548591345636
30
0
41
1
10
55.7557046220327
20
-37.8061837932084
30
0
41
1
10
55.8292744923799
20
-37.8414323618771
30
0
41
1
10
55.8965745547951
20
-37.8874166365775
30
0
0
SPLINE
5
F4
100
AcDbEntity
8
1
62
256
6
ByLayer
370
-1
48
1
60
0
100
AcDbSpline
70
4
71
3
72
14
73
10
40
0
40
0
40
0
40
0
40
0.281225706613425
40
0.281225706613425
40
0.564721801443841
40
0.564721801443841
40
0.820844725776643
40
0.820844725776643
40
1
40
1
40
1
40
1
41
1
10
55.4191211343608
20
-37.7434979778848
30
0
41
1
10
55.3809746423823
20
-37.744027295045
30
0
41
1
10
55.3415543232534
20
-37.7377933986174
30
0
41
1
10
55.2665707308188
20
-37.7111798467231
30
0
41
1
10
55.2298979514843
20
-37.6902044489123
30
0
41
1
10
55.1698349332099
20
-37.6381260582025
30
0
41
1
10
55.1446393119042
20
-37.6073510660774
30
0
41
1
10
55.1125752580537
20
-37.5494034643657
30
0
41
1
10
55.1021674298768
20
-37.5234313156419
30
0
41
1
10
55.09522548814
20
-37.4968161722093
30
0
0
SPLINE
5
F5
100
AcDbEntity
8
1
62
256
6
ByLayer
370
-1
48
1
60
0
100
AcDbSpline
70
4
71
3
72
16
73
12
40
0
40
0
40
0
40
0
40
0.0518597302178791
40
0.0518597302178791
40
0.275230155769328
40
0.275230155769328
40
0.500795347243952
40
0.500795347243952
40
0.740544239763384
40
0.740544239763384
40
1
40
1
40
1
40
1
41
1
10
58.90477451186
20
-36.5031838277908
30
0
41
1
10
58.9067502895787
20
-36.5107588852271
30
0
41
1
10
58.9084575520644
20
-36.518410259968
30
0
41
1
10
58.9160054807521
20
-36.5589744691279
30
0
41
1
10
58.9170302436082
20
-36.5931461664134
30
0
41
1
10
58.9091263045346
20
-36.6589054689624
30
0
41
1
10
58.9000254414337
20
-36.6913048126225
30
0
41
1
10
58.8729004056768
20
-36.7521666800235
30
0
41
1
10
58.854044669299
20
-36.7810300798966
30
0
41
1
10
58.8083215252994
20
-36.8324589510893
30
0
41
1
10
58.7803933577198
20
-36.8549669923156
30
0
41
1
10
58.7505159315608
20
-36.872224882294
30
0
0
SPLINE
5
F6
100
AcDbEntity
8
1
62
256
6
ByLayer
370
-1
48
1
60
0
100
AcDbSpline
70
4
71
3
72
16
73
12
40
0
40
0
40
0
40
0
40
0.0642991671444077
40
0.0642991671444077
40
0.282454928837347
40
0.282454928837347
40
0.503546945937613
40
0.503546945937613
40
0.739145751038551
40
0.739145751038551
40
1
40
1
40
1
40
1
41
1
10
57.4968161722092
20
-35.09522548814
30
0
41
1
10
57.5064083936899
20
-35.0977273962291
30
0
41
1
10
57.5158994608188
20
-35.1006659143331
30
0
41
1
10
57.5566371040783
20
-35.1153183766978
30
0
41
1
10
57.5865861891074
20
-35.1316450396279
30
0
41
1
10
57.6393421676499
20
-35.1716036853046
30
0
41
1
10
57.6627346111339
20
-35.1958171575987
30
0
41
1
10
57.7016612808786
20
-35.2500263499285
30
0
41
1
10
57.7170959832143
20
-35.2809541333226
30
0
41
1
10
57.7386876483669
20
-35.3473365841171
30
0
41
1
10
57.7439887245804
20
-35.3837543140558
30
0
41
1
10
57.7434979778847
20
-35.4191211343608
30
0
0
SPLINE
5
F7
100
AcDbEntity
8
1
62
256
6
ByLayer
370
-1
48
1
60
0
100
AcDbSpline
70
4
71
3
72
18
73
14
40
0
40
0
40
0
40
0
40
0.213067132472618
40
0.213067132472618
40
0.387149307697256
40
0.387149307697256
40
0.562940026019719
40
0.562940026019719
40
0.715629944215698
40
0.715629944215698
40
0.919159917634216
40
0.919159917634216
40
1
40
1
40
1
40
1
41
1
10
58.4455082768835
20
-37.995559304519
30
0
41
1
10
58.4032913500234
20
-37.9212647790636
30
0
41
1
10
58.3713597680861
20
-37.8378226778548
30
0
41
1
10
58.3392191013375
20
-37.6769963517098
30
0
41
1
10
58.3341031600063
20
-37.5994475447661
30
0
41
1
10
58.346456134899
20
-37.4440973078709
30
0
41
1
10
58.364560945009
20
-37.3640151378999
30
0
41
1
10
58.417722753495
20
-37.2260876473815
30
0
41
1
10
58.4507717125412
20
-37.1650231714682
30
0
41
1
10
58.53994754708
20
-37.0388158598107
30
0
41
1
10
58.6014049035346
20
-36.9767093439927
30
0
41
1
10
58.6944800845417
20
-36.9068484494949
30
0
41
1
10
58.7221377993965
20
-36.8886167455045
30
0
41
1
10
58.7505159315608
20
-36.872224882294
30
0
0
SPLINE
5
F8
100
AcDbEntity
8
1
62
256
6
ByLayer
370
-1
48
1
60
0
100
AcDbSpline
70
4
71
3
72
12
73
8
40
0
40
0
40
0
40
0
40
0.137204687534207
40
0.137204687534207
40
0.554727373248673
40
0.554727373248673
40
1
40
1
40
1
40
1
41
1
10
57.8874166365774
20
-35.8965745547951
30
0
41
1
10
57.8735539233061
20
-35.8762858479603
30
0
41
1
10
57.8606667842363
20
-35.8554740843867
30
0
41
1
10
57.8129221053556
20
-35.7702646893893
30
0
41
1
10
57.7863047950657
20
-35.7023736898586
30
0
41
1
10
57.7507494292894
20
-35.5630356143987
30
0
41
1
10
57.7425122666752
20
-35.4901587420069
30
0
41
1
10
57.7434979778847
20
-35.4191211343608
30
0
0
SPLINE
5
F9
100
AcDbEntity
8
SK1
62
256
6
ByLayer
370
-1
48
1
60
0
100
AcDbSpline
70
4
71
3
72
22
73
18
40
0
40
0
40
0
40
0
40
0.025518692999354
40
0.025518692999354
40
0.0515625307794633
40
0.0515625307794633
40
0.0689220502117166
40
0.0689220502117166
40
0.0862030429090035
40
0.0862030429090035
40
0.113761926258803
40
0.113761926258803
40
0.167639902693809
40
0.167639902693809
40
0.357269752158031
40
0.357269752158031
40
1
40
1
40
1
40
1
41
1
10
-0.394976888875291
20
-6.326943090669
30
0
41
1
10
-0.389699799773268
20
-6.32229605774103
30
0
41
1
10
-0.383945540291066
20
-6.31808234313019
30
0
41
1
10
-0.371336208800912
20
-6.31155719556298
30
0
41
1
10
-0.364237316839024
20
-6.30923328231674
30
0
41
1
10
-0.35209572007625
20
-6.30844589498398
30
0
41
1
10
-0.347038791108773
20
-6.3089739150856
30
0
41
1
10
-0.337436838154147
20
-6.31166640764118
30
0
41
1
10
-0.332782752688161
20
-6.31383711710231
30
0
41
1
10
-0.321723955926899
20
-6.32078578121266
30
0
41
1
10
-0.315689795621651
20
-6.32640446307903
30
0
41
1
10
-0.300083216036072
20
-6.3442802085479
30
0
41
1
10
-0.29205715892563
20
-6.35806878925098
30
0
41
1
10
-0.261294067338739
20
-6.42092251611513
30
0
41
1
10
-0.248999237994838
20
-6.47445017323312
30
0
41
1
10
-0.204624309665832
20
-6.70435570668306
30
0
41
1
10
-0.200000000000969
20
-6.88379158154922
30
0
41
1
10
-0.200000000000969
20
-7.05951756777665
30
0
0
SPLINE
5
FA
100
AcDbEntity
8
1
62
256
6
ByLayer
370
-1
48
1
60
0
100
AcDbSpline
70
4
71
3
72
16
73
12
40
0
40
0
40
0
40
0
40
0.0660419835659668
40
0.0660419835659668
40
0.289197337625546
40
0.289197337625546
40
0.515371789747635
40
0.515371789747635
40
0.75639828244573
40
0.75639828244573
40
1
40
1
40
1
40
1
41
1
10
55.6080603012343
20
-35.6080603012343
30
0
41
1
10
55.6150983223302
20
-35.6010222801383
30
0
41
1
10
55.6224645212529
20
-35.5942948117967
30
0
41
1
10
55.6557482905593
20
-35.5665489646733
30
0
41
1
10
55.6849849571951
20
-35.5489811552884
30
0
41
1
10
55.746146049388
20
-35.5237009501029
30
0
41
1
10
55.7788684415131
20
-35.5157784841418
30
0
41
1
10
55.8453251188281
20
-35.5096373632756
30
0
41
1
10
55.8798128847772
20
-35.5119767756478
30
0
41
1
10
55.9449390516019
20
-35.526277906982
30
0
41
1
10
55.9762406808939
20
-35.5384674205723
30
0
41
1
10
56.004440695481
20
-35.5544917231166
30
0
0
LINE
5
4E
100
AcDbEntity
8
1
62
256
6
ByLayer
370
-1
48
1
60
0
100
AcDbLine
10
0.3
20
-31.5
30
0
11
21.3
21
-31.5
31
0
39
0
210
0
220
0
230
1
0
LINE
5
50
100
AcDbEntity
8
1
62
256
6
ByLayer
370
-1
48
1
60
0
100
AcDbLine
10
21.3
20
31.5
30
0
11
0.3
21
31.5
31
0
39
0
210
0
220
0
230
1
0
LINE
5
51
100
AcDbEntity
8
1
62
256
6
ByLayer
370
-1
48
1
60
0
100
AcDbLine
10
0.3
20
31.5
30
0
11
0
21
31.2
31
0
39
0
210
0
220
0
230
1
0
LINE
5
52
100
AcDbEntity
8
1
62
256
6
ByLayer
370
-1
48
1
60
0
100
AcDbLine
10
0
20
-31.2
30
0
11
0.3
21
-31.5
31
0
39
0
210
0
220
0
230
1
0
LINE
5
53
100
AcDbEntity
8
81
62
256
6
ByLayer
370
-1
48
1
60
0
100
AcDbLine
10
65
20
-45
30
0
11
75
21
-45
31
0
39
0
210
0
220
0
230
1
0
LINE
5
54
100
AcDbEntity
8
4
62
256
6
ByLayer
370
-1
48
0.05
60
0
100
AcDbLine
10
0
20
0
30
0
11
65
21
0
31
0
39
0
210
0
220
0
230
1
0
LINE
5
56
100
AcDbEntity
8
SK4
62
256
6
ByLayer
370
-1
48
0.05
60
0
100
AcDbLine
10
-43
20
0
30
0
11
65
21
0
31
0
39
0
210
0
220
0
230
1
0
LINE
5
58
100
AcDbEntity
8
80
62
256
6
ByLayer
370
-1
48
1
60
0
100
AcDbLine
10
0
20
0
30
0
11
-5
21
0
31
0
39
0
210
0
220
0
230
1
0
LINE
5
59
100
AcDbEntity
8
1
62
256
6
ByLayer
370
-1
48
1
60
0
100
AcDbLine
10
13.461325
20
-9.349221
30
0
11
13.461325
21
-30.080593
31
0
39
0
210
0
220
0
230
1
0
LINE
5
5A
100
AcDbEntity
8
1
62
256
6
ByLayer
370
-1
48
1
60
0
100
AcDbLine
10
47.649324
20
-39.453348
30
0
11
49.067283
21
-38.035388
31
0
39
0
210
0
220
0
230
1
0
LINE
5
5B
100
AcDbEntity
8
1
62
256
6
ByLayer
370
-1
48
1
60
0
100
AcDbLine
10
50.722304
20
-16.825
30
0
11
26
21
23.780431
31
0
39
0
210
0
220
0
230
1
0
LINE
5
5C
100
AcDbEntity
8
1
62
256
6
ByLayer
370
-1
48
1
60
0
100
AcDbLine
10
10.538675
20
-9.349221
30
0
11
13.461325
21
-9.349221
31
0
39
0
210
0
220
0
230
1
0
LINE
5
5D
100
AcDbEntity
8
1
62
256
6
ByLayer
370
-1
48
1
60
0
100
AcDbLine
10
21.3
20
-31.5
30
0
11
22.920792
21
-31.427312
31
0
39
0
210
0
220
0
230
1
0
LINE
5
5E
100
AcDbEntity
8
1
62
256
6
ByLayer
370
-1
48
1
60
0
100
AcDbLine
10
58.359662
20
-28.74301
30
0
11
58.767767
21
-29.151115
31
0
39
0
210
0
220
0
230
1
0
LINE
5
5F
100
AcDbEntity
8
1
62
256
6
ByLayer
370
-1
48
1
60
0
100
AcDbLine
10
22.920792
20
-27.71235
30
0
11
22.920792
21
-31.427312
31
0
39
0
210
0
220
0
230
1
0
LINE
5
60
100
AcDbEntity
8
1
62
256
6
ByLayer
370
-1
48
1
60
0
100
AcDbLine
10
52.417356
20
-25.178265
30
0
11
54.01516
21
-25.094478
31
0
39
0
210
0
220
0
230
1
0
LINE
5
61
100
AcDbEntity
8
1
62
256
6
ByLayer
370
-1
48
1
60
0
100
AcDbLine
10
35.547818
20
-32.466541
30
0
11
41.373692
21
-35.830111
31
0
39
0
210
0
220
0
230
1
0
LINE
5
62
100
AcDbEntity
8
1
62
256
6
ByLayer
370
-1
48
1
60
0
100
AcDbLine
10
13.461325
20
30.080593
30
0
11
13.461325
21
9.349221
31
0
39
0
210
0
220
0
230
1
0
LINE
5
63
100
AcDbEntity
8
1
62
256
6
ByLayer
370
-1
48
1
60
0
100
AcDbLine
10
23.015016
20
-31.423087
30
0
11
23.015016
21
-28.382877
31
0
39
0
210
0
220
0
230
1
0
LINE
5
64
100
AcDbEntity
8
1
62
256
6
ByLayer
370
-1
48
1
60
0
100
AcDbLine
10
44.0447
20
-37.372217
30
0
11
47.649324
21
-39.453348
31
0
39
0
210
0
220
0
230
1
0
LINE
5
65
100
AcDbEntity
8
1
62
256
6
ByLayer
370
-1
48
1
60
0
100
AcDbLine
10
0.3
20
0
30
0
11
0.3
21
-31.5
31
0
39
0
210
0
220
0
230
1
0
LINE
5
66
100
AcDbEntity
8
1
62
256
6
ByLayer
370
-1
48
1
60
0
100
AcDbLine
10
0.3
20
31.5
30
0
11
0.3
21
0
31
0
39
0
210
0
220
0
230
1
0
LINE
5
67
100
AcDbEntity
8
1
62
256
6
ByLayer
370
-1
48
1
60
0
100
AcDbLine
10
13.894338
20
-9.869413
30
0
11
13.894338
21
-29.913955
31
0
39
0
210
0
220
0
230
1
0
LINE
5
68
100
AcDbEntity
8
1
62
256
6
ByLayer
370
-1
48
1
60
0
100
AcDbLine
10
50.722304
20
-16.825
30
0
11
52.097791
21
-19.084184
31
0
39
0
210
0
220
0
230
1
0
LINE
5
69
100
AcDbEntity
8
1
62
256
6
ByLayer
370
-1
48
1
60
0
100
AcDbLine
10
52.417356
20
-25.178265
30
0
11
52.097791
21
-19.084184
31
0
39
0
210
0
220
0
230
1
0
LINE
5
6A
100
AcDbEntity
8
1
62
256
6
ByLayer
370
-1
48
1
60
0
100
AcDbLine
10
41.040047
20
-28.938063
30
0
11
26
21
-28.938063
31
0
39
0
210
0
220
0
230
1
0
LINE
5
6B
100
AcDbEntity
8
1
62
256
6
ByLayer
370
-1
48
1
60
0
100
AcDbLine
10
10.538675
20
-9.349221
30
0
11
10.538675
21
-30.080593
31
0
39
0
210
0
220
0
230
1
0
LINE
5
6C
100
AcDbEntity
8
1
62
256
6
ByLayer
370
-1
48
1
60
0
100
AcDbLine
10
53.850989
20
-21.963745
30
0
11
56.749626
21
-26.724645
31
0
39
0
210
0
220
0
230
1
0
LINE
5
6D
100
AcDbEntity
8
1
62
256
6
ByLayer
370
-1
48
1
60
0
100
AcDbLine
10
52.097368
20
-26.224955
30
0
11
53.375184
21
-27.187859
31
0
39
0
210
0
220
0
230
1
0
LINE
5
6E
100
AcDbEntity
8
1
62
256
6
ByLayer
370
-1
48
1
60
0
100
AcDbLine
10
26
20
23.780431
30
0
11
26
21
-28.938063
31
0
39
0
210
0
220
0
230
1
0
LINE
5
6F
100
AcDbEntity
8
1
62
256
6
ByLayer
370
-1
48
1
60
0
100
AcDbLine
10
23.277932
20
28.251324
30
0
11
23.001177
21
28.705882
31
0
39
0
210
0
220
0
230
1
0
LINE
5
70
100
AcDbEntity
8
1
62
256
6
ByLayer
370
-1
48
1
60
0
100
AcDbLine
10
58.72966
20
-29.189222
30
0
11
58.767767
21
-29.151115
31
0
39
0
210
0
220
0
230
1
0
LINE
5
71
100
AcDbEntity
8
1
62
256
6
ByLayer
370
-1
48
1
60
0
100
AcDbLine
10
10.105662
20
-9.869413
30
0
11
10.105662
21
-29.913955
31
0
39
0
210
0
220
0
230
1
0
LINE
5
72
100
AcDbEntity
8
1
62
256
6
ByLayer
370
-1
48
1
60
0
100
AcDbLine
10
13.461325
20
-30.080593
30
0
11
10.538675
21
-30.080593
31
0
39
0
210
0
220
0
230
1
0
LINE
5
73
100
AcDbEntity
8
1
62
256
6
ByLayer
370
-1
48
1
60
0
100
AcDbLine
10
44.176653
20
-37.369339
30
0
11
44.0447
21
-37.372217
31
0
39
0
210
0
220
0
230
1
0
LINE
5
74
100
AcDbEntity
8
1
62
256
6
ByLayer
370
-1
48
1
60
0
100
AcDbLine
10
58.828393
20
-29.211741
30
0
11
58.767767
21
-29.151115
31
0
39
0
210
0
220
0
230
1
0
LINE
5
75
100
AcDbEntity
8
1
62
256
6
ByLayer
370
-1
48
1
60
0
100
AcDbLine
10
44.0447
20
-37.372217
30
0
11
41.373692
21
-35.830111
31
0
39
0
210
0
220
0
230
1
0
LINE
5
76
100
AcDbEntity
8
1
62
256
6
ByLayer
370
-1
48
1
60
0
100
AcDbLine
10
0
20
0
30
0
11
0
21
-31.2
31
0
39
0
210
0
220
0
230
1
0
LINE
5
77
100
AcDbEntity
8
1
62
256
6
ByLayer
370
-1
48
1
60
0
100
AcDbLine
10
0
20
31.2
30
0
11
0
21
0
31
0
39
0
210
0
220
0
230
1
0
LINE
5
78
100
AcDbEntity
8
1
62
256
6
ByLayer
370
-1
48
1
60
0
100
AcDbLine
10
45.384672
20
-35.133004
30
0
11
52.097368
21
-26.224955
31
0
39
0
210
0
220
0
230
1
0
LINE
5
79
100
AcDbEntity
8
1
62
256
6
ByLayer
370
-1
48
1
60
0
100
AcDbLine
10
22.920792
20
28.837911
30
0
11
22.920792
21
27.71235
31
0
39
0
210
0
220
0
230
1
0
LINE
5
7A
100
AcDbEntity
8
1
62
256
6
ByLayer
370
-1
48
1
60
0
100
AcDbLine
10
45.384672
20
-35.133004
30
0
11
46.662488
21
-36.095908
31
0
39
0
210
0
220
0
230
1
0
LINE
5
7B
100
AcDbEntity
8
1
62
256
6
ByLayer
370
-1
48
1
60
0
100
AcDbLine
10
48.16678
20
-39.752102
30
0
11
49.189205
21
-38.729677
31
0
39
0
210
0
220
0
230
1
0
LINE
5
7C
100
AcDbEntity
8
1
62
256
6
ByLayer
370
-1
48
1
60
0
100
AcDbLine
10
53.375184
20
-27.187859
30
0
11
46.662488
21
-36.095908
31
0
39
0
210
0
220
0
230
1
0
LINE
5
7D
100
AcDbEntity
8
1
62
256
6
ByLayer
370
-1
48
1
60
0
100
AcDbLine
10
13.461325
20
9.349221
30
0
11
10.538675
21
9.349221
31
0
39
0
210
0
220
0
230
1
0
LINE
5
7E
100
AcDbEntity
8
1
62
256
6
ByLayer
370
-1
48
1
60
0
100
AcDbLine
10
23.275821
20
-28.306581
30
0
11
23.014575
21
-28.306581
31
0
39
0
210
0
220
0
230
1
0
LINE
5
7F
100
AcDbEntity
8
1
62
256
6
ByLayer
370
-1
48
1
60
0
100
AcDbLine
10
23.014575
20
-28.167381
30
0
11
23.014575
21
-28.306581
31
0
39
0
210
0
220
0
230
1
0
LINE
5
80
100
AcDbEntity
8
1
62
256
6
ByLayer
370
-1
48
1
60
0
100
AcDbLine
10
22
20
26.172224
30
0
11
22
21
-26.172224
31
0
39
0
210
0
220
0
230
1
0
LINE
5
81
100
AcDbEntity
8
1
62
256
6
ByLayer
370
-1
48
1
60
0
100
AcDbLine
10
13.894338
20
29.913955
30
0
11
13.894338
21
9.869413
31
0
39
0
210
0
220
0
230
1
0
LINE
5
82
100
AcDbEntity
8
1
62
256
6
ByLayer
370
-1
48
1
60
0
100
AcDbLine
10
41.040047
20
-28.938063
30
0
11
50.722304
21
-16.825
31
0
39
0
210
0
220
0
230
1
0
LINE
5
83
100
AcDbEntity
8
1
62
256
6
ByLayer
370
-1
48
1
60
0
100
AcDbLine
10
22.920792
20
28.837911
30
0
11
21.3
21
31.5
31
0
39
0
210
0
220
0
230
1
0
LINE
5
84
100
AcDbEntity
8
1
62
256
6
ByLayer
370
-1
48
1
60
0
100
AcDbLine
10
10.538675
20
30.080593
30
0
11
13.461325
21
30.080593
31
0
39
0
210
0
220
0
230
1
0
LINE
5
85
100
AcDbEntity
8
1
62
256
6
ByLayer
370
-1
48
1
60
0
100
AcDbLine
10
48.16678
20
-39.752102
30
0
11
48.390924
21
-39.881511
31
0
39
0
210
0
220
0
230
1
0
LINE
5
86
100
AcDbEntity
8
1
62
256
6
ByLayer
370
-1
48
1
60
0
100
AcDbLine
10
53.850989
20
-21.963745
30
0
11
52.097791
21
-19.084184
31
0
39
0
210
0
220
0
230
1
0
LINE
5
87
100
AcDbEntity
8
1
62
256
6
ByLayer
370
-1
48
1
60
0
100
AcDbLine
10
53.850989
20
-21.963745
30
0
11
54.01516
21
-25.094478
31
0
39
0
210
0
220
0
230
1
0
LINE
5
88
100
AcDbEntity
8
1
62
256
6
ByLayer
370
-1
48
1
60
0
100
AcDbLine
10
58.035387
20
-29.067284
30
0
11
58.359662
21
-28.74301
31
0
39
0
210
0
220
0
230
1
0
LINE
5
89
100
AcDbEntity
8
1
62
256
6
ByLayer
370
-1
48
1
60
0
100
AcDbLine
10
41.373692
20
-35.830111
30
0
11
44.141754
21
-35.769719
31
0
39
0
210
0
220
0
230
1
0
LINE
5
8A
100
AcDbEntity
8
1
62
256
6
ByLayer
370
-1
48
1
60
0
100
AcDbLine
10
49.257819
20
-39.014616
30
0
11
48.390924
21
-39.881511
31
0
39
0
210
0
220
0
230
1
0
LINE
5
8B
100
AcDbEntity
8
1
62
256
6
ByLayer
370
-1
48
1
60
0
100
AcDbLine
10
23.001177
20
28.10284
30
0
11
23.001177
21
28.705882
31
0
39
0
210
0
220
0
230
1
0
LINE
5
8C
100
AcDbEntity
8
1
62
256
6
ByLayer
370
-1
48
1
60
0
100
AcDbLine
10
48.16678
20
-39.752102
30
0
11
47.649324
21
-39.453348
31
0
39
0
210
0
220
0
230
1
0
LINE
5
8D
100
AcDbEntity
8
1
62
256
6
ByLayer
370
-1
48
1
60
0
100
AcDbLine
10
10.105662
20
29.913955
30
0
11
10.105662
21
9.869413
31
0
39
0
210
0
220
0
230
1
0
LINE
5
8E
100
AcDbEntity
8
1
62
256
6
ByLayer
370
-1
48
1
60
0
100
AcDbLine
10
58.249395
20
-28.632743
30
0
11
58.359662
21
-28.74301
31
0
39
0
210
0
220
0
230
1
0
LINE
5
8F
100
AcDbEntity
8
1
62
256
6
ByLayer
370
-1
48
1
60
0
100
AcDbLine
10
44.141754
20
-35.769719
30
0
11
44.176653
21
-37.369339
31
0
39
0
210
0
220
0
230
1
0
LINE
5
90
100
AcDbEntity
8
1
62
256
6
ByLayer
370
-1
48
1
60
0
100
AcDbLine
10
26
20
23.780431
30
0
11
23.277932
21
28.251324
31
0
39
0
210
0
220
0
230
1
0
LINE
5
91
100
AcDbEntity
8
1
62
256
6
ByLayer
370
-1
48
1
60
0
100
AcDbLine
10
26.988776
20
-31.244875
30
0
11
29.990838
21
-31.110242
31
0
39
0
210
0
220
0
230
1
0
LINE
5
92
100
AcDbEntity
8
1
62
256
6
ByLayer
370
-1
48
1
60
0
100
AcDbLine
10
49.950408
20
-40.78188
30
0
11
48.390924
21
-39.881511
31
0
39
0
210
0
220
0
230
1
0
LINE
5
93
100
AcDbEntity
8
1
62
256
6
ByLayer
370
-1
48
1
60
0
100
AcDbLine
10
10.538675
20
30.080593
30
0
11
10.538675
21
9.349221
31
0
39
0
210
0
220
0
230
1
0
LINE
5
94
100
AcDbEntity
8
SK1
62
256
6
ByLayer
370
-1
48
1
60
0
100
AcDbLine
10
-0.2
20
22.533485
30
0
11
-0.2
21
7.059517
31
0
39
0
210
0
220
0
230
1
0
LINE
5
96
100
AcDbEntity
8
SK1
62
256
6
ByLayer
370
-1
48
1
60
0
100
AcDbLine
10
-0.2
20
-7.059518
30
0
11
-0.2
21
-22.533485
31
0
39
0
210
0
220
0
230
1
0
LINE
5
97
100
AcDbEntity
8
SK1
62
256
6
ByLayer
370
-1
48
1
60
0
100
AcDbLine
10
-1.307107
20
4.811013
30
0
11
-1.307107
21
-4.811013
31
0
39
0
210
0
220
0
230
1
0
MTEXT
5
FB
100
AcDbEntity
8
SK6
62
256
6
ByLayer
370
-1
48
1
60
0
100
AcDbMText
10
22.197134
20
40.862798
30
0
210
0
220
0
230
1
1
\W00.753;\fsimplex.shx,bigfont.shx;C6-SRSCL-45065-16HPA 
40
3.5
41
0
44
1.084337
50
0
71
7
72
5
7
DEFAULT
0
DIMENSION
5
12E
100
AcDbEntity
8
SK2
62
256
6
ByLayer
370
-3
48
1
60
0
100
AcDbDimension
2
DimnDraft3D1
10
-47.75
20
31.5
30
0
11
-47.75
21
-4.784211
31
0
70
32
71
5
72
1
41
1
210
0
220
0
230
1
3
Standard
100
AcDbAlignedDimension
13
-2
23
-31.5
33
0
14
-2
24
31.5
34
0
50
90
100
AcDbRotatedDimension
1001
ACAD
1000
DSTYLE
1002
{
1070
    74
1070
     0
1070
   279
1070
     0
1070
   172
1070
     1
1070
   173
1070
     1
1070
   340
1005
FC
1070
    77
1070
     1
1070
    73
1070
     0
1070
   171
1070
     3
1070
   274
1070
     4
1070
   177
1070
     2
1070
   176
1070
     2
1070
   178
1070
     7
1070
    78
1070
     8
1070
    41
1041
3.175
1070
   147
1041
2.25
1070
    42
1041
2.0
1070
    44
1041
2.0
1070
   140
1041
4.5
1070
   343
1005
12F
1070
   344
1005
12F
1002
}
0
DIMENSION
5
143
100
AcDbEntity
8
2
62
256
6
ByLayer
370
-3
48
1
60
0
100
AcDbDimension
2
DimnDraft3D2
10
79.25
20
-45
30
0
11
79.25
21
-25.365789
31
0
70
32
71
5
72
1
41
1
210
0
220
0
230
1
3
Standard
100
AcDbAlignedDimension
13
67
23
0
33
0
14
67
24
-45
34
0
50
90
100
AcDbRotatedDimension
1001
ACAD
1000
DSTYLE
1002
{
1070
    74
1070
     0
1070
   279
1070
     0
1070
   172
1070
     1
1070
   173
1070
     1
1070
   340
1005
FC
1070
    77
1070
     1
1070
    73
1070
     0
1070
   171
1070
     3
1070
   274
1070
     4
1070
   177
1070
     2
1070
   176
1070
     2
1070
   178
1070
     7
1070
    78
1070
     8
1070
    41
1041
3.175
1070
   147
1041
2.25
1070
    42
1041
2.0
1070
    44
1041
2.0
1070
   140
1041
4.5
1070
   343
1005
12F
1070
   344
1005
12F
1002
}
0
DIMENSION
5
151
100
AcDbEntity
8
2
62
256
6
ByLayer
370
-3
48
1
60
0
100
AcDbDimension
2
DimnDraft3D3
10
65
20
-69.25
30
0
11
29.871053
21
-69.25
31
0
70
32
71
5
72
1
41
1
210
0
220
0
230
1
3
Standard
100
AcDbAlignedDimension
13
0
23
-33.5
33
0
14
65
24
-47
34
0
50
0
100
AcDbRotatedDimension
1001
ACAD
1000
DSTYLE
1002
{
1070
   279
1070
     0
1070
   172
1070
     1
1070
   173
1070
     1
1070
   340
1005
FC
1070
    77
1070
     1
1070
    73
1070
     0
1070
   171
1070
     3
1070
   274
1070
     4
1070
   177
1070
     2
1070
   176
1070
     2
1070
   178
1070
     7
1070
    78
1070
     8
1070
    41
1041
3.175
1070
   147
1041
2.25
1070
    42
1041
2.0
1070
    44
1041
2.0
1070
   140
1041
4.5
1070
   343
1005
12F
1070
   344
1005
12F
1002
}
0
ENDSEC
0
SECTION
2
OBJECTS
0
DICTIONARY
5
182
330
0
100
AcDbDictionary
280
0
281
1
3
ACAD_GROUP
350
183
3
ACAD_MLINESTYLE
350
184
0
DICTIONARY
5
183
330
0
100
AcDbDictionary
280
0
281
1
0
DICTIONARY
5
184
330
0
100
AcDbDictionary
280
0
281
1
3
Standard
350
18
0
MLINESTYLE
5
18
330
184
100
AcDbMlineStyle
2
Standard
70
0
3

62
256
51
90
52
90
71
2
49
-0.5
62
256
6
ByLayer
49
0.5
62
256
6
ByLayer
0
RASTERVARIABLES
5
170
330

100
AcDbRasterVariables
90
0
70
1
71
1
72
1
0
ENDSEC
0
EOF
