0
SECTION
2
HEADER
9
$ACADVER
1
AC1015
9
$DWGCODEPAGE
3
ANSI_1252
9
$HANDSEED
5
186
9
$ANGBASE
50
0
9
$ANGDIR
70
0
9
$ATTMODE
70
1
9
$AUNITS
70
0
9
$AUPREC
70
0
9
$CECOLOR
62
256
9
$CELTSCALE
40
1
9
$CELTYPE
6
ByLayer
9
$CELWEIGHT
370
-1
9
$CLAYER
8
0
9
$CMLJUST
70
0
9
$CMLSCALE
40
1
9
$CMLSTYLE
2
Standard
9
$DIMSTYLE
2
Standard
9
$TEXTSIZE
40
0.2
9
$TEXTSTYLE
7
Standard
9
$LUNITS
70
2
9
$LUPREC
70
4
9
$EXTNAMES
290
1
9
$INSUNITS
70
4
9
$LTSCALE
40
1
9
$LWDISPLAY
290
0
9
$PDMODE
70
0
9
$PDSIZE
40
0
9
$PLINEGEN
70
0
0
ENDSEC
0
SECTION
2
CLASSES
0
CLASS
1
RASTERVARIABLES
2
AcDbRasterVariables
3
ISM
90
0
280
0
281
0
0
ENDSEC
0
SECTION
2
TABLES
0
TABLE
2
VPORT
5
17c
100
AcDbSymbolTable
0
VPORT
5
1
100
AcDbSymbolTableRecord
100
AcDbViewportTableRecord
2
*Active
70
0
10
0
20
0
11
1
21
1
12
-1
22
1
13
0
23
0
14
0.5
24
0.5
15
10
25
10
16
0
26
0
36
1
17
0
27
0
37
0
0
ENDTAB
0
TABLE
2
LTYPE
5
17d
100
AcDbSymbolTable
0
LTYPE
5
14
100
AcDbSymbolTableRecord
100
AcDbLinetypeTableRecord
70
0
2
ByBlock
3

72
65
73
0
40
0
0
LTYPE
5
15
100
AcDbSymbolTableRecord
100
AcDbLinetypeTableRecord
70
0
2
ByLayer
3

72
65
73
0
40
0
0
LTYPE
5
16
100
AcDbSymbolTableRecord
100
AcDbLinetypeTableRecord
70
0
2
CONTINUOUS
3
Solid line
72
65
73
0
40
0
0
LTYPE
5
3B
100
AcDbSymbolTableRecord
100
AcDbLinetypeTableRecord
70
0
2
DASHED
3
__ __ __ __ __ __ __ __ __
72
65
73
2
40
25.72
49
12.86
74
0
49
-12.86
74
0
0
LTYPE
5
3C
100
AcDbSymbolTableRecord
100
AcDbLinetypeTableRecord
70
0
2
HIDDEN
3
_ _ _ _ _ _ _ _ _ _ _ _ _ _ _
72
65
73
2
40
0.5
49
0.25
74
0
49
-0.25
74
0
0
LTYPE
5
3D
100
AcDbSymbolTableRecord
100
AcDbLinetypeTableRecord
70
0
2
PHANTOM
3
____ _ _ ____ _ _ _____ _ _ ____
72
65
73
6
40
50.5
49
18
74
0
49
-6.5
74
0
49
6.5
74
0
49
-6.5
74
0
49
6.5
74
0
49
-6.5
74
0
0
LTYPE
5
3E
100
AcDbSymbolTableRecord
100
AcDbLinetypeTableRecord
70
0
2
CENTER
3
____ _ ____ _ ____ _ ____
72
65
73
4
40
47.5
49
22
74
0
49
-8.5
74
0
49
8.5
74
0
49
-8.5
74
0
0
LTYPE
5
3F
100
AcDbSymbolTableRecord
100
AcDbLinetypeTableRecord
70
0
2
DOT
3
.........................
72
65
73
2
40
10
49
0
74
0
49
-10
74
0
0
LTYPE
5
40
100
AcDbSymbolTableRecord
100
AcDbLinetypeTableRecord
70
0
2
DASHDOT
3
_._._._._._._._._._._._._._._._.
72
65
73
4
40
70
49
31
74
0
49
-13
74
0
49
13
74
0
49
-13
74
0
0
ENDTAB
0
TABLE
2
LAYER
5
17e
100
AcDbSymbolTable
0
LAYER
5
10
100
AcDbSymbolTableRecord
100
AcDbLayerTableRecord
2
0
70
0
62
7
6
CONTINUOUS
290
1
370
-3
390
0
0
LAYER
5
44
100
AcDbSymbolTableRecord
100
AcDbLayerTableRecord
2
81
70
0
62
-3
6
CONTINUOUS
290
1
370
-3
390
0
0
LAYER
5
49
100
AcDbSymbolTableRecord
100
AcDbLayerTableRecord
2
80
70
0
62
-6
6
CONTINUOUS
290
1
370
-3
390
0
0
LAYER
5
4C
100
AcDbSymbolTableRecord
100
AcDbLayerTableRecord
2
2
70
0
62
7
6
CONTINUOUS
290
1
370
-3
390
0
0
LAYER
5
4F
100
AcDbSymbolTableRecord
100
AcDbLayerTableRecord
2
1
70
0
62
4
6
CONTINUOUS
290
1
370
-3
390
0
0
LAYER
5
5E
100
AcDbSymbolTableRecord
100
AcDbLayerTableRecord
2
4
70
0
62
-2
6
CENTER
290
1
370
-3
390
0
0
LAYER
5
168
100
AcDbSymbolTableRecord
100
AcDbLayerTableRecord
2
SK2
70
0
62
7
6
CONTINUOUS
290
1
370
-3
390
0
0
LAYER
5
169
100
AcDbSymbolTableRecord
100
AcDbLayerTableRecord
2
SK4
70
0
62
2
6
CENTER
290
1
370
-3
390
0
0
LAYER
5
16a
100
AcDbSymbolTableRecord
100
AcDbLayerTableRecord
2
SK1
70
0
62
4
6
CONTINUOUS
290
1
370
-3
390
0
0
LAYER
5
16b
100
AcDbSymbolTableRecord
100
AcDbLayerTableRecord
2
SK6
70
0
62
5
6
CONTINUOUS
290
1
370
-3
390
0
0
ENDTAB
0
TABLE
2
STYLE
5
17f
100
AcDbSymbolTable
0
STYLE
5
11
100
AcDbSymbolTableRecord
100
AcDbTextStyleTableRecord
2
Standard
3
txt
70
0
71
0
40
0
41
1
42
0
50
0
0
STYLE
5
E5
100
AcDbSymbolTableRecord
100
AcDbTextStyleTableRecord
2
DEFAULT
3
simplex.shx
70
0
71
0
40
0
41
1
42
0
50
0
0
STYLE
5
108
100
AcDbSymbolTableRecord
100
AcDbTextStyleTableRecord
2
DWGDirectTextStyle
3
SIMPLEX
70
0
71
0
40
0
41
1
42
0
50
0
0
ENDTAB
0
TABLE
2
DIMSTYLE
5
180
100
AcDbSymbolTable
100
AcDbDimStyleTable
0
DIMSTYLE
105
27
100
AcDbSymbolTableRecord
100
AcDbDimStyleTableRecord
2
Standard
70
0
3
<>
41
0.18
42
0.0625
44
0.18
140
0.18
147
0.09
73
0
74
0
77
1
271
2
275
0
278
52
280
0
340
11
0
ENDTAB
0
TABLE
2
VIEW
5
181
100
AcDbSymbolTable
0
ENDTAB
0
TABLE
2
UCS
5
182
100
AcDbSymbolTable
0
ENDTAB
0
TABLE
2
APPID
5
183
100
AcDbSymbolTable
0
APPID
5
12
100
AcDbSymbolTableRecord
100
AcDbRegAppTableRecord
2
ACAD
70
0
0
ENDTAB
0
TABLE
2
BLOCK_RECORD
5
184
100
AcDbSymbolTable
0
BLOCK_RECORD
5
1F
100
AcDbSymbolTableRecord
100
AcDbBlockTableRecord
2
*Model_Space
340
0
70
0
0
BLOCK_RECORD
5
1B
100
AcDbSymbolTableRecord
100
AcDbBlockTableRecord
2
*Paper_Space
340
0
70
0
0
BLOCK_RECORD
5
23
100
AcDbSymbolTableRecord
100
AcDbBlockTableRecord
2
*Paper_Space0
340
0
70
0
0
BLOCK_RECORD
5
10A
100
AcDbSymbolTableRecord
100
AcDbBlockTableRecord
2
DimnDraft3D11
340
0
70
0
0
BLOCK_RECORD
5
118
100
AcDbSymbolTableRecord
100
AcDbBlockTableRecord
2
DimnDraft3D2
340
0
70
0
0
BLOCK_RECORD
5
126
100
AcDbSymbolTableRecord
100
AcDbBlockTableRecord
2
_CLOSED
340
0
70
0
0
BLOCK_RECORD
5
12D
100
AcDbSymbolTableRecord
100
AcDbBlockTableRecord
2
DimnDraft3D3
340
0
70
0
0
BLOCK_RECORD
5
13B
100
AcDbSymbolTableRecord
100
AcDbBlockTableRecord
2
DimnDraft3D4
340
0
70
0
0
ENDTAB
0
ENDSEC
0
SECTION
2
BLOCKS
0
BLOCK
5
20
100
AcDbEntity
8
0
100
AcDbBlockBegin
2
*Model_Space
70
0
10
0
20
0
30
0
3
*Model_Space
0
ENDBLK
5
21
100
AcDbEntity
8
0
100
AcDbBlockEnd
0
BLOCK
5
1C
100
AcDbEntity
8
0
100
AcDbBlockBegin
2
*Paper_Space
70
0
10
0
20
0
30
0
3
*Paper_Space
0
ENDBLK
5
1D
100
AcDbEntity
8
0
100
AcDbBlockEnd
0
BLOCK
5
24
100
AcDbEntity
8
0
100
AcDbBlockBegin
2
*Paper_Space0
70
0
10
0
20
0
30
0
3
*Paper_Space0
0
ENDBLK
5
25
100
AcDbEntity
8
0
100
AcDbBlockEnd
0
BLOCK
5
10B
100
AcDbEntity
8
0
100
AcDbBlockBegin
2
DimnDraft3D11
70
0
10
0
20
0
30
0
3
DimnDraft3D11
0
LINE
5
10D
100
AcDbEntity
8
2
62
256
6
ByLayer
370
-1
48
1
60
0
100
AcDbLine
10
67
20
5
30
0
11
81.25
21
5
31
0
39
0
210
0
220
0
230
1
0
LINE
5
10E
100
AcDbEntity
8
2
62
256
6
ByLayer
370
-1
48
1
60
0
100
AcDbLine
10
67
20
0
30
0
11
81.25
21
0
31
0
39
0
210
0
220
0
230
1
0
LINE
5
10F
100
AcDbEntity
8
2
62
256
6
ByLayer
370
-1
48
1
60
0
100
AcDbLine
10
79.25
20
-11.25
30
0
11
79.25
21
17.208947
31
0
39
0
210
0
220
0
230
1
0
LINE
5
110
100
AcDbEntity
8
2
62
256
6
ByLayer
370
-1
48
1
60
0
100
AcDbLine
10
79.25
20
5
30
0
11
78.832003
21
8.174998
31
0
39
0
210
0
220
0
230
1
0
LINE
5
111
100
AcDbEntity
8
2
62
256
6
ByLayer
370
-1
48
1
60
0
100
AcDbLine
10
79.25
20
5
30
0
11
79.667997
21
8.175002
31
0
39
0
210
0
220
0
230
1
0
LINE
5
112
100
AcDbEntity
8
2
62
256
6
ByLayer
370
-1
48
1
60
0
100
AcDbLine
10
78.832003
20
8.174998
30
0
11
79.667997
21
8.175002
31
0
39
0
210
0
220
0
230
1
0
LINE
5
113
100
AcDbEntity
8
2
62
256
6
ByLayer
370
-1
48
1
60
0
100
AcDbLine
10
79.25
20
0
30
0
11
79.667997
21
-3.174998
31
0
39
0
210
0
220
0
230
1
0
LINE
5
114
100
AcDbEntity
8
2
62
256
6
ByLayer
370
-1
48
1
60
0
100
AcDbLine
10
79.25
20
0
30
0
11
78.832003
21
-3.175002
31
0
39
0
210
0
220
0
230
1
0
LINE
5
115
100
AcDbEntity
8
2
62
256
6
ByLayer
370
-1
48
1
60
0
100
AcDbLine
10
79.667997
20
-3.174998
30
0
11
78.832003
21
-3.175002
31
0
39
0
210
0
220
0
230
1
0
MTEXT
5
116
100
AcDbEntity
8
2
62
256
6
ByLayer
370
-1
48
1
60
0
100
AcDbMText
10
78.125
20
16.38
30
0
210
0
220
0
230
1
1
\W00.521;\fsimplex.shx,bigfont.shx;5 
40
4.5
41
0
44
1.084337
50
90
71
7
72
5
7
DEFAULT
0
ENDBLK
5
10C
100
AcDbEntity
8
0
100
AcDbBlockEnd
0
BLOCK
5
123
100
AcDbEntity
8
0
100
AcDbBlockBegin
2
DimnDraft3D2
70
0
10
0
20
0
30
0
3
DimnDraft3D2
0
MTEXT
5
119
100
AcDbEntity
8
SK2
62
256
6
ByLayer
370
-1
48
1
60
0
100
AcDbMText
10
-48.875
20
-3.659211
30
0
210
0
220
0
230
1
1
\W01.000;\fsimplex.shx,bigfont.shx;%%c63 
40
4.5
41
0
44
1.084337
50
90
71
7
72
5
7
DEFAULT
0
LINE
5
11A
100
AcDbEntity
8
SK2
62
256
6
ByLayer
370
-1
48
1
60
0
100
AcDbLine
10
-2
20
-31.5
30
0
11
-49.75
21
-31.5
31
0
39
0
210
0
220
0
230
1
0
LINE
5
11B
100
AcDbEntity
8
SK2
62
256
6
ByLayer
370
-1
48
1
60
0
100
AcDbLine
10
-2
20
31.5
30
0
11
-49.75
21
31.5
31
0
39
0
210
0
220
0
230
1
0
LINE
5
11C
100
AcDbEntity
8
SK2
62
256
6
ByLayer
370
-1
48
1
60
0
100
AcDbLine
10
-47.75
20
-31.5
30
0
11
-47.75
21
31.5
31
0
39
0
210
0
220
0
230
1
0
LINE
5
11D
100
AcDbEntity
8
SK2
62
256
6
ByLayer
370
-1
48
1
60
0
100
AcDbLine
10
-47.75
20
-31.5
30
0
11
-48.167997
21
-28.325002
31
0
39
0
210
0
220
0
230
1
0
LINE
5
11E
100
AcDbEntity
8
SK2
62
256
6
ByLayer
370
-1
48
1
60
0
100
AcDbLine
10
-47.75
20
-31.5
30
0
11
-47.332003
21
-28.324998
31
0
39
0
210
0
220
0
230
1
0
LINE
5
11F
100
AcDbEntity
8
SK2
62
256
6
ByLayer
370
-1
48
1
60
0
100
AcDbLine
10
-48.167997
20
-28.325002
30
0
11
-47.332003
21
-28.324998
31
0
39
0
210
0
220
0
230
1
0
LINE
5
120
100
AcDbEntity
8
SK2
62
256
6
ByLayer
370
-1
48
1
60
0
100
AcDbLine
10
-47.75
20
31.5
30
0
11
-47.332003
21
28.325002
31
0
39
0
210
0
220
0
230
1
0
LINE
5
121
100
AcDbEntity
8
SK2
62
256
6
ByLayer
370
-1
48
1
60
0
100
AcDbLine
10
-47.75
20
31.5
30
0
11
-48.167997
21
28.324998
31
0
39
0
210
0
220
0
230
1
0
LINE
5
122
100
AcDbEntity
8
SK2
62
256
6
ByLayer
370
-1
48
1
60
0
100
AcDbLine
10
-47.332003
20
28.325002
30
0
11
-48.167997
21
28.324998
31
0
39
0
210
0
220
0
230
1
0
ENDBLK
5
124
100
AcDbEntity
8
0
100
AcDbBlockEnd
0
BLOCK
5
127
100
AcDbEntity
8
0
100
AcDbBlockBegin
2
_CLOSED
70
0
10
0
20
0
30
0
3
_CLOSED
0
LINE
5
129
100
AcDbEntity
8
0
62
256
6
ByLayer
370
-2
48
1
60
0
100
AcDbLine
10
-1
20
0.166667
30
0
11
0
21
0
31
0
39
0
210
0
220
0
230
1
0
LINE
5
12A
100
AcDbEntity
8
0
62
256
6
ByLayer
370
-2
48
1
60
0
100
AcDbLine
10
0
20
0
30
0
11
-1
21
-0.166667
31
0
39
0
210
0
220
0
230
1
0
LINE
5
12B
100
AcDbEntity
8
0
62
256
6
ByLayer
370
-2
48
1
60
0
100
AcDbLine
10
-1
20
0.166667
30
0
11
-1
21
-0.166667
31
0
39
0
210
0
220
0
230
1
0
LINE
5
12C
100
AcDbEntity
8
0
62
256
6
ByLayer
370
-2
48
1
60
0
100
AcDbLine
10
0
20
0
30
0
11
-1
21
0
31
0
39
0
210
0
220
0
230
1
0
ENDBLK
5
128
100
AcDbEntity
8
0
100
AcDbBlockEnd
0
BLOCK
5
138
100
AcDbEntity
8
0
100
AcDbBlockBegin
2
DimnDraft3D3
70
0
10
0
20
0
30
0
3
DimnDraft3D3
0
MTEXT
5
12E
100
AcDbEntity
8
2
62
256
6
ByLayer
370
-1
48
1
60
0
100
AcDbMText
10
30.996053
20
47.375
30
0
210
0
220
0
230
1
1
\W01.000;\fsimplex.shx,bigfont.shx;65 
40
4.5
41
0
44
1.084337
50
0
71
7
72
5
7
DEFAULT
0
LINE
5
12F
100
AcDbEntity
8
2
62
256
6
ByLayer
370
-1
48
1
60
0
100
AcDbLine
10
0
20
33.5
30
0
11
0
21
48.25
31
0
39
0
210
0
220
0
230
1
0
LINE
5
130
100
AcDbEntity
8
2
62
256
6
ByLayer
370
-1
48
1
60
0
100
AcDbLine
10
65
20
7
30
0
11
65
21
48.25
31
0
39
0
210
0
220
0
230
1
0
LINE
5
131
100
AcDbEntity
8
2
62
256
6
ByLayer
370
-1
48
1
60
0
100
AcDbLine
10
0
20
46.25
30
0
11
65
21
46.25
31
0
39
0
210
0
220
0
230
1
0
LINE
5
132
100
AcDbEntity
8
2
62
256
6
ByLayer
370
-1
48
1
60
0
100
AcDbLine
10
0
20
46.25
30
0
11
3.174998
21
46.667997
31
0
39
0
210
0
220
0
230
1
0
LINE
5
133
100
AcDbEntity
8
2
62
256
6
ByLayer
370
-1
48
1
60
0
100
AcDbLine
10
0
20
46.25
30
0
11
3.175002
21
45.832003
31
0
39
0
210
0
220
0
230
1
0
LINE
5
134
100
AcDbEntity
8
2
62
256
6
ByLayer
370
-1
48
1
60
0
100
AcDbLine
10
3.174998
20
46.667997
30
0
11
3.175002
21
45.832003
31
0
39
0
210
0
220
0
230
1
0
LINE
5
135
100
AcDbEntity
8
2
62
256
6
ByLayer
370
-1
48
1
60
0
100
AcDbLine
10
65
20
46.25
30
0
11
61.825002
21
45.832003
31
0
39
0
210
0
220
0
230
1
0
LINE
5
136
100
AcDbEntity
8
2
62
256
6
ByLayer
370
-1
48
1
60
0
100
AcDbLine
10
65
20
46.25
30
0
11
61.824998
21
46.667997
31
0
39
0
210
0
220
0
230
1
0
LINE
5
137
100
AcDbEntity
8
2
62
256
6
ByLayer
370
-1
48
1
60
0
100
AcDbLine
10
61.825002
20
45.832003
30
0
11
61.824998
21
46.667997
31
0
39
0
210
0
220
0
230
1
0
ENDBLK
5
139
100
AcDbEntity
8
0
100
AcDbBlockEnd
0
BLOCK
5
146
100
AcDbEntity
8
0
100
AcDbBlockBegin
2
DimnDraft3D4
70
0
10
0
20
0
30
0
3
DimnDraft3D4
0
MTEXT
5
13C
100
AcDbEntity
8
2
62
256
6
ByLayer
370
-1
48
1
60
0
100
AcDbMText
10
50.996053
20
-16.125
30
0
210
0
220
0
230
1
1
\W01.000;\fsimplex.shx,bigfont.shx;25 
40
4.5
41
0
44
1.084337
50
0
71
7
72
5
7
DEFAULT
0
LINE
5
13D
100
AcDbEntity
8
2
62
256
6
ByLayer
370
-1
48
1
60
0
100
AcDbLine
10
65
20
-7
30
0
11
65
21
-19.25
31
0
39
0
210
0
220
0
230
1
0
LINE
5
13E
100
AcDbEntity
8
2
62
256
6
ByLayer
370
-1
48
1
60
0
100
AcDbLine
10
40
20
-7
30
0
11
40
21
-19.25
31
0
39
0
210
0
220
0
230
1
0
LINE
5
13F
100
AcDbEntity
8
2
62
256
6
ByLayer
370
-1
48
1
60
0
100
AcDbLine
10
65
20
-17.25
30
0
11
40
21
-17.25
31
0
39
0
210
0
220
0
230
1
0
LINE
5
140
100
AcDbEntity
8
2
62
256
6
ByLayer
370
-1
48
1
60
0
100
AcDbLine
10
65
20
-17.25
30
0
11
61.825002
21
-17.667997
31
0
39
0
210
0
220
0
230
1
0
LINE
5
141
100
AcDbEntity
8
2
62
256
6
ByLayer
370
-1
48
1
60
0
100
AcDbLine
10
65
20
-17.25
30
0
11
61.824998
21
-16.832003
31
0
39
0
210
0
220
0
230
1
0
LINE
5
142
100
AcDbEntity
8
2
62
256
6
ByLayer
370
-1
48
1
60
0
100
AcDbLine
10
61.825002
20
-17.667997
30
0
11
61.824998
21
-16.832003
31
0
39
0
210
0
220
0
230
1
0
LINE
5
143
100
AcDbEntity
8
2
62
256
6
ByLayer
370
-1
48
1
60
0
100
AcDbLine
10
40
20
-17.25
30
0
11
43.174998
21
-16.832003
31
0
39
0
210
0
220
0
230
1
0
LINE
5
144
100
AcDbEntity
8
2
62
256
6
ByLayer
370
-1
48
1
60
0
100
AcDbLine
10
40
20
-17.25
30
0
11
43.175002
21
-17.667997
31
0
39
0
210
0
220
0
230
1
0
LINE
5
145
100
AcDbEntity
8
2
62
256
6
ByLayer
370
-1
48
1
60
0
100
AcDbLine
10
43.174998
20
-16.832003
30
0
11
43.175002
21
-17.667997
31
0
39
0
210
0
220
0
230
1
0
ENDBLK
5
147
100
AcDbEntity
8
0
100
AcDbBlockEnd
0
ENDSEC
0
SECTION
2
ENTITIES
0
ARC
5
89
100
AcDbEntity
8
SK1
62
256
6
ByLayer
370
-1
48
1
60
0
100
AcDbCircle
39
0
10
0.6
20
-23.45
30
0
40
0.999999999999999
210
0
220
0
230
-1
100
AcDbArc
50
113.578178
51
126.869898
0
ARC
5
8A
100
AcDbEntity
8
SK1
62
256
6
ByLayer
370
-1
48
1
60
0
100
AcDbCircle
39
0
10
0.6
20
23.45
30
0
40
0.999999999999999
210
0
220
0
230
-1
100
AcDbArc
50
233.130102
51
246.421822
0
ARC
5
8B
100
AcDbEntity
8
1
62
256
6
ByLayer
370
-1
48
1
60
0
100
AcDbCircle
39
0
10
41.9
20
-8.2
30
0
40
3.99999999999999
210
0
220
0
230
1
100
AcDbArc
50
90
51
145.909002
0
ARC
5
8C
100
AcDbEntity
8
1
62
256
6
ByLayer
370
-1
48
1
60
0
100
AcDbCircle
39
0
10
-57.8
20
0
30
0
40
3
210
0
220
0
230
-1
100
AcDbArc
50
327.272858
51
32.727142
0
ARC
5
8D
100
AcDbEntity
8
1
62
256
6
ByLayer
370
-1
48
1
60
0
100
AcDbCircle
39
0
10
41.9
20
8.2
30
0
40
4
210
0
220
0
230
1
100
AcDbArc
50
214.090998
51
270
0
ARC
5
8F
100
AcDbEntity
8
1
62
256
6
ByLayer
370
-1
48
1
60
0
100
AcDbCircle
39
0
10
60
20
0
30
0
40
1.2065
210
0
220
0
230
1
100
AcDbArc
50
273.955279
51
330.079943
0
ARC
5
90
100
AcDbEntity
8
1
62
256
6
ByLayer
370
-1
48
1
60
0
100
AcDbCircle
39
0
10
-60
20
0
30
0
40
1.2065
210
0
220
0
230
-1
100
AcDbArc
50
29.920057
51
86.044721
0
ARC
5
91
100
AcDbEntity
8
1
62
256
6
ByLayer
370
-1
48
1
60
0
100
AcDbCircle
39
0
10
-60
20
0
30
0
40
1.6765
210
0
220
0
230
-1
100
AcDbArc
50
300.159887
51
0
0
ARC
5
92
100
AcDbEntity
8
1
62
256
6
ByLayer
370
-1
48
1
60
0
100
AcDbCircle
39
0
10
-60
20
0
30
0
40
1.6765
210
0
220
0
230
-1
100
AcDbArc
50
239.840113
51
300.159887
0
ARC
5
93
100
AcDbEntity
8
1
62
256
6
ByLayer
370
-1
48
1
60
0
100
AcDbCircle
39
0
10
60
20
0
30
0
40
1.2065
210
0
220
0
230
1
100
AcDbArc
50
150.079943
51
209.920057
0
ARC
5
94
100
AcDbEntity
8
1
62
256
6
ByLayer
370
-1
48
1
60
0
100
AcDbCircle
39
0
10
60
20
0
30
0
40
1.2065
210
0
220
0
230
1
100
AcDbArc
50
29.920057
51
86.044721
0
ARC
5
95
100
AcDbEntity
8
1
62
256
6
ByLayer
370
-1
48
1
60
0
100
AcDbCircle
39
0
10
60
20
0
30
0
40
1.2065
210
0
220
0
230
1
100
AcDbArc
50
330.079943
51
29.920057
0
ARC
5
96
100
AcDbEntity
8
1
62
256
6
ByLayer
370
-1
48
1
60
0
100
AcDbCircle
39
0
10
-60
20
0
30
0
40
1.2065
210
0
220
0
230
-1
100
AcDbArc
50
266.044721
51
273.955279
0
ARC
5
97
100
AcDbEntity
8
1
62
256
6
ByLayer
370
-1
48
1
60
0
100
AcDbCircle
39
0
10
-60
20
0
30
0
40
1.6765
210
0
220
0
230
-1
100
AcDbArc
50
120.159887
51
180
0
ARC
5
9A
100
AcDbEntity
8
1
62
256
6
ByLayer
370
-1
48
1
60
0
100
AcDbCircle
39
0
10
-60
20
0
30
0
40
1.6765
210
0
220
0
230
-1
100
AcDbArc
50
0
51
59.840113
0
ARC
5
9C
100
AcDbEntity
8
1
62
256
6
ByLayer
370
-1
48
1
60
0
100
AcDbCircle
39
0
10
-60
20
0
30
0
40
1.2065
210
0
220
0
230
-1
100
AcDbArc
50
86.044721
51
93.955279
0
ARC
5
9D
100
AcDbEntity
8
1
62
256
6
ByLayer
370
-1
48
1
60
0
100
AcDbCircle
39
0
10
-60
20
0
30
0
40
1.6765
210
0
220
0
230
-1
100
AcDbArc
50
59.840113
51
120.159887
0
ARC
5
9F
100
AcDbEntity
8
1
62
256
6
ByLayer
370
-1
48
1
60
0
100
AcDbCircle
39
0
10
60
20
0
30
0
40
1.2065
210
0
220
0
230
1
100
AcDbArc
50
209.920057
51
266.044721
0
ARC
5
A1
100
AcDbEntity
8
1
62
256
6
ByLayer
370
-1
48
1
60
0
100
AcDbCircle
39
0
10
-60
20
0
30
0
40
1.6765
210
0
220
0
230
-1
100
AcDbArc
50
180
51
239.840113
0
CIRCLE
5
8E
100
AcDbEntity
8
1
62
256
6
ByLayer
370
-1
48
1
60
0
100
AcDbCircle
10
-60
20
0
30
0
40
2.94445165909344
39
0
210
0
220
0
230
-1
0
CIRCLE
5
98
100
AcDbEntity
8
1
62
256
6
ByLayer
370
-1
48
1
60
0
100
AcDbCircle
10
-60
20
0
30
0
40
5
39
0
210
0
220
0
230
-1
0
CIRCLE
5
99
100
AcDbEntity
8
1
62
256
6
ByLayer
370
-1
48
1
60
0
100
AcDbCircle
10
-60
20
0
30
0
40
3
39
0
210
0
220
0
230
-1
0
CIRCLE
5
9B
100
AcDbEntity
8
1
62
256
6
ByLayer
370
-1
48
1
60
0
100
AcDbCircle
10
-60
20
0
30
0
40
3.04453416176668
39
0
210
0
220
0
230
-1
0
CIRCLE
5
9E
100
AcDbEntity
8
1
62
256
6
ByLayer
370
-1
48
1
60
0
100
AcDbCircle
10
-60
20
0
30
0
40
1.8
39
0
210
0
220
0
230
-1
0
CIRCLE
5
A0
100
AcDbEntity
8
1
62
256
6
ByLayer
370
-1
48
1
60
0
100
AcDbCircle
10
-60
20
0
30
0
40
2.625
39
0
210
0
220
0
230
-1
0
ELLIPSE
5
A2
100
AcDbEntity
8
1
62
256
6
ByLayer
370
-1
48
1
60
0
100
AcDbEllipse
10
26.347154
20
0
30
0
11
-14.7536831606557
21
31.0932549155804
31
0
210
0
220
0
230
1
40
0.341999
41
0.157806186645434
42
1.09123958575284
0
ELLIPSE
5
A3
100
AcDbEntity
8
1
62
256
6
ByLayer
370
-1
48
1
60
0
100
AcDbEllipse
10
-2.347154
20
0
30
0
11
-14.7536831606544
21
31.0932549155788
31
0
210
0
220
0
230
1
40
0.341999
41
-2.98378646694435
42
-2.05035306783691
0
ELLIPSE
5
A4
100
AcDbEntity
8
1
62
256
6
ByLayer
370
-1
48
1
60
0
100
AcDbEllipse
10
26.347154
20
0
30
0
11
-14.7536831606557
21
-31.0932549155804
31
0
210
0
220
0
230
1
40
0.341999
41
-1.09123958575284
42
-0.157806186645435
0
ELLIPSE
5
A5
100
AcDbEntity
8
1
62
256
6
ByLayer
370
-1
48
1
60
0
100
AcDbEllipse
10
19.389929
20
0
30
0
11
3.36766747301154E-16
21
5.5
31
0
210
0
220
0
230
1
40
0.091641
41
1.74436248593641
42
-1.94291257763971
0
ELLIPSE
5
A6
100
AcDbEntity
8
1
62
256
6
ByLayer
370
-1
48
1
60
0
100
AcDbEllipse
10
19.389929
20
0
30
0
11
3.36766747301154E-16
21
5.5
31
0
210
0
220
0
230
1
40
0.091641
41
-1.19868007595003
42
1.39723016765338
0
ELLIPSE
5
A7
100
AcDbEntity
8
1
62
256
6
ByLayer
370
-1
48
1
60
0
100
AcDbEllipse
10
20.755893
20
0
30
0
11
1.92875500727024E-15
21
31.5
31
0
210
0
220
0
230
1
40
0.087489
41
0.103242903184248
42
3.03834975040554
0
ELLIPSE
5
A8
100
AcDbEntity
8
1
62
256
6
ByLayer
370
-1
48
1
60
0
100
AcDbEllipse
10
-2.347154
20
0
30
0
11
-14.7536831606537
21
-31.0932549155778
31
0
210
0
220
0
230
1
40
0.341999
41
2.05035306783689
42
2.98378646694435
0
ELLIPSE
5
A9
100
AcDbEntity
8
1
62
256
6
ByLayer
370
-1
48
1
60
0
100
AcDbEllipse
10
22.316832
20
0
30
0
11
1.10214571844014E-16
21
1.8
31
0
210
0
220
0
230
1
40
0.224951
41
-2.9085254031843
42
-1.57079643748548
0
ELLIPSE
5
AA
100
AcDbEntity
8
1
62
256
6
ByLayer
370
-1
48
1
60
0
100
AcDbEllipse
10
22.316832
20
0
30
0
11
1.10214571844014E-16
21
1.8
31
0
210
0
220
0
230
1
40
0.224951
41
-1.57079643748549
42
-0.232968415891624
0
ELLIPSE
5
AB
100
AcDbEntity
8
1
62
256
6
ByLayer
370
-1
48
1
60
0
100
AcDbEllipse
10
18.507054
20
0
30
0
11
-3.37126925640514E-16
21
-1.83529411764706
31
0
210
0
220
0
230
1
40
0.224951
41
1.210985969281
42
1.93050907190872
0
ELLIPSE
5
AC
100
AcDbEntity
8
1
62
256
6
ByLayer
370
-1
48
1
60
0
100
AcDbEllipse
10
18.845289
20
0
30
0
11
-3.1842710054132E-16
21
-1.73349364905389
31
0
210
0
220
0
230
1
40
0.224951
41
0.168859874788939
42
2.97263264530664
0
ELLIPSE
5
AD
100
AcDbEntity
8
1
62
256
6
ByLayer
370
-1
48
1
60
0
100
AcDbEllipse
10
19.295061
20
0
30
0
11
1.22460635382238E-16
21
2
31
0
210
0
220
0
230
1
40
0.224951
41
3.0078792952259
42
-1.57079599304108
0
ELLIPSE
5
AE
100
AcDbEntity
8
1
62
256
6
ByLayer
370
-1
48
1
60
0
100
AcDbEllipse
10
19.295061
20
0
30
0
11
1.22460635382238E-16
21
2
31
0
210
0
220
0
230
1
40
0.224951
41
-1.57079649304105
42
-1.08877609241335E-15
0
ELLIPSE
5
AF
100
AcDbEntity
8
1
62
256
6
ByLayer
370
-1
48
1
60
0
100
AcDbEllipse
10
19.295061
20
0
30
0
11
1.22460635382238E-16
21
2
31
0
210
0
220
0
230
1
40
0.224951
41
0
42
0.133615827789999
0
ELLIPSE
5
B0
100
AcDbEntity
8
1
62
256
6
ByLayer
370
-1
48
1
60
0
100
AcDbEllipse
10
22.121958
20
0
30
0
11
-3.67381906146713E-16
21
-2
31
0
210
0
220
0
230
1
40
0.224951
41
0
42
3.1415919089491
0
POINT
5
41
100
AcDbEntity
8
SK2
62
256
6
ByLayer
370
-1
48
1
60
0
100
AcDbPoint
10
65
20
2.071068
30
0
39
0
210
0
220
0
230
1
50
360
0
POINT
5
43
100
AcDbEntity
8
81
62
256
6
ByLayer
370
-1
48
1
60
0
100
AcDbPoint
10
65
20
5
30
0
39
0
210
0
220
0
230
1
50
360
0
POINT
5
45
100
AcDbEntity
8
SK2
62
256
6
ByLayer
370
-1
48
1
60
0
100
AcDbPoint
10
115
20
52.071068
30
0
39
0
210
0
220
0
230
1
50
360
0
POINT
5
46
100
AcDbEntity
8
SK2
62
256
6
ByLayer
370
-1
48
1
60
0
100
AcDbPoint
10
65
20
2.071068
30
0
39
0
210
0
220
0
230
1
50
360
0
POINT
5
47
100
AcDbEntity
8
SK2
62
256
6
ByLayer
370
-1
48
1
60
0
100
AcDbPoint
10
115
20
52.071068
30
0
39
0
210
0
220
0
230
1
50
360
0
POINT
5
48
100
AcDbEntity
8
80
62
256
6
ByLayer
370
-1
48
1
60
0
100
AcDbPoint
10
0
20
0
30
0
39
0
210
0
220
0
230
1
50
360
0
POINT
5
4A
100
AcDbEntity
8
SK2
62
256
6
ByLayer
370
-1
48
1
60
0
100
AcDbPoint
10
65
20
2.071068
30
0
39
0
210
0
220
0
230
1
50
360
0
POINT
5
4B
100
AcDbEntity
8
2
62
256
6
ByLayer
370
-1
48
1
60
0
100
AcDbPoint
10
65
20
2.071068
30
0
39
0
210
0
220
0
230
1
50
360
0
POINT
5
4D
100
AcDbEntity
8
SK2
62
256
6
ByLayer
370
-1
48
1
60
0
100
AcDbPoint
10
65
20
2.071068
30
0
39
0
210
0
220
0
230
1
50
360
0
SPLINE
5
B1
100
AcDbEntity
8
SK1
62
256
6
ByLayer
370
-1
48
1
60
0
100
AcDbSpline
70
4
71
2
72
6
73
3
40
0
40
0
40
0
40
1
40
1
40
1
41
1
10
-36.5
20
-21.1521177089669
30
0
41
1
10
-19.34999999997
20
-21.5828554470541
30
0
41
1
10
-2.19999999999999
20
-22.0135928951589
30
0
0
SPLINE
5
B2
100
AcDbEntity
8
SK1
62
256
6
ByLayer
370
-1
48
1
60
0
100
AcDbSpline
70
4
71
2
72
6
73
3
40
0
40
0
40
0
40
1
40
1
40
1
41
1
10
-2.19999999999999
20
22.0135927638551
30
0
41
1
10
-19.349999999987
20
21.5828539542124
30
0
41
1
10
-36.5
20
21.1521149580209
30
0
0
SPLINE
5
B3
100
AcDbEntity
8
SK1
62
256
6
ByLayer
370
-1
48
1
60
0
100
AcDbSpline
70
4
71
3
72
13
73
9
40
0
40
0
40
0
40
0
40
0.239456135763293
40
0.36835972193326
40
0.499998984020783
40
0.63163841528349
40
0.760542467778012
40
1
40
1
40
1
40
1
41
1
10
-2.19999999999999
20
-22.0200986606755
30
0
41
1
10
-2.19909198642273
20
-21.9940411845603
30
0
41
1
10
-2.19103284106944
20
-21.9566686002239
30
0
41
1
10
-2.16563592203345
20
-21.9104494263859
30
0
41
1
10
-2.13886378679267
20
-21.8791678725254
30
0
41
1
10
-2.10627712749874
20
-21.854000502323
30
0
41
1
10
-2.05884064234083
20
-21.8309566998545
30
0
41
1
10
-2.02111030873027
20
-21.8247844448324
30
0
41
1
10
-1.9950399779393
20
-21.825186084775
30
0
0
SPLINE
5
B4
100
AcDbEntity
8
SK1
62
256
6
ByLayer
370
-1
48
1
60
0
100
AcDbSpline
70
4
71
3
72
13
73
9
40
0
40
0
40
0
40
0
40
0.23945753215315
40
0.368361584623414
40
0.500001015876472
40
0.631640277971597
40
0.760543864164749
40
1
40
1
40
1
40
1
41
1
10
-1.9950399779393
20
21.8251861015554
30
0
41
1
10
-2.02111030873168
20
21.8247844616134
30
0
41
1
10
-2.05884064234347
20
21.8309567166392
30
0
41
1
10
-2.10627712750083
20
21.854000519123
30
0
41
1
10
-2.13886378679463
20
21.8791678893422
30
0
41
1
10
-2.16563592203494
20
21.9104494432232
30
0
41
1
10
-2.19103284107057
20
21.956668617092
30
0
41
1
10
-2.19909198642385
20
21.994041201451
30
0
41
1
10
-2.19999999999999
20
22.0200986775813
30
0
0
SPLINE
5
B5
100
AcDbEntity
8
SK1
62
256
6
ByLayer
370
-1
48
1
60
0
100
AcDbSpline
70
4
71
2
72
6
73
3
40
0
40
0
40
0
40
1
40
1
40
1
41
1
10
-1.9950399779393
20
-21.8251812553753
30
0
41
1
10
-1.19500843340728
20
-21.8452807024746
30
0
41
1
10
-0.394976888875291
20
-21.8653801495793
30
0
0
SPLINE
5
B6
100
AcDbEntity
8
SK1
62
256
6
ByLayer
370
-1
48
1
60
0
100
AcDbSpline
70
4
71
2
72
6
73
3
40
0
40
0
40
0
40
1
40
1
40
1
41
1
10
-0.394976888875291
20
21.8653802062992
30
0
41
1
10
-1.19500843340728
20
21.8452807593862
30
0
41
1
10
-1.9950399779393
20
21.8251813124779
30
0
0
SPLINE
5
B7
100
AcDbEntity
8
SK1
62
256
6
ByLayer
370
-1
48
1
60
0
100
AcDbSpline
70
4
71
2
72
6
73
3
40
0
40
0
40
0
40
1
40
1
40
1
41
1
10
-38
20
-20.289405225553
30
0
41
1
10
-37.2500000000012
20
-20.7223540793631
30
0
41
1
10
-36.5
20
-21.1553029418638
30
0
0
SPLINE
5
B8
100
AcDbEntity
8
SK1
62
256
6
ByLayer
370
-1
48
1
60
0
100
AcDbSpline
70
4
71
2
72
6
73
3
40
0
40
0
40
0
40
1
40
1
40
1
41
1
10
-36.5
20
21.155302724897
30
0
41
1
10
-37.2500000000012
20
20.7223538609616
30
0
41
1
10
-38
20
20.2894050057151
30
0
0
SPLINE
5
B9
100
AcDbEntity
8
SK1
62
256
6
ByLayer
370
-1
48
1
60
0
100
AcDbSpline
70
4
71
3
72
18
73
14
40
0
40
0
40
0
40
0
40
0.0672382563215554
40
0.0811096257885339
40
0.0934387461551844
40
0.10468022253315
40
0.116011636982839
40
0.129170963688488
40
0.14584209113507
40
0.194578127712937
40
0.367894501516736
40
0.735617522922154
40
1
40
1
40
1
40
1
41
1
10
-0.394976888875291
20
-21.8653849865467
30
0
41
1
10
-0.385367724925303
20
-21.8650589764544
30
0
41
1
10
-0.370769899633288
20
-21.8668245623102
30
0
41
1
10
-0.350602834672031
20
-21.8713724905555
30
0
41
1
10
-0.341354641125889
20
-21.8739511590898
30
0
41
1
10
-0.331761818972836
20
-21.8771456376099
30
0
41
1
10
-0.322000393797538
20
-21.8809836517657
30
0
41
1
10
-0.312675854503226
20
-21.8852359586888
30
0
41
1
10
-0.299158508391642
20
-21.8922659040288
30
0
41
1
10
-0.274228940510639
20
-21.9083875411195
30
0
41
1
10
-0.246614388206964
20
-21.9342372497571
30
0
41
1
10
-0.2247179152657
20
-21.9626598520358
30
0
41
1
10
-0.216050180133934
20
-21.9783575508399
30
0
41
1
10
-0.214299796343099
20
-21.9837864939934
30
0
0
SPLINE
5
BA
100
AcDbEntity
8
SK1
62
256
6
ByLayer
370
-1
48
1
60
0
100
AcDbSpline
70
4
71
3
72
21
73
17
40
0
40
0
40
0
40
0
40
0.228918380244403
40
0.519567862881993
40
0.686499133490117
40
0.728866425682776
40
0.742084405934426
40
0.747218466939511
40
0.75168906902335
40
0.755838002852708
40
0.76003650204894
40
0.76460070399263
40
0.769743599359952
40
0.797552158202929
40
0.886046400205926
40
1
40
1
40
1
40
1
41
1
10
-0.207411331258967
20
22.0044787047945
30
0
41
1
10
-0.20831818938963
20
22.001289229706
30
0
41
1
10
-0.213303269205781
20
21.9901220666371
30
0
41
1
10
-0.226159555477835
20
21.9654154799143
30
0
41
1
10
-0.244026724966773
20
21.9377710152598
30
0
41
1
10
-0.265879117946597
20
21.9152361581686
30
0
41
1
10
-0.277404558589097
20
21.9056658887585
30
0
41
1
10
-0.283401057762049
20
21.9011770953515
30
0
41
1
10
-0.287668636036131
20
21.8981716907254
30
0
41
1
10
-0.292059582382024
20
21.8952686846974
30
0
41
1
10
-0.296473357627605
20
21.8925343095178
30
0
41
1
10
-0.300857602501239
20
21.8899891408788
30
0
41
1
10
-0.311373677740875
20
21.8842840996068
30
0
41
1
10
-0.335101334244342
20
21.874157081924
30
0
41
1
10
-0.362447610698169
20
21.8680409475183
30
0
41
1
10
-0.385119537986824
20
21.8648047289598
30
0
41
1
10
-0.394976888875291
20
21.865385003355
30
0
0
SPLINE
5
BB
100
AcDbEntity
8
1
62
256
6
ByLayer
370
-1
48
1
60
0
100
AcDbSpline
70
4
71
3
72
16
73
12
40
0
40
0
40
0
40
0
40
0.113316224833593
40
0.113316224833593
40
0.252990411571579
40
0.252990411571579
40
0.473309013928354
40
0.473309013928354
40
0.896716357718913
40
0.896716357718913
40
1
40
1
40
1
40
1
41
1
10
10.5386751345948
20
-9.34922131452512
30
0
41
1
10
10.5105874404282
20
-9.34922131452512
30
0
41
1
10
10.482150642237
20
-9.35431657338984
30
0
41
1
10
10.4232029654275
20
-9.37467777536568
30
0
41
1
10
10.3927526278712
20
-9.39213979793414
30
0
41
1
10
10.3230856363398
20
-9.44503542604386
30
0
41
1
10
10.2871733492349
20
-9.48569380431883
30
0
41
1
10
10.1985362549164
20
-9.6110592336681
30
0
41
1
10
10.1576291602469
20
-9.70465429390072
30
0
41
1
10
10.1190965262402
20
-9.82244573862477
30
0
41
1
10
10.112102816203
20
-9.84586944318031
30
0
41
1
10
10.1056624327025
20
-9.86941261896618
30
0
0
SPLINE
5
BC
100
AcDbEntity
8
1
62
256
6
ByLayer
370
-1
48
1
60
0
100
AcDbSpline
70
4
71
3
72
16
73
12
40
0
40
0
40
0
40
0
40
0.463423600832262
40
0.463423600832262
40
0.646243952932856
40
0.646243952932856
40
0.831657283224518
40
0.831657283224518
40
0.94750434429086
40
0.94750434429086
40
1
40
1
40
1
40
1
41
1
10
10.1056624327026
20
-29.9139548464691
30
0
41
1
10
10.1343390747265
20
-29.9485407466772
30
0
41
1
10
10.1736499876091
20
-29.982269090612
30
0
41
1
10
10.2546180633468
20
-30.0239686896252
30
0
41
1
10
10.2809130191141
20
-30.0352936109065
30
0
41
1
10
10.3420137796675
20
-30.0555697561518
30
0
41
1
10
10.3777400094533
20
-30.0647246060481
30
0
41
1
10
10.443351653645
20
-30.0751823136668
30
0
41
1
10
10.4710402024013
20
-30.0781795790239
30
0
41
1
10
10.5123223625249
20
-30.0802576981002
30
0
41
1
10
10.5255210031399
20
-30.0805927603169
30
0
41
1
10
10.5386751345948
20
-30.0805927603169
30
0
0
SPLINE
5
BD
100
AcDbEntity
8
1
62
256
6
ByLayer
370
-1
48
1
60
0
100
AcDbSpline
70
4
71
3
72
16
73
12
40
0
40
0
40
0
40
0
40
0.463423600832209
40
0.463423600832209
40
0.646243952932815
40
0.646243952932815
40
0.831657283224495
40
0.831657283224495
40
0.947504344290837
40
0.947504344290837
40
1
40
1
40
1
40
1
41
1
10
13.8943375672974
20
-9.86941261896621
30
0
41
1
10
13.8656609252735
20
-9.76458357826289
30
0
41
1
10
13.8263500123909
20
-9.66039292789941
30
0
41
1
10
13.7453819366532
20
-9.52957658281042
30
0
41
1
10
13.7190869808859
20
-9.49380155568073
30
0
41
1
10
13.6579862203325
20
-9.42941539787637
30
0
41
1
10
13.6222599905467
20
-9.40014891155712
30
0
41
1
10
13.556648346355
20
-9.36662118733784
30
0
41
1
10
13.5289597975987
20
-9.35698328824239
30
0
41
1
10
13.4876776374751
20
-9.35029954873104
30
0
41
1
10
13.47447899686
20
-9.34922131452501
30
0
41
1
10
13.4613248654052
20
-9.34922131452501
30
0
0
SPLINE
5
BE
100
AcDbEntity
8
1
62
256
6
ByLayer
370
-1
48
1
60
0
100
AcDbSpline
70
4
71
3
72
16
73
12
40
0
40
0
40
0
40
0
40
0.113316224833596
40
0.113316224833596
40
0.252990411571581
40
0.252990411571581
40
0.473309013928343
40
0.473309013928343
40
0.896716357718895
40
0.896716357718895
40
1
40
1
40
1
40
1
41
1
10
13.4613248654052
20
-30.0805927603169
30
0
41
1
10
13.4894125595718
20
-30.0805927603169
30
0
41
1
10
13.517849357763
20
-30.0790101689567
30
0
41
1
10
13.5767970345725
20
-30.0726712338969
30
0
41
1
10
13.6072473721288
20
-30.0672275748685
30
0
41
1
10
13.6769143636602
20
-30.0506647867052
30
0
41
1
10
13.7128266507651
20
-30.0378702684275
30
0
41
1
10
13.8014637450836
20
-29.9980833386355
30
0
41
1
10
13.8423708397531
20
-29.967975934908
30
0
41
1
10
13.8809034737598
20
-29.9294196064672
30
0
41
1
10
13.8878971837969
20
-29.9217223689309
30
0
41
1
10
13.8943375672975
20
-29.9139548464691
30
0
0
SPLINE
5
BF
100
AcDbEntity
8
1
62
256
6
ByLayer
370
-1
48
1
60
0
100
AcDbSpline
70
4
71
3
72
16
73
12
40
0
40
0
40
0
40
0
40
0.463423600832241
40
0.463423600832241
40
0.646243952932834
40
0.646243952932834
40
0.831657283224497
40
0.831657283224497
40
0.947504344290847
40
0.947504344290847
40
1
40
1
40
1
40
1
41
1
10
13.8943375672974
20
29.9139548464691
30
0
41
1
10
13.8656609252735
20
29.9485407466772
30
0
41
1
10
13.8263500123909
20
29.982269090612
30
0
41
1
10
13.7453819366532
20
30.0239686896252
30
0
41
1
10
13.7190869808859
20
30.0352936109065
30
0
41
1
10
13.6579862203325
20
30.0555697561518
30
0
41
1
10
13.6222599905467
20
30.0647246060481
30
0
41
1
10
13.556648346355
20
30.0751823136668
30
0
41
1
10
13.5289597975987
20
30.0781795790239
30
0
41
1
10
13.4876776374751
20
30.0802576981002
30
0
41
1
10
13.47447899686
20
30.0805927603169
30
0
41
1
10
13.4613248654052
20
30.0805927603169
30
0
0
SPLINE
5
C0
100
AcDbEntity
8
1
62
256
6
ByLayer
370
-1
48
1
60
0
100
AcDbSpline
70
4
71
3
72
16
73
12
40
0
40
0
40
0
40
0
40
0.113316224833592
40
0.113316224833592
40
0.252990411571568
40
0.252990411571568
40
0.473309013928318
40
0.473309013928318
40
0.896716357718825
40
0.896716357718825
40
1
40
1
40
1
40
1
41
1
10
13.4613248654052
20
9.3492213145251
30
0
41
1
10
13.4894125595718
20
9.3492213145251
30
0
41
1
10
13.517849357763
20
9.35431657338981
30
0
41
1
10
13.5767970345725
20
9.37467777536565
30
0
41
1
10
13.6072473721288
20
9.39213979793414
30
0
41
1
10
13.6769143636602
20
9.44503542604383
30
0
41
1
10
13.7128266507651
20
9.4856938043188
30
0
41
1
10
13.8014637450836
20
9.61105923366807
30
0
41
1
10
13.842370839753
20
9.70465429390066
30
0
41
1
10
13.8809034737598
20
9.82244573862474
30
0
41
1
10
13.8878971837969
20
9.84586944318031
30
0
41
1
10
13.8943375672975
20
9.86941261896621
30
0
0
SPLINE
5
C1
100
AcDbEntity
8
1
62
256
6
ByLayer
370
-1
48
1
60
0
100
AcDbSpline
70
4
71
3
72
16
73
12
40
0
40
0
40
0
40
0
40
0.113316224833594
40
0.113316224833594
40
0.252990411571577
40
0.252990411571577
40
0.473309013928351
40
0.473309013928351
40
0.896716357718897
40
0.896716357718897
40
1
40
1
40
1
40
1
41
1
10
10.5386751345948
20
30.0805927603169
30
0
41
1
10
10.5105874404282
20
30.0805927603169
30
0
41
1
10
10.482150642237
20
30.0790101689566
30
0
41
1
10
10.4232029654275
20
30.0726712338969
30
0
41
1
10
10.3927526278712
20
30.0672275748685
30
0
41
1
10
10.3230856363398
20
30.0506647867052
30
0
41
1
10
10.2871733492349
20
30.0378702684275
30
0
41
1
10
10.1985362549164
20
29.9980833386355
30
0
41
1
10
10.1576291602469
20
29.967975934908
30
0
41
1
10
10.1190965262402
20
29.9294196064672
30
0
41
1
10
10.112102816203
20
29.9217223689309
30
0
41
1
10
10.1056624327025
20
29.9139548464691
30
0
0
SPLINE
5
C2
100
AcDbEntity
8
1
62
256
6
ByLayer
370
-1
48
1
60
0
100
AcDbSpline
70
4
71
3
72
10
73
6
40
0
40
0
40
0
40
0
40
0.578376504287309
40
0.578376504287309
40
1
40
1
40
1
40
1
41
1
10
20.4718717134973
20
-31.3322682898241
30
0
41
1
10
20.5105431555456
20
-31.3780662046256
30
0
41
1
10
20.6255356455217
20
-31.4139740357687
30
0
41
1
10
20.9412662481986
20
-31.4576791440949
30
0
41
1
10
21.1122610365145
20
-31.4709420770924
30
0
41
1
10
21.3135048236917
20
-31.4800467045757
30
0
0
SPLINE
5
C3
100
AcDbEntity
8
1
62
256
6
ByLayer
370
-1
48
1
60
0
100
AcDbSpline
70
4
71
3
72
12
73
8
40
0
40
0
40
0
40
0
40
0.282297947509349
40
0.282297947509349
40
0.86154153203037
40
0.86154153203037
40
1
40
1
40
1
40
1
41
1
10
21.3135048237014
20
31.4800467045762
30
0
41
1
10
21.1786399380867
20
31.4739451768654
30
0
41
1
10
21.0574597746143
20
31.4660123593168
30
0
41
1
10
20.7375946569673
20
31.435228966227
30
0
41
1
10
20.5871425414557
20
31.4046200191754
30
0
41
1
10
20.4949389276489
20
31.3538728414427
30
0
41
1
10
20.4812380195938
20
31.343360642886
30
0
41
1
10
20.4718717134973
20
31.3322682898241
30
0
0
SPLINE
5
C4
100
AcDbEntity
8
1
62
256
6
ByLayer
370
-1
48
1
60
0
100
AcDbSpline
70
4
71
3
72
16
73
12
40
0
40
0
40
0
40
0
40
0.463423600832241
40
0.463423600832241
40
0.646243952932837
40
0.646243952932837
40
0.831657283224505
40
0.831657283224505
40
0.947504344290848
40
0.947504344290848
40
1
40
1
40
1
40
1
41
1
10
10.1056624327026
20
9.86941261896621
30
0
41
1
10
10.1343390747265
20
9.76458357826289
30
0
41
1
10
10.1736499876091
20
9.66039292789938
30
0
41
1
10
10.2546180633468
20
9.52957658281042
30
0
41
1
10
10.2809130191141
20
9.49380155568073
30
0
41
1
10
10.3420137796675
20
9.42941539787637
30
0
41
1
10
10.3777400094532
20
9.40014891155712
30
0
41
1
10
10.4433516536449
20
9.36662118733787
30
0
41
1
10
10.4710402024013
20
9.35698328824239
30
0
41
1
10
10.5123223625249
20
9.35029954873107
30
0
41
1
10
10.5255210031399
20
9.34922131452504
30
0
41
1
10
10.5386751345948
20
9.34922131452504
30
0
0
SPLINE
5
C5
100
AcDbEntity
8
SK1
62
256
6
ByLayer
370
-1
48
1
60
0
100
AcDbSpline
70
4
71
3
72
299
73
295
40
0
40
0
40
0
40
0
40
0.0033237704455448
40
0.0068463957088515
40
0.0103690209721582
40
0.0138916462354649
40
0.0174142714987716
40
0.0209368967620783
40
0.024459522025385
40
0.0279821472886916
40
0.035027397815305
40
0.0420726483419184
40
0.0491178988685318
40
0.0526405241318385
40
0.0561631493951452
40
0.0596857746584519
40
0.0632083999217586
40
0.070253650448372
40
0.0737762757116786
40
0.0772989009749853
40
0.080821526238292
40
0.0843441515015987
40
0.0878667767649054
40
0.0913894020282121
40
0.0984346525548255
40
0.101957277818132
40
0.105479903081439
40
0.109002528344746
40
0.112525153608052
40
0.116047778871359
40
0.119570404134666
40
0.123093029397972
40
0.126615654661279
40
0.130138279924586
40
0.133660905187892
40
0.137183530451199
40
0.140706155714506
40
0.144228780977812
40
0.147751406241119
40
0.154796656767733
40
0.158319282031039
40
0.161841907294346
40
0.163603219925999
40
0.165364532557653
40
0.168887157820959
40
0.175932408347573
40
0.179455033610879
40
0.182977658874186
40
0.186500284137493
40
0.190022909400799
40
0.197068159927413
40
0.20059078519072
40
0.204113410454026
40
0.20587472308568
40
0.207636035717333
40
0.21115866098064
40
0.218203911507253
40
0.22172653677056
40
0.225249162033866
40
0.228771787297173
40
0.23229441256048
40
0.239339663087093
40
0.2428622883504
40
0.246384913613707
40
0.24814622624536
40
0.249907538877013
40
0.25343016414032
40
0.256952789403627
40
0.260475414666933
40
0.262236727298587
40
0.26399803993024
40
0.267520665193547
40
0.271043290456853
40
0.27456591572016
40
0.278088540983467
40
0.281611166246774
40
0.28513379151008
40
0.288656416773387
40
0.292179042036694
40
0.2957016673
40
0.299224292563307
40
0.302746917826614
40
0.30626954308992
40
0.309792168353227
40
0.313314793616534
40
0.31683741887984
40
0.323882669406454
40
0.32740529466976
40
0.330927919933067
40
0.334450545196374
40
0.337973170459681
40
0.341495795722987
40
0.345018420986294
40
0.348541046249601
40
0.352063671512907
40
0.359108922039521
40
0.366154172566134
40
0.373199423092748
40
0.376722048356054
40
0.380244673619361
40
0.383767298882668
40
0.387289924145974
40
0.390812549409281
40
0.394335174672588
40
0.397857799935894
40
0.401380425199201
40
0.404903050462508
40
0.408425675725815
40
0.411948300989121
40
0.415470926252428
40
0.418993551515734
40
0.422516176779041
40
0.426038802042348
40
0.429561427305655
40
0.433084052568961
40
0.434845365200615
40
0.436606677832268
40
0.438367990463921
40
0.440129303095575
40
0.443651928358881
40
0.447174553622188
40
0.448935866253841
40
0.450697178885495
40
0.452458491517148
40
0.454219804148801
40
0.457742429412108
40
0.459503742043761
40
0.461265054675415
40
0.463026367307068
40
0.464787679938722
40
0.466548992570375
40
0.468310305202028
40
0.470071617833682
40
0.471832930465335
40
0.473594243096988
40
0.475355555728642
40
0.477116868360295
40
0.478878180991948
40
0.480639493623602
40
0.482400806255255
40
0.484162118886908
40
0.485923431518562
40
0.487684744150215
40
0.489446056781868
40
0.491207369413522
40
0.492968682045175
40
0.494729994676828
40
0.496491307308482
40
0.498252619940135
40
0.500013932571788
40
0.501775245203442
40
0.503536557835095
40
0.505297870466748
40
0.507059183098402
40
0.508820495730055
40
0.510581808361709
40
0.512343120993362
40
0.514104433625015
40
0.515865746256669
40
0.517627058888322
40
0.519388371519975
40
0.521149684151629
40
0.522910996783282
40
0.524672309414935
40
0.526433622046589
40
0.528194934678242
40
0.529956247309895
40
0.531717559941549
40
0.533478872573202
40
0.535240185204855
40
0.537001497836509
40
0.538762810468162
40
0.540524123099815
40
0.542285435731469
40
0.545808060994775
40
0.547569373626429
40
0.549330686258082
40
0.551091998889735
40
0.552853311521389
40
0.556375936784695
40
0.559898562048002
40
0.561659874679656
40
0.563421187311309
40
0.565182499942962
40
0.566943812574616
40
0.570466437837922
40
0.573989063101229
40
0.577511688364536
40
0.581034313627842
40
0.584556938891149
40
0.588079564154456
40
0.591602189417762
40
0.595124814681069
40
0.598647439944376
40
0.602170065207682
40
0.605692690470989
40
0.609215315734296
40
0.612737940997603
40
0.616260566260909
40
0.619783191524216
40
0.623305816787523
40
0.626828442050829
40
0.633873692577443
40
0.640918943104056
40
0.64796419363067
40
0.651486818893976
40
0.655009444157283
40
0.65853206942059
40
0.662054694683896
40
0.665577319947203
40
0.66909994521051
40
0.672622570473816
40
0.676145195737123
40
0.683190446263736
40
0.686713071527043
40
0.69023569679035
40
0.693758322053657
40
0.697280947316963
40
0.70080357258027
40
0.704326197843577
40
0.707848823106883
40
0.71137144837019
40
0.714894073633497
40
0.718416698896803
40
0.72193932416011
40
0.725461949423417
40
0.73250719995003
40
0.736029825213337
40
0.739552450476644
40
0.746597701003257
40
0.750120326266564
40
0.75364295152987
40
0.757165576793177
40
0.760688202056484
40
0.767733452583097
40
0.771256077846404
40
0.77477870310971
40
0.778301328373017
40
0.781823953636324
40
0.788869204162937
40
0.792391829426244
40
0.795914454689551
40
0.799437079952857
40
0.802959705216164
40
0.810004955742777
40
0.813527581006084
40
0.817050206269391
40
0.820572831532697
40
0.824095456796004
40
0.831140707322618
40
0.834663332585924
40
0.838185957849231
40
0.841708583112538
40
0.845231208375844
40
0.852276458902458
40
0.855799084165764
40
0.859321709429071
40
0.862844334692378
40
0.866366959955684
40
0.869889585218991
40
0.873412210482298
40
0.876934835745604
40
0.880457461008911
40
0.883980086272218
40
0.887502711535525
40
0.891025336798831
40
0.894547962062138
40
0.898070587325445
40
0.901593212588751
40
0.908638463115365
40
0.912161088378671
40
0.915683713641978
40
0.919206338905285
40
0.922728964168592
40
0.926251589431898
40
0.929774214695205
40
0.936819465221818
40
0.940342090485125
40
0.943864715748432
40
0.947387341011738
40
0.950909966275045
40
0.957955216801658
40
0.961477842064965
40
0.965000467328272
40
0.968523092591578
40
0.972045717854885
40
0.975568343118192
40
0.979090968381499
40
0.982613593644805
40
0.986136218908112
40
0.989658844171419
40
0.993181469434725
40
0.996704094698032
40
1
40
1
40
1
40
1
41
1
10
-1.9950399779393
20
21.8251642694672
30
0
41
1
10
-1.9950399779393
20
21.8252835051096
30
0
41
1
10
-1.9950399779393
20
21.824522372137
30
0
41
1
10
-1.9950399779393
20
21.8202836860757
30
0
41
1
10
-1.9950399779393
20
21.812783044142
30
0
41
1
10
-1.9950399779393
20
21.8021565364934
30
0
41
1
10
-1.9950399779393
20
21.7884557330328
30
0
41
1
10
-1.9950399779393
20
21.7717308612526
30
0
41
1
10
-1.9950399779393
20
21.7520291985819
30
0
41
1
10
-1.9950399779393
20
21.7218385059106
30
0
41
1
10
-1.9950399779393
20
21.6769140218914
30
0
41
1
10
-1.9950399779393
20
21.6117670092986
30
0
41
1
10
-1.9950399779393
20
21.5484022523455
30
0
41
1
10
-1.9950399779393
20
21.4923512863894
30
0
41
1
10
-1.9950399779393
20
21.4477036012609
30
0
41
1
10
-1.9950399779393
20
21.4004602751572
30
0
41
1
10
-1.9950399779393
20
21.3340243579833
30
0
41
1
10
-1.9950399779393
20
21.2626002065085
30
0
41
1
10
-1.9950399779393
20
21.1861355372814
30
0
41
1
10
-1.9950399779393
20
21.126355615456
30
0
41
1
10
-1.9950399779393
20
21.0641493981766
30
0
41
1
10
-1.9950399779393
20
20.9995415089612
30
0
41
1
10
-1.9950399779393
20
20.9325549476398
30
0
41
1
10
-1.9950399779393
20
20.8400664063016
30
0
41
1
10
-1.9950399779393
20
20.7430171949632
30
0
41
1
10
-1.9950399779393
20
20.6412830606924
30
0
41
1
10
-1.9950399779393
20
20.5627395849404
30
0
41
1
10
-1.9950399779393
20
20.4819464711493
30
0
41
1
10
-1.9950399779393
20
20.3989234016943
30
0
41
1
10
-1.9950399779393
20
20.3136873945745
30
0
41
1
10
-1.9950399779393
20
20.2262576082901
30
0
41
1
10
-1.9950399779393
20
20.136651569995
30
0
41
1
10
-1.9950399779393
20
20.0448848271876
30
0
41
1
10
-1.9950399779393
20
19.9509751576252
30
0
41
1
10
-1.9950399779393
20
19.8549383078336
30
0
41
1
10
-1.9950399779393
20
19.7567886026657
30
0
41
1
10
-1.9950399779393
20
19.6565424313982
30
0
41
1
10
-1.9950399779393
20
19.5542139601407
30
0
41
1
10
-1.9950399779393
20
19.4149698127943
30
0
41
1
10
-1.9950399779393
20
19.2717622924356
30
0
41
1
10
-1.9950399779393
20
19.1243520606764
30
0
41
1
10
-1.9950399779393
20
19.0305969699326
30
0
41
1
10
-1.9950399779393
20
18.9545457436666
30
0
41
1
10
-1.9950399779393
20
18.877828345234
30
0
41
1
10
-1.9950399779393
20
18.7418485706132
30
0
41
1
10
-1.9950399779393
20
18.5826225030747
30
0
41
1
10
-1.9950399779393
20
18.4193199892891
30
0
41
1
10
-1.9950399779393
20
18.2949375082747
30
0
41
1
10
-1.9950399779393
20
18.1686188381619
30
0
41
1
10
-1.9950399779393
20
17.9975681157064
30
0
41
1
10
-1.9950399779393
20
17.8228588844704
30
0
41
1
10
-1.9950399779393
20
17.6441795672679
30
0
41
1
10
-1.9950399779393
20
17.5309981410348
30
0
41
1
10
-1.9950399779393
20
17.4394590341184
30
0
41
1
10
-1.9950399779393
20
17.3472945498449
30
0
41
1
10
-1.9950399779393
20
17.1843913435575
30
0
41
1
10
-1.9950399779393
20
16.9946548235122
30
0
41
1
10
-1.9950399779393
20
16.8010333841432
30
0
41
1
10
-1.9950399779393
20
16.654027023888
30
0
41
1
10
-1.9950399779393
20
16.5051894370887
30
0
41
1
10
-1.9950399779393
20
16.3042392155796
30
0
41
1
10
-1.9950399779393
20
16.0998599858609
30
0
41
1
10
-1.9950399779393
20
15.8916662065006
30
0
41
1
10
-1.9950399779393
20
15.7601264684356
30
0
41
1
10
-1.9950399779393
20
15.6539352235828
30
0
41
1
10
-1.9950399779393
20
15.5471478788444
30
0
41
1
10
-1.9950399779393
20
15.4126292313156
30
0
41
1
10
-1.9950399779393
20
15.2493853238091
30
0
41
1
10
-1.9950399779393
20
15.1119089381336
30
0
41
1
10
-1.9950399779393
20
15.0009760777421
30
0
41
1
10
-1.9950399779393
20
14.8894548819647
30
0
41
1
10
-1.9950399779393
20
14.7490386600655
30
0
41
1
10
-1.9950399779393
20
14.578735707937
30
0
41
1
10
-1.9950399779393
20
14.4066808882548
30
0
41
1
10
-1.9950399779393
20
14.2328806917249
30
0
41
1
10
-1.9950399779393
20
14.0573388809364
30
0
41
1
10
-1.9950399779393
20
13.8800596938692
30
0
41
1
10
-1.9950399779393
20
13.7010488098078
30
0
41
1
10
-1.9950399779393
20
13.5203096364964
30
0
41
1
10
-1.9950399779393
20
13.3378467409434
30
0
41
1
10
-1.9950399779393
20
13.1536651576331
30
0
41
1
10
-1.9950399779393
20
12.967767664355
30
0
41
1
10
-1.9950399779393
20
12.7801589185361
30
0
41
1
10
-1.9950399779393
20
12.5908431445087
30
0
41
1
10
-1.9950399779393
20
12.3998230002593
30
0
41
1
10
-1.9950399779393
20
12.1427688173785
30
0
41
1
10
-1.9950399779393
20
11.8826118718573
30
0
41
1
10
-1.9950399779393
20
11.6187779306707
30
0
41
1
10
-1.9950399779393
20
11.4192921752591
30
0
41
1
10
-1.9950399779393
20
11.2181233733031
30
0
41
1
10
-1.9950399779393
20
11.0152750188843
30
0
41
1
10
-1.9950399779393
20
10.8107494713072
30
0
41
1
10
-1.9950399779393
20
10.6045508021232
30
0
41
1
10
-1.9950399779393
20
10.3966814407573
30
0
41
1
10
-1.9950399779393
20
10.1171870033238
30
0
41
1
10
-1.9950399779393
20
9.76392166117952
30
0
41
1
10
-1.9950399779393
20
9.33322608836653
30
0
41
1
10
-1.9950399779393
20
8.96893242084855
30
0
41
1
10
-1.9950399779393
20
8.67397578579323
30
0
41
1
10
-1.9950399779393
20
8.45121977200662
30
0
41
1
10
-1.9950399779393
20
8.22682776167494
30
0
41
1
10
-1.9950399779393
20
8.00080467620245
30
0
41
1
10
-1.9950399779393
20
7.77315513008728
30
0
41
1
10
-1.9950399779393
20
7.54388372935193
30
0
41
1
10
-1.9950399779393
20
7.31299637479285
30
0
41
1
10
-1.9950399779393
20
7.08049945458953
30
0
41
1
10
-1.9950399779393
20
6.8463997482805
30
0
41
1
10
-1.9950399779393
20
6.61070495432838
30
0
41
1
10
-1.9950399779393
20
6.37342319970753
30
0
41
1
10
-1.9950399779393
20
6.13456384015993
30
0
41
1
10
-1.9950399779393
20
5.89413749968628
30
0
41
1
10
-1.9950399779393
20
5.65215638001948
30
0
41
1
10
-1.9950399779393
20
5.4086336510897
30
0
41
1
10
-1.9950399779393
20
5.16358499073451
30
0
41
1
10
-1.9950399779393
20
4.95821799704331
30
0
41
1
10
-1.9950399779393
20
4.79299516838267
30
0
41
1
10
-1.9950399779393
20
4.66878842905288
30
0
41
1
10
-1.9950399779393
20
4.5442150281373
30
0
41
1
10
-1.9950399779393
20
4.37752561794156
30
0
41
1
10
-1.9950399779393
20
4.16851547631595
30
0
41
1
10
-1.9950399779393
20
3.95832363498766
30
0
41
1
10
-1.9950399779393
20
3.78926935835412
30
0
41
1
10
-1.9950399779393
20
3.66223142121836
30
0
41
1
10
-1.9950399779393
20
3.53485872774326
30
0
41
1
10
-1.9950399779393
20
3.36446603264318
30
0
41
1
10
-1.9950399779393
20
3.19381064862623
30
0
41
1
10
-1.9950399779393
20
3.02213557666008
30
0
41
1
10
-1.9950399779393
20
2.8931784837302
30
0
41
1
10
-1.9950399779393
20
2.76392442628162
30
0
41
1
10
-1.9950399779393
20
2.63438251344519
30
0
41
1
10
-1.9950399779393
20
2.50455988721876
30
0
41
1
10
-1.9950399779393
20
2.37446636334928
30
0
41
1
10
-1.9950399779393
20
2.24411116870439
30
0
41
1
10
-1.9950399779393
20
2.11350398186613
30
0
41
1
10
-1.9950399779393
20
1.98265625862297
30
0
41
1
10
-1.9950399779393
20
1.85157817347522
30
0
41
1
10
-1.9950399779393
20
1.72028262405345
30
0
41
1
10
-1.9950399779393
20
1.58878098022359
30
0
41
1
10
-1.9950399779393
20
1.45708718468359
30
0
41
1
10
-1.9950399779393
20
1.32521409071333
30
0
41
1
10
-1.9950399779393
20
1.19317647053177
30
0
41
1
10
-1.9950399779393
20
1.06098852682439
30
0
41
1
10
-1.9950399779393
20
0.928665923975672
30
0
41
1
10
-1.9950399779393
20
0.796224037396229
30
0
41
1
10
-1.9950399779393
20
0.663679321648374
30
0
41
1
10
-1.9950399779393
20
0.531048033506266
30
0
41
1
10
-1.9950399779393
20
0.398347293868937
30
0
41
1
10
-1.9950399779393
20
0.265594055935196
30
0
41
1
10
-1.9950399779393
20
0.132805828560237
30
0
41
1
10
-1.9950399779393
20
-2.0604887E-09
30
0
41
1
10
-1.9950399779393
20
-0.132805835966792
30
0
41
1
10
-1.9950399779393
20
-0.265594069601519
30
0
41
1
10
-1.9950399779393
20
-0.398347307093388
30
0
41
1
10
-1.9950399779393
20
-0.531048037421954
30
0
41
1
10
-1.9950399779393
20
-0.663679323049081
30
0
41
1
10
-1.9950399779393
20
-0.796224050825089
30
0
41
1
10
-1.9950399779393
20
-0.92866594303203
30
0
41
1
10
-1.9950399779393
20
-1.06098853158755
30
0
41
1
10
-1.9950399779393
20
-1.1931764657121
30
0
41
1
10
-1.9950399779393
20
-1.32521410103647
30
0
41
1
10
-1.9950399779393
20
-1.45708720896539
30
0
41
1
10
-1.9950399779393
20
-1.58878099035152
30
0
41
1
10
-1.9950399779393
20
-1.72028261530932
30
0
41
1
10
-1.9950399779393
20
-1.85157817419838
30
0
41
1
10
-1.9950399779393
20
-1.98265628188182
30
0
41
1
10
-1.9950399779393
20
-2.11350400419804
30
0
41
1
10
-1.9950399779393
20
-2.24411116714702
30
0
41
1
10
-1.9950399779393
20
-2.37446635053539
30
0
41
1
10
-1.9950399779393
20
-2.50455989433328
30
0
41
1
10
-1.9950399779393
20
-2.63438254221708
30
0
41
1
10
-1.9950399779393
20
-2.76392444618182
30
0
41
1
10
-1.9950399779393
20
-2.89317847799558
30
0
41
1
10
-1.9950399779393
20
-3.02213556164864
30
0
41
1
10
-1.9950399779393
20
-3.19381066067948
30
0
41
1
10
-1.9950399779393
20
-3.36446606295527
30
0
41
1
10
-1.9950399779393
20
-3.53485872835634
30
0
41
1
10
-1.9950399779393
20
-3.66223140396673
30
0
41
1
10
-1.9950399779393
20
-3.78926935085312
30
0
41
1
10
-1.9950399779393
20
-3.95832365779984
30
0
41
1
10
-1.9950399779393
20
-4.16851549788919
30
0
41
1
10
-1.9950399779393
20
-4.37752560184694
30
0
41
1
10
-1.9950399779393
20
-4.54421502107886
30
0
41
1
10
-1.9950399779393
20
-4.66878844332788
30
0
41
1
10
-1.9950399779393
20
-4.79299519854527
30
0
41
1
10
-1.9950399779393
20
-4.95821801342223
30
0
41
1
10
-1.9950399779393
20
-5.16358497720142
30
0
41
1
10
-1.9950399779393
20
-5.40863364784667
30
0
41
1
10
-1.9950399779393
20
-5.65215640891225
30
0
41
1
10
-1.9950399779393
20
-5.89413750153935
30
0
41
1
10
-1.9950399779393
20
-6.13456381441384
30
0
41
1
10
-1.9950399779393
20
-6.37342317953835
30
0
41
1
10
-1.9950399779393
20
-6.61070492919379
30
0
41
1
10
-1.9950399779393
20
-6.84639976314463
30
0
41
1
10
-1.9950399779393
20
-7.08049963775395
30
0
41
1
10
-1.9950399779393
20
-7.31299670603016
30
0
41
1
10
-1.9950399779393
20
-7.54388383469134
30
0
41
1
10
-1.9950399779393
20
-7.77315487290267
30
0
41
1
10
-1.9950399779393
20
-8.00080468509063
30
0
41
1
10
-1.9950399779393
20
-8.22682785520686
30
0
41
1
10
-1.9950399779393
20
-8.4512197921853
30
0
41
1
10
-1.9950399779393
20
-8.67397577159846
30
0
41
1
10
-1.9950399779393
20
-8.96893239301764
30
0
41
1
10
-1.9950399779393
20
-9.33322609823665
30
0
41
1
10
-1.9950399779393
20
-9.76392165975841
30
0
41
1
10
-1.9950399779393
20
-10.1171869828061
30
0
41
1
10
-1.9950399779393
20
-10.3966814549587
30
0
41
1
10
-1.9950399779393
20
-10.6045508126063
30
0
41
1
10
-1.9950399779393
20
-10.8107494592904
30
0
41
1
10
-1.9950399779393
20
-11.0152749978462
30
0
41
1
10
-1.9950399779393
20
-11.2181233670389
30
0
41
1
10
-1.9950399779393
20
-11.4192921870092
30
0
41
1
10
-1.9950399779393
20
-11.6187779427602
30
0
41
1
10
-1.9950399779393
20
-11.8826118620781
30
0
41
1
10
-1.9950399779393
20
-12.1427687977971
30
0
41
1
10
-1.9950399779393
20
-12.3998230071702
30
0
41
1
10
-1.9950399779393
20
-12.5908431584255
30
0
41
1
10
-1.9950399779393
20
-12.7801589212449
30
0
41
1
10
-1.9950399779393
20
-12.9677676529033
30
0
41
1
10
-1.9950399779393
20
-13.1536651432542
30
0
41
1
10
-1.9950399779393
20
-13.3378467396349
30
0
41
1
10
-1.9950399779393
20
-13.520309646993
30
0
41
1
10
-1.9950399779393
20
-13.7010488212408
30
0
41
1
10
-1.9950399779393
20
-13.8800597145162
30
0
41
1
10
-1.9950399779393
20
-14.0573389921213
30
0
41
1
10
-1.9950399779393
20
-14.2328810143213
30
0
41
1
10
-1.9950399779393
20
-14.4646959102749
30
0
41
1
10
-1.9950399779393
20
-14.6927797943809
30
0
41
1
10
-1.9950399779393
20
-14.9175842595472
30
0
41
1
10
-1.9950399779393
20
-15.1400402265273
30
0
41
1
10
-1.9950399779393
20
-15.3587351142266
30
0
41
1
10
-1.9950399779393
20
-15.574095422854
30
0
41
1
10
-1.9950399779393
20
-15.733775855726
30
0
41
1
10
-1.9950399779393
20
-15.8916657661057
30
0
41
1
10
-1.9950399779393
20
-16.0998603532658
30
0
41
1
10
-1.9950399779393
20
-16.3042398246232
30
0
41
1
10
-1.9950399779393
20
-16.5051894037979
30
0
41
1
10
-1.9950399779393
20
-16.6540265683948
30
0
41
1
10
-1.9950399779393
20
-16.8010329188422
30
0
41
1
10
-1.9950399779393
20
-16.9946550481209
30
0
41
1
10
-1.9950399779393
20
-17.1843924611907
30
0
41
1
10
-1.9950399779393
20
-17.3705928023913
30
0
41
1
10
-1.9950399779393
20
-17.5083251903719
30
0
41
1
10
-1.9950399779393
20
-17.6441786252734
30
0
41
1
10
-1.9950399779393
20
-17.8228590748674
30
0
41
1
10
-1.9950399779393
20
-17.9975683374733
30
0
41
1
10
-1.9950399779393
20
-18.1686188521771
30
0
41
1
10
-1.9950399779393
20
-18.2949373683468
30
0
41
1
10
-1.9950399779393
20
-18.4193198181252
30
0
41
1
10
-1.9950399779393
20
-18.5826226298873
30
0
41
1
10
-1.9950399779393
20
-18.7418497326446
30
0
41
1
10
-1.9950399779393
20
-18.8972761707097
30
0
41
1
10
-1.9950399779393
20
-19.0118150097952
30
0
41
1
10
-1.9950399779393
20
-19.1243510467918
30
0
41
1
10
-1.9950399779393
20
-19.2717625055688
30
0
41
1
10
-1.9950399779393
20
-19.414970513124
30
0
41
1
10
-1.9950399779393
20
-19.5542140249085
30
0
41
1
10
-1.9950399779393
20
-19.6565420567613
30
0
41
1
10
-1.9950399779393
20
-19.7567881415466
30
0
41
1
10
-1.9950399779393
20
-19.8549381550126
30
0
41
1
10
-1.9950399779393
20
-19.9509751416388
30
0
41
1
10
-1.9950399779393
20
-20.0448848362119
30
0
41
1
10
-1.9950399779393
20
-20.1366515718167
30
0
41
1
10
-1.9950399779393
20
-20.2262576202058
30
0
41
1
10
-1.9950399779393
20
-20.3136874196731
30
0
41
1
10
-1.9950399779393
20
-20.398923430088
30
0
41
1
10
-1.9950399779393
20
-20.4819464863244
30
0
41
1
10
-1.9950399779393
20
-20.5627395868944
30
0
41
1
10
-1.9950399779393
20
-20.6412830627252
30
0
41
1
10
-1.9950399779393
20
-20.7430172190698
30
0
41
1
10
-1.9950399779393
20
-20.8400664428987
30
0
41
1
10
-1.9950399779393
20
-20.9325549572362
30
0
41
1
10
-1.9950399779393
20
-20.9995415068112
30
0
41
1
10
-1.9950399779393
20
-21.064149408511
30
0
41
1
10
-1.9950399779393
20
-21.1263556466612
30
0
41
1
10
-1.9950399779393
20
-21.1861355753666
30
0
41
1
10
-1.9950399779393
20
-21.262600218376
30
0
41
1
10
-1.9950399779393
20
-21.3340243512753
30
0
41
1
10
-1.9950399779393
20
-21.4004603045828
30
0
41
1
10
-1.9950399779393
20
-21.4477036445725
30
0
41
1
10
-1.9950399779393
20
-21.4923513092323
30
0
41
1
10
-1.9950399779393
20
-21.5484022410126
30
0
41
1
10
-1.9950399779393
20
-21.5990695510926
30
0
41
1
10
-1.9950399779393
20
-21.6443396610233
30
0
41
1
10
-1.9950399779393
20
-21.6755105092645
30
0
41
1
10
-1.9950399779393
20
-21.7038764495607
30
0
41
1
10
-1.9950399779393
20
-21.7293964429163
30
0
41
1
10
-1.9950399779393
20
-21.7520292420694
30
0
41
1
10
-1.9950399779393
20
-21.7717309018817
30
0
41
1
10
-1.9950399779393
20
-21.7884557380592
30
0
41
1
10
-1.9950399779393
20
-21.8021565310045
30
0
41
1
10
-1.9950399779393
20
-21.8127830851058
30
0
41
1
10
-1.9950399779393
20
-21.8202838734724
30
0
41
1
10
-1.9950399779393
20
-21.8245113283102
30
0
41
1
10
-1.9950399779393
20
-21.8252773406738
30
0
41
1
10
-1.9950399779393
20
-21.8251671051279
30
0
0
SPLINE
5
C6
100
AcDbEntity
8
SK1
62
256
6
ByLayer
370
-1
48
1
60
0
100
AcDbSpline
70
4
71
3
72
295
73
291
40
0
40
0
40
0
40
0
40
0.0029463041514185
40
0.0065222290350279
40
0.0100981539186373
40
0.0136740788022467
40
0.017250003685856
40
0.0208259285694654
40
0.0279777783366841
40
0.0351296281039029
40
0.0422814778711216
40
0.045857402754731
40
0.0494333276383404
40
0.0530092525219497
40
0.0565851774055591
40
0.0637370271727778
40
0.0673129520563872
40
0.0708888769399966
40
0.074464801823606
40
0.0780407267072153
40
0.0816166515908247
40
0.0851925764744341
40
0.0923444262416528
40
0.0959203511252622
40
0.0994962760088716
40
0.103072200892481
40
0.10664812577609
40
0.1102240506597
40
0.113799975543309
40
0.117375900426918
40
0.120951825310528
40
0.124527750194137
40
0.128103675077747
40
0.131679599961356
40
0.135255524844965
40
0.138831449728575
40
0.142407374612184
40
0.149559224379403
40
0.153135149263012
40
0.156711074146621
40
0.158499036588426
40
0.160286999030231
40
0.16386292391384
40
0.171014773681059
40
0.174590698564668
40
0.178166623448278
40
0.181742548331887
40
0.185318473215496
40
0.192470322982715
40
0.196046247866325
40
0.199622172749934
40
0.201410135191739
40
0.203198097633543
40
0.206774022517153
40
0.213925872284371
40
0.217501797167981
40
0.22107772205159
40
0.2246536469352
40
0.228229571818809
40
0.235381421586028
40
0.238957346469637
40
0.242533271353246
40
0.244321233795051
40
0.246109196236856
40
0.249685121120465
40
0.253261046004075
40
0.256836970887684
40
0.258624933329488
40
0.260412895771293
40
0.263988820654903
40
0.267564745538512
40
0.271140670422121
40
0.274716595305731
40
0.27829252018934
40
0.281868445072949
40
0.285444369956559
40
0.289020294840168
40
0.292596219723778
40
0.296172144607387
40
0.299748069490996
40
0.303323994374606
40
0.306899919258215
40
0.310475844141824
40
0.314051769025434
40
0.321203618792653
40
0.324779543676262
40
0.328355468559871
40
0.331931393443481
40
0.33550731832709
40
0.339083243210699
40
0.342659168094309
40
0.346235092977918
40
0.349811017861528
40
0.356962867628746
40
0.364114717395965
40
0.371266567163184
40
0.374842492046793
40
0.378418416930403
40
0.381994341814012
40
0.385570266697621
40
0.38914619158123
40
0.39272211646484
40
0.396298041348449
40
0.399873966232059
40
0.403449891115668
40
0.407025815999277
40
0.410601740882887
40
0.414177665766496
40
0.417753590650105
40
0.421329515533715
40
0.424905440417324
40
0.428481365300934
40
0.432057290184543
40
0.433845252626348
40
0.435633215068152
40
0.437421177509957
40
0.439209139951762
40
0.442785064835371
40
0.446360989718981
40
0.448148952160785
40
0.44993691460259
40
0.451724877044395
40
0.453512839486199
40
0.457088764369809
40
0.458876726811613
40
0.460664689253418
40
0.462452651695223
40
0.464240614137027
40
0.466028576578832
40
0.467816539020637
40
0.469604501462441
40
0.471392463904246
40
0.473180426346051
40
0.474968388787856
40
0.47675635122966
40
0.478544313671465
40
0.48033227611327
40
0.482120238555074
40
0.483908200996879
40
0.485696163438684
40
0.487484125880488
40
0.489272088322293
40
0.491060050764098
40
0.492848013205902
40
0.494635975647707
40
0.496423938089512
40
0.498211900531316
40
0.499999862973121
40
0.501787825414926
40
0.50357578785673
40
0.505363750298535
40
0.50715171274034
40
0.508939675182144
40
0.510727637623949
40
0.512515600065754
40
0.514303562507558
40
0.516091524949363
40
0.517879487391168
40
0.519667449832973
40
0.521455412274777
40
0.523243374716582
40
0.525031337158387
40
0.526819299600191
40
0.528607262041996
40
0.530395224483801
40
0.532183186925605
40
0.53397114936741
40
0.535759111809215
40
0.537547074251019
40
0.539335036692824
40
0.541122999134629
40
0.542910961576433
40
0.546486886460043
40
0.548274848901848
40
0.550062811343652
40
0.551850773785457
40
0.553638736227262
40
0.557214661110871
40
0.56079058599448
40
0.562578548436285
40
0.56436651087809
40
0.566154473319894
40
0.567942435761699
40
0.571518360645308
40
0.575094285528918
40
0.578670210412527
40
0.582246135296137
40
0.585822060179746
40
0.589397985063355
40
0.592973909946965
40
0.596549834830574
40
0.600125759714183
40
0.603701684597793
40
0.607277609481402
40
0.610853534365012
40
0.614429459248621
40
0.61800538413223
40
0.62158130901584
40
0.625157233899449
40
0.628733158783058
40
0.635885008550277
40
0.643036858317496
40
0.650188708084715
40
0.653764632968324
40
0.657340557851933
40
0.660916482735543
40
0.664492407619152
40
0.668068332502762
40
0.671644257386371
40
0.67522018226998
40
0.67879610715359
40
0.685947956920808
40
0.689523881804418
40
0.693099806688027
40
0.696675731571636
40
0.700251656455246
40
0.703827581338855
40
0.707403506222465
40
0.710979431106074
40
0.714555355989683
40
0.718131280873293
40
0.721707205756902
40
0.725283130640511
40
0.728859055524121
40
0.73601090529134
40
0.739586830174949
40
0.743162755058558
40
0.750314604825777
40
0.753890529709386
40
0.757466454592996
40
0.761042379476605
40
0.764618304360215
40
0.771770154127433
40
0.775346079011043
40
0.778922003894652
40
0.782497928778261
40
0.786073853661871
40
0.793225703429089
40
0.796801628312699
40
0.800377553196308
40
0.803953478079917
40
0.807529402963527
40
0.814681252730746
40
0.818257177614355
40
0.821833102497964
40
0.825409027381574
40
0.828984952265183
40
0.836136802032402
40
0.839712726916011
40
0.843288651799621
40
0.84686457668323
40
0.850440501566839
40
0.857592351334058
40
0.861168276217668
40
0.864744201101277
40
0.868320125984886
40
0.871896050868496
40
0.875471975752105
40
0.879047900635714
40
0.882623825519324
40
0.886199750402933
40
0.889775675286542
40
0.893351600170152
40
0.896927525053761
40
0.900503449937371
40
0.90407937482098
40
0.907655299704589
40
0.914807149471808
40
0.918383074355417
40
0.921958999239027
40
0.925534924122636
40
0.929110849006245
40
0.932686773889855
40
0.936262698773464
40
0.943414548540683
40
0.946990473424292
40
0.950566398307902
40
0.954142323191511
40
0.957718248075121
40
0.964870097842339
40
0.968446022725949
40
0.972021947609558
40
0.975597872493167
40
0.979173797376777
40
0.982749722260386
40
0.986325647143996
40
0.989901572027605
40
0.993477496911214
40
0.997053421794824
40
1
40
1
40
1
40
1
41
1
10
-2.19999999999999
20
22.0135196690874
30
0
41
1
10
-2.19999999999999
20
22.0117276036887
30
0
41
1
10
-2.19999999999999
20
22.0069596864628
30
0
41
1
10
-2.19999999999999
20
21.9968726461305
30
0
41
1
10
-2.19999999999999
20
21.9830583750197
30
0
41
1
10
-2.19999999999999
20
21.9661971621578
30
0
41
1
10
-2.19999999999999
20
21.9463373083127
30
0
41
1
10
-2.19999999999999
20
21.9159230944434
30
0
41
1
10
-2.19999999999999
20
21.870633664349
30
0
41
1
10
-2.19999999999999
20
21.8049949078793
30
0
41
1
10
-2.19999999999999
20
21.7411390111089
30
0
41
1
10
-2.19999999999999
20
21.6847072709128
30
0
41
1
10
-2.19999999999999
20
21.6397397481888
30
0
41
1
10
-2.19999999999999
20
21.5921615264853
30
0
41
1
10
-2.19999999999999
20
21.5252891523049
30
0
41
1
10
-2.19999999999999
20
21.453308753177
30
0
41
1
10
-2.19999999999999
20
21.3763547276269
30
0
41
1
10
-2.19999999999999
20
21.3161703964091
30
0
41
1
10
-2.19999999999999
20
21.2535469243879
30
0
41
1
10
-2.19999999999999
20
21.1885090229233
30
0
41
1
10
-2.19999999999999
20
21.121080083473
30
0
41
1
10
-2.19999999999999
20
21.0280237507364
30
0
41
1
10
-2.19999999999999
20
20.9302657445266
30
0
41
1
10
-2.19999999999999
20
20.8279188369072
30
0
41
1
10
-2.19999999999999
20
20.7488739070252
30
0
41
1
10
-2.19999999999999
20
20.6675681841826
30
0
41
1
10
-2.19999999999999
20
20.5840212184218
30
0
41
1
10
-2.19999999999999
20
20.4982502525025
30
0
41
1
10
-2.19999999999999
20
20.4102747128949
30
0
41
1
10
-2.19999999999999
20
20.3201119071544
30
0
41
1
10
-2.19999999999999
20
20.2277776663919
30
0
41
1
10
-2.19999999999999
20
20.1332899477274
30
0
41
1
10
-2.19999999999999
20
20.0366642357894
30
0
41
1
10
-2.19999999999999
20
19.9379151599299
30
0
41
1
10
-2.19999999999999
20
19.8370591957147
30
0
41
1
10
-2.19999999999999
20
19.7341102362335
30
0
41
1
10
-2.19999999999999
20
19.5940778412012
30
0
41
1
10
-2.19999999999999
20
19.4499005336558
30
0
41
1
10
-2.19999999999999
20
19.3016622310533
30
0
41
1
10
-2.19999999999999
20
19.2073184270571
30
0
41
1
10
-2.19999999999999
20
19.1308417758755
30
0
41
1
10
-2.19999999999999
20
19.0536957086557
30
0
41
1
10
-2.19999999999999
20
18.9169360704622
30
0
41
1
10
-2.19999999999999
20
18.756645794641
30
0
41
1
10
-2.19999999999999
20
18.5924362845557
30
0
41
1
10
-2.19999999999999
20
18.4673177976698
30
0
41
1
10
-2.19999999999999
20
18.3402521463352
30
0
41
1
10
-2.19999999999999
20
18.1682545122203
30
0
41
1
10
-2.19999999999999
20
17.9923842356821
30
0
41
1
10
-2.19999999999999
20
17.8127164551587
30
0
41
1
10
-2.19999999999999
20
17.6988333809735
30
0
41
1
10
-2.19999999999999
20
17.606787767091
30
0
41
1
10
-2.19999999999999
20
17.5141131161323
30
0
41
1
10
-2.19999999999999
20
17.3502824417036
30
0
41
1
10
-2.19999999999999
20
17.1592829447589
30
0
41
1
10
-2.19999999999999
20
16.9645867974536
30
0
41
1
10
-2.19999999999999
20
16.8167088060477
30
0
41
1
10
-2.19999999999999
20
16.6669871400996
30
0
41
1
10
-2.19999999999999
20
16.4649164953067
30
0
41
1
10
-2.19999999999999
20
16.2591646002876
30
0
41
1
10
-2.19999999999999
20
16.049802831716
30
0
41
1
10
-2.19999999999999
20
15.9174340084588
30
0
41
1
10
-2.19999999999999
20
15.8106442286412
30
0
41
1
10
-2.19999999999999
20
15.7032538676567
30
0
41
1
10
-2.19999999999999
20
15.567882396309
30
0
41
1
10
-2.19999999999999
20
15.4036502143979
30
0
41
1
10
-2.19999999999999
20
15.2652965264295
30
0
41
1
10
-2.19999999999999
20
15.1537302031574
30
0
41
1
10
-2.19999999999999
20
15.0415708470876
30
0
41
1
10
-2.19999999999999
20
14.90025131083
30
0
41
1
10
-2.19999999999999
20
14.7289012367181
30
0
41
1
10
-2.19999999999999
20
14.5557843226631
30
0
41
1
10
-2.19999999999999
20
14.3809062427341
30
0
41
1
10
-2.19999999999999
20
14.2042700822291
30
0
41
1
10
-2.19999999999999
20
14.0258803741545
30
0
41
1
10
-2.19999999999999
20
13.8457420253844
30
0
41
1
10
-2.19999999999999
20
13.6638579861817
30
0
41
1
10
-2.19999999999999
20
13.4802328481714
30
0
41
1
10
-2.19999999999999
20
13.2948705974071
30
0
41
1
10
-2.19999999999999
20
13.1077737485311
30
0
41
1
10
-2.19999999999999
20
12.9189467805057
30
0
41
1
10
-2.19999999999999
20
12.728392778749
30
0
41
1
10
-2.19999999999999
20
12.5361142588231
30
0
41
1
10
-2.19999999999999
20
12.2774598592137
30
0
41
1
10
-2.19999999999999
20
12.0153352592314
30
0
41
1
10
-2.19999999999999
20
11.7498207258852
30
0
41
1
10
-2.19999999999999
20
11.5489655826483
30
0
41
1
10
-2.19999999999999
20
11.3464032807099
30
0
41
1
10
-2.19999999999999
20
11.1421359853758
30
0
41
1
10
-2.19999999999999
20
10.9361655879759
30
0
41
1
10
-2.19999999999999
20
10.7284950970913
30
0
41
1
10
-2.19999999999999
20
10.5191258614377
30
0
41
1
10
-2.19999999999999
20
10.2377184130835
30
0
41
1
10
-2.19999999999999
20
9.88169304970987
30
0
41
1
10
-2.19999999999999
20
9.44771865839311
30
0
41
1
10
-2.19999999999999
20
9.08043848955603
30
0
41
1
10
-2.19999999999999
20
8.78327689677775
30
0
41
1
10
-2.19999999999999
20
8.55871419535617
30
0
41
1
10
-2.19999999999999
20
8.33247380011301
30
0
41
1
10
-2.19999999999999
20
8.10455852701506
30
0
41
1
10
-2.19999999999999
20
7.87497060194644
30
0
41
1
10
-2.19999999999999
20
7.6437128367312
30
0
41
1
10
-2.19999999999999
20
7.41078884464241
30
0
41
1
10
-2.19999999999999
20
7.17620220160032
30
0
41
1
10
-2.19999999999999
20
6.93995692090419
30
0
41
1
10
-2.19999999999999
20
6.70205758660663
30
0
41
1
10
-2.19999999999999
20
6.46250918569618
30
0
41
1
10
-2.19999999999999
20
6.2213178400012
30
0
41
1
10
-2.19999999999999
20
5.97849049576266
30
0
41
1
10
-2.19999999999999
20
5.73403521575827
30
0
41
1
10
-2.19999999999999
20
5.48796107357256
30
0
41
1
10
-2.19999999999999
20
5.24027911118978
30
0
41
1
10
-2.19999999999999
20
5.03253661023487
30
0
41
1
10
-2.19999999999999
20
4.86557359122418
30
0
41
1
10
-2.19999999999999
20
4.73994908127321
30
0
41
1
10
-2.19999999999999
20
4.61393371339017
30
0
41
1
10
-2.19999999999999
20
4.44540774959788
30
0
41
1
10
-2.19999999999999
20
4.23375652596863
30
0
41
1
10
-2.19999999999999
20
4.02083961713782
30
0
41
1
10
-2.19999999999999
20
3.84978439152417
30
0
41
1
10
-2.19999999999999
20
3.72111342731068
30
0
41
1
10
-2.19999999999999
20
3.59207749308624
30
0
41
1
10
-2.19999999999999
20
3.41956369464535
30
0
41
1
10
-2.19999999999999
20
3.24629481959221
30
0
41
1
10
-2.19999999999999
20
3.0723836150739
30
0
41
1
10
-2.19999999999999
20
2.94160046512798
30
0
41
1
10
-2.19999999999999
20
2.81048647644627
30
0
41
1
10
-2.19999999999999
20
2.67904892732182
30
0
41
1
10
-2.19999999999999
20
2.54729562722176
30
0
41
1
10
-2.19999999999999
20
2.41523551097489
30
0
41
1
10
-2.19999999999999
20
2.28287740252156
30
0
41
1
10
-2.19999999999999
20
2.15023166945255
30
0
41
1
10
-2.19999999999999
20
2.01730873413072
30
0
41
1
10
-2.19999999999999
20
1.88412021099791
30
0
41
1
10
-2.19999999999999
20
1.75067841854351
30
0
41
1
10
-2.19999999999999
20
1.61699634722072
30
0
41
1
10
-2.19999999999999
20
1.48308821885627
30
0
41
1
10
-2.19999999999999
20
1.34896859254377
30
0
41
1
10
-2.19999999999999
20
1.21465350310541
30
0
41
1
10
-2.19999999999999
20
1.0801592162689
30
0
41
1
10
-2.19999999999999
20
0.945503442662783
30
0
41
1
10
-2.19999999999999
20
0.810704113119073
30
0
41
1
10
-2.19999999999999
20
0.675780421912322
30
0
41
1
10
-2.19999999999999
20
0.540751787789588
30
0
41
1
10
-2.19999999999999
20
0.405638599098921
30
0
41
1
10
-2.19999999999999
20
0.270461428271432
30
0
41
1
10
-2.19999999999999
20
0.135241462279822
30
0
41
1
10
-2.19999999999999
20
-5.3654787E-09
30
0
41
1
10
-2.19999999999999
20
-0.135241472589996
30
0
41
1
10
-2.19999999999999
20
-0.270461437853925
30
0
41
1
10
-2.19999999999999
20
-0.405638608907907
30
0
41
1
10
-2.19999999999999
20
-0.540751798686529
30
0
41
1
10
-2.19999999999999
20
-0.675780432522174
30
0
41
1
10
-2.19999999999999
20
-0.810704122044939
30
0
41
1
10
-2.19999999999999
20
-0.945503451789534
30
0
41
1
10
-2.19999999999999
20
-1.08015922751395
30
0
41
1
10
-2.19999999999999
20
-1.21465351395383
30
0
41
1
10
-2.19999999999999
20
-1.34896860046499
30
0
41
1
10
-2.19999999999999
20
-1.48308822685564
30
0
41
1
10
-2.19999999999999
20
-1.61699635855226
30
0
41
1
10
-2.19999999999999
20
-1.75067843002711
30
0
41
1
10
-2.19999999999999
20
-1.88412021847037
30
0
41
1
10
-2.19999999999999
20
-2.01730874020455
30
0
41
1
10
-2.19999999999999
20
-2.15023167925048
30
0
41
1
10
-2.19999999999999
20
-2.28287741514001
30
0
41
1
10
-2.19999999999999
20
-2.41523552035437
30
0
41
1
10
-2.19999999999999
20
-2.54729563151926
30
0
41
1
10
-2.19999999999999
20
-2.67904893291683
30
0
41
1
10
-2.19999999999999
20
-2.81048648769612
30
0
41
1
10
-2.19999999999999
20
-2.94160047796311
30
0
41
1
10
-2.19999999999999
20
-3.072383622975
30
0
41
1
10
-2.19999999999999
20
-3.24629481975686
30
0
41
1
10
-2.19999999999999
20
-3.41956370437865
30
0
41
1
10
-2.19999999999999
20
-3.59207750684843
30
0
41
1
10
-2.19999999999999
20
-3.72111343644576
30
0
41
1
10
-2.19999999999999
20
-3.84978439330678
30
0
41
1
10
-2.19999999999999
20
-4.020839617489
30
0
41
1
10
-2.19999999999999
20
-4.23375654375474
30
0
41
1
10
-2.19999999999999
20
-4.44540775759583
30
0
41
1
10
-2.19999999999999
20
-4.61393371339872
30
0
41
1
10
-2.19999999999999
20
-4.73994907984499
30
0
41
1
10
-2.19999999999999
20
-4.86557359653659
30
0
41
1
10
-2.19999999999999
20
-5.03253662624778
30
0
41
1
10
-2.19999999999999
20
-5.24027911954084
30
0
41
1
10
-2.19999999999999
20
-5.48796106514416
30
0
41
1
10
-2.19999999999999
20
-5.73403522651989
30
0
41
1
10
-2.19999999999999
20
-5.97849051253721
30
0
41
1
10
-2.19999999999999
20
-6.22131783489101
30
0
41
1
10
-2.19999999999999
20
-6.46250917346816
30
0
41
1
10
-2.19999999999999
20
-6.70205756880287
30
0
41
1
10
-2.19999999999999
20
-6.93995689241024
30
0
41
1
10
-2.19999999999999
20
-7.17620223308296
30
0
41
1
10
-2.19999999999999
20
-7.41078904293681
30
0
41
1
10
-2.19999999999999
20
-7.64371312168015
30
0
41
1
10
-2.19999999999999
20
-7.87497052861914
30
0
41
1
10
-2.19999999999999
20
-8.10455846042146
30
0
41
1
10
-2.19999999999999
20
-8.33247384441506
30
0
41
1
10
-2.19999999999999
20
-8.55871423477029
30
0
41
1
10
-2.19999999999999
20
-8.78327691067398
30
0
41
1
10
-2.19999999999999
20
-9.08043846702645
30
0
41
1
10
-2.19999999999999
20
-9.44771866001565
30
0
41
1
10
-2.19999999999999
20
-9.88169305528194
30
0
41
1
10
-2.19999999999999
20
-10.2377183913447
30
0
41
1
10
-2.19999999999999
20
-10.5191258633122
30
0
41
1
10
-2.19999999999999
20
-10.7284951094206
30
0
41
1
10
-2.19999999999999
20
-10.9361655882296
30
0
41
1
10
-2.19999999999999
20
-11.1421359694817
30
0
41
1
10
-2.19999999999999
20
-11.3464032666245
30
0
41
1
10
-2.19999999999999
20
-11.5489655840494
30
0
41
1
10
-2.19999999999999
20
-11.7498207382014
30
0
41
1
10
-2.19999999999999
20
-12.015335258712
30
0
41
1
10
-2.19999999999999
20
-12.277459839655
30
0
41
1
10
-2.19999999999999
20
-12.5361142561418
30
0
41
1
10
-2.19999999999999
20
-12.7283927892775
30
0
41
1
10
-2.19999999999999
20
-12.9189467887917
30
0
41
1
10
-2.19999999999999
20
-13.1077737445537
30
0
41
1
10
-2.19999999999999
20
-13.2948705838035
30
0
41
1
10
-2.19999999999999
20
-13.4802328404438
30
0
41
1
10
-2.19999999999999
20
-13.6638579908945
30
0
41
1
10
-2.19999999999999
20
-13.845742035678
30
0
41
1
10
-2.19999999999999
20
-14.0258803815961
30
0
41
1
10
-2.19999999999999
20
-14.2042701267483
30
0
41
1
10
-2.19999999999999
20
-14.3809064511142
30
0
41
1
10
-2.19999999999999
20
-14.61406817927
30
0
41
1
10
-2.19999999999999
20
-14.8437340716545
30
0
41
1
10
-2.19999999999999
20
-15.069828938707
30
0
41
1
10
-2.19999999999999
20
-15.2935559429894
30
0
41
1
10
-2.19999999999999
20
-15.513744330902
30
0
41
1
10
-2.19999999999999
20
-15.7303232767805
30
0
41
1
10
-2.19999999999999
20
-15.8909649274654
30
0
41
1
10
-2.19999999999999
20
-16.0498023362736
30
0
41
1
10
-2.19999999999999
20
-16.2591647559547
30
0
41
1
10
-2.19999999999999
20
-16.4649171124643
30
0
41
1
10
-2.19999999999999
20
-16.666987304737
30
0
41
1
10
-2.19999999999999
20
-16.8167085043733
30
0
41
1
10
-2.19999999999999
20
-16.9645862898264
30
0
41
1
10
-2.19999999999999
20
-17.1592828976246
30
0
41
1
10
-2.19999999999999
20
-17.3502835148979
30
0
41
1
10
-2.19999999999999
20
-17.5375147595292
30
0
41
1
10
-2.19999999999999
20
-17.676060438985
30
0
41
1
10
-2.19999999999999
20
-17.8127154575359
30
0
41
1
10
-2.19999999999999
20
-17.9923842415009
30
0
41
1
10
-2.19999999999999
20
-18.1682547291306
30
0
41
1
10
-2.19999999999999
20
-18.3402522143585
30
0
41
1
10
-2.19999999999999
20
-18.4673177032107
30
0
41
1
10
-2.19999999999999
20
-18.5924361073221
30
0
41
1
10
-2.19999999999999
20
-18.7566457425986
30
0
41
1
10
-2.19999999999999
20
-18.9169371900015
30
0
41
1
10
-2.19999999999999
20
-19.0732305996174
30
0
41
1
10
-2.19999999999999
20
-19.1884526890887
30
0
41
1
10
-2.19999999999999
20
-19.3016611759423
30
0
41
1
10
-2.19999999999999
20
-19.4499005391959
30
0
41
1
10
-2.19999999999999
20
-19.5940785255289
30
0
41
1
10
-2.19999999999999
20
-19.7341104289282
30
0
41
1
10
-2.19999999999999
20
-19.8370589164793
30
0
41
1
10
-2.19999999999999
20
-19.9379146863563
30
0
41
1
10
-2.19999999999999
20
-20.0366640227898
30
0
41
1
10
-2.19999999999999
20
-20.133289903145
30
0
41
1
10
-2.19999999999999
20
-20.2277776697998
30
0
41
1
10
-2.19999999999999
20
-20.3201119082527
30
0
41
1
10
-2.19999999999999
20
-20.4102747220553
30
0
41
1
10
-2.19999999999999
20
-20.4982502752196
30
0
41
1
10
-2.19999999999999
20
-20.5840212474559
30
0
41
1
10
-2.19999999999999
20
-20.6675682022903
30
0
41
1
10
-2.19999999999999
20
-20.7488739108727
30
0
41
1
10
-2.19999999999999
20
-20.82791883753
30
0
41
1
10
-2.19999999999999
20
-20.9302657657864
30
0
41
1
10
-2.19999999999999
20
-21.0280237880878
30
0
41
1
10
-2.19999999999999
20
-21.1210800961781
30
0
41
1
10
-2.19999999999999
20
-21.1885090211437
30
0
41
1
10
-2.19999999999999
20
-21.2535469320083
30
0
41
1
10
-2.19999999999999
20
-21.3161704250344
30
0
41
1
10
-2.19999999999999
20
-21.3763547664481
30
0
41
1
10
-2.19999999999999
20
-21.4533087676779
30
0
41
1
10
-2.19999999999999
20
-21.5252891448141
30
0
41
1
10
-2.19999999999999
20
-21.5921615531195
30
0
41
1
10
-2.19999999999999
20
-21.6397397916631
30
0
41
1
10
-2.19999999999999
20
-21.6847072964973
30
0
41
1
10
-2.19999999999999
20
-21.7411389990572
30
0
41
1
10
-2.19999999999999
20
-21.7922265879071
30
0
41
1
10
-2.19999999999999
20
-21.8378144981283
30
0
41
1
10
-2.19999999999999
20
-21.8692221254414
30
0
41
1
10
-2.19999999999999
20
-21.8978063777089
30
0
41
1
10
-2.19999999999999
20
-21.9235254752891
30
0
41
1
10
-2.19999999999999
20
-21.9463373508774
30
0
41
1
10
-2.19999999999999
20
-21.9661972037607
30
0
41
1
10
-2.19999999999999
20
-21.9830583809744
30
0
41
1
10
-2.19999999999999
20
-21.9968726399857
30
0
41
1
10
-2.19999999999999
20
-22.006959996015
30
0
41
1
10
-2.19999999999999
20
-22.0117281237489
30
0
41
1
10
-2.19999999999997
20
-22.0135203303389
30
0
0
SPLINE
5
C7
100
AcDbEntity
8
SK1
62
256
6
ByLayer
370
-1
48
1
60
0
100
AcDbSpline
70
4
71
3
72
303
73
299
40
0
40
0
40
0
40
0
40
0.000513336363359
40
0.0040062527549396
40
0.0074991691465203
40
0.0109920855381009
40
0.0144850019296816
40
0.0179779183212623
40
0.0214708347128429
40
0.0249637511044236
40
0.0284566674960043
40
0.0319495838875849
40
0.0389354166707463
40
0.0459212494539076
40
0.0529070822370689
40
0.0563999986286496
40
0.0598929150202303
40
0.0633858314118109
40
0.0668787478033915
40
0.0738645805865529
40
0.0773574969781335
40
0.0808504133697143
40
0.0843433297612949
40
0.0878362461528756
40
0.0913291625444562
40
0.0948220789360368
40
0.101807911719198
40
0.105300828110779
40
0.108793744502359
40
0.11228666089394
40
0.115779577285521
40
0.119272493677101
40
0.122765410068682
40
0.126258326460263
40
0.129751242851844
40
0.133244159243424
40
0.136737075635005
40
0.140229992026586
40
0.143722908418166
40
0.147215824809747
40
0.150708741201327
40
0.157694573984489
40
0.161187490376069
40
0.16468040676765
40
0.16642686496344
40
0.168173323159231
40
0.171666239550811
40
0.178652072333973
40
0.182144988725553
40
0.185637905117134
40
0.189130821508715
40
0.192623737900295
40
0.199609570683457
40
0.203102487075037
40
0.206595403466618
40
0.208341861662408
40
0.210088319858199
40
0.213581236249779
40
0.220567069032941
40
0.224059985424521
40
0.227552901816102
40
0.231045818207683
40
0.234538734599263
40
0.241524567382425
40
0.245017483774005
40
0.248510400165586
40
0.250256858361376
40
0.252003316557167
40
0.255496232948747
40
0.258989149340328
40
0.262482065731909
40
0.264228523927699
40
0.265974982123489
40
0.26946789851507
40
0.272960814906651
40
0.276453731298231
40
0.279946647689812
40
0.283439564081393
40
0.286932480472973
40
0.290425396864554
40
0.293918313256135
40
0.297411229647715
40
0.300904146039296
40
0.304397062430877
40
0.307889978822457
40
0.311382895214038
40
0.314875811605619
40
0.318368727997199
40
0.325354560780361
40
0.328847477171941
40
0.332340393563522
40
0.335833309955103
40
0.339326226346683
40
0.342819142738264
40
0.346312059129845
40
0.349804975521425
40
0.353297891913006
40
0.360283724696167
40
0.367269557479328
40
0.37425539026249
40
0.377748306654071
40
0.381241223045651
40
0.384734139437232
40
0.388227055828813
40
0.391719972220393
40
0.395212888611974
40
0.398705805003555
40
0.402198721395135
40
0.405691637786716
40
0.409184554178297
40
0.412677470569877
40
0.416170386961458
40
0.419663303353038
40
0.423156219744619
40
0.4266491361362
40
0.43014205252778
40
0.433634968919361
40
0.435381427115151
40
0.437127885310942
40
0.438874343506732
40
0.440620801702522
40
0.444113718094103
40
0.447606634485684
40
0.449353092681474
40
0.451099550877264
40
0.452846009073055
40
0.454592467268845
40
0.458085383660426
40
0.459831841856216
40
0.461578300052006
40
0.463324758247797
40
0.465071216443587
40
0.466817674639378
40
0.468564132835168
40
0.470310591030958
40
0.472057049226749
40
0.473803507422539
40
0.475549965618329
40
0.47729642381412
40
0.47904288200991
40
0.4807893402057
40
0.48253579840149
40
0.484282256597281
40
0.486028714793071
40
0.487775172988862
40
0.489521631184652
40
0.491268089380442
40
0.493014547576232
40
0.494761005772023
40
0.496507463967813
40
0.498253922163603
40
0.500000380359394
40
0.501746838555184
40
0.503493296750974
40
0.505239754946765
40
0.506986213142555
40
0.508732671338345
40
0.510479129534136
40
0.512225587729926
40
0.513972045925716
40
0.515718504121507
40
0.517464962317297
40
0.519211420513087
40
0.520957878708878
40
0.522704336904668
40
0.524450795100458
40
0.526197253296249
40
0.527943711492039
40
0.529690169687829
40
0.53143662788362
40
0.53318308607941
40
0.5349295442752
40
0.536676002470991
40
0.538422460666781
40
0.540168918862571
40
0.541915377058362
40
0.545408293449942
40
0.547154751645732
40
0.548901209841523
40
0.550647668037313
40
0.552394126233104
40
0.555887042624684
40
0.559379959016265
40
0.561126417212055
40
0.562872875407846
40
0.564619333603636
40
0.566365791799426
40
0.569858708191007
40
0.573351624582588
40
0.576844540974168
40
0.580337457365749
40
0.58383037375733
40
0.58732329014891
40
0.590816206540491
40
0.594309122932072
40
0.597802039323652
40
0.601294955715233
40
0.604787872106814
40
0.608280788498394
40
0.611773704889975
40
0.615266621281556
40
0.618759537673136
40
0.622252454064717
40
0.625745370456298
40
0.632731203239459
40
0.63971703602262
40
0.646702868805782
40
0.650195785197362
40
0.653688701588943
40
0.657181617980524
40
0.660674534372104
40
0.664167450763685
40
0.667660367155266
40
0.671153283546846
40
0.674646199938427
40
0.681632032721588
40
0.685124949113169
40
0.68861786550475
40
0.69211078189633
40
0.695603698287911
40
0.699096614679492
40
0.702589531071072
40
0.706082447462653
40
0.709575363854234
40
0.713068280245814
40
0.716561196637395
40
0.720054113028976
40
0.723547029420556
40
0.730532862203718
40
0.734025778595298
40
0.737518694986879
40
0.74450452777004
40
0.747997444161621
40
0.751490360553202
40
0.754983276944782
40
0.758476193336363
40
0.765462026119524
40
0.768954942511105
40
0.772447858902686
40
0.775940775294266
40
0.779433691685847
40
0.786419524469008
40
0.789912440860589
40
0.79340535725217
40
0.79689827364375
40
0.800391190035331
40
0.807377022818492
40
0.810869939210073
40
0.814362855601654
40
0.817855771993234
40
0.821348688384815
40
0.828334521167976
40
0.831827437559557
40
0.835320353951137
40
0.838813270342718
40
0.842306186734299
40
0.84929201951746
40
0.852784935909041
40
0.856277852300622
40
0.859770768692202
40
0.863263685083783
40
0.866756601475364
40
0.870249517866944
40
0.873742434258525
40
0.877235350650105
40
0.880728267041686
40
0.884221183433267
40
0.887714099824847
40
0.891207016216428
40
0.894699932608009
40
0.898192848999589
40
0.905178681782751
40
0.908671598174331
40
0.912164514565912
40
0.915657430957493
40
0.919150347349073
40
0.922643263740654
40
0.926136180132235
40
0.933122012915396
40
0.936614929306977
40
0.940107845698557
40
0.943600762090138
40
0.947093678481719
40
0.95407951126488
40
0.957572427656461
40
0.961065344048041
40
0.964558260439622
40
0.968051176831203
40
0.971544093222783
40
0.975037009614364
40
0.978529926005945
40
0.982022842397525
40
0.985515758789106
40
0.989008675180687
40
0.992501591572267
40
0.995994507963848
40
0.999487424355429
40
1
40
1
40
1
40
1
41
1
10
-36.5
20
21.1555776155309
30
0
41
1
10
-36.5
20
21.1557858261934
30
0
41
1
10
-36.5
20
21.157319152491
30
0
41
1
10
-36.5
20
21.1588544331657
30
0
41
1
10
-36.5
20
21.1578038223016
30
0
41
1
10
-36.5
20
21.1536126358382
30
0
41
1
10
-36.5
20
21.1463317213717
30
0
41
1
10
-36.5
20
21.1360112678938
30
0
41
1
10
-36.5
20
21.1226986497682
30
0
41
1
10
-36.5
20
21.1064402158535
30
0
41
1
10
-36.5
20
21.0872797426226
30
0
41
1
10
-36.5
20
21.0578537406018
30
0
41
1
10
-36.5
20
21.0141777773224
30
0
41
1
10
-36.5
20
20.950713074722
30
0
41
1
10
-36.5
20
20.8890285612071
30
0
41
1
10
-36.5
20
20.8342802658871
30
0
41
1
10
-36.5
20
20.7907267804185
30
0
41
1
10
-36.5
20
20.7446291690672
30
0
41
1
10
-36.5
20
20.6796864194097
30
0
41
1
10
-36.5
20
20.6101652524536
30
0
41
1
10
-36.5
20
20.5353747251341
30
0
41
1
10
-36.5
20
20.4769783324059
30
0
41
1
10
-36.5
20
20.4161995895792
30
0
41
1
10
-36.5
20
20.3530628196555
30
0
41
1
10
-36.5
20
20.2875896826626
30
0
41
1
10
-36.5
20
20.1970436182683
30
0
41
1
10
-36.5
20
20.1024192722933
30
0
41
1
10
-36.5
20
20.0027815031752
30
0
41
1
10
-36.5
20
19.9259535572617
30
0
41
1
10
-36.5
20
19.8469141355251
30
0
41
1
10
-36.5
20
19.7656833730651
30
0
41
1
10
-36.5
20
19.6822775189499
30
0
41
1
10
-36.5
20
19.5967148149262
30
0
41
1
10
-36.5
20
19.5090135394173
30
0
41
1
10
-36.5
20
19.4191882696517
30
0
41
1
10
-36.5
20
19.3272561697677
30
0
41
1
10
-36.5
20
19.2332338822713
30
0
41
1
10
-36.5
20
19.1371346902892
30
0
41
1
10
-36.5
20
19.0389746878943
30
0
41
1
10
-36.5
20
18.9387689752275
30
0
41
1
10
-36.5
20
18.8022215100789
30
0
41
1
10
-36.5
20
18.6623317385554
30
0
41
1
10
-36.5
20
18.5177544284038
30
0
41
1
10
-36.5
20
18.4260133905722
30
0
41
1
10
-36.5
20
18.3514175898237
30
0
41
1
10
-36.5
20
18.2761667145511
30
0
41
1
10
-36.5
20
18.1428549391526
30
0
41
1
10
-36.5
20
17.987269645424
30
0
41
1
10
-36.5
20
17.8270700659299
30
0
41
1
10
-36.5
20
17.705205542109
30
0
41
1
10
-36.5
20
17.5814423770725
30
0
41
1
10
-36.5
20
17.4136311437529
30
0
41
1
10
-36.5
20
17.2428939764416
30
0
41
1
10
-36.5
20
17.0675963011876
30
0
41
1
10
-36.5
20
16.9568152899196
30
0
41
1
10
-36.5
20
16.867008999151
30
0
41
1
10
-36.5
20
16.7765898513273
30
0
41
1
10
-36.5
20
16.6168596157572
30
0
41
1
10
-36.5
20
16.4314438788638
30
0
41
1
10
-36.5
20
16.2414991337765
30
0
41
1
10
-36.5
20
16.097474719741
30
0
41
1
10
-36.5
20
15.9516616651348
30
0
41
1
10
-36.5
20
15.7545445351489
30
0
41
1
10
-36.5
20
15.5548613446891
30
0
41
1
10
-36.5
20
15.350663385132
30
0
41
1
10
-36.5
20
15.2219600388738
30
0
41
1
10
-36.5
20
15.1178164480938
30
0
41
1
10
-36.5
20
15.0130920883853
30
0
41
1
10
-36.5
20
14.8814910451208
30
0
41
1
10
-36.5
20
14.7216281332594
30
0
41
1
10
-36.5
20
14.5871530954062
30
0
41
1
10
-36.5
20
14.4783873813363
30
0
41
1
10
-36.5
20
14.3690494022437
30
0
41
1
10
-36.5
20
14.2317235183089
30
0
41
1
10
-36.5
20
14.0650028858775
30
0
41
1
10
-36.5
20
13.8965816080865
30
0
41
1
10
-36.5
20
13.7264689694465
30
0
41
1
10
-36.5
20
13.5546710496343
30
0
41
1
10
-36.5
20
13.3811910773122
30
0
41
1
10
-36.5
20
13.2060373742644
30
0
41
1
10
-36.5
20
13.0292149133303
30
0
41
1
10
-36.5
20
12.850728177302
30
0
41
1
10
-36.5
20
12.6705857874604
30
0
41
1
10
-36.5
20
12.4887914218501
30
0
41
1
10
-36.5
20
12.3053503484466
30
0
41
1
10
-36.5
20
12.1202706879328
30
0
41
1
10
-36.5
20
11.9335555855444
30
0
41
1
10
-36.5
20
11.6819759204348
30
0
41
1
10
-36.5
20
11.4285505376587
30
0
41
1
10
-36.5
20
11.1704660874499
30
0
41
1
10
-36.5
20
10.9756651586938
30
0
41
1
10
-36.5
20
10.7792636737398
30
0
41
1
10
-36.5
20
10.5812696725585
30
0
41
1
10
-36.5
20
10.3816871154457
30
0
41
1
10
-36.5
20
10.180523710493
30
0
41
1
10
-36.5
20
9.97778558435027
30
0
41
1
10
-36.5
20
9.70483576808863
30
0
41
1
10
-36.5
20
9.36101276272154
30
0
41
1
10
-36.5
20
8.94153438933262
30
0
41
1
10
-36.5
20
8.58745787193689
30
0
41
1
10
-36.5
20
8.30004464023602
30
0
41
1
10
-36.5
20
8.08346950394392
30
0
41
1
10
-36.5
20
7.86540102208471
30
0
41
1
10
-36.5
20
7.64585131899614
30
0
41
1
10
-36.5
20
7.42483318088833
30
0
41
1
10
-36.5
20
7.20235735193418
30
0
41
1
10
-36.5
20
6.97843755879967
30
0
41
1
10
-36.5
20
6.75308981071325
30
0
41
1
10
-36.5
20
6.52633035082275
30
0
41
1
10
-36.5
20
6.29817753233076
30
0
41
1
10
-36.5
20
6.06865022444896
30
0
41
1
10
-36.5
20
5.83776884649418
30
0
41
1
10
-36.5
20
5.60555660448861
30
0
41
1
10
-36.5
20
5.37203985998678
30
0
41
1
10
-36.5
20
5.13724579696881
30
0
41
1
10
-36.5
20
4.90120595303733
30
0
41
1
10
-36.5
20
4.70396583147402
30
0
41
1
10
-36.5
20
4.54469638576828
30
0
41
1
10
-36.5
20
4.42533999597057
30
0
41
1
10
-36.5
20
4.30569972295402
30
0
41
1
10
-36.5
20
4.14529336499854
30
0
41
1
10
-36.5
20
3.94531865595207
30
0
41
1
10
-36.5
20
3.74444957084984
30
0
41
1
10
-36.5
20
3.58224076117995
30
0
41
1
10
-36.5
20
3.46078958963511
30
0
41
1
10
-36.5
20
3.33910702605107
30
0
41
1
10
-36.5
20
3.17597085922341
30
0
41
1
10
-36.5
20
3.01425651604552
30
0
41
1
10
-36.5
20
2.85023149996007
30
0
41
1
10
-36.5
20
2.72752154931175
30
0
41
1
10
-36.5
20
2.60463052157442
30
0
41
1
10
-36.5
20
2.48157378937663
30
0
41
1
10
-36.5
20
2.35835621123036
30
0
41
1
10
-36.5
20
2.23499061660055
30
0
41
1
10
-36.5
20
2.11148761081347
30
0
41
1
10
-36.5
20
1.9878545152765
30
0
41
1
10
-36.5
20
1.86410632124094
30
0
41
1
10
-36.5
20
1.74024827700825
30
0
41
1
10
-36.5
20
1.61629526151512
30
0
41
1
10
-36.5
20
1.49225310041959
30
0
41
1
10
-36.5
20
1.3681347814894
30
0
41
1
10
-36.5
20
1.2439473222278
30
0
41
1
10
-36.5
20
1.11970117534864
30
0
41
1
10
-36.5
20
0.995403485642782
30
0
41
1
10
-36.5
20
0.8710629170684
30
0
41
1
10
-36.5
20
0.746686102657719
30
0
41
1
10
-36.5
20
0.622280124115576
30
0
41
1
10
-36.5
20
0.497850420758397
30
0
41
1
10
-36.5
20
0.373402935182185
30
0
41
1
10
-36.5
20
0.248942238793148
30
0
41
1
10
-36.5
20
0.124473257200918
30
0
41
1
10
-36.5
20
9.2462358E-09
30
0
41
1
10
-36.5
20
-0.124473254673973
30
0
41
1
10
-36.5
20
-0.248942266430618
30
0
41
1
10
-36.5
20
-0.373402960091397
30
0
41
1
10
-36.5
20
-0.497850400790554
30
0
41
1
10
-36.5
20
-0.622280094010847
30
0
41
1
10
-36.5
20
-0.746686131491799
30
0
41
1
10
-36.5
20
-0.871062970095124
30
0
41
1
10
-36.5
20
-0.995403468230791
30
0
41
1
10
-36.5
20
-1.11970111692671
30
0
41
1
10
-36.5
20
-1.24394734076813
30
0
41
1
10
-36.5
20
-1.36813486147517
30
0
41
1
10
-36.5
20
-1.49225310642996
30
0
41
1
10
-36.5
20
-1.61629518356963
30
0
41
1
10
-36.5
20
-1.7402482546413
30
0
41
1
10
-36.5
20
-1.86410640329151
30
0
41
1
10
-36.5
20
-1.98785458048855
30
0
41
1
10
-36.5
20
-2.11148756075909
30
0
41
1
10
-36.5
20
-2.2349905278607
30
0
41
1
10
-36.5
20
-2.3583562279822
30
0
41
1
10
-36.5
20
-2.48157389743918
30
0
41
1
10
-36.5
20
-2.60463057106841
30
0
41
1
10
-36.5
20
-2.72752148004804
30
0
41
1
10
-36.5
20
-2.8502314065623
30
0
41
1
10
-36.5
20
-3.01425656877106
30
0
41
1
10
-36.5
20
-3.17597095993784
30
0
41
1
10
-36.5
20
-3.33910698167958
30
0
41
1
10
-36.5
20
-3.46078948211164
30
0
41
1
10
-36.5
20
-3.58224072191865
30
0
41
1
10
-36.5
20
-3.74444967050349
30
0
41
1
10
-36.5
20
-3.94531869048151
30
0
41
1
10
-36.5
20
-4.14529326648051
30
0
41
1
10
-36.5
20
-4.30569969171859
30
0
41
1
10
-36.5
20
-4.42534006396792
30
0
41
1
10
-36.5
20
-4.54469650094606
30
0
41
1
10
-36.5
20
-4.70396584910503
30
0
41
1
10
-36.5
20
-4.90120586463618
30
0
41
1
10
-36.5
20
-5.1372458114655
30
0
41
1
10
-36.5
20
-5.37203995090806
30
0
41
1
10
-36.5
20
-5.6055565552935
30
0
41
1
10
-36.5
20
-5.83776875015039
30
0
41
1
10
-36.5
20
-6.06865017711209
30
0
41
1
10
-36.5
20
-6.29817748211653
30
0
41
1
10
-36.5
20
-6.52633051401983
30
0
41
1
10
-36.5
20
-6.75309051279777
30
0
41
1
10
-36.5
20
-6.97843834484934
30
0
41
1
10
-36.5
20
-7.20235684280954
30
0
41
1
10
-36.5
20
-7.42483229470756
30
0
41
1
10
-36.5
20
-7.64585158611581
30
0
41
1
10
-36.5
20
-7.86540128403743
30
0
41
1
10
-36.5
20
-8.08346945831602
30
0
41
1
10
-36.5
20
-8.30004452993893
30
0
41
1
10
-36.5
20
-8.58745782596952
30
0
41
1
10
-36.5
20
-8.94153442741853
30
0
41
1
10
-36.5
20
-9.36101273737586
30
0
41
1
10
-36.5
20
-9.70483575174822
30
0
41
1
10
-36.5
20
-9.97778564072317
30
0
41
1
10
-36.5
20
-10.18052371466
30
0
41
1
10
-36.5
20
-10.3816870614505
30
0
41
1
10
-36.5
20
-10.5812696339219
30
0
41
1
10
-36.5
20
-10.7792636942327
30
0
41
1
10
-36.5
20
-10.9756652058486
30
0
41
1
10
-36.5
20
-11.1704660987636
30
0
41
1
10
-36.5
20
-11.4285504962004
30
0
41
1
10
-36.5
20
-11.6819759007756
30
0
41
1
10
-36.5
20
-11.9335556252714
30
0
41
1
10
-36.5
20
-12.1202707134412
30
0
41
1
10
-36.5
20
-12.3053503320752
30
0
41
1
10
-36.5
20
-12.4887913848281
30
0
41
1
10
-36.5
20
-12.6705857704289
30
0
41
1
10
-36.5
20
-12.8507281979538
30
0
41
1
10
-36.5
20
-13.0292149436136
30
0
41
1
10
-36.5
20
-13.2060373895955
30
0
41
1
10
-36.5
20
-13.3811911431361
30
0
41
1
10
-36.5
20
-13.5546713888901
30
0
41
1
10
-36.5
20
-13.7264696827894
30
0
41
1
10
-36.5
20
-13.9536769173599
30
0
41
1
10
-36.5
20
-14.176348576809
30
0
41
1
10
-36.5
20
-14.3967384349214
30
0
41
1
10
-36.5
20
-14.6148460432235
30
0
41
1
10
-36.5
20
-14.8284315021107
30
0
41
1
10
-36.5
20
-15.0396227184095
30
0
41
1
10
-36.5
20
-15.1960147192182
30
0
41
1
10
-36.5
20
-15.3506631330603
30
0
41
1
10
-36.5
20
-15.5548624364723
30
0
41
1
10
-36.5
20
-15.7545451164335
30
0
41
1
10
-36.5
20
-15.9516609547094
30
0
41
1
10
-36.5
20
-16.0974737380165
30
0
41
1
10
-36.5
20
-16.241498813278
30
0
41
1
10
-36.5
20
-16.4314450331352
30
0
41
1
10
-36.5
20
-16.6168608854212
30
0
41
1
10
-36.5
20
-16.7995343923805
30
0
41
1
10
-36.5
20
-16.9344844206004
30
0
41
1
10
-36.5
20
-17.0675955495037
30
0
41
1
10
-36.5
20
-17.2428947983014
30
0
41
1
10
-36.5
20
-17.4136313821348
30
0
41
1
10
-36.5
20
-17.5814422063202
30
0
41
1
10
-36.5
20
-17.7052052466277
30
0
41
1
10
-36.5
20
-17.827069915531
30
0
41
1
10
-36.5
20
-17.9872703841193
30
0
41
1
10
-36.5
20
-18.1428562465544
30
0
41
1
10
-36.5
20
-18.2953166794047
30
0
41
1
10
-36.5
20
-18.4075180436267
30
0
41
1
10
-36.5
20
-18.5177535555592
30
0
41
1
10
-36.5
20
-18.6623326618876
30
0
41
1
10
-36.5
20
-18.8022222651529
30
0
41
1
10
-36.5
20
-18.9387686023437
30
0
41
1
10
-36.5
20
-19.0389739868785
30
0
41
1
10
-36.5
20
-19.1371342717784
30
0
41
1
10
-36.5
20
-19.2332339353276
30
0
41
1
10
-36.5
20
-19.3272562516113
30
0
41
1
10
-36.5
20
-19.4191882978898
30
0
41
1
10
-36.5
20
-19.5090135437133
30
0
41
1
10
-36.5
20
-19.5967148362678
30
0
41
1
10
-36.5
20
-19.6822775521962
30
0
41
1
10
-36.5
20
-19.7656833992675
30
0
41
1
10
-36.5
20
-19.8469141406672
30
0
41
1
10
-36.5
20
-19.9259535527381
30
0
41
1
10
-36.5
20
-20.0027815100322
30
0
41
1
10
-36.5
20
-20.1024193061391
30
0
41
1
10
-36.5
20
-20.1970436522849
30
0
41
1
10
-36.5
20
-20.287589681624
30
0
41
1
10
-36.5
20
-20.353062816238
30
0
41
1
10
-36.5
20
-20.4161996091986
30
0
41
1
10
-36.5
20
-20.4769783724375
30
0
41
1
10
-36.5
20
-20.5353747607017
30
0
41
1
10
-36.5
20
-20.6101652553123
30
0
41
1
10
-36.5
20
-20.6796864153796
30
0
41
1
10
-36.5
20
-20.7446292080422
30
0
41
1
10
-36.5
20
-20.7907268231738
30
0
41
1
10
-36.5
20
-20.8342802793506
30
0
41
1
10
-36.5
20
-20.8890285523336
30
0
41
1
10
-36.5
20
-20.9382580424269
30
0
41
1
10
-36.5
20
-20.9824409225429
30
0
41
1
10
-36.5
20
-21.0128017234864
30
0
41
1
10
-36.5
20
-21.0404207944711
30
0
41
1
10
-36.5
20
-21.0652596303332
30
0
41
1
10
-36.5
20
-21.0872797892674
30
0
41
1
10
-36.5
20
-21.1064402531507
30
0
41
1
10
-36.5
20
-21.1226986516191
30
0
41
1
10
-36.5
20
-21.1360112646484
30
0
41
1
10
-36.5
20
-21.1463317710584
30
0
41
1
10
-36.5
20
-21.1536128319466
30
0
41
1
10
-36.5
20
-21.1578041644649
30
0
41
1
10
-36.5
20
-21.1588543296933
30
0
41
1
10
-36.5
20
-21.1573189701122
30
0
41
1
10
-36.5
20
-21.1557860247012
30
0
41
1
10
-36.5
20
-21.1555781528712
30
0
0
SPLINE
5
C8
100
AcDbEntity
8
SK1
62
256
6
ByLayer
370
-1
48
1
60
0
100
AcDbSpline
70
4
71
3
72
111
73
107
40
0
40
0
40
0
40
0
40
0.0023117070396209
40
0.010857253619766
40
0.0194028001999111
40
0.0279483467800563
40
0.0364938933602014
40
0.0450394399403465
40
0.0535849865204916
40
0.0621305331006367
40
0.0706760796807818
40
0.0792216262609269
40
0.087767172841072
40
0.0963127194212171
40
0.113403812581507
40
0.130494905741798
40
0.147585998902088
40
0.156131545482233
40
0.164677092062378
40
0.173222638642523
40
0.181768185222668
40
0.190313731802813
40
0.198859278382958
40
0.207404824963104
40
0.215950371543249
40
0.233041464703539
40
0.241587011283684
40
0.250132557863829
40
0.258678104443974
40
0.267223651024119
40
0.275769197604264
40
0.28431474418441
40
0.292860290764555
40
0.3014058373447
40
0.309951383924845
40
0.31849693050499
40
0.327042477085135
40
0.33558802366528
40
0.352679116825571
40
0.361224663405716
40
0.369770209985861
40
0.386861303146151
40
0.395406849726296
40
0.403952396306441
40
0.412497942886586
40
0.421043489466731
40
0.438134582627022
40
0.446680129207167
40
0.455225675787312
40
0.463771222367457
40
0.472316768947602
40
0.489407862107892
40
0.497953408688037
40
0.506498955268183
40
0.515044501848328
40
0.523590048428473
40
0.540681141588763
40
0.549226688168908
40
0.557772234749053
40
0.566317781329198
40
0.574863327909343
40
0.591954421069634
40
0.600499967649779
40
0.609045514229924
40
0.617591060810069
40
0.626136607390214
40
0.643227700550504
40
0.651773247130649
40
0.660318793710794
40
0.66886434029094
40
0.677409886871085
40
0.68595543345123
40
0.694500980031375
40
0.70304652661152
40
0.711592073191665
40
0.72013761977181
40
0.728683166351955
40
0.7372287129321
40
0.745774259512246
40
0.754319806092391
40
0.762865352672536
40
0.779956445832826
40
0.788501992412971
40
0.797047538993116
40
0.805593085573261
40
0.814138632153407
40
0.822684178733552
40
0.831229725313697
40
0.848320818473987
40
0.856866365054132
40
0.865411911634277
40
0.873957458214422
40
0.882503004794567
40
0.899594097954858
40
0.908139644535003
40
0.916685191115148
40
0.925230737695293
40
0.933776284275438
40
0.942321830855583
40
0.950867377435728
40
0.959412924015873
40
0.967958470596018
40
0.976504017176164
40
0.985049563756309
40
0.993595110336454
40
1
40
1
40
1
40
1
41
1
10
-0.394976888875291
20
-6.32694279392976
30
0
41
1
10
-0.394976888875291
20
-6.3484916311391
30
0
41
1
10
-0.394976888875291
20
-6.44960775400912
30
0
41
1
10
-0.394976888875291
20
-6.62954555948869
30
0
41
1
10
-0.394976888875291
20
-6.8656950488801
30
0
41
1
10
-0.394976888875291
20
-7.10023740586411
30
0
41
1
10
-0.394976888875291
20
-7.33316546385933
30
0
41
1
10
-0.394976888875291
20
-7.56447269448574
30
0
41
1
10
-0.394976888875291
20
-7.79415340272945
30
0
41
1
10
-0.394976888875291
20
-8.02220293401996
30
0
41
1
10
-0.394976888875291
20
-8.24861635560848
30
0
41
1
10
-0.394976888875291
20
-8.47338951886385
30
0
41
1
10
-0.394976888875291
20
-8.69651811258549
30
0
41
1
10
-0.394976888875291
20
-8.99192948127941
30
0
41
1
10
-0.394976888875291
20
-9.35683912175983
30
0
41
1
10
-0.394976888875291
20
-9.78821091217483
30
0
41
1
10
-0.394976888875291
20
-10.142045462177
30
0
41
1
10
-0.394976888875291
20
-10.4219344727077
30
0
41
1
10
-0.394976888875291
20
-10.6301131683678
30
0
41
1
10
-0.394976888875291
20
-10.8366153667066
30
0
41
1
10
-0.394976888875291
20
-11.0414388905992
30
0
41
1
10
-0.394976888875291
20
-11.2445799004538
30
0
41
1
10
-0.394976888875291
20
-11.4460361162834
30
0
41
1
10
-0.394976888875291
20
-11.6458042976885
30
0
41
1
10
-0.394976888875291
20
-11.9099848253352
30
0
41
1
10
-0.394976888875291
20
-12.1705475695385
30
0
41
1
10
-0.394976888875291
20
-12.4279318067111
30
0
41
1
10
-0.394976888875291
20
-12.6192114874981
30
0
41
1
10
-0.394976888875291
20
-12.8087826250924
30
0
41
1
10
-0.394976888875291
20
-12.9966426041155
30
0
41
1
10
-0.394976888875291
20
-13.182787448996
30
0
41
1
10
-0.394976888875291
20
-13.3672125455487
30
0
41
1
10
-0.394976888875291
20
-13.5499151547097
30
0
41
1
10
-0.394976888875291
20
-13.7308904478326
30
0
41
1
10
-0.394976888875291
20
-13.910133867705
30
0
41
1
10
-0.394976888875291
20
-14.0876421688895
30
0
41
1
10
-0.394976888875291
20
-14.2634098807097
30
0
41
1
10
-0.394976888875291
20
-14.4955025482493
30
0
41
1
10
-0.394976888875291
20
-14.7239127068147
30
0
41
1
10
-0.394976888875291
20
-14.9489833053404
30
0
41
1
10
-0.394976888875291
20
-15.171701411915
30
0
41
1
10
-0.394976888875291
20
-15.3907043201103
30
0
41
1
10
-0.394976888875291
20
-15.6063159613101
30
0
41
1
10
-0.394976888875291
20
-15.7661946363952
30
0
41
1
10
-0.394976888875291
20
-15.9242799594928
30
0
41
1
10
-0.394976888875291
20
-16.1327154012234
30
0
41
1
10
-0.394976888875291
20
-16.3373780173449
30
0
41
1
10
-0.394976888875291
20
-16.5385587125243
30
0
41
1
10
-0.394976888875291
20
-16.6875782011067
30
0
41
1
10
-0.394976888875291
20
-16.8347642769002
30
0
41
1
10
-0.394976888875291
20
-17.0286080073569
30
0
41
1
10
-0.394976888875291
20
-17.2186059445175
30
0
41
1
10
-0.394976888875291
20
-17.4050188999402
30
0
41
1
10
-0.394976888875291
20
-17.5429190217058
30
0
41
1
10
-0.394976888875291
20
-17.6789377757623
30
0
41
1
10
-0.394976888875291
20
-17.8578220601067
30
0
41
1
10
-0.394976888875291
20
-18.0327708145484
30
0
41
1
10
-0.394976888875291
20
-18.2040166330947
30
0
41
1
10
-0.394976888875291
20
-18.3304892054167
30
0
41
1
10
-0.394976888875291
20
-18.4550234389153
30
0
41
1
10
-0.394976888875291
20
-18.6185132745736
30
0
41
1
10
-0.394976888875291
20
-18.7779598884918
30
0
41
1
10
-0.394976888875291
20
-18.933565131357
30
0
41
1
10
-0.394976888875291
20
-19.048244884465
30
0
41
1
10
-0.394976888875291
20
-19.1609196079758
30
0
41
1
10
-0.394976888875291
20
-19.3085018143331
30
0
41
1
10
-0.394976888875291
20
-19.4519098709686
30
0
41
1
10
-0.394976888875291
20
-19.5913159811741
30
0
41
1
10
-0.394976888875291
20
-19.6937719762305
30
0
41
1
10
-0.394976888875291
20
-19.7941438028822
30
0
41
1
10
-0.394976888875291
20
-19.8924174211231
30
0
41
1
10
-0.394976888875291
20
-19.988575861591
30
0
41
1
10
-0.394976888875291
20
-20.082604778142
30
0
41
1
10
-0.394976888875291
20
-20.1744885559187
30
0
41
1
10
-0.394976888875291
20
-20.264209431984
30
0
41
1
10
-0.394976888875291
20
-20.3517517880635
30
0
41
1
10
-0.394976888875291
20
-20.437098129367
30
0
41
1
10
-0.394976888875291
20
-20.5202292348052
30
0
41
1
10
-0.394976888875291
20
-20.6011280559991
30
0
41
1
10
-0.394976888875291
20
-20.6797749513881
30
0
41
1
10
-0.394976888875291
20
-20.781635486227
30
0
41
1
10
-0.394976888875291
20
-20.8788308931333
30
0
41
1
10
-0.394976888875291
20
-20.9714365096391
30
0
41
1
10
-0.394976888875291
20
-21.0385142950144
30
0
41
1
10
-0.394976888875291
20
-21.1032108820957
30
0
41
1
10
-0.394976888875291
20
-21.1655031751743
30
0
41
1
10
-0.394976888875291
20
-21.2253665102307
30
0
41
1
10
-0.394976888875291
20
-21.301932078811
30
0
41
1
10
-0.394976888875291
20
-21.3734709318986
30
0
41
1
10
-0.394976888875291
20
-21.4399968999807
30
0
41
1
10
-0.394976888875291
20
-21.4873093096751
30
0
41
1
10
-0.394976888875291
20
-21.5320229383892
30
0
41
1
10
-0.394976888875291
20
-21.5881524005931
30
0
41
1
10
-0.394976888875291
20
-21.6389063892513
30
0
41
1
10
-0.394976888875291
20
-21.6842420425293
30
0
41
1
10
-0.394976888875291
20
-21.7154617242468
30
0
41
1
10
-0.394976888875291
20
-21.7438726893518
30
0
41
1
10
-0.394976888875291
20
-21.7694337460976
30
0
41
1
10
-0.394976888875291
20
-21.7921034780961
30
0
41
1
10
-0.394976888875291
20
-21.8118377637545
30
0
41
1
10
-0.394976888875291
20
-21.8285907189997
30
0
41
1
10
-0.394976888875291
20
-21.8423149132633
30
0
41
1
10
-0.394976888875291
20
-21.8529599173647
30
0
41
1
10
-0.394976888875291
20
-21.8604739519412
30
0
41
1
10
-0.394976888875291
20
-21.8644404752188
30
0
41
1
10
-0.394976888875306
20
-21.865310095939
30
0
41
1
10
-0.394976888875291
20
-21.8653747938963
30
0
0
SPLINE
5
C9
100
AcDbEntity
8
SK1
62
256
6
ByLayer
370
-1
48
1
60
0
100
AcDbSpline
70
4
71
3
72
116
73
112
40
0
40
0
40
0
40
0
40
0.0006048375225818
40
0.0091269725526179
40
0.0176491075826541
40
0.0261712426126903
40
0.0346933776427264
40
0.0432155126727626
40
0.0517376477027988
40
0.0602597827328349
40
0.0687819177628711
40
0.0858261878229434
40
0.102870457883016
40
0.119914727943088
40
0.128436862973124
40
0.13695899800316
40
0.145481133033197
40
0.154003268063233
40
0.171047538123305
40
0.179569673153341
40
0.188091808183377
40
0.196613943213414
40
0.20513607824345
40
0.213658213273486
40
0.222180348303522
40
0.239224618363594
40
0.247746753393631
40
0.256268888423667
40
0.264791023453703
40
0.273313158483739
40
0.281835293513775
40
0.290357428543811
40
0.298879563573847
40
0.307401698603884
40
0.31592383363392
40
0.324445968663956
40
0.332968103693992
40
0.341490238724028
40
0.350012373754065
40
0.358534508784101
40
0.375578778844173
40
0.384100913874209
40
0.392623048904245
40
0.396884116419263
40
0.401145183934282
40
0.409667318964318
40
0.42671158902439
40
0.435233724054426
40
0.443755859084462
40
0.452277994114498
40
0.460800129144535
40
0.477844399204607
40
0.486366534234643
40
0.494888669264679
40
0.499149736779697
40
0.503410804294716
40
0.511932939324752
40
0.528977209384824
40
0.53749934441486
40
0.546021479444896
40
0.554543614474933
40
0.563065749504969
40
0.580110019565041
40
0.588632154595077
40
0.597154289625113
40
0.601415357140131
40
0.605676424655149
40
0.614198559685186
40
0.622720694715222
40
0.631242829745258
40
0.635503897260276
40
0.639764964775294
40
0.64828709980533
40
0.656809234835367
40
0.665331369865403
40
0.673853504895439
40
0.682375639925475
40
0.690897774955511
40
0.699419909985547
40
0.707942045015583
40
0.71646418004562
40
0.724986315075656
40
0.733508450105692
40
0.742030585135728
40
0.750552720165764
40
0.759074855195801
40
0.767596990225837
40
0.784641260285909
40
0.793163395315945
40
0.801685530345981
40
0.810207665376018
40
0.818729800406054
40
0.82725193543609
40
0.835774070466126
40
0.844296205496162
40
0.852818340526198
40
0.869862610586271
40
0.886906880646343
40
0.903951150706415
40
0.912473285736452
40
0.920995420766488
40
0.929517555796524
40
0.93803969082656
40
0.946561825856596
40
0.955083960886632
40
0.963606095916668
40
0.972128230946705
40
0.980650365976741
40
0.989172501006777
40
0.997694636036813
40
1
40
1
40
1
40
1
41
1
10
-0.394976888875263
20
21.8652879159708
30
0
41
1
10
-0.394976888875277
20
21.8653068616601
30
0
41
1
10
-0.394976888875291
20
21.865550845899
30
0
41
1
10
-0.394976888875291
20
21.8648015036862
30
0
41
1
10
-0.394976888875291
20
21.8604737650697
30
0
41
1
10
-0.394976888875291
20
21.8529598769268
30
0
41
1
10
-0.394976888875291
20
21.8423149188875
30
0
41
1
10
-0.394976888875291
20
21.8285907137819
30
0
41
1
10
-0.394976888875291
20
21.8118377229246
30
0
41
1
10
-0.394976888875291
20
21.7921034347989
30
0
41
1
10
-0.394976888875291
20
21.7618666429643
30
0
41
1
10
-0.394976888875291
20
21.7168668922192
30
0
41
1
10
-0.394976888875291
20
21.651618462036
30
0
41
1
10
-0.394976888875291
20
21.5881524120742
30
0
41
1
10
-0.394976888875291
20
21.5320229149808
30
0
41
1
10
-0.394976888875291
20
21.4873092663299
30
0
41
1
10
-0.394976888875291
20
21.4399968711307
30
0
41
1
10
-0.394976888875291
20
21.3734709387681
30
0
41
1
10
-0.394976888875291
20
21.3019320664004
30
0
41
1
10
-0.394976888875291
20
21.2253664719936
30
0
41
1
10
-0.394976888875291
20
21.1655031445011
30
0
41
1
10
-0.394976888875291
20
21.1032108723211
30
0
41
1
10
-0.394976888875291
20
21.038514297088
30
0
41
1
10
-0.394976888875291
20
20.9714364994015
30
0
41
1
10
-0.394976888875291
20
20.8788308563806
30
0
41
1
10
-0.394976888875291
20
20.7816354627076
30
0
41
1
10
-0.394976888875291
20
20.6797749496461
30
0
41
1
10
-0.394976888875291
20
20.6011280536546
30
0
41
1
10
-0.394976888875291
20
20.5202292190253
30
0
41
1
10
-0.394976888875291
20
20.4370981008412
30
0
41
1
10
-0.394976888875291
20
20.3517517634561
30
0
41
1
10
-0.394976888875291
20
20.2642094206366
30
0
41
1
10
-0.394976888875291
20
20.1744885542463
30
0
41
1
10
-0.394976888875291
20
20.082604770276
30
0
41
1
10
-0.394976888875291
20
19.9885758834751
30
0
41
1
10
-0.394976888875291
20
19.8924175863555
30
0
41
1
10
-0.394976888875291
20
19.79414426657
30
0
41
1
10
-0.394976888875291
20
19.6937723311917
30
0
41
1
10
-0.394976888875291
20
19.5913158900225
30
0
41
1
10
-0.394976888875291
20
19.4519091739392
30
0
41
1
10
-0.394976888875291
20
19.308501644014
30
0
41
1
10
-0.394976888875291
20
19.160920630363
30
0
41
1
10
-0.394976888875291
20
19.0670441229991
30
0
41
1
10
-0.394976888875291
20
18.9909051568102
30
0
41
1
10
-0.394976888875291
20
18.9140993494365
30
0
41
1
10
-0.394976888875291
20
18.777958735224
30
0
41
1
10
-0.394976888875291
20
18.6185131846482
30
0
41
1
10
-0.394976888875291
20
18.4550236113311
30
0
41
1
10
-0.394976888875291
20
18.330489335967
30
0
41
1
10
-0.394976888875291
20
18.2040166079408
30
0
41
1
10
-0.394976888875291
20
18.0327705937831
30
0
41
1
10
-0.394976888875291
20
17.8578219077773
30
0
41
1
10
-0.394976888875291
20
17.6789387292296
30
0
41
1
10
-0.394976888875291
20
17.5656125946474
30
0
41
1
10
-0.394976888875291
20
17.4739690253912
30
0
41
1
10
-0.394976888875291
20
17.3816993239948
30
0
41
1
10
-0.394976888875291
20
17.2186048360495
30
0
41
1
10
-0.394976888875291
20
17.0286078387926
30
0
41
1
10
-0.394976888875291
20
16.8347647509306
30
0
41
1
10
-0.394976888875291
20
16.6875786248762
30
0
41
1
10
-0.394976888875291
20
16.5385587049943
30
0
41
1
10
-0.394976888875291
20
16.3373774066279
30
0
41
1
10
-0.394976888875291
20
16.1327150774874
30
0
41
1
10
-0.394976888875291
20
15.9242804112408
30
0
41
1
10
-0.394976888875291
20
15.7925696820839
30
0
41
1
10
-0.394976888875291
20
15.6862549949744
30
0
41
1
10
-0.394976888875291
20
15.5793432837569
30
0
41
1
10
-0.394976888875291
20
15.4446487492657
30
0
41
1
10
-0.394976888875291
20
15.2812010193763
30
0
41
1
10
-0.394976888875291
20
15.1435436982815
30
0
41
1
10
-0.394976888875291
20
15.0324801920763
30
0
41
1
10
-0.394976888875291
20
14.9208273816877
30
0
41
1
10
-0.394976888875291
20
14.7802248596231
30
0
41
1
10
-0.394976888875291
20
14.6097059483473
30
0
41
1
10
-0.394976888875291
20
14.4374320816019
30
0
41
1
10
-0.394976888875291
20
14.2634095816694
30
0
41
1
10
-0.394976888875291
20
14.0876420714538
30
0
41
1
10
-0.394976888875291
20
13.9101338497815
30
0
41
1
10
-0.394976888875291
20
13.7308904366346
30
0
41
1
10
-0.394976888875291
20
13.549915145406
30
0
41
1
10
-0.394976888875291
20
13.3672125481811
30
0
41
1
10
-0.394976888875291
20
13.182787463215
30
0
41
1
10
-0.394976888875291
20
12.9966426140257
30
0
41
1
10
-0.394976888875291
20
12.8087826212334
30
0
41
1
10
-0.394976888875291
20
12.6192114742801
30
0
41
1
10
-0.394976888875291
20
12.4279318017785
30
0
41
1
10
-0.394976888875291
20
12.1705475891153
30
0
41
1
10
-0.394976888875291
20
11.9099848332047
30
0
41
1
10
-0.394976888875291
20
11.6458042855523
30
0
41
1
10
-0.394976888875291
20
11.4460361066677
30
0
41
1
10
-0.394976888875291
20
11.2445799083311
30
0
41
1
10
-0.394976888875291
20
11.0414389105764
30
0
41
1
10
-0.394976888875291
20
10.8366153761928
30
0
41
1
10
-0.394976888875291
20
10.630113157504
30
0
41
1
10
-0.394976888875291
20
10.4219344610486
30
0
41
1
10
-0.394976888875291
20
10.1420454829465
30
0
41
1
10
-0.394976888875291
20
9.78821091215369
30
0
41
1
10
-0.394976888875291
20
9.3568391135907
30
0
41
1
10
-0.394976888875291
20
8.99192950801697
30
0
41
1
10
-0.394976888875291
20
8.69651812098675
30
0
41
1
10
-0.394976888875291
20
8.47338949471808
30
0
41
1
10
-0.394976888875291
20
8.24861627222975
30
0
41
1
10
-0.394976888875291
20
8.0222029406992
30
0
41
1
10
-0.394976888875291
20
7.79415362199521
30
0
41
1
10
-0.394976888875291
20
7.56447255210355
30
0
41
1
10
-0.394976888875291
20
7.33316516004027
30
0
41
1
10
-0.394976888875291
20
7.10023725398264
30
0
41
1
10
-0.394976888875291
20
6.86569504295815
30
0
41
1
10
-0.394976888875291
20
6.62954558311137
30
0
41
1
10
-0.394976888875291
20
6.44960786563362
30
0
41
1
10
-0.394976888875291
20
6.34849183540922
30
0
41
1
10
-0.394976888875291
20
6.32694309067119
30
0
0
SPLINE
5
CA
100
AcDbEntity
8
SK1
62
256
6
ByLayer
370
-1
48
1
60
0
100
AcDbSpline
70
4
71
3
72
299
73
295
40
0
40
0
40
0
40
0
40
0.0029479509253191
40
0.0064730221211174
40
0.0099980933169157
40
0.013523164512714
40
0.0170482357085122
40
0.0205733069043105
40
0.0240983781001087
40
0.027623449295907
40
0.0346735916875035
40
0.0417237340791
40
0.0487738764706966
40
0.0522989476664948
40
0.0558240188622931
40
0.0593490900580914
40
0.0628741612538896
40
0.0699243036454862
40
0.0734493748412844
40
0.0769744460370826
40
0.0804995172328809
40
0.0840245884286792
40
0.0875496596244775
40
0.0910747308202758
40
0.0981248732118722
40
0.101649944407671
40
0.105175015603469
40
0.108700086799267
40
0.112225157995065
40
0.115750229190864
40
0.119275300386662
40
0.12280037158246
40
0.126325442778258
40
0.129850513974057
40
0.133375585169855
40
0.136900656365653
40
0.140425727561451
40
0.14395079875725
40
0.147475869953048
40
0.154526012344644
40
0.158051083540443
40
0.161576154736241
40
0.16333869033414
40
0.165101225932039
40
0.168626297127837
40
0.175676439519434
40
0.179201510715232
40
0.182726581911031
40
0.186251653106829
40
0.189776724302627
40
0.196826866694224
40
0.200351937890022
40
0.20387700908582
40
0.205639544683719
40
0.207402080281619
40
0.210927151477417
40
0.217977293869013
40
0.221502365064812
40
0.22502743626061
40
0.228552507456408
40
0.232077578652206
40
0.239127721043803
40
0.242652792239601
40
0.246177863435399
40
0.247940399033299
40
0.249702934631198
40
0.253228005826996
40
0.256753077022794
40
0.260278148218592
40
0.262040683816492
40
0.263803219414391
40
0.267328290610189
40
0.270853361805987
40
0.274378433001786
40
0.277903504197584
40
0.281428575393382
40
0.28495364658918
40
0.288478717784979
40
0.292003788980777
40
0.295528860176575
40
0.299053931372373
40
0.302579002568172
40
0.30610407376397
40
0.309629144959768
40
0.313154216155566
40
0.316679287351365
40
0.323729429742961
40
0.327254500938759
40
0.330779572134558
40
0.334304643330356
40
0.337829714526154
40
0.341354785721952
40
0.344879856917751
40
0.348404928113549
40
0.351929999309347
40
0.358980141700944
40
0.36603028409254
40
0.373080426484137
40
0.376605497679935
40
0.380130568875733
40
0.383655640071532
40
0.38718071126733
40
0.390705782463128
40
0.394230853658927
40
0.397755924854725
40
0.401280996050523
40
0.404806067246321
40
0.40833113844212
40
0.411856209637918
40
0.415381280833716
40
0.418906352029514
40
0.422431423225313
40
0.425956494421111
40
0.429481565616909
40
0.433006636812708
40
0.434769172410607
40
0.436531708008506
40
0.438294243606405
40
0.440056779204304
40
0.443581850400102
40
0.4471069215959
40
0.4488694571938
40
0.450631992791699
40
0.452394528389598
40
0.454157063987497
40
0.457682135183295
40
0.459444670781194
40
0.461207206379094
40
0.462969741976993
40
0.464732277574892
40
0.466494813172791
40
0.46825734877069
40
0.470019884368589
40
0.471782419966488
40
0.473544955564388
40
0.475307491162287
40
0.477070026760186
40
0.478832562358085
40
0.480595097955984
40
0.482357633553883
40
0.484120169151782
40
0.485882704749681
40
0.487645240347581
40
0.48940777594548
40
0.491170311543379
40
0.492932847141278
40
0.494695382739177
40
0.496457918337076
40
0.498220453934975
40
0.499982989532875
40
0.501745525130774
40
0.503508060728673
40
0.505270596326572
40
0.507033131924471
40
0.50879566752237
40
0.510558203120269
40
0.512320738718168
40
0.514083274316068
40
0.515845809913967
40
0.517608345511866
40
0.519370881109765
40
0.521133416707664
40
0.522895952305563
40
0.524658487903462
40
0.526421023501362
40
0.528183559099261
40
0.52994609469716
40
0.531708630295059
40
0.533471165892958
40
0.535233701490857
40
0.536996237088756
40
0.538758772686655
40
0.540521308284555
40
0.542283843882454
40
0.545808915078252
40
0.547571450676151
40
0.54933398627405
40
0.551096521871949
40
0.552859057469848
40
0.556384128665647
40
0.559909199861445
40
0.561671735459344
40
0.563434271057243
40
0.565196806655142
40
0.566959342253042
40
0.57048441344884
40
0.574009484644638
40
0.577534555840436
40
0.581059627036234
40
0.584584698232033
40
0.588109769427831
40
0.591634840623629
40
0.595159911819428
40
0.598684983015226
40
0.602210054211024
40
0.605735125406822
40
0.609260196602621
40
0.612785267798419
40
0.616310338994217
40
0.619835410190015
40
0.623360481385814
40
0.626885552581612
40
0.633935694973208
40
0.640985837364805
40
0.648035979756402
40
0.6515610509522
40
0.655086122147998
40
0.658611193343796
40
0.662136264539595
40
0.665661335735393
40
0.669186406931191
40
0.672711478126989
40
0.676236549322788
40
0.683286691714384
40
0.686811762910182
40
0.690336834105981
40
0.693861905301779
40
0.697386976497577
40
0.700912047693376
40
0.704437118889174
40
0.707962190084972
40
0.71148726128077
40
0.715012332476568
40
0.718537403672367
40
0.722062474868165
40
0.725587546063963
40
0.73263768845556
40
0.736162759651358
40
0.739687830847157
40
0.746737973238753
40
0.750263044434551
40
0.75378811563035
40
0.757313186826148
40
0.760838258021946
40
0.767888400413543
40
0.771413471609341
40
0.774938542805139
40
0.778463614000937
40
0.781988685196736
40
0.789038827588332
40
0.79256389878413
40
0.796088969979929
40
0.799614041175727
40
0.803139112371525
40
0.810189254763122
40
0.81371432595892
40
0.817239397154718
40
0.820764468350517
40
0.824289539546315
40
0.831339681937911
40
0.83486475313371
40
0.838389824329508
40
0.841914895525306
40
0.845439966721105
40
0.852490109112701
40
0.856015180308499
40
0.859540251504297
40
0.863065322700096
40
0.866590393895894
40
0.870115465091692
40
0.873640536287491
40
0.877165607483289
40
0.880690678679087
40
0.884215749874885
40
0.887740821070684
40
0.891265892266482
40
0.89479096346228
40
0.898316034658078
40
0.901841105853877
40
0.908891248245473
40
0.912416319441272
40
0.91594139063707
40
0.919466461832868
40
0.922991533028666
40
0.926516604224465
40
0.930041675420263
40
0.937091817811859
40
0.940616889007658
40
0.944141960203456
40
0.947667031399254
40
0.951192102595052
40
0.958242244986649
40
0.961767316182447
40
0.965292387378245
40
0.968817458574044
40
0.972342529769842
40
0.97586760096564
40
0.979392672161439
40
0.982917743357237
40
0.986442814553035
40
0.989967885748833
40
0.993492956944631
40
0.99701802814043
40
1
40
1
40
1
40
1
41
1
10
-38
20
20.2923486456998
30
0
41
1
10
-38
20
20.2923551086565
30
0
41
1
10
-38
20
20.2915870687772
30
0
41
1
10
-38
20
20.2877827415225
30
0
41
1
10
-38
20
20.2807871950942
30
0
41
1
10
-38
20
20.270864225278
30
0
41
1
10
-38
20
20.2580557575388
30
0
41
1
10
-38
20
20.2424031034125
30
0
41
1
10
-38
20
20.2239454925533
30
0
41
1
10
-38
20
20.19551262204
30
0
41
1
10
-38
20
20.153458157969
30
0
41
1
10
-38
20
20.0921783324266
30
0
41
1
10
-38
20
20.0326760120608
30
0
41
1
10
-38
20
19.9796195423852
30
0
41
1
10
-38
20
19.9374871337363
30
0
41
1
10
-38
20
19.8928775037255
30
0
41
1
10
-38
20
19.8298739849263
30
0
41
1
10
-38
20
19.7628242930463
30
0
41
1
10
-38
20
19.6902080345968
30
0
41
1
10
-38
20
19.6336084813315
30
0
41
1
10
-38
20
19.5746836513967
30
0
41
1
10
-38
20
19.5134574775013
30
0
41
1
10
-38
20
19.4499498796239
30
0
41
1
10
-38
20
19.361926580552
30
0
41
1
10
-38
20
19.2704514952516
30
0
41
1
10
-38
20
19.1735363516591
30
0
41
1
10
-38
20
19.0989364266239
30
0
41
1
10
-38
20
19.0221745884206
30
0
41
1
10
-38
20
18.9432715601189
30
0
41
1
10
-38
20
18.8622425921487
30
0
41
1
10
-38
20
18.7791047356355
30
0
41
1
10
-38
20
18.6938772447032
30
0
41
1
10
-38
20
18.6065734364562
30
0
41
1
10
-38
20
18.5172096781029
30
0
41
1
10
-38
20
18.4258037757915
30
0
41
1
10
-38
20
18.3323676597213
30
0
41
1
10
-38
20
18.236917040573
30
0
41
1
10
-38
20
18.1394682315479
30
0
41
1
10
-38
20
18.006423045464
30
0
41
1
10
-38
20
17.870842154793
30
0
41
1
10
-38
20
17.7299440627733
30
0
41
1
10
-38
20
17.6408187485726
30
0
41
1
10
-38
20
17.5681131617785
30
0
41
1
10
-38
20
17.4947669133713
30
0
41
1
10
-38
20
17.3649201654158
30
0
41
1
10
-38
20
17.2140632768009
30
0
41
1
10
-38
20
17.0578935907134
30
0
41
1
10
-38
20
16.9392992293059
30
0
41
1
10
-38
20
16.8188549914818
30
0
41
1
10
-38
20
16.6552510003021
30
0
41
1
10
-38
20
16.489672496603
30
0
41
1
10
-38
20
16.3187666825072
30
0
41
1
10
-38
20
16.2111031772939
30
0
41
1
10
-38
20
16.1235473577608
30
0
41
1
10
-38
20
16.0353949417433
30
0
41
1
10
-38
20
15.8797855584285
30
0
41
1
10
-38
20
15.6999813794666
30
0
41
1
10
-38
20
15.5148116907138
30
0
41
1
10
-38
20
15.3746600384839
30
0
41
1
10
-38
20
15.2327750536327
30
0
41
1
10
-38
20
15.0406360987563
30
0
41
1
10
-38
20
14.8470518249568
30
0
41
1
10
-38
20
14.6480433816337
30
0
41
1
10
-38
20
14.5230237603812
30
0
41
1
10
-38
20
14.4215395322791
30
0
41
1
10
-38
20
14.319494446119
30
0
41
1
10
-38
20
14.1916826014269
30
0
41
1
10
-38
20
14.0362107113462
30
0
41
1
10
-38
20
13.905633632864
30
0
41
1
10
-38
20
13.7996824703933
30
0
41
1
10
-38
20
13.6931799140641
30
0
41
1
10
-38
20
13.5598675642285
30
0
41
1
10
-38
20
13.3977994204325
30
0
41
1
10
-38
20
13.2340971553998
30
0
41
1
10
-38
20
13.0687736820565
30
0
41
1
10
-38
20
12.9018380893652
30
0
41
1
10
-38
20
12.7332922951509
30
0
41
1
10
-38
20
12.5631480531082
30
0
41
1
10
-38
20
12.3914123687224
30
0
41
1
10
-38
20
12.2180896154105
30
0
41
1
10
-38
20
12.0431930727568
30
0
41
1
10
-38
20
11.8667275879997
30
0
41
1
10
-38
20
11.6886992220563
30
0
41
1
10
-38
20
11.5091211559413
30
0
41
1
10
-38
20
11.3279971676986
30
0
41
1
10
-38
20
11.0835274575533
30
0
41
1
10
-38
20
10.8388445996823
30
0
41
1
10
-38
20
10.5882272221232
30
0
41
1
10
-38
20
10.3995106478125
30
0
41
1
10
-38
20
10.2093006505112
30
0
41
1
10
-38
20
10.0176111741013
30
0
41
1
10
-38
20
9.82444825814403
30
0
41
1
10
-38
20
9.62982433363783
30
0
41
1
10
-38
20
9.43375032895256
30
0
41
1
10
-38
20
9.16930024978845
30
0
41
1
10
-38
20
8.83774034996793
30
0
41
1
10
-38
20
8.43283016067576
30
0
41
1
10
-38
20
8.09202302704495
30
0
41
1
10
-38
20
7.81440668711983
30
0
41
1
10
-38
20
7.60585888080686
30
0
41
1
10
-38
20
7.39600299493051
30
0
41
1
10
-38
20
7.18486050853949
30
0
41
1
10
-38
20
6.972454820743
30
0
41
1
10
-38
20
6.75880464755275
30
0
41
1
10
-38
20
6.54393387937549
30
0
41
1
10
-38
20
6.32787102064523
30
0
41
1
10
-38
20
6.11064460524278
30
0
41
1
10
-38
20
5.89228682406826
30
0
41
1
10
-38
20
5.67283049766698
30
0
41
1
10
-38
20
5.45231041402207
30
0
41
1
10
-38
20
5.2307661198837
30
0
41
1
10
-38
20
5.00824236668089
30
0
41
1
10
-38
20
4.78478453894905
30
0
41
1
10
-38
20
4.56044477194348
30
0
41
1
10
-38
20
4.3737593142329
30
0
41
1
10
-38
20
4.22222174308928
30
0
41
1
10
-38
20
4.10916467830538
30
0
41
1
10
-38
20
3.99593123757285
30
0
41
1
10
-38
20
3.84368490764803
30
0
41
1
10
-38
20
3.65544484289478
30
0
41
1
10
-38
20
3.46668355973628
30
0
41
1
10
-38
20
3.31336520651504
30
0
41
1
10
-38
20
3.19916977025284
30
0
41
1
10
-38
20
3.0848771849204
30
0
41
1
10
-38
20
2.93116533478539
30
0
41
1
10
-38
20
2.7810630459212
30
0
41
1
10
-38
20
2.62697343511894
30
0
41
1
10
-38
20
2.51237687493429
30
0
41
1
10
-38
20
2.39774974487253
30
0
41
1
10
-38
20
2.28311555219403
30
0
41
1
10
-38
20
2.16847618976473
30
0
41
1
10
-38
20
2.05384840107453
30
0
41
1
10
-38
20
1.93924458170406
30
0
41
1
10
-38
20
1.82466899171223
30
0
41
1
10
-38
20
1.71014121398446
30
0
41
1
10
-38
20
1.59566009898879
30
0
41
1
10
-38
20
1.48124309885608
30
0
41
1
10
-38
20
1.36688883878045
30
0
41
1
10
-38
20
1.25260906632701
30
0
41
1
10
-38
20
1.13840321986405
30
0
41
1
10
-38
20
1.02427614220741
30
0
41
1
10
-38
20
0.910225811803912
30
0
41
1
10
-38
20
0.796251800903974
30
0
41
1
10
-38
20
0.682349388495624
30
0
41
1
10
-38
20
0.568513483413511
30
0
41
1
10
-38
20
0.454735475948979
30
0
41
1
10
-38
20
0.341006791030111
30
0
41
1
10
-38
20
0.227315919379521
30
0
41
1
10
-38
20
0.113651444289076
30
0
41
1
10
-38
20
2.39306814E-08
30
0
41
1
10
-38
20
-0.113651428861147
30
0
41
1
10
-38
20
-0.227315965161807
30
0
41
1
10
-38
20
-0.341006831114754
30
0
41
1
10
-38
20
-0.454735424962735
30
0
41
1
10
-38
20
-0.568513412391525
30
0
41
1
10
-38
20
-0.682349437337052
30
0
41
1
10
-38
20
-0.796251898049235
30
0
41
1
10
-38
20
-0.910225765592202
30
0
41
1
10
-38
20
-1.02427601417025
30
0
41
1
10
-38
20
-1.13840324907633
30
0
41
1
10
-38
20
-1.25260921865757
30
0
41
1
10
-38
20
-1.36688883944316
30
0
41
1
10
-38
20
-1.48124293103632
30
0
41
1
10
-38
20
-1.59566004663384
30
0
41
1
10
-38
20
-1.71014137238996
30
0
41
1
10
-38
20
-1.82466911261432
30
0
41
1
10
-38
20
-1.93924446866484
30
0
41
1
10
-38
20
-2.05384821372689
30
0
41
1
10
-38
20
-2.1684762190329
30
0
41
1
10
-38
20
-2.28311576323418
30
0
41
1
10
-38
20
-2.39774983280105
30
0
41
1
10
-38
20
-2.51237672316307
30
0
41
1
10
-38
20
-2.62697323991799
30
0
41
1
10
-38
20
-2.78106315146928
30
0
41
1
10
-38
20
-2.93116552693385
30
0
41
1
10
-38
20
-3.08487708212581
30
0
41
1
10
-38
20
-3.19916954549007
30
0
41
1
10
-38
20
-3.31336512600546
30
0
41
1
10
-38
20
-3.46668375918677
30
0
41
1
10
-38
20
-3.65544489425088
30
0
41
1
10
-38
20
-3.84368470208372
30
0
41
1
10
-38
20
-3.99593117493791
30
0
41
1
10
-38
20
-4.10916481607396
30
0
41
1
10
-38
20
-4.22222196867938
30
0
41
1
10
-38
20
-4.37375933349006
30
0
41
1
10
-38
20
-4.56044458630845
30
0
41
1
10
-38
20
-4.78478457648492
30
0
41
1
10
-38
20
-5.00824253816086
30
0
41
1
10
-38
20
-5.23076600439052
30
0
41
1
10
-38
20
-5.45231022599046
30
0
41
1
10
-38
20
-5.67283041504652
30
0
41
1
10
-38
20
-5.89228674128222
30
0
41
1
10
-38
20
-6.11064496108523
30
0
41
1
10
-38
20
-6.32787239667013
30
0
41
1
10
-38
20
-6.54393525610644
30
0
41
1
10
-38
20
-6.75880334040127
30
0
41
1
10
-38
20
-6.97245311766207
30
0
41
1
10
-38
20
-7.18486111103374
30
0
41
1
10
-38
20
-7.39600347561742
30
0
41
1
10
-38
20
-7.60585874971361
30
0
41
1
10
-38
20
-7.8144064520111
30
0
41
1
10
-38
20
-8.09202295752311
30
0
41
1
10
-38
20
-8.43283023540656
30
0
41
1
10
-38
20
-8.83774029355055
30
0
41
1
10
-38
20
-9.16930023887323
30
0
41
1
10
-38
20
-9.43375044009511
30
0
41
1
10
-38
20
-9.62982432960192
30
0
41
1
10
-38
20
-9.82444814962994
30
0
41
1
10
-38
20
-10.0176111126089
30
0
41
1
10
-38
20
-10.2093007057547
30
0
41
1
10
-38
20
-10.3995107409486
30
0
41
1
10
-38
20
-10.5882272324294
30
0
41
1
10
-38
20
-10.8388445170812
30
0
41
1
10
-38
20
-11.0835274377931
30
0
41
1
10
-38
20
-11.327997250045
30
0
41
1
10
-38
20
-11.5091211965041
30
0
41
1
10
-38
20
-11.6886991809046
30
0
41
1
10
-38
20
-11.8667275177687
30
0
41
1
10
-38
20
-12.0431930522803
30
0
41
1
10
-38
20
-12.2180896645831
30
0
41
1
10
-38
20
-12.3914124247035
30
0
41
1
10
-38
20
-12.5631480735019
30
0
41
1
10
-38
20
-12.7332924196477
30
0
41
1
10
-38
20
-12.9018387248249
30
0
41
1
10
-38
20
-13.068774902876
30
0
41
1
10
-38
20
-13.2899980003418
30
0
41
1
10
-38
20
-13.5056406071554
30
0
41
1
10
-38
20
-13.7202970548285
30
0
41
1
10
-38
20
-13.9327572918622
30
0
41
1
10
-38
20
-14.1397069500695
30
0
41
1
10
-38
20
-14.3454836148157
30
0
41
1
10
-38
20
-14.4976048095277
30
0
41
1
10
-38
20
-14.6480433741443
30
0
41
1
10
-38
20
-14.8470538575164
30
0
41
1
10
-38
20
-15.0406366439893
30
0
41
1
10
-38
20
-15.2327734637881
30
0
41
1
10
-38
20
-15.3746583733236
30
0
41
1
10
-38
20
-15.5148115582755
30
0
41
1
10
-38
20
-15.6999837411247
30
0
41
1
10
-38
20
-15.8797870255403
30
0
41
1
10
-38
20
-16.0578801048401
30
0
41
1
10
-38
20
-16.189216581434
30
0
41
1
10
-38
20
-16.3187661779867
30
0
41
1
10
-38
20
-16.4896741385663
30
0
41
1
10
-38
20
-16.6552512602625
30
0
41
1
10
-38
20
-16.8188545807649
30
0
41
1
10
-38
20
-16.9392987318018
30
0
41
1
10
-38
20
-17.0578934672827
30
0
41
1
10
-38
20
-17.2140648101705
30
0
41
1
10
-38
20
-17.3649216616153
30
0
41
1
10
-38
20
-17.513530035822
30
0
41
1
10
-38
20
-17.6226956365842
30
0
41
1
10
-38
20
-17.7299433731025
30
0
41
1
10
-38
20
-17.8708440004863
30
0
41
1
10
-38
20
-18.0064238716364
30
0
41
1
10
-38
20
-18.1394672902698
30
0
41
1
10
-38
20
-18.236915915677
30
0
41
1
10
-38
20
-18.3323672965474
30
0
41
1
10
-38
20
-18.4258040962282
30
0
41
1
10
-38
20
-18.517209887002
30
0
41
1
10
-38
20
-18.6065734896479
30
0
41
1
10
-38
20
-18.6938772522127
30
0
41
1
10
-38
20
-18.7791047692188
30
0
41
1
10
-38
20
-18.8622426359768
30
0
41
1
10
-38
20
-18.9432715834756
30
0
41
1
10
-38
20
-19.0221745805325
30
0
41
1
10
-38
20
-19.0989364136873
30
0
41
1
10
-38
20
-19.1735363647814
30
0
41
1
10
-38
20
-19.2704515417461
30
0
41
1
10
-38
20
-19.3619266112172
30
0
41
1
10
-38
20
-19.4499498647732
30
0
41
1
10
-38
20
-19.5134574724377
30
0
41
1
10
-38
20
-19.5746836830748
30
0
41
1
10
-38
20
-19.6336085328263
30
0
41
1
10
-38
20
-19.6902080668946
30
0
41
1
10
-38
20
-19.7628242842049
30
0
41
1
10
-38
20
-19.829873984374
30
0
41
1
10
-38
20
-19.8928775551026
30
0
41
1
10
-38
20
-19.9374871757691
30
0
41
1
10
-38
20
-19.9796195436674
30
0
41
1
10
-38
20
-20.0326760063813
30
0
41
1
10
-38
20
-20.0800381474625
30
0
41
1
10
-38
20
-20.1228090027496
30
0
41
1
10
-38
20
-20.1521177658612
30
0
41
1
10
-38
20
-20.1787668505585
30
0
41
1
10
-38
20
-20.2027210424566
30
0
41
1
10
-38
20
-20.2239455432986
30
0
41
1
10
-38
20
-20.2424031363825
30
0
41
1
10
-38
20
-20.2580557552655
30
0
41
1
10
-38
20
-20.2708642249464
30
0
41
1
10
-38
20
-20.2807872561095
30
0
41
1
10
-38
20
-20.2877829489451
30
0
41
1
10
-38
20
-20.2916003389107
30
0
41
1
10
-38
20
-20.2923632213228
30
0
41
1
10
-38
20
-20.2923482571333
30
0
0
SPLINE
5
CB
100
AcDbEntity
8
1
62
256
6
ByLayer
370
-1
48
1
60
0
100
AcDbSpline
70
4
71
3
72
14
73
10
40
0
40
0
40
0
40
0
40
0.283961749036717
40
0.283961749036717
40
0.570285189259034
40
0.570285189259034
40
0.829451094335698
40
0.829451094335698
40
1
40
1
40
1
40
1
41
1
10
60.9776444677088
20
1.12150404178334
30
0
41
1
10
60.986321328404
20
1.153888113036
30
0
41
1
10
60.9895538598036
20
1.18882554196639
30
0
41
1
10
60.9832063654842
20
1.2585042146215
30
0
41
1
10
60.9733590177569
20
1.29431482284943
30
0
41
1
10
60.9422145913697
20
1.35690846987777
30
0
41
1
10
60.9215677486004
20
1.38514373354076
30
0
41
1
10
60.8804021593366
20
1.42427613243922
30
0
41
1
10
60.8619509507641
20
1.43812706136089
30
0
41
1
10
60.8422983036603
20
1.44954676284436
30
0
0
SPLINE
5
CC
100
AcDbEntity
8
1
62
256
6
ByLayer
370
-1
48
1
60
0
100
AcDbSpline
70
4
71
3
72
14
73
10
40
0
40
0
40
0
40
0
40
0.28396145785659
40
0.28396145785659
40
0.570284934646616
40
0.570284934646616
40
0.829450869060466
40
0.829450869060466
40
1
40
1
40
1
40
1
41
1
10
58.5391346078147
20
0.281837412137918
30
0
41
1
10
58.506775123635
20
0.273069432466173
30
0
41
1
10
58.4749432487876
20
0.258311308216634
30
0
41
1
10
58.4178862914263
20
0.217815543961137
30
0
41
1
10
58.3918709220879
20
0.191309493317249
30
0
41
1
10
58.3533981754779
20
0.132933226223571
30
0
41
1
10
58.3393584772187
20
0.10089560261784
30
0
41
1
10
58.326205731979
20
0.0456420108857856
30
0
41
1
10
58.3235
20
0.0227296608030656
30
0
41
1
10
58.3235
20
7.4749E-12
30
0
0
SPLINE
5
CD
100
AcDbEntity
8
1
62
256
6
ByLayer
370
-1
48
1
60
0
100
AcDbSpline
70
4
71
3
72
16
73
12
40
0
40
0
40
0
40
0
40
0.0569446172824689
40
0.0569446172824689
40
0.279906644834019
40
0.279906644834019
40
0.50532196730661
40
0.50532196730661
40
0.744915047128722
40
0.744915047128722
40
1
40
1
40
1
40
1
41
1
10
59.1577016963397
20
1.44954676284439
30
0
41
1
10
59.1511104385077
20
1.44571673442914
30
0
41
1
10
59.1446633252813
20
1.4416244262286
30
0
41
1
10
59.114036383161
20
1.42045865075659
30
0
41
1
10
59.0920723329939
20
1.39963106376905
30
0
41
1
10
59.0559923636067
20
1.35336102381103
30
0
41
1
10
59.0414874459168
20
1.32729536172306
30
0
41
1
10
59.0205631177788
20
1.27206196335027
30
0
41
1
10
59.0144177996136
20
1.24212170470065
30
0
41
1
10
59.0111470990106
20
1.18170391696125
30
0
41
1
10
59.0145594787757
20
1.15060073486214
30
0
41
1
10
59.0223555322912
20
1.12150404178331
30
0
0
SPLINE
5
CE
100
AcDbEntity
8
1
62
256
6
ByLayer
370
-1
48
1
60
0
100
AcDbSpline
70
4
71
3
72
16
73
12
40
0
40
0
40
0
40
0
40
0.0630415689509281
40
0.0630415689509281
40
0.28591433202496
40
0.28591433202496
40
0.511588305408879
40
0.511588305408879
40
0.751723061839349
40
0.751723061839349
40
1
40
1
40
1
40
1
41
1
10
61.6765
20
7.4749E-12
30
0
41
1
10
61.6765
20
0.0084336538403704
30
0
41
1
10
61.6761336287486
20
0.0168769683579058
30
0
41
1
10
61.6728431434152
20
0.0547537924389871
30
0
41
1
10
61.665633890411
20
0.0841216087780197
30
0
41
1
10
61.643324088693
20
0.138367789850804
30
0
41
1
10
61.62786346592
20
0.1638845496513
30
0
41
1
10
61.5902228348199
20
0.209452916509264
30
0
41
1
10
61.5672290297802
20
0.229640568260635
30
0
41
1
10
61.5170396182034
20
0.261951448655139
30
0
41
1
10
61.4891787135168
20
0.274165762475775
30
0
41
1
10
61.4608653921853
20
0.281837412137918
30
0
0
SPLINE
5
CF
100
AcDbEntity
8
1
62
256
6
ByLayer
370
-1
48
1
60
0
100
AcDbSpline
70
4
71
3
72
14
73
10
40
0
40
0
40
0
40
0
40
0.283961457856582
40
0.283961457856582
40
0.570284934646611
40
0.570284934646611
40
0.829450869060463
40
0.829450869060463
40
1
40
1
40
1
40
1
41
1
10
61.4608653921853
20
-0.281837412122968
30
0
41
1
10
61.493224876365
20
-0.273069432451223
30
0
41
1
10
61.5250567512124
20
-0.258311308201684
30
0
41
1
10
61.5821137085737
20
-0.217815543946187
30
0
41
1
10
61.6081290779121
20
-0.191309493302299
30
0
41
1
10
61.6466018245221
20
-0.132933226208621
30
0
41
1
10
61.6606415227813
20
-0.10089560260289
30
0
41
1
10
61.673794268021
20
-0.0456420108708357
30
0
41
1
10
61.6765
20
-0.0227296607881158
30
0
41
1
10
61.6765
20
7.4749E-12
30
0
0
SPLINE
5
D0
100
AcDbEntity
8
SK1
62
256
6
ByLayer
370
-1
48
1
60
0
100
AcDbSpline
70
4
71
3
72
22
73
18
40
0
40
0
40
0
40
0
40
0.366862607601256
40
0.366862607601256
40
0.737339621375052
40
0.737339621375052
40
0.838459586400285
40
0.838459586400285
40
0.872990642836393
40
0.872990642836393
40
0.908114554314301
40
0.908114554314301
40
0.93841147631739
40
0.93841147631739
40
0.978567405872927
40
0.978567405872927
40
1
40
1
40
1
40
1
41
1
10
-1.30710678118655
20
4.81101329740289
30
0
41
1
10
-1.26411319574365
20
5.05427021725674
30
0
41
1
10
-1.2129192661193
20
5.29463858107241
30
0
41
1
10
-1.0775163929171
20
5.76447191425098
30
0
41
1
10
-0.999993942630866
20
6.0024064332149
30
0
41
1
10
-0.818580317119483
20
6.26150782359156
30
0
41
1
10
-0.772786229091963
20
6.31609141287933
30
0
41
1
10
-0.69395817555143
20
6.37002132562083
30
0
41
1
10
-0.671742895995564
20
6.38213989760789
30
0
41
1
10
-0.624176343099663
20
6.39933264200099
30
0
41
1
10
-0.598041368844491
20
6.40433410743103
30
0
41
1
10
-0.55009587381268
20
6.4042038836908
30
0
41
1
10
-0.527645089252005
20
6.40038614973912
30
0
41
1
10
-0.479150674129698
20
6.38487542657816
30
0
41
1
10
-0.453444961156862
20
6.37100758594852
30
0
41
1
10
-0.417985764291785
20
6.34622757774423
30
0
41
1
10
-0.406197231050172
20
6.33682378409867
30
0
41
1
10
-0.394976888874737
20
6.32694309068151
30
0
0
SPLINE
5
D1
100
AcDbEntity
8
1
62
256
6
ByLayer
370
-1
48
1
60
0
100
AcDbSpline
70
4
71
3
72
12
73
8
40
0
40
0
40
0
40
0
40
0.422118641229848
40
0.422118641229848
40
0.843213633747361
40
0.843213633747361
40
1
40
1
40
1
40
1
41
1
10
60.0832217365173
20
1.20362635090339
30
0
41
1
10
60.1506692015512
20
1.21186958891738
30
0
41
1
10
60.2166583591437
20
1.2304626079488
30
0
41
1
10
60.3352727818933
20
1.28256908028868
30
0
41
1
10
60.3896424112882
20
1.31660935905018
30
0
41
1
10
60.4549269994414
20
1.37058295422136
30
0
41
1
10
60.4718816459018
20
1.38611838000313
30
0
41
1
10
60.487910977364
20
1.40233678765756
30
0
0
SPLINE
5
D2
100
AcDbEntity
8
1
62
256
6
ByLayer
370
-1
48
1
60
0
100
AcDbSpline
70
4
71
3
72
12
73
8
40
0
40
0
40
0
40
0
40
0.49578557572897
40
0.49578557572897
40
0.900238279923947
40
0.900238279923947
40
1
40
1
40
1
40
1
41
1
10
59.512089022636
20
1.40233678765756
30
0
41
1
10
59.5622263950313
20
1.35160801296408
30
0
41
1
10
59.6220709882722
20
1.30712335146055
30
0
41
1
10
59.7439837112424
20
1.24516073118261
30
0
41
1
10
59.8050537658155
20
1.22366365064283
30
0
41
1
10
59.8844827433796
20
1.2081620259724
30
0
41
1
10
59.9005757195485
20
1.20560657990112
30
0
41
1
10
59.9167782634827
20
1.20362635090339
30
0
0
SPLINE
5
D3
100
AcDbEntity
8
1
62
256
6
ByLayer
370
-1
48
1
60
0
100
AcDbSpline
70
4
71
3
72
16
73
12
40
0
40
0
40
0
40
0
40
0.056944617282491
40
0.056944617282491
40
0.279906644834051
40
0.279906644834051
40
0.505321967306654
40
0.505321967306654
40
0.744915047128771
40
0.744915047128771
40
1
40
1
40
1
40
1
41
1
10
60.8422983036603
20
-1.44954676282941
30
0
41
1
10
60.8488895614923
20
-1.44571673441419
30
0
41
1
10
60.8553366747187
20
-1.44162442621365
30
0
41
1
10
60.8859636168391
20
-1.42045865074161
30
0
41
1
10
60.9079276670061
20
-1.3996310637541
30
0
41
1
10
60.9440076363933
20
-1.35336102379605
30
0
41
1
10
60.9585125540832
20
-1.32729536170811
30
0
41
1
10
60.9794368822212
20
-1.27206196333532
30
0
41
1
10
60.9855822003864
20
-1.2421217046857
30
0
41
1
10
60.9888529009894
20
-1.1817039169463
30
0
41
1
10
60.9854405212243
20
-1.15060073484716
30
0
41
1
10
60.9776444677088
20
-1.12150404176836
30
0
0
SPLINE
5
D4
100
AcDbEntity
8
1
62
256
6
ByLayer
370
-1
48
1
60
0
100
AcDbSpline
70
4
71
3
72
18
73
14
40
0
40
0
40
0
40
0
40
0.212491592102409
40
0.212491592102409
40
0.386618191488476
40
0.386618191488476
40
0.562426295050821
40
0.562426295050821
40
0.715388354469459
40
0.715388354469459
40
0.918249128147157
40
0.918249128147157
40
1
40
1
40
1
40
1
41
1
10
61.4608653921853
20
-0.281837412122968
30
0
41
1
10
61.3923622765154
20
-0.300398706929428
30
0
41
1
10
61.3244718307194
20
-0.330381808903127
30
0
41
1
10
61.2106957340066
20
-0.405596523644164
30
0
41
1
10
61.1618552932208
20
-0.448080643410634
30
0
41
1
10
61.0773415786699
20
-0.546545944405011
30
0
41
1
10
61.0406915357823
20
-0.604236286885936
30
0
41
1
10
60.9904602172057
20
-0.716703910705121
30
0
41
1
10
60.9738211448525
20
-0.772190714029989
30
0
41
1
10
60.9518539899321
20
-0.898862337751439
30
0
41
1
10
60.9513624544236
20
-0.971419161552916
30
0
41
1
10
60.9649038860688
20
-1.06750657273707
30
0
41
1
10
60.9705014003797
20
-1.09484444569196
30
0
41
1
10
60.9776444677088
20
-1.12150404176839
30
0
0
SPLINE
5
D5
100
AcDbEntity
8
1
62
256
6
ByLayer
370
-1
48
1
60
0
100
AcDbSpline
70
4
71
3
72
18
73
14
40
0
40
0
40
0
40
0
40
0.2124916957553
40
0.2124916957553
40
0.386618276853804
40
0.386618276853804
40
0.562426360907934
40
0.562426360907934
40
0.715388416645938
40
0.715388416645938
40
0.918249208689865
40
0.918249208689865
40
1
40
1
40
1
40
1
41
1
10
59.0223555322912
20
-1.12150404176836
30
0
41
1
10
59.0407239238099
20
-1.05294891329137
30
0
41
1
10
59.0489088908468
20
-0.979185025504108
30
0
41
1
10
59.0410389991461
20
-0.843022153365325
30
0
41
1
10
59.0288442405563
20
-0.77944876007362
30
0
41
1
10
58.9861694283771
20
-0.656905539523677
30
0
41
1
10
58.9547023316607
20
-0.596232464314596
30
0
41
1
10
58.8826967636609
20
-0.496295746396243
30
0
41
1
10
58.8430811011105
20
-0.454031777737725
30
0
41
1
10
58.7445940375196
20
-0.371396705684134
30
0
41
1
10
58.682106412471
20
-0.334518098051092
30
0
41
1
10
58.592223268082
20
-0.297950670793398
30
0
41
1
10
58.5657739639204
20
-0.289055491728504
30
0
41
1
10
58.5391346078147
20
-0.281837412122968
30
0
0
SPLINE
5
D6
100
AcDbEntity
8
1
62
256
6
ByLayer
370
-1
48
1
60
0
100
AcDbSpline
70
4
71
3
72
18
73
14
40
0
40
0
40
0
40
0
40
0.212491592102414
40
0.212491592102414
40
0.386618191488476
40
0.386618191488476
40
0.562426295050812
40
0.562426295050812
40
0.715388354469459
40
0.715388354469459
40
0.918249128147162
40
0.918249128147162
40
1
40
1
40
1
40
1
41
1
10
58.5391346078147
20
0.281837412137918
30
0
41
1
10
58.6076377234846
20
0.300398706944407
30
0
41
1
10
58.6755281692806
20
0.330381808918077
30
0
41
1
10
58.7893042659934
20
0.405596523659142
30
0
41
1
10
58.8381447067792
20
0.448080643425584
30
0
41
1
10
58.9226584213301
20
0.546545944419961
30
0
41
1
10
58.9593084642177
20
0.604236286900885
30
0
41
1
10
59.0095397827943
20
0.716703910720071
30
0
41
1
10
59.0261788551475
20
0.772190714044939
30
0
41
1
10
59.0481460100679
20
0.898862337766388
30
0
41
1
10
59.0486375455764
20
0.971419161567866
30
0
41
1
10
59.0350961139312
20
1.06750657275202
30
0
41
1
10
59.0294985996203
20
1.09484444570691
30
0
41
1
10
59.0223555322912
20
1.12150404178334
30
0
0
SPLINE
5
D7
100
AcDbEntity
8
SK1
62
256
6
ByLayer
370
-1
48
1
60
0
100
AcDbSpline
70
4
71
3
72
10
73
6
40
0
40
0
40
0
40
0
40
0.5
40
0.5
40
1
40
1
40
1
40
1
41
1
10
-1.30710678118655
20
4.81101329740289
30
0
41
1
10
-1.57713284158248
20
3.28321078789992
30
0
41
1
10
-1.79449339715802
20
1.64680798700616
30
0
41
1
10
-1.79438545511842
20
-1.6481258022005
30
0
41
1
10
-1.57704898370507
20
-3.28368386467716
30
0
41
1
10
-1.30710678118665
20
-4.81101321788435
30
0
0
SPLINE
5
D8
100
AcDbEntity
8
1
62
256
6
ByLayer
370
-1
48
1
60
0
100
AcDbSpline
70
4
71
3
72
12
73
8
40
0
40
0
40
0
40
0
40
0.422118641229807
40
0.422118641229807
40
0.843213633747319
40
0.843213633747319
40
1
40
1
40
1
40
1
41
1
10
59.9167782634827
20
-1.20362635088844
30
0
41
1
10
59.8493307984488
20
-1.21186958890243
30
0
41
1
10
59.7833416408563
20
-1.23046260793382
30
0
41
1
10
59.6647272181067
20
-1.28256908027373
30
0
41
1
10
59.6103575887119
20
-1.31660935903523
30
0
41
1
10
59.5450730005586
20
-1.37058295420641
30
0
41
1
10
59.5281183540982
20
-1.38611837998815
30
0
41
1
10
59.512089022636
20
-1.40233678764261
30
0
0
SPLINE
5
D9
100
AcDbEntity
8
1
62
256
6
ByLayer
370
-1
48
1
60
0
100
AcDbSpline
70
4
71
3
72
16
73
12
40
0
40
0
40
0
40
0
40
0.0630415689509227
40
0.0630415689509227
40
0.285914332024951
40
0.285914332024951
40
0.511588305408867
40
0.511588305408867
40
0.751723061839313
40
0.751723061839313
40
1
40
1
40
1
40
1
41
1
10
58.3235
20
7.4749E-12
30
0
41
1
10
58.3235
20
-0.0084336538254206
30
0
41
1
10
58.3238663712514
20
-0.0168769683429559
30
0
41
1
10
58.3271568565849
20
-0.0547537924240373
30
0
41
1
10
58.334366109589
20
-0.0841216087630698
30
0
41
1
10
58.356675911307
20
-0.138367789835854
30
0
41
1
10
58.37213653408
20
-0.16388454963635
30
0
41
1
10
58.4097771651801
20
-0.209452916494314
30
0
41
1
10
58.4327709702198
20
-0.229640568245713
30
0
41
1
10
58.4829603817965
20
-0.26195144864019
30
0
41
1
10
58.5108212864832
20
-0.274165762460825
30
0
41
1
10
58.5391346078147
20
-0.281837412122968
30
0
0
SPLINE
5
DA
100
AcDbEntity
8
1
62
256
6
ByLayer
370
-1
48
1
60
0
100
AcDbSpline
70
4
71
3
72
14
73
10
40
0
40
0
40
0
40
0
40
0.282169922576098
40
0.282169922576098
40
0.566902245317965
40
0.566902245317965
40
0.824523972080259
40
0.824523972080259
40
1
40
1
40
1
40
1
41
1
10
60.487910977364
20
-1.40233678764261
30
0
41
1
10
60.5115244571323
20
-1.42622880347167
30
0
41
1
10
60.5401026284028
20
-1.44669095397745
30
0
41
1
10
60.6035965926973
20
-1.47642759951373
30
0
41
1
10
60.6395792167897
20
-1.48600316006528
30
0
41
1
10
60.7095157677035
20
-1.49063981765283
30
0
41
1
10
60.744398704828
20
-1.48700486816603
30
0
41
1
10
60.7998418421506
20
-1.47083834362138
30
0
41
1
10
60.821892108885
20
-1.4614043335433
30
0
41
1
10
60.8422983036603
20
-1.44954676282941
30
0
0
SPLINE
5
DB
100
AcDbEntity
8
SK1
62
256
6
ByLayer
370
-1
48
1
60
0
100
AcDbSpline
70
4
71
3
72
26
73
22
40
0
40
0
40
0
40
0
40
0.462420532187944
40
0.462420532187944
40
0.662465761698283
40
0.662465761698283
40
0.830433309169693
40
0.830433309169693
40
0.87601894963741
40
0.87601894963741
40
0.905535493032455
40
0.905535493032455
40
0.92577818311669
40
0.92577818311669
40
0.946307111163799
40
0.946307111163799
40
0.963675313617857
40
0.963675313617857
40
0.991859972782862
40
0.991859972782862
40
1
40
1
40
1
40
1
41
1
10
-0.199999999999989
20
-7.05951749342083
30
0
41
1
10
-0.199999999999989
20
-6.93273416480454
30
0
41
1
10
-0.203968014086527
20
-6.80463429773329
30
0
41
1
10
-0.22322220630393
20
-6.62063667774228
30
0
41
1
10
-0.230822389897881
20
-6.56482953243432
30
0
41
1
10
-0.252035566714554
20
-6.46316921019911
30
0
41
1
10
-0.263798801619998
20
-6.41617607028249
30
0
41
1
10
-0.290531391619595
20
-6.36108887379029
30
0
41
1
10
-0.297103000772424
20
-6.34947181616241
30
0
41
1
10
-0.31031392876541
20
-6.33213067856883
30
0
41
1
10
-0.316208846631113
20
-6.32567949173321
30
0
41
1
10
-0.327595492701022
20
-6.31681373578161
30
0
41
1
10
-0.332739264568531
20
-6.31372817209197
30
0
41
1
10
-0.343644708736434
20
-6.30958040401461
30
0
41
1
10
-0.349575964479982
20
-6.30853210514005
30
0
41
1
10
-0.360183897281416
20
-6.30881607347521
30
0
41
1
10
-0.365032052617437
20
-6.30978620719449
30
0
41
1
10
-0.37692290916398
20
-6.31387292952667
30
0
41
1
10
-0.383695246431145
20
-6.3179475897727
30
0
41
1
10
-0.391564614808274
20
-6.32402624429125
30
0
41
1
10
-0.393293161608796
20
-6.32546009510432
30
0
41
1
10
-0.394976888875291
20
-6.32694279392757
30
0
0
SPLINE
5
DC
100
AcDbEntity
8
1
62
256
6
ByLayer
370
-1
48
1
60
0
100
AcDbSpline
70
4
71
3
72
16
73
12
40
0
40
0
40
0
40
0
40
0.0624450082614258
40
0.0624450082614258
40
0.283207995985773
40
0.283207995985773
40
0.506745688833498
40
0.506745688833498
40
0.744607284736922
40
0.744607284736922
40
1
40
1
40
1
40
1
41
1
10
60.8422983036603
20
1.44954676284436
30
0
41
1
10
60.8350063168155
20
1.45378396878158
30
0
41
1
10
60.8275219054686
20
1.4577092519531
30
0
41
1
10
60.79311937228
20
1.47389408654345
30
0
41
1
10
60.7641051359831
20
1.48241558863609
30
0
41
1
10
60.7059936615192
20
1.49038000158893
30
0
41
1
10
60.6761635434263
20
1.48983232118658
30
0
41
1
10
60.6178527076446
20
1.48018142672561
30
0
41
1
10
60.5888454989234
20
1.47044293261126
30
0
41
1
10
60.534675357999
20
1.44276136964194
30
0
41
1
10
60.5092846144057
20
1.42396254038587
30
0
41
1
10
60.487910977364
20
1.40233678765756
30
0
0
SPLINE
5
DD
100
AcDbEntity
8
1
62
256
6
ByLayer
370
-1
48
1
60
0
100
AcDbSpline
70
4
71
3
72
18
73
14
40
0
40
0
40
0
40
0
40
0.212491695755303
40
0.212491695755303
40
0.386618276853804
40
0.386618276853804
40
0.562426360907927
40
0.562426360907927
40
0.715388416645929
40
0.715388416645929
40
0.918249208689852
40
0.918249208689852
40
1
40
1
40
1
40
1
41
1
10
60.9776444677088
20
1.12150404178334
30
0
41
1
10
60.9592760761901
20
1.05294891330632
30
0
41
1
10
60.9510911091532
20
0.979185025519058
30
0
41
1
10
60.9589610008539
20
0.843022153380275
30
0
41
1
10
60.9711557594437
20
0.77944876008857
30
0
41
1
10
61.0138305716229
20
0.656905539538656
30
0
41
1
10
61.0452976683393
20
0.596232464329546
30
0
41
1
10
61.1173032363391
20
0.496295746411192
30
0
41
1
10
61.1569188988895
20
0.454031777752675
30
0
41
1
10
61.2554059624804
20
0.371396705699084
30
0
41
1
10
61.317893587529
20
0.334518098066042
30
0
41
1
10
61.407776731918
20
0.297950670808376
30
0
41
1
10
61.4342260360797
20
0.289055491743454
30
0
41
1
10
61.4608653921853
20
0.281837412137918
30
0
0
SPLINE
5
DE
100
AcDbEntity
8
1
62
256
6
ByLayer
370
-1
48
1
60
0
100
AcDbSpline
70
4
71
3
72
14
73
10
40
0
40
0
40
0
40
0
40
0.282169922576067
40
0.282169922576067
40
0.566902245317916
40
0.566902245317916
40
0.824523972080224
40
0.824523972080224
40
1
40
1
40
1
40
1
41
1
10
59.512089022636
20
1.40233678765756
30
0
41
1
10
59.4884755428677
20
1.42622880348662
30
0
41
1
10
59.4598973715972
20
1.4466909539924
30
0
41
1
10
59.3964034073027
20
1.47642759952868
30
0
41
1
10
59.3604207832103
20
1.48600316008023
30
0
41
1
10
59.2904842322966
20
1.49063981766778
30
0
41
1
10
59.255601295172
20
1.48700486818098
30
0
41
1
10
59.2001581578494
20
1.47083834363633
30
0
41
1
10
59.178107891115
20
1.46140433355825
30
0
41
1
10
59.1577016963397
20
1.44954676284439
30
0
0
SPLINE
5
DF
100
AcDbEntity
8
SK1
62
256
6
ByLayer
370
-1
48
1
60
0
100
AcDbSpline
70
4
71
3
72
22
73
18
40
0
40
0
40
0
40
0
40
0.038427246458711
40
0.038427246458711
40
0.0775026456766427
40
0.0775026456766427
40
0.106475059033524
40
0.106475059033524
40
0.135305917881828
40
0.135305917881828
40
0.182167074412018
40
0.182167074412018
40
0.275660663800869
40
0.275660663800869
40
0.616530102228659
40
0.616530102228659
40
1
40
1
40
1
40
1
41
1
10
-0.394976888875291
20
-6.32694279392757
30
0
41
1
10
-0.414867561016209
20
-6.34445862132063
30
0
41
1
10
-0.436644357284209
20
-6.36058691921457
30
0
41
1
10
-0.484524151203374
20
-6.3868168818706
30
0
41
1
10
-0.511419954277358
20
-6.39702622866628
30
0
41
1
10
-0.560078773491583
20
-6.40490957850619
30
0
41
1
10
-0.58185248496946
20
-6.40512642059926
30
0
41
1
10
-0.623683911276842
20
-6.39912423041605
30
0
41
1
10
-0.644207278837669
20
-6.39293597600829
30
0
41
1
10
-0.694134540330921
20
-6.37121870092642
30
0
41
1
10
-0.722113964046528
20
-6.35215911803172
30
0
41
1
10
-0.796598131612939
20
-6.28903777408343
30
0
41
1
10
-0.836555557792792
20
-6.23798237717094
30
0
41
1
10
-0.997773060879837
20
-5.995390913813
30
0
41
1
10
-1.07178904300879
20
-5.77805690787602
30
0
41
1
10
-1.20827315239352
20
-5.31693201445015
30
0
41
1
10
-1.26212533694984
20
-5.06551762472202
30
0
41
1
10
-1.30710678118655
20
-4.81101321788441
30
0
0
SPLINE
5
E0
100
AcDbEntity
8
1
62
256
6
ByLayer
370
-1
48
1
60
0
100
AcDbSpline
70
4
71
3
72
16
73
12
40
0
40
0
40
0
40
0
40
0.0624450082614121
40
0.0624450082614121
40
0.283207995985763
40
0.283207995985763
40
0.506745688833492
40
0.506745688833492
40
0.744607284736919
40
0.744607284736919
40
1
40
1
40
1
40
1
41
1
10
59.1577016963397
20
-1.44954676282944
30
0
41
1
10
59.1649936831845
20
-1.45378396876663
30
0
41
1
10
59.1724780945314
20
-1.45770925193815
30
0
41
1
10
59.20688062772
20
-1.4738940865285
30
0
41
1
10
59.2358948640169
20
-1.48241558862114
30
0
41
1
10
59.2940063384808
20
-1.49038000157398
30
0
41
1
10
59.3238364565737
20
-1.48983232117163
30
0
41
1
10
59.3821472923554
20
-1.48018142671063
30
0
41
1
10
59.4111545010766
20
-1.47044293259631
30
0
41
1
10
59.465324642001
20
-1.44276136962697
30
0
41
1
10
59.4907153855943
20
-1.42396254037092
30
0
41
1
10
59.512089022636
20
-1.40233678764261
30
0
0
SPLINE
5
E1
100
AcDbEntity
8
1
62
256
6
ByLayer
370
-1
48
1
60
0
100
AcDbSpline
70
4
71
3
72
14
73
10
40
0
40
0
40
0
40
0
40
0.283961749036715
40
0.283961749036715
40
0.570285189259027
40
0.570285189259027
40
0.829451094335685
40
0.829451094335685
40
1
40
1
40
1
40
1
41
1
10
59.0223555322912
20
-1.12150404176836
30
0
41
1
10
59.013678671596
20
-1.15388811302105
30
0
41
1
10
59.0104461401964
20
-1.18882554195145
30
0
41
1
10
59.0167936345158
20
-1.25850421460655
30
0
41
1
10
59.0266409822431
20
-1.29431482283445
30
0
41
1
10
59.0577854086303
20
-1.35690846986282
30
0
41
1
10
59.0784322513996
20
-1.38514373352581
30
0
41
1
10
59.1195978406633
20
-1.42427613242427
30
0
41
1
10
59.1380490492359
20
-1.43812706134594
30
0
41
1
10
59.1577016963397
20
-1.44954676282944
30
0
0
SPLINE
5
E2
100
AcDbEntity
8
1
62
256
6
ByLayer
370
-1
48
1
60
0
100
AcDbSpline
70
4
71
3
72
12
73
8
40
0
40
0
40
0
40
0
40
0.495785575728973
40
0.495785575728973
40
0.900238279923948
40
0.900238279923948
40
1
40
1
40
1
40
1
41
1
10
60.487910977364
20
-1.40233678764261
30
0
41
1
10
60.4377736049687
20
-1.35160801294913
30
0
41
1
10
60.3779290117278
20
-1.3071233514456
30
0
41
1
10
60.2560162887576
20
-1.24516073116766
30
0
41
1
10
60.1949462341845
20
-1.22366365062788
30
0
41
1
10
60.1155172566204
20
-1.20816202595745
30
0
41
1
10
60.0994242804515
20
-1.20560657988617
30
0
41
1
10
60.0832217365173
20
-1.20362635088844
30
0
0
SPLINE
5
E3
100
AcDbEntity
8
SK1
62
256
6
ByLayer
370
-1
48
1
60
0
100
AcDbSpline
70
4
71
3
72
22
73
18
40
0
40
0
40
0
40
0
40
0.025518692999354
40
0.025518692999354
40
0.0515625307794633
40
0.0515625307794633
40
0.0689220502117166
40
0.0689220502117166
40
0.0862030429090035
40
0.0862030429090035
40
0.113761926258803
40
0.113761926258803
40
0.167639902693809
40
0.167639902693809
40
0.357269752158031
40
0.357269752158031
40
1
40
1
40
1
40
1
41
1
10
-0.394976888875291
20
6.326943090669
30
0
41
1
10
-0.389699799773268
20
6.32229605774103
30
0
41
1
10
-0.383945540291066
20
6.31808234313019
30
0
41
1
10
-0.371336208800912
20
6.31155719556298
30
0
41
1
10
-0.364237316839024
20
6.30923328231674
30
0
41
1
10
-0.35209572007625
20
6.30844589498398
30
0
41
1
10
-0.347038791108773
20
6.3089739150856
30
0
41
1
10
-0.337436838154147
20
6.31166640764118
30
0
41
1
10
-0.332782752688161
20
6.31383711710231
30
0
41
1
10
-0.321723955926899
20
6.32078578121266
30
0
41
1
10
-0.315689795621651
20
6.32640446307903
30
0
41
1
10
-0.300083216036072
20
6.3442802085479
30
0
41
1
10
-0.29205715892563
20
6.35806878925098
30
0
41
1
10
-0.261294067338739
20
6.42092251611513
30
0
41
1
10
-0.248999237994838
20
6.47445017323312
30
0
41
1
10
-0.204624309665832
20
6.70435570668306
30
0
41
1
10
-0.200000000000969
20
6.88379158154922
30
0
41
1
10
-0.200000000000969
20
7.05951756777665
30
0
0
INSERT
5
117
100
AcDbEntity
8
2
62
256
6
ByLayer
370
-1
48
1
60
0
100
AcDbBlockReference
2
DimnDraft3D11
10
0
20
0
30
0
41
1
42
1
43
1
50
0
210
0
220
0
230
1
0
LINE
5
4E
100
AcDbEntity
8
1
62
256
6
ByLayer
370
-1
48
1
60
0
100
AcDbLine
10
19.235093
20
1.982154
30
0
11
18.913338
21
1.789786
31
0
39
0
210
0
220
0
230
1
0
LINE
5
50
100
AcDbEntity
8
1
62
256
6
ByLayer
370
-1
48
1
60
0
100
AcDbLine
10
18.913338
20
-1.789786
30
0
11
19.235093
21
-1.982154
31
0
39
0
210
0
220
0
230
1
0
LINE
5
51
100
AcDbEntity
8
1
62
256
6
ByLayer
370
-1
48
1
60
0
100
AcDbLine
10
22.225826
20
-1.94597
30
0
11
22.410313
21
-1.751373
31
0
39
0
210
0
220
0
230
1
0
LINE
5
52
100
AcDbEntity
8
1
62
256
6
ByLayer
370
-1
48
1
60
0
100
AcDbLine
10
22.410313
20
1.751373
30
0
11
22.225826
21
1.94597
31
0
39
0
210
0
220
0
230
1
0
LINE
5
53
100
AcDbEntity
8
1
62
256
6
ByLayer
370
-1
48
1
60
0
100
AcDbLine
10
0.3
20
31.5
30
0
11
0
21
31.2
31
0
39
0
210
0
220
0
230
1
0
LINE
5
54
100
AcDbEntity
8
1
62
256
6
ByLayer
370
-1
48
1
60
0
100
AcDbLine
10
0
20
-31.2
30
0
11
0.3
21
-31.5
31
0
39
0
210
0
220
0
230
1
0
LINE
5
55
100
AcDbEntity
8
1
62
256
6
ByLayer
370
-1
48
1
60
0
100
AcDbLine
10
0.3
20
-31.5
30
0
11
21.3
21
-31.5
31
0
39
0
210
0
220
0
230
1
0
LINE
5
56
100
AcDbEntity
8
1
62
256
6
ByLayer
370
-1
48
1
60
0
100
AcDbLine
10
21.3
20
31.5
30
0
11
0.3
21
31.5
31
0
39
0
210
0
220
0
230
1
0
LINE
5
57
100
AcDbEntity
8
1
62
256
6
ByLayer
370
-1
48
1
60
0
100
AcDbLine
10
22.121958
20
2
30
0
11
19.295061
21
2
31
0
39
0
210
0
220
0
230
1
0
LINE
5
58
100
AcDbEntity
8
1
62
256
6
ByLayer
370
-1
48
1
60
0
100
AcDbLine
10
19.295061
20
-2
30
0
11
22.121958
21
-2
31
0
39
0
210
0
220
0
230
1
0
LINE
5
59
100
AcDbEntity
8
80
62
256
6
ByLayer
370
-1
48
1
60
0
100
AcDbLine
10
0
20
0
30
0
11
-5
21
0
31
0
39
0
210
0
220
0
230
1
0
LINE
5
5A
100
AcDbEntity
8
SK4
62
256
6
ByLayer
370
-1
48
0.05
60
0
100
AcDbLine
10
-43
20
0
30
0
11
65
21
0
31
0
39
0
210
0
220
0
230
1
0
LINE
5
5C
100
AcDbEntity
8
81
62
256
6
ByLayer
370
-1
48
1
60
0
100
AcDbLine
10
65
20
5
30
0
11
75
21
5
31
0
39
0
210
0
220
0
230
1
0
LINE
5
5D
100
AcDbEntity
8
4
62
256
6
ByLayer
370
-1
48
0.05
60
0
100
AcDbLine
10
0
20
0
30
0
11
65
21
0
31
0
39
0
210
0
220
0
230
1
0
LINE
5
5F
100
AcDbEntity
8
1
62
256
6
ByLayer
370
-1
48
1
60
0
100
AcDbLine
10
56.695888
20
3.752717
30
0
11
56.695888
21
4.2
31
0
39
0
210
0
220
0
230
1
0
LINE
5
60
100
AcDbEntity
8
1
62
256
6
ByLayer
370
-1
48
1
60
0
100
AcDbLine
10
57.25
20
-4.2
30
0
11
57.287084
21
-4.2
31
0
39
0
210
0
220
0
230
1
0
LINE
5
61
100
AcDbEntity
8
1
62
256
6
ByLayer
370
-1
48
1
60
0
100
AcDbLine
10
18.893477
20
0.949828
30
0
11
18.893477
21
-0.949828
31
0
39
0
210
0
220
0
230
1
0
LINE
5
62
100
AcDbEntity
8
1
62
256
6
ByLayer
370
-1
48
1
60
0
100
AcDbLine
10
21.313505
20
31.480047
30
0
11
21.3
21
31.5
31
0
39
0
210
0
220
0
230
1
0
LINE
5
63
100
AcDbEntity
8
1
62
256
6
ByLayer
370
-1
48
1
60
0
100
AcDbLine
10
10.538675
20
-30.080593
30
0
11
10.538675
21
-9.349221
31
0
39
0
210
0
220
0
230
1
0
LINE
5
64
100
AcDbEntity
8
1
62
256
6
ByLayer
370
-1
48
1
60
0
100
AcDbLine
10
38.587406
20
5.957964
30
0
11
24.456651
21
26.836068
31
0
39
0
210
0
220
0
230
1
0
LINE
5
65
100
AcDbEntity
8
1
62
256
6
ByLayer
370
-1
48
1
60
0
100
AcDbLine
10
57.25
20
-4.2
30
0
11
57
21
-4.2
31
0
39
0
210
0
220
0
230
1
0
LINE
5
66
100
AcDbEntity
8
1
62
256
6
ByLayer
370
-1
48
1
60
0
100
AcDbLine
10
13.461325
20
9.349221
30
0
11
13.461325
21
30.080593
31
0
39
0
210
0
220
0
230
1
0
LINE
5
67
100
AcDbEntity
8
1
62
256
6
ByLayer
370
-1
48
1
60
0
100
AcDbLine
10
57.25
20
-4.2
30
0
11
57.25
21
-4.175815
31
0
39
0
210
0
220
0
230
1
0
LINE
5
68
100
AcDbEntity
8
1
62
256
6
ByLayer
370
-1
48
1
60
0
100
AcDbLine
10
56.695888
20
-4.2
30
0
11
57
21
-4.2
31
0
39
0
210
0
220
0
230
1
0
LINE
5
69
100
AcDbEntity
8
1
62
256
6
ByLayer
370
-1
48
1
60
0
100
AcDbLine
10
20.471872
20
31.332268
30
0
11
20.471872
21
1.99939
31
0
39
0
210
0
220
0
230
1
0
LINE
5
6A
100
AcDbEntity
8
1
62
256
6
ByLayer
370
-1
48
1
60
0
100
AcDbLine
10
20.471872
20
-1.99939
30
0
11
20.471872
21
-31.332268
31
0
39
0
210
0
220
0
230
1
0
LINE
5
6B
100
AcDbEntity
8
1
62
256
6
ByLayer
370
-1
48
1
60
0
100
AcDbLine
10
10.105662
20
9.869413
30
0
11
10.105662
21
29.913955
31
0
39
0
210
0
220
0
230
1
0
LINE
5
6C
100
AcDbEntity
8
1
62
256
6
ByLayer
370
-1
48
1
60
0
100
AcDbLine
10
57
20
-3.999991
30
0
11
57
21
-4.2
31
0
39
0
210
0
220
0
230
1
0
LINE
5
6D
100
AcDbEntity
8
1
62
256
6
ByLayer
370
-1
48
1
60
0
100
AcDbLine
10
0.3
20
-31.5
30
0
11
0.3
21
31.5
31
0
39
0
210
0
220
0
230
1
0
LINE
5
6E
100
AcDbEntity
8
1
62
256
6
ByLayer
370
-1
48
1
60
0
100
AcDbLine
10
10.538675
20
9.349221
30
0
11
13.461325
21
9.349221
31
0
39
0
210
0
220
0
230
1
0
LINE
5
6F
100
AcDbEntity
8
1
62
256
6
ByLayer
370
-1
48
1
60
0
100
AcDbLine
10
56.695888
20
4.2
30
0
11
41.9
21
4.2
31
0
39
0
210
0
220
0
230
1
0
LINE
5
70
100
AcDbEntity
8
1
62
256
6
ByLayer
370
-1
48
1
60
0
100
AcDbLine
10
13.461325
20
-9.349221
30
0
11
10.538675
21
-9.349221
31
0
39
0
210
0
220
0
230
1
0
LINE
5
71
100
AcDbEntity
8
1
62
256
6
ByLayer
370
-1
48
1
60
0
100
AcDbLine
10
56.695888
20
-4.2
30
0
11
56.695888
21
-3.752717
31
0
39
0
210
0
220
0
230
1
0
LINE
5
72
100
AcDbEntity
8
1
62
256
6
ByLayer
370
-1
48
1
60
0
100
AcDbLine
10
57
20
4.2
30
0
11
56.695888
21
4.2
31
0
39
0
210
0
220
0
230
1
0
LINE
5
73
100
AcDbEntity
8
1
62
256
6
ByLayer
370
-1
48
1
60
0
100
AcDbLine
10
21.313505
20
-31.480047
30
0
11
24.456651
21
-26.836068
31
0
39
0
210
0
220
0
230
1
0
LINE
5
74
100
AcDbEntity
8
1
62
256
6
ByLayer
370
-1
48
1
60
0
100
AcDbLine
10
13.894338
20
9.869413
30
0
11
13.894338
21
29.913955
31
0
39
0
210
0
220
0
230
1
0
LINE
5
75
100
AcDbEntity
8
1
62
256
6
ByLayer
370
-1
48
1
60
0
100
AcDbLine
10
21.3
20
-31.5
30
0
11
21.313505
21
-31.480047
31
0
39
0
210
0
220
0
230
1
0
LINE
5
76
100
AcDbEntity
8
1
62
256
6
ByLayer
370
-1
48
1
60
0
100
AcDbLine
10
41.9
20
-4.2
30
0
11
56.695888
21
-4.2
31
0
39
0
210
0
220
0
230
1
0
LINE
5
77
100
AcDbEntity
8
1
62
256
6
ByLayer
370
-1
48
1
60
0
100
AcDbLine
10
10.538675
20
-30.080593
30
0
11
13.461325
21
-30.080593
31
0
39
0
210
0
220
0
230
1
0
LINE
5
78
100
AcDbEntity
8
1
62
256
6
ByLayer
370
-1
48
1
60
0
100
AcDbLine
10
10.538675
20
9.349221
30
0
11
10.538675
21
30.080593
31
0
39
0
210
0
220
0
230
1
0
LINE
5
79
100
AcDbEntity
8
1
62
256
6
ByLayer
370
-1
48
1
60
0
100
AcDbLine
10
57.287084
20
4.2
30
0
11
57.25
21
4.2
31
0
39
0
210
0
220
0
230
1
0
LINE
5
7A
100
AcDbEntity
8
1
62
256
6
ByLayer
370
-1
48
1
60
0
100
AcDbLine
10
24.456651
20
26.836068
30
0
11
24.456651
21
-26.836068
31
0
39
0
210
0
220
0
230
1
0
LINE
5
7B
100
AcDbEntity
8
1
62
256
6
ByLayer
370
-1
48
1
60
0
100
AcDbLine
10
10.105662
20
-29.913955
30
0
11
10.105662
21
-9.869413
31
0
39
0
210
0
220
0
230
1
0
LINE
5
7C
100
AcDbEntity
8
1
62
256
6
ByLayer
370
-1
48
1
60
0
100
AcDbLine
10
13.461325
20
-30.080593
30
0
11
13.461325
21
-9.349221
31
0
39
0
210
0
220
0
230
1
0
LINE
5
7D
100
AcDbEntity
8
1
62
256
6
ByLayer
370
-1
48
1
60
0
100
AcDbLine
10
57.25
20
4.175815
30
0
11
57.25
21
4.2
31
0
39
0
210
0
220
0
230
1
0
LINE
5
7E
100
AcDbEntity
8
1
62
256
6
ByLayer
370
-1
48
1
60
0
100
AcDbLine
10
13.894338
20
-29.913955
30
0
11
13.894338
21
-9.869413
31
0
39
0
210
0
220
0
230
1
0
LINE
5
7F
100
AcDbEntity
8
1
62
256
6
ByLayer
370
-1
48
1
60
0
100
AcDbLine
10
0
20
-31.2
30
0
11
0
21
31.2
31
0
39
0
210
0
220
0
230
1
0
LINE
5
80
100
AcDbEntity
8
1
62
256
6
ByLayer
370
-1
48
1
60
0
100
AcDbLine
10
24.456651
20
-26.836068
30
0
11
38.587406
21
-5.957964
31
0
39
0
210
0
220
0
230
1
0
LINE
5
81
100
AcDbEntity
8
1
62
256
6
ByLayer
370
-1
48
1
60
0
100
AcDbLine
10
57
20
4.2
30
0
11
57
21
3.999991
31
0
39
0
210
0
220
0
230
1
0
LINE
5
82
100
AcDbEntity
8
1
62
256
6
ByLayer
370
-1
48
1
60
0
100
AcDbLine
10
24.456651
20
26.836068
30
0
11
21.313505
21
31.480047
31
0
39
0
210
0
220
0
230
1
0
LINE
5
83
100
AcDbEntity
8
1
62
256
6
ByLayer
370
-1
48
1
60
0
100
AcDbLine
10
13.461325
20
30.080593
30
0
11
10.538675
21
30.080593
31
0
39
0
210
0
220
0
230
1
0
LINE
5
84
100
AcDbEntity
8
1
62
256
6
ByLayer
370
-1
48
1
60
0
100
AcDbLine
10
57
20
4.2
30
0
11
57.25
21
4.2
31
0
39
0
210
0
220
0
230
1
0
LINE
5
85
100
AcDbEntity
8
SK1
62
256
6
ByLayer
370
-1
48
1
60
0
100
AcDbLine
10
-0.2
20
7.059518
30
0
11
-0.2
21
22.533485
31
0
39
0
210
0
220
0
230
1
0
LINE
5
87
100
AcDbEntity
8
SK1
62
256
6
ByLayer
370
-1
48
1
60
0
100
AcDbLine
10
-0.2
20
-22.533485
30
0
11
-0.2
21
-7.059517
31
0
39
0
210
0
220
0
230
1
0
LINE
5
88
100
AcDbEntity
8
SK1
62
256
6
ByLayer
370
-1
48
1
60
0
100
AcDbLine
10
-1.307107
20
-4.811013
30
0
11
-1.307107
21
4.811013
31
0
39
0
210
0
220
0
230
1
0
MTEXT
5
E4
100
AcDbEntity
8
SK6
62
256
6
ByLayer
370
-1
48
1
60
0
100
AcDbMText
10
22.478519
20
-42.78641
30
0
210
0
220
0
230
1
1
\W00.733;\fsimplex.shx,bigfont.shx;C6-SRDCN-00065-10A 
40
3.5
41
0
44
1.084337
50
0
71
7
72
5
7
DEFAULT
0
DIMENSION
5
125
100
AcDbEntity
8
SK2
62
256
6
ByLayer
370
-3
48
1
60
0
100
AcDbDimension
2
DimnDraft3D2
10
-47.75
20
31.5
30
0
11
-47.75
21
-4.784211
31
0
70
32
71
5
72
1
41
1
210
0
220
0
230
1
3
Standard
100
AcDbAlignedDimension
13
-2
23
-31.5
33
0
14
-2
24
31.5
34
0
50
90
100
AcDbRotatedDimension
1001
ACAD
1000
DSTYLE
1002
{
1070
    74
1070
     0
1070
   279
1070
     0
1070
   172
1070
     1
1070
   173
1070
     1
1070
   340
1005
E5
1070
    77
1070
     1
1070
    73
1070
     0
1070
   171
1070
     3
1070
   274
1070
     4
1070
   177
1070
     2
1070
   176
1070
     2
1070
   178
1070
     7
1070
    78
1070
     8
1070
    41
1041
3.175
1070
   147
1041
2.25
1070
    42
1041
2.0
1070
    44
1041
2.0
1070
   140
1041
4.5
1070
   343
1005
126
1070
   344
1005
126
1002
}
0
DIMENSION
5
13A
100
AcDbEntity
8
2
62
256
6
ByLayer
370
-3
48
1
60
0
100
AcDbDimension
2
DimnDraft3D3
10
65
20
46.25
30
0
11
29.871053
21
46.25
31
0
70
32
71
5
72
1
41
1
210
0
220
0
230
1
3
Standard
100
AcDbAlignedDimension
13
0
23
33.5
33
0
14
65
24
7
34
0
50
0
100
AcDbRotatedDimension
1001
ACAD
1000
DSTYLE
1002
{
1070
   279
1070
     0
1070
   172
1070
     1
1070
   173
1070
     1
1070
   340
1005
E5
1070
    77
1070
     1
1070
    73
1070
     0
1070
   171
1070
     3
1070
   274
1070
     4
1070
   177
1070
     2
1070
   176
1070
     2
1070
   178
1070
     7
1070
    78
1070
     8
1070
    41
1041
3.175
1070
   147
1041
2.25
1070
    42
1041
2.0
1070
    44
1041
2.0
1070
   140
1041
4.5
1070
   343
1005
126
1070
   344
1005
126
1002
}
0
DIMENSION
5
148
100
AcDbEntity
8
2
62
256
6
ByLayer
370
-3
48
1
60
0
100
AcDbDimension
2
DimnDraft3D4
10
40
20
-17.25
30
0
11
49.871053
21
-17.25
31
0
70
32
71
5
72
1
41
1
210
0
220
0
230
1
3
Standard
100
AcDbAlignedDimension
13
65
23
-7
33
0
14
40
24
-7
34
0
50
0
100
AcDbRotatedDimension
1001
ACAD
1000
DSTYLE
1002
{
1070
   279
1070
     0
1070
   172
1070
     1
1070
   173
1070
     1
1070
   340
1005
E5
1070
    77
1070
     1
1070
    73
1070
     0
1070
   171
1070
     3
1070
   274
1070
     4
1070
   177
1070
     2
1070
   176
1070
     2
1070
   178
1070
     7
1070
    78
1070
     8
1070
    41
1041
3.175
1070
   147
1041
2.25
1070
    42
1041
2.0
1070
    44
1041
2.0
1070
   140
1041
4.5
1070
   343
1005
126
1070
   344
1005
126
1002
}
0
ENDSEC
0
SECTION
2
OBJECTS
0
DICTIONARY
5
179
330
0
100
AcDbDictionary
280
0
281
1
3
ACAD_GROUP
350
17a
3
ACAD_MLINESTYLE
350
17b
0
DICTIONARY
5
17a
330
0
100
AcDbDictionary
280
0
281
1
0
DICTIONARY
5
17b
330
0
100
AcDbDictionary
280
0
281
1
3
Standard
350
18
0
MLINESTYLE
5
18
330
17b
100
AcDbMlineStyle
2
Standard
70
0
3

62
256
51
90
52
90
71
2
49
-0.5
62
256
6
ByLayer
49
0.5
62
256
6
ByLayer
0
RASTERVARIABLES
5
167
330

100
AcDbRasterVariables
90
0
70
1
71
1
72
1
0
ENDSEC
0
EOF
