0
SECTION
2
HEADER
9
$ACADVER
1
AC1015
9
$DWGCODEPAGE
3
ANSI_1252
9
$HANDSEED
5
1f1
9
$ANGBASE
50
0
9
$ANGDIR
70
0
9
$ATTMODE
70
1
9
$AUNITS
70
0
9
$AUPREC
70
0
9
$CECOLOR
62
256
9
$CELTSCALE
40
1
9
$CELTYPE
6
ByLayer
9
$CELWEIGHT
370
18
9
$CLAYER
8
0
9
$CMLJUST
70
0
9
$CMLSCALE
40
1
9
$CMLSTYLE
2
Standard
9
$DIMSTYLE
2
Standard
9
$TEXTSIZE
40
0.2
9
$TEXTSTYLE
7
Standard
9
$LUNITS
70
2
9
$LUPREC
70
4
9
$EXTNAMES
290
1
9
$INSUNITS
70
4
9
$LTSCALE
40
1
9
$LWDISPLAY
290
1
9
$PDMODE
70
0
9
$PDSIZE
40
0
9
$PLINEGEN
70
0
0
ENDSEC
0
SECTION
2
CLASSES
0
CLASS
1
RASTERVARIABLES
2
AcDbRasterVariables
3
ISM
90
0
280
0
281
0
0
ENDSEC
0
SECTION
2
TABLES
0
TABLE
2
VPORT
5
1e7
100
AcDbSymbolTable
0
VPORT
5
1
100
AcDbSymbolTableRecord
100
AcDbViewportTableRecord
2
*Active
70
0
10
0
20
0
11
1
21
1
12
-1
22
1
13
0
23
0
14
0.5
24
0.5
15
10
25
10
16
0
26
0
36
1
17
0
27
0
37
0
0
ENDTAB
0
TABLE
2
LTYPE
5
1e8
100
AcDbSymbolTable
0
LTYPE
5
14
100
AcDbSymbolTableRecord
100
AcDbLinetypeTableRecord
70
0
2
ByBlock
3

72
65
73
0
40
0
0
LTYPE
5
15
100
AcDbSymbolTableRecord
100
AcDbLinetypeTableRecord
70
0
2
ByLayer
3

72
65
73
0
40
0
0
LTYPE
5
16
100
AcDbSymbolTableRecord
100
AcDbLinetypeTableRecord
70
0
2
CONTINUOUS
3
Solid line
72
65
73
0
40
0
0
LTYPE
5
6A
100
AcDbSymbolTableRecord
100
AcDbLinetypeTableRecord
70
0
2
CENTER
3
____ _ ____ _ ____ _ ____
72
65
73
4
40
47.5
49
22
74
0
49
-8.5
74
0
49
8.5
74
0
49
-8.5
74
0
0
LTYPE
5
6B
100
AcDbSymbolTableRecord
100
AcDbLinetypeTableRecord
70
0
2
DASHED
3
__ __ __ __ __ __ __ __ __
72
65
73
2
40
25.72
49
12.86
74
0
49
-12.86
74
0
0
ENDTAB
0
TABLE
2
LAYER
5
1e9
100
AcDbSymbolTable
0
LAYER
5
10
100
AcDbSymbolTableRecord
100
AcDbLayerTableRecord
2
0
70
0
62
7
6
CONTINUOUS
290
1
370
-3
390
0
0
LAYER
5
6D
100
AcDbSymbolTableRecord
100
AcDbLayerTableRecord
2
80
70
0
62
-6
6
CONTINUOUS
290
1
370
-3
390
0
0
LAYER
5
71
100
AcDbSymbolTableRecord
100
AcDbLayerTableRecord
2
81
70
0
62
-3
6
CONTINUOUS
290
1
370
-3
390
0
0
LAYER
5
73
100
AcDbSymbolTableRecord
100
AcDbLayerTableRecord
2
1
70
0
62
4
6
CONTINUOUS
290
1
370
-3
390
0
0
LAYER
5
B4
100
AcDbSymbolTableRecord
100
AcDbLayerTableRecord
2
4
70
0
62
-2
6
CENTER
290
1
370
-3
390
0
0
LAYER
5
167
100
AcDbSymbolTableRecord
100
AcDbLayerTableRecord
2
2
70
0
62
7
6
CONTINUOUS
290
1
370
-3
390
0
0
LAYER
5
1d3
100
AcDbSymbolTableRecord
100
AcDbLayerTableRecord
2
SK2
70
0
62
7
6
CONTINUOUS
290
1
370
-3
390
0
0
LAYER
5
1d4
100
AcDbSymbolTableRecord
100
AcDbLayerTableRecord
2
SK1
70
0
62
4
6
CONTINUOUS
290
1
370
-3
390
0
0
LAYER
5
1d5
100
AcDbSymbolTableRecord
100
AcDbLayerTableRecord
2
SK4
70
0
62
2
6
CENTER
290
1
370
-3
390
0
0
LAYER
5
1d6
100
AcDbSymbolTableRecord
100
AcDbLayerTableRecord
2
SK6
70
0
62
5
6
CONTINUOUS
290
1
370
-3
390
0
0
ENDTAB
0
TABLE
2
STYLE
5
1ea
100
AcDbSymbolTable
0
STYLE
5
11
100
AcDbSymbolTableRecord
100
AcDbTextStyleTableRecord
2
Standard
3
txt
70
0
71
0
40
0
41
1
42
0
50
0
0
STYLE
5
144
100
AcDbSymbolTableRecord
100
AcDbTextStyleTableRecord
2
iso_b_vert
3
simplex.shx
70
0
71
0
40
0
41
1
42
0
50
0
0
STYLE
5
145
100
AcDbSymbolTableRecord
100
AcDbTextStyleTableRecord
2
DWGDirectTextStyle
3
simplex
70
0
71
0
40
0
41
1
42
0
50
0
0
ENDTAB
0
TABLE
2
DIMSTYLE
5
1eb
100
AcDbSymbolTable
100
AcDbDimStyleTable
0
DIMSTYLE
105
27
100
AcDbSymbolTableRecord
100
AcDbDimStyleTableRecord
2
Standard
70
0
3
<>
41
0.18
42
0.0625
44
0.18
140
0.18
147
0.09
73
0
74
0
77
1
271
2
275
0
278
52
280
0
340
11
0
ENDTAB
0
TABLE
2
VIEW
5
1ec
100
AcDbSymbolTable
0
ENDTAB
0
TABLE
2
UCS
5
1ed
100
AcDbSymbolTable
0
ENDTAB
0
TABLE
2
APPID
5
1ee
100
AcDbSymbolTable
0
APPID
5
12
100
AcDbSymbolTableRecord
100
AcDbRegAppTableRecord
2
ACAD
70
0
0
ENDTAB
0
TABLE
2
BLOCK_RECORD
5
1ef
100
AcDbSymbolTable
0
BLOCK_RECORD
5
1F
100
AcDbSymbolTableRecord
100
AcDbBlockTableRecord
2
*Model_Space
340
0
70
0
0
BLOCK_RECORD
5
1B
100
AcDbSymbolTableRecord
100
AcDbBlockTableRecord
2
*Paper_Space
340
0
70
0
0
BLOCK_RECORD
5
23
100
AcDbSymbolTableRecord
100
AcDbBlockTableRecord
2
*Paper_Space0
340
0
70
0
0
BLOCK_RECORD
5
147
100
AcDbSymbolTableRecord
100
AcDbBlockTableRecord
2
DimnDraft3D1
340
0
70
0
0
BLOCK_RECORD
5
151
100
AcDbSymbolTableRecord
100
AcDbBlockTableRecord
2
DimnDraft3D2
340
0
70
0
0
BLOCK_RECORD
5
15B
100
AcDbSymbolTableRecord
100
AcDbBlockTableRecord
2
DimnDraft3D3
340
0
70
0
0
BLOCK_RECORD
5
165
100
AcDbSymbolTableRecord
100
AcDbBlockTableRecord
2
DimnDraft3D4
340
0
70
0
0
BLOCK_RECORD
5
170
100
AcDbSymbolTableRecord
100
AcDbBlockTableRecord
2
DimnDraft3D5
340
0
70
0
0
ENDTAB
0
ENDSEC
0
SECTION
2
BLOCKS
0
BLOCK
5
20
100
AcDbEntity
8
0
100
AcDbBlockBegin
2
*Model_Space
70
0
10
0
20
0
30
0
3
*Model_Space
0
ENDBLK
5
21
100
AcDbEntity
8
0
100
AcDbBlockEnd
0
BLOCK
5
1C
100
AcDbEntity
8
0
100
AcDbBlockBegin
2
*Paper_Space
70
0
10
0
20
0
30
0
3
*Paper_Space
0
ENDBLK
5
1D
100
AcDbEntity
8
0
100
AcDbBlockEnd
0
BLOCK
5
24
100
AcDbEntity
8
0
100
AcDbBlockBegin
2
*Paper_Space0
70
0
10
0
20
0
30
0
3
*Paper_Space0
0
ENDBLK
5
25
100
AcDbEntity
8
0
100
AcDbBlockEnd
0
BLOCK
5
14E
100
AcDbEntity
8
0
100
AcDbBlockBegin
2
DimnDraft3D1
70
0
10
0
20
0
30
0
3
DimnDraft3D1
0
MTEXT
5
148
100
AcDbEntity
8
SK2
62
256
6
ByLayer
370
18
48
1
60
0
100
AcDbMText
10
-49.373086
20
-2.439474
30
0
210
0
220
0
230
1
1
\W0.8750;%%c63
40
3
41
0
44
1.084337
50
90
71
7
72
5
7
iso_b_vert
0
LINE
5
149
100
AcDbEntity
8
SK2
62
256
6
ByLayer
370
13
48
1
60
0
100
AcDbLine
10
-0.7
20
-31.5
30
0
11
-49.923086
21
-31.5
31
0
39
0
210
0
220
0
230
1
0
LINE
5
14A
100
AcDbEntity
8
SK2
62
256
6
ByLayer
370
13
48
1
60
0
100
AcDbLine
10
-0.7
20
31.5
30
0
11
-49.923086
21
31.5
31
0
39
0
210
0
220
0
230
1
0
LINE
5
14B
100
AcDbEntity
8
SK2
62
256
6
ByLayer
370
13
48
1
60
0
100
AcDbLine
10
-48.923086
20
-31.5
30
0
11
-48.923086
21
31.5
31
0
39
0
210
0
220
0
230
1
0
SOLID
5
14C
100
AcDbEntity
8
SK2
62
256
6
ByLayer
370
13
48
1
60
0
100
AcDbTrace
10
-48.923086
20
-31.5
30
0
11
-49.383869
21
-28.000002
31
0
12
-48.462302
22
-27.999998
32
0
13
-48.923086
23
-31.5
33
0
39
0
210
0
220
0
230
1
0
SOLID
5
14D
100
AcDbEntity
8
SK2
62
256
6
ByLayer
370
13
48
1
60
0
100
AcDbTrace
10
-48.923086
20
31.5
30
0
11
-48.462302
21
28.000002
31
0
12
-49.383869
22
27.999998
32
0
13
-48.923086
23
31.5
33
0
39
0
210
0
220
0
230
1
0
ENDBLK
5
14F
100
AcDbEntity
8
0
100
AcDbBlockEnd
0
BLOCK
5
158
100
AcDbEntity
8
0
100
AcDbBlockBegin
2
DimnDraft3D2
70
0
10
0
20
0
30
0
3
DimnDraft3D2
0
MTEXT
5
152
100
AcDbEntity
8
SK2
62
256
6
ByLayer
370
18
48
1
60
0
100
AcDbMText
10
87.560526
20
-41.326459
30
0
210
0
220
0
230
1
1
\W0.8750;%%c32
40
3
41
0
44
1.084337
50
0
71
7
72
5
7
iso_b_vert
0
LINE
5
153
100
AcDbEntity
8
SK2
62
256
6
ByLayer
370
13
48
1
60
0
100
AcDbLine
10
106
20
-16.824519
30
0
11
106
21
-42.776459
31
0
39
0
210
0
220
0
230
1
0
LINE
5
154
100
AcDbEntity
8
SK2
62
256
6
ByLayer
370
13
48
1
60
0
100
AcDbLine
10
74
20
-16.5
30
0
11
74
21
-42.776459
31
0
39
0
210
0
220
0
230
1
0
LINE
5
155
100
AcDbEntity
8
SK2
62
256
6
ByLayer
370
13
48
1
60
0
100
AcDbLine
10
106
20
-41.776459
30
0
11
74
21
-41.776459
31
0
39
0
210
0
220
0
230
1
0
SOLID
5
156
100
AcDbEntity
8
SK2
62
256
6
ByLayer
370
13
48
1
60
0
100
AcDbTrace
10
106
20
-41.776459
30
0
11
102.500002
21
-42.237243
31
0
12
102.499998
22
-41.315675
32
0
13
106
23
-41.776459
33
0
39
0
210
0
220
0
230
1
0
SOLID
5
157
100
AcDbEntity
8
SK2
62
256
6
ByLayer
370
13
48
1
60
0
100
AcDbTrace
10
74
20
-41.776459
30
0
11
77.499998
21
-41.315675
31
0
12
77.500002
22
-42.237243
32
0
13
74
23
-41.776459
33
0
39
0
210
0
220
0
230
1
0
ENDBLK
5
159
100
AcDbEntity
8
0
100
AcDbBlockEnd
0
BLOCK
5
162
100
AcDbEntity
8
0
100
AcDbBlockBegin
2
DimnDraft3D3
70
0
10
0
20
0
30
0
3
DimnDraft3D3
0
MTEXT
5
15C
100
AcDbEntity
8
SK2
62
256
6
ByLayer
370
18
48
1
60
0
100
AcDbMText
10
9.997368
20
-41.944662
30
0
210
0
220
0
230
1
1
\W0.6563;22
40
3
41
0
44
1.084337
50
0
71
7
72
5
7
iso_b_vert
0
LINE
5
15D
100
AcDbEntity
8
SK2
62
256
6
ByLayer
370
13
48
1
60
0
100
AcDbLine
10
0
20
-32.2
30
0
11
0
21
-43.394662
31
0
39
0
210
0
220
0
230
1
0
LINE
5
15E
100
AcDbEntity
8
SK2
62
256
6
ByLayer
370
13
48
1
60
0
100
AcDbLine
10
22
20
-32.5
30
0
11
22
21
-43.394662
31
0
39
0
210
0
220
0
230
1
0
LINE
5
15F
100
AcDbEntity
8
SK2
62
256
6
ByLayer
370
13
48
1
60
0
100
AcDbLine
10
0
20
-42.394662
30
0
11
22
21
-42.394662
31
0
39
0
210
0
220
0
230
1
0
SOLID
5
160
100
AcDbEntity
8
SK2
62
256
6
ByLayer
370
13
48
1
60
0
100
AcDbTrace
10
0
20
-42.394662
30
0
11
3.499998
21
-41.933879
31
0
12
3.500002
22
-42.855446
32
0
13
0
23
-42.394662
33
0
39
0
210
0
220
0
230
1
0
SOLID
5
161
100
AcDbEntity
8
SK2
62
256
6
ByLayer
370
13
48
1
60
0
100
AcDbTrace
10
22
20
-42.394662
30
0
11
18.500002
21
-42.855446
31
0
12
18.499998
22
-41.933879
32
0
13
22
23
-42.394662
33
0
39
0
210
0
220
0
230
1
0
ENDBLK
5
163
100
AcDbEntity
8
0
100
AcDbBlockEnd
0
BLOCK
5
16D
100
AcDbEntity
8
0
100
AcDbBlockBegin
2
DimnDraft3D4
70
0
10
0
20
0
30
0
3
DimnDraft3D4
0
MTEXT
5
166
100
AcDbEntity
8
2
62
256
6
ByLayer
370
18
48
1
60
0
100
AcDbMText
10
43.997368
20
-56.468899
30
0
210
0
220
0
230
1
1
\W0.6563;90
40
3
41
0
44
1.084337
50
0
71
7
72
5
7
iso_b_vert
0
LINE
5
168
100
AcDbEntity
8
2
62
256
6
ByLayer
370
13
48
1
60
0
100
AcDbLine
10
0
20
-32.2
30
0
11
0
21
-57.918899
31
0
39
0
210
0
220
0
230
1
0
LINE
5
169
100
AcDbEntity
8
2
62
256
6
ByLayer
370
13
48
1
60
0
100
AcDbLine
10
90
20
-22.5
30
0
11
90
21
-57.918899
31
0
39
0
210
0
220
0
230
1
0
LINE
5
16A
100
AcDbEntity
8
2
62
256
6
ByLayer
370
13
48
1
60
0
100
AcDbLine
10
0
20
-56.918899
30
0
11
90
21
-56.918899
31
0
39
0
210
0
220
0
230
1
0
SOLID
5
16B
100
AcDbEntity
8
2
62
256
6
ByLayer
370
13
48
1
60
0
100
AcDbTrace
10
0
20
-56.918899
30
0
11
3.499998
21
-56.458115
31
0
12
3.500002
22
-57.379683
32
0
13
0
23
-56.918899
33
0
39
0
210
0
220
0
230
1
0
SOLID
5
16C
100
AcDbEntity
8
2
62
256
6
ByLayer
370
13
48
1
60
0
100
AcDbTrace
10
90
20
-56.918899
30
0
11
86.500002
21
-57.379683
31
0
12
86.499998
22
-56.458115
32
0
13
90
23
-56.918899
33
0
39
0
210
0
220
0
230
1
0
ENDBLK
5
16E
100
AcDbEntity
8
0
100
AcDbBlockEnd
0
BLOCK
5
177
100
AcDbEntity
8
0
100
AcDbBlockBegin
2
DimnDraft3D5
70
0
10
0
20
0
30
0
3
DimnDraft3D5
0
MTEXT
5
171
100
AcDbEntity
8
SK2
62
256
6
ByLayer
370
18
48
1
60
0
100
AcDbMText
10
118.557423
20
-10.488158
30
0
210
0
220
0
230
1
1
\W0.6220;16,5
40
3
41
0
44
1.084337
50
90
71
7
72
5
7
iso_b_vert
0
LINE
5
172
100
AcDbEntity
8
SK2
62
256
6
ByLayer
370
13
48
1
60
0
100
AcDbLine
10
109
20
0
30
0
11
120.007423
21
0
31
0
39
0
210
0
220
0
230
1
0
LINE
5
173
100
AcDbEntity
8
SK2
62
256
6
ByLayer
370
13
48
1
60
0
100
AcDbLine
10
91
20
-16.5
30
0
11
120.007423
21
-16.5
31
0
39
0
210
0
220
0
230
1
0
LINE
5
174
100
AcDbEntity
8
SK2
62
256
6
ByLayer
370
13
48
1
60
0
100
AcDbLine
10
119.007423
20
0
30
0
11
119.007423
21
-16.5
31
0
39
0
210
0
220
0
230
1
0
SOLID
5
175
100
AcDbEntity
8
SK2
62
256
6
ByLayer
370
13
48
1
60
0
100
AcDbTrace
10
119.007423
20
0
30
0
11
119.468206
21
-3.499998
31
0
12
118.546639
22
-3.500002
32
0
13
119.007423
23
0
33
0
39
0
210
0
220
0
230
1
0
SOLID
5
176
100
AcDbEntity
8
SK2
62
256
6
ByLayer
370
13
48
1
60
0
100
AcDbTrace
10
119.007423
20
-16.5
30
0
11
118.546639
21
-13.000002
31
0
12
119.468206
22
-12.999998
32
0
13
119.007423
23
-16.5
33
0
39
0
210
0
220
0
230
1
0
ENDBLK
5
178
100
AcDbEntity
8
0
100
AcDbBlockEnd
0
ENDSEC
0
SECTION
2
ENTITIES
0
ARC
5
B5
100
AcDbEntity
8
1
62
256
6
ByLayer
370
18
48
1
60
0
100
AcDbCircle
39
0
10
-112.7
20
0
30
0
40
22.5000000006445
210
0
220
0
230
-1
100
AcDbArc
50
316.457781
51
327.612461
0
ARC
5
B6
100
AcDbEntity
8
1
62
256
6
ByLayer
370
18
48
1
60
0
100
AcDbCircle
39
0
10
31.331371
20
23.3
30
0
40
0.8
210
0
220
0
230
1
100
AcDbArc
50
225
51
270
0
ARC
5
B7
100
AcDbEntity
8
1
62
256
6
ByLayer
370
18
48
1
60
0
100
AcDbCircle
39
0
10
31.331371
20
-23.3
30
0
40
0.8
210
0
220
0
230
1
100
AcDbArc
50
90
51
135
0
ARC
5
B8
100
AcDbEntity
8
1
62
256
6
ByLayer
370
18
48
1
60
0
100
AcDbCircle
39
0
10
-44.413031
20
21
30
0
40
9.99999999989645
210
0
220
0
230
-1
100
AcDbArc
50
270
51
282.818795
0
ARC
5
B9
100
AcDbEntity
8
SK1
62
256
6
ByLayer
370
18
48
1
60
0
100
AcDbCircle
39
0
10
-85.971825
20
-26
30
0
40
0.5
210
0
220
0
230
-1
100
AcDbArc
50
180
51
270
0
ARC
5
BA
100
AcDbEntity
8
SK1
62
256
6
ByLayer
370
18
48
1
60
0
100
AcDbCircle
39
0
10
-78.471825
20
-26
30
0
40
0.5
210
0
220
0
230
-1
100
AcDbArc
50
270
51
0
0
ARC
5
BB
100
AcDbEntity
8
SK1
62
256
6
ByLayer
370
18
48
1
60
0
100
AcDbCircle
39
0
10
79.521825
20
-21.3
30
0
40
0.2
210
0
220
0
230
1
100
AcDbArc
50
270
51
0
0
ARC
5
BC
100
AcDbEntity
8
SK1
62
256
6
ByLayer
370
18
48
1
60
0
100
AcDbCircle
39
0
10
84.921825
20
-21.3
30
0
40
0.2
210
0
220
0
230
1
100
AcDbArc
50
180
51
270
0
ARC
5
BD
100
AcDbEntity
8
SK1
62
256
6
ByLayer
370
18
48
1
60
0
100
AcDbCircle
39
0
10
-101.528175
20
-26
30
0
40
0.5
210
0
220
0
230
-1
100
AcDbArc
50
180
51
270
0
ARC
5
BE
100
AcDbEntity
8
SK1
62
256
6
ByLayer
370
18
48
1
60
0
100
AcDbCircle
39
0
10
-94.028175
20
-26
30
0
40
0.5
210
0
220
0
230
-1
100
AcDbArc
50
270
51
0
0
ARC
5
BF
100
AcDbEntity
8
SK1
62
256
6
ByLayer
370
18
48
1
60
0
100
AcDbCircle
39
0
10
95.078175
20
-21.3
30
0
40
0.2
210
0
220
0
230
1
100
AcDbArc
50
270
51
0
0
ARC
5
C0
100
AcDbEntity
8
SK1
62
256
6
ByLayer
370
18
48
1
60
0
100
AcDbCircle
39
0
10
100.478175
20
-21.3
30
0
40
0.2
210
0
220
0
230
1
100
AcDbArc
50
180
51
270
0
ELLIPSE
5
C1
100
AcDbEntity
8
1
62
256
6
ByLayer
370
18
48
1
60
0
100
AcDbEllipse
10
58.814456
20
0
30
0
11
25.5629003953212
21
-19.9712289426931
31
0
210
0
220
0
230
-1
40
0.405408
41
2.40508879692867
42
-3.12689619092837
0
ELLIPSE
5
C2
100
AcDbEntity
8
1
62
256
6
ByLayer
370
18
48
1
60
0
100
AcDbEllipse
10
70.971143
20
0
30
0
11
38.9711431702962
21
0
31
0
210
0
220
0
230
1
40
0.57735
41
2.78596612170415
42
-2.69980482148982
0
ELLIPSE
5
C3
100
AcDbEntity
8
1
62
256
6
ByLayer
370
18
48
1
60
0
100
AcDbEllipse
10
40.741228
20
-7.552351
30
0
11
8.6894041395999
21
-15.2590333778843
31
0
210
0
220
0
230
1
40
0.32427
41
2.60915649085802
42
2.61201805938919
0
ELLIPSE
5
C4
100
AcDbEntity
8
1
62
256
6
ByLayer
370
18
48
1
60
0
100
AcDbEllipse
10
42.194347
20
19.183766
30
0
11
-2.5977823712158E-15
21
-14.1421356237309
31
0
210
0
220
0
230
1
40
0.707107
41
-0.14578357272572
42
-3.55271257941733E-16
0
ELLIPSE
5
C5
100
AcDbEntity
8
1
62
256
6
ByLayer
370
18
48
1
60
0
100
AcDbEllipse
10
44.394998
20
20.989555
30
0
11
5.00679200858848
21
-8.64428393424832
31
0
210
0
220
0
230
-1
40
0.998958
41
1.56945069317901
42
1.57218593340708
0
ELLIPSE
5
C6
100
AcDbEntity
8
1
62
256
6
ByLayer
370
18
48
1
60
0
100
AcDbEllipse
10
26.347154
20
0
30
0
11
14.7536831606554
21
-31.0932549155801
31
0
210
0
220
0
230
-1
40
0.341999
41
2.05035306783694
42
2.98378646694436
0
ELLIPSE
5
C7
100
AcDbEntity
8
1
62
256
6
ByLayer
370
18
48
1
60
0
100
AcDbEllipse
10
-2.347154
20
0
30
0
11
-14.7536831606571
21
-31.0932549155821
31
0
210
0
220
0
230
-1
40
0.341999
41
-2.98378646694437
42
-2.05035306783699
0
ELLIPSE
5
C8
100
AcDbEntity
8
1
62
256
6
ByLayer
370
18
48
1
60
0
100
AcDbEllipse
10
26.347154
20
0
30
0
11
-14.7536831606557
21
-31.0932549155805
31
0
210
0
220
0
230
-1
40
0.341999
41
0.157806186645434
42
1.09123958575284
0
ELLIPSE
5
C9
100
AcDbEntity
8
1
62
256
6
ByLayer
370
18
48
1
60
0
100
AcDbEllipse
10
-2.347154
20
0
30
0
11
14.7536831606561
21
-31.0932549155809
31
0
210
0
220
0
230
-1
40
0.341999
41
-1.09123958575283
42
-0.157806186645432
0
POINT
5
6C
100
AcDbEntity
8
80
62
256
6
ByLayer
370
13
48
1
60
0
100
AcDbPoint
10
0
20
0
30
0
39
0
210
0
220
0
230
1
50
360
0
POINT
5
6E
100
AcDbEntity
8
SK2
62
256
6
ByLayer
370
13
48
1
60
0
100
AcDbPoint
10
74
20
-15.5
30
0
39
0
210
0
220
0
230
1
50
360
0
POINT
5
70
100
AcDbEntity
8
81
62
256
6
ByLayer
370
13
48
1
60
0
100
AcDbPoint
10
90
20
-16.5
30
0
39
0
210
0
220
0
230
1
50
360
0
SPLINE
5
CA
100
AcDbEntity
8
SK1
62
256
6
ByLayer
370
18
48
1
60
0
100
AcDbSpline
70
4
71
2
72
6
73
3
40
0
40
0
40
0
40
1
40
1
40
1
41
1
10
-1.9950399779393
20
-21.8251861014967
30
-4.19997391906255
41
1
10
-1.99503997793931
20
-21.8251860884525
30
-4.19581022875105
41
1
10
-1.9950399779393
20
-21.8251844873645
30
-4.1916465388978
0
SPLINE
5
CB
100
AcDbEntity
8
SK1
62
256
6
ByLayer
370
18
48
1
60
0
100
AcDbSpline
70
4
71
2
72
6
73
3
40
0
40
0
40
0
40
1
40
1
40
1
41
1
10
-0.394976888875288
20
-21.8653849314442
30
-4.19826729962173
41
1
10
-0.394976888875288
20
-21.8653846622361
30
-4.1949488440024
41
1
10
-0.394976888875288
20
-21.8653833861867
30
-4.19163038869338
0
SPLINE
5
CC
100
AcDbEntity
8
1
62
256
6
ByLayer
370
18
48
1
60
0
100
AcDbSpline
70
4
71
3
72
28
73
24
40
0
40
0
40
0
40
0
40
0.0529086502750848
40
0.105905012204263
40
0.158877357552325
40
0.211753200913244
40
0.256126775062268
40
0.300647460170965
40
0.345191716241027
40
0.389662013353709
40
0.433993190235946
40
0.478680873337542
40
0.523574485112581
40
0.568529730195305
40
0.613406887630912
40
0.658080707114222
40
0.706335399685186
40
0.754747883534264
40
0.803181985056031
40
0.851466250207172
40
0.900949928588899
40
0.950499495530725
40
1
40
1
40
1
40
1
41
1
10
76.638783730025
20
-16.7495190528382
30
0
41
1
10
76.6405077418574
20
-16.7516028592069
30
0
41
1
10
76.6438686403983
20
-16.7557563539333
30
0
41
1
10
76.6486562157583
20
-16.7619453625827
30
0
41
1
10
76.6531408924967
20
-16.7680588011088
30
0
41
1
10
76.6570635059701
20
-16.7737456702873
30
0
41
1
10
76.6604451648416
20
-16.7789987037753
30
0
41
1
10
76.6633285084984
20
-16.7838229602639
30
0
41
1
10
76.665891284513
20
-16.7885069231893
30
0
41
1
10
76.6680989332699
20
-16.7930122271522
30
0
41
1
10
76.6699273096347
20
-16.7973192180084
30
0
41
1
10
76.6713316248305
20
-16.801391771559
30
0
41
1
10
76.6723017264398
20
-16.8052086892982
30
0
41
1
10
76.6728300684499
20
-16.8087359114163
30
0
41
1
10
76.6729067156355
20
-16.8119381701303
30
0
41
1
10
76.6725085049968
20
-16.8148610423606
30
0
41
1
10
76.6715803327271
20
-16.8174452261342
30
0
41
1
10
76.6701206930753
20
-16.8196698138648
30
0
41
1
10
76.6681848096825
20
-16.8214708039416
30
0
41
1
10
76.6657802317406
20
-16.8228588571985
30
0
41
1
10
76.6629221070272
20
-16.8238275693225
30
0
41
1
10
76.6596455460997
20
-16.8243958080716
30
0
41
1
10
76.6572307835193
20
-16.8245212502228
30
0
41
1
10
76.6559638169065
20
-16.8245190528383
30
0
0
SPLINE
5
CD
100
AcDbEntity
8
1
62
256
6
ByLayer
370
18
48
1
60
0
100
AcDbSpline
70
4
71
3
72
30
73
26
40
0
40
0
40
0
40
0
40
0.0501783836662614
40
0.100396355398293
40
0.150557085490661
40
0.191464542828229
40
0.232508916132961
40
0.273574496302577
40
0.314570546315932
40
0.355437342521353
40
0.396633714816384
40
0.438019817990734
40
0.479464891121855
40
0.520839992873533
40
0.562027095862926
40
0.60645311864082
40
0.651018369566859
40
0.695605819980665
40
0.740062206844632
40
0.789323094217789
40
0.838733875202901
40
0.888238979893851
40
0.937731226771608
40
0.987060657095475
40
1
40
1
40
1
40
1
41
1
10
77.539655190791
20
-16.8245190528383
30
0
41
1
10
77.5412347606695
20
-16.8245218431959
30
0
41
1
10
77.5442899453098
20
-16.824406866946
30
0
41
1
10
77.5485744196873
20
-16.8238845010823
30
0
41
1
10
77.5522642286967
20
-16.8230327975588
30
0
41
1
10
77.5553917669374
20
-16.8219030531352
30
0
41
1
10
77.5580083857914
20
-16.8205606448082
30
0
41
1
10
77.5603089697554
20
-16.8189205162996
30
0
41
1
10
77.5622598282056
20
-16.8169761354635
30
0
41
1
10
77.5638368749024
20
-16.8147148384516
30
0
41
1
10
77.5649955768028
20
-16.8121129432905
30
0
41
1
10
77.5657275872251
20
-16.8091806188241
30
0
41
1
10
77.5660285903623
20
-16.8059464738518
30
0
41
1
10
77.5658919687842
20
-16.8024369486669
30
0
41
1
10
77.5652921576203
20
-16.7985698616552
30
0
41
1
10
77.5641803458141
20
-16.7943354700079
30
0
41
1
10
77.5625600880886
20
-16.7897560490133
30
0
41
1
10
77.560492130929
20
-16.7849794460171
30
0
41
1
10
77.5579172325578
20
-16.779867202705
30
0
41
1
10
77.5548087918023
20
-16.7744287767251
30
0
41
1
10
77.5511703486906
20
-16.7686840166861
30
0
41
1
10
77.5471533387065
20
-16.7628503231538
30
0
41
1
10
77.542810556729
20
-16.7569693363314
30
0
41
1
10
77.5393180644585
20
-16.7525169732809
30
0
41
1
10
77.5373046960279
20
-16.7500349801931
30
0
41
1
10
77.5368832192739
20
-16.7495190528383
30
0
0
SPLINE
5
CE
100
AcDbEntity
8
1
62
256
6
ByLayer
370
18
48
1
60
0
100
AcDbSpline
70
4
71
3
72
32
73
28
40
0
40
0
40
0
40
0
40
0.0484784780346537
40
0.0969985781445927
40
0.145454158466795
40
0.180035786379112
40
0.214643615031127
40
0.249216769467746
40
0.285112151811079
40
0.32104953517518
40
0.35693588253028
40
0.393448351885069
40
0.430128742391866
40
0.466870109126817
40
0.503557428742542
40
0.540075736419841
40
0.579245425183559
40
0.618522807231539
40
0.657822374414145
40
0.697022395633145
40
0.73745419131067
40
0.777927111301169
40
0.81837135060187
40
0.859914018951693
40
0.901484603508586
40
0.943035789714923
40
1
40
1
40
1
40
1
41
1
10
78.7023692940958
20
-16.7495190528382
30
0
41
1
10
78.704001704172
20
-16.7514954251233
30
0
41
1
10
78.7071510140826
20
-16.7554509826847
30
0
41
1
10
78.7115466420232
20
-16.7613970642407
30
0
41
1
10
78.715161978274
20
-16.7667578707651
30
0
41
1
10
78.7180779356019
20
-16.7715150895277
30
0
41
1
10
78.7203946647074
20
-16.7756693371448
30
0
41
1
10
78.722458684705
20
-16.7798164130895
30
0
41
1
10
78.724227403085
20
-16.7839322244287
30
0
41
1
10
78.7256654407423
20
-16.7879886490922
30
0
41
1
10
78.7267383802317
20
-16.7919331476689
30
0
41
1
10
78.7273990707176
20
-16.7957309651251
30
0
41
1
10
78.7276381394018
20
-16.7993584235495
30
0
41
1
10
78.7274610006894
20
-16.8027748973691
30
0
41
1
10
78.7268717453853
20
-16.8059510225738
30
0
41
1
10
78.7258450073843
20
-16.8089332325508
30
0
41
1
10
78.7243504928444
20
-16.8116838031647
30
0
41
1
10
78.7224028493593
20
-16.8141945636043
30
0
41
1
10
78.7200716072341
20
-16.8164038018028
30
0
41
1
10
78.7173620785516
20
-16.8183345105566
30
0
41
1
10
78.7142924653725
20
-16.8199838679465
30
0
41
1
10
78.7108924780788
20
-16.8213637303894
30
0
41
1
10
78.7071924363399
20
-16.8224826002927
30
0
41
1
10
78.703215155861
20
-16.8233488171553
30
0
41
1
10
78.6989830763647
20
-16.8239732736478
30
0
41
1
10
78.694006851593
20
-16.8244114030254
30
0
41
1
10
78.69035442598
20
-16.8245227393159
30
0
41
1
10
78.6881883027935
20
-16.8245190528383
30
0
0
SPLINE
5
CF
100
AcDbEntity
8
1
62
256
6
ByLayer
370
18
48
1
60
0
100
AcDbSpline
70
4
71
3
72
31
73
27
40
0
40
0
40
0
40
0
40
0.0503288307080451
40
0.100675223148415
40
0.150993588975901
40
0.202414557202981
40
0.253869917993961
40
0.305264325166177
40
0.344148100397215
40
0.383114996790446
40
0.422051074325975
40
0.460892727844366
40
0.500178850773649
40
0.539634446011129
40
0.579052171393119
40
0.618286421486286
40
0.653573021047109
40
0.68900909127545
40
0.72445780107814
40
0.75976170827355
40
0.79982376116541
40
0.840029117343196
40
0.880278438540029
40
0.920400645916377
40
0.960197909576859
40
1
40
1
40
1
40
1
41
1
10
80.1941866741339
20
-16.8245190528383
30
0
41
1
10
80.1965031616344
20
-16.8245219259451
30
0
41
1
10
80.2010755936029
20
-16.824438550371
30
0
41
1
10
80.2077635672253
20
-16.8240584054446
30
0
41
1
10
80.21428581701
20
-16.8233814863432
30
0
41
1
10
80.2206042818959
20
-16.8223753413351
30
0
41
1
10
80.2266564407979
20
-16.8209903579058
30
0
41
1
10
80.2318739979357
20
-16.8193381475336
30
0
41
1
10
80.236298473275
20
-16.8174935585921
30
0
41
1
10
80.2399965065631
20
-16.8155421824463
30
0
41
1
10
80.2433468497283
20
-16.8132867410332
30
0
41
1
10
80.2463094380446
20
-16.8107022297019
30
0
41
1
10
80.2488081685856
20
-16.8077514255398
30
0
41
1
10
80.2507911284568
20
-16.8044315071447
30
0
41
1
10
80.2522051494479
20
-16.8007707131353
30
0
41
1
10
80.252967499682
20
-16.7969173041176
30
0
41
1
10
80.2530921167942
20
-16.7929181037168
30
0
41
1
10
80.2526807727455
20
-16.7888477372114
30
0
41
1
10
80.2517600732334
20
-16.7846081878109
30
0
41
1
10
80.2502794213035
20
-16.7800443878212
30
0
41
1
10
80.2481751697666
20
-16.7751706167834
30
0
41
1
10
80.2454502417026
20
-16.7700200744108
30
0
41
1
10
80.2422573584028
20
-16.7648386147084
30
0
41
1
10
80.2386675255517
20
-16.75967864676
30
0
41
1
10
80.2347329496283
20
-16.7545648197702
30
0
41
1
10
80.2319278629673
20
-16.7511965251095
30
0
41
1
10
80.2304739498806
20
-16.7495190528382
30
0
0
SPLINE
5
D0
100
AcDbEntity
8
1
62
256
6
ByLayer
370
18
48
1
60
0
100
AcDbSpline
70
4
71
3
72
33
73
29
40
0
40
0
40
0
40
0
40
0.0334614447195541
40
0.0669171612021637
40
0.0986267900977618
40
0.130449855621807
40
0.162223566050345
40
0.193865632178416
40
0.224523032903622
40
0.255268879311748
40
0.285909455425539
40
0.316552870353501
40
0.347299278073087
40
0.37796720268359
40
0.409289483326234
40
0.440721661344708
40
0.472196428516315
40
0.503576974334027
40
0.539052159971715
40
0.574566512096369
40
0.610059806700904
40
0.664569881711655
40
0.719091612680719
40
0.77520826687072
40
0.831384008251723
40
0.887608582579512
40
0.943838150219883
40
1
40
1
40
1
40
1
41
1
10
82.3350917212968
20
-16.7495190528382
30
0
41
1
10
82.3365745795791
20
-16.7510128907914
30
0
41
1
10
82.3394357730081
20
-16.7540312763252
30
0
41
1
10
82.3433745360834
20
-16.7585742895105
30
0
41
1
10
82.3468978450135
20
-16.7631233886222
30
0
41
1
10
82.3499716648367
20
-16.7676566104104
30
0
41
1
10
82.3525876635752
20
-16.772225125584
30
0
41
1
10
82.3546449269153
20
-16.7767419810409
30
0
41
1
10
82.3560678102034
20
-16.7811630108689
30
0
41
1
10
82.3568520105572
20
-16.7854380402346
30
0
41
1
10
82.3569806560565
20
-16.7895583913558
30
0
41
1
10
82.3564064278588
20
-16.7934543178993
30
0
41
1
10
82.3551979793327
20
-16.7970955368202
30
0
41
1
10
82.3533890741425
20
-16.8004794355975
30
0
41
1
10
82.3510106987506
20
-16.803576216938
30
0
41
1
10
82.3481394227935
20
-16.8063961352314
30
0
41
1
10
82.3448640651241
20
-16.8089288093895
30
0
41
1
10
82.3410926472123
20
-16.8112874862655
30
0
41
1
10
82.3368340987467
20
-16.8134546752007
30
0
41
1
10
82.3321037382057
20
-16.8154225448647
30
0
41
1
10
82.3262332738882
20
-16.8174376872853
30
0
41
1
10
82.3191195904192
20
-16.8193651226276
30
0
41
1
10
82.3106085628103
20
-16.8210930847784
30
0
41
1
10
82.3017151759342
20
-16.8224354238408
30
0
41
1
10
82.292482736192
20
-16.8234236518554
30
0
41
1
10
82.2830388056184
20
-16.8240818113934
30
0
41
1
10
82.2734255623641
20
-16.8244441990383
30
0
41
1
10
82.2669334370473
20
-16.8245230999205
30
0
41
1
10
82.2636658493568
20
-16.8245190528383
30
0
0
SPLINE
5
D1
100
AcDbEntity
8
1
62
256
6
ByLayer
370
18
48
1
60
0
100
AcDbSpline
70
4
71
3
72
39
73
35
40
0
40
0
40
0
40
0
40
0.0766231975596315
40
0.153252194997207
40
0.22986954629789
40
0.287702872277791
40
0.345557826588699
40
0.403397249251239
40
0.461209386752694
40
0.505343680966494
40
0.549489167292251
40
0.593600106935721
40
0.626689997170823
40
0.659769763171411
40
0.682380596583711
40
0.705008219892061
40
0.727585815484338
40
0.741989436661057
40
0.756410470373898
40
0.770794233632446
40
0.785391873183122
40
0.800039605558302
40
0.814608405331577
40
0.827137093063114
40
0.839717716324089
40
0.852256567331189
40
0.867350627069084
40
0.88250454869625
40
0.897630143043598
40
0.91747882871153
40
0.93739002550158
40
0.957339941286432
40
0.97724157274845
40
1
40
1
40
1
40
1
41
1
10
85.6356263680702
20
-16.8245190528383
30
0
41
1
10
85.6428707338765
20
-16.8245245288212
30
0
41
1
10
85.6573272677816
20
-16.8244224589277
30
0
41
1
10
85.6789251136917
20
-16.8239545625163
30
0
41
1
10
85.6986450803051
20
-16.8231690058719
30
0
41
1
10
85.7165041069014
20
-16.8221467348864
30
0
41
1
10
85.7325096418875
20
-16.8209354780173
30
0
41
1
10
85.7483658753251
20
-16.8193723347409
30
0
41
1
10
85.7627920074287
20
-16.8175524167545
30
0
41
1
10
85.7758017932397
20
-16.8155395255759
30
0
41
1
10
85.7873883531676
20
-16.8133557524086
30
0
41
1
10
85.7977503987592
20
-16.8109446287111
30
0
41
1
10
85.8068883815082
20
-16.8083630147478
30
0
41
1
10
85.8139634485085
20
-16.805929268268
30
0
41
1
10
85.8199176527352
20
-16.8034669645444
30
0
41
1
10
85.8247953121134
20
-16.8010582162064
30
0
41
1
10
85.8287500425485
20
-16.7986486373695
30
0
41
1
10
85.8318421043668
20
-16.7963337361788
30
0
41
1
10
85.8341750464925
20
-16.7942105800537
30
0
41
1
10
85.8361912455397
20
-16.7918885386166
30
0
41
1
10
85.8377899399248
20
-16.7893466229011
30
0
41
1
10
85.8388968165303
20
-16.7866023566643
30
0
41
1
10
85.8394118399817
20
-16.7838315169921
30
0
41
1
10
85.8393450711991
20
-16.7810988781832
30
0
41
1
10
85.8388353832277
20
-16.7784677772399
30
0
41
1
10
85.8378409574167
20
-16.7756570147406
30
0
41
1
10
85.8362887396623
20
-16.7727096288584
30
0
41
1
10
85.8341945041621
20
-16.769671547671
30
0
41
1
10
85.8314760959535
20
-16.7664319119807
30
0
41
1
10
85.8281004251566
20
-16.7630357935098
30
0
41
1
10
85.8240573214943
20
-16.7595250196588
30
0
41
1
10
85.8197247806432
20
-16.7561833712441
30
0
41
1
10
85.8149617912014
20
-16.7528396897237
30
0
41
1
10
85.8116024891482
20
-16.7506555851546
30
0
41
1
10
85.8097734431292
20
-16.7495190528382
30
0
0
SPLINE
5
D2
100
AcDbEntity
8
1
62
256
6
ByLayer
370
18
48
1
60
0
100
AcDbSpline
70
4
71
3
72
37
73
33
40
0
40
0
40
0
40
0
40
0.0323242644842433
40
0.064649174247104
40
0.0969743020576689
40
0.129299217383944
40
0.161623486534391
40
0.193969186399213
40
0.226315522695378
40
0.258662075417519
40
0.291008419796099
40
0.323354126439875
40
0.355763390822747
40
0.388173281689221
40
0.420583386921449
40
0.452993288253057
40
0.485402561413329
40
0.517832564728468
40
0.550263178808286
40
0.582694003118735
40
0.615124629759857
40
0.647554643610499
40
0.682786204103898
40
0.718018521152646
40
0.753251100995062
40
0.788483438109342
40
0.823715015432267
40
0.858971517018865
40
0.894228745762889
40
0.929486228675648
40
0.964743479714292
40
1
40
1
40
1
40
1
41
1
10
89.1429943719858
20
-16.4528389258673
30
0
41
1
10
89.1066971566781
20
-16.4515551752575
30
0
41
1
10
89.0341107845336
20
-16.4488251902628
30
0
41
1
10
88.9252556358318
20
-16.4442424481115
30
0
41
1
10
88.8164287727094
20
-16.4391730030064
30
0
41
1
10
88.7076342022887
20
-16.4336175830887
30
0
41
1
10
88.5988510655021
20
-16.4275756180133
30
0
41
1
10
88.4900812601081
20
-16.4210473773885
30
0
41
1
10
88.3813266562888
20
-16.4140335626274
30
0
41
1
10
88.2726143006271
20
-16.4065367273021
30
0
41
1
10
88.1639483936955
20
-16.3985580559498
30
0
41
1
10
88.0552607947851
20
-16.3900930968176
30
0
41
1
10
87.946553432597
20
-16.3811417227011
30
0
41
1
10
87.8378281730483
20
-16.3717042163219
30
0
41
1
10
87.7291590343757
20
-16.3617878780483
30
0
41
1
10
87.6205500821063
20
-16.35139425031
30
0
41
1
10
87.5119810572317
20
-16.3405224371223
30
0
41
1
10
87.4034537269386
20
-16.3291733685699
30
0
41
1
10
87.2949697624903
20
-16.3173483556552
30
0
41
1
10
87.1865550516594
20
-16.3050515659562
30
0
41
1
10
87.0782134692138
20
-16.2922848661556
30
0
41
1
10
86.9668301710688
20
-16.2786688801984
30
0
41
1
10
86.8524145214925
20
-16.2641569383851
30
0
41
1
10
86.7349769381976
20
-16.2487015904588
30
0
41
1
10
86.6176359548909
20
-16.232700567087
30
0
41
1
10
86.5003962449198
20
-16.2161566489759
30
0
41
1
10
86.3832334262162
20
-16.1990683744603
30
0
41
1
10
86.266149435148
20
-16.1814376478983
30
0
41
1
10
86.1491460115306
20
-16.1632667833858
30
0
41
1
10
86.0322538427022
20
-16.1445629477126
30
0
41
1
10
85.9154769788539
20
-16.1253289793205
30
0
41
1
10
85.8377050052039
20
-16.112155535583
30
0
41
1
10
85.7988389213915
20
-16.1054809471616
30
0
0
SPLINE
5
D3
100
AcDbEntity
8
1
62
256
6
ByLayer
370
18
48
1
60
0
100
AcDbSpline
70
4
71
3
72
36
73
32
40
0
40
0
40
0
40
0
40
0.0576496778501375
40
0.115374409449264
40
0.173092731526571
40
0.230756033556537
40
0.2883541271287
40
0.32611293872836
40
0.363910589484883
40
0.401689387917389
40
0.439422463006231
40
0.469917830186195
40
0.500521408883067
40
0.531120525670704
40
0.561644263133201
40
0.592072442725826
40
0.616248021785097
40
0.640498657390854
40
0.664731249424247
40
0.688882143802597
40
0.713174573766311
40
0.737567321541649
40
0.76196400497052
40
0.78626182373427
40
0.81639265615072
40
0.846605376042443
40
0.876765187475833
40
0.907520978846102
40
0.938348849155
40
0.969205236833909
40
1
40
1
40
1
40
1
41
1
10
97.7363341506431
20
-16.8245190528383
30
0
41
1
10
97.7329795841727
20
-16.8245234933105
30
0
41
1
10
97.7263158776311
20
-16.82444039541
30
0
41
1
10
97.7164521408769
20
-16.8240584451184
30
0
41
1
10
97.7067690041278
20
-16.8233622903951
30
0
41
1
10
97.6973129993081
20
-16.8223145483856
30
0
41
1
10
97.6891853269932
20
-16.8210389368156
30
0
41
1
10
97.6823224231891
20
-16.819648825967
30
0
41
1
10
97.6766547759884
20
-16.8182470132446
30
0
41
1
10
97.6711978647605
20
-16.8166003583743
30
0
41
1
10
97.6663263627096
20
-16.8148057889203
30
0
41
1
10
97.6620215083389
20
-16.8128960158966
30
0
41
1
10
97.6582619203086
20
-16.8109057409403
30
0
41
1
10
97.6547784285007
20
-16.8086766238297
30
0
41
1
10
97.6516302331088
20
-16.8061934142365
30
0
41
1
10
97.6490600676168
20
-16.8036293207586
30
0
41
1
10
97.6470351461316
20
-16.8010282566255
30
0
41
1
10
97.6454895678525
20
-16.7984475410403
30
0
41
1
10
97.6442915857146
20
-16.7956897204751
30
0
41
1
10
97.6434729941157
20
-16.7927584314902
30
0
41
1
10
97.6430800061586
20
-16.7896555944324
30
0
41
1
10
97.6431071300701
20
-16.7864078476083
30
0
41
1
10
97.6435442142628
20
-16.7830545261829
30
0
41
1
10
97.6444571348639
20
-16.7793522739848
30
0
41
1
10
97.6459589687193
20
-16.7753093092301
30
0
41
1
10
97.6480901568545
20
-16.7709618330439
30
0
41
1
10
97.6507043592907
20
-16.7665967328967
30
0
41
1
10
97.6537516187977
20
-16.7622446844631
30
0
41
1
10
97.6571738610336
20
-16.7579222219226
30
0
41
1
10
97.6609006822952
20
-16.7536724409333
30
0
41
1
10
97.663544433223
20
-16.7508937970785
30
0
41
1
10
97.6649082787032
20
-16.7495190528381
30
0
0
SPLINE
5
D4
100
AcDbEntity
8
1
62
256
6
ByLayer
370
18
48
1
60
0
100
AcDbSpline
70
4
71
3
72
33
73
29
40
0
40
0
40
0
40
0
40
0.0359806037311061
40
0.0719839077747009
40
0.107952365973582
40
0.142189032885575
40
0.176575609958469
40
0.210977839412387
40
0.245296320711648
40
0.279475633721286
40
0.311830188689605
40
0.344301016772177
40
0.376769733054997
40
0.409121397912337
40
0.441386157762098
40
0.47374847900748
40
0.506129372236823
40
0.538419531389148
40
0.576721458947181
40
0.615135309525825
40
0.653627790375941
40
0.692117597589402
40
0.730483426729447
40
0.77498252317953
40
0.8195152862294
40
0.86402726495649
40
0.932008857694461
40
1
40
1
40
1
40
1
41
1
10
99.7695260501193
20
-16.7495190528382
30
0
41
1
10
99.7682125583883
20
-16.751035250634
30
0
41
1
10
99.7656668676371
20
-16.7540801202595
30
0
41
1
10
99.7620805958222
20
-16.758686020086
30
0
41
1
10
99.7588240385252
20
-16.7632416052668
30
0
41
1
10
99.7559215015625
20
-16.7677369951914
30
0
41
1
10
99.7533899463392
20
-16.7721547529565
30
0
41
1
10
99.7512140107205
20
-16.77654356827
30
0
41
1
10
99.7494388695335
20
-16.78086410475
30
0
41
1
10
99.7481298651057
20
-16.785008436083
30
0
41
1
10
99.7473060212114
20
-16.7889505022267
30
0
41
1
10
99.7469349807296
20
-16.792677836011
30
0
41
1
10
99.7470020613252
20
-16.7962335353851
30
0
41
1
10
99.747513503242
20
-16.799582266582
30
0
41
1
10
99.7484740335974
20
-16.8026981734809
30
0
41
1
10
99.7498416412792
20
-16.8055831438704
30
0
41
1
10
99.7515852424966
20
-16.8082335855355
30
0
41
1
10
99.7538064998526
20
-16.8107926311956
30
0
41
1
10
99.7565539513724
20
-16.8132081610092
30
0
41
1
10
99.7598467387953
20
-16.8154454228014
30
0
41
1
10
99.7634851178467
20
-16.8173879149837
30
0
41
1
10
99.7674160520633
20
-16.8190519612352
30
0
41
1
10
99.7718208630447
20
-16.8205304664631
30
0
41
1
10
99.7767090274899
20
-16.8217981816273
30
0
41
1
10
99.7820851021393
20
-16.8228355555328
30
0
41
1
10
99.7886586670904
20
-16.8237433778404
30
0
41
1
10
99.7965332182293
20
-16.8243710847982
30
0
41
1
10
99.8026798755472
20
-16.8245260880454
30
0
41
1
10
99.805813325866
20
-16.8245190528383
30
0
0
SPLINE
5
D5
100
AcDbEntity
8
1
62
256
6
ByLayer
370
18
48
1
60
0
100
AcDbSpline
70
4
71
3
72
31
73
27
40
0
40
0
40
0
40
0
40
0.045273194097615
40
0.0905989394304805
40
0.135907985736438
40
0.181158380460562
40
0.221072397886435
40
0.261108236421786
40
0.301155038309507
40
0.341132642644359
40
0.380997674984901
40
0.421762097349256
40
0.462665088699618
40
0.503547680092375
40
0.544284187173984
40
0.585129308007142
40
0.626130796315382
40
0.667144947017789
40
0.70800739985418
40
0.747590341724252
40
0.787274212380283
40
0.826981099816996
40
0.866595504856416
40
0.911042452550894
40
0.955537210088551
40
1
40
1
40
1
40
1
41
1
10
101.311811697206
20
-16.8245190528383
30
0
41
1
10
101.31009134248
20
-16.8245212437837
30
0
41
1
10
101.30671590363
20
-16.8244404270617
30
0
41
1
10
101.30184133262
20
-16.824073093685
30
0
41
1
10
101.297195529836
20
-16.8234306604368
30
0
41
1
10
101.292980958192
20
-16.8225318316974
30
0
41
1
10
101.289195189785
20
-16.8213911356566
30
0
41
1
10
101.285827481705
20
-16.8200322873167
30
0
41
1
10
101.282747927966
20
-16.8183941227163
30
0
41
1
10
101.279997738583
20
-16.8164644783998
30
0
41
1
10
101.277595355652
20
-16.8142143861167
30
0
41
1
10
101.275597842857
20
-16.8116125926678
30
0
41
1
10
101.274040089779
20
-16.8086557818107
30
0
41
1
10
101.272962566109
20
-16.805376744387
30
0
41
1
10
101.272396764044
20
-16.8017841554782
30
0
41
1
10
101.272383693467
20
-16.7978805592211
30
0
41
1
10
101.272900833576
20
-16.7937056349833
30
0
41
1
10
101.273926496359
20
-16.7893071720893
30
0
41
1
10
101.275431568237
20
-16.784772033163
30
0
41
1
10
101.277383642629
20
-16.7801376998109
30
0
41
1
10
101.279716005613
20
-16.775442574663
30
0
41
1
10
101.282411422537
20
-16.7706703349862
30
0
41
1
10
101.285557510168
20
-16.7656544343681
30
0
41
1
10
101.289166220521
20
-16.7604113999192
30
0
41
1
10
101.293237508896
20
-16.7549585669363
30
0
41
1
10
101.2961343567
20
-16.7513312612786
30
0
41
1
10
101.297630705904
20
-16.7495190528382
30
0
0
SPLINE
5
D6
100
AcDbEntity
8
1
62
256
6
ByLayer
370
18
48
1
60
0
100
AcDbSpline
70
4
71
3
72
30
73
26
40
0
40
0
40
0
40
0
40
0.0449269067971684
40
0.0899181486119494
40
0.134891963924086
40
0.179795071584741
40
0.220477792972983
40
0.261296974256274
40
0.302137624677395
40
0.342909284464213
40
0.383552019051253
40
0.424512593461295
40
0.465659891896725
40
0.506866122470965
40
0.548004327069052
40
0.588957239750729
40
0.633329880112384
40
0.677840259097176
40
0.72237288708298
40
0.766775958341025
40
0.813304368383722
40
0.859960802229998
40
0.906695303866699
40
0.95341683555914
40
1
40
1
40
1
40
1
41
1
10
102.463116780726
20
-16.7495190528382
30
0
41
1
10
102.461651068651
20
-16.751311911117
30
0
41
1
10
102.458795683171
20
-16.7548937313776
30
0
41
1
10
102.454733916237
20
-16.7602550278941
30
0
41
1
10
102.450933197083
20
-16.7655811984907
30
0
41
1
10
102.447532661819
20
-16.770686717144
30
0
41
1
10
102.444535967171
20
-16.7755594770446
30
0
41
1
10
102.441931769817
20
-16.7801906785585
30
0
41
1
10
102.439643993272
20
-16.784718587116
30
0
41
1
10
102.4377057156
20
-16.789107515151
30
0
41
1
10
102.436140805939
20
-16.7933395581427
30
0
41
1
10
102.434992749825
20
-16.7973826588978
30
0
41
1
10
102.434268570604
20
-16.801217043901
30
0
41
1
10
102.433971660218
20
-16.8048098255906
30
0
41
1
10
102.434107602743
20
-16.8081272970552
30
0
41
1
10
102.434701725615
20
-16.8112248138474
30
0
41
1
10
102.435803691571
20
-16.8140501042389
30
0
41
1
10
102.437411883413
20
-16.8165840027758
30
0
41
1
10
102.439464023132
20
-16.8187517116786
30
0
41
1
10
102.441968989781
20
-16.8205813725487
30
0
41
1
10
102.444923354108
20
-16.8220569997791
30
0
41
1
10
102.448302153235
20
-16.8231868175598
30
0
41
1
10
102.452019386064
20
-16.8239686865639
30
0
41
1
10
102.456033778808
20
-16.8244211221734
30
0
41
1
10
102.458879262724
20
-16.8245209216044
30
0
41
1
10
102.460344809209
20
-16.8245190528383
30
0
0
SPLINE
5
D7
100
AcDbEntity
8
1
62
256
6
ByLayer
370
18
48
1
60
0
100
AcDbSpline
70
4
71
3
72
28
73
24
40
0
40
0
40
0
40
0
40
0.0459300816642616
40
0.0918992094503322
40
0.137816903468229
40
0.183790741246776
40
0.229968727235308
40
0.276191221364567
40
0.322321275608571
40
0.36825473728275
40
0.409131788986967
40
0.450163183054023
40
0.491255189695918
40
0.532301991671795
40
0.573192015308836
40
0.621434732835364
40
0.669807354168432
40
0.718205220108047
40
0.76648245145423
40
0.824772992476128
40
0.883197931698299
40
0.941659458110001
40
1
40
1
40
1
40
1
41
1
10
103.344036183093
20
-16.8245190528383
30
0
41
1
10
103.342861092864
20
-16.8245208509901
30
0
41
1
10
103.340612658535
20
-16.8244132219441
30
0
41
1
10
103.337536127978
20
-16.8239252833679
30
0
41
1
10
103.334792875068
20
-16.8230889615884
30
0
41
1
10
103.332424296265
20
-16.8218730242015
30
0
41
1
10
103.330455764637
20
-16.8202693139584
30
0
41
1
10
103.328907047345
20
-16.8182816742258
30
0
41
1
10
103.327807716081
20
-16.8159128433208
30
0
41
1
10
103.327208175488
20
-16.8132616934241
30
0
41
1
10
103.327077205161
20
-16.8103691316543
30
0
41
1
10
103.327339353401
20
-16.8073030638621
30
0
41
1
10
103.327979224292
20
-16.8039723610995
30
0
41
1
10
103.328986251149
20
-16.800405881235
30
0
41
1
10
103.33043720664
20
-16.7963963778712
30
0
41
1
10
103.332403687269
20
-16.7919134693064
30
0
41
1
10
103.334919254141
20
-16.7869555830564
30
0
41
1
10
103.337839923995
20
-16.7818044052768
30
0
41
1
10
103.341356916184
20
-16.7761319313062
30
0
41
1
10
103.34552909648
20
-16.76993074829
30
0
41
1
10
103.350384535421
20
-16.7632131188097
30
0
41
1
10
103.355617835038
20
-16.7563964820044
30
0
41
1
10
103.359314412942
20
-16.7518174417209
30
0
41
1
10
103.361216269975
20
-16.7495190528382
30
0
0
SPLINE
5
D8
100
AcDbEntity
8
1
62
256
6
ByLayer
370
18
48
1
60
0
100
AcDbSpline
70
4
71
3
72
28
73
24
40
0
40
0
40
0
40
0
40
0.0604571702167816
40
0.121026808754899
40
0.181565383734972
40
0.241980111737896
40
0.289438675537506
40
0.33705245583758
40
0.384690834105953
40
0.432250947289108
40
0.479664356715322
40
0.518848923157983
40
0.558070225076461
40
0.597250295340719
40
0.637987919257229
40
0.678772999169163
40
0.719509643254693
40
0.770693203676083
40
0.822054346367962
40
0.873435249556198
40
0.92464584765933
40
0.962322209858028
40
1
40
1
40
1
40
1
41
1
10
104.043322987672
20
-16.7495190528383
30
0
41
1
10
104.041318218158
20
-16.7518811500415
30
0
41
1
10
104.037403782007
20
-16.7565783721793
30
0
41
1
10
104.031809361361
20
-16.7635454729937
30
0
41
1
10
104.026550706788
20
-16.7703877366682
30
0
41
1
10
104.022021636808
20
-16.7765893599252
30
0
41
1
10
104.018177240575
20
-16.7821546273042
30
0
41
1
10
104.014945960583
20
-16.7871092552152
30
0
41
1
10
104.012034317527
20
-16.7918883908771
30
0
41
1
10
104.009478083393
20
-16.7964519186738
30
0
41
1
10
104.007436294078
20
-16.8005154470211
30
0
41
1
10
104.005860888517
20
-16.8040981822964
30
0
41
1
10
104.004682402006
20
-16.8072399523898
30
0
41
1
10
104.003798825123
20
-16.8101954954525
30
0
41
1
10
104.003240199915
20
-16.812932610836
30
0
41
1
10
104.003022537864
20
-16.8154276323662
30
0
41
1
10
104.003165012161
20
-16.8178222081276
30
0
41
1
10
104.00379464534
20
-16.8199988110739
30
0
41
1
10
104.005010493673
20
-16.821850710585
30
0
41
1
10
104.006734445062
20
-16.8232252533769
30
0
41
1
10
104.008749150244
20
-16.8240422588172
30
0
41
1
10
104.010898508325
20
-16.824440705248
30
0
41
1
10
104.012326985988
20
-16.8245199857728
30
0
41
1
10
104.013079980755
20
-16.8245190528383
30
0
0
SPLINE
5
D9
100
AcDbEntity
8
1
62
256
6
ByLayer
370
18
48
1
60
0
100
AcDbSpline
70
4
71
3
72
28
73
24
40
0
40
0
40
0
40
0
40
0.0444630981761018
40
0.0889759604657227
40
0.133432106058098
40
0.176538097203576
40
0.219804297172692
40
0.263126173375147
40
0.306394710566164
40
0.349502669256033
40
0.401029898437015
40
0.452713364096557
40
0.504419686018124
40
0.555978174763553
40
0.602279826306906
40
0.648625382617094
40
0.694936323507863
40
0.742559107970351
40
0.790216857968258
40
0.837847415328367
40
0.891883168370689
40
0.945955715260968
40
1
40
1
40
1
40
1
41
1
10
104.497224542593
20
-16.8245190528383
30
0
41
1
10
104.49657959726
20
-16.8245196185132
30
0
41
1
10
104.495408150502
20
-16.8243997600037
30
0
41
1
10
104.494002219806
20
-16.8238595056347
30
0
41
1
10
104.492977972232
20
-16.8229602777925
30
0
41
1
10
104.492348172767
20
-16.8216970397509
30
0
41
1
10
104.492099789764
20
-16.820090764622
30
0
41
1
10
104.492221347424
20
-16.8181429968357
30
0
41
1
10
104.492711547919
20
-16.8158684820964
30
0
41
1
10
104.493627647846
20
-16.8131075018945
30
0
41
1
10
104.495060466769
20
-16.8097900363107
30
0
41
1
10
104.497062095317
20
-16.8058851731396
30
0
41
1
10
104.499515413826
20
-16.8016275148696
30
0
41
1
10
104.50229259625
20
-16.7972113310117
30
0
41
1
10
104.505319795218
20
-16.7927031572718
30
0
41
1
10
104.508522341066
20
-16.788162869368
30
0
41
1
10
104.512020195225
20
-16.7834053476656
30
0
41
1
10
104.515798915789
20
-16.7784479497474
30
0
41
1
10
104.519841263526
20
-16.7733088788902
30
0
41
1
10
104.524280901133
20
-16.7678184907234
30
0
41
1
10
104.529128281715
20
-16.761978712716
30
0
41
1
10
104.534390170592
20
-16.7557946225401
30
0
41
1
10
104.538020415211
20
-16.7516200799759
30
0
41
1
10
104.53986729166
20
-16.7495190528382
30
0
0
SPLINE
5
DA
100
AcDbEntity
8
1
62
256
6
ByLayer
370
18
48
1
60
0
100
AcDbSpline
70
4
71
3
72
28
73
24
40
0
40
0
40
0
40
0
40
0.0598055375149487
40
0.119748818486168
40
0.179710697263221
40
0.239600530441207
40
0.299361140685159
40
0.342445431601178
40
0.385552651963389
40
0.428631344862364
40
0.472785566975773
40
0.516972570322017
40
0.561119112515877
40
0.605070716841549
40
0.649171542686964
40
0.69330747451865
40
0.737378707846238
40
0.781305409676041
40
0.824932835192904
40
0.868723158297353
40
0.912571829829775
40
0.956367811131443
40
1
40
1
40
1
40
1
41
1
10
104.86945060122
20
-16.7495190528383
30
0
41
1
10
104.867320541081
20
-16.7518402326724
30
0
41
1
10
104.863122217165
20
-16.7564468945443
30
0
41
1
10
104.857010039567
20
-16.7632480838997
30
0
41
1
10
104.851119920663
20
-16.7699065665611
30
0
41
1
10
104.845489153755
20
-16.7763858445109
30
0
41
1
10
104.840649478352
20
-16.7820695955027
30
0
41
1
10
104.836539841333
20
-16.786995369306
30
0
41
1
10
104.833086087302
20
-16.7912159560722
30
0
41
1
10
104.829808847293
20
-16.7953107515134
30
0
41
1
10
104.826734098827
20
-16.7992551853141
30
0
41
1
10
104.823888126369
20
-16.80302315975
30
0
41
1
10
104.821319237984
20
-16.8065563543992
30
0
41
1
10
104.819054109186
20
-16.809828120228
30
0
41
1
10
104.817107029822
20
-16.8128212700985
30
0
41
1
10
104.81548875308
20
-16.8155220673572
30
0
41
1
10
104.814220450401
20
-16.8179030689238
30
0
41
1
10
104.813322649749
20
-16.8199365546745
30
0
41
1
10
104.812816166086
20
-16.8215986757972
30
0
41
1
10
104.812690575576
20
-16.8228947679318
30
0
41
1
10
104.812939252701
20
-16.8238273326823
30
0
41
1
10
104.813558238198
20
-16.8243921411486
30
0
41
1
10
104.814217885013
20
-16.8245180129634
30
0
41
1
10
104.814608612099
20
-16.8245190528383
30
0
0
SPLINE
5
DB
100
AcDbEntity
8
1
62
256
6
ByLayer
370
18
48
1
60
0
100
AcDbSpline
70
4
71
3
72
28
73
24
40
0
40
0
40
0
40
0
40
0.0466132905205023
40
0.0932955292174724
40
0.139910012504003
40
0.182863717934007
40
0.225953694999357
40
0.269104745873434
40
0.312222813502121
40
0.35520015470434
40
0.399493222138022
40
0.443827540302546
40
0.48812843622896
40
0.533693235594726
40
0.579292065030097
40
0.624863803586925
40
0.685006490716136
40
0.745206861570584
40
0.805363685223822
40
0.867191061211068
40
0.929062266109085
40
0.990899053057311
40
1
40
1
40
1
40
1
41
1
10
104.975838448014
20
-16.8245190528383
30
0
41
1
10
104.97568480249
20
-16.8245180002901
30
0
41
1
10
104.975523426673
20
-16.824369111695
30
0
41
1
10
104.975722193363
20
-16.8237018399966
30
0
41
1
10
104.976338803546
20
-16.8226296399443
30
0
41
1
10
104.97734080236
20
-16.8211870831732
30
0
41
1
10
104.978672372957
20
-16.8194314498964
30
0
41
1
10
104.98034144939
20
-16.8173445749659
30
0
41
1
10
104.982327639494
20
-16.8149494217986
30
0
41
1
10
104.984640116333
20
-16.8122345876937
30
0
41
1
10
104.98727403346
20
-16.8092065629385
30
0
41
1
10
104.990211229211
20
-16.8058844210024
30
0
41
1
10
104.993435654638
20
-16.8022855628382
30
0
41
1
10
104.996935333072
20
-16.7984232719189
30
0
41
1
10
105.000694854899
20
-16.7943138649245
30
0
41
1
10
105.005083795238
20
-16.7895559952478
30
0
41
1
10
105.01016193715
20
-16.7840969402859
30
0
41
1
10
105.015973226407
20
-16.7779006182911
30
0
41
1
10
105.022092889517
20
-16.7714219058564
30
0
41
1
10
105.028497032976
20
-16.7646855982574
30
0
41
1
10
105.035162566128
20
-16.7577152712426
30
0
41
1
10
105.040060931813
20
-16.7526201794659
30
0
41
1
10
105.042710430704
20
-16.7498720994842
30
0
41
1
10
105.043050937398
20
-16.7495190528382
30
0
0
SPLINE
5
DC
100
AcDbEntity
8
1
62
256
6
ByLayer
370
18
48
1
60
0
100
AcDbSpline
70
4
71
3
72
92
73
88
40
0
40
0
40
0
40
0
40
0.0115001420836417
40
0.0230009352297524
40
0.0345019456876798
40
0.0460027392617105
40
0.0575028817042742
40
0.0690030182808168
40
0.0805038046069888
40
0.0920048082584762
40
0.103505595868974
40
0.115005733522756
40
0.126505858573635
40
0.138006630815698
40
0.149507619982064
40
0.161008394366368
40
0.172508521214068
40
0.184228024779749
40
0.195948209210468
40
0.207668622378096
40
0.219388810055458
40
0.231108316344294
40
0.242970992947116
40
0.254834369950964
40
0.266697982819536
40
0.278561364231388
40
0.29042404453147
40
0.302286687237527
40
0.314150023127413
40
0.326013593005282
40
0.337876934308494
40
0.349739581555025
40
0.361602183315062
40
0.373465469583997
40
0.38532898747576
40
0.39719228015892
40
0.409054887298938
40
0.421151714155351
40
0.433249256022596
40
0.445347040531277
40
0.45744459041633
40
0.469541423997757
40
0.481041344820809
40
0.49254186951266
40
0.504042599455641
40
0.515543131550301
40
0.52704305858249
40
0.538542925044517
40
0.550043383963329
40
0.561544044754387
40
0.573044511885095
40
0.584544385234878
40
0.596044191745208
40
0.607544578149955
40
0.6190451626475
40
0.630545558041048
40
0.642045372090759
40
0.653745118981779
40
0.665445462025953
40
0.677146009342638
40
0.68884636281137
40
0.70054611844602
40
0.712366363665416
40
0.724187207319402
40
0.736008256647487
40
0.747829111940211
40
0.759649366921629
40
0.771469528310276
40
0.783290270643704
40
0.795111213192197
40
0.806931967872236
40
0.818752139616621
40
0.830572212451575
40
0.842392847781448
40
0.854213677502104
40
0.866034325800884
40
0.877854409513507
40
0.889870524258985
40
0.901887209524987
40
0.913904092623006
40
0.925920792306982
40
0.937936919145536
40
0.950349124025475
40
0.962761933796316
40
0.97517495419433
40
0.987587780908681
40
1
40
1
40
1
40
1
41
1
10
46.8038475772934
20
-15.4999999999999
30
0
41
1
10
46.7828514348774
20
-15.5000000318055
30
0
41
1
10
46.7408597921332
20
-15.5001323240445
30
0
41
1
10
46.6778746236179
20
-15.5007275867507
30
0
41
1
10
46.6148981704114
20
-15.5017193507521
30
0
41
1
10
46.5519370600725
20
-15.5031074272457
30
0
41
1
10
46.4889965848665
20
-15.504891645325
30
0
41
1
10
46.4260798866422
20
-15.5070719680715
30
0
41
1
10
46.3631901219902
20
-15.5096478074323
30
0
41
1
10
46.3003323974807
20
-15.5126185775291
30
0
41
1
10
46.2375138052338
20
-15.5159836232976
30
0
41
1
10
46.1747394865008
20
-15.5197424069814
30
0
41
1
10
46.1120126026805
20
-15.5238945757497
30
0
41
1
10
46.0493362535475
20
-15.5284392333904
30
0
41
1
10
45.9867154795447
20
-15.5333754251712
30
0
41
1
10
45.9241572987757
20
-15.5387020655291
30
0
41
1
10
45.8612694266699
20
-15.5444545927249
30
0
41
1
10
45.798056487114
20
-15.5506410599814
30
0
41
1
10
45.7345233704367
20
-15.5572689650695
30
0
41
1
10
45.6710722343615
20
-15.5642980635443
30
0
41
1
10
45.607710392315
20
-15.5717267550981
30
0
41
1
10
45.5441854821777
20
-15.579585563409
30
0
41
1
10
45.4805020907493
20
-15.5878791540739
30
0
41
1
10
45.4166649069887
20
-15.5966115812972
30
0
41
1
10
45.3529364888997
20
-15.6057474957474
30
0
41
1
10
45.2893242588446
20
-15.615284775105
30
0
41
1
10
45.2258336126419
20
-15.6252216153247
30
0
41
1
10
45.1624678225095
20
-15.6355566141525
30
0
41
1
10
45.0992299871883
20
-15.6462877948297
30
0
41
1
10
45.0361252112333
20
-15.657412934189
30
0
41
1
10
44.9731607116314
20
-15.6689294628697
30
0
41
1
10
44.9103417341318
20
-15.6808351870245
30
0
41
1
10
44.8476714335631
20
-15.6931283759293
30
0
41
1
10
44.7851527577207
20
-15.70580674648
30
0
41
1
10
44.7227906036922
20
-15.7188677138148
30
0
41
1
10
44.660591942902
20
-15.73230828486
30
0
41
1
10
44.5981535076697
20
-15.7462168497774
30
0
41
1
10
44.5354821974391
20
-15.7606000794207
30
0
41
1
10
44.4725850494392
20
-15.7754639908251
30
0
41
1
10
44.4098741948033
20
-15.7907120263235
30
0
41
1
10
44.3473567279749
20
-15.8063405835691
30
0
41
1
10
44.2860626800654
20
-15.8220833374475
30
0
41
1
10
44.2259838411156
20
-15.8379164524336
30
0
41
1
10
44.167111150577
20
-15.8538165610604
30
0
41
1
10
44.1084269316151
20
-15.8700499711006
30
0
41
1
10
44.0499369829212
20
-15.8866132561949
30
0
41
1
10
43.9916454931702
20
-15.9035034608216
30
0
41
1
10
43.9335548774978
20
-15.9207181945828
30
0
41
1
10
43.8756672890427
20
-15.9382546589236
30
0
41
1
10
43.8179864696582
20
-15.9561096546651
30
0
41
1
10
43.7605179093778
20
-15.974279461912
30
0
41
1
10
43.703265553005
20
-15.9927608624675
30
0
41
1
10
43.6462316270929
20
-16.0115512417414
30
0
41
1
10
43.589418074398
20
-16.0306476092394
30
0
41
1
10
43.532828356248
20
-16.0500465435865
30
0
41
1
10
43.4764676236602
20
-16.0697440642167
30
0
41
1
10
43.4200141683364
20
-16.0898526184434
30
0
41
1
10
43.3634747350973
20
-16.1103753775034
30
0
41
1
10
43.3068560136686
20
-16.1313150013129
30
0
41
1
10
43.2504853521125
20
-16.1525500680943
30
0
41
1
10
43.1943677922505
20
-16.1740761457987
30
0
41
1
10
43.1383150161864
20
-16.1959643100847
30
0
41
1
10
43.0823319974936
20
-16.2182148500387
30
0
41
1
10
43.0264235024374
20
-16.2408276059913
30
0
41
1
10
42.9707836124989
20
-16.2637225615428
30
0
41
1
10
42.9154171037394
20
-16.2868949371013
30
0
41
1
10
42.8603273245379
20
-16.3103405646377
30
0
41
1
10
42.8055159633816
20
-16.3340560270289
30
0
41
1
10
42.7509843408052
20
-16.3580376126083
30
0
41
1
10
42.6967351719883
20
-16.3822810807374
30
0
41
1
10
42.6427727900413
20
-16.4067814864108
30
0
41
1
10
42.5891001889284
20
-16.43153450676
30
0
41
1
10
42.5357187811846
20
-16.4565365892554
30
0
41
1
10
42.4826296028584
20
-16.4817839321863
30
0
41
1
10
42.4298349971976
20
-16.5072721942689
30
0
41
1
10
42.3773388429386
20
-16.5329963108511
30
0
41
1
10
42.3248550769575
20
-16.5590954028037
30
0
41
1
10
42.2723906552848
20
-16.5855702748102
30
0
41
1
10
42.2199523327006
20
-16.6124213115782
30
0
41
1
10
42.1678291860647
20
-16.6394990515619
30
0
41
1
10
42.1160248041174
20
-16.6667980941931
30
0
41
1
10
42.0639757343258
20
-16.694616103201
30
0
41
1
10
42.0116952642
20
-16.7229574760349
30
0
41
1
10
41.9591966806385
20
-16.7518260762298
30
0
41
1
10
41.9070440947163
20
-16.7809118452749
30
0
41
1
10
41.8552407330252
20
-16.8102093159063
30
0
41
1
10
41.8209394654213
20
-16.8298775159282
30
0
41
1
10
41.8038475772933
20
-16.8397459621555
30
0
0
SPLINE
5
DD
100
AcDbEntity
8
1
62
256
6
ByLayer
370
18
48
1
60
0
100
AcDbSpline
70
4
71
3
72
101
73
97
40
0
40
0
40
0
40
0
40
0.012015723861042
40
0.024032091938735
40
0.0360486545837021
40
0.0480649841623511
40
0.060080675732148
40
0.0720966795080487
40
0.0841133860982162
40
0.0961303050757775
40
0.108146969888398
40
0.120162938623026
40
0.132269970787203
40
0.144377786835324
40
0.156485839909759
40
0.168593609613196
40
0.180700602905131
40
0.192946291938941
40
0.205192864801759
40
0.217439705198641
40
0.229686226334224
40
0.241931871980784
40
0.254177932826875
40
0.266424955027748
40
0.278672269139596
40
0.290919236791742
40
0.303165251883709
40
0.313474366075348
40
0.323784315243814
40
0.334094661957195
40
0.344404984768208
40
0.354714878775151
40
0.365023956189498
40
0.376288540514515
40
0.387553698651597
40
0.398818842059376
40
0.410083406297953
40
0.421348143975206
40
0.432613487757229
40
0.443878816701818
40
0.455143534145114
40
0.466408425591911
40
0.477673955527187
40
0.488939470681585
40
0.500204341971496
40
0.511666256183414
40
0.523128877002732
40
0.534591482242225
40
0.546053375207611
40
0.555346368767225
40
0.564639957883381
40
0.573933735916436
40
0.583227306657392
40
0.592520284804562
40
0.601813404944357
40
0.611107146653316
40
0.620401086426703
40
0.629694810656679
40
0.6389879161357
40
0.648281155676732
40
0.65757504125206
40
0.666869133684229
40
0.676163002982273
40
0.685456228870438
40
0.694959156235763
40
0.704462798646989
40
0.713966671012324
40
0.72347029729542
40
0.732973211132909
40
0.743947373234738
40
0.754922288352913
40
0.765897194515041
40
0.776871344403234
40
0.787845593601916
40
0.798820614184097
40
0.809795627154285
40
0.820769865972237
40
0.831842990468848
40
0.842916923134938
40
0.853990849464145
40
0.865063965318916
40
0.874029717557311
40
0.882996124217487
40
0.891962746143975
40
0.900929147185945
40
0.909894894711947
40
0.918860680065002
40
0.927827126249174
40
0.93679379099039
40
0.945760233745147
40
0.954726016221702
40
0.963780357615622
40
0.972835382877416
40
0.981890635553866
40
0.990945659614003
40
1
40
1
40
1
40
1
41
1
10
35.7416697508023
20
-9.6200173697855
30
0
41
1
10
35.7558247002734
20
-9.63729716603696
30
0
41
1
10
35.7842888550851
20
-9.67173239185312
30
0
41
1
10
35.8274454189201
20
-9.72301267841659
30
0
41
1
10
35.8710648219145
20
-9.7739127074643
30
0
41
1
10
35.9151470229289
20
-9.82442546199044
30
0
41
1
10
35.9596938454237
20
-9.87454504649764
30
0
41
1
10
36.0047080961391
20
-9.92426670338667
30
0
41
1
10
36.0501921106553
20
-9.97358577293844
30
0
41
1
10
36.0961464033477
20
-10.0224955241704
30
0
41
1
10
36.1425703727298
20
-10.0709879665273
30
0
41
1
10
36.1895833113858
20
-10.1191780301697
30
0
41
1
10
36.237191895335
20
-10.1670568828289
30
0
41
1
10
36.285402207215
20
-10.2146157381143
30
0
41
1
10
36.3340948306975
20
-10.2617275252688
30
0
41
1
10
36.3832682406777
20
-10.308383708287
30
0
41
1
10
36.4331121977936
20
-10.354753732109
30
0
41
1
10
36.4836352852017
20
-10.4008259324939
30
0
41
1
10
36.5348453373085
20
-10.4465886699504
30
0
41
1
10
36.5865502980874
20
-10.491860138638
30
0
41
1
10
36.6387474750768
20
-10.5366311857355
30
0
41
1
10
36.6914367648764
20
-10.5808948600098
30
0
41
1
10
36.7446197219626
20
-10.6246452905417
30
0
41
1
10
36.7982970194783
20
-10.6678770520313
30
0
41
1
10
36.8524664697196
20
-10.7105822535733
30
0
41
1
10
36.9071240814458
20
-10.7527514944081
30
0
41
1
10
36.9593609673139
20
-10.7921826337841
30
0
41
1
10
37.0090916595075
20
-10.8289661478228
30
0
41
1
10
37.056237369102
20
-10.8631895346918
30
0
41
1
10
37.1037276320947
20
-10.8970163773185
30
0
41
1
10
37.1515592135737
20
-10.9304409997202
30
0
41
1
10
37.1997288645021
20
-10.9634577334489
30
0
41
1
10
37.249733780918
20
-10.9970694109549
30
0
41
1
10
37.3016115240787
20
-11.0312265202478
30
0
41
1
10
37.3553995847418
20
-11.0658766391498
30
0
41
1
10
37.4095850893138
20
-11.1000197107373
30
0
41
1
10
37.4641648003924
20
-11.1336496170127
30
0
41
1
10
37.5191371151913
20
-11.1667610558541
30
0
41
1
10
37.5744997561337
20
-11.1993492128824
30
0
41
1
10
37.6302481985859
20
-11.2314078027369
30
0
41
1
10
37.6863784197844
20
-11.2629307507091
30
0
41
1
10
37.7428881656244
20
-11.2939127932191
30
0
41
1
10
37.7997744810382
20
-11.324349225817
30
0
41
1
10
37.857031994572
20
-11.3542338944316
30
0
41
1
10
37.9149915197334
20
-11.383731670277
30
0
41
1
10
37.9736576493298
20
-11.4128258733294
30
0
41
1
10
38.0330339518359
20
-11.4415000584827
30
0
41
1
10
38.0927760337015
20
-11.4695804284262
30
0
41
1
10
38.1490867485207
20
-11.4953274638246
30
0
41
1
10
38.2018875298589
20
-11.5188620697098
30
0
41
1
10
38.2511091791813
20
-11.5402979256734
30
0
41
1
10
38.3005593197085
20
-11.5613307913226
30
0
41
1
10
38.3502326973113
20
-11.5819569248544
30
0
41
1
10
38.4001260231646
20
-11.6021733862237
30
0
41
1
10
38.4502375718084
20
-11.621977747912
30
0
41
1
10
38.5005651999386
20
-11.6413680425602
30
0
41
1
10
38.5511046842532
20
-11.6603414024362
30
0
41
1
10
38.6018501635866
20
-11.6788943071651
30
0
41
1
10
38.652797867368
20
-11.6970239852399
30
0
41
1
10
38.7039457057378
20
-11.7147281407385
30
0
41
1
10
38.7552911859399
20
-11.7320049844266
30
0
41
1
10
38.8068296310446
20
-11.7488518878296
30
0
41
1
10
38.8585546073151
20
-11.7652656084695
30
0
41
1
10
38.9108520505611
20
-11.7813636902339
30
0
41
1
10
38.9637243839545
20
-11.7971324262321
30
0
41
1
10
39.0171732867209
20
-11.8125583837661
30
0
41
1
10
39.0708017687408
20
-11.8275222858622
30
0
41
1
10
39.1246023744563
20
-11.8420210259604
30
0
41
1
10
39.1813548358536
20
-11.8567761317624
30
0
41
1
10
39.2410872730609
20
-11.8716970253925
30
0
41
1
10
39.3038257567698
20
-11.8866868795755
30
0
41
1
10
39.3667668177259
20
-11.9010442816014
30
0
41
1
10
39.4299011917145
20
-11.9147657141622
30
0
41
1
10
39.4932223403143
20
-11.9278480630641
30
0
41
1
10
39.5567232462772
20
-11.9402891900547
30
0
41
1
10
39.6203937587248
20
-11.9520861491262
30
0
41
1
10
39.6844155835902
20
-11.9632694189997
30
0
41
1
10
39.7487833732659
20
-11.9738294864073
30
0
41
1
10
39.8134910806668
20
-11.9837577766459
30
0
41
1
10
39.8783357827442
20
-11.9930203865094
30
0
41
1
10
39.9391852825145
20
-12.0010696479237
30
0
41
1
10
39.9960064634922
20
-12.0080439856417
30
0
41
1
10
40.0487737999836
20
-12.0140715865761
30
0
41
1
10
40.1016100722775
20
-12.0196583063722
30
0
41
1
10
40.1545076730194
20
-12.0248030255791
30
0
41
1
10
40.2074611804015
20
-12.0295048198301
30
0
41
1
10
40.2604672490481
20
-12.0337628443795
30
0
41
1
10
40.313522414046
20
-12.0375768610426
30
0
41
1
10
40.3666209869359
20
-12.0409463574721
30
0
41
1
10
40.4197551766607
20
-12.043870651013
30
0
41
1
10
40.4730943968237
20
-12.0463573223661
30
0
41
1
10
40.5266355380386
20
-12.0484006288738
30
0
41
1
10
40.5803752807739
20
-12.0499954258874
30
0
41
1
10
40.6341324927431
20
-12.0511348718391
30
0
41
1
10
40.68789963049
20
-12.0518187656819
30
0
41
1
10
40.7237461332746
20
-12.0519707554635
30
0
41
1
10
40.7416697508023
20
-12.051970793194
30
0
0
SPLINE
5
DE
100
AcDbEntity
8
1
62
256
6
ByLayer
370
18
48
1
60
0
100
AcDbSpline
70
4
71
3
72
77
73
73
40
0
40
0
40
0
40
0
40
0.0146619932686668
40
0.0293247113969209
40
0.0439876710469792
40
0.0586503887797363
40
0.0733123817166779
40
0.0879743836216876
40
0.102637112544095
40
0.117300082701267
40
0.131962809332348
40
0.146624809315503
40
0.161286831554447
40
0.175949585284554
40
0.190612581016083
40
0.20527533108991
40
0.21993735026214
40
0.234844465425517
40
0.249752355857602
40
0.264660502225575
40
0.279568387744496
40
0.294475498786935
40
0.309546695804858
40
0.32461870195674
40
0.339690974871523
40
0.354762975229644
40
0.36983416738802
40
0.384905406206853
40
0.39997746286986
40
0.415049789025288
40
0.430121839568471
40
0.445193073254269
40
0.460264355312129
40
0.475336464166164
40
0.490408845472105
40
0.505480948162238
40
0.52055222505009
40
0.53589928998772
40
0.551247237346411
40
0.5665954755737
40
0.581943416514701
40
0.597290476069441
40
0.610596703661184
40
0.623903511815958
40
0.637210511752548
40
0.650517316504778
40
0.663823541242646
40
0.677129791909375
40
0.690436627853854
40
0.703743657305401
40
0.717050490139076
40
0.730356738196625
40
0.743741185449436
40
0.75712623267988
40
0.770511478474744
40
0.78389652289001
40
0.797280967781594
40
0.810767452980051
40
0.824254555830503
40
0.837741863327401
40
0.851228963720154
40
0.864715446857217
40
0.878201947885394
40
0.89168906974023
40
0.905176397561168
40
0.918663517454303
40
0.932150016837103
40
0.945719590920887
40
0.959289799846614
40
0.972860219676127
40
0.986430427141276
40
1
40
1
40
1
40
1
41
1
10
35.7664710050648
20
7.0247875517904
30
0
41
1
10
35.7872043763868
20
7.01207594482648
30
0
41
1
10
35.8288118316715
20
6.98677275443415
30
0
41
1
10
35.891644966676
20
6.94918040320293
30
0
41
1
10
35.9548942037743
20
6.91194744920782
30
0
41
1
10
36.0185536424163
20
6.87507327945767
30
0
41
1
10
36.0826185690862
20
6.83855598261705
30
0
41
1
10
36.1470862318575
20
6.80239279444122
30
0
41
1
10
36.2119535260003
20
6.76658105398817
30
0
41
1
10
36.2772156314875
20
6.73111915079395
30
0
41
1
10
36.342865960313
20
6.69600646673502
30
0
41
1
10
36.4088997713325
20
6.66124140849333
30
0
41
1
10
36.4753141642165
20
6.62682150800033
30
0
41
1
10
36.5421059322567
20
6.59274437792632
30
0
41
1
10
36.6092700524564
20
6.55900864286223
30
0
41
1
10
36.676799691857
20
6.52561386945231
30
0
41
1
10
36.7450681703543
20
6.49237452673599
30
0
41
1
10
36.8140795400543
20
6.45929499194081
30
0
41
1
10
36.8838372855841
20
6.42637968728481
30
0
41
1
10
36.9539556663905
20
6.39380963233662
30
0
41
1
10
37.0244272234295
20
6.36158452797174
30
0
41
1
10
37.0955063647935
20
6.32958618348831
30
0
41
1
10
37.1671942515035
20
6.29781690546252
30
0
41
1
10
37.2394915265513
20
6.26627899478789
30
0
41
1
10
37.3121312318635
20
6.23508701484469
30
0
41
1
10
37.3851053602422
20
6.20424077636083
30
0
41
1
10
37.4584081520697
20
6.17373915115862
30
0
41
1
10
37.5320360069613
20
6.14358020281205
30
0
41
1
10
37.605985009946
20
6.11376194860768
30
0
41
1
10
37.6802490048195
20
6.08428339088628
30
0
41
1
10
37.7548196828552
20
6.05514441713327
30
0
41
1
10
37.8296910564991
20
6.02634401880581
30
0
41
1
10
37.9048593589356
20
5.99788041849249
30
0
41
1
10
37.9803205246222
20
5.96975175207595
30
0
41
1
10
38.056068167127
20
5.94195709876116
30
0
41
1
10
38.1320936823193
20
5.91449638095237
30
0
41
1
10
38.2088561436674
20
5.88720323272615
30
0
41
1
10
38.2863574622323
20
5.8600830715933
30
0
41
1
10
38.3645988798118
20
5.83314121439354
30
0
41
1
10
38.4431064904096
20
5.80654011984635
30
0
41
1
10
38.5218708904436
20
5.78027970401456
30
0
41
1
10
38.5973828999794
20
5.75550798997517
30
0
41
1
10
38.6696008601755
20
5.73217304718399
30
0
41
1
10
38.7384879461001
20
5.71022598678759
30
0
41
1
10
38.8075520048994
20
5.68853124525833
30
0
41
1
10
38.8767867480784
20
5.66708873533102
30
0
41
1
10
38.9461875966408
20
5.64589784852483
30
0
41
1
10
39.0157516283086
20
5.6249575138113
30
0
41
1
10
39.0854757795623
20
5.60426654748951
30
0
41
1
10
39.1553552658709
20
5.58382432029781
30
0
41
1
10
39.2253836433394
20
5.56363070363237
30
0
41
1
10
39.2956936358796
20
5.54364601106228
30
0
41
1
10
39.3662832268433
20
5.52387086801971
30
0
41
1
10
39.4371501761348
20
5.50430576730514
30
0
41
1
10
39.508151815833
20
5.48498860507859
30
0
41
1
10
39.579281451669
20
5.46591918677459
30
0
41
1
10
39.6507152236495
20
5.44704901852234
30
0
41
1
10
39.7224510897304
20
5.42837919232862
30
0
41
1
10
39.7944867657704
20
5.40991064883221
30
0
41
1
10
39.8666357421253
20
5.3916898315281
30
0
41
1
10
39.9388910487595
20
5.37371645844718
30
0
41
1
10
40.0112475822564
20
5.35598978950711
30
0
41
1
10
40.0837020563189
20
5.33850867958519
30
0
41
1
10
40.1562510928851
20
5.32127182035032
30
0
41
1
10
40.228889446464
20
5.30427838952207
30
0
41
1
10
40.3016100471334
20
5.2875280053714
30
0
41
1
10
40.374557154352
20
5.2709859701263
30
0
41
1
10
40.447727967778
20
5.25465282377086
30
0
41
1
10
40.5211195506852
20
5.23852893055527
30
0
41
1
10
40.5945767690683
20
5.2226467303625
30
0
41
1
10
40.6680928678187
20
5.20700581731009
30
0
41
1
10
40.7171383505485
20
5.19673846924011
30
0
41
1
10
40.7416697508023
20
5.19164493577672
30
0
0
SPLINE
5
DF
100
AcDbEntity
8
1
62
256
6
ByLayer
370
18
48
1
60
0
100
AcDbSpline
70
4
71
3
72
108
73
104
40
0
40
0
40
0
40
0
40
0.0100781499206443
40
0.0201568457429905
40
0.0302357245759299
40
0.0403144222486509
40
0.0503925737213095
40
0.060470709266093
40
0.0705493876461997
40
0.0806282482570725
40
0.0907069289467139
40
0.100785066428633
40
0.110863184618161
40
0.120941841978347
40
0.131020680543956
40
0.141099340585014
40
0.151177461023139
40
0.161438666445029
40
0.171700436572205
40
0.181962396678098
40
0.192224169968833
40
0.20248537804418
40
0.21286343396682
40
0.223242069195525
40
0.23362089942803
40
0.243999538109399
40
0.254377596927982
40
0.264755628633087
40
0.275134234647163
40
0.285513033975698
40
0.295891643393986
40
0.306269677954395
40
0.316647686427779
40
0.327026264464323
40
0.337405034090142
40
0.347783615254174
40
0.35816162635076
40
0.368733456388759
40
0.379305884100979
40
0.389878512598219
40
0.40045094308337
40
0.41102277544719
40
0.421100775416671
40
0.431179290354471
40
0.441257977834661
40
0.451336494299022
40
0.46141449554891
40
0.471492487703659
40
0.481570993432055
40
0.491649670685783
40
0.501728176883725
40
0.511806169432309
40
0.521884162200541
40
0.531962668965057
40
0.542041346658422
40
0.552119852481682
40
0.562197844460438
40
0.572448978036879
40
0.582700655541343
40
0.592952512901956
40
0.603204187441421
40
0.613455318530957
40
0.623819629600956
40
0.634184509323617
40
0.644549575727431
40
0.654914449764913
40
0.665278756066438
40
0.675643115943527
40
0.686008055229879
40
0.696373183134749
40
0.706738113583891
40
0.717102466048714
40
0.727466898463455
40
0.73783192606639
40
0.748197145615846
40
0.758562160687799
40
0.768926582592084
40
0.777726357777713
40
0.786526638037951
40
0.795327164891885
40
0.804127684457299
40
0.812927947897397
40
0.821727711868959
40
0.830605526792174
40
0.839483745531504
40
0.848362093044081
40
0.857240300552142
40
0.866118106055156
40
0.875009577857519
40
0.883901473383966
40
0.89279350322347
40
0.901685385423912
40
0.910576846049094
40
0.919511211273074
40
0.928446027595553
40
0.937380986248887
40
0.946315787127589
40
0.955250139398072
40
0.964199801403155
40
0.973149940586385
40
0.982100230000292
40
0.991050352221709
40
1
40
1
40
1
40
1
41
1
10
42.1943471019302
20
11.2492337376468
30
0
41
1
10
42.1676975139359
20
11.255297467077
30
0
41
1
10
42.1144322363142
20
11.2676475093297
30
0
41
1
10
42.0346359117629
20
11.2868399284953
30
0
41
1
10
41.9549506444252
20
11.3066989574824
30
0
41
1
10
41.8753855526487
20
11.3272234575564
30
0
41
1
10
41.7959483295612
20
11.348412830104
30
0
41
1
10
41.7166440140985
20
11.3702672539362
30
0
41
1
10
41.6374775692693
20
11.3927861685398
30
0
41
1
10
41.5584562862865
20
11.4159684878337
30
0
41
1
10
41.4795898678781
20
11.4398124611175
30
0
41
1
10
41.4008857037938
20
11.4643170586856
30
0
41
1
10
41.3223488102969
20
11.4894821025254
30
0
41
1
10
41.2439840272222
20
11.5153067005538
30
0
41
1
10
41.1657984997704
20
11.5417893429925
30
0
41
1
10
41.0878017467972
20
11.5689277593118
30
0
41
1
10
41.009529856094
20
11.5968888006995
30
0
41
1
10
40.9309919385933
20
11.6256859263487
30
0
41
1
10
40.8521973818451
20
11.6553318672758
30
0
41
1
10
40.7736234892022
20
11.6856522846331
30
0
41
1
10
40.6952800863269
20
11.7166442500152
30
0
41
1
10
40.6168781374578
20
11.748425982578
30
0
41
1
10
40.5384259057683
20
11.7810055453667
30
0
41
1
10
40.4599317049898
20
11.8143902125251
30
0
41
1
10
40.3816985432069
20
11.8484546995015
30
0
41
1
10
40.3037363254316
20
11.8831954421111
30
0
41
1
10
40.2260526041741
20
11.9186099494572
30
0
41
1
10
40.1486525056458
20
11.9546969675707
30
0
41
1
10
40.071540862266
20
11.9914545106351
30
0
41
1
10
39.9947248612836
20
12.0288796370521
30
0
41
1
10
39.9182141254937
20
12.0669682684076
30
0
41
1
10
39.8420159895112
20
12.1057174911886
30
0
41
1
10
39.7661354365238
20
12.1451257209749
30
0
41
1
10
39.690577130549
20
12.1851906639052
30
0
41
1
10
39.6153480344276
20
12.2259089754768
30
0
41
1
10
39.5404574763509
20
12.2672760828307
30
0
41
1
10
39.4654484514047
20
12.3095502297262
30
0
41
1
10
39.390333379999
20
12.3527436761093
30
0
41
1
10
39.3151248484739
20
12.3968678387789
30
0
41
1
10
39.2402918837393
20
12.4416531466508
30
0
41
1
10
39.1658440330545
20
12.4870942439505
30
0
41
1
10
39.0929415709604
20
12.5324695582318
30
0
41
1
10
39.021568311974
20
12.5777416552511
30
0
41
1
10
38.9517070495806
20
12.6228737970916
30
0
41
1
10
38.8822167737481
20
12.6685897308163
30
0
41
1
10
38.813105477279
20
12.7148843811687
30
0
41
1
10
38.7443792240761
20
12.7617539905971
30
0
41
1
10
38.6760421692613
20
12.8091962349232
30
0
41
1
10
38.6080981292322
20
12.8572081934337
30
0
41
1
10
38.5405528901616
20
12.9057857075186
30
0
41
1
10
38.4734141912075
20
12.9549232638038
30
0
41
1
10
38.4066878813434
20
13.0046167550479
30
0
41
1
10
38.3403779916198
20
13.0548635678941
30
0
41
1
10
38.274488196226
20
13.1056604905137
30
0
41
1
10
38.2090241075391
20
13.1570029718294
30
0
41
1
10
38.1439932171958
20
13.2088850400386
30
0
41
1
10
38.0790312983169
20
13.2616023704553
30
0
41
1
10
38.0141511150882
20
13.3151628254044
30
0
41
1
10
37.9493654446742
20
13.3695734279097
30
0
41
1
10
37.885047325378
20
13.424525706678
30
0
41
1
10
37.8212043950256
20
13.4800128475688
30
0
41
1
10
37.7576092479787
20
13.5362358237593
30
0
41
1
10
37.6942721088899
20
13.5931980476463
30
0
41
1
10
37.6312030100112
20
13.6509020621279
30
0
41
1
10
37.5686390315986
20
13.7091338570344
30
0
41
1
10
37.5065878215351
20
13.7678857715479
30
0
41
1
10
37.4450550579793
20
13.8271520328583
30
0
41
1
10
37.3840447611803
20
13.8869286670985
30
0
41
1
10
37.3235604596318
20
13.9472109558472
30
0
41
1
10
37.2636077517954
20
14.0079922946612
30
0
41
1
10
37.2041940482639
20
14.0692643135884
30
0
41
1
10
37.1453247986133
20
14.1310206879828
30
0
41
1
10
37.0870039021752
20
14.1932569451013
30
0
41
1
10
37.0292347121743
20
14.2559678169904
30
0
41
1
10
36.9720226588688
20
14.3191459596967
30
0
41
1
10
36.9153749262789
20
14.3827821720231
30
0
41
1
10
36.8621187436272
20
14.4436444261999
30
0
41
1
10
36.8121615272761
20
14.5016521892331
30
0
41
1
10
36.765414342339
20
14.5567326536915
30
0
41
1
10
36.719084898464
20
14.6121267682579
30
0
41
1
10
36.67317742523
20
14.6678283241808
30
0
41
1
10
36.6276961534627
20
14.7238310986803
30
0
41
1
10
36.5825108742413
20
14.7802969053014
30
0
41
1
10
36.5376279691078
20
14.8372255016416
30
0
41
1
10
36.4930535119524
20
14.8946159730542
30
0
41
1
10
36.4489224446059
20
14.9522954500035
30
0
41
1
10
36.4052389380553
20
15.0102568996456
30
0
41
1
10
36.3619839114406
20
15.0685246105713
30
0
41
1
10
36.3191602747273
20
15.1270949872564
30
0
41
1
10
36.2767704997929
20
15.185963888796
30
0
41
1
10
36.2348393704058
20
15.2450951495674
30
0
41
1
10
36.1933708840197
20
15.3044810467617
30
0
41
1
10
36.1523020234462
20
15.3642113083833
30
0
41
1
10
36.1116373624943
20
15.4242827440616
30
0
41
1
10
36.0713809903636
20
15.4846915264583
30
0
41
1
10
36.031600727081
20
15.5453345048877
30
0
41
1
10
35.9923003739844
20
15.6062031144303
30
0
41
1
10
35.9534604922806
20
15.6673253498593
30
0
41
1
10
35.9150838097544
20
15.7286964588603
30
0
41
1
10
35.8771724098812
20
15.7903111845781
30
0
41
1
10
35.8397505688896
20
15.8521267948615
30
0
41
1
10
35.8028215252601
20
15.914134679875
30
0
41
1
10
35.7785327205534
20
15.9555948608663
30
0
41
1
10
35.7664710050648
20
15.9763555134302
30
0
0
SPLINE
5
E0
100
AcDbEntity
8
1
62
256
6
ByLayer
370
18
48
1
60
0
100
AcDbSpline
70
4
71
3
72
25
73
21
40
0
40
0
40
0
40
0
40
0.045051173891422
40
0.0901979540828737
40
0.135369902425221
40
0.180455465816934
40
0.235377857120224
40
0.290356124533345
40
0.345296019963269
40
0.401729275937778
40
0.458200368610355
40
0.51464344200679
40
0.5744776704196
40
0.634367010789655
40
0.694265224437489
40
0.754111563591018
40
0.815559214750738
40
0.877051552247274
40
0.938547467113338
40
1
40
1
40
1
40
1
41
1
10
76.5541351457919
20
-16.8245190528383
30
0
41
1
10
76.5526883958561
20
-16.8245144427143
30
0
41
1
10
76.5496626462104
20
-16.8243504320472
30
0
41
1
10
76.5447089801413
20
-16.8236205618451
30
0
41
1
10
76.5394141735985
20
-16.8224619721067
30
0
41
1
10
76.5334127901334
20
-16.8207927023126
30
0
41
1
10
76.5266717344703
20
-16.8185472392329
30
0
41
1
10
76.5191724172417
20
-16.8156723874249
30
0
41
1
10
76.5113214800132
20
-16.8123269138001
30
0
41
1
10
76.5031545795078
20
-16.8085403240813
30
0
41
1
10
76.4947007522791
20
-16.8043366211727
30
0
41
1
10
76.485891866593
20
-16.7996915592097
30
0
41
1
10
76.4767437916347
20
-16.7946119488945
30
0
41
1
10
76.4672703392263
20
-16.7891014154217
30
0
41
1
10
76.4576738273607
20
-16.7832843737573
30
0
41
1
10
76.447891866289
20
-16.7771315102254
30
0
41
1
10
76.4379382491959
20
-16.7706537840973
30
0
41
1
10
76.427824981996
20
-16.7638586806163
30
0
41
1
10
76.4176560864492
20
-16.7568191819543
30
0
41
1
10
76.4108542041873
20
-16.751977459116
30
0
41
1
10
76.4074475126894
20
-16.7495190528382
30
0
0
SPLINE
5
E1
100
AcDbEntity
8
1
62
256
6
ByLayer
370
18
48
1
60
0
100
AcDbSpline
70
4
71
3
72
15
73
11
40
0
40
0
40
0
40
0
40
0.124992264301221
40
0.249984532688698
40
0.374980019251762
40
0.499975509634844
40
0.624980198060768
40
0.74998489005994
40
0.874992443358392
40
1
40
1
40
1
40
1
41
1
10
76.4074475126894
20
-16.7495190528382
30
0
41
1
10
76.3706973771462
20
-16.7230024169549
30
0
41
1
10
76.2972757713847
20
-16.669887864943
30
0
41
1
10
76.1873797200653
20
-16.5899695830422
30
0
41
1
10
76.077716126886
20
-16.509810627077
30
0
41
1
10
75.9682798858405
20
-16.4294125894024
30
0
41
1
10
75.8590691525597
20
-16.3487802042176
30
0
41
1
10
75.7500804098784
20
-16.267916740229
30
0
41
1
10
75.6413139305622
20
-16.1868276025271
30
0
41
1
10
75.5689487173983
20
-16.1326211277273
30
0
41
1
10
75.5328028926127
20
-16.1054809471616
30
0
0
SPLINE
5
E2
100
AcDbEntity
8
1
62
256
6
ByLayer
370
18
48
1
60
0
100
AcDbSpline
70
4
71
3
72
28
73
24
40
0
40
0
40
0
40
0
40
0.0579344305340355
40
0.115906846517362
40
0.173875743264803
40
0.231805371641075
40
0.291165580380729
40
0.350579812855996
40
0.409984244672092
40
0.469331076309373
40
0.517569566270381
40
0.565826890929811
40
0.614059831558866
40
0.663218614720499
40
0.712405399801599
40
0.761553602438599
40
0.798864034944343
40
0.836192909408927
40
0.873497586804919
40
0.911720488970153
40
0.949971650448441
40
0.988185421716987
40
1
40
1
40
1
40
1
41
1
10
75.5328028926127
20
-16.1054809471616
30
0
41
1
10
75.5293415094763
20
-16.1028816905776
30
0
41
1
10
75.5224344864812
20
-16.0977533433504
30
0
41
1
10
75.5121202595564
20
-16.0902692116449
30
0
41
1
10
75.5018740545595
20
-16.0830142977476
30
0
41
1
10
75.4916291224266
20
-16.0759468674221
30
0
41
1
10
75.4814027410225
20
-16.0690895276448
30
0
41
1
10
75.4712179013005
20
-16.0624718414027
30
0
41
1
10
75.4611856283556
20
-16.0561777679173
30
0
41
1
10
75.4519508693363
20
-16.0506080726885
30
0
41
1
10
75.4435007999668
20
-16.0457149360068
30
0
41
1
10
75.435813752074
20
-16.041445921879
30
0
41
1
10
75.4282626998282
20
-16.0374501733956
30
0
41
1
10
75.4208781232042
20
-16.0337605250839
30
0
41
1
10
75.4136983916068
20
-16.03041661664
30
0
41
1
10
75.4073605432327
20
-16.0277129375491
30
0
41
1
10
75.4018225880747
20
-16.0255735648097
30
0
41
1
10
75.3970273544379
20
-16.0239135728594
30
0
41
1
10
75.3924316590167
20
-16.0225373225975
30
0
41
1
10
75.3880701417585
20
-16.02147690916
30
0
41
1
10
75.3839809222664
20
-16.0207644751907
30
0
41
1
10
75.381094092678
20
-16.0205089488566
30
0
41
1
10
75.3795671758356
20
-16.0204811820336
30
0
41
1
10
75.3792123664686
20
-16.0204809478942
30
0
0
SPLINE
5
E3
100
AcDbEntity
8
1
62
256
6
ByLayer
370
18
48
1
60
0
100
AcDbSpline
70
4
71
3
72
30
73
26
40
0
40
0
40
0
40
0
40
0.028807521542787
40
0.072489955730487
40
0.116200197805683
40
0.159842206315966
40
0.20334625389935
40
0.247101329473322
40
0.291038730633065
40
0.335036108255876
40
0.378969481380599
40
0.422721164549175
40
0.462314356633234
40
0.502019829416048
40
0.541777091996103
40
0.581508587257993
40
0.621123667662572
40
0.665372349089195
40
0.709663330513132
40
0.753921324693057
40
0.799429216334729
40
0.844970282397796
40
0.890485940249452
40
0.945241340346051
40
1
40
1
40
1
40
1
41
1
10
75.3792123664686
20
-16.0204809478942
30
0
41
1
10
75.3785193751918
20
-16.0204815402697
30
0
41
1
10
75.3768392727042
20
-16.0205489322824
30
0
41
1
10
75.3743951129348
20
-16.0209190120472
30
0
41
1
10
75.3720062671005
20
-16.0217062368357
30
0
41
1
10
75.3700120921484
20
-16.0228740438569
30
0
41
1
10
75.3684374291693
20
-16.0244374423238
30
0
41
1
10
75.3673220837931
20
-16.0264233642631
30
0
41
1
10
75.3666682653516
20
-16.0288217248241
30
0
41
1
10
75.3664766946942
20
-16.0316105064138
30
0
41
1
10
75.3667502466986
20
-16.0347685414181
30
0
41
1
10
75.3674716747093
20
-16.0381725684872
30
0
41
1
10
75.3685942163932
20
-16.0417752088666
30
0
41
1
10
75.3700414653225
20
-16.0455143700981
30
0
41
1
10
75.3718329067006
20
-16.0494876863371
30
0
41
1
10
75.3739463199607
20
-16.0536649523763
30
0
41
1
10
75.3764605271891
20
-16.0581951800329
30
0
41
1
10
75.3794002560863
20
-16.0630843931504
30
0
41
1
10
75.3827721104698
20
-16.0683262773387
30
0
41
1
10
75.3864780185139
20
-16.0737697767057
30
0
41
1
10
75.3905011991313
20
-16.0793955126134
30
0
41
1
10
75.3948221203905
20
-16.0851842111883
30
0
41
1
10
75.3996860722206
20
-16.0914608017904
30
0
41
1
10
75.405126084177
20
-16.0982271523098
30
0
41
1
10
75.4091424635254
20
-16.1030537784356
30
0
41
1
10
75.4111969033997
20
-16.1054809471674
30
0
0
SPLINE
5
E4
100
AcDbEntity
8
1
62
256
6
ByLayer
370
18
48
1
60
0
100
AcDbSpline
70
4
71
2
72
6
73
3
40
0
40
0
40
0
40
1
40
1
40
1
41
1
10
75.9566770123282
20
-16.7495190528382
30
0
41
1
10
75.6836982351386
20
-16.4276516430043
30
0
41
1
10
75.4111969033976
20
-16.1054809471616
30
0
0
SPLINE
5
E5
100
AcDbEntity
8
1
62
256
6
ByLayer
370
18
48
1
60
0
100
AcDbSpline
70
4
71
3
72
22
73
18
40
0
40
0
40
0
40
0
40
0.0581586422994667
40
0.116401050033703
40
0.174556901124132
40
0.239699852177043
40
0.305067711893276
40
0.370460084237327
40
0.435636574661523
40
0.502267284387554
40
0.569066873257378
40
0.635901392587066
40
0.702579850862132
40
0.77684564577849
40
0.851250242044026
40
0.925688382001912
40
1
40
1
40
1
40
1
41
1
10
75.9958919078819
20
-16.8203919078819
30
0
41
1
10
75.9962061813806
20
-16.8198021081639
30
0
41
1
10
75.9966910712796
20
-16.8184965586483
30
0
41
1
10
75.9969870230009
20
-16.8161573563478
30
0
41
1
10
75.9968422206242
20
-16.8133463382145
30
0
41
1
10
75.9961760799425
20
-16.8100105229589
30
0
41
1
10
75.9949482166259
20
-16.8061386695528
30
0
41
1
10
75.9932144184893
20
-16.8019008018035
30
0
41
1
10
75.9909806215172
20
-16.7973018996739
30
0
41
1
10
75.9882548574477
20
-16.7923650787155
30
0
41
1
10
75.9850764103193
20
-16.7871300571686
30
0
41
1
10
75.9815078516205
20
-16.781677398591
30
0
41
1
10
75.9774398496122
20
-16.7758339734877
30
0
41
1
10
75.9728593432317
20
-16.7696075342727
30
0
41
1
10
75.9677698027976
20
-16.7630147164728
30
0
41
1
10
75.9623730643434
20
-16.7563091536668
30
0
41
1
10
75.9586048888609
20
-16.7517906585396
30
0
41
1
10
75.9566770123282
20
-16.7495190528382
30
0
0
SPLINE
5
E6
100
AcDbEntity
8
1
62
256
6
ByLayer
370
18
48
1
60
0
100
AcDbSpline
70
4
71
1
72
4
73
2
40
0
40
0
40
1
40
1
41
1
10
76.1066617133474
20
-16.1054809471616
30
0
41
1
10
76.638783730025
20
-16.7495190528382
30
0
0
SPLINE
5
E7
100
AcDbEntity
8
1
62
256
6
ByLayer
370
18
48
1
60
0
100
AcDbSpline
70
4
71
3
72
30
73
26
40
0
40
0
40
0
40
0
40
0.0523263976165069
40
0.104738616626335
40
0.157127231560732
40
0.209421386334637
40
0.253370324249761
40
0.297464834642478
40
0.341582207323232
40
0.385625964277181
40
0.429532197627023
40
0.465813287981293
40
0.502128720166946
40
0.538406144130457
40
0.57611495504456
40
0.613867205371396
40
0.651576200142686
40
0.699172311921236
40
0.746924471808141
40
0.79469824503413
40
0.84232392368499
40
0.883685776303278
40
0.925087362530204
40
0.966458092181783
40
1
40
1
40
1
40
1
41
1
10
76.1066617133475
20
-16.1054809471618
30
0
41
1
10
76.1047275248988
20
-16.1031410386917
30
0
41
1
10
76.1009569047916
20
-16.0984764502089
30
0
41
1
10
76.0955855661882
20
-16.0915241347307
30
0
41
1
10
76.0905540774777
20
-16.0846541612525
30
0
41
1
10
76.0861513485465
20
-16.0782578149651
30
0
41
1
10
76.082354246862
20
-16.0723433911061
30
0
41
1
10
76.0791159925224
20
-16.0669056737814
30
0
41
1
10
76.0762398707741
20
-16.0616226726584
30
0
41
1
10
76.073764440124
20
-16.056536777402
30
0
41
1
10
76.0718444361131
20
-16.0519652869267
30
0
41
1
10
76.0704244724698
20
-16.0478935116633
30
0
41
1
10
76.0694246506311
20
-16.0442846399669
30
0
41
1
10
76.0687554367271
20
-16.0408466017543
30
0
41
1
10
76.0684476905339
20
-16.0376117239307
30
0
41
1
10
76.0685156222614
20
-16.0346036669584
30
0
41
1
10
76.0689999874337
20
-16.0316375981347
30
0
41
1
10
76.0700362288888
20
-16.0288290778479
30
0
41
1
10
76.0717278264263
20
-16.0262850092239
30
0
41
1
10
76.073957717516
20
-16.0242090486074
30
0
41
1
10
76.0765759666785
20
-16.0226728567753
30
0
41
1
10
76.0794807866703
20
-16.0216023230205
30
0
41
1
10
76.0825691066949
20
-16.0209076841906
30
0
41
1
10
76.0857440608534
20
-16.0205500962065
30
0
41
1
10
76.0879344367926
20
-16.0204796498687
30
0
41
1
10
76.088945657436
20
-16.0204809476212
30
0
0
SPLINE
5
E8
100
AcDbEntity
8
1
62
256
6
ByLayer
370
18
48
1
60
0
100
AcDbSpline
70
4
71
3
72
27
73
23
40
0
40
0
40
0
40
0
40
0.0067644799486373
40
0.0387642507437758
40
0.0707464600137835
40
0.116332510707377
40
0.161964568196452
40
0.207565153232233
40
0.254384106452842
40
0.301233837826631
40
0.348061478850418
40
0.40181985512219
40
0.455630614456532
40
0.509452523002935
40
0.563226116982916
40
0.618436757593791
40
0.673684757952496
40
0.728937906750916
40
0.784155572592338
40
0.856091272284849
40
0.928060864493746
40
1
40
1
40
1
40
1
41
1
10
76.088945657436
20
-16.0204809476212
30
0
41
1
10
76.0892166127206
20
-16.0204811142962
30
0
41
1
10
76.0907799939095
20
-16.0204942870571
30
0
41
1
10
76.0937500179949
20
-16.0206495162804
30
0
41
1
10
76.0986181711724
20
-16.021206001179
30
0
41
1
10
76.1044243414336
20
-16.0222362639425
30
0
41
1
10
76.1112446748806
20
-16.0238605830232
30
0
41
1
10
76.1184514985422
20
-16.0259409116216
30
0
41
1
10
76.1260089068559
20
-16.028450509331
30
0
41
1
10
76.1338865371463
20
-16.031366011806
30
0
41
1
10
76.1423835319617
20
-16.0347942141578
30
0
41
1
10
76.1515054824112
20
-16.0387631838592
30
0
41
1
10
76.1612539802835
20
-16.0432996989144
30
0
41
1
10
76.1711856472837
20
-16.0481929189458
30
0
41
1
10
76.1813594199434
20
-16.0534583651527
30
0
41
1
10
76.1917573853325
20
-16.0590804029872
30
0
41
1
10
76.2023662132965
20
-16.0650496830985
30
0
41
1
10
76.2130738296622
20
-16.0712964316303
30
0
41
1
10
76.2249491181208
20
-16.0784576543787
30
0
41
1
10
76.238004185111
20
-16.0866117444817
30
0
41
1
10
76.2522399194024
20
-16.0958384798769
30
0
41
1
10
76.2617626202818
20
-16.1022266185976
30
0
41
1
10
76.2665328781088
20
-16.1054809471608
30
0
0
SPLINE
5
E9
100
AcDbEntity
8
1
62
256
6
ByLayer
370
18
48
1
60
0
100
AcDbSpline
70
4
71
3
72
15
73
11
40
0
40
0
40
0
40
0
40
0.124988212125437
40
0.249976418698386
40
0.374969145126724
40
0.499961865613261
40
0.624968851528677
40
0.749975831082153
40
0.874987918946687
40
1
40
1
40
1
40
1
41
1
10
76.2665328781088
20
-16.1054809471616
30
0
41
1
10
76.3064933684904
20
-16.1327387421252
30
0
41
1
10
76.3865076854123
20
-16.1871509757334
30
0
41
1
10
76.5068091647806
20
-16.2684627439817
30
0
41
1
10
76.6273950343355
20
-16.3494604040179
30
0
41
1
10
76.7482728158569
20
-16.4301419600945
30
0
41
1
10
76.869444346388
20
-16.5105006398803
30
0
41
1
10
76.9909146808262
20
-16.5905315016319
30
0
41
1
10
77.1126821222082
20
-16.6702262065244
30
0
41
1
10
77.1940615891459
20
-16.7231262092439
30
0
41
1
10
77.2348010809342
20
-16.7495190528382
30
0
0
SPLINE
5
EA
100
AcDbEntity
8
1
62
256
6
ByLayer
370
18
48
1
60
0
100
AcDbSpline
70
4
71
3
72
25
73
21
40
0
40
0
40
0
40
0
40
0.0653334855330621
40
0.130712384983703
40
0.196088438998149
40
0.261418041662976
40
0.328428339633261
40
0.395501285345365
40
0.462562515769605
40
0.529556822900478
40
0.579827311944844
40
0.630115219768252
40
0.680380076465545
40
0.731525190275786
40
0.782696844553066
40
0.833829802846912
40
0.875353820451883
40
0.916936632911968
40
0.958501073059624
40
1
40
1
40
1
40
1
41
1
10
77.2348010809342
20
-16.7495190528382
30
0
41
1
10
77.2388814276728
20
-16.7521627797139
30
0
41
1
10
77.2470365968078
20
-16.7573563518399
30
0
41
1
10
77.2592532738355
20
-16.764867072375
30
0
41
1
10
77.2714290541621
20
-16.7720765500562
30
0
41
1
10
77.2836487632375
20
-16.7790272610931
30
0
41
1
10
77.295894872528
20
-16.7856939255872
30
0
41
1
10
77.308143140875
20
-16.7920405645303
30
0
41
1
10
77.3202582570833
20
-16.7979776098127
30
0
41
1
10
77.3312115447169
20
-16.8030131568453
30
0
41
1
10
77.3410213170018
20
-16.8072396128052
30
0
41
1
10
77.3497189442467
20
-16.8107508507716
30
0
41
1
10
77.358310731722
20
-16.813963517877
30
0
41
1
10
77.3667681545627
20
-16.8168451718914
30
0
41
1
10
77.3750521522707
20
-16.8193530038994
30
0
41
1
10
77.3825713259041
20
-16.8213010380603
30
0
41
1
10
77.3893437744725
20
-16.8227446228033
30
0
41
1
10
77.3953963029931
20
-16.8237438120024
30
0
41
1
10
77.4011781226705
20
-16.8243735615449
30
0
41
1
10
77.4048104358488
20
-16.8245150822944
30
0
41
1
10
77.4065735175468
20
-16.8245190528383
30
0
0
SPLINE
5
EB
100
AcDbEntity
8
1
62
256
6
ByLayer
370
18
48
1
60
0
100
AcDbSpline
70
4
71
3
72
26
73
22
40
0
40
0
40
0
40
0
40
0.0383494180782129
40
0.0767252328434748
40
0.115083628007881
40
0.154112866391366
40
0.1931586467899
40
0.232192674585253
40
0.289398056278747
40
0.346658576488852
40
0.403933343620403
40
0.461158170773916
40
0.519836071064794
40
0.578550308594918
40
0.637269948138858
40
0.695955219250042
40
0.756731623316885
40
0.817554454611527
40
0.878394595423006
40
0.939220780729495
40
1
40
1
40
1
40
1
41
1
10
78.5153363366498
20
-16.8245190528383
30
0
41
1
10
78.5132026956884
20
-16.8245154918787
30
0
41
1
10
78.5088532479903
20
-16.8243928604387
30
0
41
1
10
78.5020699702173
20
-16.8238477710109
30
0
41
1
10
78.4950375518865
20
-16.8229799529449
30
0
41
1
10
78.4877794406391
20
-16.8218087860164
30
0
41
1
10
78.4803173396792
20
-16.8203517442919
30
0
41
1
10
78.4715350179972
20
-16.8183704965687
30
0
41
1
10
78.4613748562961
20
-16.8157404231492
30
0
41
1
10
78.4497933129753
20
-16.812334226192
30
0
41
1
10
78.4380329306619
20
-16.8085029192835
30
0
41
1
10
78.4260291456696
20
-16.8042495035724
30
0
41
1
10
78.4138033969596
20
-16.79959530353
30
0
41
1
10
78.4013694869752
20
-16.7945493276858
30
0
41
1
10
78.3888510750447
20
-16.789172441417
30
0
41
1
10
78.3761186930309
20
-16.783417675977
30
0
41
1
10
78.3631827125645
20
-16.7772894374461
30
0
41
1
10
78.3500517150394
20
-16.7707852523643
30
0
41
1
10
78.336890926975
20
-16.763987660724
30
0
41
1
10
78.3237190857695
20
-16.7569094573233
30
0
41
1
10
78.3149421642117
20
-16.7520122440547
30
0
41
1
10
78.3105550274469
20
-16.7495190528382
30
0
0
SPLINE
5
EC
100
AcDbEntity
8
1
62
256
6
ByLayer
370
18
48
1
60
0
100
AcDbSpline
70
4
71
3
72
15
73
11
40
0
40
0
40
0
40
0
40
0.124979478749613
40
0.249958969187113
40
0.374947021106836
40
0.499935083952981
40
0.624947530639174
40
0.749959987542833
40
0.874979988997469
40
1
40
1
40
1
40
1
41
1
10
78.3105550274469
20
-16.7495190528383
30
0
41
1
10
78.2644779402887
20
-16.7233343151828
30
0
41
1
10
78.1724510331534
20
-16.6707986240001
30
0
41
1
10
78.0347910693006
20
-16.5914902931993
30
0
41
1
10
77.8975063429875
20
-16.5116901503567
30
0
41
1
10
77.7605846950152
20
-16.4314009971069
30
0
41
1
10
77.6240255016813
20
-16.3506337005153
30
0
41
1
10
77.4878223530472
20
-16.2693953371458
30
0
41
1
10
77.3519807665674
20
-16.1876988585485
30
0
41
1
10
77.2616573408585
20
-16.1329367874677
30
0
41
1
10
77.2165557758429
20
-16.1054809471616
30
0
0
SPLINE
5
ED
100
AcDbEntity
8
1
62
256
6
ByLayer
370
18
48
1
60
0
100
AcDbSpline
70
4
71
3
72
27
73
23
40
0
40
0
40
0
40
0
40
0.0689339669880192
40
0.137916690599039
40
0.206896046779545
40
0.275825418527984
40
0.33242923828923
40
0.389090257102429
40
0.445761163748208
40
0.502404421393099
40
0.558993330010799
40
0.603627503845149
40
0.648273740710639
40
0.692904132522707
40
0.73813314889551
40
0.783380125713956
40
0.828601493676925
40
0.866397871359981
40
0.904210823403522
40
0.942000046507441
40
0.980704797259674
40
1
40
1
40
1
40
1
41
1
10
77.2165557758429
20
-16.1054809471616
30
0
41
1
10
77.2113886142806
20
-16.1023351496531
30
0
41
1
10
77.2010602163379
20
-16.0961618973062
30
0
41
1
10
77.1855843829215
20
-16.0872547261375
30
0
41
1
10
77.1701584853701
20
-16.0787261705313
30
0
41
1
10
77.1557224297582
20
-16.071080698263
30
0
41
1
10
77.1422791766115
20
-16.0642546319111
30
0
41
1
10
77.1298224962497
20
-16.0581878426772
30
0
41
1
10
77.1174642228297
20
-16.0524411840181
30
0
41
1
10
77.1052338412822
20
-16.0470413446375
30
0
41
1
10
77.0940057841806
20
-16.0423664459711
30
0
41
1
10
77.0837650119222
20
-16.0383515757082
30
0
41
1
10
77.0744894773476
20
-16.0349327364265
30
0
41
1
10
77.0653184836415
20
-16.0317871387116
30
0
41
1
10
77.0562758465019
20
-16.0289411624517
30
0
41
1
10
77.0473935356975
20
-16.0264297040011
30
0
41
1
10
77.0392178710285
20
-16.0244145098667
30
0
41
1
10
77.0317382481897
20
-16.0228551688699
30
0
41
1
10
77.0249362327393
20
-16.0217075547189
30
0
41
1
10
77.0183321373359
20
-16.0208975540068
30
0
41
1
10
77.0130411194426
20
-16.0205373736568
30
0
41
1
10
77.0099709312223
20
-16.0204820657805
30
0
41
1
10
77.0089633603266
20
-16.0204809502934
30
0
0
SPLINE
5
EE
100
AcDbEntity
8
1
62
256
6
ByLayer
370
18
48
1
60
0
100
AcDbSpline
70
4
71
3
72
32
73
28
40
0
40
0
40
0
40
0
40
0.0277978720267006
40
0.0831153512889553
40
0.125118141705601
40
0.167247020391925
40
0.209391255880612
40
0.251467684780356
40
0.293426357295409
40
0.328153555660024
40
0.362912339003629
40
0.397634244731329
40
0.433747962118106
40
0.469904637324437
40
0.506016401336507
40
0.551135805610832
40
0.596417355472307
40
0.641718119479101
40
0.6868638169373
40
0.723828777301044
40
0.760829141129495
40
0.797801754602661
40
0.835821470024722
40
0.873869021926667
40
0.911895593276945
40
0.955946523017048
40
1
40
1
40
1
40
1
41
1
10
77.0089633603266
20
-16.0204809502934
30
0
41
1
10
77.0079480097831
20
-16.0204798252718
30
0
41
1
10
77.0049654655056
20
-16.0205373858534
30
0
41
1
10
77.0006962714923
20
-16.0208849160271
30
0
41
1
10
76.9962896610771
20
-16.0216562720004
30
0
41
1
10
76.9926008840993
20
-16.0226708455231
30
0
41
1
10
76.9892415420741
20
-16.0240168295658
30
0
41
1
10
76.9862527478461
20
-16.0257084700412
30
0
41
1
10
76.9838215285041
20
-16.0276447723247
30
0
41
1
10
76.9819018729741
20
-16.0297691451196
30
0
41
1
10
76.9804250502652
20
-16.032013470227
30
0
41
1
10
76.9792680084496
20
-16.0345492211226
30
0
41
1
10
76.9784678696555
20
-16.0373903704763
30
0
41
1
10
76.9780456683735
20
-16.0405354807706
30
0
41
1
10
76.9780127723856
20
-16.0442162658528
30
0
41
1
10
76.9785128459729
20
-16.0485074983856
30
0
41
1
10
76.9796548493418
20
-16.0534433093228
30
0
41
1
10
76.9813666841318
20
-16.058664223159
30
0
41
1
10
76.9834875055447
20
-16.0637952790988
30
0
41
1
10
76.9858846791285
20
-16.0687546382308
30
0
41
1
10
76.9884288906081
20
-16.0734827609432
30
0
41
1
10
76.9912895590882
20
-16.0783455115214
30
0
41
1
10
76.9944527622787
20
-16.0833262691097
30
0
41
1
10
76.9979007111522
20
-16.0884089652825
30
0
41
1
10
77.0017744481422
20
-16.0938018841448
30
0
41
1
10
77.0060954236715
20
-16.0994972909598
30
0
41
1
10
77.0092750134495
20
-16.103484051021
30
0
41
1
10
77.0109075873929
20
-16.1054809471682
30
0
0
SPLINE
5
EF
100
AcDbEntity
8
1
62
256
6
ByLayer
370
18
48
1
60
0
100
AcDbSpline
70
4
71
1
72
4
73
2
40
0
40
0
40
1
40
1
41
1
10
77.5368832192739
20
-16.7495190528382
30
0
41
1
10
77.010907587391
20
-16.1054809471616
30
0
0
SPLINE
5
F0
100
AcDbEntity
8
1
62
256
6
ByLayer
370
18
48
1
60
0
100
AcDbSpline
70
4
71
1
72
4
73
2
40
0
40
0
40
1
40
1
41
1
10
78.1717205537227
20
-16.1054809471616
30
0
41
1
10
78.7023692940958
20
-16.7495190528382
30
0
0
SPLINE
5
F1
100
AcDbEntity
8
1
62
256
6
ByLayer
370
18
48
1
60
0
100
AcDbSpline
70
4
71
3
72
33
73
29
40
0
40
0
40
0
40
0
40
0.0486625274529419
40
0.097367029371475
40
0.14600647934345
40
0.180623854260079
40
0.215267433104423
40
0.249876280261965
40
0.285810631220289
40
0.321787093976018
40
0.357712162004355
40
0.394234737300802
40
0.430927284522131
40
0.467680867305909
40
0.504379101417453
40
0.540906468618187
40
0.579873215662074
40
0.618947953147877
40
0.658044728301453
40
0.697041606841366
40
0.737058148527097
40
0.777115401945565
40
0.817144247656092
40
0.858260426237529
40
0.899404242851486
40
0.940528905517636
40
0.990391277877262
40
1
40
1
40
1
40
1
41
1
10
78.1717205537231
20
-16.1054809471628
30
0
41
1
10
78.1698610889437
20
-16.1032278037087
30
0
41
1
10
78.1662738001294
20
-16.0987188323037
30
0
41
1
10
78.1612670453454
20
-16.0919423327866
30
0
41
1
10
78.1571523495112
20
-16.0858389221021
30
0
41
1
10
78.1538365646276
20
-16.0804290186368
30
0
41
1
10
78.1512048344309
20
-16.0757111444556
30
0
41
1
10
78.1488599199634
20
-16.0710023071586
30
0
41
1
10
78.1468503775146
20
-16.0663299228142
30
0
41
1
10
78.1452170105498
20
-16.0617259537895
30
0
41
1
10
78.143999824637
20
-16.0572513574787
30
0
41
1
10
78.1432529450138
20
-16.0529456374718
30
0
41
1
10
78.1429874474541
20
-16.0488355367428
30
0
41
1
10
78.1431975527284
20
-16.0449660309474
30
0
41
1
10
78.1438793303458
20
-16.0413706842899
30
0
41
1
10
78.1450605282479
20
-16.0380036955822
30
0
41
1
10
78.146773504771
20
-16.034906044093
30
0
41
1
10
78.1489989794727
20
-16.0320844348948
30
0
41
1
10
78.1516609873286
20
-16.0296026937156
30
0
41
1
10
78.1547486933575
20
-16.027438567519
30
0
41
1
10
78.1582395277766
20
-16.0255929512086
30
0
41
1
10
78.1620979208768
20
-16.0240501755102
30
0
41
1
10
78.1662958333149
20
-16.0227973869541
30
0
41
1
10
78.1708075962334
20
-16.0218247812521
30
0
41
1
10
78.1756086099781
20
-16.0211201991388
30
0
41
1
10
78.1809859986581
20
-16.0206422450625
30
0
41
1
10
78.1852541009169
20
-16.0204911473983
30
0
41
1
10
78.1878371506583
20
-16.0204805612974
30
0
41
1
10
78.1882561430572
20
-16.0204809478767
30
0
0
SPLINE
5
F2
100
AcDbEntity
8
1
62
256
6
ByLayer
370
18
48
1
60
0
100
AcDbSpline
70
4
71
3
72
27
73
23
40
0
40
0
40
0
40
0
40
0.0259066544811205
40
0.0579973677054187
40
0.0900593658534671
40
0.133882575294425
40
0.177731291972734
40
0.221563309378569
40
0.268305992896163
40
0.315088614117821
40
0.361894621459647
40
0.408696014349111
40
0.455454455803117
40
0.515375246779236
40
0.575331612474802
40
0.635293857839091
40
0.695222671161917
40
0.756148735176522
40
0.817116431246337
40
0.878099881022421
40
0.939071034352962
40
1
40
1
40
1
40
1
41
1
10
78.1882561430572
20
-16.0204809478767
30
0
41
1
10
78.1900141783249
20
-16.0204822094309
30
0
41
1
10
78.1940011084057
20
-16.0205560680355
30
0
41
1
10
78.2003822386231
20
-16.020928292198
30
0
41
1
10
78.2082398155999
20
-16.0216766496926
30
0
41
1
10
78.2171934878468
20
-16.0228726099937
30
0
41
1
10
78.2272832048364
20
-16.0246071942793
30
0
41
1
10
78.2378181774767
20
-16.0267705174001
30
0
41
1
10
78.2487786155294
20
-16.0293506976487
30
0
41
1
10
78.260152598474
20
-16.0323466346218
30
0
41
1
10
78.2716822381764
20
-16.0356775651368
30
0
41
1
10
78.2833381734172
20
-16.0393161110816
30
0
41
1
10
78.296201560277
20
-16.0436049186145
30
0
41
1
10
78.3102922532527
20
-16.0486174408397
30
0
41
1
10
78.3256237838527
20
-16.0544331005938
30
0
41
1
10
78.3410567368681
20
-16.0606291481824
30
0
41
1
10
78.3566529955317
20
-16.0672169632351
30
0
41
1
10
78.3723983163299
20
-16.0741822468669
30
0
41
1
10
78.3882818469541
20
-16.0815214528828
30
0
41
1
10
78.404200086533
20
-16.0891847231061
30
0
41
1
10
78.4201321790681
20
-16.0971590688186
30
0
41
1
10
78.430749660878
20
-16.102673898598
30
0
41
1
10
78.4360571915888
20
-16.1054809471616
30
0
0
SPLINE
5
F3
100
AcDbEntity
8
1
62
256
6
ByLayer
370
18
48
1
60
0
100
AcDbSpline
70
4
71
3
72
21
73
17
40
0
40
0
40
0
40
0
40
0.083310722651997
40
0.166621671946268
40
0.249932382541088
40
0.333251687513697
40
0.416571234822191
40
0.499890526899945
40
0.562399632830266
40
0.62490873753428
40
0.687419631905231
40
0.749930525009057
40
0.812446938307757
40
0.874963350297199
40
0.937481675824625
40
1
40
1
40
1
40
1
41
1
10
78.4360571915887
20
-16.1054809471616
30
0
41
1
10
78.4710687297563
20
-16.1239973038267
30
0
41
1
10
78.5411626359005
20
-16.1609288846144
30
0
41
1
10
78.6465150932263
20
-16.216024533668
30
0
41
1
10
78.7520844854129
20
-16.2708148057604
30
0
41
1
10
78.8578718685672
20
-16.3252960571015
30
0
41
1
10
78.9638784639679
20
-16.3794639890377
30
0
41
1
10
79.0612581863506
20
-16.4288294489192
30
0
41
1
10
79.1499530497317
20
-16.4734756938369
30
0
41
1
10
79.2299122948121
20
-16.5134788254928
30
0
41
1
10
79.3099958239492
20
-16.5532965899221
30
0
41
1
10
79.3902064592161
20
-16.5929282978046
30
0
41
1
10
79.4705438849575
20
-16.6323717068186
30
0
41
1
10
79.5510093852023
20
-16.6716252601241
30
0
41
1
10
79.6316009805864
20
-16.7106860981316
30
0
41
1
10
79.6854131663572
20
-16.7365963908039
30
0
41
1
10
79.7123402034586
20
-16.7495190528382
30
0
0
SPLINE
5
F4
100
AcDbEntity
8
1
62
256
6
ByLayer
370
18
48
1
60
0
100
AcDbSpline
70
4
71
3
72
25
73
21
40
0
40
0
40
0
40
0
40
0.0645096438695961
40
0.12906296803749
40
0.193630422343987
40
0.258182830565281
40
0.322691705702089
40
0.377641810305179
40
0.432601455993992
40
0.487550035561577
40
0.542912087906977
40
0.598286080081029
40
0.65364454849962
40
0.710800569442286
40
0.767975202018965
40
0.825121330373074
40
0.868830757683377
40
0.912579725094471
40
0.956312573931319
40
1
40
1
40
1
40
1
41
1
10
79.7123402034586
20
-16.7495190528382
30
0
41
1
10
79.7179488801294
20
-16.7522106643755
30
0
41
1
10
79.7291749201603
20
-16.7574811476041
30
0
41
1
10
79.7460386182061
20
-16.7650478142431
30
0
41
1
10
79.7629070513896
20
-16.7722653719773
30
0
41
1
10
79.7797593294604
20
-16.7791231414934
30
0
41
1
10
79.7957483937372
20
-16.7852920694734
30
0
41
1
10
79.8108677206502
20
-16.7908244676364
30
0
41
1
10
79.8251158228456
20
-16.7957661626428
30
0
41
1
10
79.8393446678335
20
-16.8004191252445
30
0
41
1
10
79.8535407550046
20
-16.8047671958528
30
0
41
1
10
79.8676863207036
20
-16.8087858888388
30
0
41
1
10
79.8818782358945
20
-16.8124797867781
30
0
41
1
10
79.896090899371
20
-16.815810789875
30
0
41
1
10
79.9102848907346
20
-16.8187203671985
30
0
41
1
10
79.9231728001001
20
-16.8209355098392
30
0
41
1
10
79.9347750611994
20
-16.8225511778189
30
0
41
1
10
79.9451180851216
20
-16.8236544438388
30
0
41
1
10
79.9552413357668
20
-16.8243559731518
30
0
41
1
10
79.9617979074808
20
-16.8245139252557
30
0
41
1
10
79.9650307249299
20
-16.8245190528383
30
0
0
SPLINE
5
F5
100
AcDbEntity
8
1
62
256
6
ByLayer
370
18
48
1
60
0
100
AcDbSpline
70
4
71
3
72
26
73
22
40
0
40
0
40
0
40
0
40
0.0379793511390856
40
0.0759778984429078
40
0.113983021604993
40
0.151971344072671
40
0.203226001018597
40
0.254494227082208
40
0.305753486231425
40
0.362856692215727
40
0.41997122217486
40
0.477077210531947
40
0.534505729987142
40
0.591942479778397
40
0.649372101892145
40
0.707676286571472
40
0.765987763824935
40
0.824292153917809
40
0.882859231639518
40
0.941433545196994
40
1
40
1
40
1
40
1
41
1
10
81.9375117213774
20
-16.8245190528383
30
0
41
1
10
81.9335481921132
20
-16.8245154750726
30
0
41
1
10
81.9255663717096
20
-16.8243961070981
30
0
41
1
10
81.9134205628888
20
-16.8238654791428
30
0
41
1
10
81.9011414799228
20
-16.8230274804354
30
0
41
1
10
81.8873100080443
20
-16.8217806702897
30
0
41
1
10
81.8719038187977
20
-16.820041351597
30
0
41
1
10
81.8549050076357
20
-16.8177161607644
30
0
41
1
10
81.8371445318824
20
-16.8149043802709
30
0
41
1
10
81.8186319713808
20
-16.811592146873
30
0
41
1
10
81.7993753988645
20
-16.8077549529936
30
0
41
1
10
81.7800107768276
20
-16.8035282707046
30
0
41
1
10
81.7605539086741
20
-16.7989338431997
30
0
41
1
10
81.74101673198
20
-16.7939821553787
30
0
41
1
10
81.7213481129487
20
-16.7886683736176
30
0
41
1
10
81.7015583303117
20
-16.7829989590933
30
0
41
1
10
81.6816568660088
20
-16.7769734958414
30
0
41
1
10
81.6617228841627
20
-16.7706162625941
30
0
41
1
10
81.6417661922526
20
-16.7639304602042
30
0
41
1
10
81.6217955076422
20
-16.7569133344906
30
0
41
1
10
81.608501684789
20
-16.7520195568553
30
0
41
1
10
81.6018594669771
20
-16.7495190528382
30
0
0
SPLINE
5
F6
100
AcDbEntity
8
1
62
256
6
ByLayer
370
18
48
1
60
0
100
AcDbSpline
70
4
71
3
72
19
73
15
40
0
40
0
40
0
40
0
40
0.0832865944211704
40
0.166573759495351
40
0.249860383618724
40
0.333166502398838
40
0.41647315423483
40
0.499779301179559
40
0.583140740949128
40
0.666502678773148
40
0.749864145199396
40
0.833242600335661
40
0.916621519760069
40
1
40
1
40
1
40
1
41
1
10
81.6018594669771
20
-16.7495190528382
30
0
41
1
10
81.5574284463307
20
-16.7327876630223
30
0
41
1
10
81.4686676817971
20
-16.699125723976
30
0
41
1
10
81.3358313796814
20
-16.6480319319946
30
0
41
1
10
81.2032895373957
20
-16.5963445641407
30
0
41
1
10
81.0710421907129
20
-16.5440707021386
30
0
41
1
10
80.9390892514112
20
-16.4912184392747
30
0
41
1
10
80.8074116541633
20
-16.4377879228505
30
0
41
1
10
80.6760092962938
20
-16.3837866226224
30
0
41
1
10
80.5448819562295
20
-16.3292219051394
30
0
41
1
10
80.4140492813184
20
-16.274109635546
30
0
41
1
10
80.2835107103686
20
-16.2184575602684
30
0
41
1
10
80.1532657001273
20
-16.1622723033099
30
0
41
1
10
80.0666364995515
20
-16.1244694185721
30
0
41
1
10
80.0233722972
20
-16.1054809471616
30
0
0
SPLINE
5
F7
100
AcDbEntity
8
1
62
256
6
ByLayer
370
18
48
1
60
0
100
AcDbSpline
70
4
71
3
72
27
73
23
40
0
40
0
40
0
40
0
40
0.0703336133482496
40
0.140716165395984
40
0.211113236511532
40
0.28149226319853
40
0.351822917747299
40
0.411817673988188
40
0.471823687917818
40
0.531815737192337
40
0.577203789129161
40
0.622607101917645
40
0.668007020546962
40
0.713390442465674
40
0.752826690189283
40
0.79228003479378
40
0.831728353005345
40
0.871157743425917
40
0.911383700255304
40
0.951647972864845
40
0.991895345722935
40
1
40
1
40
1
40
1
41
1
10
80.0233722972
20
-16.1054809471616
30
0
41
1
10
80.0159207907889
20
-16.1022105004358
30
0
41
1
10
80.0010098915536
20
-16.0958128171619
30
0
41
1
10
79.9786218254667
20
-16.0866461767984
30
0
41
1
10
79.9562397884328
20
-16.0779246138667
30
0
41
1
10
79.9338931279178
20
-16.0696634666075
30
0
41
1
10
79.9126971333312
20
-16.0622569230748
30
0
41
1
10
79.89265976736
20
-16.0556410507171
30
0
41
1
10
79.8737829701988
20
-16.0497639631917
30
0
41
1
10
79.8565221625922
20
-16.0447332336152
30
0
41
1
10
79.8408692612801
20
-16.0404599290274
30
0
41
1
10
79.8268081028168
20
-16.036860782512
30
0
41
1
10
79.812838553002
20
-16.0335412964942
30
0
41
1
10
79.7995833364621
20
-16.0306532652928
30
0
41
1
10
79.7870398002324
20
-16.0281687962651
30
0
41
1
10
79.7752056682748
20
-16.0260656468728
30
0
41
1
10
79.7635016212194
20
-16.0242489952431
30
0
41
1
10
79.7518738235001
20
-16.0227344249125
30
0
41
1
10
79.7403445987516
20
-16.0215510604091
30
0
41
1
10
79.7289597783499
20
-16.0207563420365
30
0
41
1
10
79.720796914798
20
-16.0204941317885
30
0
41
1
10
79.716428385422
20
-16.0204799991673
30
0
41
1
10
79.715698259803
20
-16.0204809500959
30
0
0
SPLINE
5
F8
100
AcDbEntity
8
1
62
256
6
ByLayer
370
18
48
1
60
0
100
AcDbSpline
70
4
71
3
72
33
73
29
40
0
40
0
40
0
40
0
40
0.0553954730170327
40
0.106151709608411
40
0.156972524409617
40
0.207765310739473
40
0.258483274182094
40
0.292226457478361
40
0.325986151154468
40
0.359721370895568
40
0.394398763486164
40
0.429106070123457
40
0.463769351669929
40
0.497983818536385
40
0.532309380345441
40
0.566613591731122
40
0.600798846462808
40
0.635130741667574
40
0.669599267555881
40
0.704075545121789
40
0.738418052416551
40
0.770988781153767
40
0.803644674250502
40
0.836320090878206
40
0.868917509268692
40
0.912580387827265
40
0.956310409158931
40
1
40
1
40
1
40
1
41
1
10
79.715698259803
20
-16.0204809500958
30
0
41
1
10
79.7127994522681
20
-16.0204767782287
30
0
41
1
10
79.7073284893893
20
-16.0205854508284
30
0
41
1
10
79.6994575390002
20
-16.0210606876643
30
0
41
1
10
79.6920739636652
20
-16.0218602589091
30
0
41
1
10
79.6849955197021
20
-16.0230354810662
30
0
41
1
10
79.6790305708604
20
-16.0244487887655
30
0
41
1
10
79.6740948188111
20
-16.0259806717804
30
0
41
1
10
79.6700851080639
20
-16.027512949807
30
0
41
1
10
79.6662860436236
20
-16.0292969037847
30
0
41
1
10
79.6627399611796
20
-16.0313578963289
30
0
41
1
10
79.6594955275527
20
-16.0337194076443
30
0
41
1
10
79.6566373633985
20
-16.0363634179084
30
0
41
1
10
79.6542157780345
20
-16.0393078125793
30
0
41
1
10
79.6522583403289
20
-16.04254630746
30
0
41
1
10
79.6507879179151
20
-16.0460802566495
30
0
41
1
10
79.64984312742
20
-16.0499042128171
30
0
41
1
10
79.6494770199133
20
-16.0540178293858
30
0
41
1
10
79.6496747310601
20
-16.0583833018339
30
0
41
1
10
79.6504190819053
20
-16.0629494652181
30
0
41
1
10
79.6516806202893
20
-16.0675948876595
30
0
41
1
10
79.6534167558283
20
-16.0722783583929
30
0
41
1
10
79.6555448623519
20
-16.0769617505403
30
0
41
1
10
79.6580571579865
20
-16.0816965950702
30
0
41
1
10
79.6612412152165
20
-16.0869926385614
30
0
41
1
10
79.6652015628263
20
-16.0928350000543
30
0
41
1
10
79.6700103294178
20
-16.0991910795698
30
0
41
1
10
79.6734765489771
20
-16.1033903476189
30
0
41
1
10
79.6752788117472
20
-16.1054809471616
30
0
0
SPLINE
5
F9
100
AcDbEntity
8
1
62
256
6
ByLayer
370
18
48
1
60
0
100
AcDbSpline
70
4
71
2
72
6
73
3
40
0
40
0
40
0
40
1
40
1
40
1
41
1
10
80.2304739498806
20
-16.7495190528382
30
0
41
1
10
79.9523696022185
20
-16.4278276525994
30
0
41
1
10
79.6752788117472
20
-16.1054809471616
30
0
0
SPLINE
5
FA
100
AcDbEntity
8
1
62
256
6
ByLayer
370
18
48
1
60
0
100
AcDbSpline
70
4
71
3
72
11
73
7
40
0
40
0
40
0
40
0
40
0.249995839940145
40
0.499991647145856
40
0.749995844451852
40
1
40
1
40
1
40
1
41
1
10
81.7059334117041
20
-16.1054809471616
30
0
41
1
10
81.7580080372128
20
-16.1594087865789
30
0
41
1
10
81.8623312650393
20
-16.267137638105
30
0
41
1
10
82.0193292162409
20
-16.4283608962589
30
0
41
1
10
82.1768720687301
20
-16.5891881827307
30
0
41
1
10
82.2822887310972
20
-16.6961219052202
30
0
41
1
10
82.3350917212967
20
-16.7495190528382
30
0
0
SPLINE
5
FB
100
AcDbEntity
8
1
62
256
6
ByLayer
370
18
48
1
60
0
100
AcDbSpline
70
4
71
3
72
37
73
33
40
0
40
0
40
0
40
0
40
0.0355955642889068
40
0.0711844319399859
40
0.0973527044873608
40
0.123622864837597
40
0.149898141956481
40
0.176111394586702
40
0.202231760288332
40
0.22623158689374
40
0.250315195945521
40
0.27439098995588
40
0.298380121836048
40
0.322364387604376
40
0.346429520988527
40
0.370507391858611
40
0.394509083771537
40
0.427422453891646
40
0.460451315027375
40
0.493524630472742
40
0.526498817565429
40
0.56358817703026
40
0.600718370440939
40
0.637826403950304
40
0.675821620285356
40
0.713837221496524
40
0.751840861543931
40
0.811068654905464
40
0.870360782798183
40
0.929706269627439
40
0.989057339804967
40
1
40
1
40
1
40
1
41
1
10
81.7059334117108
20
-16.1054809471727
30
0
41
1
10
81.70418843955
20
-16.1036809121647
30
0
41
1
10
81.7008297370356
20
-16.100046118312
30
0
41
1
10
81.6965598043913
20
-16.0949737922661
30
0
41
1
10
81.6930340089201
20
-16.0903206577459
30
0
41
1
10
81.6901657388169
20
-16.0861182465423
30
0
41
1
10
81.6876161959953
20
-16.0818864297023
30
0
41
1
10
81.6854341418217
20
-16.0776541660519
30
0
41
1
10
81.683712092547
20
-16.0735594791163
30
0
41
1
10
81.6824630032462
20
-16.0696235550846
30
0
41
1
10
81.6816567269845
20
-16.0658635552375
30
0
41
1
10
81.681269494165
20
-16.0621978265406
30
0
41
1
10
81.6813196748477
20
-16.0586603105841
30
0
41
1
10
81.6818271613497
20
-16.0552808917592
30
0
41
1
10
81.6827580694455
20
-16.0520693215501
30
0
41
1
10
81.6840844463289
20
-16.0490404997381
30
0
41
1
10
81.6859938601027
20
-16.0458600526261
30
0
41
1
10
81.6886327992216
20
-16.0426287082729
30
0
41
1
10
81.6920884702435
20
-16.0394371559804
30
0
41
1
10
81.6960149513937
20
-16.0365894222862
30
0
41
1
10
81.7005160521589
20
-16.0339613516942
30
0
41
1
10
81.7055793881821
20
-16.0315705952439
30
0
41
1
10
81.7111856828392
20
-16.0294239432927
30
0
41
1
10
81.7171294500946
20
-16.0275648404202
30
0
41
1
10
81.72336541978
20
-16.0259661513939
30
0
41
1
10
81.7298635851097
20
-16.0246098904053
30
0
41
1
10
81.737786032863
20
-16.0232747666463
30
0
41
1
10
81.7472163857034
20
-16.0220817929794
30
0
41
1
10
81.7582264313461
20
-16.0211584861101
30
0
41
1
10
81.7694902502314
20
-16.0206270152721
30
0
41
1
10
81.7778341292569
20
-16.0204778764187
30
0
41
1
10
81.7824021276115
20
-16.0204788698766
30
0
41
1
10
81.7831143028461
20
-16.0204809478393
30
0
0
SPLINE
5
FC
100
AcDbEntity
8
1
62
256
6
ByLayer
370
18
48
1
60
0
100
AcDbSpline
70
4
71
3
72
26
73
22
40
0
40
0
40
0
40
0
40
0.0243102363404348
40
0.062589937795856
40
0.100887671188902
40
0.139191772488397
40
0.177480161279518
40
0.227917202882322
40
0.278373049698046
40
0.328834456291389
40
0.379279082083616
40
0.430189425113387
40
0.48111071232464
40
0.532033907352175
40
0.582946852491144
40
0.652421603054762
40
0.721934785415797
40
0.791468853573438
40
0.861004808104801
40
0.930522344866539
40
1
40
1
40
1
40
1
41
1
10
81.7831143028461
20
-16.0204809478393
30
0
41
1
10
81.7862573312666
20
-16.0204835278729
30
0
41
1
10
81.7943862577231
20
-16.0205632627525
30
0
41
1
10
81.8076560383219
20
-16.0210115994605
30
0
41
1
10
81.8229466214888
20
-16.0219071822375
30
0
41
1
10
81.8383918972384
20
-16.0231545772783
30
0
41
1
10
81.8556077469126
20
-16.0248783136512
30
0
41
1
10
81.8746165258683
20
-16.0271549807423
30
0
41
1
10
81.8954372367432
20
-16.0300726155263
30
0
41
1
10
81.9163819265404
20
-16.0333933425257
30
0
41
1
10
81.9374898497053
20
-16.0370898613257
30
0
41
1
10
81.9587442202036
20
-16.0411320711619
30
0
41
1
10
81.9801355463837
20
-16.0455087084203
30
0
41
1
10
82.0015850779588
20
-16.0501885434257
30
0
41
1
10
82.0256925545418
20
-16.0557588116938
30
0
41
1
10
82.0524713905504
20
-16.0623256900475
30
0
41
1
10
82.0819262318223
20
-16.0700171111045
30
0
41
1
10
82.1114224403071
20
-16.0781828096052
30
0
41
1
10
82.1409342076768
20
-16.0868104060955
30
0
41
1
10
82.1704379615292
20
-16.095889066717
30
0
41
1
10
82.1900885329739
20
-16.1022347952736
30
0
41
1
10
82.1999085028222
20
-16.1054809471615
30
0
0
SPLINE
5
FD
100
AcDbEntity
8
1
62
256
6
ByLayer
370
18
48
1
60
0
100
AcDbSpline
70
4
71
3
72
27
73
23
40
0
40
0
40
0
40
0
40
0.0499310988073953
40
0.0998629531464278
40
0.149795037587451
40
0.199726850562176
40
0.249657914676389
40
0.299614818573008
40
0.349572540569689
40
0.399530512701757
40
0.449488191766307
40
0.499445059654737
40
0.549484868289531
40
0.599525562657822
40
0.649566529032296
40
0.699607179183401
40
0.749646950732153
40
0.799716947030794
40
0.84978789536594
40
0.899859137556783
40
0.949930041192187
40
1
40
1
40
1
40
1
41
1
10
82.1999085028222
20
-16.1054809471616
30
0
41
1
10
82.2368797191921
20
-16.1177017192088
30
0
41
1
10
82.3108844323199
20
-16.1420012258753
30
0
41
1
10
82.422077447516
20
-16.1780258756958
30
0
41
1
10
82.5334555005577
20
-16.2136201911831
30
0
41
1
10
82.6450167793316
20
-16.2487800797406
30
0
41
1
10
82.756779551004
20
-16.2835071735462
30
0
41
1
10
82.8687438851049
20
-16.3177972491597
30
0
41
1
10
82.9809096716333
20
-16.3516461172779
30
0
41
1
10
83.0932563684665
20
-16.3850436333333
30
0
41
1
10
83.2057816885042
20
-16.4179852350768
30
0
41
1
10
83.3185466940468
20
-16.4504846246819
30
0
41
1
10
83.431551452166
20
-16.4825368829498
30
0
41
1
10
83.5447958289119
20
-16.514137200313
30
0
41
1
10
83.6582157719549
20
-16.5452636256068
30
0
41
1
10
83.771808551251
20
-16.5759115938056
30
0
41
1
10
83.8855954129684
20
-16.6060829065527
30
0
41
1
10
83.9995759370049
20
-16.635773187934
30
0
41
1
10
84.1137495065691
20
-16.6649782858286
30
0
41
1
10
84.2280911796399
20
-16.6936879416743
30
0
41
1
10
84.3425979586318
20
-16.7218981036002
30
0
41
1
10
84.4190442899109
20
-16.7403680349697
30
0
41
1
10
84.4572944570879
20
-16.7495190528382
30
0
0
SPLINE
5
FE
100
AcDbEntity
8
1
62
256
6
ByLayer
370
18
48
1
60
0
100
AcDbSpline
70
4
71
3
72
26
73
22
40
0
40
0
40
0
40
0
40
0.0573708852491497
40
0.114748683890053
40
0.172127306622297
40
0.229499315764858
40
0.287076208335082
40
0.344659102613305
40
0.402241961881321
40
0.459818806705413
40
0.513629228633392
40
0.567448933448454
40
0.621270332033665
40
0.675087352042113
40
0.728895521817343
40
0.774014531488673
40
0.81913589849889
40
0.864253872562007
40
0.90950232882144
40
0.954754598979072
40
1
40
1
40
1
40
1
41
1
10
84.4572944570879
20
-16.7495190528382
30
0
41
1
10
84.4680553578719
20
-16.7520920955014
30
0
41
1
10
84.4895895626012
20
-16.7571092649339
30
0
41
1
10
84.5219289154763
20
-16.7642430884609
30
0
41
1
10
84.5542939634292
20
-16.7709980330041
30
0
41
1
10
84.5867153684879
20
-16.7773900426049
30
0
41
1
10
84.6191871775924
20
-16.7834272370987
30
0
41
1
10
84.6517041543598
20
-16.7891060481952
30
0
41
1
10
84.6842199507516
20
-16.794417421221
30
0
41
1
10
84.716017928055
20
-16.7992505788015
30
0
41
1
10
84.7470943851798
20
-16.8036339990557
30
0
41
1
10
84.7774453223491
20
-16.8075826481606
30
0
41
1
10
84.8077706585384
20
-16.8111806452473
30
0
41
1
10
84.8380584437382
20
-16.8144123521615
30
0
41
1
10
84.8666713826554
20
-16.8171094881706
30
0
41
1
10
84.8936097218825
20
-16.8193258094248
30
0
41
1
10
84.9188738318953
20
-16.8211027983316
30
0
41
1
10
84.9441017596247
20
-16.8225520870004
30
0
41
1
10
84.9692807655396
20
-16.8236502569895
30
0
41
1
10
84.9943922385389
20
-16.8243546318091
30
0
41
1
10
85.01104732388
20
-16.8245134001507
30
0
41
1
10
85.0193548475875
20
-16.8245190528383
30
0
0
SPLINE
5
FF
100
AcDbEntity
8
1
62
256
6
ByLayer
370
18
48
1
60
0
100
AcDbSpline
70
4
71
3
72
27
73
23
40
0
40
0
40
0
40
0
40
0.0605981870162624
40
0.121198107518308
40
0.181796247170137
40
0.242460147552904
40
0.303125877631563
40
0.363789489205675
40
0.416194707915671
40
0.468605616297969
40
0.521017302232324
40
0.573426061880426
40
0.625829478236665
40
0.669707370605558
40
0.713596856089654
40
0.757488875755602
40
0.801376876497933
40
0.845257086451926
40
0.889128793717962
40
0.927147591052169
40
0.965169450151
40
1
40
1
40
1
40
1
41
1
10
85.7988389213915
20
-16.1054809471616
30
0
41
1
10
85.7830649810089
20
-16.1027719793817
30
0
41
1
10
85.7515172090127
20
-16.097447362274
30
0
41
1
10
85.7041949184531
20
-16.0897395040037
30
0
41
1
10
85.656862305894
20
-16.0823114784155
30
0
41
1
10
85.609524367072
20
-16.07516589482
30
0
41
1
10
85.5621870526251
20
-16.0683152072266
30
0
41
1
10
85.5170206796811
20
-16.0620724067195
30
0
41
1
10
85.4740264857309
20
-16.0563973877509
30
0
41
1
10
85.4332042432379
20
-16.0512605015541
30
0
41
1
10
85.3924152347779
20
-16.046399719697
30
0
41
1
10
85.3516692876013
20
-16.0418346046127
30
0
41
1
10
85.31318166567
20
-16.0378184024074
30
0
41
1
10
85.2769464623604
20
-16.0343020035135
30
0
41
1
10
85.2429593514733
20
-16.0312562643012
30
0
41
1
10
85.2090280277343
20
-16.0285043877974
30
0
41
1
10
85.1751695769042
20
-16.0260810859259
30
0
41
1
10
85.1414014265838
20
-16.0240225766133
30
0
41
1
10
85.109235468767
20
-16.0224358276867
30
0
41
1
10
85.0786724712724
20
-16.0212985863306
30
0
41
1
10
85.0505259936244
20
-16.0206309515111
30
0
41
1
10
85.032128314376
20
-16.0204867301807
30
0
41
1
10
85.0233525482607
20
-16.0204809483402
30
0
0
SPLINE
5
100
100
AcDbEntity
8
1
62
256
6
ByLayer
370
18
48
1
60
0
100
AcDbSpline
70
4
71
3
72
41
73
37
40
0
40
0
40
0
40
0
40
0.0082579383381471
40
0.067764606741332
40
0.127295569880917
40
0.186824329153005
40
0.246335220582072
40
0.305825048230682
40
0.355143577045109
40
0.404470762315972
40
0.453778268726098
40
0.491414683688519
40
0.529092924698292
40
0.566738337771858
40
0.604329930451016
40
0.626929011935484
40
0.649569251856462
40
0.672181469655101
40
0.694742260813578
40
0.714234745918929
40
0.733758191546632
40
0.753215622288648
40
0.768591363034703
40
0.784007007659362
40
0.799367761295326
40
0.814781834448162
40
0.830253130410047
40
0.845677004171559
40
0.864720605871458
40
0.883839287930475
40
0.902920507056293
40
0.927100698366255
40
0.951358316226092
40
0.975661430088931
40
0.999903838380591
40
1
40
1
40
1
40
1
41
1
10
85.0233525482607
20
-16.0204809483402
30
0
41
1
10
85.0225502044941
20
-16.0204809192159
30
0
41
1
10
85.0159680782676
20
-16.0204859599301
30
0
41
1
10
85.0036297134556
20
-16.020570176253
30
0
41
1
10
84.9864031128034
20
-16.0209074906094
30
0
41
1
10
84.9692769344934
20
-16.0215020486096
30
0
41
1
10
84.9522784841558
20
-16.0223914758625
30
0
41
1
10
84.9363934171821
20
-16.0235429489503
30
0
41
1
10
84.9216169850103
20
-16.0249268076399
30
0
41
1
10
84.9079567309804
20
-16.0265381676012
30
0
41
1
10
84.8955720032471
20
-16.0283714641806
30
0
41
1
10
84.8844403112539
20
-16.0303618138491
30
0
41
1
10
84.8745526179853
20
-16.0324718263645
30
0
41
1
10
84.8649440966873
20
-16.0349616650541
30
0
41
1
10
84.8569297073469
20
-16.0375085436539
30
0
41
1
10
84.8504191950129
20
-16.0399687146215
30
0
41
1
10
84.8453072766725
20
-16.0422122348067
30
0
41
1
10
84.8404829205677
20
-16.0447214799021
30
0
41
1
10
84.8362230278985
20
-16.0474015616827
30
0
41
1
10
84.8325521423159
20
-16.0502401833598
30
0
41
1
10
84.829499362847
20
-16.0532193422331
30
0
41
1
10
84.827158096421
20
-16.0562686129605
30
0
41
1
10
84.825517102903
20
-16.05932739643
30
0
41
1
10
84.8244776363726
20
-16.0623136100319
30
0
41
1
10
84.8239483136637
20
-16.0654548329494
30
0
41
1
10
84.8239949622458
20
-16.0687216026464
30
0
41
1
10
84.8245798888354
20
-16.0720589576383
30
0
41
1
10
84.8257615690142
20
-16.0756811763104
30
0
41
1
10
84.8276562377517
20
-16.0795421459846
30
0
41
1
10
84.8302691348501
20
-16.0835798571877
30
0
41
1
10
84.833646807421
20
-16.0878528468804
30
0
41
1
10
84.8378200134582
20
-16.0923073724172
30
0
41
1
10
84.8427899491405
20
-16.0968958415423
30
0
41
1
10
84.8481345886196
20
-16.1012848939494
30
0
41
1
10
84.8518928040203
20
-16.1040955705419
30
0
41
1
10
84.8538080663379
20
-16.1054754955216
30
0
41
1
10
84.8538156341724
20
-16.1054809471566
30
0
0
SPLINE
5
101
100
AcDbEntity
8
1
62
256
6
ByLayer
370
18
48
1
60
0
100
AcDbSpline
70
4
71
3
72
19
73
15
40
0
40
0
40
0
40
0
40
0.0832655959543659
40
0.166532150667609
40
0.249797871108668
40
0.333093772170813
40
0.416390476265519
40
0.499686479839825
40
0.583061100571342
40
0.666436397265447
40
0.749811102744397
40
0.833207188568015
40
0.916603844150095
40
1
40
1
40
1
40
1
41
1
10
85.8097734431292
20
-16.7495190528382
30
0
41
1
10
85.7824962278129
20
-16.7324939959115
30
0
41
1
10
85.7280731440669
20
-16.6982880074926
30
0
41
1
10
85.6468373911801
20
-16.6465046225382
30
0
41
1
10
85.5659792705835
20
-16.594262737609
30
0
41
1
10
85.4854913803741
20
-16.5415762254007
30
0
41
1
10
85.405365974801
20
-16.488459613809
30
0
41
1
10
85.3255798539028
20
-16.4349164174704
30
0
41
1
10
85.2461253422965
20
-16.3809601482629
30
0
41
1
10
85.1669954703014
20
-16.326602994971
30
0
41
1
10
85.0882010127985
20
-16.2718696552337
30
0
41
1
10
85.0097342091368
20
-16.2167726598813
30
0
41
1
10
84.9315889552926
20
-16.1613218980271
30
0
41
1
10
84.8797042833084
20
-16.1241322064565
30
0
41
1
10
84.8538156341676
20
-16.1054809471616
30
0
0
SPLINE
5
102
100
AcDbEntity
8
1
62
256
6
ByLayer
370
18
48
1
60
0
100
AcDbSpline
70
4
71
3
72
11
73
7
40
0
40
0
40
0
40
0
40
0.249995562084001
40
0.499991165920324
40
0.749995566590623
40
1
40
1
40
1
40
1
41
1
10
97.6649082787032
20
-16.7495190528381
30
0
41
1
10
97.7177094540999
20
-16.6961237408321
30
0
41
1
10
97.8231224994992
20
-16.5891936988397
30
0
41
1
10
97.9806635760289
20
-16.4283682765717
30
0
41
1
10
98.1376633531287
20
-16.2671431908019
30
0
41
1
10
98.241990172948
20
-16.1594106404811
30
0
41
1
10
98.2940665882958
20
-16.1054809471616
30
0
0
SPLINE
5
103
100
AcDbEntity
8
1
62
256
6
ByLayer
370
18
48
1
60
0
100
AcDbSpline
70
4
71
3
72
37
73
33
40
0
40
0
40
0
40
0
40
0.0427580378518153
40
0.11003523007892
40
0.161368808002624
40
0.212747634388077
40
0.264103168793952
40
0.315404954291549
40
0.350976842990224
40
0.386590526199639
40
0.422184830021129
40
0.457730258589911
40
0.486460281134856
40
0.515294829611486
40
0.544129589420715
40
0.572895935167291
40
0.601568557865402
40
0.626195155374505
40
0.650903052504078
40
0.6755964830279
40
0.700203286061161
40
0.72488978116733
40
0.749670740063195
40
0.774460422217226
40
0.799158857407641
40
0.829019185266789
40
0.858986025997776
40
0.888987994985926
40
0.91889638537895
40
0.945920914956199
40
0.972967353292189
40
1
40
1
40
1
40
1
41
1
10
98.2168482319054
20
-16.020480951404
30
0
41
1
10
98.2196297629804
20
-16.0204777060825
30
0
41
1
10
98.2267450718916
20
-16.0205431092032
30
0
41
1
10
98.2370324780654
20
-16.020904993757
30
0
41
1
10
98.2476597621334
20
-16.0216252776042
30
0
41
1
10
98.2570925325455
20
-16.0225832305515
30
0
41
1
10
98.2662769608428
20
-16.023892118874
30
0
41
1
10
98.2742506228202
20
-16.0254216227895
30
0
41
1
10
98.2810710374286
20
-16.0270742205685
30
0
41
1
10
98.2868064092618
20
-16.0287561697951
30
0
41
1
10
98.2922886477249
20
-16.0307072691512
30
0
41
1
10
98.2971394891226
20
-16.0328096730075
30
0
41
1
10
98.301380436958
20
-16.0350281299582
30
0
41
1
10
98.3050425795826
20
-16.0373207516327
30
0
41
1
10
98.3083915749759
20
-16.0398638054372
30
0
41
1
10
98.3113691169379
20
-16.0426677299428
30
0
41
1
10
98.31380245248
20
-16.0455990522495
30
0
41
1
10
98.3157009812
20
-16.0486301824959
30
0
41
1
10
98.3171129464878
20
-16.0517136019932
30
0
41
1
10
98.3181117486265
20
-16.0549907066817
30
0
41
1
10
98.318666982887
20
-16.058449603806
30
0
41
1
10
98.3187390427718
20
-16.0620811220239
30
0
41
1
10
98.3183475932379
20
-16.065853130403
30
0
41
1
10
98.3175128037391
20
-16.0697249989901
30
0
41
1
10
98.3161590267573
20
-16.073937192033
30
0
41
1
10
98.3141924259876
20
-16.0784777957948
30
0
41
1
10
98.3115820716353
20
-16.0833161431434
30
0
41
1
10
98.3085161570089
20
-16.0881370145045
30
0
41
1
10
98.3051667346339
20
-16.0927563496608
30
0
41
1
10
98.3016259349839
20
-16.0971622004238
30
0
41
1
10
98.2979644743955
20
-16.101358896207
30
0
41
1
10
98.2953894588536
20
-16.1041141092907
30
0
41
1
10
98.2940665882958
20
-16.1054809471616
30
0
0
SPLINE
5
104
100
AcDbEntity
8
1
62
256
6
ByLayer
370
18
48
1
60
0
100
AcDbSpline
70
4
71
3
72
26
73
22
40
0
40
0
40
0
40
0
40
0.0691818161983553
40
0.138392140520468
40
0.207611473266128
40
0.276820819059375
40
0.346001814218759
40
0.40455804476673
40
0.463150881879212
40
0.521755174760364
40
0.58035111040655
40
0.638924656021153
40
0.697468018234904
40
0.740052197112484
40
0.782641305085903
40
0.825223232487099
40
0.868079874534607
40
0.910944705445443
40
0.953795537325859
40
0.987648872775885
40
1
40
1
40
1
40
1
41
1
10
97.8000914971777
20
-16.1054809471616
30
0
41
1
10
97.8098687309903
20
-16.1022492092497
30
0
41
1
10
97.8294322101954
20
-16.0959321216837
30
0
41
1
10
97.8588031637786
20
-16.0868960774796
30
0
41
1
10
97.8881779802765
20
-16.0783076198548
30
0
41
1
10
97.917533931763
20
-16.0701745113556
30
0
41
1
10
97.9453519323484
20
-16.062897711956
30
0
41
1
10
97.9716299811373
20
-16.0563983912584
30
0
41
1
10
97.9963698070315
20
-16.0506219555866
30
0
41
1
10
98.0210538620528
20
-16.0452256343397
30
0
41
1
10
98.0456571082669
20
-16.0402379843746
30
0
41
1
10
98.070154195782
20
-16.0356886167667
30
0
41
1
10
98.0923108782607
20
-16.0319749865374
30
0
41
1
10
98.1121463611447
20
-16.0289864170998
30
0
41
1
10
98.1296853112539
20
-16.0266253886197
30
0
41
1
10
98.1471501699432
20
-16.0245816806853
30
0
41
1
10
98.164520798702
20
-16.0228837955466
30
0
41
1
10
98.1817649223032
20
-16.0215811429399
30
0
41
1
10
98.1976134456483
20
-16.0207909925099
30
0
41
1
10
98.2092679445074
20
-16.0205096226256
30
0
41
1
10
98.2152524598014
20
-16.0204808946938
30
0
41
1
10
98.2168482319054
20
-16.020480951404
30
0
0
SPLINE
5
105
100
AcDbEntity
8
1
62
256
6
ByLayer
370
18
48
1
60
0
100
AcDbSpline
70
4
71
3
72
27
73
23
40
0
40
0
40
0
40
0
40
0.0499264551681826
40
0.0998538471657555
40
0.149781574783062
40
0.199709010970263
40
0.249635503201401
40
0.299592573925725
40
0.349550519144807
40
0.399508779065355
40
0.449466768212694
40
0.49942387578071
40
0.549467649815394
40
0.599512239489994
40
0.649557123880763
40
0.699601756791616
40
0.749645567089542
40
0.799715930389673
40
0.849787048910839
40
0.899858441264652
40
0.949929601615987
40
1
40
1
40
1
40
1
41
1
10
95.542705542912
20
-16.7495190528382
30
0
41
1
10
95.58084608135
20
-16.7403942651137
30
0
41
1
10
95.6570734642936
20
-16.7219777510287
30
0
41
1
10
95.7712527542286
20
-16.6938505997503
30
0
41
1
10
95.8852678916775
20
-16.665226789465
30
0
41
1
10
95.9991159041557
20
-16.636110337164
30
0
41
1
10
96.1128180134459
20
-16.6064994453602
30
0
41
1
10
96.2263733698983
20
-16.576397543036
30
0
41
1
10
96.3397813102132
20
-16.5458082969591
30
0
41
1
10
96.4530170092961
20
-16.5147421005247
30
0
41
1
10
96.5660777490348
20
-16.4832034959267
30
0
41
1
10
96.6790272297483
20
-16.4511781863979
30
0
41
1
10
96.7918646248352
20
-16.4186691190686
30
0
41
1
10
96.9045892887505
20
-16.3856793957301
30
0
41
1
10
97.0171347300344
20
-16.3522320894932
30
0
41
1
10
97.129498648006
20
-16.318331786471
30
0
41
1
10
97.2416996410996
20
-16.283976665178
30
0
41
1
10
97.3537373762286
20
-16.2491703918195
30
0
41
1
10
97.465611696485
20
-16.2139166811153
30
0
41
1
10
97.5773017757117
20
-16.178226080815
30
0
41
1
10
97.6888057860297
20
-16.1421027179512
30
0
41
1
10
97.7630171365499
20
-16.1177358157605
30
0
41
1
10
97.8000914971777
20
-16.1054809471616
30
0
0
SPLINE
5
106
100
AcDbEntity
8
1
62
256
6
ByLayer
370
18
48
1
60
0
100
AcDbSpline
70
4
71
3
72
24
73
20
40
0
40
0
40
0
40
0
40
0.0451400702534229
40
0.0902925269699675
40
0.13545427248488
40
0.180616319864238
40
0.225764436243954
40
0.282607255541343
40
0.339458420939857
40
0.3963113452296
40
0.453156563353687
40
0.521339465445422
40
0.589532658119839
40
0.657726387800802
40
0.72591002228366
40
0.794427872332243
40
0.862956758582648
40
0.931484166369996
40
1
40
1
40
1
40
1
41
1
10
94.9806451524124
20
-16.8245190528383
30
0
41
1
10
94.9889329118957
20
-16.824514578139
30
0
41
1
10
95.0055492380087
20
-16.8243592891253
30
0
41
1
10
95.0306032603938
20
-16.8236684812707
30
0
41
1
10
95.0557549042547
20
-16.8225757132404
30
0
41
1
10
95.0809824777721
20
-16.8211161245247
30
0
41
1
10
95.10844915392
20
-16.8191785057609
30
0
41
1
10
95.1381598381568
20
-16.8166978877308
30
0
41
1
10
95.1701207881469
20
-16.8135841270758
30
0
41
1
10
95.2021293941734
20
-16.8100473951156
30
0
41
1
10
95.236302597633
20
-16.8058503920489
30
0
41
1
10
95.2726386210118
20
-16.8009234533132
30
0
41
1
10
95.3111332406779
20
-16.7951746676211
30
0
41
1
10
95.3496405468559
20
-16.7889032056834
30
0
41
1
10
95.3882099892484
20
-16.7821071917655
30
0
41
1
10
95.4268327046367
20
-16.7747924573032
30
0
41
1
10
95.4654989469393
20
-16.7669415570059
30
0
41
1
10
95.5041328924766
20
-16.7585540488275
30
0
41
1
10
95.5298537027455
20
-16.7525916305522
30
0
41
1
10
95.542705542912
20
-16.7495190528382
30
0
0
SPLINE
5
107
100
AcDbEntity
8
1
62
256
6
ByLayer
370
18
48
1
60
0
100
AcDbSpline
70
4
71
3
72
41
73
37
40
0
40
0
40
0
40
0
40
0.0246975419939841
40
0.0494105281842367
40
0.0740762687967006
40
0.0888923860872811
40
0.1037222466735
40
0.118521881291391
40
0.133521510634252
40
0.148561888989277
40
0.163526628656168
40
0.174900264905617
40
0.186310888201825
40
0.197684671276428
40
0.209010633958991
40
0.220369583655579
40
0.231707201141382
40
0.250586388351358
40
0.269541863735043
40
0.288469564210374
40
0.31170888184228
40
0.334986785676184
40
0.358251163296322
40
0.394079032576559
40
0.429916401090357
40
0.471391340951702
40
0.512894941304327
40
0.554438057839738
40
0.596008862310236
40
0.637576390811863
40
0.679093989797148
40
0.742576488567269
40
0.806074362068506
40
0.869579371234051
40
0.933071602612891
40
1
40
1
40
1
40
1
41
1
10
94.1902265568707
20
-16.7495190528382
30
0
41
1
10
94.1882376536529
20
-16.7507500225233
30
0
41
1
10
94.1843525015012
20
-16.7532838751765
30
0
41
1
10
94.1787662829444
20
-16.7572793985203
30
0
41
1
10
94.1742440008497
20
-16.760955502945
30
0
41
1
10
94.1707047029328
20
-16.7642189486529
30
0
41
1
10
94.1680366062418
20
-16.7669943805446
30
0
41
1
10
94.1656406691919
20
-16.7698867797184
30
0
41
1
10
94.1636018670939
20
-16.7728969405621
30
0
41
1
10
94.1620059609741
20
-16.7760009700442
30
0
41
1
10
94.1610315073629
20
-16.7788988256342
30
0
41
1
10
94.1606257444431
20
-16.7815307470641
30
0
41
1
10
94.1606299855578
20
-16.7838730906642
30
0
41
1
10
94.1610054922705
20
-16.7861439860924
30
0
41
1
10
94.1617527181261
20
-16.7883118519656
30
0
41
1
10
94.162817361913
20
-16.7903663152939
30
0
41
1
10
94.1644643919041
20
-16.7927298630929
30
0
41
1
10
94.1668867049143
20
-16.7952899166741
30
0
41
1
10
94.1701916417872
20
-16.7979258688709
30
0
41
1
10
94.1741639582624
20
-16.8004602087604
30
0
41
1
10
94.178778688836
20
-16.8028705973419
30
0
41
1
10
94.1840188849688
20
-16.8051329199214
30
0
41
1
10
94.190484204622
20
-16.8075010539301
30
0
41
1
10
94.1982358282148
20
-16.8098753750953
30
0
41
1
10
94.2077924917255
20
-16.8122738891065
30
0
41
1
10
94.2180656001529
20
-16.8144368352379
30
0
41
1
10
94.2290381330048
20
-16.8163617071986
30
0
41
1
10
94.2401866858466
20
-16.8179826675058
30
0
41
1
10
94.2514718775965
20
-16.8193431563416
30
0
41
1
10
94.2628561613707
20
-16.820483310068
30
0
41
1
10
94.2763280434118
20
-16.8216206287015
30
0
41
1
10
94.2919169403641
20
-16.8226759328313
30
0
41
1
10
94.3096613914872
20
-16.8235371875444
30
0
41
1
10
94.327501711157
20
-16.8241126171003
30
0
41
1
10
94.3457405928819
20
-16.824445051531
30
0
41
1
10
94.3580467534181
20
-16.8245211854373
30
0
41
1
10
94.3643736319297
20
-16.8245190528383
30
0
0
SPLINE
5
108
100
AcDbEntity
8
1
62
256
6
ByLayer
370
18
48
1
60
0
100
AcDbSpline
70
4
71
3
72
19
73
15
40
0
40
0
40
0
40
0
40
0.083275117441084
40
0.166550732429669
40
0.249825780259874
40
0.333121293714804
40
0.416417396546315
40
0.499712825606849
40
0.583079328781056
40
0.666446533972198
40
0.749812934326334
40
0.833208385309711
40
0.916604674262039
40
1
40
1
40
1
40
1
41
1
10
95.1461843658205
20
-16.1054809471616
30
0
41
1
10
95.1203332883195
20
-16.1241051329607
30
0
41
1
10
95.0685240753026
20
-16.1612410108161
30
0
41
1
10
94.9904929398936
20
-16.2166120310819
30
0
41
1
10
94.9121281035328
20
-16.2716395478164
30
0
41
1
10
94.8334232931792
20
-16.3263135068019
30
0
41
1
10
94.7543705766239
20
-16.380621206116
30
0
41
1
10
94.6749463666768
20
-16.4345611316948
30
0
41
1
10
94.5951429663863
20
-16.4881203058637
30
0
41
1
10
94.5149519356582
20
-16.5412843540425
30
0
41
1
10
94.4343787535931
20
-16.5940301548069
30
0
41
1
10
94.353415338805
20
-16.6463427829584
30
0
41
1
10
94.2720539396317
20
-16.6982079376862
30
0
41
1
10
94.2175462681772
20
-16.7324674649131
30
0
41
1
10
94.1902265568707
20
-16.7495190528382
30
0
0
SPLINE
5
109
100
AcDbEntity
8
1
62
256
6
ByLayer
370
18
48
1
60
0
100
AcDbSpline
70
4
71
3
72
42
73
38
40
0
40
0
40
0
40
0
40
0.0217908207543015
40
0.0436220361696588
40
0.0654263599436876
40
0.0871804338330093
40
0.104598818537466
40
0.12204080640292
40
0.139436416666948
40
0.157052293994372
40
0.174727856143198
40
0.192319159005729
40
0.207975026294721
40
0.223690626007667
40
0.239359512525524
40
0.254285246617403
40
0.269263347847614
40
0.284262160692104
40
0.299216229685869
40
0.320141721323933
40
0.341118012231466
40
0.362143063542225
40
0.383177611861884
40
0.404152093839711
40
0.435805633073106
40
0.467493363581211
40
0.49921403695835
40
0.530941359626587
40
0.562628144365026
40
0.616742373854479
40
0.670879151044214
40
0.725006338147574
40
0.78899102388752
40
0.852997675160164
40
0.917022978484154
40
0.981050596347874
40
1
40
1
40
1
40
1
41
1
10
95.1461843657964
20
-16.105480947182
30
0
41
1
10
95.1479053243833
20
-16.1042473978099
30
0
41
1
10
95.1512731988972
20
-16.101728849207
30
0
41
1
10
95.1561201380744
20
-16.0978110296417
30
0
41
1
10
95.1606775207759
20
-16.0937333977722
30
0
41
1
10
95.1645995263887
20
-16.0897748760462
30
0
41
1
10
95.1678923826717
20
-16.0859688533189
30
0
41
1
10
95.1705754778315
20
-16.0823506062223
30
0
41
1
10
95.1728400025243
20
-16.0786278292908
30
0
41
1
10
95.1745679297099
20
-16.0748218223196
30
0
41
1
10
95.1756887091032
20
-16.0709856250891
30
0
41
1
10
95.1761168628621
20
-16.0673327969114
30
0
41
1
10
95.1758612374645
20
-16.0639313919641
30
0
41
1
10
95.1750689400507
20
-16.060802757012
30
0
41
1
10
95.1737853299244
20
-16.0578917022913
30
0
41
1
10
95.1720720394062
20
-16.0552169281156
30
0
41
1
10
95.1700248492193
20
-16.0527612453756
30
0
41
1
10
95.167670063124
20
-16.0504796117326
30
0
41
1
10
95.1647080398996
20
-16.0480870828015
30
0
41
1
10
95.161072256137
20
-16.0456455252993
30
0
41
1
10
95.1567151094803
20
-16.043213152894
30
0
41
1
10
95.1520771250573
20
-16.0410219164716
30
0
41
1
10
95.1472218891493
20
-16.0390452058934
30
0
41
1
10
95.1413479100326
20
-16.0369492493715
30
0
41
1
10
95.1344002045442
20
-16.0348053395997
30
0
41
1
10
95.1263191873719
20
-16.0326996457915
30
0
41
1
10
95.1180318391591
20
-16.0308657237802
30
0
41
1
10
95.1095853347531
20
-16.0292670187444
30
0
41
1
10
95.0989990868124
20
-16.0275313602442
30
0
41
1
10
95.0861979290651
20
-16.0257905985511
30
0
41
1
10
95.0711135156583
20
-16.0241945069188
30
0
41
1
10
95.0549254713284
20
-16.022874247537
30
0
41
1
10
95.0376481255218
20
-16.021823377975
30
0
41
1
10
95.0192799809652
20
-16.0210660122529
30
0
41
1
10
95.0007821818312
20
-16.0206217649912
30
0
41
1
10
94.9865473756257
20
-16.0204848407053
30
0
41
1
10
94.9784878291635
20
-16.0204785957649
30
0
41
1
10
94.9766459168846
20
-16.0204809484009
30
0
0
SPLINE
5
10A
100
AcDbEntity
8
1
62
256
6
ByLayer
370
18
48
1
60
0
100
AcDbSpline
70
4
71
3
72
28
73
24
40
0
40
0
40
0
40
0
40
0.0173803008800122
40
0.048498752206364
40
0.0796215954322365
40
0.110745990671306
40
0.141866558658776
40
0.183925729331949
40
0.225991693154473
40
0.26806353275652
40
0.310138198968646
40
0.352210686361936
40
0.394274206897074
40
0.45472770005125
40
0.515188783187923
40
0.575654085421083
40
0.636118336052989
40
0.69657448616087
40
0.757255714932781
40
0.817942367676877
40
0.878631117012406
40
0.939318314394064
40
1
40
1
40
1
40
1
41
1
10
94.9766459168846
20
-16.0204809484009
30
0
41
1
10
94.9722677721082
20
-16.0204825112942
30
0
41
1
10
94.9600356801649
20
-16.0205327218056
30
0
41
1
10
94.9398784616286
20
-16.0208367615501
30
0
41
1
10
94.9161520218007
20
-16.0214822482219
30
0
41
1
10
94.892348060495
20
-16.0223906316936
30
0
41
1
10
94.8656845572397
20
-16.0236653874591
30
0
41
1
10
94.8361471872054
20
-16.025366331834
30
0
41
1
10
94.8037216429992
20
-16.0275663649847
30
0
41
1
10
94.7712229981339
20
-16.0300773504943
30
0
41
1
10
94.738664522486
20
-16.0328714214643
30
0
41
1
10
94.7060593191973
20
-16.0359214158131
30
0
41
1
10
94.6686595076236
20
-16.0396765418274
30
0
41
1
10
94.6264484634839
20
-16.0442331809677
30
0
41
1
10
94.5794120313277
20
-16.0497089177649
30
0
41
1
10
94.5323245507745
20
-16.0555606754363
30
0
41
1
10
94.4851996639973
20
-16.0617618170029
30
0
41
1
10
94.4379881716957
20
-16.0682929173821
30
0
41
1
10
94.3906950714837
20
-16.0751319066369
30
0
41
1
10
94.343323650882
20
-16.0822771175662
30
0
41
1
10
94.2959389240465
20
-16.0897133129184
30
0
41
1
10
94.2485488274975
20
-16.0974350303716
30
0
41
1
10
94.2169567047953
20
-16.102767901236
30
0
41
1
10
94.2011610786084
20
-16.1054809471616
30
0
0
SPLINE
5
10B
100
AcDbEntity
8
1
62
256
6
ByLayer
370
18
48
1
60
0
100
AcDbSpline
70
4
71
3
72
35
73
31
40
0
40
0
40
0
40
0
40
0.0355813517473537
40
0.0711639783574592
40
0.106747349760643
40
0.142330948723312
40
0.177914271074811
40
0.213496825936151
40
0.249078135950604
40
0.284709981830779
40
0.320343177241684
40
0.355977165296246
40
0.391611399966175
40
0.42724534631198
40
0.462878480714659
40
0.498510291109137
40
0.534301480423071
40
0.570094093165136
40
0.605887546766442
40
0.641681267002154
40
0.67747468822677
40
0.713267253610757
40
0.749058415378607
40
0.784905759866676
40
0.820754572531385
40
0.85660425784049
40
0.89245422540884
40
0.928303890235006
40
0.964152672938849
40
1
40
1
40
1
40
1
41
1
10
94.2011610786084
20
-16.1054809471616
30
0
41
1
10
94.1619369050183
20
-16.1122170242788
30
0
41
1
10
94.0834474333259
20
-16.1255102523933
30
0
41
1
10
93.9655912528778
20
-16.1449141365463
30
0
41
1
10
93.8476159991532
20
-16.1637782779598
30
0
41
1
10
93.729525908825
20
-16.1820998189835
30
0
41
1
10
93.6113255859864
20
-16.1998755314443
30
0
41
1
10
93.4930195357341
20
-16.2171022834986
30
0
41
1
10
93.3745543386978
20
-16.2337850896661
30
0
41
1
10
93.2559304436945
20
-16.2499203456468
30
0
41
1
10
93.1371485709393
20
-16.2655050930067
30
0
41
1
10
93.0182677356444
20
-16.2805293770082
30
0
41
1
10
92.8992929735773
20
-16.2949905727237
30
0
41
1
10
92.7802293210316
20
-16.308886059231
30
0
41
1
10
92.6610818136179
20
-16.322213211832
30
0
41
1
10
92.5416756895455
20
-16.3349886539064
30
0
41
1
10
92.4220113865968
20
-16.3472071289383
30
0
41
1
10
92.3020896158829
20
-16.3588641167792
30
0
41
1
10
92.1820915288198
20
-16.3699396970732
30
0
41
1
10
92.0620226404547
20
-16.3804318717781
30
0
41
1
10
91.9418884658905
20
-16.3903386463763
30
0
41
1
10
91.8216945200949
20
-16.3996580234564
30
0
41
1
10
91.7013812238575
20
-16.4083927394649
30
0
41
1
10
91.5809495724901
20
-16.4165399542229
30
0
41
1
10
91.4604007378391
20
-16.424097685981
30
0
41
1
10
91.3398011960981
20
-16.4310605892881
30
0
41
1
10
91.2191567552087
20
-16.4374274245563
30
0
41
1
10
91.0984733629967
20
-16.4431969095422
30
0
41
1
10
90.9777564451332
20
-16.4483679283986
30
0
41
1
10
90.8972590066105
20
-16.451415215636
30
0
41
1
10
90.8570056280141
20
-16.4528389258673
30
0
0
SPLINE
5
10C
100
AcDbEntity
8
1
62
256
6
ByLayer
370
18
48
1
60
0
100
AcDbSpline
70
4
71
2
72
6
73
3
40
0
40
0
40
0
40
1
40
1
40
1
41
1
10
100.324721188253
20
-16.1054809471616
30
0
41
1
10
100.047630397757
20
-16.4278276525827
30
0
41
1
10
99.7695260501193
20
-16.7495190528382
30
0
0
SPLINE
5
10D
100
AcDbEntity
8
1
62
256
6
ByLayer
370
18
48
1
60
0
100
AcDbSpline
70
4
71
3
72
33
73
29
40
0
40
0
40
0
40
0
40
0.0367628022131629
40
0.0735494650002578
40
0.110299536813499
40
0.144948096771819
40
0.179749047453212
40
0.214566142432863
40
0.24929831431737
40
0.283888943947855
40
0.316532636554494
40
0.349293504243739
40
0.382051948591979
40
0.414692324735123
40
0.447249276968538
40
0.479905344092676
40
0.512579892559361
40
0.545162120688286
40
0.583497251891374
40
0.621944757508013
40
0.660470646025217
40
0.698993376019357
40
0.737391793243419
40
0.790932606075014
40
0.844531417307168
40
0.89809751566121
40
0.952968403315242
40
1
40
1
40
1
40
1
41
1
10
100.324721188251
20
-16.1054809471648
30
0
41
1
10
100.326235701555
20
-16.1037227152075
30
0
41
1
10
100.32916962405
20
-16.1001926842753
30
0
41
1
10
100.333298759489
20
-16.0948553600572
30
0
41
1
10
100.337031668833
20
-16.0895958995429
30
0
41
1
10
100.340343645444
20
-16.0844267851733
30
0
41
1
10
100.343219615875
20
-16.0793681535496
30
0
41
1
10
100.345687832491
20
-16.0743474665541
30
0
41
1
10
100.347696776912
20
-16.0694101571727
30
0
41
1
10
100.349170780509
20
-16.0646845279003
30
0
41
1
10
100.350090086048
20
-16.0601999116934
30
0
41
1
10
100.35049313582
20
-16.0559690560186
30
0
41
1
10
100.350396847717
20
-16.0519379945853
30
0
41
1
10
100.349793811692
20
-16.0481465279754
30
0
41
1
10
100.34867786979
20
-16.0446240060361
30
0
41
1
10
100.347096178443
20
-16.0413678961145
30
0
41
1
10
100.345083886182
20
-16.0383821107446
30
0
41
1
10
100.34253075406
20
-16.0355142766728
30
0
41
1
10
100.339384679173
20
-16.032820923401
30
0
41
1
10
100.335627009833
20
-16.030338129399
30
0
41
1
10
100.331477326765
20
-16.0281883573157
30
0
41
1
10
100.326995218219
20
-16.0263527361004
30
0
41
1
10
100.321600622998
20
-16.0246082479271
30
0
41
1
10
100.315201423797
20
-16.0230664774214
30
0
41
1
10
100.307732673812
20
-16.0218289179124
30
0
41
1
10
100.299865253586
20
-16.0209995003893
30
0
41
1
10
100.292043602808
20
-16.0205652886361
30
0
41
1
10
100.286780874953
20
-16.0204775681202
30
0
41
1
10
100.284320568929
20
-16.0204809478639
30
0
0
SPLINE
5
10E
100
AcDbEntity
8
1
62
256
6
ByLayer
370
18
48
1
60
0
100
AcDbSpline
70
4
71
3
72
28
73
24
40
0
40
0
40
0
40
0
40
0.00456019788664
40
0.0363567385576685
40
0.0737915021482795
40
0.111257520847439
40
0.148744481624354
40
0.18623006666572
40
0.223681255123841
40
0.271573250626178
40
0.31948835067358
40
0.367409191770316
40
0.415309019581905
40
0.473219836474565
40
0.531164257553572
40
0.589125515435258
40
0.647080478658399
40
0.705000142609107
40
0.763980829883267
40
0.822989734517858
40
0.882008590247566
40
0.941018483317626
40
1
40
1
40
1
40
1
41
1
10
100.284320568929
20
-16.0204809478639
30
0
41
1
10
100.283909523939
20
-16.0204807584418
30
0
41
1
10
100.280627003288
20
-16.020487636684
30
0
41
1
10
100.273866603491
20
-16.0206491755955
30
0
41
1
10
100.263883138142
20
-16.021219213539
30
0
41
1
10
100.253160592365
20
-16.0221766679823
30
0
41
1
10
100.242257739108
20
-16.0234602542152
30
0
41
1
10
100.23120706984
20
-16.025040474704
30
0
41
1
10
100.218996259418
20
-16.0270595380918
30
0
41
1
10
100.205603659979
20
-16.0295787304962
30
0
41
1
10
100.19100987005
20
-16.0326669840118
30
0
41
1
10
100.176290068565
20
-16.0360972761359
30
0
41
1
10
100.160434773229
20
-16.0401028164871
30
0
41
1
10
100.143436062509
20
-16.0447324325076
30
0
41
1
10
100.125288274132
20
-16.0500444008094
30
0
41
1
10
100.107050820155
20
-16.0557338939341
30
0
41
1
10
100.08874862452
20
-16.0617777609731
30
0
41
1
10
100.070287241801
20
-16.068194036426
30
0
41
1
10
100.051675961752
20
-16.0749732205417
30
0
41
1
10
100.03292172044
20
-16.0821182770734
30
0
41
1
10
100.01415056679
20
-16.0895812994923
30
0
41
1
10
99.9953794728275
20
-16.0973545766674
30
0
41
1
10
99.9828763613915
20
-16.1027385771331
30
0
41
1
10
99.9766277027998
20
-16.1054809471616
30
0
0
SPLINE
5
10F
100
AcDbEntity
8
1
62
256
6
ByLayer
370
18
48
1
60
0
100
AcDbSpline
70
4
71
3
72
19
73
15
40
0
40
0
40
0
40
0
40
0.0832893697612166
40
0.166579177296659
40
0.249868522062193
40
0.333174530162385
40
0.416481008682034
40
0.499786990198637
40
0.583146059668411
40
0.666505634933151
40
0.74986467616892
40
0.833242946489471
40
0.916621759511718
40
1
40
1
40
1
40
1
41
1
10
99.9766277027998
20
-16.1054809471616
30
0
41
1
10
99.9334097388163
20
-16.1244491228983
30
0
41
1
10
99.8468732308858
20
-16.1622117910945
30
0
41
1
10
99.7167679035746
20
-16.2183378376749
30
0
41
1
10
99.5863521001775
20
-16.2739393380148
30
0
41
1
10
99.4556251360941
20
-16.3290094377903
30
0
41
1
10
99.324586308942
20
-16.383540154217
30
0
41
1
10
99.1932159118822
20
-16.4375316306407
30
0
41
1
10
99.0615132602833
20
-16.4909756692215
30
0
41
1
10
98.9294777903457
20
-16.5438639367917
30
0
41
1
10
98.7971270339614
20
-16.5961812054775
30
0
41
1
10
98.664460736163
20
-16.647919050608
30
0
41
1
10
98.5314787675685
20
-16.6990700504776
30
0
41
1
10
98.442620444359
20
-16.732769250254
30
0
41
1
10
98.3981405330228
20
-16.7495190528382
30
0
0
SPLINE
5
110
100
AcDbEntity
8
1
62
256
6
ByLayer
370
18
48
1
60
0
100
AcDbSpline
70
4
71
3
72
26
73
22
40
0
40
0
40
0
40
0
40
0.0627938854558562
40
0.12559743837594
40
0.188392104828782
40
0.251517940014199
40
0.314652752504259
40
0.377778175985263
40
0.442023936275459
40
0.506279886206634
40
0.570523489188734
40
0.619056100060422
40
0.667602215624249
40
0.7161451575803
40
0.764673439549274
40
0.803759103287593
40
0.84284969804199
40
0.881933190352796
40
0.921287922863692
40
0.960650746503266
40
1
40
1
40
1
40
1
41
1
10
98.3981405330228
20
-16.7495190528382
30
0
41
1
10
98.3910186636106
20
-16.7522000582833
30
0
41
1
10
98.3767643918366
20
-16.7574388540855
30
0
41
1
10
98.3553492022375
20
-16.7649252625427
30
0
41
1
10
98.3338797993315
20
-16.7720547288254
30
0
41
1
10
98.3123667152742
20
-16.7788260871035
30
0
41
1
10
98.2908223926108
20
-16.7852299380433
30
0
41
1
10
98.2691695828584
20
-16.7912821000108
30
0
41
1
10
98.2474214950691
20
-16.7969667369568
30
0
41
1
10
98.2255949004797
20
-16.8022557121644
30
0
41
1
10
98.2056083438298
20
-16.8066992866432
30
0
41
1
10
98.1874587389761
20
-16.8104018072359
30
0
41
1
10
98.1711356174012
20
-16.8134567461802
30
0
41
1
10
98.1548866062384
20
-16.81620394448
30
0
41
1
10
98.1397760134621
20
-16.8184660944678
30
0
41
1
10
98.125797905902
20
-16.8202962959605
30
0
41
1
10
98.1129438607822
20
-16.8217424684657
30
0
41
1
10
98.1001576761923
20
-16.8229233077519
30
0
41
1
10
98.0874572945456
20
-16.8238158366283
30
0
41
1
10
98.074866634345
20
-16.8243862660222
30
0
41
1
10
98.0665952002727
20
-16.8245147643293
30
0
41
1
10
98.0624882786225
20
-16.8245190528383
30
0
0
SPLINE
5
111
100
AcDbEntity
8
1
62
256
6
ByLayer
370
18
48
1
60
0
100
AcDbSpline
70
4
71
3
72
25
73
21
40
0
40
0
40
0
40
0
40
0.0382143205337315
40
0.0764677350462172
40
0.114747785546702
40
0.153026460271766
40
0.191261989580593
40
0.243597551313362
40
0.29597735465747
40
0.348383998814707
40
0.40078632799258
40
0.453140798980625
40
0.520211252666382
40
0.587321018509799
40
0.654436419629172
40
0.721514562168335
40
0.791117755783647
40
0.86075726806519
40
0.930396791359468
40
1
40
1
40
1
40
1
41
1
10
100.03496927507
20
-16.8245190528383
30
0
41
1
10
100.037795806016
20
-16.8245157078684
30
0
41
1
10
100.04352051948
20
-16.8243944358466
30
0
41
1
10
100.052332790702
20
-16.8238545197928
30
0
41
1
10
100.061326188238
20
-16.8229975560537
30
0
41
1
10
100.070470231114
20
-16.8218494639103
30
0
41
1
10
100.080876002718
20
-16.8202658995021
30
0
41
1
10
100.092578418558
20
-16.8181582668289
30
0
41
1
10
100.105608503469
20
-16.815427900347
30
0
41
1
10
100.118783658637
20
-16.8123137985064
30
0
41
1
10
100.132071670068
20
-16.808847251776
30
0
41
1
10
100.146701632454
20
-16.8047030876357
30
0
41
1
10
100.162687613221
20
-16.7997977352308
30
0
41
1
10
100.180037575248
20
-16.7940358904313
30
0
41
1
10
100.1974632287
20
-16.7878317610711
30
0
41
1
10
100.215158846462
20
-16.7811275141917
30
0
41
1
10
100.233109883021
20
-16.7739258659582
30
0
41
1
10
100.251301997563
20
-16.7662172072599
30
0
41
1
10
100.269495806019
20
-16.7580995171922
30
0
41
1
10
100.281607905822
20
-16.7524232709089
30
0
41
1
10
100.287659796541
20
-16.7495190528382
30
0
0
SPLINE
5
112
100
AcDbEntity
8
1
62
256
6
ByLayer
370
18
48
1
60
0
100
AcDbSpline
70
4
71
3
72
21
73
17
40
0
40
0
40
0
40
0
40
0.062481156474834
40
0.124962314298485
40
0.187445397069009
40
0.249928481146034
40
0.31241718500141
40
0.374905890122189
40
0.437396396943753
40
0.499886904990237
40
0.583234623556445
40
0.666582597629174
40
0.749930329108447
40
0.833286802344077
40
0.916643514680467
40
1
40
1
40
1
40
1
41
1
10
100.287659796541
20
-16.7495190528382
30
0
41
1
10
100.31457082532
20
-16.7366040737017
30
0
41
1
10
100.368351044141
20
-16.7107092236125
30
0
41
1
10
100.448896487938
20
-16.6716709820054
30
0
41
1
10
100.529317625417
20
-16.6324394390334
30
0
41
1
10
100.609617239614
20
-16.5930150949038
30
0
41
1
10
100.689794941143
20
-16.5534002673699
30
0
41
1
10
100.769851921651
20
-16.5135963949362
30
0
41
1
10
100.849786229834
20
-16.4736065066979
30
0
41
1
10
100.938477825472
20
-16.4289628348687
30
0
41
1
10
101.035874303155
20
-16.3795898702735
30
0
41
1
10
101.141917532319
20
-16.3254041424747
30
0
41
1
10
101.247748737098
20
-16.2709010931761
30
0
41
1
10
101.353369088032
20
-16.2160849500054
30
0
41
1
10
101.458779590739
20
-16.1609592873139
30
0
41
1
10
101.528912038504
20
-16.124007475378
30
0
41
1
10
101.563942808411
20
-16.1054809471616
30
0
0
SPLINE
5
113
100
AcDbEntity
8
1
62
256
6
ByLayer
370
18
48
1
60
0
100
AcDbSpline
70
4
71
3
72
27
73
23
40
0
40
0
40
0
40
0
40
0.0620916278802055
40
0.124212221978494
40
0.186331891780717
40
0.248422258665795
40
0.31153647561368
40
0.374687153512476
40
0.43783208630904
40
0.500938464370364
40
0.549879944714238
40
0.598832219334781
40
0.647770431700673
40
0.697240048021651
40
0.746725464333237
40
0.796187938220283
40
0.832969275681513
40
0.869777063870825
40
0.906576791844974
40
0.943347129759127
40
0.973764779444953
40
1
40
1
40
1
40
1
41
1
10
101.563942808411
20
-16.1054809471616
30
0
41
1
10
101.569351817651
20
-16.1026203042279
30
0
41
1
10
101.580170938813
20
-16.0970029504153
30
0
41
1
10
101.596403663946
20
-16.0888879210385
30
0
41
1
10
101.612617763834
20
-16.0810974756341
30
0
41
1
10
101.628885338645
20
-16.0736011921706
30
0
41
1
10
101.645192037469
20
-16.066414746298
30
0
41
1
10
101.661519624734
20
-16.0595650066548
30
0
41
1
10
101.677754051037
20
-16.0531165219896
30
0
41
1
10
101.692662649448
20
-16.0475458299156
30
0
41
1
10
101.706253786153
20
-16.0427696520367
30
0
41
1
10
101.718545322185
20
-16.0387080608375
30
0
41
1
10
101.730758163966
20
-16.0349487542913
30
0
41
1
10
101.74287014983
20
-16.0315180365509
30
0
41
1
10
101.754850150502
20
-16.0284540560766
30
0
41
1
10
101.76561536446
20
-16.0260324801769
30
0
41
1
10
101.775195833613
20
-16.0241654833603
30
0
41
1
10
101.783632015798
20
-16.0227652201279
30
0
41
1
10
101.791883680301
20
-16.0216651060013
30
0
41
1
10
101.799456628295
20
-16.0209374353446
30
0
41
1
10
101.806072888885
20
-16.0205554782775
30
0
41
1
10
101.809968286313
20
-16.0204823098756
30
0
41
1
10
101.811748725194
20
-16.0204809474627
30
0
0
SPLINE
5
114
100
AcDbEntity
8
1
62
256
6
ByLayer
370
18
48
1
60
0
100
AcDbSpline
70
4
71
3
72
33
73
29
40
0
40
0
40
0
40
0
40
0.0065899572693798
40
0.0540016143810815
40
0.101364349732294
40
0.148652643214704
40
0.196159644512251
40
0.243776955439577
40
0.291356098484244
40
0.338810924073631
40
0.370285419394778
40
0.401784594829777
40
0.43325303157846
40
0.465882403375364
40
0.498548066193983
40
0.531172782690787
40
0.565061525718772
40
0.599082459087672
40
0.633156542092494
40
0.667192949390311
40
0.70109472163454
40
0.740398810991383
40
0.779803716859296
40
0.81923124596201
40
0.858566261027336
40
0.905684714711208
40
0.952861401061181
40
1
40
1
40
1
40
1
41
1
10
101.811748725194
20
-16.0204809474627
30
0
41
1
10
101.81203637854
20
-16.0204802309997
30
0
41
1
10
101.814387054966
20
-16.0204826986703
30
0
41
1
10
101.818700438421
20
-16.0206187799929
30
0
41
1
10
101.824496294131
20
-16.02111606159
30
0
41
1
10
101.830002914454
20
-16.0219569930487
30
0
41
1
10
101.835180791294
20
-16.0231726111226
30
0
41
1
10
101.839976405465
20
-16.0247982028016
30
0
41
1
10
101.844320665516
20
-16.0268599278028
30
0
41
1
10
101.847714532773
20
-16.0291048519856
30
0
41
1
10
101.850293152208
20
-16.0313856600025
30
0
41
1
10
101.852219712735
20
-16.0335582954649
30
0
41
1
10
101.853867323234
20
-16.0359851261178
30
0
41
1
10
101.85519775536
20
-16.0386806479379
30
0
41
1
10
101.856183832944
20
-16.0416470068126
30
0
41
1
10
101.856806424363
20
-16.044883952468
30
0
41
1
10
101.857020491493
20
-16.0484035499619
30
0
41
1
10
101.856814447341
20
-16.0521947073439
30
0
41
1
10
101.856200304446
20
-16.0561849818757
30
0
41
1
10
101.855189714886
20
-16.0603408718657
30
0
41
1
10
101.853714545605
20
-16.0648673249293
30
0
41
1
10
101.851710689478
20
-16.0697719856147
30
0
41
1
10
101.849156001534
20
-16.0750419208225
30
0
41
1
10
101.846188774797
20
-16.080404732186
30
0
41
1
10
101.842628201152
20
-16.0861844249237
30
0
41
1
10
101.838426953816
20
-16.0923672197766
30
0
41
1
10
101.833559010242
20
-16.098931178594
30
0
41
1
10
101.830080253557
20
-16.1032986161974
30
0
41
1
10
101.828279446277
20
-16.1054809471616
30
0
0
SPLINE
5
115
100
AcDbEntity
8
1
62
256
6
ByLayer
370
18
48
1
60
0
100
AcDbSpline
70
4
71
1
72
4
73
2
40
0
40
0
40
1
40
1
41
1
10
101.297630705904
20
-16.7495190528382
30
0
41
1
10
101.828279446277
20
-16.1054809471616
30
0
0
SPLINE
5
116
100
AcDbEntity
8
1
62
256
6
ByLayer
370
18
48
1
60
0
100
AcDbSpline
70
4
71
1
72
4
73
2
40
0
40
0
40
1
40
1
41
1
10
102.989092412609
20
-16.1054809471616
30
0
41
1
10
102.463116780726
20
-16.7495190528382
30
0
0
SPLINE
5
117
100
AcDbEntity
8
1
62
256
6
ByLayer
370
18
48
1
60
0
100
AcDbSpline
70
4
71
3
72
31
73
27
40
0
40
0
40
0
40
0
40
0.0446843728860999
40
0.089432382382896
40
0.134163119257296
40
0.178823903346114
40
0.219270536155905
40
0.259852728684412
40
0.300455849873775
40
0.340990063958238
40
0.381396325634222
40
0.422128885007699
40
0.463049178231437
40
0.504027976885439
40
0.544937679399679
40
0.58566131548092
40
0.629566170880012
40
0.673608229010691
40
0.717672359196072
40
0.761607404094843
40
0.801858576401367
40
0.842149261102639
40
0.88241037713803
40
0.923793695082358
40
0.965206325691737
40
1
40
1
40
1
40
1
41
1
10
102.989092412609
20
-16.1054809471621
30
0
41
1
10
102.990748040483
20
-16.1034557693127
30
0
41
1
10
102.993973596737
20
-16.09940972531
30
0
41
1
10
102.998562557959
20
-16.0933533529094
30
0
41
1
10
103.002857261695
20
-16.0873361588833
30
0
41
1
10
103.006699983532
20
-16.0815682900661
30
0
41
1
10
103.010086803796
20
-16.0760632475918
30
0
41
1
10
103.013030214648
20
-16.0708307704378
30
0
41
1
10
103.015616165832
20
-16.0657136433301
30
0
41
1
10
103.017806742364
20
-16.0607519762176
30
0
41
1
10
103.019574714766
20
-16.0559653862267
30
0
41
1
10
103.020869789153
20
-16.0513900014072
30
0
41
1
10
103.021682708404
20
-16.047048334082
30
0
41
1
10
103.022008833737
20
-16.0429780919517
30
0
41
1
10
103.021840938714
20
-16.039217735277
30
0
41
1
10
103.021150105375
20
-16.0357108229771
30
0
41
1
10
103.019881866345
20
-16.0325142687726
30
0
41
1
10
103.018040722175
20
-16.029646955668
30
0
41
1
10
103.015695606447
20
-16.0271882070426
30
0
41
1
10
103.012958774961
20
-16.0251961403591
30
0
41
1
10
103.009904652248
20
-16.0236268408145
30
0
41
1
10
103.006613200267
20
-16.0224189231122
30
0
41
1
10
103.002988986587
20
-16.0215042324677
30
0
41
1
10
102.999051796443
20
-16.0208766583454
30
0
41
1
10
102.995045472279
20
-16.0205462354061
30
0
41
1
10
102.992322970269
20
-16.0204796382405
30
0
41
1
10
102.991052232103
20
-16.0204809474634
30
0
0
SPLINE
5
118
100
AcDbEntity
8
1
62
256
6
ByLayer
370
18
48
1
60
0
100
AcDbSpline
70
4
71
3
72
27
73
23
40
0
40
0
40
0
40
0
40
0.0046141915294888
40
0.0478708820748477
40
0.0911721987569452
40
0.134444614726491
40
0.178844879371377
40
0.223273033489129
40
0.267681947101995
40
0.321977693829174
40
0.376326572600663
40
0.430688508834756
40
0.485002077832853
40
0.540727261005095
40
0.596487889782467
40
0.652254044108198
40
0.707986766775361
40
0.766357072036151
40
0.82477218517668
40
0.883205037938669
40
0.941625339657015
40
1
40
1
40
1
40
1
41
1
10
102.991052232103
20
-16.0204809474634
30
0
41
1
10
102.99081151621
20
-16.020481006906
30
0
41
1
10
102.988305719591
20
-16.0204920601915
30
0
41
1
10
102.98335257175
20
-16.0207292304988
30
0
41
1
10
102.975909674758
20
-16.0215697262537
30
0
41
1
10
102.968064892643
20
-16.0228771946074
30
0
41
1
10
102.959860512726
20
-16.0246201405623
30
0
41
1
10
102.951329358544
20
-16.026773808147
30
0
41
1
10
102.941928661992
20
-16.0294754931673
30
0
41
1
10
102.93163646895
20
-16.0327833784288
30
0
41
1
10
102.920438626444
20
-16.0367543260779
30
0
41
1
10
102.909040222575
20
-16.0411357668071
30
0
41
1
10
102.897377549585
20
-16.0459315043719
30
0
41
1
10
102.885472134937
20
-16.0511211141295
30
0
41
1
10
102.873338681275
20
-16.0566943090361
30
0
41
1
10
102.86110168282
20
-16.0625840481519
30
0
41
1
10
102.848587959351
20
-16.0688665626647
30
0
41
1
10
102.835807235186
20
-16.0755402876234
30
0
41
1
10
102.822767858885
20
-16.0826093770054
30
0
41
1
10
102.809681547723
20
-16.0899586276758
30
0
41
1
10
102.796567948097
20
-16.0975735179411
30
0
41
1
10
102.78781963299
20
-16.1028172621077
30
0
41
1
10
102.783444224157
20
-16.1054809471616
30
0
0
SPLINE
5
119
100
AcDbEntity
8
1
62
256
6
ByLayer
370
18
48
1
60
0
100
AcDbSpline
70
4
71
3
72
15
73
11
40
0
40
0
40
0
40
0
40
0.124980583969298
40
0.24996115840284
40
0.374949162915981
40
0.499937157219945
40
0.624948657308003
40
0.749960146461743
40
0.874980079082324
40
1
40
1
40
1
40
1
41
1
10
102.783444224157
20
-16.1054809471616
30
0
41
1
10
102.738356882386
20
-16.1329281282417
30
0
41
1
10
102.648061979479
20
-16.1876729762339
30
0
41
1
10
102.512257980828
20
-16.2693471644685
30
0
41
1
10
102.37608717757
20
-16.3505667290478
30
0
41
1
10
102.239537599506
20
-16.4313289732017
30
0
41
1
10
102.102608111054
20
-16.5116233709019
30
0
41
1
10
101.965291694374
20
-16.5914424576292
30
0
41
1
10
101.827593614521
20
-16.6707730961317
30
0
41
1
10
101.735536969575
20
-16.7233258413691
30
0
41
1
10
101.689444972553
20
-16.7495190528382
30
0
0
SPLINE
5
11A
100
AcDbEntity
8
1
62
256
6
ByLayer
370
18
48
1
60
0
100
AcDbSpline
70
4
71
3
72
25
73
21
40
0
40
0
40
0
40
0
40
0.0652433276889486
40
0.130524552475073
40
0.195804583545684
40
0.261046282489762
40
0.327638807108068
40
0.394279834113425
40
0.460912915994509
40
0.527494598225007
40
0.583685445862676
40
0.639895005451544
40
0.696079029469126
40
0.738953117612193
40
0.781857935490893
40
0.824754131843732
40
0.867616454501906
40
0.911741026046119
40
0.955890358992345
40
1
40
1
40
1
40
1
41
1
10
101.689444972553
20
-16.7495190528383
30
0
41
1
10
101.684735378854
20
-16.7521954810514
30
0
41
1
10
101.675314738144
20
-16.7574445788149
30
0
41
1
10
101.661178941082
20
-16.7650080356084
30
0
41
1
10
101.647061916489
20
-16.7722449703267
30
0
41
1
10
101.632884109458
20
-16.7791903421502
30
0
41
1
10
101.618660498067
20
-16.7858246177064
30
0
41
1
10
101.604410982963
20
-16.7921171169505
30
0
41
1
10
101.590259976681
20
-16.797994388684
30
0
41
1
10
101.576966664542
20
-16.8031445103961
30
0
41
1
10
101.564533253313
20
-16.8076190828473
30
0
41
1
10
101.552956727109
20
-16.8114661383595
30
0
41
1
10
101.542444359381
20
-16.8146417890243
30
0
41
1
10
101.53297782609
20
-16.8172244934408
30
0
41
1
10
101.524529828357
20
-16.8192923175315
30
0
41
1
10
101.516237906135
20
-16.8210625326421
30
0
41
1
10
101.508049512944
20
-16.8225242843296
30
0
41
1
10
101.500000516874
20
-16.8236376265376
30
0
41
1
10
101.492136932055
20
-16.8243526153829
30
0
41
1
10
101.48711933307
20
-16.8245137556513
30
0
41
1
10
101.48466366335
20
-16.8245190528383
30
0
0
SPLINE
5
11B
100
AcDbEntity
8
1
62
256
6
ByLayer
370
18
48
1
60
0
100
AcDbSpline
70
4
71
3
72
25
73
21
40
0
40
0
40
0
40
0
40
0.0390277520508238
40
0.0781260674305948
40
0.11726834529157
40
0.156404488500082
40
0.195464026910649
40
0.242702864803539
40
0.289988547052706
40
0.337285410231168
40
0.384539509304426
40
0.449211689478348
40
0.513925050839145
40
0.578607930297215
40
0.648265543107335
40
0.717958756816744
40
0.787622555811739
40
0.858404420394345
40
0.929216073696696
40
1
40
1
40
1
40
1
41
1
10
102.593426482453
20
-16.8245190528383
30
0
41
1
10
102.595083941515
20
-16.824515802598
30
0
41
1
10
102.598494186794
20
-16.8243904427332
30
0
41
1
10
102.603907674697
20
-16.8238317957472
30
0
41
1
10
102.609569744078
20
-16.8229414055512
30
0
41
1
10
102.615445939544
20
-16.8217436798006
30
0
41
1
10
102.62192777184
20
-16.8201614046656
30
0
41
1
10
102.629036829339
20
-16.8181490385034
30
0
41
1
10
102.636789875784
20
-16.8156632599106
30
0
41
1
10
102.64472097792
20
-16.812855614488
30
0
41
1
10
102.653794561359
20
-16.8093723195651
30
0
41
1
10
102.664053476032
20
-16.8051066144249
30
0
41
1
10
102.675525285765
20
-16.7999547455339
30
0
41
1
10
102.687460075354
20
-16.7942345415476
30
0
41
1
10
102.699838547332
20
-16.7879459958788
30
0
41
1
10
102.712641737105
20
-16.7810846551456
30
0
41
1
10
102.725609092203
20
-16.7737946608864
30
0
41
1
10
102.738716314486
20
-16.766096229401
30
0
41
1
10
102.751944221405
20
-16.7580009734315
30
0
41
1
10
102.760777780213
20
-16.7523836216536
30
0
41
1
10
102.765198919066
20
-16.7495190528382
30
0
0
SPLINE
5
11C
100
AcDbEntity
8
1
62
256
6
ByLayer
370
18
48
1
60
0
100
AcDbSpline
70
4
71
3
72
15
73
11
40
0
40
0
40
0
40
0
40
0.124987568931232
40
0.249975144668379
40
0.374967898770958
40
0.499960659232719
40
0.624968195964826
40
0.749975738641681
40
0.874987866542437
40
1
40
1
40
1
40
1
41
1
10
102.765198919066
20
-16.7495190528383
30
0
41
1
10
102.805930422871
20
-16.7231313845705
30
0
41
1
10
102.887293952616
20
-16.6702417768688
30
0
41
1
10
103.009040945379
20
-16.5905606133335
30
0
41
1
10
103.130494257291
20
-16.5105412043806
30
0
41
1
10
103.25166154598
20
-16.4301856316107
30
0
41
1
10
103.372544455028
20
-16.3495009415508
30
0
41
1
10
103.493147672301
20
-16.268491853606
30
0
41
1
10
103.613469335054
20
-16.1871665869722
30
0
41
1
10
103.693498983653
20
-16.1327439591943
30
0
41
1
10
103.733467121891
20
-16.1054809471616
30
0
0
SPLINE
5
11D
100
AcDbEntity
8
1
62
256
6
ByLayer
370
18
48
1
60
0
100
AcDbSpline
70
4
71
3
72
27
73
23
40
0
40
0
40
0
40
0
40
0.0628539124837135
40
0.125750734840499
40
0.188644063009535
40
0.251493207390569
40
0.315955770027283
40
0.380479421638407
40
0.444991132540643
40
0.509437396409357
40
0.556911857159964
40
0.604402506154936
40
0.651871994272995
40
0.700144412891911
40
0.748441042345647
40
0.796703557551042
40
0.83388344741082
40
0.871080513594202
40
0.908254223188275
40
0.946319201373617
40
0.984411723201368
40
1
40
1
40
1
40
1
41
1
10
103.733467121891
20
-16.1054809471616
30
0
41
1
10
103.737634045637
20
-16.1026383197053
30
0
41
1
10
103.745956590966
20
-16.0970432792145
30
0
41
1
10
103.75840740933
20
-16.0889191044599
30
0
41
1
10
103.770798900688
20
-16.0810866014061
30
0
41
1
10
103.783216022872
20
-16.0734993474994
30
0
41
1
10
103.795638981972
20
-16.0661837920344
30
0
41
1
10
103.808040605504
20
-16.0591769938335
30
0
41
1
10
103.820281629206
20
-16.0525756222819
30
0
41
1
10
103.831267458736
20
-16.0469572194045
30
0
41
1
10
103.841025332451
20
-16.0422250438438
30
0
41
1
10
103.849597111613
20
-16.0382792415284
30
0
41
1
10
103.858046457442
20
-16.0346183956757
30
0
41
1
10
103.866344757157
20
-16.0312737474852
30
0
41
1
10
103.87445460079
20
-16.028284811956
30
0
41
1
10
103.881692477692
20
-16.0259034068362
30
0
41
1
10
103.888092376929
20
-16.0240570374426
30
0
41
1
10
103.893702291091
20
-16.0226659928177
30
0
41
1
10
103.899116920941
20
-16.0215772909193
30
0
41
1
10
103.904297856886
20
-16.020825964413
30
0
41
1
10
103.908238076116
20
-16.0205224636606
30
0
41
1
10
103.910422789389
20
-16.0204816546176
30
0
41
1
10
103.911047584346
20
-16.0204809490046
30
0
0
SPLINE
5
11E
100
AcDbEntity
8
1
62
256
6
ByLayer
370
18
48
1
60
0
100
AcDbSpline
70
4
71
3
72
31
73
27
40
0
40
0
40
0
40
0
40
0.0298879490175236
40
0.0731967638168277
40
0.116644762910331
40
0.160114762522274
40
0.203514553737224
40
0.246782809693214
40
0.28254505105177
40
0.318340102127554
40
0.354098822692483
40
0.391223794435336
40
0.428390158106656
40
0.465515156490293
40
0.513135876653571
40
0.56091395152295
40
0.608713247146519
40
0.656362997919314
40
0.697390083042611
40
0.738456438917884
40
0.779492120935561
40
0.821687841851044
40
0.863914366104982
40
0.906117492039635
40
0.953057583874877
40
1
40
1
40
1
40
1
41
1
10
103.911047584346
20
-16.0204809490046
30
0
41
1
10
103.911948865758
20
-16.0204795297806
30
0
41
1
10
103.914096480603
20
-16.020540410885
30
0
41
1
10
103.917296150708
20
-16.020882796672
30
0
41
1
10
103.92053767729
20
-16.0216103843447
30
0
41
1
10
103.923427495365
20
-16.0226940611199
30
0
41
1
10
103.925927805491
20
-16.0241470853382
30
0
41
1
10
103.927883463743
20
-16.025879076251
30
0
41
1
10
103.929348454451
20
-16.0278268954715
30
0
41
1
10
103.930400147363
20
-16.0299147931431
30
0
41
1
10
103.931131759446
20
-16.032298695462
30
0
41
1
10
103.931513946227
20
-16.0349901750509
30
0
41
1
10
103.931532953458
20
-16.0379863893672
30
0
41
1
10
103.931153022354
20
-16.041546211784
30
0
41
1
10
103.930231720053
20
-16.045755228453
30
0
41
1
10
103.92865626694
20
-16.0506619613318
30
0
41
1
10
103.926539088352
20
-16.0558803301702
30
0
41
1
10
103.924031143747
20
-16.0611119495392
30
0
41
1
10
103.921238557587
20
-16.0662813916984
30
0
41
1
10
103.918267085397
20
-16.0713286140945
30
0
41
1
10
103.914967804057
20
-16.0765433099204
30
0
41
1
10
103.911356203804
20
-16.0819073197726
30
0
41
1
10
103.907451096735
20
-16.0874027851751
30
0
41
1
10
103.903155949479
20
-16.0931695840338
30
0
41
1
10
103.898462313592
20
-16.0991990839377
30
0
41
1
10
103.895072995024
20
-16.1033821097153
30
0
41
1
10
103.893338286651
20
-16.1054809471657
30
0
0
SPLINE
5
11F
100
AcDbEntity
8
1
62
256
6
ByLayer
370
18
48
1
60
0
100
AcDbSpline
70
4
71
1
72
4
73
2
40
0
40
0
40
1
40
1
41
1
10
103.361216269975
20
-16.7495190528382
30
0
41
1
10
103.893338286652
20
-16.1054809471616
30
0
0
SPLINE
5
120
100
AcDbEntity
8
1
62
256
6
ByLayer
370
18
48
1
60
0
100
AcDbSpline
70
4
71
2
72
6
73
3
40
0
40
0
40
0
40
1
40
1
40
1
41
1
10
104.588803096602
20
-16.1054809471616
30
0
41
1
10
104.31630176486
20
-16.427651643003
30
0
41
1
10
104.043322987672
20
-16.7495190528382
30
0
0
SPLINE
5
121
100
AcDbEntity
8
1
62
256
6
ByLayer
370
18
48
1
60
0
100
AcDbSpline
70
4
71
3
72
32
73
28
40
0
40
0
40
0
40
0
40
0.0476428333468182
40
0.0953763133161801
40
0.143122010586526
40
0.19082039492498
40
0.238433738936469
40
0.277069376420898
40
0.315726425634766
40
0.354356788063857
40
0.393990854272015
40
0.433655637116089
40
0.473283232793683
40
0.511999290246715
40
0.550751778149597
40
0.589463265604141
40
0.629723619331412
40
0.670031227385409
40
0.710290599098948
40
0.750609729588916
40
0.791057638645031
40
0.831561476609564
40
0.872032568159415
40
0.912371205004195
40
0.953788317961018
40
0.995244406613776
40
1
40
1
40
1
40
1
41
1
10
104.588803096602
20
-16.1054809471617
30
0
41
1
10
104.590589602125
20
-16.1033698611521
30
0
41
1
10
104.594097378694
20
-16.0991635626056
30
0
41
1
10
104.599165197936
20
-16.0929037225922
30
0
41
1
10
104.604008056784
20
-16.0867165106057
30
0
41
1
10
104.608596399169
20
-16.0806276932785
30
0
41
1
10
104.612630639561
20
-16.0750355402584
30
0
41
1
10
104.616145648431
20
-16.0699343347295
30
0
41
1
10
104.619186314787
20
-16.0653088706367
30
0
41
1
10
104.622011174489
20
-16.060770379913
30
0
41
1
10
104.624591083897
20
-16.0563424785911
30
0
41
1
10
104.626899293359
20
-16.0520498511034
30
0
41
1
10
104.628878605488
20
-16.0479831952719
30
0
41
1
10
104.630513804898
20
-16.0441623303861
30
0
41
1
10
104.631801879291
20
-16.040599562971
30
0
41
1
10
104.632754618367
20
-16.0372406141281
30
0
41
1
10
104.633337145148
20
-16.0341217211687
30
0
41
1
10
104.633531181922
20
-16.0312693181222
30
0
41
1
10
104.633327977067
20
-16.0287356679202
30
0
41
1
10
104.632714496178
20
-16.0265424781435
30
0
41
1
10
104.631704833515
20
-16.0246884505609
30
0
41
1
10
104.630318072747
20
-16.0231708386287
30
0
41
1
10
104.628572705335
20
-16.0219900820922
30
0
41
1
10
104.626462082305
20
-16.0211398232454
30
0
41
1
10
104.623992126239
20
-16.0206239620364
30
0
41
1
10
104.622009572957
20
-16.0204897098768
30
0
41
1
10
104.62090590009
20
-16.0204811392898
30
0
41
1
10
104.62079166498
20
-16.0204809472619
30
0
0
SPLINE
5
122
100
AcDbEntity
8
1
62
256
6
ByLayer
370
18
48
1
60
0
100
AcDbSpline
70
4
71
3
72
28
73
24
40
0
40
0
40
0
40
0
40
0.0294009737868892
40
0.0635601033355949
40
0.0977446358984497
40
0.131909420470593
40
0.178661219254625
40
0.225459320189777
40
0.272224343835521
40
0.320262136232051
40
0.368332620265074
40
0.416378926531642
40
0.469052766503185
40
0.521777770967601
40
0.574512569094787
40
0.627199776578894
40
0.681318549705745
40
0.735475311584941
40
0.789636965977702
40
0.843762415287088
40
0.895836488371291
40
0.947924707552749
40
1
40
1
40
1
40
1
41
1
10
104.62079166498
20
-16.0204809472619
30
0
41
1
10
104.619907369304
20
-16.0204823137365
30
0
41
1
10
104.617920219843
20
-16.0205685885491
30
0
41
1
10
104.614602859542
20
-16.0209858496094
30
0
41
1
10
104.610863292219
20
-16.0217199040167
30
0
41
1
10
104.606395578966
20
-16.0228587953418
30
0
41
1
10
104.601115987269
20
-16.0245117082902
30
0
41
1
10
104.594959395735
20
-16.0267779950349
30
0
41
1
10
104.588431566774
20
-16.0294806093649
30
0
41
1
10
104.581563162896
20
-16.0325964631982
30
0
41
1
10
104.574382003625
20
-16.0361034203906
30
0
41
1
10
104.566743569186
20
-16.0400665540133
30
0
41
1
10
104.558652799858
20
-16.0444936463559
30
0
41
1
10
104.550116062706
20
-16.0493917780613
30
0
41
1
10
104.541406741317
20
-16.054598936841
30
0
41
1
10
104.532471529908
20
-16.060138084228
30
0
41
1
10
104.523325732433
20
-16.0659962996492
30
0
41
1
10
104.513981422946
20
-16.0721646126533
30
0
41
1
10
104.504539294988
20
-16.0785718774457
30
0
41
1
10
104.49513746672
20
-16.0851165594887
30
0
41
1
10
104.485792892135
20
-16.0917749816343
30
0
41
1
10
104.476517251402
20
-16.0985294347104
30
0
41
1
10
104.470308263069
20
-16.1031447611935
30
0
41
1
10
104.467197107387
20
-16.1054809471616
30
0
0
SPLINE
5
123
100
AcDbEntity
8
1
62
256
6
ByLayer
370
18
48
1
60
0
100
AcDbSpline
70
4
71
3
72
15
73
11
40
0
40
0
40
0
40
0
40
0.124992650800556
40
0.249985298259535
40
0.374980768164574
40
0.499976234497457
40
0.624980591954957
40
0.749984945591401
40
0.874992474839815
40
1
40
1
40
1
40
1
41
1
10
104.467197107387
20
-16.1054809471616
30
0
41
1
10
104.431055592545
20
-16.1326178914459
30
0
41
1
10
104.35869901693
20
-16.1868179114722
30
0
41
1
10
104.249943898044
20
-16.2678986487382
30
0
41
1
10
104.140964909363
20
-16.3487549839342
30
0
41
1
10
104.03175704434
20
-16.4293853902574
30
0
41
1
10
103.922318399718
20
-16.5097853351326
30
0
41
1
10
103.812645222167
20
-16.5899514110412
30
0
41
1
10
103.702737670278
20
-16.6698781323466
30
0
41
1
10
103.629307109768
20
-16.7229991793076
30
0
41
1
10
103.59255248731
20
-16.7495190528382
30
0
0
SPLINE
5
124
100
AcDbEntity
8
1
62
256
6
ByLayer
370
18
48
1
60
0
100
AcDbSpline
70
4
71
3
72
27
73
23
40
0
40
0
40
0
40
0
40
0.059916744728635
40
0.119873612910129
40
0.179827299484118
40
0.239739702709664
40
0.301146436700452
40
0.362608964827083
40
0.424061762942941
40
0.485455216296822
40
0.533018256719944
40
0.580598002306859
40
0.628156357248425
40
0.67652409616369
40
0.724916165546361
40
0.773274887515426
40
0.810637174432826
40
0.848016267173651
40
0.885373065715838
40
0.923576490586414
40
0.961805907755289
40
1
40
1
40
1
40
1
41
1
10
103.59255248731
20
-16.7495190528382
30
0
41
1
10
103.589230947736
20
-16.7519159872946
30
0
41
1
10
103.582598729974
20
-16.7566385587574
30
0
41
1
10
103.572682454267
20
-16.763510532764
30
0
41
1
10
103.562818280253
20
-16.770150971363
30
0
41
1
10
103.552940333512
20
-16.7765980353515
30
0
41
1
10
103.543063862791
20
-16.7828299705625
30
0
41
1
10
103.533209286864
20
-16.7888182383673
30
0
41
1
10
103.523483178147
20
-16.7944849784051
30
0
41
1
10
103.514631873977
20
-16.7994026031581
30
0
41
1
10
103.506638943778
20
-16.8036342704036
30
0
41
1
10
103.499478218065
20
-16.8072468348855
30
0
41
1
10
103.492422291073
20
-16.810613924873
30
0
41
1
10
103.485494812186
20
-16.8137090405265
30
0
41
1
10
103.478726091513
20
-16.8164997149996
30
0
41
1
10
103.472680677528
20
-16.8187545961821
30
0
41
1
10
103.467329412792
20
-16.8205360179864
30
0
41
1
10
103.462631898276
20
-16.8219124528754
30
0
41
1
10
103.458096848326
20
-16.823033574343
30
0
41
1
10
103.45375475533
20
-16.8238709090243
30
0
41
1
10
103.449635981107
20
-16.8243979314055
30
0
41
1
10
103.447089865255
20
-16.8245162750271
30
0
41
1
10
103.445864854208
20
-16.8245190528383
30
0
0
SPLINE
5
125
100
AcDbEntity
8
1
62
256
6
ByLayer
370
18
48
1
60
0
100
AcDbSpline
70
4
71
3
72
26
73
22
40
0
40
0
40
0
40
0
40
0.0421518481876542
40
0.084392139669068
40
0.126650916304157
40
0.16882802236882
40
0.217855688386022
40
0.266932466852435
40
0.315973607603018
40
0.36638579868624
40
0.416833447401707
40
0.467254442845355
40
0.520538810060785
40
0.573874634920124
40
0.627219423837601
40
0.680516026196821
40
0.753538322285441
40
0.826611315452775
40
0.899642895751497
40
0.949821293144138
40
1
40
1
40
1
40
1
41
1
10
104.088583065245
20
-16.8245190528383
30
0
41
1
10
104.089568935154
20
-16.8245157044765
30
0
41
1
10
104.091662391273
20
-16.824374580089
30
0
41
1
10
104.095181498946
20
-16.8237454888951
30
0
41
1
10
104.099025578186
20
-16.8227386357362
30
0
41
1
10
104.103388459912
20
-16.8213019191626
30
0
41
1
10
104.108293796517
20
-16.8193932166382
30
0
41
1
10
104.113751995489
20
-16.8169838900195
30
0
41
1
10
104.119538909934
20
-16.8141753662569
30
0
41
1
10
104.125628098943
20
-16.8109881783803
30
0
41
1
10
104.131995309007
20
-16.8074424312256
30
0
41
1
10
104.138680995376
20
-16.8035222463347
30
0
41
1
10
104.145672641195
20
-16.7992338319033
30
0
41
1
10
104.152958646485
20
-16.7945826639468
30
0
41
1
10
104.160387754879
20
-16.7896709868909
30
0
41
1
10
104.168869173559
20
-16.7838863204572
30
0
41
1
10
104.178439383501
20
-16.7771400737498
30
0
41
1
10
104.189118182952
20
-16.7693522564357
30
0
41
1
10
104.198799400397
20
-16.7620730309698
30
0
41
1
10
104.207418473734
20
-16.7554372927167
30
0
41
1
10
104.212431705079
20
-16.7515071223942
30
0
41
1
10
104.2149450508
20
-16.7495190528383
30
0
0
SPLINE
5
126
100
AcDbEntity
8
1
62
256
6
ByLayer
370
18
48
1
60
0
100
AcDbSpline
70
4
71
3
72
15
73
11
40
0
40
0
40
0
40
0
40
0.124995144583572
40
0.249990291653154
40
0.374987456409636
40
0.499984623492269
40
0.624987565423061
40
0.749990509531797
40
0.874995253745904
40
1
40
1
40
1
40
1
41
1
10
104.2149450508
20
-16.7495190528382
30
0
41
1
10
104.248581510647
20
-16.7229149056441
30
0
41
1
10
104.315792014357
20
-16.669647701884
30
0
41
1
10
104.41641999365
20
-16.5895683989227
30
0
41
1
10
104.5168633984
20
-16.5093146135288
30
0
41
1
10
104.617125757173
20
-16.4288875836632
30
0
41
1
10
104.717208809917
20
-16.348290557725
30
0
41
1
10
104.817115231464
20
-16.2675258526102
30
0
41
1
10
104.916845438554
20
-16.1865970942719
30
0
41
1
10
104.983216717916
20
-16.1325375852232
30
0
41
1
10
105.016373233905
20
-16.1054809471616
30
0
0
SPLINE
5
127
100
AcDbEntity
8
1
62
256
6
ByLayer
370
18
48
1
60
0
100
AcDbSpline
70
4
71
3
72
29
73
25
40
0
40
0
40
0
40
0
40
0.0537061670808366
40
0.107446004672494
40
0.16118239749876
40
0.214883864172021
40
0.269855947970393
40
0.324875975180509
40
0.379887736184162
40
0.434848537741636
40
0.48287646489609
40
0.530924878149025
40
0.578947022163411
40
0.62796582760869
40
0.677014837187715
40
0.726023184996856
40
0.763506723654552
40
0.801009988145831
40
0.838488103284737
40
0.876917076526005
40
0.915375206231903
40
0.95379636895498
40
0.990568470402188
40
1
40
1
40
1
40
1
41
1
10
105.016373233905
20
-16.1054809471616
30
0
41
1
10
105.019305460282
20
-16.1030879566441
30
0
41
1
10
105.025150572484
20
-16.0983570671522
30
0
41
1
10
105.033861206067
20
-16.0914241085189
30
0
41
1
10
105.042496411133
20
-16.0846729920013
30
0
41
1
10
105.051109260066
20
-16.0780661481336
30
0
41
1
10
105.059684348712
20
-16.071622839194
30
0
41
1
10
105.068201776842
20
-16.0653671791741
30
0
41
1
10
105.076571491788
20
-16.0593728584544
30
0
41
1
10
105.084423500219
20
-16.0539051233223
30
0
41
1
10
105.091760524844
20
-16.0489455887974
30
0
41
1
10
105.098589933721
20
-16.0444723765316
30
0
41
1
10
105.105271443497
20
-16.0402516784435
30
0
41
1
10
105.111774122079
20
-16.0363163061939
30
0
41
1
10
105.118060558517
20
-16.032704307267
30
0
41
1
10
105.123581650975
20
-16.0297288534148
30
0
41
1
10
105.128381232098
20
-16.0273206967956
30
0
41
1
10
105.132517992492
20
-16.0254001579754
30
0
41
1
10
105.13644933953
20
-16.0237482708348
30
0
41
1
10
105.140143328906
20
-16.0223949205529
30
0
41
1
10
105.143564881052
20
-16.0213708874652
30
0
41
1
10
105.146619107837
20
-16.0207101759256
30
0
41
1
10
105.14861844343
20
-16.0205109495798
30
0
41
1
10
105.149631879065
20
-16.0204829707037
30
0
41
1
10
105.149835234946
20
-16.0204809476231
30
0
0
SPLINE
5
128
100
AcDbEntity
8
1
62
256
6
ByLayer
370
18
48
1
60
0
100
AcDbSpline
70
4
71
3
72
29
73
25
40
0
40
0
40
0
40
0
40
0.0322917999795359
40
0.0756976918118346
40
0.119038901509456
40
0.162239385517355
40
0.205605828392469
40
0.249139485288731
40
0.292732927470164
40
0.336272119303699
40
0.379643222329711
40
0.420305751630336
40
0.461077435550035
40
0.501900468458966
40
0.542699380125386
40
0.58338480810028
40
0.630288399803966
40
0.677236806997066
40
0.724150353120031
40
0.772387274701912
40
0.820659292286603
40
0.868904244133634
40
0.934449477354823
40
1
40
1
40
1
40
1
41
1
10
105.149835234946
20
-16.0204809476231
30
0
41
1
10
105.15041826571
20
-16.0204849977518
30
0
41
1
10
105.1517048594
20
-16.0205750031395
30
0
41
1
10
105.153445597427
20
-16.0210041834285
30
0
41
1
10
105.154948177959
20
-16.0218639397291
30
0
41
1
10
105.156035792063
20
-16.0231211628599
30
0
41
1
10
105.156675534646
20
-16.0247992521491
30
0
41
1
10
105.156873545784
20
-16.0268840525484
30
0
41
1
10
105.156635276045
20
-16.029355669086
30
0
41
1
10
105.155964990597
20
-16.0321936091515
30
0
41
1
10
105.154885677241
20
-16.0353193491292
30
0
41
1
10
105.153429217581
20
-16.0386983959426
30
0
41
1
10
105.151653021965
20
-16.0422799084818
30
0
41
1
10
105.149545260838
20
-16.0461133461225
30
0
41
1
10
105.147129593381
20
-16.0501692111397
30
0
41
1
10
105.144285134082
20
-16.0546435701437
30
0
41
1
10
105.140977230162
20
-16.059553752647
30
0
41
1
10
105.137189074373
20
-16.0649024378967
30
0
41
1
10
105.133063239551
20
-16.07048747357
30
0
41
1
10
105.128617891979
20
-16.076288489895
30
0
41
1
10
105.123873262546
20
-16.0822850761102
30
0
41
1
10
105.118302252665
20
-16.0891314555097
30
0
41
1
10
105.111827652428
20
-16.0968570233582
30
0
41
1
10
105.106883138882
20
-16.1025897515442
30
0
41
1
10
105.104353770863
20
-16.1054809471718
30
0
0
SPLINE
5
129
100
AcDbEntity
8
1
62
256
6
ByLayer
370
18
48
1
60
0
100
AcDbSpline
70
4
71
2
72
6
73
3
40
0
40
0
40
0
40
1
40
1
40
1
41
1
10
104.53986729166
20
-16.7495190528382
30
0
41
1
10
104.822561277628
20
-16.4277963026097
30
0
41
1
10
105.104353770867
20
-16.1054809471616
30
0
0
SPLINE
5
12A
100
AcDbEntity
8
1
62
256
6
ByLayer
370
18
48
1
60
0
100
AcDbSpline
70
4
71
3
72
11
73
7
40
0
40
0
40
0
40
0
40
0.249999553851198
40
0.499999105797062
40
0.749999553979355
40
1
40
1
40
1
40
1
41
1
10
105.458002130922
20
-16.1054809471616
30
0
41
1
10
105.409072782417
20
-16.1592304812382
30
0
41
1
10
105.31115637369
20
-16.2666900605749
30
0
41
1
10
105.164110347432
20
-16.427762552588
30
0
41
1
10
105.016887211958
20
-16.5887139785712
30
0
41
1
10
104.918616255802
20
-16.695931173076
30
0
41
1
10
104.86945060122
20
-16.7495190528382
30
0
0
SPLINE
5
12B
100
AcDbEntity
8
1
62
256
6
ByLayer
370
18
48
1
60
0
100
AcDbSpline
70
4
71
3
72
30
73
26
40
0
40
0
40
0
40
0
40
0.0484820872091529
40
0.0969826208284295
40
0.145460282495734
40
0.194796306506371
40
0.244158097212458
40
0.293486908494429
40
0.335914526435193
40
0.378364637531889
40
0.420786677315905
40
0.46426699489878
40
0.507779595595621
40
0.55125227282111
40
0.594529422207281
40
0.637953579716166
40
0.681412545605622
40
0.724807976423422
40
0.768060951857844
40
0.811451981919185
40
0.855006371414247
40
0.898620451089626
40
0.942182723953596
40
0.985580390858229
40
1
40
1
40
1
40
1
41
1
10
105.458002130922
20
-16.1054809471616
30
0
41
1
10
105.459942431941
20
-16.1033499284733
30
0
41
1
10
105.463773797473
20
-16.0991154819867
30
0
41
1
10
105.469377958964
20
-16.0928429812673
30
0
41
1
10
105.474848940376
20
-16.0866327222199
30
0
41
1
10
105.480166087128
20
-16.0805019401704
30
0
41
1
10
105.485303290354
20
-16.0744731973571
30
0
41
1
10
105.489977283426
20
-16.0688774969071
30
0
41
1
10
105.494201297967
20
-16.0637117061017
30
0
41
1
10
105.497996578329
20
-16.0589650216309
30
0
41
1
10
105.501590511519
20
-16.0543525316759
30
0
41
1
10
105.504953537355
20
-16.0499011836747
30
0
41
1
10
105.508055797236
20
-16.0456396157558
30
0
41
1
10
105.5108436755
20
-16.0416332227879
30
0
41
1
10
105.513286746268
20
-16.0379113404805
30
0
41
1
10
105.515368996452
20
-16.0344928877576
30
0
41
1
10
105.517078606241
20
-16.0313927878827
30
0
41
1
10
105.518392273037
20
-16.0286415709489
30
0
41
1
10
105.519290552895
20
-16.0262622544742
30
0
41
1
10
105.519744966245
20
-16.0242856268373
30
0
41
1
10
105.519763335525
20
-16.0227102156643
30
0
41
1
10
105.519352719572
20
-16.0215392315188
30
0
41
1
10
105.518519664752
20
-16.0207778612387
30
0
41
1
10
105.517543460141
20
-16.0205101271988
30
0
41
1
10
105.516864076998
20
-16.0204806505107
30
0
41
1
10
105.516686950118
20
-16.0204809473385
30
0
0
SPLINE
5
12C
100
AcDbEntity
8
1
62
256
6
ByLayer
370
18
48
1
60
0
100
AcDbSpline
70
4
71
3
72
28
73
24
40
0
40
0
40
0
40
0
40
0.0240368301583204
40
0.061136036984487
40
0.0982814870736886
40
0.135405296525915
40
0.172427006797311
40
0.215268435645737
40
0.258150674539692
40
0.301001045344587
40
0.345061466628041
40
0.38915402621896
40
0.433221641930315
40
0.478313332198536
40
0.52344899662642
40
0.568592285155221
40
0.613694381741563
40
0.675493130176926
40
0.737334880976293
40
0.79914302584607
40
0.866079707254888
40
0.933056525675047
40
1
40
1
40
1
40
1
41
1
10
105.516686950118
20
-16.0204809473385
30
0
41
1
10
105.516357478673
20
-16.0204825492655
30
0
41
1
10
105.51545859115
20
-16.0205489310206
30
0
41
1
10
105.513757016955
20
-16.0209159802487
30
0
41
1
10
105.511503277946
20
-16.0216698506804
30
0
41
1
10
105.508944250121
20
-16.0227465877482
30
0
41
1
10
105.505948541982
20
-16.024206301561
30
0
41
1
10
105.502480418992
20
-16.0260923398767
30
0
41
1
10
105.498521957462
20
-16.0284307209365
30
0
41
1
10
105.494225794995
20
-16.0311324319526
30
0
41
1
10
105.489610099005
20
-16.0341836683111
30
0
41
1
10
105.484695438968
20
-16.0375670995008
30
0
41
1
10
105.479510264758
20
-16.0412586939619
30
0
41
1
10
105.474071450234
20
-16.0452438624344
30
0
41
1
10
105.468395038817
20
-16.0495081582213
30
0
41
1
10
105.462544544519
20
-16.0539998705761
30
0
41
1
10
105.45579974151
20
-16.0592787657596
30
0
41
1
10
105.448108607012
20
-16.0654217440737
30
0
41
1
10
105.439433514469
20
-16.0724951406931
30
0
41
1
10
105.430322248709
20
-16.0800619857052
30
0
41
1
10
105.420787843788
20
-16.088118081439
30
0
41
1
10
105.410842539424
20
-16.0966605060152
30
0
41
1
10
105.404129499176
20
-16.1025136149412
30
0
41
1
10
105.400751217255
20
-16.1054809471619
30
0
0
SPLINE
5
12D
100
AcDbEntity
8
1
62
256
6
ByLayer
370
18
48
1
60
0
100
AcDbSpline
70
4
71
3
72
13
73
9
40
0
40
0
40
0
40
0
40
0.166663511768471
40
0.333327182048585
40
0.49999067961377
40
0.666660399449973
40
0.833330296340047
40
1
40
1
40
1
40
1
41
1
10
105.400751217257
20
-16.1054809471616
30
0
41
1
10
105.35976660909
20
-16.1414758128925
30
0
41
1
10
105.277715215575
20
-16.2133951142483
30
0
41
1
10
105.154393612355
20
-16.3210646536342
30
0
41
1
10
105.03082030271
20
-16.4285201329409
30
0
41
1
10
104.906991542251
20
-16.5357575039688
30
0
41
1
10
104.782903311169
20
-16.6427724436832
30
0
41
1
10
104.700001864835
20
-16.7139622107379
30
0
41
1
10
104.658507511825
20
-16.7495190528382
30
0
0
SPLINE
5
12E
100
AcDbEntity
8
1
62
256
6
ByLayer
370
18
48
1
60
0
100
AcDbSpline
70
4
71
3
72
28
73
24
40
0
40
0
40
0
40
0
40
0.0683987263787296
40
0.136832053877605
40
0.205224262630823
40
0.257691562652659
40
0.310203006354467
40
0.3627073151205
40
0.415164877256511
40
0.463576671616301
40
0.512010353857296
40
0.560416243211815
40
0.609876262925676
40
0.659368232560355
40
0.708817894052474
40
0.746769672511914
40
0.78474208450581
40
0.822688631515353
40
0.861611726089656
40
0.900564675733763
40
0.93948056495777
40
0.969740667843438
40
1
40
1
40
1
40
1
41
1
10
104.658507511825
20
-16.7495190528382
30
0
41
1
10
104.655368096683
20
-16.7522097388559
30
0
41
1
10
104.649124959846
20
-16.7575119525266
30
0
41
1
10
104.639862180656
20
-16.7652347405337
30
0
41
1
10
104.631441960916
20
-16.7721130899974
30
0
41
1
10
104.623849391948
20
-16.7781938684646
30
0
41
1
10
104.617060854698
20
-16.7835292026464
30
0
41
1
10
104.610396883178
20
-16.7886588666808
30
0
41
1
10
104.604044469838
20
-16.7934366892348
30
0
41
1
10
104.598008207584
20
-16.7978641439419
30
0
41
1
10
104.592291212423
20
-16.8019441687898
30
0
41
1
10
104.586709664035
20
-16.8058040755389
30
0
41
1
10
104.581290974197
20
-16.8094140818379
30
0
41
1
10
104.576067556253
20
-16.8127405179697
30
0
41
1
10
104.571492478022
20
-16.8154968867578
30
0
41
1
10
104.567526073324
20
-16.8177433986555
30
0
41
1
10
104.564115867089
20
-16.8195501373046
30
0
41
1
10
104.560888570649
20
-16.8211205558234
30
0
41
1
10
104.557871750554
20
-16.8224280742536
30
0
41
1
10
104.555092503584
20
-16.8234485553831
30
0
41
1
10
104.552783623133
20
-16.8241007433393
30
0
41
1
10
104.550894094862
20
-16.8244474782283
30
0
41
1
10
104.549876894915
20
-16.8245182622696
30
0
41
1
10
104.549400808795
20
-16.8245190528383
30
0
0
SPLINE
5
12F
100
AcDbEntity
8
1
62
256
6
ByLayer
370
18
48
1
60
0
100
AcDbSpline
70
4
71
3
72
27
73
23
40
0
40
0
40
0
40
0
40
0.0378796502980433
40
0.0758324408677943
40
0.113792995480797
40
0.151683253153074
40
0.195859607630887
40
0.240151178293899
40
0.284503037170801
40
0.328834746774417
40
0.373044856369358
40
0.426657386621787
40
0.480321576773538
40
0.533946746511649
40
0.589066413529741
40
0.644225298483267
40
0.699353655767859
40
0.75941012847955
40
0.819556825158331
40
0.879747946998923
40
0.93992121086994
40
1
40
1
40
1
40
1
41
1
10
104.845267091018
20
-16.8245190528383
30
0
41
1
10
104.845605310982
20
-16.8245174550358
30
0
41
1
10
104.846383171303
20
-16.8244097868595
30
0
41
1
10
104.847860893787
20
-16.8239282385222
30
0
41
1
10
104.849626283116
20
-16.8231447499353
30
0
41
1
10
104.851779160666
20
-16.8220093720768
30
0
41
1
10
104.85436333296
20
-16.8204719724608
30
0
41
1
10
104.857405590394
20
-16.8184993864377
30
0
41
1
10
104.860748662676
20
-16.8161943307729
30
0
41
1
10
104.864360602576
20
-16.813585115268
30
0
41
1
10
104.868490631966
20
-16.8104888066964
30
0
41
1
10
104.873178693674
20
-16.8068552545882
30
0
41
1
10
104.878448737985
20
-16.8026505304373
30
0
41
1
10
104.884028380622
20
-16.7980908676024
30
0
41
1
10
104.889894786097
20
-16.7931976033238
30
0
41
1
10
104.896025994556
20
-16.7879918936119
30
0
41
1
10
104.902530993559
20
-16.7823827935302
30
0
41
1
10
104.909406569435
20
-16.776369170325
30
0
41
1
10
104.916647872871
20
-16.7699515344961
30
0
41
1
10
104.924037977711
20
-16.7633238474236
30
0
41
1
10
104.931550677589
20
-16.7565128529023
30
0
41
1
10
104.936624431067
20
-16.7518677349799
30
0
41
1
10
104.939177425521
20
-16.7495190528382
30
0
0
SPLINE
5
130
100
AcDbEntity
8
1
62
256
6
ByLayer
370
18
48
1
60
0
100
AcDbSpline
70
4
71
3
72
11
73
7
40
0
40
0
40
0
40
0
40
0.249997064269348
40
0.499994142531975
40
0.749997065109902
40
1
40
1
40
1
40
1
41
1
10
104.939177425521
20
-16.7495190528383
30
0
41
1
10
104.997254471505
20
-16.696093863499
30
0
41
1
10
105.11325648746
20
-16.5891201892719
30
0
41
1
10
105.286799639103
20
-16.4282837200697
30
0
41
1
10
105.459897876012
20
-16.2670857551113
30
0
41
1
10
105.575009291781
20
-16.15938826444
30
0
41
1
10
105.63249215614
20
-16.1054809471616
30
0
0
SPLINE
5
131
100
AcDbEntity
8
1
62
256
6
ByLayer
370
18
48
1
60
0
100
AcDbSpline
70
4
71
3
72
29
73
25
40
0
40
0
40
0
40
0
40
0.0578291485437549
40
0.115681772154495
40
0.173506282405039
40
0.232391470307441
40
0.291308164510858
40
0.350184695040383
40
0.397646026318947
40
0.445129936136003
40
0.4925853000824
40
0.541121760004242
40
0.58969106159345
40
0.638217685741063
40
0.676106710958038
40
0.714017509339809
40
0.751901673897865
40
0.790788227334784
40
0.829705321017515
40
0.868585945302737
40
0.906548892026821
40
0.944547387341892
40
0.982506041650909
40
1
40
1
40
1
40
1
41
1
10
105.63249215614
20
-16.1054809471616
30
0
41
1
10
105.635213108293
20
-16.1029291985185
30
0
41
1
10
105.640615000888
20
-16.0978806606775
30
0
41
1
10
105.648602514624
20
-16.0904676336407
30
0
41
1
10
105.656496829875
20
-16.0831964899993
30
0
41
1
10
105.664275171873
20
-16.0760913223824
30
0
41
1
10
105.671907003852
20
-16.0691838623317
30
0
41
1
10
105.678837593787
20
-16.0629751626382
30
0
41
1
10
105.68508692467
20
-16.0574351112898
30
0
41
1
10
105.690686253727
20
-16.052523193762
30
0
41
1
10
105.696118297535
20
-16.0478145628529
30
0
41
1
10
105.701352173866
20
-16.0433407065948
30
0
41
1
10
105.706352950662
20
-16.0391364983845
30
0
41
1
10
105.710707071741
20
-16.0355484689083
30
0
41
1
10
105.714458673408
20
-16.0325241451975
30
0
41
1
10
105.717665647015
20
-16.0299986283865
30
0
41
1
10
105.720657038541
20
-16.0277100783888
30
0
41
1
10
105.723403788886
20
-16.0256867616572
30
0
41
1
10
105.725879329519
20
-16.0239536527146
30
0
41
1
10
105.728023196834
20
-16.0225568840311
30
0
41
1
10
105.729820778325
20
-16.0215084604393
30
0
41
1
10
105.731269292593
20
-16.0208081516024
30
0
41
1
10
105.732171630899
20
-16.020521595579
30
0
41
1
10
105.732577053742
20
-16.020481045113
30
0
41
1
10
105.732692264324
20
-16.0204809472309
30
0
0
SPLINE
5
132
100
AcDbEntity
8
1
62
256
6
ByLayer
370
18
48
1
60
0
100
AcDbSpline
70
4
71
3
72
29
73
25
40
0
40
0
40
0
40
0
40
0.0231634360428189
40
0.0648063688015008
40
0.106399512274117
40
0.148203269589422
40
0.190144876476229
40
0.232143992161358
40
0.274105930962649
40
0.315926797728554
40
0.358049451111439
40
0.400272094419328
40
0.442544351846741
40
0.484796857864863
40
0.526944618241681
40
0.579541979385958
40
0.632189900304921
40
0.684799180913298
40
0.738883530051174
40
0.793006751607267
40
0.847099787389653
40
0.898057198844877
40
0.949038265669142
40
1
40
1
40
1
40
1
41
1
10
105.732692264324
20
-16.0204809472309
30
0
41
1
10
105.732836407446
20
-16.0204814486709
30
0
41
1
10
105.733182235548
20
-16.0205395216621
30
0
41
1
10
105.733487411466
20
-16.0208950468745
30
0
41
1
10
105.733444649267
20
-16.0217060704635
30
0
41
1
10
105.73298543021
20
-16.022923438573
30
0
41
1
10
105.732120138555
20
-16.0245340308725
30
0
41
1
10
105.730866893458
20
-16.0265155801862
30
0
41
1
10
105.729242040653
20
-16.0288475809786
30
0
41
1
10
105.72725204999
20
-16.0315223129028
30
0
41
1
10
105.724904085991
20
-16.0345307690101
30
0
41
1
10
105.722223907714
20
-16.0378473928862
30
0
41
1
10
105.719240249797
20
-16.0414409419145
30
0
41
1
10
105.715980433087
20
-16.045282647011
30
0
41
1
10
105.712174423258
20
-16.0496874794396
30
0
41
1
10
105.707765375341
20
-16.0547037519598
30
0
41
1
10
105.702714537961
20
-16.0603619128828
30
0
41
1
10
105.697318348576
20
-16.0663285022965
30
0
41
1
10
105.691599682907
20
-16.0725802165288
30
0
41
1
10
105.685581804769
20
-16.0790938447683
30
0
41
1
10
105.679465311157
20
-16.0856564611768
30
0
41
1
10
105.673289036144
20
-16.0922332147808
30
0
41
1
10
105.667082157526
20
-16.0987985377381
30
0
41
1
10
105.662856055066
20
-16.1032419493634
30
0
41
1
10
105.660720191725
20
-16.1054809471677
30
0
0
SPLINE
5
133
100
AcDbEntity
8
1
62
256
6
ByLayer
370
18
48
1
60
0
100
AcDbSpline
70
4
71
3
72
11
73
7
40
0
40
0
40
0
40
0
40
0.249999058564253
40
0.499998121528656
40
0.749999058824703
40
1
40
1
40
1
40
1
41
1
10
105.043050937398
20
-16.7495190528383
30
0
41
1
10
105.094693997987
20
-16.6959724534695
30
0
41
1
10
105.197893939408
20
-16.5888171179114
30
0
41
1
10
105.352432800716
20
-16.4278949905194
30
0
41
1
10
105.506719296692
20
-16.266790677526
30
0
41
1
10
105.609414050767
20
-16.1592705845828
30
0
41
1
10
105.660720191729
20
-16.1054809471616
30
0
0
SPLINE
5
134
100
AcDbEntity
8
1
62
256
6
ByLayer
370
18
48
1
60
0
100
AcDbSpline
70
4
71
3
72
33
73
29
40
0
40
0
40
0
40
0
40
0.0235957691503591
40
0.0523204166042639
40
0.081045207662962
40
0.114210003513968
40
0.147400001461138
40
0.180566791027893
40
0.214597538954624
40
0.248652533908413
40
0.282686321187194
40
0.317902077374279
40
0.353140266452196
40
0.388359538410859
40
0.442248603140221
40
0.496142360166483
40
0.537347749457
40
0.578554426382112
40
0.620081594748411
40
0.66160982546851
40
0.704013184253507
40
0.746417449522178
40
0.7890681470114
40
0.831719564869394
40
0.873700263685733
40
0.915681486380747
40
0.957840536854977
40
1
40
1
40
1
40
1
41
1
10
105.80403844164
20
-16.0204806171107
30
0
41
1
10
105.804037729379
20
-16.0204813191645
30
0
41
1
10
105.803988272864
20
-16.020530249858
30
0
41
1
10
105.803739612188
20
-16.020776264762
30
0
41
1
10
105.803253877344
20
-16.0212568450779
30
0
41
1
10
105.802510464326
20
-16.0219923907874
30
0
41
1
10
105.801478274428
20
-16.0230137172809
30
0
41
1
10
105.800188517297
20
-16.0242899923676
30
0
41
1
10
105.79864001534
20
-16.0258224342794
30
0
41
1
10
105.796838818885
20
-16.0276051347744
30
0
41
1
10
105.794786018901
20
-16.02963709236
30
0
41
1
10
105.792483055812
20
-16.0319169736896
30
0
41
1
10
105.789936512705
20
-16.0344383684917
30
0
41
1
10
105.78670014915
20
-16.0376432870958
30
0
41
1
10
105.782650022703
20
-16.0416549333491
30
0
41
1
10
105.778063144376
20
-16.0461995533002
30
0
41
1
10
105.773601593391
20
-16.0506212474925
30
0
41
1
10
105.769354078691
20
-16.0548318815188
30
0
41
1
10
105.764920072553
20
-16.0592285616417
30
0
41
1
10
105.76028159959
20
-16.0638292617566
30
0
41
1
10
105.755460693405
20
-16.0686123036331
30
0
41
1
10
105.750458256119
20
-16.0735769515853
30
0
41
1
10
105.745319540054
20
-16.0786784476654
30
0
41
1
10
105.740083285954
20
-16.0838784432208
30
0
41
1
10
105.73477208823
20
-16.0891545881298
30
0
41
1
10
105.729389953187
20
-16.0945029659267
30
0
41
1
10
105.723916193116
20
-16.0999442232002
30
0
41
1
10
105.720213044772
20
-16.1036266605927
30
0
41
1
10
105.718348639967
20
-16.1054809471661
30
0
0
SPLINE
5
135
100
AcDbEntity
8
1
62
256
6
ByLayer
370
18
48
1
60
0
100
AcDbSpline
70
4
71
3
72
11
73
7
40
0
40
0
40
0
40
0
40
0.249998337354412
40
0.499996667584419
40
0.749998337835885
40
1
40
1
40
1
40
1
41
1
10
105.718348639972
20
-16.1054809471616
30
0
41
1
10
105.664216754728
20
-16.1593210601639
30
0
41
1
10
105.5558415001
20
-16.2669168692315
30
0
41
1
10
105.39294699821
20
-16.4280611427048
30
0
41
1
10
105.229710188341
20
-16.5889467018952
30
0
41
1
10
105.120649713499
20
-16.696024512351
30
0
41
1
10
105.066061257946
20
-16.7495190528382
30
0
0
SPLINE
5
136
100
AcDbEntity
8
1
62
256
6
ByLayer
370
18
48
1
60
0
100
AcDbSpline
70
4
71
3
72
27
73
23
40
0
40
0
40
0
40
0
40
0.0592413351447819
40
0.118509699301003
40
0.177745058142696
40
0.238232001856808
40
0.298756444344162
40
0.35923232043532
40
0.405032426289967
40
0.450855208910937
40
0.496649594684586
40
0.543517134834803
40
0.590417282223791
40
0.637275994088221
40
0.682789530569363
40
0.728455558151875
40
0.774150968029969
40
0.819774299219275
40
0.86525190845961
40
0.910150083699714
40
0.95510720625751
40
1
40
1
40
1
40
1
41
1
10
105.066061257946
20
-16.7495190528382
30
0
41
1
10
105.06370811528
20
-16.7518250781438
30
0
41
1
10
105.059044787675
20
-16.7563887284898
30
0
41
1
10
105.052173801446
20
-16.763094281783
30
0
41
1
10
105.045405555614
20
-16.7696788894731
30
0
41
1
10
105.038764055767
20
-16.7761174239223
30
0
41
1
10
105.032281110394
20
-16.7823767302947
30
0
41
1
10
105.026537821208
20
-16.7878959199996
30
0
41
1
10
105.021499411016
20
-16.7927144680091
30
0
41
1
10
105.017117920982
20
-16.7968848360893
30
0
41
1
10
105.012892725913
20
-16.8008843442848
30
0
41
1
10
105.008850044581
20
-16.8046860326279
30
0
41
1
10
105.005018652053
20
-16.8082605675659
30
0
41
1
10
105.001487108356
20
-16.8115237616583
30
0
41
1
10
104.998276465312
20
-16.814454441629
30
0
41
1
10
104.995398218761
20
-16.8170417779204
30
0
41
1
10
104.992843455684
20
-16.8192927104029
30
0
41
1
10
104.990642983265
20
-16.8211776991598
30
0
41
1
10
104.988833309452
20
-16.8226624105194
30
0
41
1
10
104.987436370294
20
-16.8237258444379
30
0
41
1
10
104.986448945197
20
-16.8243727871034
30
0
41
1
10
104.986073241874
20
-16.8245173864583
30
0
41
1
10
104.985954961641
20
-16.8245190528383
30
0
0
SPLINE
5
137
100
AcDbEntity
8
1
62
256
6
ByLayer
370
18
48
1
60
0
100
AcDbSpline
70
4
71
3
72
46
73
42
40
0
40
0
40
0
40
0
40
0.0380994515757498
40
0.0762048885020473
40
0.11430930265263
40
0.15240735930832
40
0.190521017109079
40
0.228643656468057
40
0.266764337303507
40
0.304875323736015
40
0.336247164237939
40
0.367632760423181
40
0.399020087086854
40
0.430400184401382
40
0.461767410989911
40
0.492173388866657
40
0.522585030497729
40
0.55298877810847
40
0.576012053235832
40
0.59904426874374
40
0.622074403999019
40
0.64509484126997
40
0.667941508137128
40
0.69080278513658
40
0.713660326019432
40
0.736501894771908
40
0.75528031043724
40
0.774081556960491
40
0.792886053426331
40
0.811678847304206
40
0.830450165289026
40
0.849600150030497
40
0.868760710838968
40
0.887907989111248
40
0.902638294249937
40
0.917382333521836
40
0.932125054577972
40
0.946853560444251
40
0.964564755842509
40
0.982289508152612
40
1
40
1
40
1
40
1
41
1
10
10.1056624327026
20
29.9139548464691
30
0
41
1
10
10.1080337788162
20
29.9168179003219
30
0
41
1
10
10.1129337012369
20
29.9225232299786
30
0
41
1
10
10.120745258119
20
29.9310196000279
30
0
41
1
10
10.1290455050936
20
29.9394483382001
30
0
41
1
10
10.1378528466466
20
29.9478059143194
30
0
41
1
10
10.1471874122547
20
29.9560879236861
30
0
41
1
10
10.1570778965273
20
29.9642884285039
30
0
41
1
10
10.1675512099025
20
29.9723985205302
30
0
41
1
10
10.1779820372819
20
29.9799376105063
30
0
41
1
10
10.1882730778055
20
29.9869190673514
30
0
41
1
10
10.1983340946315
20
29.9933568232843
30
0
41
1
10
10.2088767062485
20
29.9997097529961
30
0
41
1
10
10.2199218686883
20
30.0059683611651
30
0
41
1
10
10.2313736976993
20
30.0120613265955
30
0
41
1
10
10.2432381484797
20
30.0179839523494
30
0
41
1
10
10.2555286206082
20
30.0237291341407
30
0
41
1
10
10.2673565521793
20
30.0288919541044
30
0
41
1
10
10.2785895655281
20
30.0334960275748
30
0
41
1
10
10.2891027456165
20
30.0375676284878
30
0
41
1
10
10.2999941183049
20
30.0415424369993
30
0
41
1
10
10.3112477952357
20
30.0454014396643
30
0
41
1
10
10.322876060678
20
30.0491368780011
30
0
41
1
10
10.3348921403599
20
30.0527386856161
30
0
41
1
10
10.3473365349404
20
30.0562028437606
30
0
41
1
10
10.3594540834078
20
30.0593187369732
30
0
41
1
10
10.3711706949886
20
30.0621045520516
30
0
41
1
10
10.3824131941435
20
30.0645819625961
30
0
41
1
10
10.3939682813513
20
30.0669278461451
30
0
41
1
10
10.4058264750854
20
30.0691294083694
30
0
41
1
10
10.4180652197138
20
30.0711886112742
30
0
41
1
10
10.4306903600226
20
30.0730893997402
30
0
41
1
10
10.4436956891567
20
30.0748160235288
30
0
41
1
10
10.4559585645709
20
30.076225439612
30
0
41
1
10
10.4673922003507
20
30.0773561910098
30
0
41
1
10
10.4779275929692
20
30.0782524614357
30
0
41
1
10
10.4885834846269
20
30.0790120284424
30
0
41
1
10
10.5000650734466
20
30.0796711396809
30
0
41
1
10
10.5123778581301
20
30.0801871512724
30
0
41
1
10
10.5255078950941
20
30.0805183988875
30
0
41
1
10
10.5342818985281
20
30.0805922748453
30
0
41
1
10
10.5386751345948
20
30.0805927603169
30
0
0
SPLINE
5
138
100
AcDbEntity
8
1
62
256
6
ByLayer
370
18
48
1
60
0
100
AcDbSpline
70
4
71
3
72
48
73
44
40
0
40
0
40
0
40
0
40
0.0140128143133582
40
0.0280394502994694
40
0.0420665412409945
40
0.0560799765563448
40
0.0705350483870332
40
0.0850034476026827
40
0.0994730887268788
40
0.113929855603984
40
0.131205787307908
40
0.148499078311805
40
0.165795147015751
40
0.183074870186977
40
0.20084313363141
40
0.218624156337256
40
0.236407562663539
40
0.254179078753853
40
0.275936508772466
40
0.29771320235427
40
0.319500998779468
40
0.341286416116944
40
0.363051169546233
40
0.390951010262006
40
0.41886676338277
40
0.446786515439368
40
0.474691812216897
40
0.502409979473121
40
0.530140074284951
40
0.557876840857069
40
0.585611979122619
40
0.613334378254291
40
0.647949905907401
40
0.682575131895002
40
0.717202398198993
40
0.751820708851339
40
0.788013879771369
40
0.824214123665294
40
0.860415624321059
40
0.89661050933131
40
0.931072760335286
40
0.965537354670729
40
1
40
1
40
1
40
1
41
1
10
13.4613248654052
20
30.0805927603169
30
0
41
1
10
13.4647993619934
20
30.0805924927353
30
0
41
1
10
13.4717437930323
20
30.0805461240243
30
0
41
1
10
13.4821476562924
20
30.080337974182
30
0
41
1
10
13.4925089238842
20
30.0799941431606
30
0
41
1
10
13.5029148784208
20
30.0795109720362
30
0
41
1
10
13.5133455998808
20
30.0788847001444
30
0
41
1
10
13.5237840899325
20
30.0781158846477
30
0
41
1
10
13.5341038321729
20
30.0772161313848
30
0
41
1
10
13.5449481940186
20
30.0761236031323
30
0
41
1
10
13.5562717756713
20
30.0748127319809
30
0
41
1
10
13.5680233837573
20
30.0732629357815
30
0
41
1
10
13.5795355838153
20
30.0715601811773
30
0
41
1
10
13.5908999129668
20
30.0696969166845
30
0
41
1
10
13.6021020669606
20
30.0676771753873
30
0
41
1
10
13.6131348521239
20
30.0655066337016
30
0
41
1
10
13.6238908567772
20
30.0632138623709
30
0
41
1
10
13.6351510046623
20
30.0606284132206
30
0
41
1
10
13.6468456427628
20
30.0577285701159
30
0
41
1
10
13.6589023678674
20
30.0544954887328
30
0
41
1
10
13.670568623704
20
30.0511300084973
30
0
41
1
10
13.681848351598
20
30.0476456641104
30
0
41
1
10
13.6937764540551
20
30.0437161086829
30
0
41
1
10
13.7062439189612
20
30.039314417717
30
0
41
1
10
13.7191355560918
20
30.034416333814
30
0
41
1
10
13.7314877070289
20
30.0293851055085
30
0
41
1
10
13.7432981282014
20
30.0242463248134
30
0
41
1
10
13.7546001227578
20
30.0190121562742
30
0
41
1
10
13.765418838833
20
30.0136909022312
30
0
41
1
10
13.775798068119
20
30.0082788734101
30
0
41
1
10
13.7857544787245
20
30.0027850138962
30
0
41
1
10
13.796099606746
20
29.9967550955534
30
0
41
1
10
13.8067363657679
20
29.990172610997
30
0
41
1
10
13.817560806947
20
29.9830218590651
30
0
41
1
10
13.827842772492
20
29.9757795888251
30
0
41
1
10
13.8377567389072
20
29.9683428814286
30
0
41
1
10
13.8473039032197
20
29.9607138393804
30
0
41
1
10
13.8564788024317
20
29.9528934888124
30
0
41
1
10
13.8651618007666
20
29.9450000915352
30
0
41
1
10
13.8732430020737
20
29.9371661916039
30
0
41
1
10
13.8807682475205
20
29.9293997744003
30
0
41
1
10
13.8877733177796
20
29.9217068139282
30
0
41
1
10
13.8921921196377
20
29.9165445359689
30
0
41
1
10
13.8943375672975
20
29.9139548464691
30
0
0
SPLINE
5
139
100
AcDbEntity
8
1
62
256
6
ByLayer
370
18
48
1
60
0
100
AcDbSpline
70
4
71
3
72
46
73
42
40
0
40
0
40
0
40
0
40
0.0380994515757487
40
0.0762048885020401
40
0.114309302652624
40
0.152407359308306
40
0.190521017109066
40
0.228643656468036
40
0.266764337303478
40
0.304875323735985
40
0.336247164237899
40
0.367632760423141
40
0.399020087086809
40
0.430400184401336
40
0.461767410989862
40
0.492173388866606
40
0.522585030497681
40
0.552988778108423
40
0.576012053235787
40
0.599044268743691
40
0.622074403998976
40
0.64509484126993
40
0.667941508137092
40
0.690802785136539
40
0.7136603260194
40
0.736501894771873
40
0.755280310437198
40
0.774081556960463
40
0.792886053426301
40
0.811678847304178
40
0.830450165289001
40
0.849600150030468
40
0.868760710838941
40
0.887907989111223
40
0.902638294249908
40
0.917382333521807
40
0.932125054577944
40
0.946853560444224
40
0.964564755842483
40
0.982289508152605
40
1
40
1
40
1
40
1
41
1
10
13.8943375672974
20
9.86941261896621
30
0
41
1
10
13.8919662211837
20
9.86073462158651
30
0
41
1
10
13.8870662987631
20
9.84341665294656
30
0
41
1
10
13.879254741881
20
9.817551013436
30
0
41
1
10
13.8709544949064
20
9.79181671195133
30
0
41
1
10
13.8621471533534
20
9.76622557945539
30
0
41
1
10
13.8528125877453
20
9.74079208774594
30
0
41
1
10
13.8429221034727
20
9.71553637148945
30
0
41
1
10
13.8324487900975
20
9.69048775929829
30
0
41
1
10
13.8220179627181
20
9.66713656017927
30
0
41
1
10
13.8117269221945
20
9.64545648026645
30
0
41
1
10
13.8016659053685
20
9.62541864520535
30
0
41
1
10
13.7911232937515
20
9.60559987415016
30
0
41
1
10
13.7800781313117
20
9.58603141159224
30
0
41
1
10
13.7686263023007
20
9.56693820179629
30
0
41
1
10
13.7567618515203
20
9.54833807735016
30
0
41
1
10
13.7444713793918
20
9.53025733977022
30
0
41
1
10
13.7326434478207
20
9.51397582374036
30
0
41
1
10
13.721410434472
20
9.49943036062637
30
0
41
1
10
13.7108972543836
20
9.48654773929672
30
0
41
1
10
13.7000058816952
20
9.47395289248292
30
0
41
1
10
13.6887522047643
20
9.46170736963573
30
0
41
1
10
13.677123939322
20
9.44983709018414
30
0
41
1
10
13.6651078596401
20
9.43837596567677
30
0
41
1
10
13.6526634650596
20
9.42733853474464
30
0
41
1
10
13.6405459165922
20
9.41739826176779
30
0
41
1
10
13.6288293050114
20
9.40850109702751
30
0
41
1
10
13.6175868058565
20
9.40058140052631
30
0
41
1
10
13.6060317186487
20
9.39307547606551
30
0
41
1
10
13.5941735249146
20
9.38602539695224
30
0
41
1
10
13.5819347802862
20
9.37942591547911
30
0
41
1
10
13.5693096399774
20
9.37332952333945
30
0
41
1
10
13.5563043108433
20
9.36778795750929
30
0
41
1
10
13.544041435429
20
9.36326166965205
30
0
41
1
10
13.5326077996493
20
9.35962864389292
30
0
41
1
10
13.5220724070307
20
9.35674794527372
30
0
41
1
10
13.5114165153731
20
9.35430582984641
30
0
41
1
10
13.4999349265534
20
9.35218612022052
30
0
41
1
10
13.4876221418699
20
9.35052631591947
30
0
41
1
10
13.4744921049059
20
9.34946059737758
30
0
41
1
10
13.4657181014719
20
9.34922290520844
30
0
41
1
10
13.4613248654052
20
9.34922131452502
30
0
0
SPLINE
5
13A
100
AcDbEntity
8
1
62
256
6
ByLayer
370
18
48
1
60
0
100
AcDbSpline
70
4
71
3
72
48
73
44
40
0
40
0
40
0
40
0
40
0.0140128143133564
40
0.0280394502994662
40
0.0420665412409951
40
0.0560799765563459
40
0.0705350483870345
40
0.0850034476026786
40
0.0994730887268755
40
0.113929855603981
40
0.131205787307905
40
0.148499078311804
40
0.165795147015747
40
0.183074870186977
40
0.200843133631409
40
0.21862415633726
40
0.236407562663537
40
0.254179078753853
40
0.275936508772463
40
0.297713202354274
40
0.319500998779471
40
0.341286416116953
40
0.363051169546241
40
0.390951010262014
40
0.418866763382781
40
0.446786515439386
40
0.474691812216918
40
0.502409979473137
40
0.530140074284973
40
0.55787684085709
40
0.585611979122643
40
0.613334378254314
40
0.647949905907427
40
0.68257513189503
40
0.717202398199014
40
0.751820708851366
40
0.788013879771397
40
0.824214123665323
40
0.860415624321091
40
0.896610509331345
40
0.93107276033531
40
0.965537354670744
40
1
40
1
40
1
40
1
41
1
10
10.5386751345948
20
9.34922131452512
30
0
41
1
10
10.5352006380066
20
9.34922219041292
30
0
41
1
10
10.5282562069677
20
9.3493713865136
30
0
41
1
10
10.5178523437076
20
9.35004110319782
30
0
41
1
10
10.5074910761158
20
9.35114717289727
30
0
41
1
10
10.4970851215792
20
9.35270124740461
30
0
41
1
10
10.4866544001192
20
9.35471524875907
30
0
41
1
10
10.4762159100675
20
9.35718697270664
30
0
41
1
10
10.4658961678271
20
9.36007871481755
30
0
41
1
10
10.4550518059814
20
9.36358874906524
30
0
41
1
10
10.4437282243287
20
9.36779842257882
30
0
41
1
10
10.4319766162427
20
9.37277260296106
30
0
41
1
10
10.4204644161847
20
9.37823437507276
30
0
41
1
10
10.4091000870332
20
9.38420703175138
30
0
41
1
10
10.3978979330394
20
9.39067651742689
30
0
41
1
10
10.3868651478761
20
9.39762356028501
30
0
41
1
10
10.3761091432228
20
9.40495573187047
30
0
41
1
10
10.3648489953377
20
9.41321666042332
30
0
41
1
10
10.3531543572372
20
9.42247252768398
30
0
41
1
10
10.3410976321326
20
9.43277987879073
30
0
41
1
10
10.329431376296
20
9.44349635688649
30
0
41
1
10
10.318151648402
20
9.45457742265241
30
0
41
1
10
10.3062235459448
20
9.46705801824236
30
0
41
1
10
10.2937560810388
20
9.48101641924056
30
0
41
1
10
10.2808644439082
20
9.4965215170371
30
0
41
1
10
10.2685122929711
20
9.51241936955713
30
0
41
1
10
10.2567018717986
20
9.52862697351034
30
0
41
1
10
10.2453998772422
20
9.54510384765683
30
0
41
1
10
10.234581161167
20
9.56182284129257
30
0
41
1
10
10.224201931881
20
9.57879426598257
30
0
41
1
10
10.2142455212755
20
9.59598867821601
30
0
41
1
10
10.203900393254
20
9.61482332588631
30
0
41
1
10
10.1932636342321
20
9.63533724867434
30
0
41
1
10
10.182439193053
20
9.65756590808596
30
0
41
1
10
10.172157227508
20
9.68002184594655
30
0
41
1
10
10.1622432610928
20
9.70302145578311
30
0
41
1
10
10.1526960967803
20
9.72655314186058
30
0
41
1
10
10.1435211975683
20
9.75060936089159
30
0
41
1
10
10.1348381992334
20
9.7748240532387
30
0
41
1
10
10.1267569979263
20
9.79879027124695
30
0
41
1
10
10.1192317524795
20
9.82248592432624
30
0
41
1
10
10.1122266822203
20
9.84589584315047
30
0
41
1
10
10.1078078803622
20
9.86156323284062
30
0
41
1
10
10.1056624327025
20
9.86941261896619
30
0
0
SPLINE
5
13B
100
AcDbEntity
8
1
62
256
6
ByLayer
370
18
48
1
60
0
100
AcDbSpline
70
4
71
3
72
46
73
42
40
0
40
0
40
0
40
0
40
0.03809945157575
40
0.0762048885020434
40
0.114309302652628
40
0.152407359308314
40
0.190521017109075
40
0.22864365646805
40
0.266764337303494
40
0.304875323736003
40
0.336247164237925
40
0.367632760423163
40
0.399020087086837
40
0.430400184401363
40
0.461767410989892
40
0.492173388866637
40
0.522585030497707
40
0.552988778108448
40
0.576012053235811
40
0.599044268743719
40
0.622074403999
40
0.64509484126995
40
0.66794150813711
40
0.690802785136559
40
0.713660326019416
40
0.73650189477189
40
0.755280310437222
40
0.774081556960473
40
0.792886053426314
40
0.81167884730419
40
0.83045016528901
40
0.849600150030479
40
0.86876071083895
40
0.887907989111233
40
0.902638294249923
40
0.91738233352182
40
0.932125054577957
40
0.946853560444236
40
0.9645647558425
40
0.982289508152607
40
1
40
1
40
1
40
1
41
1
10
10.1056624327026
20
-9.86941261896621
30
0
41
1
10
10.1080337788162
20
-9.86073462158651
30
0
41
1
10
10.1129337012369
20
-9.84341665294656
30
0
41
1
10
10.120745258119
20
-9.817551013436
30
0
41
1
10
10.1290455050936
20
-9.79181671195132
30
0
41
1
10
10.1378528466466
20
-9.76622557945539
30
0
41
1
10
10.1471874122547
20
-9.74079208774593
30
0
41
1
10
10.1570778965273
20
-9.71553637148945
30
0
41
1
10
10.1675512099025
20
-9.69048775929829
30
0
41
1
10
10.1779820372819
20
-9.66713656017927
30
0
41
1
10
10.1882730778055
20
-9.64545648026645
30
0
41
1
10
10.1983340946315
20
-9.62541864520534
30
0
41
1
10
10.2088767062485
20
-9.60559987415016
30
0
41
1
10
10.2199218686883
20
-9.58603141159224
30
0
41
1
10
10.2313736976993
20
-9.56693820179629
30
0
41
1
10
10.2432381484797
20
-9.54833807735016
30
0
41
1
10
10.2555286206082
20
-9.53025733977021
30
0
41
1
10
10.2673565521793
20
-9.51397582374036
30
0
41
1
10
10.278589565528
20
-9.49943036062638
30
0
41
1
10
10.2891027456164
20
-9.48654773929672
30
0
41
1
10
10.2999941183048
20
-9.47395289248293
30
0
41
1
10
10.3112477952357
20
-9.46170736963574
30
0
41
1
10
10.322876060678
20
-9.44983709018414
30
0
41
1
10
10.3348921403599
20
-9.43837596567679
30
0
41
1
10
10.3473365349404
20
-9.42733853474466
30
0
41
1
10
10.3594540834078
20
-9.4173982617678
30
0
41
1
10
10.3711706949886
20
-9.40850109702753
30
0
41
1
10
10.3824131941435
20
-9.40058140052632
30
0
41
1
10
10.3939682813513
20
-9.39307547606553
30
0
41
1
10
10.4058264750854
20
-9.38602539695226
30
0
41
1
10
10.4180652197138
20
-9.37942591547912
30
0
41
1
10
10.4306903600226
20
-9.37332952333946
30
0
41
1
10
10.4436956891567
20
-9.36778795750931
30
0
41
1
10
10.4559585645709
20
-9.36326166965206
30
0
41
1
10
10.4673922003507
20
-9.35962864389294
30
0
41
1
10
10.4779275929692
20
-9.35674794527374
30
0
41
1
10
10.4885834846269
20
-9.35430582984642
30
0
41
1
10
10.5000650734466
20
-9.35218612022053
30
0
41
1
10
10.5123778581301
20
-9.35052631591949
30
0
41
1
10
10.5255078950941
20
-9.3494605973776
30
0
41
1
10
10.5342818985281
20
-9.34922290520848
30
0
41
1
10
10.5386751345948
20
-9.34922131452505
30
0
0
SPLINE
5
13C
100
AcDbEntity
8
1
62
256
6
ByLayer
370
18
48
1
60
0
100
AcDbSpline
70
4
71
3
72
48
73
44
40
0
40
0
40
0
40
0
40
0.0140128143133582
40
0.028039450299467
40
0.0420665412409919
40
0.0560799765563423
40
0.0705350483870281
40
0.0850034476026775
40
0.0994730887268738
40
0.113929855603979
40
0.131205787307903
40
0.148499078311799
40
0.165795147015746
40
0.183074870186972
40
0.200843133631404
40
0.218624156337253
40
0.236407562663528
40
0.254179078753843
40
0.275936508772456
40
0.297713202354259
40
0.319500998779452
40
0.341286416116925
40
0.363051169546213
40
0.390951010261987
40
0.418866763382752
40
0.446786515439354
40
0.47469181221688
40
0.5024099794731
40
0.530140074284929
40
0.557876840857044
40
0.585611979122589
40
0.61333437825426
40
0.647949905907369
40
0.682575131894968
40
0.717202398198948
40
0.751820708851295
40
0.788013879771323
40
0.824214123665247
40
0.860415624321006
40
0.896610509331254
40
0.931072760335248
40
0.965537354670714
40
1
40
1
40
1
40
1
41
1
10
13.4613248654052
20
-9.3492213145251
30
0
41
1
10
13.4647993619934
20
-9.34922219041291
30
0
41
1
10
13.4717437930323
20
-9.34937138651359
30
0
41
1
10
13.4821476562924
20
-9.35004110319781
30
0
41
1
10
13.4925089238842
20
-9.35114717289724
30
0
41
1
10
13.5029148784208
20
-9.35270124740459
30
0
41
1
10
13.5133455998808
20
-9.35471524875905
30
0
41
1
10
13.5237840899325
20
-9.35718697270662
30
0
41
1
10
13.5341038321729
20
-9.36007871481753
30
0
41
1
10
13.5449481940186
20
-9.36358874906521
30
0
41
1
10
13.5562717756713
20
-9.36779842257881
30
0
41
1
10
13.5680233837573
20
-9.37277260296104
30
0
41
1
10
13.5795355838153
20
-9.37823437507274
30
0
41
1
10
13.5908999129668
20
-9.38420703175137
30
0
41
1
10
13.6021020669606
20
-9.39067651742688
30
0
41
1
10
13.6131348521239
20
-9.39762356028499
30
0
41
1
10
13.6238908567772
20
-9.40495573187045
30
0
41
1
10
13.6351510046623
20
-9.4132166604233
30
0
41
1
10
13.6468456427628
20
-9.42247252768396
30
0
41
1
10
13.6589023678674
20
-9.4327798787907
30
0
41
1
10
13.670568623704
20
-9.44349635688646
30
0
41
1
10
13.681848351598
20
-9.45457742265238
30
0
41
1
10
13.6937764540551
20
-9.46705801824233
30
0
41
1
10
13.7062439189612
20
-9.48101641924053
30
0
41
1
10
13.7191355560918
20
-9.49652151703708
30
0
41
1
10
13.7314877070289
20
-9.51241936955711
30
0
41
1
10
13.7432981282014
20
-9.5286269735103
30
0
41
1
10
13.7546001227578
20
-9.54510384765681
30
0
41
1
10
13.765418838833
20
-9.56182284129253
30
0
41
1
10
13.775798068119
20
-9.57879426598253
30
0
41
1
10
13.7857544787245
20
-9.59598867821597
30
0
41
1
10
13.796099606746
20
-9.61482332588628
30
0
41
1
10
13.8067363657679
20
-9.6353372486743
30
0
41
1
10
13.817560806947
20
-9.65756590808591
30
0
41
1
10
13.827842772492
20
-9.6800218459465
30
0
41
1
10
13.8377567389071
20
-9.70302145578306
30
0
41
1
10
13.8473039032197
20
-9.72655314186053
30
0
41
1
10
13.8564788024316
20
-9.75060936089154
30
0
41
1
10
13.8651618007666
20
-9.77482405323865
30
0
41
1
10
13.8732430020737
20
-9.7987902712469
30
0
41
1
10
13.8807682475205
20
-9.82248592432621
30
0
41
1
10
13.8877733177796
20
-9.84589584315046
30
0
41
1
10
13.8921921196378
20
-9.86156323284061
30
0
41
1
10
13.8943375672975
20
-9.8694126189662
30
0
0
SPLINE
5
13D
100
AcDbEntity
8
1
62
256
6
ByLayer
370
18
48
1
60
0
100
AcDbSpline
70
4
71
3
72
46
73
42
40
0
40
0
40
0
40
0
40
0.0380994515757496
40
0.076204888502045
40
0.114309302652632
40
0.152407359308317
40
0.190521017109079
40
0.228643656468051
40
0.2667643373035
40
0.304875323736006
40
0.336247164237923
40
0.367632760423168
40
0.399020087086843
40
0.430400184401371
40
0.461767410989897
40
0.492173388866642
40
0.522585030497714
40
0.552988778108454
40
0.576012053235814
40
0.599044268743719
40
0.622074403999003
40
0.645094841269953
40
0.66794150813711
40
0.690802785136562
40
0.713660326019416
40
0.736501894771888
40
0.755280310437212
40
0.774081556960472
40
0.792886053426308
40
0.811678847304186
40
0.830450165289004
40
0.84960015003047
40
0.868760710838946
40
0.887907989111228
40
0.902638294249915
40
0.917382333521818
40
0.932125054577958
40
0.946853560444239
40
0.964564755842495
40
0.98228950815261
40
1
40
1
40
1
40
1
41
1
10
13.8943375672974
20
-29.9139548464691
30
0
41
1
10
13.8919662211837
20
-29.9168179003219
30
0
41
1
10
13.8870662987631
20
-29.9225232299786
30
0
41
1
10
13.879254741881
20
-29.9310196000279
30
0
41
1
10
13.8709544949064
20
-29.9394483382001
30
0
41
1
10
13.8621471533534
20
-29.9478059143194
30
0
41
1
10
13.8528125877453
20
-29.9560879236861
30
0
41
1
10
13.8429221034727
20
-29.9642884285039
30
0
41
1
10
13.8324487900975
20
-29.9723985205302
30
0
41
1
10
13.8220179627181
20
-29.9799376105063
30
0
41
1
10
13.8117269221944
20
-29.9869190673514
30
0
41
1
10
13.8016659053685
20
-29.9933568232843
30
0
41
1
10
13.7911232937514
20
-29.9997097529961
30
0
41
1
10
13.7800781313117
20
-30.0059683611651
30
0
41
1
10
13.7686263023007
20
-30.0120613265955
30
0
41
1
10
13.7567618515202
20
-30.0179839523494
30
0
41
1
10
13.7444713793918
20
-30.0237291341407
30
0
41
1
10
13.7326434478207
20
-30.0288919541044
30
0
41
1
10
13.7214104344719
20
-30.0334960275748
30
0
41
1
10
13.7108972543835
20
-30.0375676284878
30
0
41
1
10
13.7000058816951
20
-30.0415424369993
30
0
41
1
10
13.6887522047643
20
-30.0454014396643
30
0
41
1
10
13.677123939322
20
-30.0491368780011
30
0
41
1
10
13.6651078596401
20
-30.052738685616
30
0
41
1
10
13.6526634650596
20
-30.0562028437606
30
0
41
1
10
13.6405459165922
20
-30.0593187369732
30
0
41
1
10
13.6288293050114
20
-30.0621045520516
30
0
41
1
10
13.6175868058565
20
-30.0645819625961
30
0
41
1
10
13.6060317186487
20
-30.0669278461451
30
0
41
1
10
13.5941735249146
20
-30.0691294083694
30
0
41
1
10
13.5819347802862
20
-30.0711886112742
30
0
41
1
10
13.5693096399774
20
-30.0730893997402
30
0
41
1
10
13.5563043108433
20
-30.0748160235289
30
0
41
1
10
13.5440414354291
20
-30.076225439612
30
0
41
1
10
13.5326077996493
20
-30.0773561910097
30
0
41
1
10
13.5220724070307
20
-30.0782524614357
30
0
41
1
10
13.5114165153731
20
-30.0790120284424
30
0
41
1
10
13.4999349265533
20
-30.0796711396809
30
0
41
1
10
13.4876221418699
20
-30.0801871512724
30
0
41
1
10
13.4744921049058
20
-30.0805183988876
30
0
41
1
10
13.465718101472
20
-30.0805922748451
30
0
41
1
10
13.4613248654052
20
-30.0805927603169
30
0
0
SPLINE
5
13E
100
AcDbEntity
8
1
62
256
6
ByLayer
370
18
48
1
60
0
100
AcDbSpline
70
4
71
3
72
48
73
44
40
0
40
0
40
0
40
0
40
0.0140128143133587
40
0.0280394502994656
40
0.0420665412409931
40
0.0560799765563438
40
0.0705350483870324
40
0.0850034476026797
40
0.099473088726879
40
0.113929855603986
40
0.131205787307909
40
0.148499078311807
40
0.165795147015752
40
0.183074870186979
40
0.200843133631409
40
0.218624156337261
40
0.236407562663537
40
0.254179078753854
40
0.275936508772461
40
0.297713202354274
40
0.319500998779469
40
0.341286416116948
40
0.363051169546238
40
0.390951010262012
40
0.41886676338278
40
0.446786515439388
40
0.474691812216917
40
0.502409979473138
40
0.53014007428497
40
0.557876840857085
40
0.585611979122633
40
0.613334378254306
40
0.647949905907417
40
0.68257513189502
40
0.717202398199002
40
0.751820708851354
40
0.788013879771386
40
0.824214123665313
40
0.86041562432108
40
0.896610509331331
40
0.931072760335298
40
0.965537354670739
40
1
40
1
40
1
40
1
41
1
10
10.5386751345948
20
-30.0805927603169
30
0
41
1
10
10.5352006380066
20
-30.0805924927353
30
0
41
1
10
10.5282562069677
20
-30.0805461240242
30
0
41
1
10
10.5178523437076
20
-30.080337974182
30
0
41
1
10
10.5074910761158
20
-30.0799941431606
30
0
41
1
10
10.4970851215792
20
-30.0795109720362
30
0
41
1
10
10.4866544001192
20
-30.0788847001444
30
0
41
1
10
10.4762159100675
20
-30.0781158846477
30
0
41
1
10
10.4658961678271
20
-30.0772161313848
30
0
41
1
10
10.4550518059814
20
-30.0761236031323
30
0
41
1
10
10.4437282243287
20
-30.0748127319809
30
0
41
1
10
10.4319766162427
20
-30.0732629357815
30
0
41
1
10
10.4204644161847
20
-30.0715601811773
30
0
41
1
10
10.4091000870332
20
-30.0696969166844
30
0
41
1
10
10.3978979330394
20
-30.0676771753873
30
0
41
1
10
10.3868651478761
20
-30.0655066337016
30
0
41
1
10
10.3761091432228
20
-30.0632138623709
30
0
41
1
10
10.3648489953377
20
-30.0606284132206
30
0
41
1
10
10.3531543572372
20
-30.0577285701159
30
0
41
1
10
10.3410976321326
20
-30.0544954887328
30
0
41
1
10
10.3294313762959
20
-30.0511300084973
30
0
41
1
10
10.318151648402
20
-30.0476456641104
30
0
41
1
10
10.3062235459448
20
-30.0437161086829
30
0
41
1
10
10.2937560810388
20
-30.039314417717
30
0
41
1
10
10.2808644439082
20
-30.034416333814
30
0
41
1
10
10.2685122929711
20
-30.0293851055085
30
0
41
1
10
10.2567018717986
20
-30.0242463248134
30
0
41
1
10
10.2453998772422
20
-30.0190121562742
30
0
41
1
10
10.234581161167
20
-30.0136909022312
30
0
41
1
10
10.224201931881
20
-30.0082788734101
30
0
41
1
10
10.2142455212755
20
-30.0027850138962
30
0
41
1
10
10.2039003932539
20
-29.9967550955533
30
0
41
1
10
10.1932636342321
20
-29.990172610997
30
0
41
1
10
10.182439193053
20
-29.9830218590651
30
0
41
1
10
10.172157227508
20
-29.9757795888251
30
0
41
1
10
10.1622432610928
20
-29.9683428814287
30
0
41
1
10
10.1526960967803
20
-29.9607138393804
30
0
41
1
10
10.1435211975683
20
-29.9528934888123
30
0
41
1
10
10.1348381992334
20
-29.9450000915352
30
0
41
1
10
10.1267569979263
20
-29.9371661916039
30
0
41
1
10
10.1192317524795
20
-29.9293997744003
30
0
41
1
10
10.1122266822204
20
-29.9217068139283
30
0
41
1
10
10.1078078803622
20
-29.9165445359689
30
0
41
1
10
10.1056624327025
20
-29.9139548464691
30
0
0
SPLINE
5
13F
100
AcDbEntity
8
SK1
62
256
6
ByLayer
370
18
48
1
60
0
100
AcDbSpline
70
4
71
2
72
6
73
3
40
0
40
0
40
0
40
1
40
1
40
1
41
1
10
-38
20
20.2923486829469
30
0
41
1
10
-37.2499999999752
20
20.7253586650617
30
0
41
1
10
-36.5
20
21.1583686470845
30
0
0
SPLINE
5
140
100
AcDbEntity
8
SK1
62
256
6
ByLayer
370
18
48
1
60
0
100
AcDbSpline
70
4
71
2
72
6
73
3
40
0
40
0
40
0
40
1
40
1
40
1
41
1
10
-36.5
20
-21.1583686623384
30
0
41
1
10
-37.2499999999751
20
-20.7253586800544
30
0
41
1
10
-38
20
-20.2923486976769
30
0
0
SPLINE
5
141
100
AcDbEntity
8
SK1
62
256
6
ByLayer
370
18
48
1
60
0
100
AcDbSpline
70
4
71
2
72
6
73
3
40
0
40
0
40
0
40
1
40
1
40
1
41
1
10
-2.2
20
-22.0200970491712
30
0
41
1
10
-19.3499999999988
20
-21.5892320920791
30
0
41
1
10
-36.5
20
-21.158367134293
30
0
0
SPLINE
5
142
100
AcDbEntity
8
SK1
62
256
6
ByLayer
370
18
48
1
60
0
100
AcDbSpline
70
4
71
2
72
6
73
3
40
0
40
0
40
0
40
1
40
1
40
1
41
1
10
-36.5
20
21.1583671371123
30
0
41
1
10
-19.3499999999988
20
21.5892320948675
30
0
41
1
10
-2.2
20
22.0200970519272
30
0
0
LINE
5
72
100
AcDbEntity
8
1
62
256
6
ByLayer
370
18
48
1
60
0
100
AcDbLine
10
0.3
20
31.5
30
0
11
22
21
31.5
31
0
39
0
210
0
220
0
230
1
0
LINE
5
74
100
AcDbEntity
8
1
62
256
6
ByLayer
370
18
48
1
60
0
100
AcDbLine
10
22
20
-31.5
30
0
11
0.3
21
-31.5
31
0
39
0
210
0
220
0
230
1
0
LINE
5
75
100
AcDbEntity
8
1
62
256
6
ByLayer
370
18
48
1
60
0
100
AcDbLine
10
33.373301
20
20.121372
30
0
11
35.752777
21
16
31
0
39
0
210
0
220
0
230
1
0
LINE
5
76
100
AcDbEntity
8
1
62
256
6
ByLayer
370
18
48
1
60
0
100
AcDbLine
10
33.373301
20
20.121372
30
0
11
32
21
22.5
31
0
39
0
210
0
220
0
230
1
0
LINE
5
77
100
AcDbEntity
8
1
62
256
6
ByLayer
370
18
48
1
60
0
100
AcDbLine
10
75
20
-15.8245
30
0
11
75.995892
21
-16.820392
31
0
39
0
210
0
220
0
230
1
0
LINE
5
78
100
AcDbEntity
8
1
62
256
6
ByLayer
370
18
48
1
60
0
100
AcDbLine
10
75
20
-15.82451
30
0
11
75
21
-15.5
31
0
39
0
210
0
220
0
230
1
0
LINE
5
79
100
AcDbEntity
8
1
62
256
6
ByLayer
370
18
48
1
60
0
100
AcDbLine
10
89.142994
20
-16.452839
30
0
11
90.857006
21
-16.452839
31
0
39
0
210
0
220
0
230
1
0
LINE
5
7A
100
AcDbEntity
8
1
62
256
6
ByLayer
370
18
48
1
60
0
100
AcDbLine
10
93.7
20
-12.051971
30
0
11
93.7
21
5.041631
31
0
39
0
210
0
220
0
230
1
0
LINE
5
7B
100
AcDbEntity
8
1
62
256
6
ByLayer
370
18
48
1
60
0
100
AcDbLine
10
93.7
20
5.041631
30
0
11
95.115654
21
6.457285
31
0
39
0
210
0
220
0
230
1
0
LINE
5
7C
100
AcDbEntity
8
1
62
256
6
ByLayer
370
18
48
1
60
0
100
AcDbLine
10
42.194347
20
5.041631
30
0
11
93.7
21
5.041631
31
0
39
0
210
0
220
0
230
1
0
LINE
5
7D
100
AcDbEntity
8
1
62
256
6
ByLayer
370
18
48
1
60
0
100
AcDbLine
10
31.331371
20
22.5
30
0
11
32
21
22.5
31
0
39
0
210
0
220
0
230
1
0
LINE
5
7E
100
AcDbEntity
8
1
62
256
6
ByLayer
370
18
48
1
60
0
100
AcDbLine
10
22
20
31.5
30
0
11
30.765685
21
22.734315
31
0
39
0
210
0
220
0
230
1
0
LINE
5
7F
100
AcDbEntity
8
1
62
256
6
ByLayer
370
18
48
1
60
0
100
AcDbLine
10
22
20
31.5
30
0
11
22
21
-31.5
31
0
39
0
210
0
220
0
230
1
0
LINE
5
80
100
AcDbEntity
8
1
62
256
6
ByLayer
370
18
48
1
60
0
100
AcDbLine
10
30.765685
20
-22.734315
30
0
11
22
21
-31.5
31
0
39
0
210
0
220
0
230
1
0
LINE
5
81
100
AcDbEntity
8
1
62
256
6
ByLayer
370
18
48
1
60
0
100
AcDbLine
10
32
20
-22.5
30
0
11
31.331371
21
-22.5
31
0
39
0
210
0
220
0
230
1
0
LINE
5
82
100
AcDbEntity
8
1
62
256
6
ByLayer
370
18
48
1
60
0
100
AcDbLine
10
41.803848
20
-16.839746
30
0
11
32
21
-22.5
31
0
39
0
210
0
220
0
230
1
0
LINE
5
83
100
AcDbEntity
8
1
62
256
6
ByLayer
370
18
48
1
60
0
100
AcDbLine
10
40.74167
20
-12.051971
30
0
11
93.7
21
-12.051971
31
0
39
0
210
0
220
0
230
1
0
LINE
5
84
100
AcDbEntity
8
1
62
256
6
ByLayer
370
18
48
1
60
0
100
AcDbLine
10
34.438482
20
7.834
30
0
11
35.74167
21
7.039947
31
0
39
0
210
0
220
0
230
1
0
LINE
5
85
100
AcDbEntity
8
1
62
256
6
ByLayer
370
18
48
1
60
0
100
AcDbLine
10
44.413031
20
11
30
0
11
87.247441
21
11
31
0
39
0
210
0
220
0
230
1
0
LINE
5
86
100
AcDbEntity
8
1
62
256
6
ByLayer
370
18
48
1
60
0
100
AcDbLine
10
87.247441
20
11
30
0
11
95.115654
21
6.457285
31
0
39
0
210
0
220
0
230
1
0
LINE
5
87
100
AcDbEntity
8
1
62
256
6
ByLayer
370
18
48
1
60
0
100
AcDbLine
10
106.3
20
0
30
0
11
95.115654
21
6.457285
31
0
39
0
210
0
220
0
230
1
0
LINE
5
88
100
AcDbEntity
8
1
62
256
6
ByLayer
370
18
48
1
60
0
100
AcDbLine
10
106.3
20
-15.5
30
0
11
106.3
21
0
31
0
39
0
210
0
220
0
230
1
0
LINE
5
89
100
AcDbEntity
8
1
62
256
6
ByLayer
370
18
48
1
60
0
100
AcDbLine
10
76.000019
20
-16.824519
30
0
11
75.995892
21
-16.820392
31
0
39
0
210
0
220
0
230
1
0
LINE
5
8A
100
AcDbEntity
8
SK1
62
256
6
ByLayer
370
18
48
1
60
0
100
AcDbLine
10
77.971825
20
-26
30
0
11
77.971825
21
-21.5
31
0
39
0
210
0
220
0
230
1
0
LINE
5
8C
100
AcDbEntity
8
SK1
62
256
6
ByLayer
370
18
48
1
60
0
100
AcDbLine
10
77.971825
20
-21.5
30
0
11
86.471825
21
-21.5
31
0
39
0
210
0
220
0
230
1
0
LINE
5
8D
100
AcDbEntity
8
SK1
62
256
6
ByLayer
370
18
48
1
60
0
100
AcDbLine
10
86.471825
20
-21.5
30
0
11
86.471825
21
-26
31
0
39
0
210
0
220
0
230
1
0
LINE
5
8E
100
AcDbEntity
8
SK1
62
256
6
ByLayer
370
18
48
1
60
0
100
AcDbLine
10
78.471825
20
-26.5
30
0
11
85.971825
21
-26.5
31
0
39
0
210
0
220
0
230
1
0
LINE
5
8F
100
AcDbEntity
8
SK1
62
256
6
ByLayer
370
18
48
1
60
0
100
AcDbLine
10
84.721825
20
-16.824519
30
0
11
84.721825
21
-21.3
31
0
39
0
210
0
220
0
230
1
0
LINE
5
90
100
AcDbEntity
8
SK1
62
256
6
ByLayer
370
18
48
1
60
0
100
AcDbLine
10
93.528175
20
-26
30
0
11
93.528175
21
-21.5
31
0
39
0
210
0
220
0
230
1
0
LINE
5
91
100
AcDbEntity
8
SK1
62
256
6
ByLayer
370
18
48
1
60
0
100
AcDbLine
10
93.528175
20
-21.5
30
0
11
102.028175
21
-21.5
31
0
39
0
210
0
220
0
230
1
0
LINE
5
92
100
AcDbEntity
8
SK1
62
256
6
ByLayer
370
18
48
1
60
0
100
AcDbLine
10
102.028175
20
-21.5
30
0
11
102.028175
21
-26
31
0
39
0
210
0
220
0
230
1
0
LINE
5
93
100
AcDbEntity
8
SK1
62
256
6
ByLayer
370
18
48
1
60
0
100
AcDbLine
10
95.278175
20
-21.3
30
0
11
95.278175
21
-16.824519
31
0
39
0
210
0
220
0
230
1
0
LINE
5
94
100
AcDbEntity
8
1
62
256
6
ByLayer
370
18
48
1
60
0
100
AcDbLine
10
106
20
-15.5
30
0
11
106
21
-15.824519
31
0
39
0
210
0
220
0
230
1
0
LINE
5
95
100
AcDbEntity
8
1
62
256
6
ByLayer
370
18
48
1
60
0
100
AcDbLine
10
106
20
-15.824519
30
0
11
105.804024
21
-16.020495
31
0
39
0
210
0
220
0
230
1
0
LINE
5
96
100
AcDbEntity
8
1
62
256
6
ByLayer
370
18
48
1
60
0
100
AcDbLine
10
10.538675
20
30.080593
30
0
11
13.461325
21
30.080593
31
0
39
0
210
0
220
0
230
1
0
LINE
5
97
100
AcDbEntity
8
1
62
256
6
ByLayer
370
18
48
1
60
0
100
AcDbLine
10
13.461325
20
9.349221
30
0
11
10.538675
21
9.349221
31
0
39
0
210
0
220
0
230
1
0
LINE
5
98
100
AcDbEntity
8
1
62
256
6
ByLayer
370
18
48
1
60
0
100
AcDbLine
10
10.538675
20
-9.349221
30
0
11
13.461325
21
-9.349221
31
0
39
0
210
0
220
0
230
1
0
LINE
5
99
100
AcDbEntity
8
1
62
256
6
ByLayer
370
18
48
1
60
0
100
AcDbLine
10
13.461325
20
-30.080593
30
0
11
10.538675
21
-30.080593
31
0
39
0
210
0
220
0
230
1
0
LINE
5
9A
100
AcDbEntity
8
1
62
256
6
ByLayer
370
18
48
1
60
0
100
AcDbLine
10
0.3
20
-31.5
30
0
11
0
21
-31.2
31
0
39
0
210
0
220
0
230
1
0
LINE
5
9B
100
AcDbEntity
8
1
62
256
6
ByLayer
370
18
48
1
60
0
100
AcDbLine
10
0
20
31.2
30
0
11
0
21
-31.2
31
0
39
0
210
0
220
0
230
1
0
LINE
5
9C
100
AcDbEntity
8
1
62
256
6
ByLayer
370
18
48
1
60
0
100
AcDbLine
10
0
20
31.2
30
0
11
0.3
21
31.5
31
0
39
0
210
0
220
0
230
1
0
LINE
5
9D
100
AcDbEntity
8
SK1
62
256
6
ByLayer
370
18
48
1
60
0
100
AcDbLine
10
-38
20
-20.292349
30
0
11
-38
21
20.292349
31
0
39
0
210
0
220
0
230
1
0
LINE
5
9E
100
AcDbEntity
8
SK1
62
256
6
ByLayer
370
18
48
1
60
0
100
AcDbLine
10
-36.5
20
-21.158367
30
0
11
-36.5
21
21.158367
31
0
39
0
210
0
220
0
230
1
0
LINE
5
9F
100
AcDbEntity
8
SK1
62
256
6
ByLayer
370
18
48
1
60
0
100
AcDbLine
10
-2.2
20
-22.020097
30
0
11
-2.2
21
22.020097
31
0
39
0
210
0
220
0
230
1
0
LINE
5
A0
100
AcDbEntity
8
SK1
62
256
6
ByLayer
370
18
48
1
60
0
100
AcDbLine
10
-2.2
20
-21.820035
30
0
11
0
21
-21.820035
31
0
39
0
210
0
220
0
230
1
0
LINE
5
A1
100
AcDbEntity
8
SK1
62
256
6
ByLayer
370
18
48
1
60
0
100
AcDbLine
10
-2.2
20
21.820035
30
0
11
0
21
21.820035
31
0
39
0
210
0
220
0
230
1
0
LINE
5
A2
100
AcDbEntity
8
1
62
256
6
ByLayer
370
18
48
1
60
0
100
AcDbLine
10
104.985885
20
-16.824519
30
0
11
76.000019
21
-16.824519
31
0
39
0
210
0
220
0
230
1
0
LINE
5
A3
100
AcDbEntity
8
SK1
62
256
6
ByLayer
370
18
48
1
60
0
100
AcDbLine
10
100.278175
20
-16.824519
30
0
11
100.278175
21
-21.3
31
0
39
0
210
0
220
0
230
1
0
LINE
5
A4
100
AcDbEntity
8
SK1
62
256
6
ByLayer
370
18
48
1
60
0
100
AcDbLine
10
79.721825
20
-21.3
30
0
11
79.721825
21
-16.824519
31
0
39
0
210
0
220
0
230
1
0
LINE
5
A5
100
AcDbEntity
8
1
62
256
6
ByLayer
370
18
48
1
60
0
100
AcDbLine
10
75
20
-15.824519
30
0
11
106
21
-15.824519
31
0
39
0
210
0
220
0
230
1
0
LINE
5
A6
100
AcDbEntity
8
1
62
256
6
ByLayer
370
18
48
1
60
0
100
AcDbLine
10
46.803848
20
-15.5
30
0
11
106.3
21
-15.5
31
0
39
0
210
0
220
0
230
1
0
LINE
5
A7
100
AcDbEntity
8
SK1
62
256
6
ByLayer
370
18
48
1
60
0
100
AcDbLine
10
94.028175
20
-26.5
30
0
11
101.528175
21
-26.5
31
0
39
0
210
0
220
0
230
1
0
LINE
5
A8
100
AcDbEntity
8
1
62
256
6
ByLayer
370
13
48
1
60
0
100
AcDbLine
10
10.25
20
-29.849221
30
0
11
10.25
21
-9.849221
31
0
39
0
210
0
220
0
230
1
0
LINE
5
A9
100
AcDbEntity
8
1
62
256
6
ByLayer
370
13
48
1
60
0
100
AcDbLine
10
13.75
20
-29.849221
30
0
11
13.75
21
-9.849221
31
0
39
0
210
0
220
0
230
1
0
LINE
5
AA
100
AcDbEntity
8
1
62
256
6
ByLayer
370
13
48
1
60
0
100
AcDbLine
10
10.25
20
9.849221
30
0
11
10.25
21
29.849221
31
0
39
0
210
0
220
0
230
1
0
LINE
5
AB
100
AcDbEntity
8
1
62
256
6
ByLayer
370
13
48
1
60
0
100
AcDbLine
10
13.75
20
9.849221
30
0
11
13.75
21
29.849221
31
0
39
0
210
0
220
0
230
1
0
LINE
5
AC
100
AcDbEntity
8
1
62
256
6
ByLayer
370
13
48
1
60
0
100
AcDbLine
10
31
20
-22
30
0
11
31
21
22
31
0
39
0
210
0
220
0
230
1
0
LINE
5
AD
100
AcDbEntity
8
80
62
256
6
ByLayer
370
13
48
1
60
0
100
AcDbLine
10
0
20
0
30
0
11
-15
21
0
31
0
39
0
210
0
220
0
230
1
0
LINE
5
AE
100
AcDbEntity
8
81
62
256
6
ByLayer
370
13
48
1
60
0
100
AcDbLine
10
90
20
-16.5
30
0
11
90
21
-21.5
31
0
39
0
210
0
220
0
230
1
0
LINE
5
AF
100
AcDbEntity
8
SK4
62
256
6
ByLayer
370
13
48
0.05
60
0
100
AcDbLine
10
-40
20
0
30
0
11
108
21
0
31
0
39
0
210
0
220
0
230
1
0
LINE
5
B1
100
AcDbEntity
8
1
62
256
6
ByLayer
370
13
48
1
60
0
100
AcDbLine
10
38.062178
20
-11.051971
30
0
11
38.062178
21
5.448029
31
0
39
0
210
0
220
0
230
1
0
LINE
5
B2
100
AcDbEntity
8
1
62
256
6
ByLayer
370
13
48
1
60
0
100
AcDbLine
10
39.021276
20
6.041631
30
0
11
39.021276
21
12.041631
31
0
39
0
210
0
220
0
230
1
0
LINE
5
B3
100
AcDbEntity
8
4
62
256
6
ByLayer
370
13
48
0.05
60
0
100
AcDbLine
10
0
20
0
30
0
11
90
21
0
31
0
39
0
210
0
220
0
230
1
0
MTEXT
5
143
100
AcDbEntity
8
SK6
62
256
6
ByLayer
370
18
48
1
60
0
100
AcDbMText
10
45.960403
20
30.758238
30
0
210
0
220
0
230
1
1
\W0.7150;C6-SL-32-90-LF
40
3.5
41
0
44
1.084337
50
0
71
7
72
5
7
iso_b_vert
0
DIMENSION
5
150
100
AcDbEntity
8
SK2
62
256
6
ByLayer
370
13
48
1
60
0
100
AcDbDimension
2
DimnDraft3D1
10
-48.923086
20
31.5
30
0
11
-48.923086
21
0
31
0
70
32
71
5
72
1
41
1
210
0
220
0
230
1
3
Standard
100
AcDbAlignedDimension
13
-0.7
23
-31.5
33
0
14
-0.7
24
31.5
34
0
50
90
100
AcDbRotatedDimension
1001
ACAD
1000
DSTYLE
1002
{
1070
    74
1070
     0
1070
   279
1070
     0
1070
   172
1070
     1
1070
   173
1070
     1
1070
   340
1005
144
1070
   271
1070
     3
1070
   272
1070
     3
1070
    77
1070
     1
1070
    73
1070
     0
1070
   171
1070
     3
1070
   274
1070
     4
1070
   177
1070
     7
1070
   176
1070
     7
1070
   178
1070
     7
1070
    78
1070
     8
1070
    48
1040
-0.005
1070
    41
1041
3.5
1070
   147
1041
1.2
1070
    42
1041
1.0
1070
    44
1041
1.0
1070
   140
1041
3.0
1070
   343
1005
0
1070
   344
1005
0
1002
}
0
DIMENSION
5
15A
100
AcDbEntity
8
SK2
62
256
6
ByLayer
370
13
48
1
60
0
100
AcDbDimension
2
DimnDraft3D2
10
74
20
-41.776459
30
0
11
90
21
-41.776459
31
0
70
32
71
5
72
1
41
1
210
0
220
0
230
1
3
Standard
100
AcDbAlignedDimension
13
106
23
-16.824519
33
0
14
74
24
-16.5
34
0
50
0
100
AcDbRotatedDimension
1001
ACAD
1000
DSTYLE
1002
{
1070
   279
1070
     0
1070
   172
1070
     1
1070
   173
1070
     1
1070
   340
1005
144
1070
   271
1070
     3
1070
   272
1070
     3
1070
    77
1070
     1
1070
    73
1070
     0
1070
   171
1070
     3
1070
   274
1070
     4
1070
   177
1070
     7
1070
   176
1070
     7
1070
   178
1070
     7
1070
    78
1070
     8
1070
    48
1040
-0.005
1070
    41
1041
3.5
1070
   147
1041
1.2
1070
    42
1041
1.0
1070
    44
1041
1.0
1070
   140
1041
3.0
1070
   343
1005
0
1070
   344
1005
0
1002
}
0
DIMENSION
5
164
100
AcDbEntity
8
SK2
62
256
6
ByLayer
370
13
48
1
60
0
100
AcDbDimension
2
DimnDraft3D3
10
22
20
-42.394662
30
0
11
11
21
-42.394662
31
0
70
32
71
5
72
1
41
1
210
0
220
0
230
1
3
Standard
100
AcDbAlignedDimension
13
0
23
-32.2
33
0
14
22
24
-32.5
34
0
50
0
100
AcDbRotatedDimension
1001
ACAD
1000
DSTYLE
1002
{
1070
   279
1070
     0
1070
   172
1070
     1
1070
   173
1070
     1
1070
   340
1005
144
1070
   271
1070
     3
1070
   272
1070
     3
1070
    77
1070
     1
1070
    73
1070
     0
1070
   171
1070
     3
1070
   274
1070
     4
1070
   177
1070
     7
1070
   176
1070
     7
1070
   178
1070
     7
1070
    78
1070
     8
1070
    48
1040
-0.005
1070
    41
1041
3.5
1070
   147
1041
1.2
1070
    42
1041
1.0
1070
    44
1041
1.0
1070
   140
1041
3.0
1070
   343
1005
0
1070
   344
1005
0
1002
}
0
DIMENSION
5
16F
100
AcDbEntity
8
2
62
256
6
ByLayer
370
13
48
1
60
0
100
AcDbDimension
2
DimnDraft3D4
10
90
20
-56.918899
30
0
11
45
21
-56.918899
31
0
70
32
71
5
72
1
41
1
210
0
220
0
230
1
3
Standard
100
AcDbAlignedDimension
13
0
23
-32.2
33
0
14
90
24
-22.5
34
0
50
0
100
AcDbRotatedDimension
1001
ACAD
1000
DSTYLE
1002
{
1070
   279
1070
     0
1070
   172
1070
     1
1070
   173
1070
     1
1070
   340
1005
144
1070
   271
1070
     3
1070
   272
1070
     3
1070
    77
1070
     1
1070
    73
1070
     0
1070
   171
1070
     3
1070
   274
1070
     4
1070
   177
1070
     7
1070
   176
1070
     7
1070
   178
1070
     7
1070
    78
1070
     8
1070
    48
1040
-0.005
1070
    41
1041
3.5
1070
   147
1041
1.2
1070
    42
1041
1.0
1070
    44
1041
1.0
1070
   140
1041
3.0
1070
   343
1005
0
1070
   344
1005
0
1002
}
0
DIMENSION
5
179
100
AcDbEntity
8
SK2
62
256
6
ByLayer
370
13
48
1
60
0
100
AcDbDimension
2
DimnDraft3D5
10
119.007423
20
-16.5
30
0
11
119.007423
21
-8.25
31
0
70
32
71
5
72
1
41
1
210
0
220
0
230
1
3
Standard
100
AcDbAlignedDimension
13
109
23
0
33
0
14
91
24
-16.5
34
0
50
90
100
AcDbRotatedDimension
1001
ACAD
1000
DSTYLE
1002
{
1070
    74
1070
     0
1070
   279
1070
     0
1070
   172
1070
     1
1070
   173
1070
     1
1070
   340
1005
144
1070
   271
1070
     3
1070
   272
1070
     3
1070
    77
1070
     1
1070
    73
1070
     0
1070
   171
1070
     3
1070
   274
1070
     4
1070
   177
1070
     7
1070
   176
1070
     7
1070
   178
1070
     7
1070
    78
1070
     8
1070
    48
1040
-0.005
1070
    41
1041
3.5
1070
   147
1041
1.2
1070
    42
1041
1.0
1070
    44
1041
1.0
1070
   140
1041
3.0
1070
   343
1005
0
1070
   344
1005
0
1002
}
0
ENDSEC
0
SECTION
2
OBJECTS
0
DICTIONARY
5
1e4
330
0
100
AcDbDictionary
280
0
281
1
3
ACAD_GROUP
350
1e5
3
ACAD_MLINESTYLE
350
1e6
0
DICTIONARY
5
1e5
330
0
100
AcDbDictionary
280
0
281
1
0
DICTIONARY
5
1e6
330
0
100
AcDbDictionary
280
0
281
1
3
Standard
350
18
0
MLINESTYLE
5
18
330
1e6
100
AcDbMlineStyle
2
Standard
70
0
3

62
256
51
90
52
90
71
2
49
-0.5
62
256
6
ByLayer
49
0.5
62
256
6
ByLayer
0
RASTERVARIABLES
5
1d2
330

100
AcDbRasterVariables
90
0
70
1
71
1
72
1
0
ENDSEC
0
EOF
