0
SECTION
2
HEADER
9
$ACADVER
1
AC1015
9
$DWGCODEPAGE
3
ANSI_1252
9
$HANDSEED
5
1e4
9
$ANGBASE
50
0
9
$ANGDIR
70
0
9
$ATTMODE
70
1
9
$AUNITS
70
0
9
$AUPREC
70
0
9
$CECOLOR
62
256
9
$CELTSCALE
40
1
9
$CELTYPE
6
ByLayer
9
$CELWEIGHT
370
18
9
$CLAYER
8
0
9
$CMLJUST
70
0
9
$CMLSCALE
40
1
9
$CMLSTYLE
2
Standard
9
$DIMSTYLE
2
Standard
9
$TEXTSIZE
40
0.2
9
$TEXTSTYLE
7
Standard
9
$LUNITS
70
2
9
$LUPREC
70
4
9
$EXTNAMES
290
1
9
$INSUNITS
70
4
9
$LTSCALE
40
1
9
$LWDISPLAY
290
1
9
$PDMODE
70
0
9
$PDSIZE
40
0
9
$PLINEGEN
70
0
0
ENDSEC
0
SECTION
2
CLASSES
0
CLASS
1
RASTERVARIABLES
2
AcDbRasterVariables
3
ISM
90
0
280
0
281
0
0
ENDSEC
0
SECTION
2
TABLES
0
TABLE
2
VPORT
5
1da
100
AcDbSymbolTable
0
VPORT
5
1
100
AcDbSymbolTableRecord
100
AcDbViewportTableRecord
2
*Active
70
0
10
0
20
0
11
1
21
1
12
-1
22
1
13
0
23
0
14
0.5
24
0.5
15
10
25
10
16
0
26
0
36
1
17
0
27
0
37
0
0
ENDTAB
0
TABLE
2
LTYPE
5
1db
100
AcDbSymbolTable
0
LTYPE
5
14
100
AcDbSymbolTableRecord
100
AcDbLinetypeTableRecord
70
0
2
ByBlock
3

72
65
73
0
40
0
0
LTYPE
5
15
100
AcDbSymbolTableRecord
100
AcDbLinetypeTableRecord
70
0
2
ByLayer
3

72
65
73
0
40
0
0
LTYPE
5
16
100
AcDbSymbolTableRecord
100
AcDbLinetypeTableRecord
70
0
2
CONTINUOUS
3
Solid line
72
65
73
0
40
0
0
LTYPE
5
6A
100
AcDbSymbolTableRecord
100
AcDbLinetypeTableRecord
70
0
2
CENTER
3
____ _ ____ _ ____ _ ____
72
65
73
4
40
47.5
49
22
74
0
49
-8.5
74
0
49
8.5
74
0
49
-8.5
74
0
0
LTYPE
5
6B
100
AcDbSymbolTableRecord
100
AcDbLinetypeTableRecord
70
0
2
DASHED
3
__ __ __ __ __ __ __ __ __
72
65
73
2
40
25.72
49
12.86
74
0
49
-12.86
74
0
0
ENDTAB
0
TABLE
2
LAYER
5
1dc
100
AcDbSymbolTable
0
LAYER
5
10
100
AcDbSymbolTableRecord
100
AcDbLayerTableRecord
2
0
70
0
62
7
6
CONTINUOUS
290
1
370
-3
390
0
0
LAYER
5
6D
100
AcDbSymbolTableRecord
100
AcDbLayerTableRecord
2
81
70
0
62
-3
6
CONTINUOUS
290
1
370
-3
390
0
0
LAYER
5
6F
100
AcDbSymbolTableRecord
100
AcDbLayerTableRecord
2
80
70
0
62
-6
6
CONTINUOUS
290
1
370
-3
390
0
0
LAYER
5
71
100
AcDbSymbolTableRecord
100
AcDbLayerTableRecord
2
1
70
0
62
4
6
CONTINUOUS
290
1
370
-3
390
0
0
LAYER
5
121
100
AcDbSymbolTableRecord
100
AcDbLayerTableRecord
2
2
70
0
62
7
6
CONTINUOUS
290
1
370
-3
390
0
0
LAYER
5
1c7
100
AcDbSymbolTableRecord
100
AcDbLayerTableRecord
2
SK1
70
0
62
4
6
CONTINUOUS
290
1
370
-3
390
0
0
LAYER
5
1c8
100
AcDbSymbolTableRecord
100
AcDbLayerTableRecord
2
SK6
70
0
62
5
6
CONTINUOUS
290
1
370
-3
390
0
0
LAYER
5
1c9
100
AcDbSymbolTableRecord
100
AcDbLayerTableRecord
2
SK2
70
0
62
7
6
CONTINUOUS
290
1
370
-3
390
0
0
ENDTAB
0
TABLE
2
STYLE
5
1dd
100
AcDbSymbolTable
0
STYLE
5
11
100
AcDbSymbolTableRecord
100
AcDbTextStyleTableRecord
2
Standard
3
txt
70
0
71
0
40
0
41
1
42
0
50
0
0
STYLE
5
11C
100
AcDbSymbolTableRecord
100
AcDbTextStyleTableRecord
2
iso_b_vert
3
simplex.shx
70
0
71
0
40
0
41
1
42
0
50
0
0
STYLE
5
11D
100
AcDbSymbolTableRecord
100
AcDbTextStyleTableRecord
2
DWGDirectTextStyle
3
simplex
70
0
71
0
40
0
41
1
42
0
50
0
0
ENDTAB
0
TABLE
2
DIMSTYLE
5
1de
100
AcDbSymbolTable
100
AcDbDimStyleTable
0
DIMSTYLE
105
27
100
AcDbSymbolTableRecord
100
AcDbDimStyleTableRecord
2
Standard
70
0
3
<>
41
0.18
42
0.0625
44
0.18
140
0.18
147
0.09
73
0
74
0
77
1
271
2
275
0
278
52
280
0
340
11
0
ENDTAB
0
TABLE
2
VIEW
5
1df
100
AcDbSymbolTable
0
ENDTAB
0
TABLE
2
UCS
5
1e0
100
AcDbSymbolTable
0
ENDTAB
0
TABLE
2
APPID
5
1e1
100
AcDbSymbolTable
0
APPID
5
12
100
AcDbSymbolTableRecord
100
AcDbRegAppTableRecord
2
ACAD
70
0
0
ENDTAB
0
TABLE
2
BLOCK_RECORD
5
1e2
100
AcDbSymbolTable
0
BLOCK_RECORD
5
1F
100
AcDbSymbolTableRecord
100
AcDbBlockTableRecord
2
*Model_Space
340
0
70
0
0
BLOCK_RECORD
5
1B
100
AcDbSymbolTableRecord
100
AcDbBlockTableRecord
2
*Paper_Space
340
0
70
0
0
BLOCK_RECORD
5
23
100
AcDbSymbolTableRecord
100
AcDbBlockTableRecord
2
*Paper_Space0
340
0
70
0
0
BLOCK_RECORD
5
11F
100
AcDbSymbolTableRecord
100
AcDbBlockTableRecord
2
DimnDraft3D1
340
0
70
0
0
BLOCK_RECORD
5
12E
100
AcDbSymbolTableRecord
100
AcDbBlockTableRecord
2
_CLOSED
340
0
70
0
0
BLOCK_RECORD
5
135
100
AcDbSymbolTableRecord
100
AcDbBlockTableRecord
2
DimnDraft3D2
340
0
70
0
0
BLOCK_RECORD
5
144
100
AcDbSymbolTableRecord
100
AcDbBlockTableRecord
2
DimnDraft3D3
340
0
70
0
0
BLOCK_RECORD
5
152
100
AcDbSymbolTableRecord
100
AcDbBlockTableRecord
2
DimnDraft3D4
340
0
70
0
0
BLOCK_RECORD
5
160
100
AcDbSymbolTableRecord
100
AcDbBlockTableRecord
2
DimnDraft3D5
340
0
70
0
0
ENDTAB
0
ENDSEC
0
SECTION
2
BLOCKS
0
BLOCK
5
20
100
AcDbEntity
8
0
100
AcDbBlockBegin
2
*Model_Space
70
0
10
0
20
0
30
0
3
*Model_Space
0
ENDBLK
5
21
100
AcDbEntity
8
0
100
AcDbBlockEnd
0
BLOCK
5
1C
100
AcDbEntity
8
0
100
AcDbBlockBegin
2
*Paper_Space
70
0
10
0
20
0
30
0
3
*Paper_Space
0
ENDBLK
5
1D
100
AcDbEntity
8
0
100
AcDbBlockEnd
0
BLOCK
5
24
100
AcDbEntity
8
0
100
AcDbBlockBegin
2
*Paper_Space0
70
0
10
0
20
0
30
0
3
*Paper_Space0
0
ENDBLK
5
25
100
AcDbEntity
8
0
100
AcDbBlockEnd
0
BLOCK
5
12B
100
AcDbEntity
8
0
100
AcDbBlockBegin
2
DimnDraft3D1
70
0
10
0
20
0
30
0
3
DimnDraft3D1
0
MTEXT
5
120
100
AcDbEntity
8
2
62
256
6
ByLayer
370
18
48
1
60
0
100
AcDbMText
10
84.225
20
21.1
30
0
210
0
220
0
230
1
1
\W0.7361;45
40
3.5
41
0
44
1.084337
50
90
71
7
72
5
7
iso_b_vert
0
LINE
5
122
100
AcDbEntity
8
2
62
256
6
ByLayer
370
13
48
1
60
0
100
AcDbLine
10
47
20
0
30
0
11
87.1
21
0
31
0
39
0
210
0
220
0
230
1
0
LINE
5
123
100
AcDbEntity
8
2
62
256
6
ByLayer
370
13
48
1
60
0
100
AcDbLine
10
62
20
45
30
0
11
87.1
21
45
31
0
39
0
210
0
220
0
230
1
0
LINE
5
124
100
AcDbEntity
8
2
62
256
6
ByLayer
370
13
48
1
60
0
100
AcDbLine
10
85.1
20
0
30
0
11
85.1
21
45
31
0
39
0
210
0
220
0
230
1
0
LINE
5
125
100
AcDbEntity
8
2
62
256
6
ByLayer
370
13
48
1
60
0
100
AcDbLine
10
85.1
20
0
30
0
11
84.682003
21
3.174998
31
0
39
0
210
0
220
0
230
1
0
LINE
5
126
100
AcDbEntity
8
2
62
256
6
ByLayer
370
13
48
1
60
0
100
AcDbLine
10
85.1
20
0
30
0
11
85.517997
21
3.175002
31
0
39
0
210
0
220
0
230
1
0
LINE
5
127
100
AcDbEntity
8
2
62
256
6
ByLayer
370
13
48
1
60
0
100
AcDbLine
10
84.682003
20
3.174998
30
0
11
85.517997
21
3.175002
31
0
39
0
210
0
220
0
230
1
0
LINE
5
128
100
AcDbEntity
8
2
62
256
6
ByLayer
370
13
48
1
60
0
100
AcDbLine
10
85.1
20
45
30
0
11
85.517997
21
41.825002
31
0
39
0
210
0
220
0
230
1
0
LINE
5
129
100
AcDbEntity
8
2
62
256
6
ByLayer
370
13
48
1
60
0
100
AcDbLine
10
85.1
20
45
30
0
11
84.682003
21
41.824998
31
0
39
0
210
0
220
0
230
1
0
LINE
5
12A
100
AcDbEntity
8
2
62
256
6
ByLayer
370
13
48
1
60
0
100
AcDbLine
10
85.517997
20
41.825002
30
0
11
84.682003
21
41.824998
31
0
39
0
210
0
220
0
230
1
0
ENDBLK
5
12C
100
AcDbEntity
8
0
100
AcDbBlockEnd
0
BLOCK
5
12F
100
AcDbEntity
8
0
100
AcDbBlockBegin
2
_CLOSED
70
0
10
0
20
0
30
0
3
_CLOSED
0
LINE
5
131
100
AcDbEntity
8
0
62
256
6
ByLayer
370
-2
48
1
60
0
100
AcDbLine
10
-1
20
0.166667
30
0
11
0
21
0
31
0
39
0
210
0
220
0
230
1
0
LINE
5
132
100
AcDbEntity
8
0
62
256
6
ByLayer
370
-2
48
1
60
0
100
AcDbLine
10
0
20
0
30
0
11
-1
21
-0.166667
31
0
39
0
210
0
220
0
230
1
0
LINE
5
133
100
AcDbEntity
8
0
62
256
6
ByLayer
370
-2
48
1
60
0
100
AcDbLine
10
-1
20
0.166667
30
0
11
-1
21
-0.166667
31
0
39
0
210
0
220
0
230
1
0
LINE
5
134
100
AcDbEntity
8
0
62
256
6
ByLayer
370
-2
48
1
60
0
100
AcDbLine
10
0
20
0
30
0
11
-1
21
0
31
0
39
0
210
0
220
0
230
1
0
ENDBLK
5
130
100
AcDbEntity
8
0
100
AcDbBlockEnd
0
BLOCK
5
141
100
AcDbEntity
8
0
100
AcDbBlockBegin
2
DimnDraft3D2
70
0
10
0
20
0
30
0
3
DimnDraft3D2
0
MTEXT
5
136
100
AcDbEntity
8
SK2
62
256
6
ByLayer
370
18
48
1
60
0
100
AcDbMText
10
28.784211
20
68.475
30
0
210
0
220
0
230
1
1
\W0.6740;60
40
3.5
41
0
44
1.084337
50
0
71
7
72
5
7
iso_b_vert
0
LINE
5
138
100
AcDbEntity
8
SK2
62
256
6
ByLayer
370
13
48
1
60
0
100
AcDbLine
10
0
20
2
30
0
11
0
21
69.6
31
0
39
0
210
0
220
0
230
1
0
LINE
5
139
100
AcDbEntity
8
SK2
62
256
6
ByLayer
370
13
48
1
60
0
100
AcDbLine
10
60
20
47
30
0
11
60
21
69.6
31
0
39
0
210
0
220
0
230
1
0
LINE
5
13A
100
AcDbEntity
8
SK2
62
256
6
ByLayer
370
13
48
1
60
0
100
AcDbLine
10
0
20
67.6
30
0
11
60
21
67.6
31
0
39
0
210
0
220
0
230
1
0
LINE
5
13B
100
AcDbEntity
8
SK2
62
256
6
ByLayer
370
13
48
1
60
0
100
AcDbLine
10
0
20
67.6
30
0
11
3.174998
21
68.017997
31
0
39
0
210
0
220
0
230
1
0
LINE
5
13C
100
AcDbEntity
8
SK2
62
256
6
ByLayer
370
13
48
1
60
0
100
AcDbLine
10
0
20
67.6
30
0
11
3.175002
21
67.182003
31
0
39
0
210
0
220
0
230
1
0
LINE
5
13D
100
AcDbEntity
8
SK2
62
256
6
ByLayer
370
13
48
1
60
0
100
AcDbLine
10
3.174998
20
68.017997
30
0
11
3.175002
21
67.182003
31
0
39
0
210
0
220
0
230
1
0
LINE
5
13E
100
AcDbEntity
8
SK2
62
256
6
ByLayer
370
13
48
1
60
0
100
AcDbLine
10
60
20
67.6
30
0
11
56.825002
21
67.182003
31
0
39
0
210
0
220
0
230
1
0
LINE
5
13F
100
AcDbEntity
8
SK2
62
256
6
ByLayer
370
13
48
1
60
0
100
AcDbLine
10
60
20
67.6
30
0
11
56.824998
21
68.017997
31
0
39
0
210
0
220
0
230
1
0
LINE
5
140
100
AcDbEntity
8
SK2
62
256
6
ByLayer
370
13
48
1
60
0
100
AcDbLine
10
56.825002
20
67.182003
30
0
11
56.824998
21
68.017997
31
0
39
0
210
0
220
0
230
1
0
ENDBLK
5
142
100
AcDbEntity
8
0
100
AcDbBlockEnd
0
BLOCK
5
14F
100
AcDbEntity
8
0
100
AcDbBlockBegin
2
DimnDraft3D3
70
0
10
0
20
0
30
0
3
DimnDraft3D3
0
MTEXT
5
145
100
AcDbEntity
8
2
62
256
6
ByLayer
370
18
48
1
60
0
100
AcDbMText
10
51.721711
20
-43.725
30
0
210
0
220
0
230
1
1
\W0.5321;15
40
3.5
41
0
44
1.084337
50
0
71
7
72
5
7
iso_b_vert
0
LINE
5
146
100
AcDbEntity
8
2
62
256
6
ByLayer
370
13
48
1
60
0
100
AcDbLine
10
60
20
43
30
0
11
60
21
-46.6
31
0
39
0
210
0
220
0
230
1
0
LINE
5
147
100
AcDbEntity
8
2
62
256
6
ByLayer
370
13
48
1
60
0
100
AcDbLine
10
45
20
-2
30
0
11
45
21
-46.6
31
0
39
0
210
0
220
0
230
1
0
LINE
5
148
100
AcDbEntity
8
2
62
256
6
ByLayer
370
13
48
1
60
0
100
AcDbLine
10
60
20
-44.6
30
0
11
45
21
-44.6
31
0
39
0
210
0
220
0
230
1
0
LINE
5
149
100
AcDbEntity
8
2
62
256
6
ByLayer
370
13
48
1
60
0
100
AcDbLine
10
60
20
-44.6
30
0
11
56.825002
21
-45.017997
31
0
39
0
210
0
220
0
230
1
0
LINE
5
14A
100
AcDbEntity
8
2
62
256
6
ByLayer
370
13
48
1
60
0
100
AcDbLine
10
60
20
-44.6
30
0
11
56.824998
21
-44.182003
31
0
39
0
210
0
220
0
230
1
0
LINE
5
14B
100
AcDbEntity
8
2
62
256
6
ByLayer
370
13
48
1
60
0
100
AcDbLine
10
56.825002
20
-45.017997
30
0
11
56.824998
21
-44.182003
31
0
39
0
210
0
220
0
230
1
0
LINE
5
14C
100
AcDbEntity
8
2
62
256
6
ByLayer
370
13
48
1
60
0
100
AcDbLine
10
45
20
-44.6
30
0
11
48.174998
21
-44.182003
31
0
39
0
210
0
220
0
230
1
0
LINE
5
14D
100
AcDbEntity
8
2
62
256
6
ByLayer
370
13
48
1
60
0
100
AcDbLine
10
45
20
-44.6
30
0
11
48.175002
21
-45.017997
31
0
39
0
210
0
220
0
230
1
0
LINE
5
14E
100
AcDbEntity
8
2
62
256
6
ByLayer
370
13
48
1
60
0
100
AcDbLine
10
48.174998
20
-44.182003
30
0
11
48.175002
21
-45.017997
31
0
39
0
210
0
220
0
230
1
0
ENDBLK
5
150
100
AcDbEntity
8
0
100
AcDbBlockEnd
0
BLOCK
5
15D
100
AcDbEntity
8
0
100
AcDbBlockBegin
2
DimnDraft3D4
70
0
10
0
20
0
30
0
3
DimnDraft3D4
0
MTEXT
5
153
100
AcDbEntity
8
SK2
62
256
6
ByLayer
370
18
48
1
60
0
100
AcDbMText
10
-48.475
20
-1.215789
30
0
210
0
220
0
230
1
1
\W0.6740;63
40
3.5
41
0
44
1.084337
50
90
71
7
72
5
7
iso_b_vert
0
LINE
5
154
100
AcDbEntity
8
SK2
62
256
6
ByLayer
370
13
48
1
60
0
100
AcDbLine
10
-2
20
31.5
30
0
11
-49.6
21
31.5
31
0
39
0
210
0
220
0
230
1
0
LINE
5
155
100
AcDbEntity
8
SK2
62
256
6
ByLayer
370
13
48
1
60
0
100
AcDbLine
10
-2
20
-31.5
30
0
11
-49.6
21
-31.5
31
0
39
0
210
0
220
0
230
1
0
LINE
5
156
100
AcDbEntity
8
SK2
62
256
6
ByLayer
370
13
48
1
60
0
100
AcDbLine
10
-47.6
20
31.5
30
0
11
-47.6
21
-31.5
31
0
39
0
210
0
220
0
230
1
0
LINE
5
157
100
AcDbEntity
8
SK2
62
256
6
ByLayer
370
13
48
1
60
0
100
AcDbLine
10
-47.6
20
31.5
30
0
11
-47.182003
21
28.325002
31
0
39
0
210
0
220
0
230
1
0
LINE
5
158
100
AcDbEntity
8
SK2
62
256
6
ByLayer
370
13
48
1
60
0
100
AcDbLine
10
-47.6
20
31.5
30
0
11
-48.017997
21
28.324998
31
0
39
0
210
0
220
0
230
1
0
LINE
5
159
100
AcDbEntity
8
SK2
62
256
6
ByLayer
370
13
48
1
60
0
100
AcDbLine
10
-47.182003
20
28.325002
30
0
11
-48.017997
21
28.324998
31
0
39
0
210
0
220
0
230
1
0
LINE
5
15A
100
AcDbEntity
8
SK2
62
256
6
ByLayer
370
13
48
1
60
0
100
AcDbLine
10
-47.6
20
-31.5
30
0
11
-48.017997
21
-28.325002
31
0
39
0
210
0
220
0
230
1
0
LINE
5
15B
100
AcDbEntity
8
SK2
62
256
6
ByLayer
370
13
48
1
60
0
100
AcDbLine
10
-47.6
20
-31.5
30
0
11
-47.182003
21
-28.324998
31
0
39
0
210
0
220
0
230
1
0
LINE
5
15C
100
AcDbEntity
8
SK2
62
256
6
ByLayer
370
13
48
1
60
0
100
AcDbLine
10
-48.017997
20
-28.325002
30
0
11
-47.182003
21
-28.324998
31
0
39
0
210
0
220
0
230
1
0
ENDBLK
5
15E
100
AcDbEntity
8
0
100
AcDbBlockEnd
0
BLOCK
5
16B
100
AcDbEntity
8
0
100
AcDbBlockBegin
2
DimnDraft3D5
70
0
10
0
20
0
30
0
3
DimnDraft3D5
0
MTEXT
5
161
100
AcDbEntity
8
2
62
256
6
ByLayer
370
18
48
1
60
0
100
AcDbMText
10
77.225
20
31.054211
30
0
210
0
220
0
230
1
1
\W0.5404;3
40
3.5
41
0
44
1.084337
50
90
71
7
72
5
7
iso_b_vert
0
LINE
5
162
100
AcDbEntity
8
2
62
256
6
ByLayer
370
13
48
1
60
0
100
AcDbLine
10
62
20
45
30
0
11
80.1
21
45
31
0
39
0
210
0
220
0
230
1
0
LINE
5
163
100
AcDbEntity
8
2
62
256
6
ByLayer
370
13
48
1
60
0
100
AcDbLine
10
62
20
42
30
0
11
80.1
21
42
31
0
39
0
210
0
220
0
230
1
0
LINE
5
164
100
AcDbEntity
8
2
62
256
6
ByLayer
370
13
48
1
60
0
100
AcDbLine
10
78.1
20
30.179211
30
0
11
78.1
21
53.75
31
0
39
0
210
0
220
0
230
1
0
LINE
5
165
100
AcDbEntity
8
2
62
256
6
ByLayer
370
13
48
1
60
0
100
AcDbLine
10
78.1
20
45
30
0
11
77.682003
21
48.174998
31
0
39
0
210
0
220
0
230
1
0
LINE
5
166
100
AcDbEntity
8
2
62
256
6
ByLayer
370
13
48
1
60
0
100
AcDbLine
10
78.1
20
45
30
0
11
78.517997
21
48.175002
31
0
39
0
210
0
220
0
230
1
0
LINE
5
167
100
AcDbEntity
8
2
62
256
6
ByLayer
370
13
48
1
60
0
100
AcDbLine
10
77.682003
20
48.174998
30
0
11
78.517997
21
48.175002
31
0
39
0
210
0
220
0
230
1
0
LINE
5
168
100
AcDbEntity
8
2
62
256
6
ByLayer
370
13
48
1
60
0
100
AcDbLine
10
78.1
20
42
30
0
11
78.517997
21
38.825002
31
0
39
0
210
0
220
0
230
1
0
LINE
5
169
100
AcDbEntity
8
2
62
256
6
ByLayer
370
13
48
1
60
0
100
AcDbLine
10
78.1
20
42
30
0
11
77.682003
21
38.824998
31
0
39
0
210
0
220
0
230
1
0
LINE
5
16A
100
AcDbEntity
8
2
62
256
6
ByLayer
370
13
48
1
60
0
100
AcDbLine
10
78.517997
20
38.825002
30
0
11
77.682003
21
38.824998
31
0
39
0
210
0
220
0
230
1
0
ENDBLK
5
16C
100
AcDbEntity
8
0
100
AcDbBlockEnd
0
ENDSEC
0
SECTION
2
ENTITIES
0
ARC
5
CE
100
AcDbEntity
8
1
62
256
6
ByLayer
370
13
48
1
60
0
100
AcDbCircle
39
0
10
-22.279208
20
32.7
30
0
40
1.2
210
0
220
0
230
-1
100
AcDbArc
50
240.662324
51
270
0
ARC
5
CF
100
AcDbEntity
8
1
62
256
6
ByLayer
370
13
48
1
60
0
100
AcDbCircle
39
0
10
29.6
20
32.15
30
0
40
0.5
210
0
220
0
230
1
100
AcDbArc
50
275.73917
51
0
0
ARC
5
D0
100
AcDbEntity
8
1
62
256
6
ByLayer
370
18
48
1
60
0
100
AcDbCircle
39
0
10
59.8
20
44.8
30
0
40
0.2
210
0
220
0
230
1
100
AcDbArc
50
0
51
92.5
0
ARC
5
D1
100
AcDbEntity
8
1
62
256
6
ByLayer
370
18
48
1
60
0
100
AcDbCircle
39
0
10
-53.832089
20
43.5
30
0
40
0.500000000010874
210
0
220
0
230
-1
100
AcDbArc
50
160
51
200
0
ARC
5
D2
100
AcDbEntity
8
1
62
256
6
ByLayer
370
18
48
1
60
0
100
AcDbCircle
39
0
10
-40.2
20
44.8
30
0
40
0.2
210
0
220
0
230
-1
100
AcDbArc
50
0
51
92.5
0
ARC
5
D3
100
AcDbEntity
8
1
62
256
6
ByLayer
370
18
48
1
60
0
100
AcDbCircle
39
0
10
-59.8
20
42.2
30
0
40
0.2
210
0
220
0
230
-1
100
AcDbArc
50
180
51
272.5
0
ARC
5
D4
100
AcDbEntity
8
1
62
256
6
ByLayer
370
18
48
1
60
0
100
AcDbCircle
39
0
10
-54.168406
20
42.523551
30
0
40
0.150000000024057
210
0
220
0
230
-1
100
AcDbArc
50
0
51
20
0
ELLIPSE
5
D5
100
AcDbEntity
8
1
62
256
6
ByLayer
370
13
48
1
60
0
100
AcDbEllipse
10
52.565216
20
43.5
30
0
11
3.23195353109323E-16
21
1.14092468943065
31
0
210
0
220
0
230
1
40
0.775497
41
-1.93877420639901
42
-1.20281844719078
0
ELLIPSE
5
D6
100
AcDbEntity
8
1
62
256
6
ByLayer
370
13
48
1
60
0
100
AcDbEllipse
10
22.274896
20
0
30
0
11
-1.9287550072702E-15
21
31.4999999999992
31
0
210
0
220
0
230
-1
40
0.008727
41
-2.35619449019239
42
-0.509545755795249
0
ELLIPSE
5
D7
100
AcDbEntity
8
1
62
256
6
ByLayer
370
13
48
1
60
0
100
AcDbEllipse
10
-2.347154
20
0
30
0
11
14.7536831606581
21
-31.0932549155814
31
0
210
0
220
0
230
-1
40
0.341999
41
-1.09123958575277
42
-0.157806186645427
0
ELLIPSE
5
D8
100
AcDbEntity
8
1
62
256
6
ByLayer
370
13
48
1
60
0
100
AcDbEllipse
10
26.347154
20
0
30
0
11
14.7536831606557
21
-31.0932549155815
31
0
210
0
220
0
230
-1
40
0.341999
41
2.05035306783696
42
2.98378646694435
0
ELLIPSE
5
D9
100
AcDbEntity
8
1
62
256
6
ByLayer
370
13
48
1
60
0
100
AcDbEllipse
10
-2.347154
20
0
30
0
11
14.7536831606566
21
31.0932549155797
31
0
210
0
220
0
230
-1
40
0.341999
41
0.157806186645428
42
1.09123958575282
0
ELLIPSE
5
DA
100
AcDbEntity
8
1
62
256
6
ByLayer
370
13
48
1
60
0
100
AcDbEllipse
10
51.998043
20
43.5
30
0
11
1.16156599013733
21
1.1739239546882E-15
31
0
210
0
220
0
230
-1
40
0.516544
41
0
42
6.28318530717959
0
ELLIPSE
5
DB
100
AcDbEntity
8
1
62
256
6
ByLayer
370
13
48
1
60
0
100
AcDbEllipse
10
42.128821
20
42.325
30
0
11
-2.78951487299376
21
3.41605763755018E-16
31
0
210
0
220
0
230
1
40
0.573576
41
0
42
1.57079632679489
0
ELLIPSE
5
DC
100
AcDbEntity
8
1
62
256
6
ByLayer
370
13
48
1
60
0
100
AcDbEllipse
10
26.347154
20
0
30
0
11
14.7536831606556
21
31.0932549155814
31
0
210
0
220
0
230
-1
40
0.341999
41
-2.98378646694435
42
-2.05035306783696
0
ELLIPSE
5
DD
100
AcDbEntity
8
1
62
256
6
ByLayer
370
18
48
1
60
0
100
AcDbEllipse
10
54.168406
20
44.476449
30
0
11
0.0234951648248096
21
-0.148148497176837
31
0
210
0
220
0
230
-1
40
1
41
1.3790125720666
42
1.72807842256172
0
POINT
5
6C
100
AcDbEntity
8
81
62
256
6
ByLayer
370
18
48
1
60
0
100
AcDbPoint
10
60
20
45
30
0
39
0
210
0
220
0
230
1
50
360
0
POINT
5
6E
100
AcDbEntity
8
80
62
256
6
ByLayer
370
18
48
1
60
0
100
AcDbPoint
10
0
20
0
30
0
39
0
210
0
220
0
230
1
50
360
0
SPLINE
5
DE
100
AcDbEntity
8
1
62
256
6
ByLayer
370
13
48
1
60
0
100
AcDbSpline
70
4
71
2
72
6
73
3
40
0
40
0
40
0
40
1
40
1
40
1
41
1
10
-0.0999999999997101
20
-21.8971947566798
30
0
41
1
10
-0.0215334574149608
20
-21.947646212399
30
0
41
1
10
-0.0144090440567197
20
-21.9724722590001
30
0
0
SPLINE
5
DF
100
AcDbEntity
8
1
62
256
6
ByLayer
370
13
48
1
60
0
100
AcDbSpline
70
4
71
2
72
6
73
3
40
0
40
0
40
0
40
1
40
1
40
1
41
1
10
-0.014357794837764
20
21.9725544699437
30
0
41
1
10
-0.0214564109290052
20
21.9477058124067
30
0
41
1
10
-0.0999999999998522
20
21.8971945972013
30
0
0
SPLINE
5
E0
100
AcDbEntity
8
SK1
62
256
6
ByLayer
370
13
48
1
60
0
100
AcDbSpline
70
4
71
2
72
6
73
3
40
0
40
0
40
0
40
1
40
1
40
1
41
1
10
-0.194976888875317
20
21.8639496970128
30
0
41
1
10
-0.995008433397771
20
21.8438664509462
30
0
41
1
10
-1.7950399779393
20
21.8237832115739
30
0
0
SPLINE
5
E1
100
AcDbEntity
8
SK1
62
256
6
ByLayer
370
13
48
1
60
0
100
AcDbSpline
70
4
71
2
72
6
73
3
40
0
40
0
40
0
40
1
40
1
40
1
41
1
10
-1.7950399779393
20
-21.8237832285766
30
0
41
1
10
-0.9950084333978
20
-21.8438664676549
30
0
41
1
10
-0.194976888875317
20
-21.8639497134275
30
0
0
SPLINE
5
E2
100
AcDbEntity
8
SK1
62
256
6
ByLayer
370
13
48
1
60
0
100
AcDbSpline
70
4
71
2
72
6
73
3
40
0
40
0
40
0
40
1
40
1
40
1
41
1
10
-36.5
20
-21.1524613224033
30
0
41
1
10
-19.2499999976426
20
-21.5855495141177
30
0
41
1
10
-2
20
-22.0186362439356
30
0
0
SPLINE
5
E3
100
AcDbEntity
8
SK1
62
256
6
ByLayer
370
13
48
1
60
0
100
AcDbSpline
70
4
71
2
72
6
73
3
40
0
40
0
40
0
40
1
40
1
40
1
41
1
10
-2
20
22.018635875508
30
0
41
1
10
-19.2499999976431
20
21.5855491455243
30
0
41
1
10
-36.5
20
21.1524609537577
30
0
0
SPLINE
5
E4
100
AcDbEntity
8
SK1
62
256
6
ByLayer
370
13
48
1
60
0
100
AcDbSpline
70
4
71
3
72
13
73
9
40
0
40
0
40
0
40
0
40
0.239406675533101
40
0.368294170919227
40
0.499927912611373
40
0.631573622065738
40
0.760494133568905
40
1
40
1
40
1
40
1
41
1
10
-2
20
-22.0251209952818
30
0
41
1
10
-1.99909122095002
20
-21.9990737575567
30
0
41
1
10
-1.99103207881228
20
-21.9617163884142
30
0
41
1
10
-1.96563491014865
20
-21.9155180963752
30
0
41
1
10
-1.93886244237072
20
-21.8842503451973
30
0
41
1
10
-1.90627568046551
20
-21.8590943224455
30
0
41
1
10
-1.85883864366619
20
-21.8360608861175
30
0
41
1
10
-1.82110926269925
20
-21.8298912593852
30
0
41
1
10
-1.7950399779393
20
-21.8302933674114
30
0
0
SPLINE
5
E5
100
AcDbEntity
8
SK1
62
256
6
ByLayer
370
13
48
1
60
0
100
AcDbSpline
70
4
71
3
72
13
73
9
40
0
40
0
40
0
40
0
40
0.239505865890124
40
0.368426377204718
40
0.500072086585814
40
0.631705828340039
40
0.760593323909351
40
1
40
1
40
1
40
1
41
1
10
-1.7950399779393
20
21.8302932076065
30
0
41
1
10
-1.82110926271048
20
21.8298910995852
30
0
41
1
10
-1.85883864368745
20
21.8360607263468
30
0
41
1
10
-1.90627568048194
20
21.8590941627913
30
0
41
1
10
-1.93886244238615
20
21.8842501856704
30
0
41
1
10
-1.96563491016025
20
21.9155179370028
30
0
41
1
10
-1.99103207882064
20
21.9617162292747
30
0
41
1
10
-1.99909122095849
20
21.9990735985876
30
0
41
1
10
-2
20
22.0251208364275
30
0
0
SPLINE
5
E6
100
AcDbEntity
8
SK1
62
256
6
ByLayer
370
13
48
1
60
0
100
AcDbSpline
70
4
71
2
72
6
73
3
40
0
40
0
40
0
40
1
40
1
40
1
41
1
10
-38
20
-20.2898800072422
30
0
41
1
10
-37.2499998580851
20
-20.7226367943926
30
0
41
1
10
-36.5
20
-21.15539096789
30
0
0
SPLINE
5
E7
100
AcDbEntity
8
SK1
62
256
6
ByLayer
370
13
48
1
60
0
100
AcDbSpline
70
4
71
2
72
6
73
3
40
0
40
0
40
0
40
1
40
1
40
1
41
1
10
-36.5
20
21.1553908654239
30
0
41
1
10
-37.2499998580829
20
20.7226366902559
30
0
41
1
10
-38
20
20.2898799013383
30
0
0
SPLINE
5
E8
100
AcDbEntity
8
SK1
62
256
6
ByLayer
370
13
48
1
60
0
100
AcDbSpline
70
4
71
2
72
6
73
3
40
0
40
0
40
0
40
1
40
1
40
1
41
1
10
-0.194976888875317
20
-21.8700250299903
30
0
41
1
10
-0.14419243169786
20
-21.8714778839667
30
0
41
1
10
-0.099999999998289
20
-21.8967449895896
30
0
0
SPLINE
5
E9
100
AcDbEntity
8
SK1
62
256
6
ByLayer
370
13
48
1
60
0
100
AcDbSpline
70
4
71
2
72
6
73
3
40
0
40
0
40
0
40
1
40
1
40
1
41
1
10
-0.0999999999982037
20
21.8967448275103
30
0
41
1
10
-0.144192431674213
20
21.8714777217787
30
0
41
1
10
-0.194976888875317
20
21.8700248677911
30
0
0
SPLINE
5
EA
100
AcDbEntity
8
SK1
62
256
6
ByLayer
370
13
48
1
60
0
100
AcDbSpline
70
4
71
3
72
39
73
35
40
0
40
0
40
0
40
0
40
0.0160271529524477
40
0.0444953787378819
40
0.072963604523316
40
0.10143183030875
40
0.158368281879619
40
0.215304733450487
40
0.243772959235921
40
0.272241185021355
40
0.329177636592224
40
0.357645862377658
40
0.386114088163092
40
0.414582313948526
40
0.44305053973396
40
0.471518765519394
40
0.485752878412112
40
0.499986991304829
40
0.514221104197546
40
0.528455217090263
40
0.556923442875697
40
0.585391668661131
40
0.613859894446565
40
0.642328120231999
40
0.670796346017434
40
0.727732797588302
40
0.756201023373736
40
0.78466924915917
40
0.841605700730039
40
0.898542152300907
40
0.927010378086341
40
0.955478603871775
40
0.98394682965721
40
1
40
1
40
1
40
1
41
1
10
-36.5
20
21.1559175373556
30
0
41
1
10
-36.5
20
21.1495972640468
30
0
41
1
10
-36.5
20
21.1028324798311
30
0
41
1
10
-36.5
20
20.9025884164263
30
0
41
1
10
-36.5
20
20.5018778480375
30
0
41
1
10
-36.5
20
19.7633849930509
30
0
41
1
10
-36.5
20
18.4909300775027
30
0
41
1
10
-36.5
20
16.801583993955
30
0
41
1
10
-36.5
20
15.2144251466801
30
0
41
1
10
-36.5
20
13.4785456669563
30
0
41
1
10
-36.5
20
11.5365872380066
30
0
41
1
10
-36.5
20
9.37741591545503
30
0
41
1
10
-36.5
20
7.66287314675822
30
0
41
1
10
-36.5
20
5.85436022826505
30
0
41
1
10
-36.5
20
3.96084233651746
30
0
41
1
10
-36.5
20
2.32941166334251
30
0
41
1
10
-36.5
20
0.997014065912396
30
0
41
1
10
-36.5
20
1.676932868E-07
30
0
41
1
10
-36.5
20
-0.997014040356873
30
0
41
1
10
-36.5
20
-2.32941173515775
30
0
41
1
10
-36.5
20
-3.96084204001809
30
0
41
1
10
-36.5
20
-5.85435990948275
30
0
41
1
10
-36.5
20
-7.66287333478689
30
0
41
1
10
-36.5
20
-9.3774156460166
30
0
41
1
10
-36.5
20
-11.53658701746
30
0
41
1
10
-36.5
20
-13.4785456662698
30
0
41
1
10
-36.5
20
-15.2144249963298
30
0
41
1
10
-36.5
20
-16.8015844483731
30
0
41
1
10
-36.5
20
-18.4909295861375
30
0
41
1
10
-36.5
20
-19.7633859456667
30
0
41
1
10
-36.5
20
-20.5018776781105
30
0
41
1
10
-36.5
20
-20.9025888554179
30
0
41
1
10
-36.5
20
-21.102904561633
30
0
41
1
10
-36.5
20
-21.1496522449823
30
0
41
1
10
-36.5
20
-21.1559484625638
30
0
0
SPLINE
5
EB
100
AcDbEntity
8
SK1
62
256
6
ByLayer
370
13
48
1
60
0
100
AcDbSpline
70
4
71
3
72
20
73
16
40
0
40
0
40
0
40
0
40
0.0043623778752668
40
0.0722579933294814
40
0.140153608783696
40
0.208049224237911
40
0.34384045514634
40
0.411736070600554
40
0.479631686054769
40
0.615422916963198
40
0.751214147871627
40
0.819109763325842
40
0.887005378780057
40
0.954900994234271
40
1
40
1
40
1
40
1
41
1
10
-0.194976888875317
20
-6.03119623886749
30
0
41
1
10
-0.194976888875317
20
-6.07248438694882
30
0
41
1
10
-0.194976888875317
20
-6.7552262401928
30
0
41
1
10
-0.194976888875317
20
-8.04231567916281
30
0
41
1
10
-0.194976888875317
20
-9.8080168831988
30
0
41
1
10
-0.194976888875317
20
-12.0209589146812
30
0
41
1
10
-0.194976888875317
20
-14.0161341032345
30
0
41
1
10
-0.194976888875317
20
-15.788964627033
30
0
41
1
10
-0.194976888875317
20
-17.4090439325775
30
0
41
1
10
-0.194976888875317
20
-19.1375804507265
30
0
41
1
10
-0.194976888875317
20
-20.4405044941378
30
0
41
1
10
-0.194976888875317
20
-21.1957612581816
30
0
41
1
10
-0.194976888875317
20
-21.6069523286528
30
0
41
1
10
-0.194976888875317
20
-21.8210880479763
30
0
41
1
10
-0.194976888875317
20
-21.8670530076653
30
0
41
1
10
-0.194976888875317
20
-21.8700402386941
30
0
0
SPLINE
5
EC
100
AcDbEntity
8
SK1
62
256
6
ByLayer
370
13
48
1
60
0
100
AcDbSpline
70
4
71
3
72
24
73
20
40
0
40
0
40
0
40
0
40
0.0882167025504551
40
0.0882167025504551
40
0.163407185711255
40
0.163407185711255
40
0.193936204017558
40
0.193936204017558
40
0.224999210742374
40
0.224999210742374
40
0.252492596047489
40
0.252492596047489
40
0.284445117859698
40
0.284445117859698
40
0.339507625462993
40
0.339507625462993
40
0.508206772293026
40
0.508206772293026
40
1
40
1
40
1
40
1
41
1
10
-0.194976888875317
20
-6.03119623886744
30
0
41
1
10
-0.22525561739954
20
-6.09380830292872
30
0
41
1
10
-0.259090827933164
20
-6.15517981130731
30
0
41
1
10
-0.333828065101812
20
-6.26130876163617
30
0
41
1
10
-0.373313691233506
20
-6.30837086961606
30
0
41
1
10
-0.442276593128867
20
-6.36083106863137
30
0
41
1
10
-0.464228533248132
20
-6.37447162419383
30
0
41
1
10
-0.511891060090591
20
-6.39512398968853
30
0
41
1
10
-0.538407851727925
20
-6.40212601359622
30
0
41
1
10
-0.588769847053442
20
-6.40516176863196
30
0
41
1
10
-0.613175825667184
20
-6.402341611975
30
0
41
1
10
-0.662408101361393
20
-6.38862822540176
30
0
41
1
10
-0.687472034228023
20
-6.37650855040584
30
0
41
1
10
-0.748978617614739
20
-6.33732475252918
30
0
41
1
10
-0.782291194817589
20
-6.3054243858904
30
0
41
1
10
-0.900777356860658
20
-6.16934275321913
30
0
41
1
10
-0.961154548901476
20
-6.04757516428967
30
0
41
1
10
-1.16501717694098
20
-5.57099583373559
30
0
41
1
10
-1.24739247760996
20
-5.18857253643461
30
0
41
1
10
-1.31543506509496
20
-4.80312334332308
30
0
0
SPLINE
5
ED
100
AcDbEntity
8
SK1
62
256
6
ByLayer
370
13
48
1
60
0
100
AcDbSpline
70
4
71
3
72
8
73
4
40
0
40
0
40
0
40
0
40
1
40
1
40
1
40
1
41
1
10
-1.7950399779393
20
0.497941450131663
30
0
41
1
10
-1.75803826196611
20
1.99502758923424
30
0
41
1
10
-1.55746231783272
20
3.43208263627039
30
0
41
1
10
-1.31543506509499
20
4.80312611568485
30
0
0
SPLINE
5
EE
100
AcDbEntity
8
SK1
62
256
6
ByLayer
370
13
48
1
60
0
100
AcDbSpline
70
4
71
3
72
8
73
4
40
0
40
0
40
0
40
0
40
1
40
1
40
1
40
1
41
1
10
-1.31543506509499
20
-4.80312334332308
30
0
41
1
10
-1.55708569514763
20
-3.434215372426
30
0
41
1
10
-1.7581187420565
20
-1.99176847042239
30
0
41
1
10
-1.79503997793932
20
-0.497935257502832
30
0
0
SPLINE
5
EF
100
AcDbEntity
8
SK1
62
256
6
ByLayer
370
13
48
1
60
0
100
AcDbSpline
70
4
71
3
72
23
73
19
40
0
40
0
40
0
40
0
40
0.015180183227373
40
0.0437400496139616
40
0.100859782387139
40
0.157979515160316
40
0.215099247933493
40
0.272218980706671
40
0.329338713479848
40
0.443578179026203
40
0.50069791179938
40
0.557817644572557
40
0.672057110118912
40
0.786296575665266
40
0.843416308438444
40
0.900536041211621
40
0.957655773984798
40
1
40
1
40
1
40
1
41
1
10
-1.7950399779393
20
-0.497935257505191
30
0
41
1
10
-1.7950399779393
20
-0.686148227369415
30
0
41
1
10
-1.7950399779393
20
-1.22796752001304
30
0
41
1
10
-1.7950399779393
20
-2.47030998023922
30
0
41
1
10
-1.7950399779393
20
-4.18621515342139
30
0
41
1
10
-1.7950399779393
20
-6.1538539584167
30
0
41
1
10
-1.7950399779393
20
-8.02089392647389
30
0
41
1
10
-1.7950399779393
20
-9.78370691003113
30
0
41
1
10
-1.7950399779393
20
-11.9936132714088
30
0
41
1
10
-1.7950399779393
20
-13.9857840732081
30
0
41
1
10
-1.7950399779393
20
-15.7565284847275
30
0
41
1
10
-1.7950399779393
20
-17.3747492708666
30
0
41
1
10
-1.7950399779393
20
-19.1010732050207
30
0
41
1
10
-1.7950399779393
20
-20.4022771684283
30
0
41
1
10
-1.7950399779393
20
-21.1565874478057
30
0
41
1
10
-1.7950399779393
20
-21.5671868666521
30
0
41
1
10
-1.7950399779393
20
-21.7871707147991
30
0
41
1
10
-1.79503997793927
20
-21.8309354004627
30
0
41
1
10
-1.79503997793932
20
-21.8302764775784
30
0
0
SPLINE
5
F0
100
AcDbEntity
8
SK1
62
256
6
ByLayer
370
13
48
1
60
0
100
AcDbSpline
70
4
71
3
72
23
73
19
40
0
40
0
40
0
40
0
40
0.0423309011621871
40
0.0994514384813332
40
0.156571975800479
40
0.213692513119626
40
0.327933587757918
40
0.44217466239621
40
0.499295199715356
40
0.556415737034502
40
0.670656811672795
40
0.727777348991941
40
0.784897886311087
40
0.842018423630233
40
0.899138960949379
40
0.956259498268526
40
0.984819766928099
40
1
40
1
40
1
40
1
41
1
10
-1.79503997793927
20
21.8302769651614
30
0
41
1
10
-1.79503997793927
20
21.8309229192653
30
0
41
1
10
-1.79503997793927
20
21.7871504486523
30
0
41
1
10
-1.7950399779393
20
21.5671864477183
30
0
41
1
10
-1.7950399779393
20
21.1565876158885
30
0
41
1
10
-1.7950399779393
20
20.4022762052015
30
0
41
1
10
-1.7950399779393
20
19.1010737301409
30
0
41
1
10
-1.7950399779393
20
17.3747488027599
30
0
41
1
10
-1.7950399779393
20
15.7565286767832
30
0
41
1
10
-1.7950399779393
20
13.9857840798917
30
0
41
1
10
-1.7950399779393
20
11.9936135169181
30
0
41
1
10
-1.7950399779393
20
9.78370710557331
30
0
41
1
10
-1.7950399779393
20
8.02089380010173
30
0
41
1
10
-1.7950399779393
20
6.15385433510386
30
0
41
1
10
-1.7950399779393
20
4.18621524287363
30
0
41
1
10
-1.7950399779393
20
2.47030995483456
30
0
41
1
10
-1.7950399779393
20
1.22796960685002
30
0
41
1
10
-1.7950399779393
20
0.686152378389011
30
0
41
1
10
-1.7950399779393
20
0.497941450131293
30
0
0
SPLINE
5
F1
100
AcDbEntity
8
SK1
62
256
6
ByLayer
370
13
48
1
60
0
100
AcDbSpline
70
4
71
3
72
20
73
16
40
0
40
0
40
0
40
0
40
0.0448324113297108
40
0.112471713367191
40
0.18011101540467
40
0.24775031744215
40
0.38302892151711
40
0.518307525592069
40
0.585946827629549
40
0.653586129667029
40
0.788864733741989
40
0.856504035779468
40
0.924143337816948
40
0.991782639854428
40
1
40
1
40
1
40
1
41
0.874315756983283
10
-0.0999999999995493
20
-21.8967410911027
30
0
41
0.874315756983283
10
-0.0999999999995818
20
-21.8936935082336
30
0
41
0.874315756983283
10
-0.0999999999996143
20
-21.8476413951113
30
0
41
0.874315756983283
10
-0.0999999999996143
20
-21.6333957601054
30
0
41
0.874315756983283
10
-0.0999999999996143
20
-21.2218112502424
30
0
41
0.874315756983283
10
-0.0999999999996143
20
-20.4659250881949
30
0
41
0.874315756983283
10
-0.0999999999996143
20
-19.1618572175681
30
0
41
0.874315756983283
10
-0.0999999999996143
20
-17.4318493644904
30
0
41
0.874315756983283
10
-0.0999999999996143
20
-15.8105341716199
30
0
41
0.874315756983283
10
-0.0999999999996143
20
-14.0363164146728
30
0
41
0.874315756983283
10
-0.0999999999996143
20
-12.0391433543184
30
0
41
0.874315756983283
10
-0.0999999999996143
20
-9.82418264807947
30
0
41
0.874315756983283
10
-0.0999999999996143
20
-8.0565608210604
30
0
41
0.874315756983283
10
-0.0999999999996143
20
-6.73213673632547
30
0
41
0.874315756983283
10
-0.0999999999996143
20
-6.01058938422906
30
0
41
0.874315756983283
10
-0.0999999999996143
20
-5.93217709109665
30
0
0
SPLINE
5
F2
100
AcDbEntity
8
SK1
62
256
6
ByLayer
370
13
48
1
60
0
100
AcDbSpline
70
4
71
3
72
20
73
16
40
0
40
0
40
0
40
0
40
0.0451025223565719
40
0.112997896030322
40
0.180893269704072
40
0.248788643377823
40
0.384579390725323
40
0.520370138072824
40
0.588265511746574
40
0.656160885420324
40
0.791951632767825
40
0.859847006441575
40
0.927742380115326
40
0.995637753789076
40
1
40
1
40
1
40
1
41
1
10
-0.194976888875317
20
21.8700407867055
30
0
41
1
10
-0.194976888875288
20
21.8670557296162
30
0
41
1
10
-0.194976888875317
20
21.821091699919
30
0
41
1
10
-0.194976888875317
20
21.6069519109192
30
0
41
1
10
-0.194976888875317
20
21.1957614261541
30
0
41
1
10
-0.194976888875317
20
20.4405035302762
30
0
41
1
10
-0.194976888875317
20
19.1375809778664
30
0
41
1
10
-0.194976888875317
20
17.4090434636518
30
0
41
1
10
-0.194976888875317
20
15.7889648215842
30
0
41
1
10
-0.194976888875317
20
14.0161341102769
30
0
41
1
10
-0.194976888875317
20
12.0209591616841
30
0
41
1
10
-0.194976888875317
20
9.80801707431951
30
0
41
1
10
-0.194976888875317
20
8.04231555647979
30
0
41
1
10
-0.194976888875317
20
6.75522752997304
30
0
41
1
10
-0.194976888875317
20
6.07248683105249
30
0
41
1
10
-0.194976888875317
20
6.03119978686843
30
0
0
SPLINE
5
F3
100
AcDbEntity
8
SK1
62
256
6
ByLayer
370
13
48
1
60
0
100
AcDbSpline
70
4
71
3
72
20
73
16
40
0
40
0
40
0
40
0
40
0.0082172539283592
40
0.0758566403896798
40
0.143496026851
40
0.211135413312321
40
0.346414186234962
40
0.414053572696283
40
0.481692959157604
40
0.616971732080245
40
0.752250505002886
40
0.819889891464207
40
0.887529277925527
40
0.955168664386848
40
1
40
1
40
1
40
1
41
0.874315756983292
10
-0.0999999999996459
20
5.93218067753217
30
0
41
0.874315756983292
10
-0.0999999999996459
20
6.01059185206906
30
0
41
0.874315756983292
10
-0.0999999999996459
20
6.73213804659123
30
0
41
0.874315756983292
10
-0.0999999999996459
20
8.05656070083063
30
0
41
0.874315756983292
10
-0.0999999999996459
20
9.82418283625996
30
0
41
0.874315756983292
10
-0.0999999999996459
20
12.0391436023145
30
0
41
0.874315756983292
10
-0.0999999999996459
20
14.0363164219537
30
0
41
0.874315756983292
10
-0.0999999999996459
20
15.8105343678304
30
0
41
0.874315756983292
10
-0.0999999999996459
20
17.43184889502
30
0
41
0.874315756983292
10
-0.0999999999996459
20
19.1618577460512
30
0
41
0.874315756983292
10
-0.0999999999996459
20
20.4659241239111
30
0
41
0.874315756983292
10
-0.0999999999996459
20
21.2218114181415
30
0
41
0.874315756983292
10
-0.0999999999996459
20
21.6333953431699
30
0
41
0.874315756983292
10
-0.0999999999996458
20
21.8476393475475
30
0
41
0.874315756983291
10
-0.0999999999996459
20
21.8936923110602
30
0
41
0.874315756983291
10
-0.0999999999995809
20
21.8967406774302
30
0
0
SPLINE
5
F4
100
AcDbEntity
8
SK1
62
256
6
ByLayer
370
13
48
1
60
0
100
AcDbSpline
70
4
71
3
72
16
73
12
40
0
40
0
40
0
40
0
40
0.0159096422439514
40
0.0159096422439514
40
0.0961961736773426
40
0.0961961736773426
40
0.22749646732809
40
0.22749646732809
40
0.489079305586495
40
0.489079305586495
40
1
40
1
40
1
40
1
41
1
10
-0.0999999999999943
20
-5.93217709109641
30
0
41
1
10
-0.1007615498294
20
-5.93203829151557
30
0
41
1
10
-0.101524775514349
20
-5.9319282088814
30
0
41
1
10
-0.106111102991065
20
-5.93143686552818
30
0
41
1
10
-0.109953457220826
20
-5.93175809808719
30
0
41
1
10
-0.119521740108809
20
-5.93403248815557
30
0
41
1
10
-0.125085397453347
20
-5.93686267389202
30
0
41
1
10
-0.140226025321908
20
-5.94716754386761
30
0
41
1
10
-0.148822941849716
20
-5.95654506934429
30
0
41
1
10
-0.171647896181327
20
-5.98594702031664
30
0
41
1
10
-0.183906329926316
20
-6.00830391214637
30
0
41
1
10
-0.194976888875317
20
-6.03119623886744
30
0
0
SPLINE
5
F5
100
AcDbEntity
8
SK1
62
256
6
ByLayer
370
13
48
1
60
0
100
AcDbSpline
70
4
71
3
72
39
73
35
40
0
40
0
40
0
40
0
40
0.0209474945707586
40
0.0491271055427884
40
0.0773067165148183
40
0.105486327486848
40
0.161845549430908
40
0.218204771374967
40
0.246384382346997
40
0.274563993319027
40
0.330923215263087
40
0.359102826235117
40
0.387282437207147
40
0.415462048179176
40
0.443641659151206
40
0.471821270123236
40
0.485911075609251
40
0.500000881095266
40
0.514090686581281
40
0.528180492067296
40
0.556360103039326
40
0.584539714011356
40
0.612719324983385
40
0.640898935955415
40
0.669078546927445
40
0.725437768871505
40
0.753617379843535
40
0.781796990815564
40
0.838156212759624
40
0.894515434703684
40
0.922695045675714
40
0.950874656647744
40
0.979054267619774
40
1
40
1
40
1
40
1
41
1
10
-38
20
20.2930915628436
30
0
41
1
10
-38
20
20.2936151036995
30
0
41
1
10
-38
20
20.2527531040915
30
0
41
1
10
-38
20
20.0459061788577
30
0
41
1
10
-38
20
19.657941810806
30
0
41
1
10
-38
20
18.9398394400736
30
0
41
1
10
-38
20
17.7044407938012
30
0
41
1
10
-38
20
16.0627612954467
30
0
41
1
10
-38
20
14.5156411550098
30
0
41
1
10
-38
20
12.8247036179069
30
0
41
1
10
-38
20
10.9474697913535
30
0
41
1
10
-38
20
8.85369717199407
30
0
41
1
10
-38
20
7.20137624192122
30
0
41
1
10
-38
20
5.4683053958629
30
0
41
1
10
-38
20
3.6703314463044
30
0
41
1
10
-38
20
2.14779050597869
30
0
41
1
10
-38
20
0.911746463163155
30
0
41
1
10
-38
20
3.12542852E-07
30
0
41
1
10
-38
20
-0.9117465070278
30
0
41
1
10
-38
20
-2.14779063761824
30
0
41
1
10
-38
20
-3.67033088291646
30
0
41
1
10
-38
20
-5.46830515172132
30
0
41
1
10
-38
20
-7.20137650942658
30
0
41
1
10
-38
20
-8.85369680730173
30
0
41
1
10
-38
20
-10.9474696029843
30
0
41
1
10
-38
20
-12.8247036249508
30
0
41
1
10
-38
20
-14.5156410584188
30
0
41
1
10
-38
20
-16.0627617322199
30
0
41
1
10
-38
20
-17.704440345947
30
0
41
1
10
-38
20
-18.9398403790117
30
0
41
1
10
-38
20
-19.6579416385019
30
0
41
1
10
-38
20
-20.0459066437044
30
0
41
1
10
-38
20
-20.2527490674735
30
0
41
1
10
-38
20
-20.2936124021906
30
0
41
1
10
-38
20
-20.2930918589832
30
0
0
SPLINE
5
F6
100
AcDbEntity
8
SK1
62
256
6
ByLayer
370
13
48
1
60
0
100
AcDbSpline
70
4
71
3
72
39
73
35
40
0
40
0
40
0
40
0
40
0.0136745863104436
40
0.0422819841942305
40
0.0708893820780175
40
0.0994967799618044
40
0.156711575729378
40
0.213926371496952
40
0.242533769380739
40
0.271141167264526
40
0.3283559630321
40
0.356963360915887
40
0.385570758799674
40
0.414178156683461
40
0.442785554567248
40
0.471392952451035
40
0.485696651392928
40
0.500000350334822
40
0.514304049276715
40
0.528607748218609
40
0.557215146102396
40
0.585822543986183
40
0.61442994186997
40
0.643037339753757
40
0.671644737637544
40
0.728859533405117
40
0.757466931288904
40
0.786074329172691
40
0.843289124940265
40
0.900503920707839
40
0.929111318591626
40
0.957718716475413
40
0.9863261143592
40
1
40
1
40
1
40
1
41
1
10
-2
20
22.0185530032362
30
0
41
1
10
-2
20
22.0102354312186
30
0
41
1
10
-2
20
21.9603732607403
30
0
41
1
10
-2
20
21.7599974084888
30
0
41
1
10
-2
20
21.3465298267008
30
0
41
1
10
-2
20
20.5876291894755
30
0
41
1
10
-2
20
19.2780865684794
30
0
41
1
10
-2
20
17.5410334624521
30
0
41
1
10
-2
20
15.9138019420577
30
0
41
1
10
-2
20
14.1329423938392
30
0
41
1
10
-2
20
12.1262044542745
30
0
41
1
10
-2
20
9.90157894844802
30
0
41
1
10
-2
20
8.12476155609346
30
0
41
1
10
-2
20
6.24074256492966
30
0
41
1
10
-2
20
4.25159967761485
30
0
41
1
10
-2
20
2.5111868964961
30
0
41
1
10
-2
20
1.08235400424974
30
0
41
1
10
-2
20
2.27208261E-08
30
0
41
1
10
-2
20
-1.08235390921522
30
0
41
1
10
-2
20
-2.51118690843626
30
0
41
1
10
-2
20
-4.25159964823044
30
0
41
1
10
-2
20
-6.24074217144334
30
0
41
1
10
-2
20
-8.12476166457805
30
0
41
1
10
-2
20
-9.90157877434433
30
0
41
1
10
-2
20
-12.1262042015232
30
0
41
1
10
-2
20
-14.1329423854158
30
0
41
1
10
-2
20
-15.9138017379025
30
0
41
1
10
-2
20
-17.5410339345301
30
0
41
1
10
-2
20
-19.2780860335663
30
0
41
1
10
-2
20
-20.5876301557806
30
0
41
1
10
-2
20
-21.346529659153
30
0
41
1
10
-2
20
-21.7599978216034
30
0
41
1
10
-2
20
-21.9603719638072
30
0
41
1
10
-2
20
-22.0102341378025
30
0
41
1
10
-1.99999999999997
20
-22.0185519964379
30
0
0
SPLINE
5
F7
100
AcDbEntity
8
SK1
62
256
6
ByLayer
370
13
48
1
60
0
100
AcDbSpline
70
4
71
3
72
14
73
10
40
0
40
0
40
0
40
0
40
0.614715626559252
40
0.614715626559252
40
0.765803628375338
40
0.765803628375338
40
0.919654011634599
40
0.919654011634599
40
1
40
1
40
1
40
1
41
1
10
-0.194976888875317
20
6.03119978687522
30
0
41
1
10
-0.181693002446423
20
6.0037306284498
30
0
41
1
10
-0.16683612475623
20
5.97658223440169
30
0
41
1
10
-0.142050052291495
20
5.94985588030065
30
0
41
1
10
-0.136736151758839
20
5.944913384241
30
0
41
1
10
-0.125040190484583
20
5.93673131376116
30
0
41
1
10
-0.118460637898579
20
5.93340982364455
30
0
41
1
10
-0.107726720154687
20
5.93153298269073
30
0
41
1
10
-0.103829573191121
20
5.93148270158707
30
0
41
1
10
-0.100000000000023
20
5.93218067753199
30
0
0
SPLINE
5
F8
100
AcDbEntity
8
SK1
62
256
6
ByLayer
370
13
48
1
60
0
100
AcDbSpline
70
4
71
3
72
12
73
8
40
0
40
0
40
0
40
0
40
0.5
40
0.5
40
0.75
40
0.75
40
1
40
1
40
1
40
1
41
1
10
-1.31543506509499
20
4.80312611568485
30
0
41
1
10
-1.24610370017862
20
5.19587657957786
30
0
41
1
10
-1.16418333850413
20
5.57907839839186
30
0
41
1
10
-0.929100156498976
20
6.11927416699606
30
0
41
1
10
-0.84118340317994
20
6.34397714609517
30
0
41
1
10
-0.420334197990911
20
6.45078944962412
30
0
41
1
10
-0.281070263314376
20
6.20922844997855
30
0
41
1
10
-0.194976888875829
20
6.03119978686885
30
0
0
SPLINE
5
F9
100
AcDbEntity
8
SK1
62
256
6
ByLayer
370
13
48
1
60
0
100
AcDbSpline
70
4
71
3
72
10
73
6
40
0
40
0
40
0
40
0
40
0.400830938784987
40
0.400830938784987
40
1
40
1
40
1
40
1
41
1
10
-1.79503997793932
20
-0.49793525750033
30
0
41
1
10
-1.79832582073135
20
-0.364990057325258
30
0
41
1
10
-1.80039222879373
20
-0.231874603744416
30
0
41
1
10
-1.80209524241692
20
0.100177528537699
30
0
41
1
10
-1.7999503081748
20
0.29926992528982
30
0
41
1
10
-1.79503997793927
20
0.497941450128849
30
0
0
SPLINE
5
FA
100
AcDbEntity
8
1
62
256
6
ByLayer
370
13
48
1
60
0
100
AcDbSpline
70
4
71
3
72
16
73
12
40
0
40
0
40
0
40
0
40
0.174896184388239
40
0.174896184388239
40
0.389139276883143
40
0.389139276883143
40
0.607606771837384
40
0.607606771837384
40
0.864062559691569
40
0.864062559691569
40
1
40
1
40
1
40
1
41
1
10
23.0967440230753
20
31.6499999999999
30
0
41
1
10
23.1022560790203
20
31.6499999999999
30
0
41
1
10
23.1159713764087
20
31.6576186923959
30
0
41
1
10
23.1555794714058
20
31.6872502328041
30
0
41
1
10
23.1838529734983
20
31.7124074053791
30
0
41
1
10
23.2425995951799
20
31.7756625714164
30
0
41
1
10
23.2739433824387
20
31.8148848539648
30
0
41
1
10
23.3376541564169
20
31.9118709551836
30
0
41
1
10
23.370338839374
20
31.9735388909995
30
0
41
1
10
23.410873359044
20
32.0751416477428
30
0
41
1
10
23.4234731379652
20
32.1124065905127
30
0
41
1
10
23.4340189683416
20
32.1499999999993
30
0
0
SPLINE
5
FB
100
AcDbEntity
8
1
62
256
6
ByLayer
370
13
48
1
60
0
100
AcDbSpline
70
4
71
3
72
22
73
18
40
0
40
0
40
0
40
0
40
0.190469746329062
40
0.190469746329062
40
0.53124785186516
40
0.53124785186516
40
0.918342680519493
40
0.918342680519493
40
0.945436807870448
40
0.945436807870448
40
0.971706702802742
40
0.971706702802742
40
0.982990666469464
40
0.982990666469464
40
0.994515114529637
40
0.994515114529637
40
1
40
1
40
1
40
1
41
1
10
26.2647683255015
20
31.65
30
0
41
1
10
26.4197643688631
20
31.6500000000003
30
0
41
1
10
26.5780073203287
20
31.6570551839304
30
0
41
1
10
27.0180360969894
20
31.69123863796
30
0
41
1
10
27.3040167577088
20
31.7299518988814
30
0
41
1
10
27.8831928922951
20
31.8382145899353
30
0
41
1
10
28.186809281721
20
31.89610630038
30
0
41
1
10
28.4575654104082
20
32.0326945648384
30
0
41
1
10
28.4753218224627
20
32.0424672934373
30
0
41
1
10
28.5089258409345
20
32.0640731159955
30
0
41
1
10
28.525040757596
20
32.0758059576208
30
0
41
1
10
28.5453620557105
20
32.0963133631255
30
0
41
1
10
28.5511551237331
20
32.1030441666295
30
0
41
1
10
28.561114980455
20
32.1181322818292
30
0
41
1
10
28.5653773186515
20
32.1267971661568
30
0
41
1
10
28.5686113544453
20
32.1406124386647
30
0
41
1
10
28.5691843186712
20
32.1453251320117
30
0
41
1
10
28.5691843186729
20
32.149999999978
30
0
0
SPLINE
5
FC
100
AcDbEntity
8
1
62
256
6
ByLayer
370
13
48
1
60
0
100
AcDbSpline
70
4
71
3
72
8
73
4
40
0
40
0
40
0
40
0
40
1
40
1
40
1
40
1
41
1
10
23.8413921037386
20
31.6499999999999
30
0
41
1
10
23.7043686072553
20
31.0654887214197
30
0
41
1
10
23.569784214422
20
30.4823086141447
30
0
41
1
10
23.4383186059721
20
29.9006726549677
30
0
0
SPLINE
5
FD
100
AcDbEntity
8
1
62
256
6
ByLayer
370
13
48
1
60
0
100
AcDbSpline
70
4
71
3
72
8
73
4
40
0
40
0
40
0
40
0
40
1
40
1
40
1
40
1
41
1
10
29.6
20
31.6499999999999
30
0
41
1
10
29.6185626839466
20
31.6499999999999
30
0
41
1
10
29.6363078754432
20
31.6509785982052
30
0
41
1
10
29.6532217588178
20
31.6527377590378
30
0
0
SPLINE
5
FE
100
AcDbEntity
8
1
62
256
6
ByLayer
370
13
48
1
60
0
100
AcDbSpline
70
4
71
3
72
16
73
12
40
0
40
0
40
0
40
0
40
0.463423600832233
40
0.463423600832233
40
0.64624395293283
40
0.64624395293283
40
0.831657283224497
40
0.831657283224497
40
0.947504344290842
40
0.947504344290842
40
1
40
1
40
1
40
1
41
1
10
13.8943375672974
20
-29.9139548464689
30
0
41
1
10
13.8656609252734
20
-29.9485407466771
30
0
41
1
10
13.8263500123909
20
-29.9822690906119
30
0
41
1
10
13.7453819366532
20
-30.023968689625
30
0
41
1
10
13.7190869808859
20
-30.0352936109063
30
0
41
1
10
13.6579862203325
20
-30.0555697561516
30
0
41
1
10
13.6222599905468
20
-30.064724606048
30
0
41
1
10
13.556648346355
20
-30.0751823136667
30
0
41
1
10
13.5289597975987
20
-30.0781795790237
30
0
41
1
10
13.4876776374751
20
-30.0802576981
30
0
41
1
10
13.4744789968601
20
-30.0805927603168
30
0
41
1
10
13.4613248654052
20
-30.0805927603168
30
0
0
SPLINE
5
FF
100
AcDbEntity
8
1
62
256
6
ByLayer
370
13
48
1
60
0
100
AcDbSpline
70
4
71
3
72
12
73
8
40
0
40
0
40
0
40
0
40
0.0158434596562047
40
0.0158434596562047
40
0.566313430232078
40
0.566313430232078
40
1
40
1
40
1
40
1
41
1
10
29.8895651857741
20
31.8681402478379
30
0
41
1
10
29.8904869277011
20
31.8694502657749
30
0
41
1
10
29.891402367301
20
31.870764740869
30
0
41
1
10
29.9234673185029
20
31.9172834196644
30
0
41
1
10
29.9473666169308
20
31.9684159259296
30
0
41
1
10
29.9733248107297
20
32.0630866814825
30
0
41
1
10
29.9792156108742
20
32.1067322409613
30
0
41
1
10
29.9792156108742
20
32.15
30
0
0
SPLINE
5
100
100
AcDbEntity
8
1
62
256
6
ByLayer
370
13
48
1
60
0
100
AcDbSpline
70
4
71
3
72
20
73
16
40
0
40
0
40
0
40
0
40
0.640583359850998
40
0.640583359850998
40
0.759101824518296
40
0.759101824518296
40
0.866718478391681
40
0.866718478391681
40
0.915822063789036
40
0.915822063789036
40
0.95654784483074
40
0.95654784483074
40
0.980212390339213
40
0.980212390339213
40
1
40
1
40
1
40
1
41
1
10
0
20
-6.51832721803839
30
0
41
1
10
0
20
-6.3905144176131
30
0
41
1
10
-0.0024492443047563
20
-6.26067013501375
30
0
41
1
10
-0.0235684783978627
20
-6.10628706371031
30
0
41
1
10
-0.0275227865785439
20
-6.08204171360413
30
0
41
1
10
-0.037358118536531
20
-6.03611892748046
30
0
41
1
10
-0.0429624475522132
20
-6.01422940095449
30
0
41
1
10
-0.0544674411239328
20
-5.9835403761794
30
0
41
1
10
-0.0585956228704845
20
-5.97402407582405
30
0
41
1
10
-0.0677536332753448
20
-5.95770574854203
30
0
41
1
10
-0.0725911733208875
20
-5.95057226823363
30
0
41
1
10
-0.0817350698631003
20
-5.94126730870926
30
0
41
1
10
-0.08549898992257
20
-5.93823126654013
30
0
41
1
10
-0.0928516466983353
20
-5.93414644248165
30
0
41
1
10
-0.0964314327881937
20
-5.93282749585609
30
0
41
1
10
-0.0999999999951342
20
-5.93217709109726
30
0
0
SPLINE
5
101
100
AcDbEntity
8
1
62
256
6
ByLayer
370
13
48
1
60
0
100
AcDbSpline
70
4
71
3
72
10
73
6
40
0
40
0
40
0
40
0
40
0.756194357395622
40
0.756194357395622
40
1
40
1
40
1
40
1
41
1
10
23.4383186059724
20
31.6499999999999
30
0
41
1
10
23.3424488579926
20
31.6499999999999
30
0
41
1
10
23.0895156240309
20
31.6499999999999
30
0
41
1
10
22.8978937162618
20
31.6499999999999
30
0
41
1
10
22.8774115876797
20
31.6499999999999
30
0
41
1
10
22.8774567550346
20
31.6499999999999
30
0
0
SPLINE
5
102
100
AcDbEntity
8
1
62
256
6
ByLayer
370
13
48
1
60
0
100
AcDbSpline
70
4
71
3
72
18
73
14
40
0
40
0
40
0
40
0
40
0.196116142878381
40
0.196116142878381
40
0.387854637399487
40
0.387854637399487
40
0.580900146915785
40
0.580900146915785
40
0.775540164244304
40
0.775540164244304
40
0.969370984696612
40
0.969370984696612
40
1
40
1
40
1
40
1
41
1
10
43.4000001986277
20
40.7249950034464
30
0
41
1
10
43.3999998013724
20
40.7250049965535
30
0
41
1
10
43.3981021043843
20
40.7727422872407
30
0
41
1
10
43.4137928526336
20
40.952920718289
30
0
41
1
10
43.4329865969239
20
41.0866007567463
30
0
41
1
10
43.5377311551588
20
41.3946364938856
30
0
41
1
10
43.6270523945639
20
41.5720919389974
30
0
41
1
10
43.887826376985
20
41.8938880140507
30
0
41
1
10
44.0629330762771
20
42.0406956544276
30
0
41
1
10
44.4551214818332
20
42.245470531712
30
0
41
1
10
44.675782717501
20
42.3070842938482
30
0
41
1
10
44.9297201052792
20
42.3238422803447
30
0
41
1
10
44.9648668224497
20
42.3250000000014
30
0
41
1
10
44.9999999999999
20
42.3250000000014
30
0
0
SPLINE
5
103
100
AcDbEntity
8
1
62
256
6
ByLayer
370
13
48
1
60
0
100
AcDbSpline
70
4
71
3
72
8
73
4
40
0
40
0
40
0
40
0
40
1
40
1
40
1
40
1
41
1
10
53.2946971702201
20
42.7705139329338
30
0
41
1
10
53.3269432484524
20
42.8767563412656
30
0
41
1
10
53.3589421587697
20
42.9831237373109
30
0
41
1
10
53.3907696367
20
43.0895758280092
30
0
0
SPLINE
5
104
100
AcDbEntity
8
1
62
256
6
ByLayer
370
13
48
1
60
0
100
AcDbSpline
70
4
71
3
72
16
73
12
40
0
40
0
40
0
40
0
40
0.113316224833511
40
0.113316224833511
40
0.252990411571522
40
0.252990411571522
40
0.473309013928342
40
0.473309013928342
40
0.896716357718978
40
0.896716357718978
40
1
40
1
40
1
40
1
41
1
10
10.538675134595
20
9.34922131452504
30
0
41
1
10
10.5105874404283
20
9.34922131452504
30
0
41
1
10
10.4821506422371
20
9.35431657338975
30
0
41
1
10
10.4232029654277
20
9.3746777753656
30
0
41
1
10
10.3927526278713
20
9.39213979793405
30
0
41
1
10
10.32308563634
20
9.4450354260438
30
0
41
1
10
10.2871733492351
20
9.48569380431877
30
0
41
1
10
10.1985362549165
20
9.61105923366804
30
0
41
1
10
10.1576291602471
20
9.70465429390069
30
0
41
1
10
10.1190965262403
20
9.82244573862474
30
0
41
1
10
10.1121028162032
20
9.84586944318028
30
0
41
1
10
10.1056624327027
20
9.86941261896612
30
0
0
SPLINE
5
105
100
AcDbEntity
8
1
62
256
6
ByLayer
370
13
48
1
60
0
100
AcDbSpline
70
4
71
3
72
16
73
12
40
0
40
0
40
0
40
0
40
0.11331622483359
40
0.11331622483359
40
0.252990411571565
40
0.252990411571565
40
0.473309013928298
40
0.473309013928298
40
0.896716357718819
40
0.896716357718819
40
1
40
1
40
1
40
1
41
1
10
13.4613248654052
20
-9.34922131452575
30
0
41
1
10
13.4894125595718
20
-9.34922131452575
30
0
41
1
10
13.517849357763
20
-9.35431657339046
30
0
41
1
10
13.5767970345725
20
-9.37467777536634
30
0
41
1
10
13.6072473721288
20
-9.39213979793479
30
0
41
1
10
13.6769143636602
20
-9.44503542604448
30
0
41
1
10
13.7128266507651
20
-9.48569380431945
30
0
41
1
10
13.8014637450836
20
-9.6110592336687
30
0
41
1
10
13.842370839753
20
-9.70465429390129
30
0
41
1
10
13.8809034737598
20
-9.82244573862536
30
0
41
1
10
13.8878971837969
20
-9.84586944318093
30
0
41
1
10
13.8943375672975
20
-9.86941261896683
30
0
0
SPLINE
5
106
100
AcDbEntity
8
1
62
256
6
ByLayer
370
13
48
1
60
0
100
AcDbSpline
70
4
71
3
72
14
73
10
40
0
40
0
40
0
40
0
40
0.039276345591282
40
0.039276345591282
40
0.360592640193544
40
0.360592640193544
40
0.734327616085079
40
0.734327616085079
40
1
40
1
40
1
40
1
41
1
10
24.1408078980725
20
-0.595171744657222
30
0
41
1
10
24.1553294817822
20
-0.586222943166547
30
0
41
1
10
24.1704449107521
20
-0.577034662503394
30
0
41
1
10
24.3144377776112
20
-0.490865760444933
30
0
41
1
10
24.4838662430437
20
-0.399533464729586
30
0
41
1
10
24.9187030124126
20
-0.216100246229303
30
0
41
1
10
25.2030468651656
20
-0.123536796305956
30
0
41
1
10
25.7433138868322
20
-0.0243687682203984
30
0
41
1
10
25.9892285242018
20
0
30
0
41
1
10
26.2401411777888
20
0
30
0
0
SPLINE
5
107
100
AcDbEntity
8
1
62
256
6
ByLayer
370
13
48
1
60
0
100
AcDbSpline
70
4
71
3
72
16
73
12
40
0
40
0
40
0
40
0
40
0.463423600832235
40
0.463423600832235
40
0.646243952932823
40
0.646243952932823
40
0.831657283224488
40
0.831657283224488
40
0.947504344290841
40
0.947504344290841
40
1
40
1
40
1
40
1
41
1
10
13.8943375672974
20
9.86941261896661
30
0
41
1
10
13.8656609252734
20
9.76458357826328
30
0
41
1
10
13.8263500123909
20
9.66039292789981
30
0
41
1
10
13.7453819366532
20
9.52957658281085
30
0
41
1
10
13.7190869808859
20
9.49380155568116
30
0
41
1
10
13.6579862203325
20
9.4294153978768
30
0
41
1
10
13.6222599905468
20
9.40014891155752
30
0
41
1
10
13.5566483463551
20
9.36662118733827
30
0
41
1
10
13.5289597975987
20
9.35698328824282
30
0
41
1
10
13.4876776374751
20
9.35029954873147
30
0
41
1
10
13.4744789968601
20
9.34922131452547
30
0
41
1
10
13.4613248654052
20
9.34922131452547
30
0
0
SPLINE
5
108
100
AcDbEntity
8
1
62
256
6
ByLayer
370
13
48
1
60
0
100
AcDbSpline
70
4
71
3
72
12
73
8
40
0
40
0
40
0
40
0
40
0.25
40
0.25
40
0.500000000000001
40
0.500000000000001
40
1
40
1
40
1
40
1
41
1
10
22.2402934855321
20
-3.96509385800653
30
0
41
1
10
22.2438908762925
20
-3.55287370678698
30
0
41
1
10
22.3049778822516
20
-3.21213893841386
30
0
41
1
10
22.4844396335066
20
-2.58545373876203
30
0
41
1
10
22.6071198081985
20
-2.29685384549242
30
0
41
1
10
23.0750506429917
20
-1.47405338762013
30
0
41
1
10
23.5264546477294
20
-0.97167541153263
30
0
41
1
10
24.1499999999999
20
-0.589529378969615
30
0
0
SPLINE
5
109
100
AcDbEntity
8
1
62
256
6
ByLayer
370
13
48
1
60
0
100
AcDbSpline
70
4
71
3
72
8
73
4
40
0
40
0
40
0
40
0
40
1
40
1
40
1
40
1
41
1
10
23.4383186059721
20
31.6499999999999
30
0
41
1
10
23.5379263335903
20
31.6499999999999
30
0
41
1
10
23.6738714729607
20
31.6499999999999
30
0
41
1
10
23.8413921037386
20
31.6499999999999
30
0
0
SPLINE
5
10A
100
AcDbEntity
8
1
62
256
6
ByLayer
370
13
48
1
60
0
100
AcDbSpline
70
4
71
3
72
16
73
12
40
0
40
0
40
0
40
0
40
0.463423600832246
40
0.463423600832246
40
0.646243952932866
40
0.646243952932866
40
0.831657283224549
40
0.831657283224549
40
0.947504344290898
40
0.947504344290898
40
1
40
1
40
1
40
1
41
1
10
10.1056624327027
20
-9.86941261896638
30
0
41
1
10
10.1343390747267
20
-9.76458357826306
30
0
41
1
10
10.1736499876093
20
-9.66039292789955
30
0
41
1
10
10.2546180633469
20
-9.52957658281059
30
0
41
1
10
10.2809130191142
20
-9.4938015556809
30
0
41
1
10
10.3420137796676
20
-9.42941539787651
30
0
41
1
10
10.3777400094534
20
-9.40014891155727
30
0
41
1
10
10.4433516536451
20
-9.36662118733801
30
0
41
1
10
10.4710402024014
20
-9.35698328824253
30
0
41
1
10
10.512322362525
20
-9.35029954873119
30
0
41
1
10
10.5255210031401
20
-9.34922131452518
30
0
41
1
10
10.5386751345949
20
-9.34922131452518
30
0
0
SPLINE
5
10B
100
AcDbEntity
8
1
62
256
6
ByLayer
370
13
48
1
60
0
100
AcDbSpline
70
4
71
3
72
8
73
4
40
0
40
0
40
0
40
0
40
1
40
1
40
1
40
1
41
1
10
22.2792076144253
20
28.0382860574333
30
0
41
1
10
22.1893532789242
20
27.8680613327795
30
0
41
1
10
22.1437337029699
20
27.685812463755
30
0
41
1
10
22.1408071927175
20
27.4984343324242
30
0
0
SPLINE
5
10C
100
AcDbEntity
8
1
62
256
6
ByLayer
370
13
48
1
60
0
100
AcDbSpline
70
4
71
3
72
16
73
12
40
0
40
0
40
0
40
0
40
0.113316224833511
40
0.113316224833511
40
0.252990411571507
40
0.252990411571507
40
0.47330901392829
40
0.47330901392829
40
0.896716357718895
40
0.896716357718895
40
1
40
1
40
1
40
1
41
1
10
10.5386751345949
20
-30.0805927603169
30
0
41
1
10
10.5105874404283
20
-30.0805927603169
30
0
41
1
10
10.4821506422371
20
-30.0790101689567
30
0
41
1
10
10.4232029654276
20
-30.0726712338969
30
0
41
1
10
10.3927526278713
20
-30.0672275748685
30
0
41
1
10
10.32308563634
20
-30.0506647867053
30
0
41
1
10
10.2871733492351
20
-30.0378702684276
30
0
41
1
10
10.1985362549166
20
-29.9980833386355
30
0
41
1
10
10.1576291602471
20
-29.967975934908
30
0
41
1
10
10.1190965262403
20
-29.9294196064672
30
0
41
1
10
10.1121028162032
20
-29.9217223689309
30
0
41
1
10
10.1056624327027
20
-29.9139548464691
30
0
0
SPLINE
5
10D
100
AcDbEntity
8
1
62
256
6
ByLayer
370
13
48
1
60
0
100
AcDbSpline
70
4
71
3
72
8
73
4
40
0
40
0
40
0
40
0
40
1
40
1
40
1
40
1
41
1
10
23.4340189683383
20
32.1500000000011
30
0
41
1
10
23.4354873422857
20
32.1552344083989
30
0
41
1
10
23.4369206179078
20
32.1604787898218
30
0
41
1
10
23.4383186059721
20
32.1657324345277
30
0
0
SPLINE
5
10E
100
AcDbEntity
8
1
62
256
6
ByLayer
370
13
48
1
60
0
100
AcDbSpline
70
4
71
3
72
8
73
4
40
0
40
0
40
0
40
0
40
1
40
1
40
1
40
1
41
1
10
25.8999999999999
20
41.4025173620656
30
0
41
1
10
25.0785203382041
20
38.3238275802897
30
0
41
1
10
24.2576989384009
20
35.2449669825697
30
0
41
1
10
23.4383186059721
20
32.1657324345277
30
0
0
SPLINE
5
10F
100
AcDbEntity
8
1
62
256
6
ByLayer
370
13
48
1
60
0
100
AcDbSpline
70
4
71
3
72
8
73
4
40
0
40
0
40
0
40
0
40
1
40
1
40
1
40
1
41
1
10
53.3907696367
20
43.9104241719908
30
0
41
1
10
53.3589421587697
20
44.0168762626891
30
0
41
1
10
53.3269432484524
20
44.1232436587344
30
0
41
1
10
53.2946971702201
20
44.2294860670662
30
0
0
SPLINE
5
110
100
AcDbEntity
8
1
62
256
6
ByLayer
370
13
48
1
60
0
100
AcDbSpline
70
4
71
3
72
20
73
16
40
0
40
0
40
0
40
0
40
0.0008912074095844
40
0.0008912074095844
40
0.0228218466435629
40
0.0228218466435629
40
0.0494368103977126
40
0.0494368103977126
40
0.09429613773502
40
0.09429613773502
40
0.228604296350284
40
0.228604296350284
40
0.792194931703677
40
0.792194931703677
40
1
40
1
40
1
40
1
41
1
10
-0.0999999999996817
20
5.93218067753207
30
0
41
1
10
-0.0998347555558325
20
5.93221079489533
30
0
41
1
10
-0.0996695660888633
20
5.9322422659819
30
0
41
1
10
-0.0955006986490048
20
5.93307106226061
30
0
41
1
10
-0.0914919861691033
20
5.93472019870686
30
0
41
1
10
-0.083355773171462
20
5.93977244020942
30
0
41
1
10
-0.0792517524984078
20
5.9435121169833
30
0
41
1
10
-0.0695520361302329
20
5.95460796353962
30
0
41
1
10
-0.0645769135490184
20
5.96283654379204
30
0
41
1
10
-0.047716499018577
20
5.99630228539485
30
0
41
1
10
-0.0402705175323206
20
6.02401260946507
30
0
41
1
10
-0.0086504361435402
20
6.16478955582002
30
0
41
1
10
-0.0045491916418712
20
6.28040085326893
30
0
41
1
10
-0.0004670060178569
20
6.43515258622483
30
0
41
1
10
0
20
6.4768143630059
30
0
41
1
10
0
20
6.5183304588368
30
0
0
SPLINE
5
111
100
AcDbEntity
8
1
62
256
6
ByLayer
370
13
48
1
60
0
100
AcDbSpline
70
4
71
3
72
20
73
16
40
0
40
0
40
0
40
0
40
0.0509366213966426
40
0.118143659490793
40
0.185350697584944
40
0.252557735679095
40
0.386971811867396
40
0.521385888055698
40
0.588592926149849
40
0.655799964244
40
0.790214040432301
40
0.857421078526452
40
0.924628116620603
40
0.991835154714754
40
1
40
1
40
1
40
1
41
0.874315756983283
10
-0.0999999999996468
20
-21.8971034223363
30
0
41
0.874315756983283
10
-0.0999999999996468
20
-21.8986736786185
30
0
41
0.874315756983283
10
-0.0999999999995818
20
-21.8552921794987
30
0
41
0.874315756983283
10
-0.0999999999996143
20
-21.6333957601054
30
0
41
0.874315756983283
10
-0.0999999999996143
20
-21.2218112502424
30
0
41
0.874315756983283
10
-0.0999999999996143
20
-20.4659250881949
30
0
41
0.874315756983283
10
-0.0999999999996143
20
-19.1618572175681
30
0
41
0.874315756983283
10
-0.0999999999996143
20
-17.4318493644904
30
0
41
0.874315756983283
10
-0.0999999999996143
20
-15.8105341716199
30
0
41
0.874315756983283
10
-0.0999999999996143
20
-14.0363164146728
30
0
41
0.874315756983283
10
-0.0999999999996143
20
-12.0391433543184
30
0
41
0.874315756983283
10
-0.0999999999996143
20
-9.82418264807947
30
0
41
0.874315756983283
10
-0.0999999999996143
20
-8.0565608210604
30
0
41
0.874315756983283
10
-0.0999999999996143
20
-6.73213673632531
30
0
41
0.874315756983283
10
-0.0999999999996143
20
-6.0105893842287
30
0
41
0.874315756983283
10
-0.0999999999996143
20
-5.93217709109613
30
0
0
SPLINE
5
112
100
AcDbEntity
8
1
62
256
6
ByLayer
370
13
48
1
60
0
100
AcDbSpline
70
4
71
3
72
20
73
16
40
0
40
0
40
0
40
0
40
0.0081647521868055
40
0.0753719765635945
40
0.142579200940384
40
0.209786425317173
40
0.344200874070751
40
0.41140809844754
40
0.478615322824329
40
0.613029771577907
40
0.747444220331485
40
0.814651444708274
40
0.881858669085063
40
0.949065893461852
40
1
40
1
40
1
40
1
41
0.874315756983292
10
-0.0999999999996459
20
5.93218067753217
30
0
41
0.874315756983292
10
-0.0999999999996459
20
6.01059185206909
30
0
41
0.874315756983292
10
-0.0999999999996459
20
6.73213804659123
30
0
41
0.874315756983292
10
-0.0999999999996459
20
8.05656070083063
30
0
41
0.874315756983292
10
-0.0999999999996459
20
9.82418283625996
30
0
41
0.874315756983292
10
-0.0999999999996459
20
12.0391436023145
30
0
41
0.874315756983292
10
-0.0999999999996459
20
14.0363164219537
30
0
41
0.874315756983292
10
-0.0999999999996459
20
15.8105343678304
30
0
41
0.874315756983292
10
-0.0999999999996459
20
17.43184889502
30
0
41
0.874315756983292
10
-0.0999999999996459
20
19.1618577460512
30
0
41
0.874315756983292
10
-0.0999999999996459
20
20.4659241239111
30
0
41
0.874315756983292
10
-0.0999999999996459
20
21.2218114181415
30
0
41
0.874315756983292
10
-0.0999999999996459
20
21.6333953431699
30
0
41
0.874315756983292
10
-0.0999999999996459
20
21.8552882881972
30
0
41
0.874315756983292
10
-0.0999999999996459
20
21.8986715088597
30
0
41
0.874315756983292
10
-0.0999999999996133
20
21.8971035168972
30
0
0
SPLINE
5
113
100
AcDbEntity
8
1
62
256
6
ByLayer
370
13
48
1
60
0
100
AcDbSpline
70
4
71
3
72
8
73
4
40
0
40
0
40
0
40
0
40
1
40
1
40
1
40
1
41
1
10
53.2946971702203
20
44.2294860670663
30
0
41
1
10
53.2905400018884
20
44.2431828512839
30
0
41
1
10
53.2858826238497
20
44.2566440071106
30
0
41
1
10
53.2807590907913
20
44.2697851262738
30
0
0
SPLINE
5
114
100
AcDbEntity
8
1
62
256
6
ByLayer
370
13
48
1
60
0
100
AcDbSpline
70
4
71
3
72
10
73
6
40
0
40
0
40
0
40
0
40
0.5
40
0.5
40
1
40
1
40
1
40
1
41
1
10
22.2792076144253
20
28.0382860574334
30
0
41
1
10
22.3971651817654
20
28.2617510055557
30
0
41
1
10
22.5905525560152
20
28.472320608202
30
0
41
1
10
23.0533784493956
20
29.0453946359237
30
0
41
1
10
23.3279131268756
20
29.4122118514931
30
0
41
1
10
23.4383186059721
20
29.9006726549677
30
0
0
SPLINE
5
115
100
AcDbEntity
8
1
62
256
6
ByLayer
370
13
48
1
60
0
100
AcDbSpline
70
4
71
3
72
8
73
4
40
0
40
0
40
0
40
0
40
1
40
1
40
1
40
1
41
1
10
53.2807590907911
20
44.2697851262737
30
0
41
1
10
53.2278839911991
20
44.4054020875745
30
0
41
1
10
53.174403153259
20
44.5406380755941
30
0
41
1
10
53.1196350139087
20
44.6749999999997
30
0
0
SPLINE
5
116
100
AcDbEntity
8
1
62
256
6
ByLayer
370
13
48
1
60
0
100
AcDbSpline
70
4
71
3
72
16
73
12
40
0
40
0
40
0
40
0
40
0.46342360083228
40
0.46342360083228
40
0.646243952932885
40
0.646243952932885
40
0.831657283224549
40
0.831657283224549
40
0.947504344290891
40
0.947504344290891
40
1
40
1
40
1
40
1
41
1
10
10.1056624327028
20
29.913954846469
30
0
41
1
10
10.1343390747267
20
29.9485407466772
30
0
41
1
10
10.1736499876093
20
29.982269090612
30
0
41
1
10
10.254618063347
20
30.0239686896251
30
0
41
1
10
10.2809130191142
20
30.0352936109064
30
0
41
1
10
10.3420137796677
20
30.0555697561517
30
0
41
1
10
10.3777400094534
20
30.0647246060481
30
0
41
1
10
10.4433516536451
20
30.0751823136668
30
0
41
1
10
10.4710402024014
20
30.0781795790238
30
0
41
1
10
10.512322362525
20
30.0802576981002
30
0
41
1
10
10.5255210031401
20
30.0805927603169
30
0
41
1
10
10.538675134595
20
30.0805927603169
30
0
0
SPLINE
5
117
100
AcDbEntity
8
1
62
256
6
ByLayer
370
13
48
1
60
0
100
AcDbSpline
70
4
71
3
72
8
73
4
40
0
40
0
40
0
40
0
40
1
40
1
40
1
40
1
41
1
10
53.1196350139086
20
42.325
30
0
41
1
10
53.1744031532589
20
42.4593619244057
30
0
41
1
10
53.2278839911991
20
42.5945979124254
30
0
41
1
10
53.2807590907911
20
42.7302148737263
30
0
0
SPLINE
5
118
100
AcDbEntity
8
1
62
256
6
ByLayer
370
13
48
1
60
0
100
AcDbSpline
70
4
71
3
72
8
73
4
40
0
40
0
40
0
40
0
40
1
40
1
40
1
40
1
41
1
10
26.7714055786748
20
44.6749999999999
30
0
41
1
10
26.4819042795197
20
43.5857530198519
30
0
41
1
10
26.1911332124363
20
42.4936080949804
30
0
41
1
10
25.9
20
41.4025173620656
30
0
0
SPLINE
5
119
100
AcDbEntity
8
1
62
256
6
ByLayer
370
13
48
1
60
0
100
AcDbSpline
70
4
71
3
72
8
73
4
40
0
40
0
40
0
40
0
40
1
40
1
40
1
40
1
41
1
10
53.2807590907913
20
42.7302148737262
30
0
41
1
10
53.2858826238497
20
42.7433559928894
30
0
41
1
10
53.2905400018884
20
42.7568171487161
30
0
41
1
10
53.2946971702203
20
42.7705139329337
30
0
0
SPLINE
5
11A
100
AcDbEntity
8
1
62
256
6
ByLayer
370
13
48
1
60
0
100
AcDbSpline
70
4
71
3
72
16
73
12
40
0
40
0
40
0
40
0
40
0.113316224833586
40
0.113316224833586
40
0.252990411571575
40
0.252990411571575
40
0.473309013928371
40
0.473309013928371
40
0.896716357718909
40
0.896716357718909
40
1
40
1
40
1
40
1
41
1
10
13.4613248654052
20
30.0805927603167
30
0
41
1
10
13.4894125595719
20
30.0805927603167
30
0
41
1
10
13.517849357763
20
30.0790101689565
30
0
41
1
10
13.5767970345725
20
30.0726712338967
30
0
41
1
10
13.6072473721288
20
30.0672275748683
30
0
41
1
10
13.6769143636602
20
30.050664786705
30
0
41
1
10
13.7128266507651
20
30.0378702684273
30
0
41
1
10
13.8014637450836
20
29.9980833386352
30
0
41
1
10
13.8423708397531
20
29.9679759349078
30
0
41
1
10
13.8809034737598
20
29.929419606467
30
0
41
1
10
13.8878971837969
20
29.9217223689307
30
0
41
1
10
13.8943375672975
20
29.9139548464689
30
0
0
LINE
5
70
100
AcDbEntity
8
1
62
256
6
ByLayer
370
13
48
1
60
0
100
AcDbLine
10
0.3
20
-31.5
30
0
11
22
21
-31.5
31
0
39
0
210
0
220
0
230
1
0
LINE
5
72
100
AcDbEntity
8
1
62
256
6
ByLayer
370
13
48
1
60
0
100
AcDbLine
10
22.279208
20
31.5
30
0
11
0.3
21
31.5
31
0
39
0
210
0
220
0
230
1
0
LINE
5
73
100
AcDbEntity
8
1
62
256
6
ByLayer
370
13
48
1
60
0
100
AcDbLine
10
0.3
20
31.5
30
0
11
0
21
31.2
31
0
39
0
210
0
220
0
230
1
0
LINE
5
74
100
AcDbEntity
8
1
62
256
6
ByLayer
370
13
48
1
60
0
100
AcDbLine
10
0
20
-31.2
30
0
11
0.3
21
-31.5
31
0
39
0
210
0
220
0
230
1
0
LINE
5
75
100
AcDbEntity
8
80
62
256
6
ByLayer
370
18
48
1
60
0
100
AcDbLine
10
0
20
0
30
0
11
-5
21
0
31
0
39
0
210
0
220
0
230
1
0
LINE
5
76
100
AcDbEntity
8
81
62
256
6
ByLayer
370
18
48
1
60
0
100
AcDbLine
10
60
20
45
30
0
11
65
21
45
31
0
39
0
210
0
220
0
230
1
0
LINE
5
77
100
AcDbEntity
8
SK1
62
256
6
ByLayer
370
13
48
1
60
0
100
AcDbLine
10
-0.194977
20
-21.870041
30
0
11
-0.194977
21
-21.86392
31
0
39
0
210
0
220
0
230
1
0
LINE
5
79
100
AcDbEntity
8
SK1
62
256
6
ByLayer
370
13
48
1
60
0
100
AcDbLine
10
-1.79504
20
-21.830277
30
0
11
-1.79504
21
-21.823125
31
0
39
0
210
0
220
0
230
1
0
LINE
5
7A
100
AcDbEntity
8
SK1
62
256
6
ByLayer
370
13
48
1
60
0
100
AcDbLine
10
-1.79504
20
21.823125
30
0
11
-1.79504
21
21.830277
31
0
39
0
210
0
220
0
230
1
0
LINE
5
7B
100
AcDbEntity
8
SK1
62
256
6
ByLayer
370
13
48
1
60
0
100
AcDbLine
10
-0.1
20
5.932181
30
0
11
-0.1
21
-5.932177
31
0
39
0
210
0
220
0
230
1
0
LINE
5
7C
100
AcDbEntity
8
SK1
62
256
6
ByLayer
370
13
48
1
60
0
100
AcDbLine
10
-0.194977
20
21.86392
30
0
11
-0.194977
21
21.87004
31
0
39
0
210
0
220
0
230
1
0
LINE
5
7D
100
AcDbEntity
8
SK1
62
256
6
ByLayer
370
13
48
1
60
0
100
AcDbLine
10
-1.315435
20
-4.803123
30
0
11
-1.315435
21
4.803126
31
0
39
0
210
0
220
0
230
1
0
LINE
5
7E
100
AcDbEntity
8
1
62
256
6
ByLayer
370
13
48
1
60
0
100
AcDbLine
10
13.461325
20
-30.080593
30
0
11
10.538675
21
-30.080593
31
0
39
0
210
0
220
0
230
1
0
LINE
5
7F
100
AcDbEntity
8
1
62
256
6
ByLayer
370
13
48
1
60
0
100
AcDbLine
10
13.461325
20
9.349221
30
0
11
10.538675
21
9.349221
31
0
39
0
210
0
220
0
230
1
0
LINE
5
80
100
AcDbEntity
8
1
62
256
6
ByLayer
370
13
48
1
60
0
100
AcDbLine
10
24.15
20
-0.589529
30
0
11
24.15
21
31.65
31
0
39
0
210
0
220
0
230
1
0
LINE
5
81
100
AcDbEntity
8
1
62
256
6
ByLayer
370
13
48
1
60
0
100
AcDbLine
10
10.538675
20
-9.349221
30
0
11
13.461325
21
-9.349221
31
0
39
0
210
0
220
0
230
1
0
LINE
5
82
100
AcDbEntity
8
1
62
256
6
ByLayer
370
13
48
1
60
0
100
AcDbLine
10
25.9
20
41.402517
30
0
11
25.9
21
32.15
31
0
39
0
210
0
220
0
230
1
0
LINE
5
83
100
AcDbEntity
8
1
62
256
6
ByLayer
370
13
48
1
60
0
100
AcDbLine
10
29.65
20
0
30
0
11
29.65
21
31.652506
31
0
39
0
210
0
220
0
230
1
0
LINE
5
84
100
AcDbEntity
8
1
62
256
6
ByLayer
370
13
48
1
60
0
100
AcDbLine
10
43.4
20
31
30
0
11
43.4
21
40.725
31
0
39
0
210
0
220
0
230
1
0
LINE
5
85
100
AcDbEntity
8
1
62
256
6
ByLayer
370
13
48
1
60
0
100
AcDbLine
10
24.150018
20
31.65
30
0
11
29.6
21
31.65
31
0
39
0
210
0
220
0
230
1
0
LINE
5
86
100
AcDbEntity
8
1
62
256
6
ByLayer
370
13
48
1
60
0
100
AcDbLine
10
13.461325
20
-30.080593
30
0
11
13.461325
21
-9.349221
31
0
39
0
210
0
220
0
230
1
0
LINE
5
87
100
AcDbEntity
8
1
62
256
6
ByLayer
370
13
48
1
60
0
100
AcDbLine
10
24.15
20
31.65
30
0
11
23.841392
21
31.65
31
0
39
0
210
0
220
0
230
1
0
LINE
5
88
100
AcDbEntity
8
1
62
256
6
ByLayer
370
13
48
1
60
0
100
AcDbLine
10
49.8
20
44.675
30
0
11
53.119635
21
44.675
31
0
39
0
210
0
220
0
230
1
0
LINE
5
89
100
AcDbEntity
8
1
62
256
6
ByLayer
370
13
48
1
60
0
100
AcDbLine
10
29.979216
20
32.15
30
0
11
29.979216
21
44.675
31
0
39
0
210
0
220
0
230
1
0
LINE
5
8A
100
AcDbEntity
8
1
62
256
6
ByLayer
370
13
48
1
60
0
100
AcDbLine
10
39.339306
20
44.675
30
0
11
49.8
21
44.675
31
0
39
0
210
0
220
0
230
1
0
LINE
5
8B
100
AcDbEntity
8
1
62
256
6
ByLayer
370
13
48
1
60
0
100
AcDbLine
10
10.105662
20
-29.913955
30
0
11
10.105662
21
-9.869413
31
0
39
0
210
0
220
0
230
1
0
LINE
5
8C
100
AcDbEntity
8
1
62
256
6
ByLayer
370
13
48
1
60
0
100
AcDbLine
10
13.894338
20
9.869413
30
0
11
13.894338
21
29.913955
31
0
39
0
210
0
220
0
230
1
0
LINE
5
8D
100
AcDbEntity
8
1
62
256
6
ByLayer
370
13
48
1
60
0
100
AcDbLine
10
22.240293
20
-3.965094
30
0
11
22.140807
21
-15.365094
31
0
39
0
210
0
220
0
230
1
0
LINE
5
8E
100
AcDbEntity
8
1
62
256
6
ByLayer
370
13
48
1
60
0
100
AcDbLine
10
10.538675
20
30.080593
30
0
11
13.461325
21
30.080593
31
0
39
0
210
0
220
0
230
1
0
LINE
5
8F
100
AcDbEntity
8
1
62
256
6
ByLayer
370
13
48
1
60
0
100
AcDbLine
10
22.279208
20
31.5
30
0
11
22.279208
21
28.038286
31
0
39
0
210
0
220
0
230
1
0
LINE
5
90
100
AcDbEntity
8
1
62
256
6
ByLayer
370
13
48
1
60
0
100
AcDbLine
10
30.1
20
44.675
30
0
11
29.979216
21
44.675
31
0
39
0
210
0
220
0
230
1
0
LINE
5
91
100
AcDbEntity
8
1
62
256
6
ByLayer
370
13
48
1
60
0
100
AcDbLine
10
25.9
20
32.15
30
0
11
23.434019
21
32.15
31
0
39
0
210
0
220
0
230
1
0
LINE
5
92
100
AcDbEntity
8
1
62
256
6
ByLayer
370
13
48
1
60
0
100
AcDbLine
10
42.266947
20
17.000204
30
0
11
43.4
21
31
31
0
39
0
210
0
220
0
230
1
0
LINE
5
93
100
AcDbEntity
8
1
62
256
6
ByLayer
370
13
48
1
60
0
100
AcDbLine
10
39.339306
20
42.325
30
0
11
39.339306
21
44.675
31
0
39
0
210
0
220
0
230
1
0
LINE
5
94
100
AcDbEntity
8
1
62
256
6
ByLayer
370
13
48
1
60
0
100
AcDbLine
10
53.119516
20
42.325
30
0
11
56.186272
21
42.325
31
0
39
0
210
0
220
0
230
1
0
LINE
5
95
100
AcDbEntity
8
1
62
256
6
ByLayer
370
13
48
1
60
0
100
AcDbLine
10
29.65
20
0
30
0
11
38.4
21
0
31
0
39
0
210
0
220
0
230
1
0
LINE
5
96
100
AcDbEntity
8
1
62
256
6
ByLayer
370
13
48
1
60
0
100
AcDbLine
10
10.105662
20
9.869413
30
0
11
10.105662
21
29.913955
31
0
39
0
210
0
220
0
230
1
0
LINE
5
97
100
AcDbEntity
8
1
62
256
6
ByLayer
370
13
48
1
60
0
100
AcDbLine
10
10.538675
20
9.349221
30
0
11
10.538675
21
30.080593
31
0
39
0
210
0
220
0
230
1
0
LINE
5
98
100
AcDbEntity
8
1
62
256
6
ByLayer
370
13
48
1
60
0
100
AcDbLine
10
-0.1
20
5.932181
30
0
11
-0.1
21
-5.932177
31
0
39
0
210
0
220
0
230
1
0
LINE
5
99
100
AcDbEntity
8
1
62
256
6
ByLayer
370
13
48
1
60
0
100
AcDbLine
10
38.4
20
0
30
0
11
42.266947
21
17.000204
31
0
39
0
210
0
220
0
230
1
0
LINE
5
9A
100
AcDbEntity
8
1
62
256
6
ByLayer
370
13
48
1
60
0
100
AcDbLine
10
0
20
31.2
30
0
11
0
21
-31.2
31
0
39
0
210
0
220
0
230
1
0
LINE
5
9B
100
AcDbEntity
8
1
62
256
6
ByLayer
370
13
48
1
60
0
100
AcDbLine
10
10.538675
20
-30.080593
30
0
11
10.538675
21
-9.349221
31
0
39
0
210
0
220
0
230
1
0
LINE
5
9C
100
AcDbEntity
8
1
62
256
6
ByLayer
370
13
48
1
60
0
100
AcDbLine
10
25.9
20
31.65
30
0
11
25.9
21
32.15
31
0
39
0
210
0
220
0
230
1
0
LINE
5
9D
100
AcDbEntity
8
1
62
256
6
ByLayer
370
13
48
1
60
0
100
AcDbLine
10
49.8
20
42.325
30
0
11
49.8
21
44.675
31
0
39
0
210
0
220
0
230
1
0
LINE
5
9E
100
AcDbEntity
8
1
62
256
6
ByLayer
370
13
48
1
60
0
100
AcDbLine
10
0.3
20
31.5
30
0
11
0.3
21
-31.5
31
0
39
0
210
0
220
0
230
1
0
LINE
5
9F
100
AcDbEntity
8
1
62
256
6
ByLayer
370
13
48
1
60
0
100
AcDbLine
10
28.569184
20
32.15
30
0
11
25.9
21
32.15
31
0
39
0
210
0
220
0
230
1
0
LINE
5
A0
100
AcDbEntity
8
1
62
256
6
ByLayer
370
13
48
1
60
0
100
AcDbLine
10
53.119635
20
42.325
30
0
11
49.8
21
42.325
31
0
39
0
210
0
220
0
230
1
0
LINE
5
A1
100
AcDbEntity
8
1
62
256
6
ByLayer
370
13
48
1
60
0
100
AcDbLine
10
22.080515
20
-22.273864
30
0
11
22.140807
21
-15.365094
31
0
39
0
210
0
220
0
230
1
0
LINE
5
A2
100
AcDbEntity
8
1
62
256
6
ByLayer
370
13
48
1
60
0
100
AcDbLine
10
29.336699
20
31.649445
30
0
11
29.336699
21
44.675
31
0
39
0
210
0
220
0
230
1
0
LINE
5
A3
100
AcDbEntity
8
1
62
256
6
ByLayer
370
13
48
1
60
0
100
AcDbLine
10
53.119588
20
44.675
30
0
11
56.186295
21
44.675
31
0
39
0
210
0
220
0
230
1
0
LINE
5
A4
100
AcDbEntity
8
1
62
256
6
ByLayer
370
13
48
1
60
0
100
AcDbLine
10
28.569184
20
44.675
30
0
11
29.336699
21
44.675
31
0
39
0
210
0
220
0
230
1
0
LINE
5
A5
100
AcDbEntity
8
1
62
256
6
ByLayer
370
13
48
1
60
0
100
AcDbLine
10
28.569184
20
44.675
30
0
11
26.771406
21
44.675
31
0
39
0
210
0
220
0
230
1
0
LINE
5
A6
100
AcDbEntity
8
1
62
256
6
ByLayer
370
13
48
1
60
0
100
AcDbLine
10
22.080515
20
-22.273864
30
0
11
22
21
-31.5
31
0
39
0
210
0
220
0
230
1
0
LINE
5
A7
100
AcDbEntity
8
1
62
256
6
ByLayer
370
13
48
1
60
0
100
AcDbLine
10
30.1
20
44.675
30
0
11
39.339306
21
44.675
31
0
39
0
210
0
220
0
230
1
0
LINE
5
A8
100
AcDbEntity
8
1
62
256
6
ByLayer
370
13
48
1
60
0
100
AcDbLine
10
30.1
20
32.15
30
0
11
30.1
21
44.675
31
0
39
0
210
0
220
0
230
1
0
LINE
5
A9
100
AcDbEntity
8
1
62
256
6
ByLayer
370
13
48
1
60
0
100
AcDbLine
10
13.461325
20
9.349221
30
0
11
13.461325
21
30.080593
31
0
39
0
210
0
220
0
230
1
0
LINE
5
AA
100
AcDbEntity
8
1
62
256
6
ByLayer
370
13
48
1
60
0
100
AcDbLine
10
29.649983
20
0
30
0
11
26.240141
21
0
31
0
39
0
210
0
220
0
230
1
0
LINE
5
AB
100
AcDbEntity
8
1
62
256
6
ByLayer
370
13
48
1
60
0
100
AcDbLine
10
29.979255
20
44.675
30
0
11
29.336699
21
44.675
31
0
39
0
210
0
220
0
230
1
0
LINE
5
AC
100
AcDbEntity
8
1
62
256
6
ByLayer
370
13
48
1
60
0
100
AcDbLine
10
22.140807
20
27.498434
30
0
11
22.140807
21
-15.365094
31
0
39
0
210
0
220
0
230
1
0
LINE
5
AD
100
AcDbEntity
8
1
62
256
6
ByLayer
370
13
48
1
60
0
100
AcDbLine
10
49.8
20
42.325
30
0
11
45
21
42.325
31
0
39
0
210
0
220
0
230
1
0
LINE
5
AE
100
AcDbEntity
8
1
62
256
6
ByLayer
370
13
48
1
60
0
100
AcDbLine
10
13.894338
20
-29.913955
30
0
11
13.894338
21
-9.869413
31
0
39
0
210
0
220
0
230
1
0
LINE
5
AF
100
AcDbEntity
8
1
62
256
6
ByLayer
370
13
48
1
60
0
100
AcDbLine
10
23.438319
20
29.900673
30
0
11
23.438319
21
31.65
31
0
39
0
210
0
220
0
230
1
0
LINE
5
B0
100
AcDbEntity
8
1
62
256
6
ByLayer
370
13
48
1
60
0
100
AcDbLine
10
29.889565
20
31.86814
30
0
11
29.889565
21
31.770046
31
0
39
0
210
0
220
0
230
1
0
LINE
5
B1
100
AcDbEntity
8
1
62
256
6
ByLayer
370
13
48
1
60
0
100
AcDbLine
10
28.569184
20
32.15
30
0
11
28.569184
21
44.675
31
0
39
0
210
0
220
0
230
1
0
LINE
5
B2
100
AcDbEntity
8
1
62
256
6
ByLayer
370
13
48
1
60
0
100
AcDbLine
10
30.1
20
32.15
30
0
11
29.979216
21
32.15
31
0
39
0
210
0
220
0
230
1
0
LINE
5
B3
100
AcDbEntity
8
1
62
256
6
ByLayer
370
13
48
1
60
0
100
AcDbLine
10
43.4
20
40.725
30
0
11
42.128821
21
40.725
31
0
39
0
210
0
220
0
230
1
0
LINE
5
B4
100
AcDbEntity
8
1
62
256
6
ByLayer
370
13
48
1
60
0
100
AcDbLine
10
45
20
42.325
30
0
11
39.339306
21
42.325
31
0
39
0
210
0
220
0
230
1
0
LINE
5
B5
100
AcDbEntity
8
1
62
256
6
ByLayer
370
18
48
1
60
0
100
AcDbLine
10
54.018406
20
44.65
30
0
11
53.129459
21
44.65
31
0
39
0
210
0
220
0
230
1
0
LINE
5
B6
100
AcDbEntity
8
1
62
256
6
ByLayer
370
18
48
1
60
0
100
AcDbLine
10
54.018406
20
42.35
30
0
11
53.129459
21
42.35
31
0
39
0
210
0
220
0
230
1
0
LINE
5
B7
100
AcDbEntity
8
1
62
256
6
ByLayer
370
18
48
1
60
0
100
AcDbLine
10
43.81369
20
44.675
30
0
11
43.5
21
44.856109
31
0
39
0
210
0
220
0
230
1
0
LINE
5
B8
100
AcDbEntity
8
1
62
256
6
ByLayer
370
18
48
1
60
0
100
AcDbLine
10
40
20
44.674997
30
0
11
40
21
44.8
31
0
39
0
210
0
220
0
230
1
0
LINE
5
B9
100
AcDbEntity
8
1
62
256
6
ByLayer
370
13
48
1
60
0
100
AcDbLine
10
53.198526
20
44.476449
30
0
11
54.018406
21
44.476449
31
0
39
0
210
0
220
0
230
1
0
LINE
5
BA
100
AcDbEntity
8
1
62
256
6
ByLayer
370
13
48
1
60
0
100
AcDbLine
10
53.218941
20
44.425146
30
0
11
54.027452
21
44.425146
31
0
39
0
210
0
220
0
230
1
0
LINE
5
BB
100
AcDbEntity
8
1
62
256
6
ByLayer
370
13
48
1
60
0
100
AcDbLine
10
53.218941
20
42.574854
30
0
11
54.027452
21
42.574854
31
0
39
0
210
0
220
0
230
1
0
LINE
5
BC
100
AcDbEntity
8
1
62
256
6
ByLayer
370
13
48
1
60
0
100
AcDbLine
10
53.198526
20
42.523551
30
0
11
54.018406
21
42.523551
31
0
39
0
210
0
220
0
230
1
0
LINE
5
BD
100
AcDbEntity
8
1
62
256
6
ByLayer
370
13
48
1
60
0
100
AcDbLine
10
53.439935
20
43.32899
30
0
11
54.301935
21
43.32899
31
0
39
0
210
0
220
0
230
1
0
LINE
5
BE
100
AcDbEntity
8
1
62
256
6
ByLayer
370
13
48
1
60
0
100
AcDbLine
10
53.439935
20
43.67101
30
0
11
54.301935
21
43.67101
31
0
39
0
210
0
220
0
230
1
0
LINE
5
BF
100
AcDbEntity
8
1
62
256
6
ByLayer
370
18
48
1
60
0
100
AcDbLine
10
54.018406
20
44.65
30
0
11
55.2
21
44.65
31
0
39
0
210
0
220
0
230
1
0
LINE
5
C0
100
AcDbEntity
8
1
62
256
6
ByLayer
370
18
48
1
60
0
100
AcDbLine
10
55.2
20
44.65
30
0
11
56.143008
21
44.65
31
0
39
0
210
0
220
0
230
1
0
LINE
5
C1
100
AcDbEntity
8
1
62
256
6
ByLayer
370
18
48
1
60
0
100
AcDbLine
10
54.018406
20
44.476449
30
0
11
54.018406
21
44.65
31
0
39
0
210
0
220
0
230
1
0
LINE
5
C2
100
AcDbEntity
8
1
62
256
6
ByLayer
370
18
48
1
60
0
100
AcDbLine
10
54.027452
20
44.425146
30
0
11
54.301935
21
43.67101
31
0
39
0
210
0
220
0
230
1
0
LINE
5
C3
100
AcDbEntity
8
1
62
256
6
ByLayer
370
18
48
1
60
0
100
AcDbLine
10
55.2
20
44.65
30
0
11
55.2
21
42.35
31
0
39
0
210
0
220
0
230
1
0
LINE
5
C4
100
AcDbEntity
8
1
62
256
6
ByLayer
370
18
48
1
60
0
100
AcDbLine
10
60
20
42.2
30
0
11
60
21
44.8
31
0
39
0
210
0
220
0
230
1
0
LINE
5
C5
100
AcDbEntity
8
1
62
256
6
ByLayer
370
18
48
1
60
0
100
AcDbLine
10
59.791276
20
44.99981
30
0
11
56.5
21
44.856109
31
0
39
0
210
0
220
0
230
1
0
LINE
5
C6
100
AcDbEntity
8
1
62
256
6
ByLayer
370
18
48
1
60
0
100
AcDbLine
10
56.143008
20
44.65
30
0
11
56.5
21
44.856109
31
0
39
0
210
0
220
0
230
1
0
LINE
5
C7
100
AcDbEntity
8
1
62
256
6
ByLayer
370
18
48
1
60
0
100
AcDbLine
10
40.208724
20
44.99981
30
0
11
43.5
21
44.856109
31
0
39
0
210
0
220
0
230
1
0
LINE
5
C8
100
AcDbEntity
8
1
62
256
6
ByLayer
370
18
48
1
60
0
100
AcDbLine
10
59.791276
20
42.00019
30
0
11
56.5
21
42.143891
31
0
39
0
210
0
220
0
230
1
0
LINE
5
C9
100
AcDbEntity
8
1
62
256
6
ByLayer
370
18
48
1
60
0
100
AcDbLine
10
54.018406
20
42.35
30
0
11
55.2
21
42.35
31
0
39
0
210
0
220
0
230
1
0
LINE
5
CA
100
AcDbEntity
8
1
62
256
6
ByLayer
370
18
48
1
60
0
100
AcDbLine
10
54.018406
20
42.523551
30
0
11
54.018406
21
42.35
31
0
39
0
210
0
220
0
230
1
0
LINE
5
CB
100
AcDbEntity
8
1
62
256
6
ByLayer
370
18
48
1
60
0
100
AcDbLine
10
55.2
20
42.35
30
0
11
56.143008
21
42.35
31
0
39
0
210
0
220
0
230
1
0
LINE
5
CC
100
AcDbEntity
8
1
62
256
6
ByLayer
370
18
48
1
60
0
100
AcDbLine
10
56.143008
20
42.35
30
0
11
56.5
21
42.143891
31
0
39
0
210
0
220
0
230
1
0
LINE
5
CD
100
AcDbEntity
8
1
62
256
6
ByLayer
370
18
48
1
60
0
100
AcDbLine
10
54.027452
20
42.574854
30
0
11
54.301935
21
43.32899
31
0
39
0
210
0
220
0
230
1
0
MTEXT
5
11B
100
AcDbEntity
8
SK6
62
256
6
ByLayer
370
18
48
1
60
0
100
AcDbMText
10
-20.625
20
-44.125
30
0
210
0
220
0
230
1
1
\W0.7452;C6-RF123G15C45060E
40
3.5
41
0
44
1.084337
50
0
71
7
72
5
7
iso_b_vert
0
DIMENSION
5
12D
100
AcDbEntity
8
2
62
256
6
ByLayer
370
13
48
1
60
0
100
AcDbDimension
2
DimnDraft3D1
10
85.1
20
45
30
0
11
85.1
21
20.225
31
0
70
32
71
5
72
1
41
1
210
0
220
0
230
1
3
Standard
100
AcDbAlignedDimension
13
47
23
0
33
0
14
62
24
45
34
0
50
90
100
AcDbRotatedDimension
1001
ACAD
1000
DSTYLE
1002
{
1070
    74
1070
     0
1070
   279
1070
     0
1070
   172
1070
     1
1070
   173
1070
     1
1070
   340
1005
11C
1070
   271
1070
     1
1070
    77
1070
     1
1070
    73
1070
     0
1070
   171
1070
     3
1070
   274
1070
     4
1070
   177
1070
     2
1070
   176
1070
     2
1070
   178
1070
     7
1070
    78
1070
     8
1070
    41
1041
3.175
1070
   147
1041
1.75
1070
    42
1041
2.0
1070
    44
1041
2.0
1070
   140
1041
3.5
1070
   343
1005
12E
1070
   344
1005
12E
1002
}
0
DIMENSION
5
143
100
AcDbEntity
8
SK2
62
256
6
ByLayer
370
13
48
1
60
0
100
AcDbDimension
2
DimnDraft3D2
10
60
20
67.6
30
0
11
27.909211
21
67.6
31
0
70
32
71
5
72
1
41
1
210
0
220
0
230
1
3
Standard
100
AcDbAlignedDimension
13
0
23
2
33
0
14
60
24
47
34
0
50
0
100
AcDbRotatedDimension
1001
ACAD
1000
DSTYLE
1002
{
1070
   279
1070
     0
1070
   172
1070
     1
1070
   173
1070
     1
1070
   340
1005
11C
1070
   271
1070
     1
1070
    77
1070
     1
1070
    73
1070
     0
1070
   171
1070
     3
1070
   274
1070
     4
1070
   177
1070
     2
1070
   176
1070
     2
1070
   178
1070
     7
1070
    78
1070
     8
1070
    41
1041
3.175
1070
   147
1041
1.75
1070
    42
1041
2.0
1070
    44
1041
2.0
1070
   140
1041
3.5
1070
   343
1005
12E
1070
   344
1005
12E
1002
}
0
DIMENSION
5
151
100
AcDbEntity
8
2
62
256
6
ByLayer
370
13
48
1
60
0
100
AcDbDimension
2
DimnDraft3D3
10
45
20
-44.6
30
0
11
50.846711
21
-44.6
31
0
70
32
71
5
72
1
41
1
210
0
220
0
230
1
3
Standard
100
AcDbAlignedDimension
13
60
23
43
33
0
14
45
24
-2
34
0
50
0
100
AcDbRotatedDimension
1001
ACAD
1000
DSTYLE
1002
{
1070
   279
1070
     0
1070
   172
1070
     1
1070
   173
1070
     1
1070
   340
1005
11C
1070
   271
1070
     1
1070
    77
1070
     1
1070
    73
1070
     0
1070
   171
1070
     3
1070
   274
1070
     4
1070
   177
1070
     2
1070
   176
1070
     2
1070
   178
1070
     7
1070
    78
1070
     8
1070
    41
1041
3.175
1070
   147
1041
1.75
1070
    42
1041
2.0
1070
    44
1041
2.0
1070
   140
1041
3.5
1070
   343
1005
12E
1070
   344
1005
12E
1002
}
0
DIMENSION
5
15F
100
AcDbEntity
8
SK2
62
256
6
ByLayer
370
13
48
1
60
0
100
AcDbDimension
2
DimnDraft3D4
10
-47.6
20
-31.5
30
0
11
-47.6
21
-2.090789
31
0
70
32
71
5
72
1
41
1
210
0
220
0
230
1
3
Standard
100
AcDbAlignedDimension
13
-2
23
31.5
33
0
14
-2
24
-31.5
34
0
50
90
100
AcDbRotatedDimension
1001
ACAD
1000
DSTYLE
1002
{
1070
    74
1070
     0
1070
   279
1070
     0
1070
   172
1070
     1
1070
   173
1070
     1
1070
   340
1005
11C
1070
   271
1070
     1
1070
    77
1070
     1
1070
    73
1070
     0
1070
   171
1070
     3
1070
   274
1070
     4
1070
   177
1070
     2
1070
   176
1070
     2
1070
   178
1070
     7
1070
    78
1070
     8
1070
    41
1041
3.175
1070
   147
1041
1.75
1070
    42
1041
2.0
1070
    44
1041
2.0
1070
   140
1041
3.5
1070
   343
1005
12E
1070
   344
1005
12E
1002
}
0
DIMENSION
5
16D
100
AcDbEntity
8
2
62
256
6
ByLayer
370
13
48
1
60
0
100
AcDbDimension
2
DimnDraft3D5
10
78.1
20
42
30
0
11
78.1
21
30.179211
31
0
70
32
71
5
72
1
41
1
210
0
220
0
230
1
3
Standard
100
AcDbAlignedDimension
13
62
23
45
33
0
14
62
24
42
34
0
50
90
100
AcDbRotatedDimension
1001
ACAD
1000
DSTYLE
1002
{
1070
    74
1070
     0
1070
   279
1070
     0
1070
   172
1070
     1
1070
   173
1070
     1
1070
   340
1005
11C
1070
   271
1070
     1
1070
    77
1070
     1
1070
    73
1070
     0
1070
   171
1070
     3
1070
   274
1070
     4
1070
   177
1070
     2
1070
   176
1070
     2
1070
   178
1070
     7
1070
    78
1070
     8
1070
    41
1041
3.175
1070
   147
1041
1.75
1070
    42
1041
2.0
1070
    44
1041
2.0
1070
   140
1041
3.5
1070
   343
1005
12E
1070
   344
1005
12E
1002
}
0
ENDSEC
0
SECTION
2
OBJECTS
0
DICTIONARY
5
1d7
330
0
100
AcDbDictionary
280
0
281
1
3
ACAD_GROUP
350
1d8
3
ACAD_MLINESTYLE
350
1d9
0
DICTIONARY
5
1d8
330
0
100
AcDbDictionary
280
0
281
1
0
DICTIONARY
5
1d9
330
0
100
AcDbDictionary
280
0
281
1
3
Standard
350
18
0
MLINESTYLE
5
18
330
1d9
100
AcDbMlineStyle
2
Standard
70
0
3

62
256
51
90
52
90
71
2
49
-0.5
62
256
6
ByLayer
49
0.5
62
256
6
ByLayer
0
RASTERVARIABLES
5
1c6
330

100
AcDbRasterVariables
90
0
70
1
71
1
72
1
0
ENDSEC
0
EOF
