0
SECTION
2
HEADER
9
$ACADVER
1
AC1015
9
$DWGCODEPAGE
3
ANSI_1252
9
$HANDSEED
5
19b
9
$ANGBASE
50
0
9
$ANGDIR
70
0
9
$ATTMODE
70
1
9
$AUNITS
70
0
9
$AUPREC
70
0
9
$CECOLOR
62
256
9
$CELTSCALE
40
1
9
$CELTYPE
6
ByLayer
9
$CELWEIGHT
370
18
9
$CLAYER
8
0
9
$CMLJUST
70
0
9
$CMLSCALE
40
1
9
$CMLSTYLE
2
Standard
9
$DIMSTYLE
2
Standard
9
$TEXTSIZE
40
0.2
9
$TEXTSTYLE
7
Standard
9
$LUNITS
70
2
9
$LUPREC
70
4
9
$EXTNAMES
290
1
9
$INSUNITS
70
4
9
$LTSCALE
40
1
9
$LWDISPLAY
290
1
9
$PDMODE
70
0
9
$PDSIZE
40
0
9
$PLINEGEN
70
0
0
ENDSEC
0
SECTION
2
CLASSES
0
CLASS
1
RASTERVARIABLES
2
AcDbRasterVariables
3
ISM
90
0
280
0
281
0
0
ENDSEC
0
SECTION
2
TABLES
0
TABLE
2
VPORT
5
191
100
AcDbSymbolTable
0
VPORT
5
1
100
AcDbSymbolTableRecord
100
AcDbViewportTableRecord
2
*Active
70
0
10
0
20
0
11
1
21
1
12
-1
22
1
13
0
23
0
14
0.5
24
0.5
15
10
25
10
16
0
26
0
36
1
17
0
27
0
37
0
0
ENDTAB
0
TABLE
2
LTYPE
5
192
100
AcDbSymbolTable
0
LTYPE
5
14
100
AcDbSymbolTableRecord
100
AcDbLinetypeTableRecord
70
0
2
ByBlock
3

72
65
73
0
40
0
0
LTYPE
5
15
100
AcDbSymbolTableRecord
100
AcDbLinetypeTableRecord
70
0
2
ByLayer
3

72
65
73
0
40
0
0
LTYPE
5
16
100
AcDbSymbolTableRecord
100
AcDbLinetypeTableRecord
70
0
2
CONTINUOUS
3
Solid line
72
65
73
0
40
0
0
LTYPE
5
6A
100
AcDbSymbolTableRecord
100
AcDbLinetypeTableRecord
70
0
2
CENTER
3
____ _ ____ _ ____ _ ____
72
65
73
4
40
47.5
49
22
74
0
49
-8.5
74
0
49
8.5
74
0
49
-8.5
74
0
0
LTYPE
5
6B
100
AcDbSymbolTableRecord
100
AcDbLinetypeTableRecord
70
0
2
DASHED
3
__ __ __ __ __ __ __ __ __
72
65
73
2
40
25.72
49
12.86
74
0
49
-12.86
74
0
0
ENDTAB
0
TABLE
2
LAYER
5
193
100
AcDbSymbolTable
0
LAYER
5
10
100
AcDbSymbolTableRecord
100
AcDbLayerTableRecord
2
0
70
0
62
7
6
CONTINUOUS
290
1
370
-3
390
0
0
LAYER
5
6D
100
AcDbSymbolTableRecord
100
AcDbLayerTableRecord
2
81
70
0
62
-3
6
CONTINUOUS
290
1
370
-3
390
0
0
LAYER
5
6F
100
AcDbSymbolTableRecord
100
AcDbLayerTableRecord
2
80
70
0
62
-6
6
CONTINUOUS
290
1
370
-3
390
0
0
LAYER
5
71
100
AcDbSymbolTableRecord
100
AcDbLayerTableRecord
2
1
70
0
62
4
6
CONTINUOUS
290
1
370
-3
390
0
0
LAYER
5
76
100
AcDbSymbolTableRecord
100
AcDbLayerTableRecord
2
4
70
0
62
-2
6
CENTER
290
1
370
-3
390
0
0
LAYER
5
FB
100
AcDbSymbolTableRecord
100
AcDbLayerTableRecord
2
2
70
0
62
7
6
CONTINUOUS
290
1
370
-3
390
0
0
LAYER
5
17d
100
AcDbSymbolTableRecord
100
AcDbLayerTableRecord
2
SK4
70
0
62
2
6
CENTER
290
1
370
-3
390
0
0
LAYER
5
17e
100
AcDbSymbolTableRecord
100
AcDbLayerTableRecord
2
SK1
70
0
62
4
6
CONTINUOUS
290
1
370
-3
390
0
0
LAYER
5
17f
100
AcDbSymbolTableRecord
100
AcDbLayerTableRecord
2
SK6
70
0
62
5
6
CONTINUOUS
290
1
370
-3
390
0
0
LAYER
5
180
100
AcDbSymbolTableRecord
100
AcDbLayerTableRecord
2
SK2
70
0
62
7
6
CONTINUOUS
290
1
370
-3
390
0
0
ENDTAB
0
TABLE
2
STYLE
5
194
100
AcDbSymbolTable
0
STYLE
5
11
100
AcDbSymbolTableRecord
100
AcDbTextStyleTableRecord
2
Standard
3
txt
70
0
71
0
40
0
41
1
42
0
50
0
0
STYLE
5
E1
100
AcDbSymbolTableRecord
100
AcDbTextStyleTableRecord
2
iso_b_vert
3
simplex.shx
70
0
71
0
40
0
41
1
42
0
50
0
0
STYLE
5
E2
100
AcDbSymbolTableRecord
100
AcDbTextStyleTableRecord
2
DWGDirectTextStyle
3
simplex
70
0
71
0
40
0
41
1
42
0
50
0
0
ENDTAB
0
TABLE
2
DIMSTYLE
5
195
100
AcDbSymbolTable
100
AcDbDimStyleTable
0
DIMSTYLE
105
27
100
AcDbSymbolTableRecord
100
AcDbDimStyleTableRecord
2
Standard
70
0
3
<>
41
0.18
42
0.0625
44
0.18
140
0.18
147
0.09
73
0
74
0
77
1
271
2
275
0
278
52
280
0
340
11
0
ENDTAB
0
TABLE
2
VIEW
5
196
100
AcDbSymbolTable
0
ENDTAB
0
TABLE
2
UCS
5
197
100
AcDbSymbolTable
0
ENDTAB
0
TABLE
2
APPID
5
198
100
AcDbSymbolTable
0
APPID
5
12
100
AcDbSymbolTableRecord
100
AcDbRegAppTableRecord
2
ACAD
70
0
0
ENDTAB
0
TABLE
2
BLOCK_RECORD
5
199
100
AcDbSymbolTable
0
BLOCK_RECORD
5
1F
100
AcDbSymbolTableRecord
100
AcDbBlockTableRecord
2
*Model_Space
340
0
70
0
0
BLOCK_RECORD
5
1B
100
AcDbSymbolTableRecord
100
AcDbBlockTableRecord
2
*Paper_Space
340
0
70
0
0
BLOCK_RECORD
5
23
100
AcDbSymbolTableRecord
100
AcDbBlockTableRecord
2
*Paper_Space0
340
0
70
0
0
BLOCK_RECORD
5
E4
100
AcDbSymbolTableRecord
100
AcDbBlockTableRecord
2
DimnDraft3D1
340
0
70
0
0
BLOCK_RECORD
5
EF
100
AcDbSymbolTableRecord
100
AcDbBlockTableRecord
2
DimnDraft3D2
340
0
70
0
0
BLOCK_RECORD
5
F9
100
AcDbSymbolTableRecord
100
AcDbBlockTableRecord
2
DimnDraft3D3
340
0
70
0
0
BLOCK_RECORD
5
104
100
AcDbSymbolTableRecord
100
AcDbBlockTableRecord
2
DimnDraft3D4
340
0
70
0
0
BLOCK_RECORD
5
10E
100
AcDbSymbolTableRecord
100
AcDbBlockTableRecord
2
DimnDraft3D5
340
0
70
0
0
BLOCK_RECORD
5
119
100
AcDbSymbolTableRecord
100
AcDbBlockTableRecord
2
DimnDraft3D6
340
0
70
0
0
ENDTAB
0
ENDSEC
0
SECTION
2
BLOCKS
0
BLOCK
5
20
100
AcDbEntity
8
0
100
AcDbBlockBegin
2
*Model_Space
70
0
10
0
20
0
30
0
3
*Model_Space
0
ENDBLK
5
21
100
AcDbEntity
8
0
100
AcDbBlockEnd
0
BLOCK
5
1C
100
AcDbEntity
8
0
100
AcDbBlockBegin
2
*Paper_Space
70
0
10
0
20
0
30
0
3
*Paper_Space
0
ENDBLK
5
1D
100
AcDbEntity
8
0
100
AcDbBlockEnd
0
BLOCK
5
24
100
AcDbEntity
8
0
100
AcDbBlockBegin
2
*Paper_Space0
70
0
10
0
20
0
30
0
3
*Paper_Space0
0
ENDBLK
5
25
100
AcDbEntity
8
0
100
AcDbBlockEnd
0
BLOCK
5
EC
100
AcDbEntity
8
0
100
AcDbBlockBegin
2
DimnDraft3D1
70
0
10
0
20
0
30
0
3
DimnDraft3D1
0
MTEXT
5
E5
100
AcDbEntity
8
SK2
62
256
6
ByLayer
370
18
48
1
60
0
100
AcDbMText
10
9.830263
20
38.9675
30
0
210
0
220
0
230
1
1
\W0.6740;22
40
3.5
41
0
44
1.084337
50
0
71
7
72
5
7
iso_b_vert
0
LINE
5
E7
100
AcDbEntity
8
SK2
62
256
6
ByLayer
370
13
48
1
60
0
100
AcDbLine
10
0
20
33.0875
30
0
11
0
21
40.0925
31
0
39
0
210
0
220
0
230
1
0
LINE
5
E8
100
AcDbEntity
8
SK2
62
256
6
ByLayer
370
13
48
1
60
0
100
AcDbLine
10
22
20
33.0875
30
0
11
22
21
40.0925
31
0
39
0
210
0
220
0
230
1
0
LINE
5
E9
100
AcDbEntity
8
SK2
62
256
6
ByLayer
370
13
48
1
60
0
100
AcDbLine
10
0
20
38.0925
30
0
11
22
21
38.0925
31
0
39
0
210
0
220
0
230
1
0
SOLID
5
EA
100
AcDbEntity
8
SK2
62
256
6
ByLayer
370
13
48
1
60
0
100
AcDbTrace
10
0
20
38.0925
30
0
11
3.499998
21
38.553284
31
0
12
3.500002
22
37.631716
32
0
13
0
23
38.0925
33
0
39
0
210
0
220
0
230
1
0
SOLID
5
EB
100
AcDbEntity
8
SK2
62
256
6
ByLayer
370
13
48
1
60
0
100
AcDbTrace
10
22
20
38.0925
30
0
11
18.500002
21
37.631716
31
0
12
18.499998
22
38.553284
32
0
13
22
23
38.0925
33
0
39
0
210
0
220
0
230
1
0
ENDBLK
5
ED
100
AcDbEntity
8
0
100
AcDbBlockEnd
0
BLOCK
5
F6
100
AcDbEntity
8
0
100
AcDbBlockBegin
2
DimnDraft3D2
70
0
10
0
20
0
30
0
3
DimnDraft3D2
0
MTEXT
5
F0
100
AcDbEntity
8
SK2
62
256
6
ByLayer
370
18
48
1
60
0
100
AcDbMText
10
60.838816
20
48.9675
30
0
210
0
220
0
230
1
1
\W0.6993;73,1
40
3.5
41
0
44
1.084337
50
0
71
7
72
5
7
iso_b_vert
0
LINE
5
F1
100
AcDbEntity
8
SK2
62
256
6
ByLayer
370
13
48
1
60
0
100
AcDbLine
10
100
20
26.5875
30
0
11
100
21
50.0925
31
0
39
0
210
0
220
0
230
1
0
LINE
5
F2
100
AcDbEntity
8
SK2
62
256
6
ByLayer
370
13
48
1
60
0
100
AcDbLine
10
26.9
20
26.5875
30
0
11
26.9
21
50.0925
31
0
39
0
210
0
220
0
230
1
0
LINE
5
F3
100
AcDbEntity
8
SK2
62
256
6
ByLayer
370
13
48
1
60
0
100
AcDbLine
10
100
20
48.0925
30
0
11
26.9
21
48.0925
31
0
39
0
210
0
220
0
230
1
0
SOLID
5
F4
100
AcDbEntity
8
SK2
62
256
6
ByLayer
370
13
48
1
60
0
100
AcDbTrace
10
100
20
48.0925
30
0
11
96.500002
21
47.631716
31
0
12
96.499998
22
48.553284
32
0
13
100
23
48.0925
33
0
39
0
210
0
220
0
230
1
0
SOLID
5
F5
100
AcDbEntity
8
SK2
62
256
6
ByLayer
370
13
48
1
60
0
100
AcDbTrace
10
26.9
20
48.0925
30
0
11
30.399998
21
48.553284
31
0
12
30.400002
22
47.631716
32
0
13
26.9
23
48.0925
33
0
39
0
210
0
220
0
230
1
0
ENDBLK
5
F7
100
AcDbEntity
8
0
100
AcDbBlockEnd
0
BLOCK
5
101
100
AcDbEntity
8
0
100
AcDbBlockBegin
2
DimnDraft3D3
70
0
10
0
20
0
30
0
3
DimnDraft3D3
0
MTEXT
5
FA
100
AcDbEntity
8
2
62
256
6
ByLayer
370
18
48
1
60
0
100
AcDbMText
10
47.982895
20
58.9675
30
0
210
0
220
0
230
1
1
\W0.6217;100
40
3.5
41
0
44
1.084337
50
0
71
7
72
5
7
iso_b_vert
0
LINE
5
FC
100
AcDbEntity
8
2
62
256
6
ByLayer
370
13
48
1
60
0
100
AcDbLine
10
100
20
26.5875
30
0
11
100
21
60.0925
31
0
39
0
210
0
220
0
230
1
0
LINE
5
FD
100
AcDbEntity
8
2
62
256
6
ByLayer
370
13
48
1
60
0
100
AcDbLine
10
0
20
33.0875
30
0
11
0
21
60.0925
31
0
39
0
210
0
220
0
230
1
0
LINE
5
FE
100
AcDbEntity
8
2
62
256
6
ByLayer
370
13
48
1
60
0
100
AcDbLine
10
100
20
58.0925
30
0
11
0
21
58.0925
31
0
39
0
210
0
220
0
230
1
0
SOLID
5
FF
100
AcDbEntity
8
2
62
256
6
ByLayer
370
13
48
1
60
0
100
AcDbTrace
10
100
20
58.0925
30
0
11
96.500002
21
57.631716
31
0
12
96.499998
22
58.553284
32
0
13
100
23
58.0925
33
0
39
0
210
0
220
0
230
1
0
SOLID
5
100
100
AcDbEntity
8
2
62
256
6
ByLayer
370
13
48
1
60
0
100
AcDbTrace
10
0
20
58.0925
30
0
11
3.499998
21
58.553284
31
0
12
3.500002
22
57.631716
32
0
13
0
23
58.0925
33
0
39
0
210
0
220
0
230
1
0
ENDBLK
5
102
100
AcDbEntity
8
0
100
AcDbBlockEnd
0
BLOCK
5
10B
100
AcDbEntity
8
0
100
AcDbBlockBegin
2
DimnDraft3D4
70
0
10
0
20
0
30
0
3
DimnDraft3D4
0
MTEXT
5
105
100
AcDbEntity
8
SK2
62
256
6
ByLayer
370
18
48
1
60
0
100
AcDbMText
10
-20.215789
20
58.9675
30
0
210
0
220
0
230
1
1
\W0.6740;38
40
3.5
41
0
44
1.084337
50
0
71
7
72
5
7
iso_b_vert
0
LINE
5
106
100
AcDbEntity
8
SK2
62
256
6
ByLayer
370
13
48
1
60
0
100
AcDbLine
10
-38
20
23.5875
30
0
11
-38
21
60.0925
31
0
39
0
210
0
220
0
230
1
0
LINE
5
107
100
AcDbEntity
8
SK2
62
256
6
ByLayer
370
13
48
1
60
0
100
AcDbLine
10
0
20
33.0875
30
0
11
0
21
60.0925
31
0
39
0
210
0
220
0
230
1
0
LINE
5
108
100
AcDbEntity
8
SK2
62
256
6
ByLayer
370
13
48
1
60
0
100
AcDbLine
10
-38
20
58.0925
30
0
11
0
21
58.0925
31
0
39
0
210
0
220
0
230
1
0
SOLID
5
109
100
AcDbEntity
8
SK2
62
256
6
ByLayer
370
13
48
1
60
0
100
AcDbTrace
10
-38
20
58.0925
30
0
11
-34.500002
21
58.553284
31
0
12
-34.499998
22
57.631716
32
0
13
-38
23
58.0925
33
0
39
0
210
0
220
0
230
1
0
SOLID
5
10A
100
AcDbEntity
8
SK2
62
256
6
ByLayer
370
13
48
1
60
0
100
AcDbTrace
10
0
20
58.0925
30
0
11
-3.499998
21
57.631716
31
0
12
-3.500002
22
58.553284
32
0
13
0
23
58.0925
33
0
39
0
210
0
220
0
230
1
0
ENDBLK
5
10C
100
AcDbEntity
8
0
100
AcDbBlockEnd
0
BLOCK
5
116
100
AcDbEntity
8
0
100
AcDbBlockBegin
2
DimnDraft3D5
70
0
10
0
20
0
30
0
3
DimnDraft3D5
0
MTEXT
5
10F
100
AcDbEntity
8
SK2
62
256
6
ByLayer
370
18
48
1
60
0
100
AcDbMText
10
-61.35
20
2.330263
30
0
210
0
220
0
230
1
1
\W0.6740;63
40
3.5
41
0
44
1.084337
50
90
71
7
72
5
7
iso_b_vert
0
MTEXT
5
110
100
AcDbEntity
8
SK2
62
256
6
ByLayer
370
18
48
1
60
0
100
AcDbMText
10
-61.35
20
-2.892393
30
0
210
0
220
0
230
1
1
%%c
40
3.5
41
0
44
1.084337
50
90
71
7
72
5
7
iso_b_vert
0
LINE
5
111
100
AcDbEntity
8
SK2
62
256
6
ByLayer
370
13
48
1
60
0
100
AcDbLine
10
-1.5875
20
31.5
30
0
11
-61.6
21
31.5
31
0
39
0
210
0
220
0
230
1
0
LINE
5
112
100
AcDbEntity
8
SK2
62
256
6
ByLayer
370
13
48
1
60
0
100
AcDbLine
10
-1.5875
20
-31.5
30
0
11
-61.6
21
-31.5
31
0
39
0
210
0
220
0
230
1
0
LINE
5
113
100
AcDbEntity
8
SK2
62
256
6
ByLayer
370
13
48
1
60
0
100
AcDbLine
10
-59.6
20
31.5
30
0
11
-59.6
21
-31.5
31
0
39
0
210
0
220
0
230
1
0
SOLID
5
114
100
AcDbEntity
8
SK2
62
256
6
ByLayer
370
13
48
1
60
0
100
AcDbTrace
10
-59.6
20
31.5
30
0
11
-59.139216
21
28.000002
31
0
12
-60.060784
22
27.999998
32
0
13
-59.6
23
31.5
33
0
39
0
210
0
220
0
230
1
0
SOLID
5
115
100
AcDbEntity
8
SK2
62
256
6
ByLayer
370
13
48
1
60
0
100
AcDbTrace
10
-59.6
20
-31.5
30
0
11
-60.060784
21
-28.000002
31
0
12
-59.139216
22
-27.999998
32
0
13
-59.6
23
-31.5
33
0
39
0
210
0
220
0
230
1
0
ENDBLK
5
117
100
AcDbEntity
8
0
100
AcDbBlockEnd
0
BLOCK
5
121
100
AcDbEntity
8
0
100
AcDbBlockBegin
2
DimnDraft3D6
70
0
10
0
20
0
30
0
3
DimnDraft3D6
0
MTEXT
5
11A
100
AcDbEntity
8
SK2
62
256
6
ByLayer
370
18
48
1
60
0
100
AcDbMText
10
123.35
20
2.330263
30
0
210
0
220
0
230
1
1
\W0.6740;50
40
3.5
41
0
44
1.084337
50
90
71
7
72
5
7
iso_b_vert
0
MTEXT
5
11B
100
AcDbEntity
8
SK2
62
256
6
ByLayer
370
18
48
1
60
0
100
AcDbMText
10
123.35
20
-2.892393
30
0
210
0
220
0
230
1
1
%%c
40
3.5
41
0
44
1.084337
50
90
71
7
72
5
7
iso_b_vert
0
LINE
5
11C
100
AcDbEntity
8
SK2
62
256
6
ByLayer
370
13
48
1
60
0
100
AcDbLine
10
101.5875
20
25
30
0
11
127.1
21
25
31
0
39
0
210
0
220
0
230
1
0
LINE
5
11D
100
AcDbEntity
8
SK2
62
256
6
ByLayer
370
13
48
1
60
0
100
AcDbLine
10
101.5875
20
-25
30
0
11
127.1
21
-25
31
0
39
0
210
0
220
0
230
1
0
LINE
5
11E
100
AcDbEntity
8
SK2
62
256
6
ByLayer
370
13
48
1
60
0
100
AcDbLine
10
125.1
20
25
30
0
11
125.1
21
-25
31
0
39
0
210
0
220
0
230
1
0
SOLID
5
11F
100
AcDbEntity
8
SK2
62
256
6
ByLayer
370
13
48
1
60
0
100
AcDbTrace
10
125.1
20
25
30
0
11
125.560784
21
21.500002
31
0
12
124.639216
22
21.499998
32
0
13
125.1
23
25
33
0
39
0
210
0
220
0
230
1
0
SOLID
5
120
100
AcDbEntity
8
SK2
62
256
6
ByLayer
370
13
48
1
60
0
100
AcDbTrace
10
125.1
20
-25
30
0
11
124.639216
21
-21.500002
31
0
12
125.560784
22
-21.499998
32
0
13
125.1
23
-25
33
0
39
0
210
0
220
0
230
1
0
ENDBLK
5
122
100
AcDbEntity
8
0
100
AcDbBlockEnd
0
ENDSEC
0
SECTION
2
ENTITIES
0
ARC
5
AF
100
AcDbEntity
8
1
62
256
6
ByLayer
370
18
48
1
60
0
100
AcDbCircle
39
0
10
22.317059
20
-30.6925
30
0
40
0.8
210
0
220
0
230
1
100
AcDbArc
50
270
51
332.236744
0
ARC
5
B0
100
AcDbEntity
8
1
62
256
6
ByLayer
370
18
48
1
60
0
100
AcDbCircle
39
0
10
22.317059
20
30.6925
30
0
40
0.8
210
0
220
0
230
1
100
AcDbArc
50
27.763256
51
90
0
ARC
5
B1
100
AcDbEntity
8
SK1
62
256
6
ByLayer
370
18
48
1
60
0
100
AcDbCircle
39
0
10
0.6
20
-23.45
30
0
40
0.999999999999999
210
6.12303176911189E-17
220
0
230
-1
100
AcDbArc
50
113.578178
51
126.869898
0
ARC
5
B2
100
AcDbEntity
8
SK1
62
256
6
ByLayer
370
18
48
1
60
0
100
AcDbCircle
39
0
10
0.6
20
23.45
30
0
40
0.999999999999999
210
6.12303176911189E-17
220
0
230
-1
100
AcDbArc
50
233.130102
51
246.421822
0
ARC
5
B3
100
AcDbEntity
8
1
62
256
6
ByLayer
370
18
48
1
60
0
100
AcDbCircle
39
0
10
-26.9
20
-26.130097
30
0
40
1.13009687959342
210
6.12303176911189E-17
220
0
230
-1
100
AcDbArc
50
27.763256
51
90
0
ARC
5
B4
100
AcDbEntity
8
1
62
256
6
ByLayer
370
18
48
1
60
0
100
AcDbCircle
39
0
10
-26.9
20
26.130097
30
0
40
1.13009687959342
210
6.12303176911189E-17
220
0
230
-1
100
AcDbArc
50
270
51
332.236744
0
ELLIPSE
5
B5
100
AcDbEntity
8
1
62
256
6
ByLayer
370
18
48
1
60
0
100
AcDbEllipse
10
67.367525
20
0
30
0
11
14.2784886886138
21
24.9708303525113
31
0
210
0
220
0
230
-1
40
0.084555
41
2.88591805575474
42
-2.59229751846066
0
ELLIPSE
5
B6
100
AcDbEntity
8
1
62
256
6
ByLayer
370
18
48
1
60
0
100
AcDbEllipse
10
80.582928
20
0
30
0
11
14.2784886886198
21
-24.9708303525219
31
0
210
0
220
0
230
-1
40
0.084555
41
-0.549295135129008
42
0.255674597834987
0
ELLIPSE
5
B7
100
AcDbEntity
8
1
62
256
6
ByLayer
370
18
48
1
60
0
100
AcDbEllipse
10
26.347154
20
0
30
0
11
14.7501703789518
21
-31.0858517596494
31
0
210
0
220
0
230
-1
40
0.341999
41
2.05082596139416
42
2.98331357338719
0
ELLIPSE
5
B8
100
AcDbEntity
8
1
62
256
6
ByLayer
370
18
48
1
60
0
100
AcDbEllipse
10
-2.347154
20
0
30
0
11
14.7501703789492
21
31.0858517596463
31
0
210
0
220
0
230
-1
40
0.341999
41
0.158279080202617
42
1.09076669219571
0
ELLIPSE
5
B9
100
AcDbEntity
8
1
62
256
6
ByLayer
370
18
48
1
60
0
100
AcDbEllipse
10
-2.347154
20
0
30
0
11
14.750170378949
21
-31.0858517596458
31
0
210
0
220
0
230
-1
40
0.341999
41
-1.09076669219572
42
-0.158279080202621
0
ELLIPSE
5
BA
100
AcDbEntity
8
1
62
256
6
ByLayer
370
18
48
1
60
0
100
AcDbEllipse
10
26.347154
20
0
30
0
11
14.7501703789519
21
31.0858517596495
31
0
210
0
220
0
230
-1
40
0.341999
41
-2.98331357338719
42
-2.05082596139416
0
POINT
5
6C
100
AcDbEntity
8
81
62
256
6
ByLayer
370
18
48
1
60
0
100
AcDbPoint
10
100
20
0
30
0
39
0
210
0
220
0
230
1
50
360
0
POINT
5
6E
100
AcDbEntity
8
80
62
256
6
ByLayer
370
18
48
1
60
0
100
AcDbPoint
10
0
20
0
30
0
39
0
210
0
220
0
230
1
50
360
0
POINT
5
70
100
AcDbEntity
8
1
62
256
6
ByLayer
370
18
48
1
60
0
100
AcDbPoint
10
0
20
0
30
0
39
0
210
0
220
0
230
1
50
360
0
SPLINE
5
BB
100
AcDbEntity
8
SK1
62
256
6
ByLayer
370
18
48
1
60
0
100
AcDbSpline
70
4
71
3
72
13
73
9
40
0
40
0
40
0
40
0
40
0.239456135762339
40
0.368359721932462
40
0.499998984020167
40
0.631638415283026
40
0.760542467777715
40
1
40
1
40
1
40
1
41
1
10
-2.19999999999999
20
-22.0200986606755
30
-1E-16
41
1
10
-2.19909198642273
20
-21.9940411845604
30
-1E-16
41
1
10
-2.1910328410695
20
-21.956668600224
30
-1E-16
41
1
10
-2.16563592203357
20
-21.9104494263862
30
-1E-16
41
1
10
-2.13886378679282
20
-21.8791678725255
30
-1E-16
41
1
10
-2.10627712749889
20
-21.854000502323
30
-1E-16
41
1
10
-2.0588406423409
20
-21.8309566998545
30
-1E-16
41
1
10
-2.0211103087303
20
-21.8247844448325
30
-1E-16
41
1
10
-1.99503997793928
20
-21.825186084775
30
-1E-16
0
SPLINE
5
BC
100
AcDbEntity
8
SK1
62
256
6
ByLayer
370
18
48
1
60
0
100
AcDbSpline
70
4
71
2
72
6
73
3
40
0
40
0
40
0
40
1
40
1
40
1
41
1
10
-0.239684768755808
20
21.9481214799356
30
0
41
1
10
-0.264174311740419
20
21.8692639605625
30
0
41
1
10
-0.394976888875277
20
21.865385003355
30
0
0
SPLINE
5
BD
100
AcDbEntity
8
SK1
62
256
6
ByLayer
370
18
48
1
60
0
100
AcDbSpline
70
4
71
2
72
6
73
3
40
0
40
0
40
0
40
1
40
1
40
1
41
1
10
-0.394976888875277
20
-21.8653849865467
30
0
41
1
10
-0.265172990615838
20
-21.8689012906765
30
0
41
1
10
-0.240502439653341
20
-21.9465691723787
30
0
0
SPLINE
5
BE
100
AcDbEntity
8
SK1
62
256
6
ByLayer
370
18
48
1
60
0
100
AcDbSpline
70
4
71
2
72
6
73
3
40
0
40
0
40
0
40
1
40
1
40
1
41
1
10
-36.5
20
21.155302724897
30
0
41
1
10
-37.2500000000012
20
20.7223538609616
30
-1E-16
41
1
10
-38
20
20.2894050057151
30
-1E-16
0
SPLINE
5
BF
100
AcDbEntity
8
SK1
62
256
6
ByLayer
370
18
48
1
60
0
100
AcDbSpline
70
4
71
2
72
6
73
3
40
0
40
0
40
0
40
1
40
1
40
1
41
1
10
-0.394976888875277
20
21.8653802062992
30
0
41
1
10
-1.19500843340728
20
21.8452807593862
30
-1E-16
41
1
10
-1.99503997793928
20
21.8251813124779
30
-1E-16
0
SPLINE
5
C0
100
AcDbEntity
8
SK1
62
256
6
ByLayer
370
18
48
1
60
0
100
AcDbSpline
70
4
71
2
72
6
73
3
40
0
40
0
40
0
40
1
40
1
40
1
41
1
10
-1.99503997793928
20
-21.8251812553753
30
-1E-16
41
1
10
-1.19500843340728
20
-21.8452807024746
30
-1E-16
41
1
10
-0.394976888875277
20
-21.8653801495793
30
0
0
SPLINE
5
C1
100
AcDbEntity
8
SK1
62
256
6
ByLayer
370
18
48
1
60
0
100
AcDbSpline
70
4
71
3
72
13
73
9
40
0
40
0
40
0
40
0
40
0.239457532153442
40
0.368361584623877
40
0.500001015877102
40
0.631640277972384
40
0.760543864165669
40
1
40
1
40
1
40
1
41
1
10
-1.99503997793928
20
21.8251861015554
30
-1E-16
41
1
10
-2.02111030873172
20
21.8247844616134
30
-1E-16
41
1
10
-2.05884064234354
20
21.8309567166393
30
-1E-16
41
1
10
-2.10627712750096
20
21.8540005191231
30
-1E-16
41
1
10
-2.13886378679479
20
21.8791678893423
30
-1E-16
41
1
10
-2.16563592203508
20
21.9104494432234
30
-1E-16
41
1
10
-2.19103284107061
20
21.9566686170922
30
-1E-16
41
1
10
-2.19909198642387
20
21.9940412014511
30
-1E-16
41
1
10
-2.19999999999999
20
22.0200986775813
30
-1E-16
0
SPLINE
5
C2
100
AcDbEntity
8
SK1
62
256
6
ByLayer
370
18
48
1
60
0
100
AcDbSpline
70
4
71
2
72
6
73
3
40
0
40
0
40
0
40
1
40
1
40
1
41
1
10
-2.19999999999999
20
22.0135927638551
30
-1E-16
41
1
10
-19.3499999999869
20
21.5828539542124
30
1E-16
41
1
10
-36.5
20
21.1521149580209
30
0
0
SPLINE
5
C3
100
AcDbEntity
8
SK1
62
256
6
ByLayer
370
18
48
1
60
0
100
AcDbSpline
70
4
71
2
72
6
73
3
40
0
40
0
40
0
40
1
40
1
40
1
41
1
10
-36.5
20
-21.1521177089669
30
0
41
1
10
-19.34999999997
20
-21.5828554470541
30
1E-16
41
1
10
-2.19999999999999
20
-22.0135928951589
30
-1E-16
0
SPLINE
5
C4
100
AcDbEntity
8
SK1
62
256
6
ByLayer
370
18
48
1
60
0
100
AcDbSpline
70
4
71
2
72
6
73
3
40
0
40
0
40
0
40
1
40
1
40
1
41
1
10
-38
20
-20.2894052255531
30
-1E-16
41
1
10
-37.2500000000012
20
-20.7223540793632
30
-1E-16
41
1
10
-36.5
20
-21.1553029418638
30
0
0
SPLINE
5
C5
100
AcDbEntity
8
1
62
256
6
ByLayer
370
18
48
1
60
0
100
AcDbSpline
70
4
71
3
72
16
73
12
40
0
40
0
40
0
40
0
40
0.125000000000001
40
0.125000000000001
40
0.250000000000001
40
0.250000000000001
40
0.500000000000001
40
0.500000000000001
40
0.75
40
0.75
40
1
40
1
40
1
40
1
41
1
10
10.5386751345948
20
-9.36062200025657
30
6E-16
41
1
10
10.5071786228158
20
-9.36062200025657
30
6E-16
41
1
10
10.4765338294594
20
-9.36677435270803
30
6E-16
41
1
10
10.418420597339
20
-9.38893182885511
30
6E-16
41
1
10
10.3919834848326
20
-9.40437279145533
30
6E-16
41
1
10
10.3181675079962
20
-9.45983063431993
30
6E-16
41
1
10
10.2791130362539
20
-9.50625268585796
30
6E-16
41
1
10
10.2124787135084
20
-9.6061824470201
30
6E-16
41
1
10
10.1857084685535
20
-9.65896165930744
30
6E-16
41
1
10
10.1400443769713
20
-9.76785216023544
30
6E-16
41
1
10
10.1212504287013
20
-9.82417699345555
30
6E-16
41
1
10
10.1056624327025
20
-9.88120440340796
30
6E-16
0
SPLINE
5
C6
100
AcDbEntity
8
1
62
256
6
ByLayer
370
18
48
1
60
0
100
AcDbSpline
70
4
71
3
72
16
73
12
40
0
40
0
40
0
40
0
40
0.249999999999999
40
0.249999999999999
40
0.499999999999997
40
0.499999999999997
40
0.749999999999996
40
0.749999999999996
40
0.874999999999998
40
0.874999999999998
40
1
40
1
40
1
40
1
41
1
10
10.1056624327026
20
9.88120440340796
30
6E-16
41
1
10
10.1212445623046
20
9.82419845518876
30
6E-16
41
1
10
10.1398899664189
20
9.76828922026249
30
6E-16
41
1
10
10.1854593149834
20
9.65948754433705
30
6E-16
41
1
10
10.2124623564471
20
9.60620741929748
30
6E-16
41
1
10
10.279126043001
20
9.50623273797819
30
6E-16
41
1
10
10.3188744422593
20
9.4593152568018
30
6E-16
41
1
10
10.3915325842495
20
9.40470369765438
30
6E-16
41
1
10
10.4185308038589
20
9.38890662232873
30
6E-16
41
1
10
10.4761548841357
20
9.36690210248264
30
6E-16
41
1
10
10.5072242711382
20
9.36062200025648
30
6E-16
41
1
10
10.5386751345948
20
9.36062200025648
30
6E-16
0
SPLINE
5
C7
100
AcDbEntity
8
1
62
256
6
ByLayer
370
18
48
1
60
0
100
AcDbSpline
70
4
71
3
72
16
73
12
40
0
40
0
40
0
40
0
40
0.25
40
0.25
40
0.500000000000001
40
0.500000000000001
40
0.750000000000001
40
0.750000000000001
40
0.875
40
0.875
40
1
40
1
40
1
40
1
41
1
10
10.1056624327026
20
-29.9021630620273
30
6E-16
41
1
10
10.1212445623046
20
-29.9210007436156
30
6E-16
41
1
10
10.1398899664189
20
-29.9392944570177
30
6E-16
41
1
10
10.1854593149834
20
-29.9745746801436
30
6E-16
41
1
10
10.2124623564471
20
-29.9916836375547
30
6E-16
41
1
10
10.279126043001
20
-30.0235215710803
30
6E-16
41
1
10
10.3188744422593
20
-30.038314982415
30
6E-16
41
1
10
10.3915325842495
20
-30.0554399165011
30
6E-16
41
1
10
10.4185308038589
20
-30.0603746070362
30
6E-16
41
1
10
10.4761548841357
20
-30.0672385509655
30
6E-16
41
1
10
10.5072242711382
20
-30.0691920745855
30
6E-16
41
1
10
10.5386751345948
20
-30.0691920745855
30
6E-16
0
SPLINE
5
C8
100
AcDbEntity
8
1
62
256
6
ByLayer
370
18
48
1
60
0
100
AcDbSpline
70
4
71
3
72
16
73
12
40
0
40
0
40
0
40
0
40
0.125
40
0.125
40
0.25
40
0.25
40
0.5
40
0.5
40
0.75
40
0.75
40
1
40
1
40
1
40
1
41
1
10
13.4613248654052
20
9.36062200025654
30
8E-16
41
1
10
13.4928213771842
20
9.36062200025654
30
8E-16
41
1
10
13.5234661705406
20
9.36677435270803
30
8E-16
41
1
10
13.581579402661
20
9.38893182885511
30
8E-16
41
1
10
13.6080165151673
20
9.4043727914553
30
8E-16
41
1
10
13.6818324920038
20
9.45983063431993
30
8E-16
41
1
10
13.7208869637461
20
9.50625268585796
30
8E-16
41
1
10
13.7875212864916
20
9.6061824470201
30
8E-16
41
1
10
13.8142915314464
20
9.65896165930744
30
8E-16
41
1
10
13.8599556230287
20
9.76785216023544
30
8E-16
41
1
10
13.8787495712987
20
9.82417699345555
30
8E-16
41
1
10
13.8943375672975
20
9.88120440340796
30
9E-16
0
SPLINE
5
C9
100
AcDbEntity
8
1
62
256
6
ByLayer
370
18
48
1
60
0
100
AcDbSpline
70
4
71
3
72
16
73
12
40
0
40
0
40
0
40
0
40
0.125000000000009
40
0.125000000000009
40
0.250000000000018
40
0.250000000000018
40
0.500000000000012
40
0.500000000000012
40
0.750000000000006
40
0.750000000000006
40
1
40
1
40
1
40
1
41
1
10
54.5201751345948
20
-20.3118081062314
30
-2E-16
41
1
10
54.4860338870974
20
-20.3118081062314
30
-2E-16
41
1
10
54.4527544148361
20
-20.3168741217239
30
-2E-16
41
1
10
54.3920912186378
20
-20.3338999800899
30
-2E-16
41
1
10
54.3645707125719
20
-20.3457439147465
30
-2E-16
41
1
10
54.2910347470571
20
-20.3857977462252
30
-2E-16
41
1
10
54.2527602871025
20
-20.4185176196264
30
-2E-16
41
1
10
54.1889981554443
20
-20.4860812280916
30
-2E-16
41
1
10
54.1634047126753
20
-20.5213611775551
30
-2E-16
41
1
10
54.1197808506014
20
-20.5935091079528
30
-2E-16
41
1
10
54.1019816449454
20
-20.6302422779648
30
-2E-16
41
1
10
54.0871624327026
20
-20.6671125344573
30
-2E-16
0
SPLINE
5
CA
100
AcDbEntity
8
1
62
256
6
ByLayer
370
18
48
1
60
0
100
AcDbSpline
70
4
71
3
72
67
73
63
40
0
40
0
40
0
40
0
40
5.00430454409E-05
40
5.00430454409E-05
40
0.0625469153551017
40
0.0625469153551017
40
0.125043787664763
40
0.125043787664763
40
0.156292223819593
40
0.156292223819593
40
0.171916441897008
40
0.171916441897008
40
0.187540659974424
40
0.187540659974424
40
0.250037532284084
40
0.250037532284084
40
0.265661750361499
40
0.265661750361499
40
0.281285968438915
40
0.281285968438915
40
0.312534404593745
40
0.312534404593745
40
0.375031276903406
40
0.375031276903406
40
0.39065549498082
40
0.39065549498082
40
0.406279713058235
40
0.406279713058235
40
0.437528149213065
40
0.468776585367895
40
0.468776585367895
40
0.500025021522725
40
0.500025021522725
40
0.562521893832383
40
0.562521893832383
40
0.593770329987213
40
0.593770329987213
40
0.625018766142042
40
0.625018766142042
40
0.687515638451702
40
0.687515638451702
40
0.703139856529117
40
0.703139856529117
40
0.718764074606531
40
0.718764074606531
40
0.750012510761361
40
0.750012510761361
40
0.781260946916191
40
0.781260946916191
40
0.796885164993606
40
0.796885164993606
40
0.812509383071022
40
0.812509383071022
40
0.875006255380681
40
0.875006255380681
40
0.906254691535511
40
0.906254691535511
40
0.921878909612925
40
0.921878909612925
40
0.93750312769034
40
0.93750312769034
40
1
40
1
40
1
40
1
41
1
10
35.4925018863287
20
-24.9999995088144
30
0
41
1
10
35.4925009185182
20
-24.9999997608915
30
0
41
1
10
35.4924999506741
20
-25.0000000128395
30
0
41
1
10
35.4923195201938
20
-25.0000469788896
30
0
41
1
10
35.5335860878082
20
-24.9892041847257
30
0
41
1
10
35.7019918337836
20
-24.9461564928117
30
0
41
1
10
35.826292964363
20
-24.9146987058364
30
0
41
1
10
36.0701724969838
20
-24.8557654335611
30
0
41
1
10
36.1611110239446
20
-24.8341589655783
30
0
41
1
10
36.3123072791852
20
-24.7991912783893
30
0
41
1
10
36.365322349628
20
-24.7870765547931
30
0
41
1
10
36.4753276406271
20
-24.7623015204158
30
0
41
1
10
36.5323707052088
20
-24.7496281589552
30
0
41
1
10
36.8276047519634
20
-24.6850764384588
30
0
41
1
10
37.0955479402673
20
-24.629643459249
30
-4E-16
41
1
10
37.4703684071226
20
-24.5594092725281
30
-4E-16
41
1
10
37.5473460929293
20
-24.5453157015905
30
-4E-16
41
1
10
37.7054121729909
20
-24.5171344304038
30
-4E-16
41
1
10
37.7865115025441
20
-24.5030478023388
30
-4E-16
41
1
10
38.0333538938665
20
-24.4614066485009
30
-3E-16
41
1
10
38.2034866766962
20
-24.4343159484175
30
-3E-16
41
1
10
38.7303262269647
20
-24.3561607225839
30
-3E-16
41
1
10
39.1033055189152
20
-24.308190578283
30
-3E-16
41
1
10
39.5983097774013
20
-24.2571816702402
30
-2E-16
41
1
10
39.6986567635219
20
-24.2474447374634
30
-2E-16
41
1
10
39.8999691199235
20
-24.2291668305275
30
-2E-16
41
1
10
40.0012121059447
20
-24.2205964520321
30
-2E-16
41
1
10
40.3066812284036
20
-24.1966636425077
30
-2E-16
41
1
10
40.7186069566614
20
-24.1694986815622
30
-2E-16
41
1
10
41.139779717222
20
-24.1525796596574
30
-1E-16
41
1
10
41.5656954575194
20
-24.1411628907311
30
-1E-16
41
1
10
41.7822502791325
20
-24.1382228234843
30
-1E-16
41
1
10
42.4260814214795
20
-24.1381390887676
30
-1E-16
41
1
10
42.8497290324472
20
-24.1495355593145
30
0
41
1
10
43.477038818733
20
-24.1824416376851
30
0
41
1
10
43.6852329474182
20
-24.196081418125
30
0
41
1
10
44.0968454839121
20
-24.2282295450755
30
0
41
1
10
44.2977451572224
20
-24.2465252902034
30
0
41
1
10
44.886345570968
20
-24.3070171528465
30
1E-16
41
1
10
45.2600801537373
20
-24.354820434095
30
1E-16
41
1
10
45.7038801040027
20
-24.4205541721715
30
1E-16
41
1
10
45.7916167828236
20
-24.4340264427147
30
1E-16
41
1
10
45.9629403606402
20
-24.4611975724306
30
1E-16
41
1
10
46.0467265112798
20
-24.4749241963422
30
2E-16
41
1
10
46.2925742391029
20
-24.5163728595119
30
2E-16
41
1
10
46.4491388586339
20
-24.5443629281058
30
2E-16
41
1
10
46.7478703940135
20
-24.600268052229
30
2E-16
41
1
10
46.8900372852484
20
-24.6281844861817
30
2E-16
41
1
10
47.0923593107238
20
-24.669418472485
30
2E-16
41
1
10
47.1579751639584
20
-24.6830562965908
30
-2E-16
41
1
10
47.2854919650477
20
-24.7100179211032
30
-2E-16
41
1
10
47.3473451137724
20
-24.723332968123
30
-2E-16
41
1
10
47.6439322730971
20
-24.7881586214779
30
-2E-16
41
1
10
47.8438568753159
20
-24.8350160700642
30
-2E-16
41
1
10
48.0886705458158
20
-24.8941374992844
30
-2E-16
41
1
10
48.16102839184
20
-24.9119854901002
30
-2E-16
41
1
10
48.2551716191049
20
-24.9354906178008
30
1E-16
41
1
10
48.2840940088941
20
-24.9427672577859
30
1E-16
41
1
10
48.3365045470568
20
-24.9560231374779
30
1E-16
41
1
10
48.3600770834951
20
-24.9620234220599
30
1E-16
41
1
10
48.4649164886347
20
-24.988817779209
30
0
41
1
10
48.5075077384681
20
-25.0000020319724
30
0
41
1
10
48.5075015114142
20
-25.0000003968899
30
0
0
SPLINE
5
CB
100
AcDbEntity
8
1
62
256
6
ByLayer
370
18
48
1
60
0
100
AcDbSpline
70
4
71
3
72
34
73
30
40
0
40
0
40
0
40
0
40
0.124997250574386
40
0.124997250574386
40
0.249994501148772
40
0.249994501148772
40
0.312493126435966
40
0.312493126435966
40
0.374991751723159
40
0.374991751723159
40
0.499989002297548
40
0.499989002297548
40
0.562487627584742
40
0.562487627584742
40
0.593736940228338
40
0.593736940228338
40
0.624986252871935
40
0.624986252871935
40
0.749983503446322
40
0.749983503446322
40
0.812482128733516
40
0.812482128733516
40
0.843731441377113
40
0.843731441377113
40
0.874980754020709
40
0.874980754020709
40
0.999978004595097
40
0.999978004595097
40
1
40
1
40
1
40
1
41
1
10
38
20
22.7914320524183
30
6E-16
41
1
10
37.4802675190683
20
22.8826474670068
30
5E-16
41
1
10
36.9850447221888
20
22.9866929747901
30
5E-16
41
1
10
36.0390512554304
20
23.2114451815091
30
4E-16
41
1
10
35.5883006175099
20
23.3321853902006
30
4E-16
41
1
10
34.9448015227309
20
23.5198448832359
30
4E-16
41
1
10
34.7350195032024
20
23.5837399607378
30
4E-16
41
1
10
34.3321764490771
20
23.7109334891088
30
3E-16
41
1
10
34.1386633090415
20
23.7743430611425
30
3E-16
41
1
10
33.5811331478301
20
23.9625601252392
30
3E-16
41
1
10
33.2399767511822
20
24.0853571208767
30
3E-16
41
1
10
32.7739816795979
20
24.2600092823247
30
2E-16
41
1
10
32.6263102452024
20
24.3166377944114
30
2E-16
41
1
10
32.4166415922519
20
24.3984834184977
30
2E-16
41
1
10
32.3487601075385
20
24.4252372705557
30
2E-16
41
1
10
32.2181598764832
20
24.4771358713217
30
2E-16
41
1
10
32.1552827734406
20
24.5023421514163
30
2E-16
41
1
10
31.8528770310294
20
24.6244694906089
30
2E-16
41
1
10
31.6490691398963
20
24.7096873887593
30
2E-16
41
1
10
31.400615152731
20
24.8151306804015
30
1E-16
41
1
10
31.3273828453069
20
24.8465463230137
30
1E-16
41
1
10
31.2323264033646
20
24.8875742640064
30
1E-16
41
1
10
31.2031091704331
20
24.9002339035021
30
1E-16
41
1
10
31.149717568202
20
24.9234312588237
30
-1E-16
41
1
10
31.1254996260371
20
24.9339880668729
30
-1E-16
41
1
10
31.018226875071
20
24.9808477946134
30
-1E-16
41
1
10
30.9756659894565
20
24.9997062988142
30
0
41
1
10
30.9750083955323
20
24.9999962975714
30
0
41
1
10
30.9750074804623
20
24.9999967011143
30
0
41
1
10
30.9750065653767
20
24.999997104622
30
0
0
SPLINE
5
CC
100
AcDbEntity
8
1
62
256
6
ByLayer
370
18
48
1
60
0
100
AcDbSpline
70
4
71
3
72
18
73
14
40
0
40
0
40
0
40
0
40
0.250000000000007
40
0.250000000000007
40
0.500000000000015
40
0.500000000000015
40
0.625000000000011
40
0.625000000000011
40
0.750000000000008
40
0.750000000000008
40
0.875000000000004
40
0.875000000000004
40
1
40
1
40
1
40
1
41
1
10
54.0871624327026
20
-24.4644313710251
30
-2E-16
41
1
10
54.1019733099957
20
-24.4509480951962
30
-2E-16
41
1
10
54.1196556780282
20
-24.4374250295353
30
-2E-16
41
1
10
54.1629498824106
20
-24.410519760817
30
-2E-16
41
1
10
54.1884141510796
20
-24.3971248611657
30
-2E-16
41
1
10
54.2365749827455
20
-24.3775106083669
30
-2E-16
41
1
10
54.2542277828814
20
-24.3711024694614
30
-2E-16
41
1
10
54.2936540939397
20
-24.3588768317627
30
-2E-16
41
1
10
54.3156024652752
20
-24.3530107972758
30
-2E-16
41
1
10
54.3644004805101
20
-24.3426141387189
30
-2E-16
41
1
10
54.3918749105991
20
-24.3379576997467
30
-2E-16
41
1
10
54.4525765269745
20
-24.3312376636545
30
-2E-16
41
1
10
54.4860550440573
20
-24.3292237902431
30
-2E-16
41
1
10
54.5201751345941
20
-24.3292237902431
30
-2E-16
0
SPLINE
5
CD
100
AcDbEntity
8
1
62
256
6
ByLayer
370
18
48
1
60
0
100
AcDbSpline
70
4
71
3
72
18
73
14
40
0
40
0
40
0
40
0
40
0.250000000000002
40
0.250000000000002
40
0.500000000000005
40
0.500000000000005
40
0.625000000000003
40
0.625000000000003
40
0.750000000000002
40
0.750000000000002
40
0.875000000000001
40
0.875000000000001
40
1
40
1
40
1
40
1
41
1
10
93.8632901322974
20
-20.6671125344573
30
4E-16
41
1
10
93.8484792550044
20
-20.6302630153514
30
4E-16
41
1
10
93.8307968869718
20
-20.5937819686675
30
4E-16
41
1
10
93.7875026825894
20
-20.5220484383611
30
4E-16
41
1
10
93.7620384139204
20
-20.4867646109675
30
4E-16
41
1
10
93.7138775822544
20
-20.435636142674
30
4E-16
41
1
10
93.6962247821185
20
-20.4190241672566
30
4E-16
41
1
10
93.6567984710603
20
-20.387478446685
30
4E-16
41
1
10
93.6348500997248
20
-20.3724209974207
30
4E-16
41
1
10
93.5860520844897
20
-20.3458317653832
30
4E-16
41
1
10
93.5585776544007
20
-20.3339786339853
30
4E-16
41
1
10
93.4978760380253
20
-20.3169062198236
30
4E-16
41
1
10
93.4643975209428
20
-20.3118081062299
30
4E-16
41
1
10
93.4302774304059
20
-20.3118081062298
30
4E-16
0
SPLINE
5
CE
100
AcDbEntity
8
1
62
256
6
ByLayer
370
18
48
1
60
0
100
AcDbSpline
70
2053
71
3
72
111
73
107
40
0
40
0
40
0
40
0
40
0.0312500000000002
40
0.0312500000000002
40
0.0468750000000003
40
0.0468750000000003
40
0.0625000000000004
40
0.0625000000000004
40
0.0937500000000007
40
0.0937500000000007
40
0.109375000000001
40
0.109375000000001
40
0.125000000000001
40
0.140625000000001
40
0.140625000000001
40
0.148437500000001
40
0.148437500000001
40
0.156250000000001
40
0.156250000000001
40
0.187500000000001
40
0.187500000000001
40
0.195312500000001
40
0.195312500000001
40
0.203125000000002
40
0.203125000000002
40
0.218750000000002
40
0.218750000000002
40
0.234375000000002
40
0.234375000000002
40
0.250000000000002
40
0.250000000000002
40
0.281250000000002
40
0.281250000000002
40
0.296875000000002
40
0.296875000000002
40
0.312500000000002
40
0.312500000000002
40
0.343750000000002
40
0.343750000000002
40
0.359375000000002
40
0.359375000000002
40
0.375000000000002
40
0.375000000000002
40
0.406250000000002
40
0.406250000000002
40
0.421875000000002
40
0.421875000000002
40
0.437500000000002
40
0.437500000000002
40
0.468750000000002
40
0.468750000000002
40
0.500000000000002
40
0.500000000000002
40
0.515625000000002
40
0.515625000000002
40
0.523437500000002
40
0.523437500000002
40
0.531250000000002
40
0.531250000000002
40
0.562500000000002
40
0.562500000000002
40
0.578125000000002
40
0.578125000000002
40
0.593750000000002
40
0.593750000000002
40
0.625000000000001
40
0.625000000000001
40
0.632812500000002
40
0.632812500000002
40
0.640625000000002
40
0.640625000000002
40
0.656250000000002
40
0.656250000000002
40
0.671875000000002
40
0.671875000000002
40
0.679687500000002
40
0.679687500000002
40
0.687500000000002
40
0.687500000000002
40
0.718750000000002
40
0.718750000000002
40
0.734375000000002
40
0.734375000000002
40
0.750000000000002
40
0.750000000000002
40
0.781250000000002
40
0.781250000000002
40
0.812500000000002
40
0.812500000000002
40
0.828125000000001
40
0.828125000000001
40
0.843750000000001
40
0.843750000000001
40
0.875000000000001
40
0.875000000000001
40
0.890625000000001
40
0.890625000000001
40
0.906250000000001
40
0.906250000000001
40
0.937500000000001
40
0.937500000000001
40
0.953125
40
0.953125
40
0.96875
40
0.96875
40
1
40
1
40
1
40
1
41
1
10
9.09205696187371
20
-3.82171263659778
30
6E-16
41
1
10
8.82448756341341
20
-3.64523081229811
30
5E-16
41
1
10
8.57720931904018
20
-3.44604210109043
30
5E-16
41
1
10
8.2369882991932
20
-3.11270127159332
30
5E-16
41
1
10
8.12866506510497
20
-2.99570602983618
30
5E-16
41
1
10
7.92312686619167
20
-2.74981744364376
30
5E-16
41
1
10
7.82746218871605
20
-2.62279165063842
30
5E-16
41
1
10
7.56142180839063
20
-2.22964393044072
30
5E-16
41
1
10
7.41177481276765
20
-1.95158074872737
30
5E-16
41
1
10
7.23135356114605
20
-1.50899591603607
30
4E-16
41
1
10
7.17848806959523
20
-1.35643078225559
30
4E-16
41
1
10
7.09064991651866
20
-1.05004529162971
30
4E-16
41
1
10
7.01991724338166
20
-0.740882969945488
30
4E-16
41
1
10
6.98304424442165
20
-0.426217961211819
30
4E-16
41
1
10
6.96834900408845
20
-0.188111873235925
30
4E-16
41
1
10
6.96561459880229
20
-0.108391301514359
30
4E-16
41
1
10
6.9645700419851
20
0.0517693035050968
30
4E-16
41
1
10
6.96628066221396
20
0.132390666424129
30
4E-16
41
1
10
6.98586512130075
20
0.53229796831792
30
4E-16
41
1
10
7.03630989018163
20
0.845489726089681
30
4E-16
41
1
10
7.14125841738627
20
1.22888038185315
30
4E-16
41
1
10
7.16436339649948
20
1.30514963142494
30
4E-16
41
1
10
7.21484668667509
20
1.45686268773866
30
4E-16
41
1
10
7.24231605142788
20
1.53252164932343
30
4E-16
41
1
10
7.33033877744003
20
1.75602276860235
30
4E-16
41
1
10
7.39653445997459
20
1.90071240154632
30
5E-16
41
1
10
7.54326354839185
20
2.18188206366119
30
5E-16
41
1
10
7.62379922178133
20
2.31836076846702
30
5E-16
41
1
10
7.79899168392825
20
2.58325198467691
30
5E-16
41
1
10
7.89399784385165
20
2.71208400927375
30
5E-16
41
1
10
8.19816945334378
20
3.08350123097841
30
5E-16
41
1
10
8.42269766587515
20
3.30716491038595
30
5E-16
41
1
10
8.78997480405161
20
3.60929101986454
30
5E-16
41
1
10
8.91752310296681
20
3.7043920270786
30
5E-16
41
1
10
9.18297876537068
20
3.88328742208759
30
6E-16
41
1
10
9.31964757343232
20
3.96619991147509
30
6E-16
41
1
10
9.73776694629723
20
4.1941832192376
30
6E-16
41
1
10
10.0286155841596
20
4.3196057752597
30
6E-16
41
1
10
10.4828256699214
20
4.46855233974463
30
6E-16
41
1
10
10.637960886096
20
4.5117505894639
30
7E-16
41
1
10
10.9490053567656
20
4.58344835293678
30
7E-16
41
1
10
11.1052742445256
20
4.61213781192555
30
7E-16
41
1
10
11.5762633201201
20
4.677304802653
30
7E-16
41
1
10
11.8931470962235
20
4.69306512725168
30
7E-16
41
1
10
12.3729264262072
20
4.67408621601314
30
8E-16
41
1
10
12.5330680019126
20
4.66055201267034
30
8E-16
41
1
10
12.8485817314843
20
4.61972689199087
30
8E-16
41
1
10
13.00470256432
20
4.59241736724982
30
8E-16
41
1
10
13.4682109204568
20
4.49000202537053
30
8E-16
41
1
10
13.7708176834759
20
4.39460038671913
30
8E-16
41
1
10
14.3623031433822
20
4.14614050338713
30
9E-16
41
1
10
14.6418333226659
20
3.99700968466871
30
9E-16
41
1
10
15.0372912069151
20
3.73650740085307
30
9E-16
41
1
10
15.1651100391818
20
3.64349619553963
30
9E-16
41
1
10
15.3506362225613
20
3.49437440696411
30
9E-16
41
1
10
15.4114427081959
20
3.44306334875432
30
9E-16
41
1
10
15.5309257875653
20
3.33713768460788
30
1E-15
41
1
10
15.5897144872187
20
3.28240052749311
30
1E-15
41
1
10
15.8749818904682
20
3.00335776220098
30
1E-15
41
1
10
16.078007556069
20
2.76125862580125
30
1E-15
41
1
10
16.344410927316
20
2.36938697734283
30
1E-15
41
1
10
16.4268107967538
20
2.23394202560667
30
1E-15
41
1
10
16.5781386916649
20
1.95288093673986
30
1E-15
41
1
10
16.6469803021332
20
1.8071068497575
30
1E-15
41
1
10
16.8274559344975
20
1.36540858478594
30
1E-15
41
1
10
16.9154128300471
20
1.06156991780935
30
1E-15
41
1
10
16.9838103142925
20
0.669703953220079
30
1E-15
41
1
10
16.9953924429614
20
0.590721678066728
30
1E-15
41
1
10
17.0142500361608
20
0.431506004461056
30
1E-15
41
1
10
17.0215143798961
20
0.351185112097937
30
1E-15
41
1
10
17.0365180589707
20
0.111508840472482
30
1E-15
41
1
10
17.0376356433397
20
-0.0475983684101493
30
1E-15
41
1
10
17.0225795375512
20
-0.36449524779087
30
1E-15
41
1
10
17.0064048184821
20
-0.522284840249768
30
1E-15
41
1
10
16.9691265312971
20
-0.757977944448641
30
1E-15
41
1
10
16.9545269720305
20
-0.836376791985117
30
1E-15
41
1
10
16.9209224277174
20
-0.99283914416327
30
1E-15
41
1
10
16.9018475623338
20
-1.0711352631719
30
1E-15
41
1
10
16.7963762841054
20
-1.45777008851218
30
1E-15
41
1
10
16.6799762268838
20
-1.75302810054194
30
1E-15
41
1
10
16.4600288395135
20
-2.17609081841692
30
1E-15
41
1
10
16.3787368237377
20
-2.31430850654292
30
1E-15
41
1
10
16.2022771388341
20
-2.58154663854961
30
1E-15
41
1
10
16.1078353281224
20
-2.70960331887625
30
1E-15
41
1
10
15.8067757176524
20
-3.07793704046767
30
1E-15
41
1
10
15.5825913966714
20
-3.30252666760091
30
1E-15
41
1
10
15.0875804881776
20
-3.71029970914299
30
9E-16
41
1
10
14.8241877206199
20
-3.88736007202169
30
9E-16
41
1
10
14.4070403546688
20
-4.11542630362482
30
9E-16
41
1
10
14.2642738531129
20
-4.18515308795497
30
9E-16
41
1
10
13.9712386781725
20
-4.31193426242194
30
9E-16
41
1
10
13.8206889753392
20
-4.36899811749564
30
8E-16
41
1
10
13.3665397003474
20
-4.51799766893089
30
8E-16
41
1
10
13.0576900201357
20
-4.58927650658353
30
8E-16
41
1
10
12.5854733638565
20
-4.65507940188547
30
8E-16
41
1
10
12.426567644474
20
-4.67011499434989
30
8E-16
41
1
10
12.1056655888696
20
-4.68598256402512
30
7E-16
41
1
10
11.9460337877236
20
-4.68669568861444
30
7E-16
41
1
10
11.469726338054
20
-4.66787756577608
30
7E-16
41
1
10
11.1555215688551
20
-4.62757498205278
30
7E-16
41
1
10
10.6892739972698
20
-4.52491960833819
30
7E-16
41
1
10
10.5340027159045
20
-4.48338521713708
30
6E-16
41
1
10
10.2289351591426
20
-4.38669448405014
30
6E-16
41
1
10
10.0795024584994
20
-4.33173679238928
30
6E-16
41
1
10
9.64038447384706
20
-4.14724732377914
30
6E-16
41
1
10
9.359626360334
20
-3.99819446089745
30
6E-16
41
1
10
9.09205696187371
20
-3.82171263659778
30
6E-16
0
SPLINE
5
CF
100
AcDbEntity
8
1
62
256
6
ByLayer
370
18
48
1
60
0
100
AcDbSpline
70
4
71
3
72
16
73
12
40
0
40
0
40
0
40
0
40
0.125
40
0.125
40
0.25
40
0.25
40
0.5
40
0.5
40
0.75
40
0.75
40
1
40
1
40
1
40
1
41
1
10
13.4613248654052
20
-30.0691920745855
30
8E-16
41
1
10
13.4928213771842
20
-30.0691920745855
30
8E-16
41
1
10
13.5234661705406
20
-30.0672783796022
30
8E-16
41
1
10
13.581579402661
20
-30.060366764964
30
8E-16
41
1
10
13.6080165151673
20
-30.0555436480818
30
8E-16
41
1
10
13.6818324920038
20
-30.0381534377473
30
8E-16
41
1
10
13.7208869637461
20
-30.0235152138718
30
8E-16
41
1
10
13.7875212864916
20
-29.9916915948323
30
8E-16
41
1
10
13.8142915314464
20
-29.9747442332208
30
8E-16
41
1
10
13.8599556230287
20
-29.9394371416491
30
8E-16
41
1
10
13.8787495712987
20
-29.9210078356702
30
8E-16
41
1
10
13.8943375672975
20
-29.9021630620273
30
9E-16
0
SPLINE
5
D0
100
AcDbEntity
8
1
62
256
6
ByLayer
370
18
48
1
60
0
100
AcDbSpline
70
4
71
3
72
16
73
12
40
0
40
0
40
0
40
0
40
0.250000000000001
40
0.250000000000001
40
0.500000000000002
40
0.500000000000002
40
0.750000000000003
40
0.750000000000003
40
0.875000000000002
40
0.875000000000002
40
1
40
1
40
1
40
1
41
1
10
13.8943375672974
20
29.9021630620273
30
9E-16
41
1
10
13.8787554376954
20
29.9210007436156
30
8E-16
41
1
10
13.8601100335811
20
29.9392944570177
30
8E-16
41
1
10
13.8145406850166
20
29.9745746801436
30
8E-16
41
1
10
13.7875376435529
20
29.9916836375546
30
8E-16
41
1
10
13.720873956999
20
30.0235215710803
30
8E-16
41
1
10
13.6811255577407
20
30.038314982415
30
8E-16
41
1
10
13.6084674157505
20
30.0554399165011
30
8E-16
41
1
10
13.5814691961411
20
30.0603746070362
30
8E-16
41
1
10
13.5238451158643
20
30.0672385509654
30
8E-16
41
1
10
13.4927757288618
20
30.0691920745855
30
8E-16
41
1
10
13.4613248654052
20
30.0691920745855
30
8E-16
0
SPLINE
5
D1
100
AcDbEntity
8
1
62
256
6
ByLayer
370
18
48
1
60
0
100
AcDbSpline
70
4
71
3
72
34
73
30
40
0
40
0
40
0
40
0
40
0.124987300391017
40
0.124987300391017
40
0.187488207505944
40
0.187488207505944
40
0.249989114620872
40
0.249989114620872
40
0.374990928850727
40
0.374990928850727
40
0.406241382408191
40
0.406241382408191
40
0.437491835965655
40
0.437491835965655
40
0.499992743080583
40
0.499992743080583
40
0.624994557310439
40
0.624994557310439
40
0.656245010867902
40
0.656245010867902
40
0.687495464425366
40
0.687495464425366
40
0.749996371540292
40
0.749996371540292
40
0.874998185770146
40
0.874998185770146
40
0.937499092885073
40
0.937499092885073
40
1
40
1
40
1
40
1
41
1
10
53.0249925174153
20
24.9999967001774
30
0
41
1
10
53.0256409914693
20
25.0002826562369
30
0
41
1
10
52.9843991998727
20
24.9820053247711
30
-1E-16
41
1
10
52.8572748353604
20
24.9264586098654
30
-1E-16
41
1
10
52.8043698042653
20
24.9034249506319
30
1E-16
41
1
10
52.6787876622312
20
24.8491986458207
30
1E-16
41
1
10
52.6060314521426
20
24.8179712404743
30
1E-16
41
1
10
52.3584727865899
20
24.7128510453005
30
1E-16
41
1
10
52.1545585351225
20
24.6275229503814
30
-4E-16
41
1
10
51.8503819450844
20
24.5046179883163
30
-4E-16
41
1
10
51.787110988577
20
24.4792429365435
30
-4E-16
41
1
10
51.656662875209
20
24.4273807668573
30
-4E-16
41
1
10
51.5893665478052
20
24.4008453057259
30
-4E-16
41
1
10
51.3813563274889
20
24.3195996045683
30
-4E-16
41
1
10
51.2345313182342
20
24.263250799748
30
-4E-16
41
1
10
50.7699836493704
20
24.0889927358184
30
-4E-16
41
1
10
50.4283494357665
20
23.965855214661
30
4E-16
41
1
10
49.9602427063054
20
23.8077103976465
30
4E-16
41
1
10
49.8643651532453
20
23.7758098211009
30
4E-16
41
1
10
49.6694507345468
20
23.712051112361
30
4E-16
41
1
10
49.57047222278
20
23.6802097656168
30
-5E-16
41
1
10
49.2690109905242
20
23.584985377381
30
-5E-16
41
1
10
49.0620100030473
20
23.5219015185704
30
-5E-16
41
1
10
48.4229547983987
20
23.3353312898491
30
-6E-16
41
1
10
47.9729713903119
20
23.2144921772793
30
-6E-16
41
1
10
47.2600223656089
20
23.0448243970653
30
-7E-16
41
1
10
47.0157083354447
20
22.9901438819759
30
-7E-16
41
1
10
46.5149280064558
20
22.8861084614921
30
-7E-16
41
1
10
46.259867821933
20
22.8370400372672
30
-7E-16
41
1
10
46
20
22.7914320524183
30
-7E-16
0
SPLINE
5
D2
100
AcDbEntity
8
1
62
256
6
ByLayer
370
18
48
1
60
0
100
AcDbSpline
70
4
71
3
72
16
73
12
40
0
40
0
40
0
40
0
40
0.125000000000001
40
0.125000000000001
40
0.250000000000002
40
0.250000000000002
40
0.500000000000001
40
0.500000000000001
40
0.75
40
0.75
40
1
40
1
40
1
40
1
41
1
10
93.4302774304052
20
-24.3292237902435
30
4E-16
41
1
10
93.4644186779027
20
-24.3292237902435
30
4E-16
41
1
10
93.4976981501639
20
-24.3312249927546
30
4E-16
41
1
10
93.5583613463622
20
-24.3379267762593
30
4E-16
41
1
10
93.5858818524281
20
-24.3425797557771
30
4E-16
41
1
10
93.6594178179429
20
-24.3582413060995
30
4E-16
41
1
10
93.6976922778975
20
-24.3709424518323
30
4E-16
41
1
10
93.7614544095557
20
-24.3968637172337
30
4E-16
41
1
10
93.7870478523247
20
-24.4102605486199
30
4E-16
41
1
10
93.8306717143986
20
-24.4373241075995
30
4E-16
41
1
10
93.8484709200546
20
-24.4509405073658
30
4E-16
41
1
10
93.8632901322974
20
-24.4644313710251
30
4E-16
0
SPLINE
5
D3
100
AcDbEntity
8
1
62
256
6
ByLayer
370
18
48
1
60
0
100
AcDbSpline
70
4
71
3
72
16
73
12
40
0
40
0
40
0
40
0
40
0.250000000000001
40
0.250000000000001
40
0.500000000000002
40
0.500000000000002
40
0.750000000000003
40
0.750000000000003
40
0.875000000000002
40
0.875000000000002
40
1
40
1
40
1
40
1
41
1
10
13.8943375672974
20
-9.88120440340796
30
9E-16
41
1
10
13.8787554376954
20
-9.82419845518876
30
8E-16
41
1
10
13.8601100335811
20
-9.76828922026249
30
8E-16
41
1
10
13.8145406850166
20
-9.65948754433705
30
8E-16
41
1
10
13.7875376435529
20
-9.60620741929748
30
8E-16
41
1
10
13.720873956999
20
-9.50623273797817
30
8E-16
41
1
10
13.6811255577407
20
-9.4593152568018
30
8E-16
41
1
10
13.6084674157505
20
-9.40470369765438
30
8E-16
41
1
10
13.5814691961411
20
-9.38890662232873
30
8E-16
41
1
10
13.5238451158643
20
-9.36690210248261
30
8E-16
41
1
10
13.4927757288618
20
-9.36062200025646
30
8E-16
41
1
10
13.4613248654052
20
-9.36062200025646
30
8E-16
0
SPLINE
5
D4
100
AcDbEntity
8
1
62
256
6
ByLayer
370
18
48
1
60
0
100
AcDbSpline
70
4
71
3
72
16
73
12
40
0
40
0
40
0
40
0
40
0.124999999999999
40
0.124999999999999
40
0.249999999999997
40
0.249999999999997
40
0.499999999999998
40
0.499999999999998
40
0.749999999999999
40
0.749999999999999
40
1
40
1
40
1
40
1
41
1
10
10.5386751345948
20
30.0691920745855
30
6E-16
41
1
10
10.5071786228158
20
30.0691920745855
30
6E-16
41
1
10
10.4765338294594
20
30.0672783796022
30
6E-16
41
1
10
10.418420597339
20
30.060366764964
30
6E-16
41
1
10
10.3919834848326
20
30.0555436480818
30
6E-16
41
1
10
10.3181675079962
20
30.0381534377473
30
6E-16
41
1
10
10.2791130362539
20
30.0235152138718
30
6E-16
41
1
10
10.2124787135084
20
29.9916915948323
30
6E-16
41
1
10
10.1857084685535
20
29.9747442332208
30
6E-16
41
1
10
10.1400443769713
20
29.9394371416491
30
6E-16
41
1
10
10.1212504287013
20
29.9210078356702
30
6E-16
41
1
10
10.1056624327025
20
29.9021630620273
30
6E-16
0
SPLINE
5
D5
100
AcDbEntity
8
SK1
62
256
6
ByLayer
370
18
48
1
60
0
100
AcDbSpline
70
4
71
3
72
26
73
22
40
0
40
0
40
0
40
0
40
0.249999999999999
40
0.249999999999999
40
0.499999999999998
40
0.499999999999998
40
0.624999999999998
40
0.624999999999998
40
0.687499999999999
40
0.687499999999999
40
0.749999999999999
40
0.749999999999999
40
0.8125
40
0.8125
40
0.875
40
0.875
40
0.90625
40
0.90625
40
0.9375
40
0.9375
40
1
40
1
40
1
40
1
41
1
10
-1.30710678118655
20
4.81101329740287
30
-1E-16
41
1
10
-1.27777674809059
20
4.97696208805698
30
-1E-16
41
1
10
-1.24449184372196
20
5.14110933888279
30
-1E-16
41
1
10
-1.16572403812256
20
5.46520409815369
30
-1E-16
41
1
10
-1.12041986952278
20
5.6256050965446
30
-1E-16
41
1
10
-1.03604034231174
20
5.8587126805154
30
-1E-16
41
1
10
-1.00514324915739
20
5.93523451486294
30
-1E-16
41
1
10
-0.951595196519435
20
6.0472637337192
30
-1E-16
41
1
10
-0.932528346394264
20
6.08414226541933
30
-1E-16
41
1
10
-0.890792591052104
20
6.15658914480932
30
-1E-16
41
1
10
-0.868002365536483
20
6.19240090738293
30
-1E-16
41
1
10
-0.817160575688774
20
6.26079505981488
30
-1E-16
41
1
10
-0.78943316382157
20
6.29319778625765
30
0
41
1
10
-0.724969179207164
20
6.3511315882958
30
0
41
1
10
-0.687361729542516
20
6.37733024517155
30
0
41
1
10
-0.622158748110508
20
6.39958064489755
30
0
41
1
10
-0.599752058367812
20
6.40383193253038
30
0
41
1
10
-0.553302263737379
20
6.40463597982006
30
0
41
1
10
-0.530550758266997
20
6.40110290558124
30
0
41
1
10
-0.464963827939329
20
6.38073633145271
30
0
41
1
10
-0.427743955231961
20
6.35579794481995
30
0
41
1
10
-0.394976888874737
20
6.32694309068151
30
0
0
SPLINE
5
D6
100
AcDbEntity
8
SK1
62
256
6
ByLayer
370
18
48
1
60
0
100
AcDbSpline
70
4
71
3
72
30
73
26
40
0
40
0
40
0
40
0
40
0.0312500000000002
40
0.0312500000000002
40
0.0625000000000003
40
0.0625000000000003
40
0.0937500000000005
40
0.0937500000000005
40
0.125000000000001
40
0.125000000000001
40
0.156250000000001
40
0.156250000000001
40
0.187500000000001
40
0.187500000000001
40
0.250000000000001
40
0.250000000000001
40
0.312500000000002
40
0.312500000000002
40
0.375000000000002
40
0.375000000000002
40
0.500000000000002
40
0.500000000000002
40
0.750000000000001
40
0.750000000000001
40
1
40
1
40
1
40
1
41
1
10
-0.394976888875306
20
-6.32694279392757
30
0
41
1
10
-0.411238696721739
20
-6.34126302490415
30
0
41
1
10
-0.428507485946397
20
-6.35445833731507
30
0
41
1
10
-0.466057816276162
20
-6.37750355983715
30
0
41
1
10
-0.486259278879999
20
-6.38723211102033
30
0
41
1
10
-0.528928737140888
20
-6.40070980810009
30
0
41
1
10
-0.552005370573369
20
-6.40446654618015
30
0
41
1
10
-0.597682826800451
20
-6.40404538429897
30
0
41
1
10
-0.620747969171362
20
-6.39988942772291
30
0
41
1
10
-0.663841284887127
20
-6.38551624086296
30
0
41
1
10
-0.684254761753067
20
-6.37530734814359
30
0
41
1
10
-0.721714491331909
20
-6.35175818060955
30
0
41
1
10
-0.739184552681451
20
-6.33820913265026
30
0
41
1
10
-0.788162075932064
20
-6.29461172820729
30
0
41
1
10
-0.81596411338856
20
-6.26223556861285
30
0
41
1
10
-0.86681058547714
20
-6.19416487342835
30
-1E-16
41
1
10
-0.889725334639479
20
-6.15831922452332
30
-1E-16
41
1
10
-0.931663440024408
20
-6.08576021404923
30
-1E-16
41
1
10
-0.950810679353566
20
-6.04882063700353
30
-1E-16
41
1
10
-1.00456810808538
20
-5.93660131926188
30
-1E-16
41
1
10
-1.03556300059231
20
-5.85994358458373
30
-1E-16
41
1
10
-1.12018816360202
20
-5.62641894994655
30
-1E-16
41
1
10
-1.16556178401132
20
-5.4658169284836
30
-1E-16
41
1
10
-1.24442385148589
20
-5.14144332217063
30
-1E-16
41
1
10
-1.27774590369947
20
-4.97713666802878
30
-1E-16
41
1
10
-1.30710678118655
20
-4.81101321788441
30
-1E-16
0
SPLINE
5
D7
100
AcDbEntity
8
SK1
62
256
6
ByLayer
370
18
48
1
60
0
100
AcDbSpline
70
4
71
3
72
299
73
295
40
0
40
0
40
0
40
0
40
0.0029480153305563
40
0.0064730873076966
40
0.009998159284837
40
0.0135232312619774
40
0.0170483032391177
40
0.0205733752162581
40
0.0240984471933984
40
0.0276235191705387
40
0.0346736631248194
40
0.0417238070791001
40
0.0487739510333808
40
0.0522990230105212
40
0.0558240949876615
40
0.0593491669648019
40
0.0628742389419422
40
0.0699243828962229
40
0.0734494548733633
40
0.0769745268505036
40
0.0804995988276439
40
0.0840246708047843
40
0.0875497427819247
40
0.091074814759065
40
0.0981249587133457
40
0.101650030690486
40
0.105175102667626
40
0.108700174644767
40
0.112225246621907
40
0.115750318599047
40
0.119275390576188
40
0.122800462553328
40
0.126325534530468
40
0.129850606507609
40
0.133375678484749
40
0.136900750461889
40
0.14042582243903
40
0.14395089441617
40
0.147475966393311
40
0.154526110347591
40
0.158051182324732
40
0.161576254301872
40
0.163338790290442
40
0.165101326279012
40
0.168626398256153
40
0.175676542210433
40
0.179201614187574
40
0.182726686164714
40
0.186251758141854
40
0.189776830118995
40
0.196826974073276
40
0.200352046050416
40
0.203877118027556
40
0.205639654016126
40
0.207402190004697
40
0.210927261981837
40
0.217977405936118
40
0.221502477913258
40
0.225027549890398
40
0.228552621867539
40
0.232077693844679
40
0.23912783779896
40
0.2426529097761
40
0.24617798175324
40
0.247940517741811
40
0.249703053730381
40
0.253228125707521
40
0.256753197684661
40
0.260278269661802
40
0.262040805650372
40
0.263803341638942
40
0.267328413616083
40
0.270853485593223
40
0.274378557570363
40
0.277903629547503
40
0.281428701524644
40
0.284953773501784
40
0.288478845478925
40
0.292003917456065
40
0.295528989433205
40
0.299054061410346
40
0.302579133387486
40
0.306104205364626
40
0.309629277341767
40
0.313154349318907
40
0.316679421296047
40
0.323729565250328
40
0.327254637227468
40
0.330779709204609
40
0.334304781181749
40
0.33782985315889
40
0.34135492513603
40
0.34487999711317
40
0.34840506909031
40
0.351930141067451
40
0.358980285021732
40
0.366030428976012
40
0.373080572930293
40
0.376605644907433
40
0.380130716884574
40
0.383655788861714
40
0.387180860838854
40
0.390705932815995
40
0.394231004793135
40
0.397756076770275
40
0.401281148747416
40
0.404806220724556
40
0.408331292701697
40
0.411856364678837
40
0.415381436655977
40
0.418906508633118
40
0.422431580610258
40
0.425956652587398
40
0.429481724564539
40
0.433006796541679
40
0.434769332530249
40
0.436531868518819
40
0.438294404507389
40
0.44005694049596
40
0.4435820124731
40
0.44710708445024
40
0.448869620438811
40
0.450632156427381
40
0.452394692415951
40
0.454157228404521
40
0.457682300381662
40
0.459444836370232
40
0.461207372358802
40
0.462969908347372
40
0.464732444335942
40
0.466494980324512
40
0.468257516313082
40
0.470020052301653
40
0.471782588290223
40
0.473545124278793
40
0.475307660267363
40
0.477070196255933
40
0.478832732244504
40
0.480595268233074
40
0.482357804221644
40
0.484120340210214
40
0.485882876198784
40
0.487645412187354
40
0.489407948175925
40
0.491170484164495
40
0.492933020153065
40
0.494695556141635
40
0.496458092130205
40
0.498220628118775
40
0.499983164107346
40
0.501745700095916
40
0.503508236084486
40
0.505270772073056
40
0.507033308061626
40
0.508795844050197
40
0.510558380038767
40
0.512320916027337
40
0.514083452015907
40
0.515845988004477
40
0.517608523993047
40
0.519371059981618
40
0.521133595970188
40
0.522896131958758
40
0.524658667947328
40
0.526421203935898
40
0.528183739924468
40
0.529946275913039
40
0.531708811901609
40
0.533471347890179
40
0.535233883878749
40
0.536996419867319
40
0.538758955855889
40
0.54052149184446
40
0.54228402783303
40
0.54580909981017
40
0.54757163579874
40
0.549334171787311
40
0.551096707775881
40
0.552859243764451
40
0.556384315741591
40
0.559909387718732
40
0.561671923707302
40
0.563434459695872
40
0.565196995684442
40
0.566959531673012
40
0.570484603650153
40
0.574009675627293
40
0.577534747604433
40
0.581059819581574
40
0.584584891558714
40
0.588109963535854
40
0.591635035512995
40
0.595160107490135
40
0.598685179467275
40
0.602210251444416
40
0.605735323421556
40
0.609260395398696
40
0.612785467375837
40
0.616310539352977
40
0.619835611330117
40
0.623360683307258
40
0.626885755284398
40
0.633935899238679
40
0.64098604319296
40
0.64803618714724
40
0.651561259124381
40
0.655086331101521
40
0.658611403078661
40
0.662136475055802
40
0.665661547032942
40
0.669186619010082
40
0.672711690987223
40
0.676236762964363
40
0.683286906918644
40
0.686811978895784
40
0.690337050872924
40
0.693862122850065
40
0.697387194827205
40
0.700912266804346
40
0.704437338781486
40
0.707962410758626
40
0.711487482735767
40
0.715012554712907
40
0.718537626690047
40
0.722062698667188
40
0.725587770644328
40
0.732637914598609
40
0.736162986575749
40
0.73968805855289
40
0.74673820250717
40
0.750263274484311
40
0.753788346461451
40
0.757313418438591
40
0.760838490415732
40
0.767888634370012
40
0.771413706347153
40
0.774938778324293
40
0.778463850301433
40
0.781988922278574
40
0.789039066232854
40
0.792564138209995
40
0.796089210187135
40
0.799614282164275
40
0.803139354141416
40
0.810189498095697
40
0.813714570072837
40
0.817239642049977
40
0.820764714027117
40
0.824289786004258
40
0.831339929958538
40
0.834865001935679
40
0.838390073912819
40
0.84191514588996
40
0.8454402178671
40
0.852490361821381
40
0.856015433798521
40
0.859540505775661
40
0.863065577752802
40
0.866590649729942
40
0.870115721707082
40
0.873640793684223
40
0.877165865661363
40
0.880690937638503
40
0.884216009615644
40
0.887741081592784
40
0.891266153569925
40
0.894791225547065
40
0.898316297524205
40
0.901841369501346
40
0.908891513455626
40
0.912416585432766
40
0.915941657409907
40
0.919466729387047
40
0.922991801364188
40
0.926516873341328
40
0.930041945318468
40
0.937092089272749
40
0.940617161249889
40
0.94414223322703
40
0.94766730520417
40
0.951192377181311
40
0.958242521135591
40
0.961767593112732
40
0.965292665089872
40
0.968817737067012
40
0.972342809044152
40
0.975867881021293
40
0.979392952998433
40
0.982918024975574
40
0.986443096952714
40
0.989968168929854
40
0.993493240906995
40
0.997018312884135
40
1
40
1
40
1
40
1
41
1
10
-38
20
20.29234864528
30
2E-16
41
1
10
-38
20
20.292355123785
30
1E-16
41
1
10
-38
20
20.2915870930351
30
-1E-16
41
1
10
-38
20
20.2877827415225
30
-1E-16
41
1
10
-38
20
20.2807871950942
30
-1E-16
41
1
10
-38
20
20.270864225278
30
-1E-16
41
1
10
-38
20
20.2580557575388
30
-1E-16
41
1
10
-38
20
20.2424031034125
30
-1E-16
41
1
10
-38
20
20.2239454925533
30
-1E-16
41
1
10
-38
20
20.19551262204
30
-1E-16
41
1
10
-38
20
20.153458157969
30
-1E-16
41
1
10
-38
20
20.0921783324266
30
-1E-16
41
1
10
-38
20
20.0326760120608
30
0
41
1
10
-38
20
19.9796195423852
30
0
41
1
10
-38
20
19.9374871337363
30
0
41
1
10
-38
20
19.8928775037255
30
0
41
1
10
-38
20
19.8298739849263
30
0
41
1
10
-38
20
19.7628242930463
30
0
41
1
10
-38
20
19.6902080345968
30
-1E-16
41
1
10
-38
20
19.6336084813315
30
-1E-16
41
1
10
-38
20
19.5746836513967
30
-1E-16
41
1
10
-38
20
19.5134574775013
30
-1E-16
41
1
10
-38
20
19.4499498796239
30
-1E-16
41
1
10
-38
20
19.361926580552
30
-1E-16
41
1
10
-38
20
19.2704514952516
30
-1E-16
41
1
10
-38
20
19.1735363516591
30
-1E-16
41
1
10
-38
20
19.0989364266239
30
-1E-16
41
1
10
-38
20
19.0221745884206
30
-1E-16
41
1
10
-38
20
18.9432715601189
30
-1E-16
41
1
10
-38
20
18.8622425921487
30
-1E-16
41
1
10
-38
20
18.7791047356355
30
3E-16
41
1
10
-38
20
18.6938772447032
30
3E-16
41
1
10
-38
20
18.6065734364562
30
3E-16
41
1
10
-38
20
18.5172096781029
30
3E-16
41
1
10
-38
20
18.4258037757915
30
3E-16
41
1
10
-38
20
18.3323676597213
30
3E-16
41
1
10
-38
20
18.236917040573
30
3E-16
41
1
10
-38
20
18.1394682315479
30
3E-16
41
1
10
-38
20
18.006423045464
30
3E-16
41
1
10
-38
20
17.870842154793
30
3E-16
41
1
10
-38
20
17.7299440627733
30
3E-16
41
1
10
-38
20
17.6408187485726
30
3E-16
41
1
10
-38
20
17.5681131617785
30
3E-16
41
1
10
-38
20
17.4947669133713
30
3E-16
41
1
10
-38
20
17.3649201654158
30
3E-16
41
1
10
-38
20
17.2140632768009
30
3E-16
41
1
10
-38
20
17.0578935907134
30
-6E-16
41
1
10
-38
20
16.9392992293059
30
-6E-16
41
1
10
-38
20
16.8188549914818
30
-6E-16
41
1
10
-38
20
16.6552510003021
30
-6E-16
41
1
10
-38
20
16.489672496603
30
-6E-16
41
1
10
-38
20
16.3187666825072
30
-6E-16
41
1
10
-38
20
16.2111031772939
30
-6E-16
41
1
10
-38
20
16.1235473577608
30
-6E-16
41
1
10
-38
20
16.0353949417433
30
-6E-16
41
1
10
-38
20
15.8797855584285
30
-6E-16
41
1
10
-38
20
15.6999813794666
30
-6E-16
41
1
10
-38
20
15.5148116907138
30
-6E-16
41
1
10
-38
20
15.3746600384839
30
-6E-16
41
1
10
-38
20
15.2327750536327
30
-6E-16
41
1
10
-38
20
15.0406360987563
30
-6E-16
41
1
10
-38
20
14.8470518249568
30
-6E-16
41
1
10
-38
20
14.6480433816337
30
-6E-16
41
1
10
-38
20
14.5230237603812
30
-6E-16
41
1
10
-38
20
14.4215395322791
30
-6E-16
41
1
10
-38
20
14.319494446119
30
-6E-16
41
1
10
-38
20
14.1916826014269
30
-6E-16
41
1
10
-38
20
14.0362107113462
30
-6E-16
41
1
10
-38
20
13.905633632864
30
-6E-16
41
1
10
-38
20
13.7996824703933
30
-6E-16
41
1
10
-38
20
13.6931799140641
30
-6E-16
41
1
10
-38
20
13.5598675642285
30
-6E-16
41
1
10
-38
20
13.3977994204325
30
-6E-16
41
1
10
-38
20
13.2340971553998
30
-6E-16
41
1
10
-38
20
13.0687736820565
30
-6E-16
41
1
10
-38
20
12.9018380893652
30
-6E-16
41
1
10
-38
20
12.7332922951509
30
-6E-16
41
1
10
-38
20
12.5631480531082
30
-6E-16
41
1
10
-38
20
12.3914123687224
30
-6E-16
41
1
10
-38
20
12.2180896154105
30
-6E-16
41
1
10
-38
20
12.0431930727568
30
-6E-16
41
1
10
-38
20
11.8667275879997
30
-6E-16
41
1
10
-38
20
11.6886992220563
30
-6E-16
41
1
10
-38
20
11.5091211559413
30
-6E-16
41
1
10
-38
20
11.3279971676986
30
-6E-16
41
1
10
-38
20
11.0835274575533
30
1.2E-15
41
1
10
-38
20
10.8388445996823
30
1.2E-15
41
1
10
-38
20
10.5882272221232
30
1.2E-15
41
1
10
-38
20
10.3995106478125
30
1.2E-15
41
1
10
-38
20
10.2093006505112
30
1.2E-15
41
1
10
-38
20
10.0176111741013
30
1.2E-15
41
1
10
-38
20
9.82444825814403
30
1.2E-15
41
1
10
-38
20
9.62982433363783
30
1.2E-15
41
1
10
-38
20
9.43375032895256
30
1.2E-15
41
1
10
-38
20
9.16930024978845
30
1.2E-15
41
1
10
-38
20
8.83774034996793
30
1.2E-15
41
1
10
-38
20
8.43283016067576
30
1.2E-15
41
1
10
-38
20
8.09202302704495
30
1.2E-15
41
1
10
-38
20
7.81440668711983
30
1.2E-15
41
1
10
-38
20
7.60585888080686
30
1.2E-15
41
1
10
-38
20
7.39600299493051
30
1.2E-15
41
1
10
-38
20
7.18486050853949
30
1.2E-15
41
1
10
-38
20
6.972454820743
30
1.2E-15
41
1
10
-38
20
6.75880464755275
30
1.2E-15
41
1
10
-38
20
6.54393387937549
30
1.2E-15
41
1
10
-38
20
6.32787102064523
30
1.2E-15
41
1
10
-38
20
6.11064460524278
30
1.2E-15
41
1
10
-38
20
5.89228682406826
30
1.2E-15
41
1
10
-38
20
5.67283049766698
30
1.2E-15
41
1
10
-38
20
5.45231041402207
30
1.2E-15
41
1
10
-38
20
5.2307661198837
30
1.2E-15
41
1
10
-38
20
5.00824236668089
30
1.2E-15
41
1
10
-38
20
4.78478453894905
30
1.2E-15
41
1
10
-38
20
4.56044477194348
30
1.2E-15
41
1
10
-38
20
4.3737593142329
30
1.2E-15
41
1
10
-38
20
4.22222174308928
30
1.2E-15
41
1
10
-38
20
4.10916467830538
30
1.2E-15
41
1
10
-38
20
3.99593123757285
30
1.2E-15
41
1
10
-38
20
3.84368490764803
30
1.2E-15
41
1
10
-38
20
3.65544484289478
30
1.2E-15
41
1
10
-38
20
3.46668355973628
30
1.2E-15
41
1
10
-38
20
3.31336520651504
30
1.2E-15
41
1
10
-38
20
3.19916977025284
30
1.2E-15
41
1
10
-38
20
3.0848771849204
30
1.2E-15
41
1
10
-38
20
2.93116533478539
30
1.2E-15
41
1
10
-38
20
2.7810630459212
30
1.2E-15
41
1
10
-38
20
2.62697343511894
30
1.2E-15
41
1
10
-38
20
2.51237687493429
30
1.2E-15
41
1
10
-38
20
2.39774974487253
30
1.2E-15
41
1
10
-38
20
2.28311555219403
30
1.2E-15
41
1
10
-38
20
2.16847618976473
30
1.2E-15
41
1
10
-38
20
2.05384840107453
30
1.2E-15
41
1
10
-38
20
1.93924458170406
30
1.2E-15
41
1
10
-38
20
1.82466899171223
30
1.2E-15
41
1
10
-38
20
1.71014121398446
30
1.2E-15
41
1
10
-38
20
1.59566009898879
30
1.2E-15
41
1
10
-38
20
1.48124309885608
30
1.2E-15
41
1
10
-38
20
1.36688883878045
30
1.2E-15
41
1
10
-38
20
1.25260906632701
30
1.2E-15
41
1
10
-38
20
1.13840321986405
30
1.2E-15
41
1
10
-38
20
1.02427614220741
30
1.2E-15
41
1
10
-38
20
0.910225811803912
30
1.2E-15
41
1
10
-38
20
0.796251800903974
30
1.2E-15
41
1
10
-38
20
0.682349388495624
30
1.2E-15
41
1
10
-38
20
0.568513483413511
30
1.2E-15
41
1
10
-38
20
0.454735475948979
30
1.2E-15
41
1
10
-38
20
0.341006791030111
30
1.2E-15
41
1
10
-38
20
0.227315919379521
30
1.2E-15
41
1
10
-38
20
0.113651444289076
30
1.2E-15
41
1
10
-38
20
2.39306814E-08
30
1.2E-15
41
1
10
-38
20
-0.113651428861147
30
1.2E-15
41
1
10
-38
20
-0.227315965161807
30
1.2E-15
41
1
10
-38
20
-0.341006831114754
30
1.2E-15
41
1
10
-38
20
-0.454735424962735
30
1.2E-15
41
1
10
-38
20
-0.568513412391525
30
1.2E-15
41
1
10
-38
20
-0.682349437337052
30
1.2E-15
41
1
10
-38
20
-0.796251898049235
30
1.2E-15
41
1
10
-38
20
-0.910225765592202
30
1.2E-15
41
1
10
-38
20
-1.02427601417025
30
1.2E-15
41
1
10
-38
20
-1.13840324907633
30
1.2E-15
41
1
10
-38
20
-1.25260921865757
30
1.2E-15
41
1
10
-38
20
-1.36688883944316
30
1.2E-15
41
1
10
-38
20
-1.48124293103632
30
1.2E-15
41
1
10
-38
20
-1.59566004663384
30
1.2E-15
41
1
10
-38
20
-1.71014137238996
30
1.2E-15
41
1
10
-38
20
-1.82466911261432
30
1.2E-15
41
1
10
-38
20
-1.93924446866484
30
1.2E-15
41
1
10
-38
20
-2.05384821372689
30
1.2E-15
41
1
10
-38
20
-2.1684762190329
30
1.2E-15
41
1
10
-38
20
-2.28311576323418
30
1.2E-15
41
1
10
-38
20
-2.39774983280105
30
1.2E-15
41
1
10
-38
20
-2.51237672316307
30
1.2E-15
41
1
10
-38
20
-2.62697323991799
30
1.2E-15
41
1
10
-38
20
-2.78106315146928
30
1.2E-15
41
1
10
-38
20
-2.93116552693385
30
1.2E-15
41
1
10
-38
20
-3.08487708212581
30
1.2E-15
41
1
10
-38
20
-3.19916954549007
30
1.2E-15
41
1
10
-38
20
-3.31336512600546
30
1.2E-15
41
1
10
-38
20
-3.46668375918677
30
1.2E-15
41
1
10
-38
20
-3.65544489425088
30
1.2E-15
41
1
10
-38
20
-3.84368470208372
30
1.2E-15
41
1
10
-38
20
-3.99593117493791
30
1.2E-15
41
1
10
-38
20
-4.10916481607396
30
1.2E-15
41
1
10
-38
20
-4.22222196867938
30
1.2E-15
41
1
10
-38
20
-4.37375933349006
30
1.2E-15
41
1
10
-38
20
-4.56044458630845
30
1.2E-15
41
1
10
-38
20
-4.78478457648492
30
1.2E-15
41
1
10
-38
20
-5.00824253816086
30
1.2E-15
41
1
10
-38
20
-5.23076600439052
30
1.2E-15
41
1
10
-38
20
-5.45231022599046
30
1.2E-15
41
1
10
-38
20
-5.67283041504652
30
1.2E-15
41
1
10
-38
20
-5.89228674128222
30
1.2E-15
41
1
10
-38
20
-6.11064496108523
30
1.2E-15
41
1
10
-38
20
-6.32787239667013
30
1.2E-15
41
1
10
-38
20
-6.54393525610644
30
1.2E-15
41
1
10
-38
20
-6.75880334040127
30
1.2E-15
41
1
10
-38
20
-6.97245311766207
30
1.2E-15
41
1
10
-38
20
-7.18486111103374
30
1.2E-15
41
1
10
-38
20
-7.39600347561742
30
1.2E-15
41
1
10
-38
20
-7.60585874971361
30
1.2E-15
41
1
10
-38
20
-7.8144064520111
30
1.2E-15
41
1
10
-38
20
-8.09202295752311
30
1.2E-15
41
1
10
-38
20
-8.43283023540656
30
1.2E-15
41
1
10
-38
20
-8.83774029355055
30
1.2E-15
41
1
10
-38
20
-9.16930023887323
30
1.2E-15
41
1
10
-38
20
-9.43375044009511
30
1.2E-15
41
1
10
-38
20
-9.62982432960192
30
1.2E-15
41
1
10
-38
20
-9.82444814962994
30
1.2E-15
41
1
10
-38
20
-10.0176111126089
30
1.2E-15
41
1
10
-38
20
-10.2093007057547
30
1.2E-15
41
1
10
-38
20
-10.3995107409486
30
1.2E-15
41
1
10
-38
20
-10.5882272324294
30
1.2E-15
41
1
10
-38
20
-10.8388445170812
30
1.2E-15
41
1
10
-38
20
-11.0835274377931
30
1.2E-15
41
1
10
-38
20
-11.327997250045
30
-6E-16
41
1
10
-38
20
-11.5091211965041
30
-6E-16
41
1
10
-38
20
-11.6886991809046
30
-6E-16
41
1
10
-38
20
-11.8667275177687
30
-6E-16
41
1
10
-38
20
-12.0431930522803
30
-6E-16
41
1
10
-38
20
-12.2180896645831
30
-6E-16
41
1
10
-38
20
-12.3914124247035
30
-6E-16
41
1
10
-38
20
-12.5631480735019
30
-6E-16
41
1
10
-38
20
-12.7332924196477
30
-6E-16
41
1
10
-38
20
-12.9018387248249
30
-6E-16
41
1
10
-38
20
-13.068774902876
30
-6E-16
41
1
10
-38
20
-13.2899980003418
30
-6E-16
41
1
10
-38
20
-13.5056406071554
30
-6E-16
41
1
10
-38
20
-13.7202970548285
30
-6E-16
41
1
10
-38
20
-13.9327572918622
30
-6E-16
41
1
10
-38
20
-14.1397069500695
30
-6E-16
41
1
10
-38
20
-14.3454836148157
30
-6E-16
41
1
10
-38
20
-14.4976048095277
30
-6E-16
41
1
10
-38
20
-14.6480433741443
30
-6E-16
41
1
10
-38
20
-14.8470538575164
30
-6E-16
41
1
10
-38
20
-15.0406366439893
30
-6E-16
41
1
10
-38
20
-15.2327734637881
30
-6E-16
41
1
10
-38
20
-15.3746583733236
30
-6E-16
41
1
10
-38
20
-15.5148115582755
30
-6E-16
41
1
10
-38
20
-15.6999837411247
30
-6E-16
41
1
10
-38
20
-15.8797870255403
30
-6E-16
41
1
10
-38
20
-16.0578801048401
30
-6E-16
41
1
10
-38
20
-16.189216581434
30
-6E-16
41
1
10
-38
20
-16.3187661779867
30
-6E-16
41
1
10
-38
20
-16.4896741385663
30
-6E-16
41
1
10
-38
20
-16.6552512602625
30
-6E-16
41
1
10
-38
20
-16.8188545807649
30
-6E-16
41
1
10
-38
20
-16.9392987318018
30
-6E-16
41
1
10
-38
20
-17.0578934672827
30
-6E-16
41
1
10
-38
20
-17.2140648101705
30
3E-16
41
1
10
-38
20
-17.3649216616153
30
3E-16
41
1
10
-38
20
-17.513530035822
30
3E-16
41
1
10
-38
20
-17.6226956365842
30
3E-16
41
1
10
-38
20
-17.7299433731025
30
3E-16
41
1
10
-38
20
-17.8708440004863
30
3E-16
41
1
10
-38
20
-18.0064238716364
30
3E-16
41
1
10
-38
20
-18.1394672902698
30
3E-16
41
1
10
-38
20
-18.236915915677
30
3E-16
41
1
10
-38
20
-18.3323672965474
30
3E-16
41
1
10
-38
20
-18.4258040962282
30
3E-16
41
1
10
-38
20
-18.517209887002
30
3E-16
41
1
10
-38
20
-18.6065734896479
30
3E-16
41
1
10
-38
20
-18.6938772522127
30
3E-16
41
1
10
-38
20
-18.7791047692188
30
3E-16
41
1
10
-38
20
-18.8622426359768
30
-1E-16
41
1
10
-38
20
-18.9432715834756
30
-1E-16
41
1
10
-38
20
-19.0221745805325
30
-1E-16
41
1
10
-38
20
-19.0989364136873
30
-1E-16
41
1
10
-38
20
-19.1735363647814
30
-1E-16
41
1
10
-38
20
-19.2704515417461
30
-1E-16
41
1
10
-38
20
-19.3619266112172
30
-1E-16
41
1
10
-38
20
-19.4499498647732
30
-1E-16
41
1
10
-38
20
-19.5134574724377
30
-1E-16
41
1
10
-38
20
-19.5746836830748
30
-1E-16
41
1
10
-38
20
-19.6336085328263
30
-1E-16
41
1
10
-38
20
-19.6902080668946
30
-1E-16
41
1
10
-38
20
-19.7628242842049
30
0
41
1
10
-38
20
-19.829873984374
30
0
41
1
10
-38
20
-19.8928775551026
30
0
41
1
10
-38
20
-19.9374871757691
30
0
41
1
10
-38
20
-19.9796195436674
30
0
41
1
10
-38
20
-20.0326760063813
30
0
41
1
10
-38
20
-20.0800381474625
30
-1E-16
41
1
10
-38
20
-20.1228090027496
30
-1E-16
41
1
10
-38
20
-20.1521177658612
30
-1E-16
41
1
10
-38
20
-20.1787668505585
30
-1E-16
41
1
10
-38
20
-20.2027210424566
30
-1E-16
41
1
10
-38
20
-20.2239455432986
30
-1E-16
41
1
10
-38
20
-20.2424031363825
30
-1E-16
41
1
10
-38
20
-20.2580557552655
30
-1E-16
41
1
10
-38
20
-20.2708642249464
30
-1E-16
41
1
10
-38
20
-20.2807872561095
30
-1E-16
41
1
10
-38
20
-20.2877829489451
30
-1E-16
41
1
10
-38
20
-20.2916002303094
30
-1E-16
41
1
10
-38
20
-20.2923631543981
30
1E-16
41
1
10
-38
20
-20.2923482614199
30
2E-16
0
SPLINE
5
D8
100
AcDbEntity
8
SK1
62
256
6
ByLayer
370
18
48
1
60
0
100
AcDbSpline
70
4
71
3
72
303
73
299
40
0
40
0
40
0
40
0
40
0.0005128941309949
40
0.0040058105206227
40
0.0074987269102504
40
0.0109916432998782
40
0.0144845596895059
40
0.0179774760791337
40
0.0214703924687614
40
0.0249633088583892
40
0.028456225248017
40
0.0319491416376447
40
0.0354420580272724
40
0.0389349744169002
40
0.042427890806528
40
0.0459208071961557
40
0.0529066399754112
40
0.056399556365039
40
0.0598924727546668
40
0.0633853891442945
40
0.0668783055339223
40
0.0738641383131778
40
0.0773570547028055
40
0.0808499710924332
40
0.0843428874820611
40
0.0878358038716888
40
0.0913287202613165
40
0.0948216366509443
40
0.1018074694302
40
0.105300385819828
40
0.108793302209455
40
0.112286218599083
40
0.115779134988711
40
0.119272051378339
40
0.122764967767966
40
0.126257884157594
40
0.129750800547222
40
0.13324371693685
40
0.136736633326477
40
0.140229549716105
40
0.143722466105733
40
0.147215382495361
40
0.150708298884988
40
0.157694131664244
40
0.161187048053872
40
0.164679964443499
40
0.168172880833127
40
0.171665797222755
40
0.17865163000201
40
0.182144546391638
40
0.185637462781266
40
0.189130379170894
40
0.192623295560521
40
0.199609128339777
40
0.203102044729405
40
0.206594961119032
40
0.21008787750866
40
0.213580793898288
40
0.220566626677544
40
0.224059543067171
40
0.227552459456799
40
0.231045375846427
40
0.234538292236055
40
0.24152412501531
40
0.245017041404938
40
0.248509957794566
40
0.252002874184193
40
0.255495790573821
40
0.262481623353077
40
0.265974539742704
40
0.269467456132332
40
0.276453288911587
40
0.279946205301215
40
0.283439121690843
40
0.286932038080471
40
0.290424954470099
40
0.293917870859726
40
0.297410787249354
40
0.300903703638982
40
0.30439662002861
40
0.307889536418237
40
0.311382452807865
40
0.314875369197493
40
0.318368285587121
40
0.325354118366376
40
0.328847034756004
40
0.332339951145632
40
0.335832867535259
40
0.339325783924887
40
0.342818700314515
40
0.346311616704143
40
0.349804533093771
40
0.353297449483398
40
0.360283282262654
40
0.367269115041909
40
0.374254947821165
40
0.377747864210792
40
0.38124078060042
40
0.384733696990048
40
0.388226613379676
40
0.391719529769304
40
0.395212446158931
40
0.398705362548559
40
0.402198278938187
40
0.405691195327814
40
0.409184111717442
40
0.41267702810707
40
0.416169944496698
40
0.419662860886326
40
0.423155777275953
40
0.426648693665581
40
0.430141610055209
40
0.433634526444837
40
0.435380984639651
40
0.437127442834464
40
0.438873901029278
40
0.440620359224092
40
0.44411327561372
40
0.447606192003348
40
0.449352650198162
40
0.451099108392975
40
0.452845566587789
40
0.454592024782603
40
0.458084941172231
40
0.459831399367045
40
0.461577857561859
40
0.463324315756672
40
0.465070773951486
40
0.4668172321463
40
0.468563690341114
40
0.470310148535928
40
0.472056606730742
40
0.473803064925556
40
0.47554952312037
40
0.477295981315184
40
0.479042439509997
40
0.480788897704811
40
0.482535355899625
40
0.484281814094439
40
0.486028272289253
40
0.487774730484067
40
0.489521188678881
40
0.491267646873695
40
0.493014105068508
40
0.494760563263322
40
0.496507021458136
40
0.49825347965295
40
0.499999937847764
40
0.501746396042578
40
0.503492854237392
40
0.505239312432206
40
0.506985770627019
40
0.508732228821833
40
0.510478687016647
40
0.512225145211461
40
0.513971603406275
40
0.515718061601089
40
0.517464519795903
40
0.519210977990717
40
0.52095743618553
40
0.522703894380344
40
0.524450352575158
40
0.526196810769972
40
0.527943268964786
40
0.5296897271596
40
0.531436185354414
40
0.533182643549228
40
0.534929101744042
40
0.536675559938856
40
0.538422018133669
40
0.540168476328483
40
0.541914934523297
40
0.545407850912925
40
0.547154309107739
40
0.548900767302552
40
0.550647225497366
40
0.55239368369218
40
0.555886600081808
40
0.559379516471436
40
0.56112597466625
40
0.562872432861064
40
0.564618891055877
40
0.566365349250691
40
0.569858265640319
40
0.573351182029947
40
0.576844098419575
40
0.580337014809202
40
0.58382993119883
40
0.587322847588458
40
0.590815763978086
40
0.594308680367713
40
0.597801596757341
40
0.601294513146969
40
0.604787429536597
40
0.608280345926224
40
0.611773262315852
40
0.61526617870548
40
0.618759095095108
40
0.622252011484735
40
0.625744927874363
40
0.632730760653619
40
0.639716593432874
40
0.64670242621213
40
0.650195342601758
40
0.653688258991385
40
0.657181175381013
40
0.660674091770641
40
0.664167008160268
40
0.667659924549896
40
0.671152840939524
40
0.674645757329152
40
0.681631590108407
40
0.685124506498035
40
0.688617422887663
40
0.692110339277291
40
0.695603255666918
40
0.699096172056546
40
0.702589088446174
40
0.706082004835802
40
0.709574921225429
40
0.713067837615057
40
0.716560754004685
40
0.720053670394312
40
0.72354658678394
40
0.727039503173568
40
0.730532419563196
40
0.734025335952823
40
0.735771794147638
40
0.737518252342451
40
0.741011168732079
40
0.744504085121707
40
0.747997001511335
40
0.749743459706148
40
0.751489917900963
40
0.75498283429059
40
0.758475750680218
40
0.765461583459473
40
0.768954499849101
40
0.772447416238729
40
0.775940332628356
40
0.779433249017984
40
0.78641908179724
40
0.789911998186868
40
0.791658456381681
40
0.793404914576495
40
0.796897830966123
40
0.800390747355751
40
0.807376580135006
40
0.810869496524634
40
0.814362412914262
40
0.81785532930389
40
0.821348245693517
40
0.828334078472773
40
0.831826994862401
40
0.833573453057215
40
0.835319911252029
40
0.838812827641656
40
0.842305744031284
40
0.849291576810539
40
0.852784493200167
40
0.856277409589795
40
0.859770325979423
40
0.86326324236905
40
0.866756158758678
40
0.870249075148306
40
0.873741991537934
40
0.877234907927562
40
0.880727824317189
40
0.884220740706817
40
0.887713657096445
40
0.891206573486072
40
0.8946994898757
40
0.898192406265328
40
0.905178239044584
40
0.908671155434211
40
0.912164071823839
40
0.915656988213467
40
0.919149904603095
40
0.922642820992722
40
0.92613573738235
40
0.933121570161606
40
0.936614486551233
40
0.940107402940861
40
0.943600319330489
40
0.947093235720117
40
0.954079068499372
40
0.961064901278628
40
0.968050734057883
40
0.971543650447511
40
0.975036566837139
40
0.978529483226766
40
0.982022399616394
40
0.985515316006022
40
0.98900823239565
40
0.992501148785277
40
0.995994065174905
40
0.999486981564533
40
1
40
1
40
1
40
1
41
1
10
-36.5
20
-21.1555777653768
30
4E-16
41
1
10
-36.5
20
-21.15578578092
30
4E-16
41
1
10
-36.5
20
-21.1573189048995
30
4E-16
41
1
10
-36.5
20
-21.1588543296933
30
4E-16
41
1
10
-36.5
20
-21.1578041644649
30
0
41
1
10
-36.5
20
-21.1536128319466
30
0
41
1
10
-36.5
20
-21.1463317710584
30
0
41
1
10
-36.5
20
-21.1360112646484
30
0
41
1
10
-36.5
20
-21.1226986516191
30
0
41
1
10
-36.5
20
-21.1064402531507
30
0
41
1
10
-36.5
20
-21.0872797892674
30
0
41
1
10
-36.5
20
-21.0652596303332
30
0
41
1
10
-36.5
20
-21.0404207944711
30
0
41
1
10
-36.5
20
-21.0128017234864
30
0
41
1
10
-36.5
20
-20.9824409225429
30
0
41
1
10
-36.5
20
-20.9382580424269
30
0
41
1
10
-36.5
20
-20.8890285523336
30
0
41
1
10
-36.5
20
-20.8342802793506
30
0
41
1
10
-36.5
20
-20.7907268231738
30
0
41
1
10
-36.5
20
-20.7446292080422
30
0
41
1
10
-36.5
20
-20.6796864153796
30
0
41
1
10
-36.5
20
-20.6101652553123
30
0
41
1
10
-36.5
20
-20.5353747607017
30
0
41
1
10
-36.5
20
-20.4769783724375
30
0
41
1
10
-36.5
20
-20.4161996091986
30
0
41
1
10
-36.5
20
-20.353062816238
30
0
41
1
10
-36.5
20
-20.287589681624
30
0
41
1
10
-36.5
20
-20.1970436522849
30
0
41
1
10
-36.5
20
-20.1024193061391
30
0
41
1
10
-36.5
20
-20.0027815100322
30
0
41
1
10
-36.5
20
-19.9259535527381
30
0
41
1
10
-36.5
20
-19.8469141406672
30
0
41
1
10
-36.5
20
-19.7656833992675
30
0
41
1
10
-36.5
20
-19.6822775521962
30
4E-16
41
1
10
-36.5
20
-19.5967148362678
30
4E-16
41
1
10
-36.5
20
-19.5090135437133
30
4E-16
41
1
10
-36.5
20
-19.4191882978898
30
4E-16
41
1
10
-36.5
20
-19.3272562516113
30
4E-16
41
1
10
-36.5
20
-19.2332339353276
30
4E-16
41
1
10
-36.5
20
-19.1371342717784
30
4E-16
41
1
10
-36.5
20
-19.0389739868785
30
4E-16
41
1
10
-36.5
20
-18.9387686023437
30
4E-16
41
1
10
-36.5
20
-18.8022222651529
30
4E-16
41
1
10
-36.5
20
-18.6623326618876
30
4E-16
41
1
10
-36.5
20
-18.5177535555592
30
4E-16
41
1
10
-36.5
20
-18.4075180436267
30
4E-16
41
1
10
-36.5
20
-18.2953166794047
30
4E-16
41
1
10
-36.5
20
-18.1428562465544
30
4E-16
41
1
10
-36.5
20
-17.9872703841193
30
-5E-16
41
1
10
-36.5
20
-17.827069915531
30
-5E-16
41
1
10
-36.5
20
-17.7052052466277
30
-5E-16
41
1
10
-36.5
20
-17.5814422063202
30
-5E-16
41
1
10
-36.5
20
-17.4136313821348
30
-5E-16
41
1
10
-36.5
20
-17.2428947983014
30
-5E-16
41
1
10
-36.5
20
-17.0675955495037
30
-5E-16
41
1
10
-36.5
20
-16.9344844206004
30
-5E-16
41
1
10
-36.5
20
-16.7995343923805
30
-5E-16
41
1
10
-36.5
20
-16.6168608854212
30
-5E-16
41
1
10
-36.5
20
-16.4314450331352
30
-5E-16
41
1
10
-36.5
20
-16.241498813278
30
-5E-16
41
1
10
-36.5
20
-16.0974737380165
30
-5E-16
41
1
10
-36.5
20
-15.9516609547094
30
-5E-16
41
1
10
-36.5
20
-15.7545451164335
30
-5E-16
41
1
10
-36.5
20
-15.5548624364723
30
-5E-16
41
1
10
-36.5
20
-15.3506631330603
30
-5E-16
41
1
10
-36.5
20
-15.1960147192182
30
-5E-16
41
1
10
-36.5
20
-15.0396227184095
30
-5E-16
41
1
10
-36.5
20
-14.8284315021107
30
-5E-16
41
1
10
-36.5
20
-14.6148460432235
30
-5E-16
41
1
10
-36.5
20
-14.3967384349214
30
-5E-16
41
1
10
-36.5
20
-14.176348576809
30
-5E-16
41
1
10
-36.5
20
-13.9536769173599
30
-5E-16
41
1
10
-36.5
20
-13.7264696827894
30
-5E-16
41
1
10
-36.5
20
-13.5546713888901
30
-5E-16
41
1
10
-36.5
20
-13.3811911431361
30
-5E-16
41
1
10
-36.5
20
-13.2060373895955
30
-5E-16
41
1
10
-36.5
20
-13.0292149436136
30
-5E-16
41
1
10
-36.5
20
-12.8507281979538
30
-5E-16
41
1
10
-36.5
20
-12.6705857704289
30
-5E-16
41
1
10
-36.5
20
-12.4887913848281
30
1.3E-15
41
1
10
-36.5
20
-12.3053503320752
30
1.3E-15
41
1
10
-36.5
20
-12.1202707134412
30
1.3E-15
41
1
10
-36.5
20
-11.9335556252714
30
1.3E-15
41
1
10
-36.5
20
-11.6819759007756
30
1.3E-15
41
1
10
-36.5
20
-11.4285504962004
30
1.3E-15
41
1
10
-36.5
20
-11.1704660987636
30
1.3E-15
41
1
10
-36.5
20
-10.9756652058486
30
1.3E-15
41
1
10
-36.5
20
-10.7792636942327
30
1.3E-15
41
1
10
-36.5
20
-10.5812696339219
30
1.3E-15
41
1
10
-36.5
20
-10.3816870614505
30
1.3E-15
41
1
10
-36.5
20
-10.18052371466
30
1.3E-15
41
1
10
-36.5
20
-9.97778564072317
30
1.3E-15
41
1
10
-36.5
20
-9.70483575174822
30
1.3E-15
41
1
10
-36.5
20
-9.36101273737586
30
1.3E-15
41
1
10
-36.5
20
-8.94153442741853
30
1.3E-15
41
1
10
-36.5
20
-8.58745782596952
30
1.3E-15
41
1
10
-36.5
20
-8.30004452993893
30
1.3E-15
41
1
10
-36.5
20
-8.08346945831602
30
1.3E-15
41
1
10
-36.5
20
-7.86540128403743
30
1.3E-15
41
1
10
-36.5
20
-7.64585158611581
30
1.3E-15
41
1
10
-36.5
20
-7.42483229470756
30
1.3E-15
41
1
10
-36.5
20
-7.20235684280954
30
1.3E-15
41
1
10
-36.5
20
-6.97843834484934
30
1.3E-15
41
1
10
-36.5
20
-6.75309051279777
30
1.3E-15
41
1
10
-36.5
20
-6.52633051401983
30
1.3E-15
41
1
10
-36.5
20
-6.29817748211653
30
1.3E-15
41
1
10
-36.5
20
-6.06865017711209
30
1.3E-15
41
1
10
-36.5
20
-5.83776875015039
30
1.3E-15
41
1
10
-36.5
20
-5.6055565552935
30
1.3E-15
41
1
10
-36.5
20
-5.37203995090806
30
1.3E-15
41
1
10
-36.5
20
-5.1372458114655
30
1.3E-15
41
1
10
-36.5
20
-4.90120586463618
30
1.3E-15
41
1
10
-36.5
20
-4.70396584910503
30
1.3E-15
41
1
10
-36.5
20
-4.54469650094606
30
1.3E-15
41
1
10
-36.5
20
-4.42534006396792
30
1.3E-15
41
1
10
-36.5
20
-4.30569969171859
30
1.3E-15
41
1
10
-36.5
20
-4.14529326648051
30
1.3E-15
41
1
10
-36.5
20
-3.94531869048151
30
1.3E-15
41
1
10
-36.5
20
-3.74444967050349
30
1.3E-15
41
1
10
-36.5
20
-3.58224072191865
30
1.3E-15
41
1
10
-36.5
20
-3.46078948211164
30
1.3E-15
41
1
10
-36.5
20
-3.33910698167958
30
1.3E-15
41
1
10
-36.5
20
-3.17597095993784
30
1.3E-15
41
1
10
-36.5
20
-3.01425656877106
30
1.3E-15
41
1
10
-36.5
20
-2.8502314065623
30
1.3E-15
41
1
10
-36.5
20
-2.72752148004804
30
1.3E-15
41
1
10
-36.5
20
-2.60463057106841
30
1.3E-15
41
1
10
-36.5
20
-2.48157389743918
30
1.3E-15
41
1
10
-36.5
20
-2.3583562279822
30
1.3E-15
41
1
10
-36.5
20
-2.2349905278607
30
1.3E-15
41
1
10
-36.5
20
-2.11148756075909
30
1.3E-15
41
1
10
-36.5
20
-1.98785458048855
30
1.3E-15
41
1
10
-36.5
20
-1.86410640329151
30
1.3E-15
41
1
10
-36.5
20
-1.7402482546413
30
1.3E-15
41
1
10
-36.5
20
-1.61629518356963
30
1.3E-15
41
1
10
-36.5
20
-1.49225310642996
30
1.3E-15
41
1
10
-36.5
20
-1.36813486147517
30
1.3E-15
41
1
10
-36.5
20
-1.24394734076813
30
1.3E-15
41
1
10
-36.5
20
-1.11970111692671
30
1.3E-15
41
1
10
-36.5
20
-0.995403468230791
30
1.3E-15
41
1
10
-36.5
20
-0.871062970095124
30
1.3E-15
41
1
10
-36.5
20
-0.746686131491799
30
1.3E-15
41
1
10
-36.5
20
-0.622280094010847
30
1.3E-15
41
1
10
-36.5
20
-0.497850400790554
30
1.3E-15
41
1
10
-36.5
20
-0.373402960091397
30
1.3E-15
41
1
10
-36.5
20
-0.248942266430618
30
1.3E-15
41
1
10
-36.5
20
-0.124473254673973
30
1.3E-15
41
1
10
-36.5
20
9.2462358E-09
30
1.3E-15
41
1
10
-36.5
20
0.124473257200918
30
1.3E-15
41
1
10
-36.5
20
0.248942238793148
30
1.3E-15
41
1
10
-36.5
20
0.373402935182185
30
1.3E-15
41
1
10
-36.5
20
0.497850420758397
30
1.3E-15
41
1
10
-36.5
20
0.622280124115576
30
1.3E-15
41
1
10
-36.5
20
0.746686102657719
30
1.3E-15
41
1
10
-36.5
20
0.8710629170684
30
1.3E-15
41
1
10
-36.5
20
0.995403485642782
30
1.3E-15
41
1
10
-36.5
20
1.11970117534864
30
1.3E-15
41
1
10
-36.5
20
1.2439473222278
30
1.3E-15
41
1
10
-36.5
20
1.3681347814894
30
1.3E-15
41
1
10
-36.5
20
1.49225310041959
30
1.3E-15
41
1
10
-36.5
20
1.61629526151512
30
1.3E-15
41
1
10
-36.5
20
1.74024827700825
30
1.3E-15
41
1
10
-36.5
20
1.86410632124094
30
1.3E-15
41
1
10
-36.5
20
1.9878545152765
30
1.3E-15
41
1
10
-36.5
20
2.11148761081347
30
1.3E-15
41
1
10
-36.5
20
2.23499061660055
30
1.3E-15
41
1
10
-36.5
20
2.35835621123036
30
1.3E-15
41
1
10
-36.5
20
2.48157378937663
30
1.3E-15
41
1
10
-36.5
20
2.60463052157442
30
1.3E-15
41
1
10
-36.5
20
2.72752154931175
30
1.3E-15
41
1
10
-36.5
20
2.85023149996007
30
1.3E-15
41
1
10
-36.5
20
3.01425651604552
30
1.3E-15
41
1
10
-36.5
20
3.17597085922341
30
1.3E-15
41
1
10
-36.5
20
3.33910702605107
30
1.3E-15
41
1
10
-36.5
20
3.46078958963511
30
1.3E-15
41
1
10
-36.5
20
3.58224076117995
30
1.3E-15
41
1
10
-36.5
20
3.74444957084984
30
1.3E-15
41
1
10
-36.5
20
3.94531865595207
30
1.3E-15
41
1
10
-36.5
20
4.14529336499854
30
1.3E-15
41
1
10
-36.5
20
4.30569972295402
30
1.3E-15
41
1
10
-36.5
20
4.42533999597057
30
1.3E-15
41
1
10
-36.5
20
4.54469638576828
30
1.3E-15
41
1
10
-36.5
20
4.70396583147402
30
1.3E-15
41
1
10
-36.5
20
4.90120595303733
30
1.3E-15
41
1
10
-36.5
20
5.13724579696881
30
1.3E-15
41
1
10
-36.5
20
5.37203985998678
30
1.3E-15
41
1
10
-36.5
20
5.60555660448861
30
1.3E-15
41
1
10
-36.5
20
5.83776884649418
30
1.3E-15
41
1
10
-36.5
20
6.06865022444896
30
1.3E-15
41
1
10
-36.5
20
6.29817753233076
30
1.3E-15
41
1
10
-36.5
20
6.52633035082275
30
1.3E-15
41
1
10
-36.5
20
6.75308981071325
30
1.3E-15
41
1
10
-36.5
20
6.97843755879967
30
1.3E-15
41
1
10
-36.5
20
7.20235735193418
30
1.3E-15
41
1
10
-36.5
20
7.42483318088833
30
1.3E-15
41
1
10
-36.5
20
7.64585131899614
30
1.3E-15
41
1
10
-36.5
20
7.86540102208471
30
1.3E-15
41
1
10
-36.5
20
8.08346950394392
30
1.3E-15
41
1
10
-36.5
20
8.30004464023602
30
1.3E-15
41
1
10
-36.5
20
8.58745787193689
30
1.3E-15
41
1
10
-36.5
20
8.94153438933262
30
1.3E-15
41
1
10
-36.5
20
9.36101276272154
30
1.3E-15
41
1
10
-36.5
20
9.70483576808863
30
1.3E-15
41
1
10
-36.5
20
9.97778558435027
30
1.3E-15
41
1
10
-36.5
20
10.180523710493
30
1.3E-15
41
1
10
-36.5
20
10.3816871154457
30
1.3E-15
41
1
10
-36.5
20
10.5812696725585
30
1.3E-15
41
1
10
-36.5
20
10.7792636737398
30
1.3E-15
41
1
10
-36.5
20
10.9756651586938
30
1.3E-15
41
1
10
-36.5
20
11.1704660874499
30
1.3E-15
41
1
10
-36.5
20
11.4285505376587
30
1.3E-15
41
1
10
-36.5
20
11.6819759204348
30
1.3E-15
41
1
10
-36.5
20
11.9335555855444
30
1.3E-15
41
1
10
-36.5
20
12.1202706879328
30
1.3E-15
41
1
10
-36.5
20
12.3053503484466
30
1.3E-15
41
1
10
-36.5
20
12.4887914218501
30
1.3E-15
41
1
10
-36.5
20
12.6705857874604
30
-5E-16
41
1
10
-36.5
20
12.850728177302
30
-5E-16
41
1
10
-36.5
20
13.0292149133303
30
-5E-16
41
1
10
-36.5
20
13.2060373742644
30
-5E-16
41
1
10
-36.5
20
13.3811910773122
30
-5E-16
41
1
10
-36.5
20
13.5546710496343
30
-5E-16
41
1
10
-36.5
20
13.7264689694465
30
-5E-16
41
1
10
-36.5
20
13.8965816080865
30
-5E-16
41
1
10
-36.5
20
14.0650028858775
30
-5E-16
41
1
10
-36.5
20
14.2317235183089
30
-5E-16
41
1
10
-36.5
20
14.3690494022437
30
-5E-16
41
1
10
-36.5
20
14.4783873813363
30
-5E-16
41
1
10
-36.5
20
14.5871530954062
30
-5E-16
41
1
10
-36.5
20
14.7216281332594
30
-5E-16
41
1
10
-36.5
20
14.8814910451208
30
-5E-16
41
1
10
-36.5
20
15.0130920883853
30
-5E-16
41
1
10
-36.5
20
15.1178164480938
30
-5E-16
41
1
10
-36.5
20
15.2219600388738
30
-5E-16
41
1
10
-36.5
20
15.350663385132
30
-5E-16
41
1
10
-36.5
20
15.5548613446891
30
-5E-16
41
1
10
-36.5
20
15.7545445351489
30
-5E-16
41
1
10
-36.5
20
15.9516616651348
30
-5E-16
41
1
10
-36.5
20
16.097474719741
30
-5E-16
41
1
10
-36.5
20
16.2414991337765
30
-5E-16
41
1
10
-36.5
20
16.4314438788638
30
-5E-16
41
1
10
-36.5
20
16.6168596157572
30
-5E-16
41
1
10
-36.5
20
16.7765898513273
30
-5E-16
41
1
10
-36.5
20
16.867008999151
30
-5E-16
41
1
10
-36.5
20
16.9568152899196
30
-5E-16
41
1
10
-36.5
20
17.0675963011876
30
-5E-16
41
1
10
-36.5
20
17.2428939764416
30
-5E-16
41
1
10
-36.5
20
17.4136311437529
30
-5E-16
41
1
10
-36.5
20
17.5814423770725
30
-5E-16
41
1
10
-36.5
20
17.705205542109
30
-5E-16
41
1
10
-36.5
20
17.8270700659299
30
-5E-16
41
1
10
-36.5
20
17.987269645424
30
-5E-16
41
1
10
-36.5
20
18.1428549391526
30
4E-16
41
1
10
-36.5
20
18.2761667145511
30
4E-16
41
1
10
-36.5
20
18.3514175898237
30
4E-16
41
1
10
-36.5
20
18.4260133905722
30
4E-16
41
1
10
-36.5
20
18.5177544284038
30
4E-16
41
1
10
-36.5
20
18.6623317385554
30
4E-16
41
1
10
-36.5
20
18.8022215100789
30
4E-16
41
1
10
-36.5
20
18.9387689752275
30
4E-16
41
1
10
-36.5
20
19.0389746878943
30
4E-16
41
1
10
-36.5
20
19.1371346902892
30
4E-16
41
1
10
-36.5
20
19.2332338822713
30
4E-16
41
1
10
-36.5
20
19.3272561697677
30
4E-16
41
1
10
-36.5
20
19.4191882696517
30
4E-16
41
1
10
-36.5
20
19.5090135394173
30
4E-16
41
1
10
-36.5
20
19.5967148149262
30
4E-16
41
1
10
-36.5
20
19.6822775189499
30
4E-16
41
1
10
-36.5
20
19.7656833730651
30
0
41
1
10
-36.5
20
19.8469141355251
30
0
41
1
10
-36.5
20
19.9259535572617
30
0
41
1
10
-36.5
20
20.0027815031752
30
0
41
1
10
-36.5
20
20.1024192722933
30
0
41
1
10
-36.5
20
20.1970436182683
30
0
41
1
10
-36.5
20
20.2875896826626
30
0
41
1
10
-36.5
20
20.3530628196555
30
0
41
1
10
-36.5
20
20.4161995895792
30
0
41
1
10
-36.5
20
20.4769783324059
30
0
41
1
10
-36.5
20
20.5353747251341
30
0
41
1
10
-36.5
20
20.6101652524536
30
0
41
1
10
-36.5
20
20.6796864194097
30
0
41
1
10
-36.5
20
20.7446291690672
30
0
41
1
10
-36.5
20
20.7907267804185
30
0
41
1
10
-36.5
20
20.8342802658871
30
0
41
1
10
-36.5
20
20.8890285612071
30
0
41
1
10
-36.5
20
20.950713074722
30
0
41
1
10
-36.5
20
21.0141777773224
30
0
41
1
10
-36.5
20
21.0578537406018
30
0
41
1
10
-36.5
20
21.0872797426226
30
0
41
1
10
-36.5
20
21.1064402158535
30
0
41
1
10
-36.5
20
21.1226986497682
30
0
41
1
10
-36.5
20
21.1360112678938
30
0
41
1
10
-36.5
20
21.1463317213717
30
0
41
1
10
-36.5
20
21.1536126358382
30
0
41
1
10
-36.5
20
21.1578038223016
30
0
41
1
10
-36.5
20
21.1588544331657
30
4E-16
41
1
10
-36.5
20
21.1573192175793
30
4E-16
41
1
10
-36.5
20
21.1557860695519
30
4E-16
41
1
10
-36.5
20
21.1555780023744
30
4E-16
0
SPLINE
5
D9
100
AcDbEntity
8
SK1
62
256
6
ByLayer
370
18
48
1
60
0
100
AcDbSpline
70
4
71
3
72
295
73
291
40
0
40
0
40
0
40
0
40
0.0029467545184544
40
0.0065226793987239
40
0.0100986042789935
40
0.013674529159263
40
0.0172504540395325
40
0.0208263789198021
40
0.0244023038000716
40
0.0279782286803411
40
0.0315541535606107
40
0.0351300784408802
40
0.0422819282014193
40
0.0458578530816888
40
0.0494337779619584
40
0.0530097028422279
40
0.0565856277224974
40
0.0637374774830365
40
0.067313402363306
40
0.0708893272435756
40
0.0744652521238451
40
0.0780411770041146
40
0.0816171018843842
40
0.0851930267646537
40
0.0923448765251928
40
0.0959208014054623
40
0.0994967262857319
40
0.103072651166001
40
0.106648576046271
40
0.110224500926541
40
0.11380042580681
40
0.117376350687079
40
0.120952275567349
40
0.124528200447619
40
0.128104125327888
40
0.131680050208158
40
0.135255975088427
40
0.138831899968697
40
0.142407824848966
40
0.149559674609505
40
0.153135599489775
40
0.156711524370044
40
0.160287449250314
40
0.163863374130583
40
0.171015223891123
40
0.174591148771392
40
0.178167073651662
40
0.181742998531931
40
0.185318923412201
40
0.19247077317274
40
0.196046698053009
40
0.199622622933279
40
0.203198547813548
40
0.206774472693818
40
0.213926322454357
40
0.217502247334627
40
0.221078172214896
40
0.224654097095166
40
0.228230021975435
40
0.235381871735974
40
0.238957796616244
40
0.242533721496513
40
0.246109646376783
40
0.249685571257052
40
0.256837421017591
40
0.260413345897861
40
0.263989270778131
40
0.27114112053867
40
0.274717045418939
40
0.278292970299209
40
0.281868895179478
40
0.285444820059748
40
0.289020744940017
40
0.292596669820287
40
0.296172594700556
40
0.299748519580826
40
0.303324444461095
40
0.306900369341365
40
0.310476294221634
40
0.314052219101904
40
0.321204068862443
40
0.324779993742713
40
0.328355918622982
40
0.331931843503252
40
0.335507768383521
40
0.339083693263791
40
0.34265961814406
40
0.34623554302433
40
0.349811467904599
40
0.356963317665138
40
0.364115167425678
40
0.371267017186217
40
0.374842942066486
40
0.378418866946756
40
0.381994791827025
40
0.385570716707295
40
0.389146641587564
40
0.392722566467834
40
0.396298491348103
40
0.399874416228373
40
0.403450341108642
40
0.407026265988912
40
0.410602190869181
40
0.414178115749451
40
0.41775404062972
40
0.42132996550999
40
0.42490589039026
40
0.428481815270529
40
0.432057740150799
40
0.433845702590933
40
0.435633665031068
40
0.437421627471203
40
0.439209589911338
40
0.442785514791607
40
0.446361439671877
40
0.448149402112011
40
0.449937364552146
40
0.451725326992281
40
0.453513289432416
40
0.457089214312686
40
0.45887717675282
40
0.460665139192955
40
0.46245310163309
40
0.464241064073225
40
0.466029026513359
40
0.467816988953494
40
0.469604951393629
40
0.471392913833764
40
0.473180876273898
40
0.474968838714033
40
0.476756801154168
40
0.478544763594303
40
0.480332726034437
40
0.482120688474572
40
0.483908650914707
40
0.485696613354842
40
0.487484575794976
40
0.489272538235111
40
0.491060500675246
40
0.492848463115381
40
0.494636425555516
40
0.49642438799565
40
0.498212350435785
40
0.50000031287592
40
0.501788275316055
40
0.503576237756189
40
0.505364200196324
40
0.507152162636459
40
0.508940125076594
40
0.510728087516728
40
0.512516049956863
40
0.514304012396998
40
0.516091974837133
40
0.517879937277268
40
0.519667899717402
40
0.521455862157537
40
0.523243824597672
40
0.525031787037807
40
0.526819749477941
40
0.528607711918076
40
0.530395674358211
40
0.532183636798346
40
0.53397159923848
40
0.535759561678615
40
0.53754752411875
40
0.539335486558885
40
0.54112344899902
40
0.542911411439154
40
0.546487336319424
40
0.548275298759559
40
0.550063261199693
40
0.551851223639828
40
0.553639186079963
40
0.557215110960232
40
0.560791035840502
40
0.562578998280637
40
0.564366960720772
40
0.566154923160906
40
0.567942885601041
40
0.571518810481311
40
0.57509473536158
40
0.57867066024185
40
0.582246585122119
40
0.585822510002389
40
0.589398434882658
40
0.592974359762928
40
0.596550284643197
40
0.600126209523467
40
0.603702134403736
40
0.607278059284006
40
0.610853984164276
40
0.614429909044545
40
0.618005833924815
40
0.621581758805084
40
0.625157683685354
40
0.628733608565623
40
0.635885458326162
40
0.643037308086701
40
0.65018915784724
40
0.65376508272751
40
0.657341007607779
40
0.660916932488049
40
0.664492857368318
40
0.668068782248588
40
0.671644707128857
40
0.675220632009127
40
0.678796556889397
40
0.685948406649936
40
0.689524331530205
40
0.693100256410475
40
0.696676181290744
40
0.700252106171014
40
0.703828031051283
40
0.707403955931553
40
0.710979880811823
40
0.714555805692092
40
0.718131730572361
40
0.721707655452631
40
0.725283580332901
40
0.72885950521317
40
0.73243543009344
40
0.736011354973709
40
0.739587279853979
40
0.741375242294114
40
0.743163204734248
40
0.746739129614518
40
0.750315054494787
40
0.753890979375057
40
0.755678941815192
40
0.757466904255326
40
0.761042829135596
40
0.764618754015865
40
0.771770603776405
40
0.775346528656674
40
0.778922453536944
40
0.782498378417213
40
0.786074303297483
40
0.793226153058022
40
0.796802077938291
40
0.798590040378426
40
0.800378002818561
40
0.80395392769883
40
0.8075298525791
40
0.814681702339639
40
0.818257627219908
40
0.821833552100178
40
0.825409476980448
40
0.828985401860717
40
0.836137251621256
40
0.839713176501526
40
0.841501138941661
40
0.843289101381795
40
0.846865026262065
40
0.850440951142334
40
0.857592800902873
40
0.861168725783143
40
0.864744650663412
40
0.868320575543682
40
0.871896500423952
40
0.875472425304221
40
0.879048350184491
40
0.88262427506476
40
0.88620019994503
40
0.889776124825299
40
0.893352049705569
40
0.896927974585838
40
0.900503899466108
40
0.904079824346377
40
0.907655749226647
40
0.914807598987186
40
0.918383523867455
40
0.921959448747725
40
0.925535373627995
40
0.929111298508264
40
0.932687223388534
40
0.936263148268803
40
0.943414998029342
40
0.946990922909612
40
0.950566847789881
40
0.954142772670151
40
0.95771869755042
40
0.96487054731096
40
0.972022397071499
40
0.979174246832038
40
0.982750171712307
40
0.986326096592577
40
0.989902021472846
40
0.993477946353116
40
0.997053871233385
40
1
40
1
40
1
40
1
41
1
10
-2.19999999999996
20
-22.0135206520588
30
-1E-16
41
1
10
-2.19999999999996
20
-22.0117283815314
30
-1E-16
41
1
10
-2.20000000000002
20
-22.0069601721377
30
-1E-16
41
1
10
-2.19999999999999
20
-21.9968726399857
30
-1E-16
41
1
10
-2.19999999999999
20
-21.9830583809744
30
-1E-16
41
1
10
-2.19999999999999
20
-21.9661972037607
30
-1E-16
41
1
10
-2.19999999999999
20
-21.9463373508774
30
-1E-16
41
1
10
-2.19999999999999
20
-21.9235254752891
30
-1E-16
41
1
10
-2.19999999999999
20
-21.8978063777089
30
1E-16
41
1
10
-2.19999999999999
20
-21.8692221254414
30
1E-16
41
1
10
-2.19999999999999
20
-21.8378144981283
30
1E-16
41
1
10
-2.19999999999999
20
-21.7922265879071
30
0
41
1
10
-2.19999999999999
20
-21.7411389990572
30
0
41
1
10
-2.19999999999999
20
-21.6847072964973
30
0
41
1
10
-2.19999999999999
20
-21.6397397916631
30
0
41
1
10
-2.19999999999999
20
-21.5921615531195
30
0
41
1
10
-2.19999999999999
20
-21.5252891448141
30
0
41
1
10
-2.19999999999999
20
-21.4533087676779
30
1E-16
41
1
10
-2.19999999999999
20
-21.3763547664481
30
1E-16
41
1
10
-2.19999999999999
20
-21.3161704250344
30
1E-16
41
1
10
-2.19999999999999
20
-21.2535469320083
30
1E-16
41
1
10
-2.19999999999999
20
-21.1885090211437
30
-1E-16
41
1
10
-2.19999999999999
20
-21.1210800961781
30
-1E-16
41
1
10
-2.19999999999999
20
-21.0280237880878
30
-1E-16
41
1
10
-2.19999999999999
20
-20.9302657657864
30
-1E-16
41
1
10
-2.19999999999999
20
-20.82791883753
30
-1E-16
41
1
10
-2.19999999999999
20
-20.7488739108727
30
-1E-16
41
1
10
-2.19999999999999
20
-20.6675682022903
30
-1E-16
41
1
10
-2.19999999999999
20
-20.5840212474559
30
-1E-16
41
1
10
-2.19999999999999
20
-20.4982502752196
30
-1E-16
41
1
10
-2.19999999999999
20
-20.4102747220553
30
-1E-16
41
1
10
-2.19999999999999
20
-20.3201119082527
30
-1E-16
41
1
10
-2.19999999999999
20
-20.2277776697998
30
-1E-16
41
1
10
-2.19999999999999
20
-20.133289903145
30
-1E-16
41
1
10
-2.19999999999999
20
-20.0366640227898
30
-1E-16
41
1
10
-2.19999999999999
20
-19.9379146863563
30
-1E-16
41
1
10
-2.19999999999999
20
-19.8370589164793
30
-1E-16
41
1
10
-2.19999999999999
20
-19.7341104289282
30
-1E-16
41
1
10
-2.19999999999999
20
-19.5940785255289
30
-1E-16
41
1
10
-2.19999999999999
20
-19.4499005391959
30
-1E-16
41
1
10
-2.19999999999999
20
-19.3016611759423
30
-1E-16
41
1
10
-2.19999999999999
20
-19.1884526890887
30
-1E-16
41
1
10
-2.19999999999999
20
-19.0732305996174
30
-1E-16
41
1
10
-2.19999999999999
20
-18.9169371900015
30
-1E-16
41
1
10
-2.19999999999999
20
-18.7566457425986
30
-1E-16
41
1
10
-2.19999999999999
20
-18.5924361073221
30
-1E-16
41
1
10
-2.19999999999999
20
-18.4673177032107
30
-1E-16
41
1
10
-2.19999999999999
20
-18.3402522143585
30
-1E-16
41
1
10
-2.19999999999999
20
-18.1682547291306
30
-1E-16
41
1
10
-2.19999999999999
20
-17.9923842415009
30
-1E-16
41
1
10
-2.19999999999999
20
-17.8127154575359
30
-1E-16
41
1
10
-2.19999999999999
20
-17.676060438985
30
-1E-16
41
1
10
-2.19999999999999
20
-17.5375147595292
30
-1E-16
41
1
10
-2.19999999999999
20
-17.3502835148979
30
-1E-16
41
1
10
-2.19999999999999
20
-17.1592828976246
30
-1E-16
41
1
10
-2.19999999999999
20
-16.9645862898264
30
-1E-16
41
1
10
-2.19999999999999
20
-16.8167085043733
30
-1E-16
41
1
10
-2.19999999999999
20
-16.666987304737
30
-1E-16
41
1
10
-2.19999999999999
20
-16.4649171124643
30
-1E-16
41
1
10
-2.19999999999999
20
-16.2591647559547
30
-1E-16
41
1
10
-2.19999999999999
20
-16.0498023362736
30
-1E-16
41
1
10
-2.19999999999999
20
-15.8909649274654
30
-1E-16
41
1
10
-2.19999999999999
20
-15.7303232767805
30
-1E-16
41
1
10
-2.19999999999999
20
-15.513744330902
30
-1E-16
41
1
10
-2.19999999999999
20
-15.2935559429894
30
-1E-16
41
1
10
-2.19999999999999
20
-15.069828938707
30
-1E-16
41
1
10
-2.19999999999999
20
-14.8437340716545
30
-1E-16
41
1
10
-2.19999999999999
20
-14.61406817927
30
-1E-16
41
1
10
-2.19999999999999
20
-14.3809064511142
30
-1E-16
41
1
10
-2.19999999999999
20
-14.2042701267483
30
-1E-16
41
1
10
-2.19999999999999
20
-14.0258803815961
30
-1E-16
41
1
10
-2.19999999999999
20
-13.845742035678
30
-1E-16
41
1
10
-2.19999999999999
20
-13.6638579908945
30
-1E-16
41
1
10
-2.19999999999999
20
-13.4802328404438
30
-1E-16
41
1
10
-2.19999999999999
20
-13.2948705838035
30
-1E-16
41
1
10
-2.19999999999999
20
-13.1077737445537
30
-1E-16
41
1
10
-2.19999999999999
20
-12.9189467887917
30
-1E-16
41
1
10
-2.19999999999999
20
-12.7283927892775
30
-1E-16
41
1
10
-2.19999999999999
20
-12.5361142561418
30
-1E-16
41
1
10
-2.19999999999999
20
-12.277459839655
30
-1E-16
41
1
10
-2.19999999999999
20
-12.015335258712
30
-1E-16
41
1
10
-2.19999999999999
20
-11.7498207382014
30
-1E-16
41
1
10
-2.19999999999999
20
-11.5489655840494
30
-1E-16
41
1
10
-2.19999999999999
20
-11.3464032666245
30
-1E-16
41
1
10
-2.19999999999999
20
-11.1421359694817
30
-1E-16
41
1
10
-2.19999999999999
20
-10.9361655882296
30
-1E-16
41
1
10
-2.19999999999999
20
-10.7284951094206
30
-1E-16
41
1
10
-2.19999999999999
20
-10.5191258633122
30
-1E-16
41
1
10
-2.19999999999999
20
-10.2377183913447
30
-1E-16
41
1
10
-2.19999999999999
20
-9.88169305528194
30
-1E-16
41
1
10
-2.19999999999999
20
-9.44771866001565
30
-1E-16
41
1
10
-2.19999999999999
20
-9.08043846702645
30
-1E-16
41
1
10
-2.19999999999999
20
-8.78327691067398
30
-1E-16
41
1
10
-2.19999999999999
20
-8.55871423477029
30
-1E-16
41
1
10
-2.19999999999999
20
-8.33247384441506
30
-1E-16
41
1
10
-2.19999999999999
20
-8.10455846042146
30
-1E-16
41
1
10
-2.19999999999999
20
-7.87497052861914
30
-1E-16
41
1
10
-2.19999999999999
20
-7.64371312168015
30
-1E-16
41
1
10
-2.19999999999999
20
-7.41078904293681
30
-1E-16
41
1
10
-2.19999999999999
20
-7.17620223308296
30
-1E-16
41
1
10
-2.19999999999999
20
-6.93995689241024
30
-1E-16
41
1
10
-2.19999999999999
20
-6.70205756880287
30
-1E-16
41
1
10
-2.19999999999999
20
-6.46250917346816
30
-1E-16
41
1
10
-2.19999999999999
20
-6.22131783489101
30
-1E-16
41
1
10
-2.19999999999999
20
-5.97849051253721
30
-1E-16
41
1
10
-2.19999999999999
20
-5.73403522651989
30
-1E-16
41
1
10
-2.19999999999999
20
-5.48796106514416
30
-1E-16
41
1
10
-2.19999999999999
20
-5.24027911954084
30
-1E-16
41
1
10
-2.19999999999999
20
-5.03253662624778
30
-1E-16
41
1
10
-2.19999999999999
20
-4.86557359653659
30
-1E-16
41
1
10
-2.19999999999999
20
-4.73994907984499
30
-1E-16
41
1
10
-2.19999999999999
20
-4.61393371339872
30
-1E-16
41
1
10
-2.19999999999999
20
-4.44540775759583
30
-1E-16
41
1
10
-2.19999999999999
20
-4.23375654375474
30
-1E-16
41
1
10
-2.19999999999999
20
-4.020839617489
30
-1E-16
41
1
10
-2.19999999999999
20
-3.84978439330678
30
-1E-16
41
1
10
-2.19999999999999
20
-3.72111343644576
30
-1E-16
41
1
10
-2.19999999999999
20
-3.59207750684843
30
-1E-16
41
1
10
-2.19999999999999
20
-3.41956370437865
30
-1E-16
41
1
10
-2.19999999999999
20
-3.24629481975686
30
-1E-16
41
1
10
-2.19999999999999
20
-3.072383622975
30
-1E-16
41
1
10
-2.19999999999999
20
-2.94160047796311
30
-1E-16
41
1
10
-2.19999999999999
20
-2.81048648769612
30
-1E-16
41
1
10
-2.19999999999999
20
-2.67904893291683
30
-1E-16
41
1
10
-2.19999999999999
20
-2.54729563151926
30
-1E-16
41
1
10
-2.19999999999999
20
-2.41523552035437
30
-1E-16
41
1
10
-2.19999999999999
20
-2.28287741514001
30
-1E-16
41
1
10
-2.19999999999999
20
-2.15023167925048
30
-1E-16
41
1
10
-2.19999999999999
20
-2.01730874020455
30
-1E-16
41
1
10
-2.19999999999999
20
-1.88412021847037
30
-1E-16
41
1
10
-2.19999999999999
20
-1.75067843002711
30
-1E-16
41
1
10
-2.19999999999999
20
-1.61699635855226
30
-1E-16
41
1
10
-2.19999999999999
20
-1.48308822685564
30
-1E-16
41
1
10
-2.19999999999999
20
-1.34896860046499
30
-1E-16
41
1
10
-2.19999999999999
20
-1.21465351395383
30
-1E-16
41
1
10
-2.19999999999999
20
-1.08015922751395
30
-1E-16
41
1
10
-2.19999999999999
20
-0.945503451789534
30
-1E-16
41
1
10
-2.19999999999999
20
-0.810704122044939
30
-1E-16
41
1
10
-2.19999999999999
20
-0.675780432522174
30
-1E-16
41
1
10
-2.19999999999999
20
-0.540751798686529
30
-1E-16
41
1
10
-2.19999999999999
20
-0.405638608907907
30
-1E-16
41
1
10
-2.19999999999999
20
-0.270461437853925
30
-1E-16
41
1
10
-2.19999999999999
20
-0.135241472589996
30
-1E-16
41
1
10
-2.19999999999999
20
-5.3654787E-09
30
-1E-16
41
1
10
-2.19999999999999
20
0.135241462279822
30
-1E-16
41
1
10
-2.19999999999999
20
0.270461428271432
30
-1E-16
41
1
10
-2.19999999999999
20
0.405638599098921
30
-1E-16
41
1
10
-2.19999999999999
20
0.540751787789588
30
-1E-16
41
1
10
-2.19999999999999
20
0.675780421912322
30
-1E-16
41
1
10
-2.19999999999999
20
0.810704113119073
30
-1E-16
41
1
10
-2.19999999999999
20
0.945503442662783
30
-1E-16
41
1
10
-2.19999999999999
20
1.0801592162689
30
-1E-16
41
1
10
-2.19999999999999
20
1.21465350310541
30
-1E-16
41
1
10
-2.19999999999999
20
1.34896859254377
30
-1E-16
41
1
10
-2.19999999999999
20
1.48308821885627
30
-1E-16
41
1
10
-2.19999999999999
20
1.61699634722072
30
-1E-16
41
1
10
-2.19999999999999
20
1.75067841854351
30
-1E-16
41
1
10
-2.19999999999999
20
1.88412021099791
30
-1E-16
41
1
10
-2.19999999999999
20
2.01730873413072
30
-1E-16
41
1
10
-2.19999999999999
20
2.15023166945255
30
-1E-16
41
1
10
-2.19999999999999
20
2.28287740252156
30
-1E-16
41
1
10
-2.19999999999999
20
2.41523551097489
30
-1E-16
41
1
10
-2.19999999999999
20
2.54729562722176
30
-1E-16
41
1
10
-2.19999999999999
20
2.67904892732182
30
-1E-16
41
1
10
-2.19999999999999
20
2.81048647644627
30
-1E-16
41
1
10
-2.19999999999999
20
2.94160046512798
30
-1E-16
41
1
10
-2.19999999999999
20
3.0723836150739
30
-1E-16
41
1
10
-2.19999999999999
20
3.24629481959221
30
-1E-16
41
1
10
-2.19999999999999
20
3.41956369464535
30
-1E-16
41
1
10
-2.19999999999999
20
3.59207749308624
30
-1E-16
41
1
10
-2.19999999999999
20
3.72111342731068
30
-1E-16
41
1
10
-2.19999999999999
20
3.84978439152417
30
-1E-16
41
1
10
-2.19999999999999
20
4.02083961713782
30
-1E-16
41
1
10
-2.19999999999999
20
4.23375652596863
30
-1E-16
41
1
10
-2.19999999999999
20
4.44540774959788
30
-1E-16
41
1
10
-2.19999999999999
20
4.61393371339017
30
-1E-16
41
1
10
-2.19999999999999
20
4.73994908127321
30
-1E-16
41
1
10
-2.19999999999999
20
4.86557359122418
30
-1E-16
41
1
10
-2.19999999999999
20
5.03253661023487
30
-1E-16
41
1
10
-2.19999999999999
20
5.24027911118978
30
-1E-16
41
1
10
-2.19999999999999
20
5.48796107357256
30
-1E-16
41
1
10
-2.19999999999999
20
5.73403521575827
30
-1E-16
41
1
10
-2.19999999999999
20
5.97849049576266
30
-1E-16
41
1
10
-2.19999999999999
20
6.2213178400012
30
-1E-16
41
1
10
-2.19999999999999
20
6.46250918569618
30
-1E-16
41
1
10
-2.19999999999999
20
6.70205758660663
30
-1E-16
41
1
10
-2.19999999999999
20
6.93995692090419
30
-1E-16
41
1
10
-2.19999999999999
20
7.17620220160032
30
-1E-16
41
1
10
-2.19999999999999
20
7.41078884464241
30
-1E-16
41
1
10
-2.19999999999999
20
7.6437128367312
30
-1E-16
41
1
10
-2.19999999999999
20
7.87497060194644
30
-1E-16
41
1
10
-2.19999999999999
20
8.10455852701506
30
-1E-16
41
1
10
-2.19999999999999
20
8.33247380011301
30
-1E-16
41
1
10
-2.19999999999999
20
8.55871419535617
30
-1E-16
41
1
10
-2.19999999999999
20
8.78327689677775
30
-1E-16
41
1
10
-2.19999999999999
20
9.08043848955603
30
-1E-16
41
1
10
-2.19999999999999
20
9.44771865839311
30
-1E-16
41
1
10
-2.19999999999999
20
9.88169304970987
30
-1E-16
41
1
10
-2.19999999999999
20
10.2377184130835
30
-1E-16
41
1
10
-2.19999999999999
20
10.5191258614377
30
-1E-16
41
1
10
-2.19999999999999
20
10.7284950970913
30
-1E-16
41
1
10
-2.19999999999999
20
10.9361655879759
30
-1E-16
41
1
10
-2.19999999999999
20
11.1421359853758
30
-1E-16
41
1
10
-2.19999999999999
20
11.3464032807099
30
-1E-16
41
1
10
-2.19999999999999
20
11.5489655826483
30
-1E-16
41
1
10
-2.19999999999999
20
11.7498207258852
30
-1E-16
41
1
10
-2.19999999999999
20
12.0153352592314
30
-1E-16
41
1
10
-2.19999999999999
20
12.2774598592137
30
-1E-16
41
1
10
-2.19999999999999
20
12.5361142588231
30
-1E-16
41
1
10
-2.19999999999999
20
12.728392778749
30
-1E-16
41
1
10
-2.19999999999999
20
12.9189467805057
30
-1E-16
41
1
10
-2.19999999999999
20
13.1077737485311
30
-1E-16
41
1
10
-2.19999999999999
20
13.2948705974071
30
-1E-16
41
1
10
-2.19999999999999
20
13.4802328481714
30
-1E-16
41
1
10
-2.19999999999999
20
13.6638579861817
30
-1E-16
41
1
10
-2.19999999999999
20
13.8457420253844
30
-1E-16
41
1
10
-2.19999999999999
20
14.0258803741545
30
-1E-16
41
1
10
-2.19999999999999
20
14.2042700822291
30
-1E-16
41
1
10
-2.19999999999999
20
14.3809062427341
30
-1E-16
41
1
10
-2.19999999999999
20
14.5557843226631
30
-1E-16
41
1
10
-2.19999999999999
20
14.7289012367181
30
-1E-16
41
1
10
-2.19999999999999
20
14.90025131083
30
-1E-16
41
1
10
-2.19999999999999
20
15.0415708470876
30
-1E-16
41
1
10
-2.19999999999999
20
15.1537302031574
30
-1E-16
41
1
10
-2.19999999999999
20
15.2652965264295
30
-1E-16
41
1
10
-2.19999999999999
20
15.4036502143979
30
-1E-16
41
1
10
-2.19999999999999
20
15.567882396309
30
-1E-16
41
1
10
-2.19999999999999
20
15.7032538676567
30
-1E-16
41
1
10
-2.19999999999999
20
15.8106442286412
30
-1E-16
41
1
10
-2.19999999999999
20
15.9174340084588
30
-1E-16
41
1
10
-2.19999999999999
20
16.049802831716
30
-1E-16
41
1
10
-2.19999999999999
20
16.2591646002876
30
-1E-16
41
1
10
-2.19999999999999
20
16.4649164953067
30
-1E-16
41
1
10
-2.19999999999999
20
16.6669871400996
30
-1E-16
41
1
10
-2.19999999999999
20
16.8167088060477
30
-1E-16
41
1
10
-2.19999999999999
20
16.9645867974536
30
-1E-16
41
1
10
-2.19999999999999
20
17.1592829447589
30
-1E-16
41
1
10
-2.19999999999999
20
17.3502824417036
30
-1E-16
41
1
10
-2.19999999999999
20
17.5141131161323
30
-1E-16
41
1
10
-2.19999999999999
20
17.606787767091
30
-1E-16
41
1
10
-2.19999999999999
20
17.6988333809735
30
-1E-16
41
1
10
-2.19999999999999
20
17.8127164551587
30
-1E-16
41
1
10
-2.19999999999999
20
17.9923842356821
30
-1E-16
41
1
10
-2.19999999999999
20
18.1682545122203
30
-1E-16
41
1
10
-2.19999999999999
20
18.3402521463352
30
-1E-16
41
1
10
-2.19999999999999
20
18.4673177976698
30
-1E-16
41
1
10
-2.19999999999999
20
18.5924362845557
30
-1E-16
41
1
10
-2.19999999999999
20
18.756645794641
30
-1E-16
41
1
10
-2.19999999999999
20
18.9169360704622
30
-1E-16
41
1
10
-2.19999999999999
20
19.0536957086557
30
-1E-16
41
1
10
-2.19999999999999
20
19.1308417758755
30
-1E-16
41
1
10
-2.19999999999999
20
19.2073184270571
30
-1E-16
41
1
10
-2.19999999999999
20
19.3016622310533
30
-1E-16
41
1
10
-2.19999999999999
20
19.4499005336558
30
-1E-16
41
1
10
-2.19999999999999
20
19.5940778412012
30
-1E-16
41
1
10
-2.19999999999999
20
19.7341102362335
30
-1E-16
41
1
10
-2.19999999999999
20
19.8370591957147
30
-1E-16
41
1
10
-2.19999999999999
20
19.9379151599299
30
-1E-16
41
1
10
-2.19999999999999
20
20.0366642357894
30
-1E-16
41
1
10
-2.19999999999999
20
20.1332899477274
30
-1E-16
41
1
10
-2.19999999999999
20
20.2277776663919
30
-1E-16
41
1
10
-2.19999999999999
20
20.3201119071544
30
-1E-16
41
1
10
-2.19999999999999
20
20.4102747128949
30
-1E-16
41
1
10
-2.19999999999999
20
20.4982502525025
30
-1E-16
41
1
10
-2.19999999999999
20
20.5840212184218
30
-1E-16
41
1
10
-2.19999999999999
20
20.6675681841826
30
-1E-16
41
1
10
-2.19999999999999
20
20.7488739070252
30
-1E-16
41
1
10
-2.19999999999999
20
20.8279188369072
30
-1E-16
41
1
10
-2.19999999999999
20
20.9302657445266
30
-1E-16
41
1
10
-2.19999999999999
20
21.0280237507364
30
-1E-16
41
1
10
-2.19999999999999
20
21.121080083473
30
-1E-16
41
1
10
-2.19999999999999
20
21.1885090229233
30
-1E-16
41
1
10
-2.19999999999999
20
21.2535469243879
30
1E-16
41
1
10
-2.19999999999999
20
21.3161703964091
30
1E-16
41
1
10
-2.19999999999999
20
21.3763547276269
30
1E-16
41
1
10
-2.19999999999999
20
21.453308753177
30
1E-16
41
1
10
-2.19999999999999
20
21.5252891523049
30
0
41
1
10
-2.19999999999999
20
21.5921615264853
30
0
41
1
10
-2.19999999999999
20
21.6397397481888
30
0
41
1
10
-2.19999999999999
20
21.6847072709128
30
0
41
1
10
-2.19999999999999
20
21.7411390111089
30
0
41
1
10
-2.19999999999999
20
21.8049949078793
30
1E-16
41
1
10
-2.19999999999999
20
21.870633664349
30
1E-16
41
1
10
-2.19999999999999
20
21.9159230944434
30
1E-16
41
1
10
-2.19999999999999
20
21.9463373083127
30
-1E-16
41
1
10
-2.19999999999999
20
21.9661971621578
30
-1E-16
41
1
10
-2.19999999999999
20
21.9830583750197
30
-1E-16
41
1
10
-2.19999999999999
20
21.9968726461305
30
-1E-16
41
1
10
-2.19999999999996
20
22.0069595112738
30
-1E-16
41
1
10
-2.19999999999999
20
22.0117273472698
30
-1E-16
41
1
10
-2.20000000000002
20
22.0135193490595
30
-1E-16
0
SPLINE
5
DA
100
AcDbEntity
8
SK1
62
256
6
ByLayer
370
13
48
1
60
0
100
AcDbSpline
70
4
71
3
72
299
73
295
40
0
40
0
40
0
40
0
40
0.0032927159649606
40
0.0068154430906277
40
0.0103381702162948
40
0.0138608973419619
40
0.017383624467629
40
0.0209063515932961
40
0.0244290787189632
40
0.0279518058446303
40
0.0314745329702974
40
0.0349972600959645
40
0.0385199872216316
40
0.0420427143472987
40
0.0490881685986329
40
0.0526108957243
40
0.0561336228499671
40
0.0596563499756342
40
0.0631790771013013
40
0.0702245313526355
40
0.0737472584783026
40
0.0772699856039697
40
0.0807927127296368
40
0.0843154398553039
40
0.087838166980971
40
0.0913608941066381
40
0.0984063483579723
40
0.101929075483639
40
0.105451802609307
40
0.108974529734974
40
0.112497256860641
40
0.116019983986308
40
0.119542711111975
40
0.123065438237642
40
0.126588165363309
40
0.130110892488976
40
0.133633619614643
40
0.13715634674031
40
0.140679073865978
40
0.144201800991645
40
0.147724528117312
40
0.154769982368646
40
0.158292709494313
40
0.16181543661998
40
0.165338163745647
40
0.168860890871314
40
0.175906345122648
40
0.179429072248316
40
0.182951799373983
40
0.18647452649965
40
0.189997253625317
40
0.197042707876651
40
0.200565435002318
40
0.204088162127985
40
0.207610889253653
40
0.211133616379319
40
0.218179070630654
40
0.221701797756321
40
0.225224524881988
40
0.228747252007655
40
0.232269979133322
40
0.239315433384656
40
0.242838160510323
40
0.246360887635991
40
0.249883614761658
40
0.253406341887325
40
0.260451796138659
40
0.263974523264326
40
0.267497250389993
40
0.274542704641327
40
0.278065431766994
40
0.281588158892661
40
0.285110886018329
40
0.288633613143996
40
0.292156340269663
40
0.29567906739533
40
0.299201794520997
40
0.302724521646664
40
0.306247248772331
40
0.309769975897998
40
0.313292703023666
40
0.316815430149333
40
0.323860884400667
40
0.327383611526334
40
0.330906338652001
40
0.334429065777668
40
0.337951792903335
40
0.341474520029002
40
0.344997247154669
40
0.348519974280336
40
0.352042701406004
40
0.359088155657338
40
0.366133609908672
40
0.373179064160006
40
0.376701791285673
40
0.38022451841134
40
0.383747245537008
40
0.387269972662675
40
0.390792699788342
40
0.394315426914009
40
0.397838154039676
40
0.401360881165343
40
0.40488360829101
40
0.408406335416677
40
0.411929062542344
40
0.415451789668011
40
0.418974516793678
40
0.422497243919346
40
0.426019971045013
40
0.42954269817068
40
0.433065425296347
40
0.43482678885918
40
0.436588152422014
40
0.438349515984848
40
0.440110879547681
40
0.443633606673348
40
0.447156333799015
40
0.448917697361849
40
0.450679060924682
40
0.452440424487516
40
0.454201788050349
40
0.457724515176016
40
0.45948587873885
40
0.461247242301684
40
0.463008605864517
40
0.464769969427351
40
0.466531332990184
40
0.468292696553018
40
0.470054060115851
40
0.471815423678685
40
0.473576787241519
40
0.475338150804352
40
0.477099514367186
40
0.478860877930019
40
0.480622241492853
40
0.482383605055686
40
0.48414496861852
40
0.485906332181353
40
0.487667695744187
40
0.489429059307021
40
0.491190422869854
40
0.492951786432688
40
0.494713149995521
40
0.496474513558355
40
0.498235877121188
40
0.499997240684022
40
0.501758604246855
40
0.503519967809689
40
0.505281331372522
40
0.507042694935356
40
0.50880405849819
40
0.510565422061023
40
0.512326785623857
40
0.51408814918669
40
0.515849512749524
40
0.517610876312357
40
0.519372239875191
40
0.521133603438024
40
0.522894967000858
40
0.524656330563691
40
0.526417694126525
40
0.528179057689359
40
0.529940421252192
40
0.531701784815026
40
0.533463148377859
40
0.535224511940693
40
0.536985875503526
40
0.53874723906636
40
0.540508602629193
40
0.542269966192027
40
0.545792693317694
40
0.547554056880528
40
0.549315420443361
40
0.551076784006195
40
0.552838147569028
40
0.556360874694695
40
0.559883601820362
40
0.561644965383196
40
0.56340632894603
40
0.565167692508863
40
0.566929056071697
40
0.570451783197364
40
0.573974510323031
40
0.577497237448698
40
0.581019964574365
40
0.584542691700032
40
0.588065418825699
40
0.591588145951366
40
0.595110873077033
40
0.598633600202701
40
0.602156327328368
40
0.605679054454035
40
0.609201781579702
40
0.612724508705369
40
0.616247235831036
40
0.619769962956703
40
0.62329269008237
40
0.626815417208037
40
0.633860871459372
40
0.640906325710706
40
0.64795177996204
40
0.651474507087707
40
0.654997234213374
40
0.658519961339041
40
0.662042688464708
40
0.665565415590376
40
0.669088142716043
40
0.67261086984171
40
0.676133596967377
40
0.683179051218711
40
0.686701778344378
40
0.690224505470045
40
0.693747232595712
40
0.697269959721379
40
0.700792686847046
40
0.704315413972714
40
0.707838141098381
40
0.711360868224048
40
0.714883595349715
40
0.718406322475382
40
0.721929049601049
40
0.725451776726716
40
0.728974503852383
40
0.73249723097805
40
0.736019958103717
40
0.737781321666551
40
0.739542685229384
40
0.743065412355052
40
0.746588139480719
40
0.750110866606386
40
0.751872230169219
40
0.753633593732053
40
0.75715632085772
40
0.760679047983387
40
0.767724502234721
40
0.771247229360388
40
0.774769956486056
40
0.778292683611723
40
0.78181541073739
40
0.788860864988724
40
0.792383592114391
40
0.794144955677225
40
0.795906319240058
40
0.799429046365725
40
0.802951773491392
40
0.809997227742727
40
0.813519954868394
40
0.817042681994061
40
0.820565409119728
40
0.824088136245395
40
0.831133590496729
40
0.834656317622396
40
0.83641768118523
40
0.838179044748063
40
0.841701771873731
40
0.845224498999398
40
0.852269953250732
40
0.855792680376399
40
0.859315407502066
40
0.862838134627733
40
0.8663608617534
40
0.869883588879067
40
0.873406316004734
40
0.876929043130402
40
0.880451770256069
40
0.883974497381736
40
0.887497224507403
40
0.89101995163307
40
0.894542678758737
40
0.898065405884404
40
0.901588133010071
40
0.908633587261406
40
0.912156314387072
40
0.915679041512739
40
0.919201768638407
40
0.922724495764074
40
0.926247222889741
40
0.929769950015408
40
0.936815404266742
40
0.940338131392409
40
0.943860858518076
40
0.947383585643743
40
0.950906312769411
40
0.957951767020745
40
0.964997221272079
40
0.972042675523413
40
0.97556540264908
40
0.979088129774747
40
0.982610856900415
40
0.986133584026082
40
0.989656311151749
40
0.993179038277416
40
0.996701765403083
40
1
40
1
40
1
40
1
41
1
10
-1.99503997793928
20
-21.8251674332633
30
-1E-16
41
1
10
-1.99503997793928
20
-21.8252766022145
30
-1E-16
41
1
10
-1.99503997793928
20
-21.8245099855899
30
-1E-16
41
1
10
-1.99503997793928
20
-21.8202838734724
30
-1E-16
41
1
10
-1.99503997793928
20
-21.8127830851058
30
-1E-16
41
1
10
-1.99503997793928
20
-21.8021565310045
30
-1E-16
41
1
10
-1.99503997793928
20
-21.7884557380592
30
-1E-16
41
1
10
-1.99503997793928
20
-21.7717309018817
30
-1E-16
41
1
10
-1.99503997793928
20
-21.7520292420694
30
-1E-16
41
1
10
-1.99503997793928
20
-21.7293964429163
30
-1E-16
41
1
10
-1.99503997793928
20
-21.7038764495607
30
1E-16
41
1
10
-1.99503997793928
20
-21.6755105092645
30
1E-16
41
1
10
-1.99503997793928
20
-21.6443396610233
30
1E-16
41
1
10
-1.99503997793928
20
-21.5990695510926
30
0
41
1
10
-1.99503997793928
20
-21.5484022410126
30
0
41
1
10
-1.99503997793928
20
-21.4923513092323
30
0
41
1
10
-1.99503997793928
20
-21.4477036445725
30
0
41
1
10
-1.99503997793928
20
-21.4004603045828
30
0
41
1
10
-1.99503997793928
20
-21.3340243512753
30
0
41
1
10
-1.99503997793928
20
-21.262600218376
30
0
41
1
10
-1.99503997793928
20
-21.1861355753666
30
1E-16
41
1
10
-1.99503997793928
20
-21.1263556466612
30
1E-16
41
1
10
-1.99503997793928
20
-21.064149408511
30
1E-16
41
1
10
-1.99503997793928
20
-20.9995415068112
30
-1E-16
41
1
10
-1.99503997793928
20
-20.9325549572362
30
-1E-16
41
1
10
-1.99503997793928
20
-20.8400664428987
30
-1E-16
41
1
10
-1.99503997793928
20
-20.7430172190698
30
-1E-16
41
1
10
-1.99503997793928
20
-20.6412830627252
30
-1E-16
41
1
10
-1.99503997793928
20
-20.5627395868944
30
-1E-16
41
1
10
-1.99503997793928
20
-20.4819464863244
30
-1E-16
41
1
10
-1.99503997793928
20
-20.398923430088
30
-1E-16
41
1
10
-1.99503997793928
20
-20.3136874196731
30
-1E-16
41
1
10
-1.99503997793928
20
-20.2262576202058
30
-1E-16
41
1
10
-1.99503997793928
20
-20.1366515718167
30
-1E-16
41
1
10
-1.99503997793928
20
-20.0448848362119
30
-1E-16
41
1
10
-1.99503997793928
20
-19.9509751416388
30
-1E-16
41
1
10
-1.99503997793928
20
-19.8549381550126
30
-1E-16
41
1
10
-1.99503997793928
20
-19.7567881415466
30
-1E-16
41
1
10
-1.99503997793928
20
-19.6565420567613
30
-1E-16
41
1
10
-1.99503997793928
20
-19.5542140249085
30
-1E-16
41
1
10
-1.99503997793928
20
-19.414970513124
30
-1E-16
41
1
10
-1.99503997793928
20
-19.2717625055688
30
-1E-16
41
1
10
-1.99503997793928
20
-19.1243510467918
30
-1E-16
41
1
10
-1.99503997793928
20
-19.0118150097952
30
-1E-16
41
1
10
-1.99503997793928
20
-18.8972761707097
30
-1E-16
41
1
10
-1.99503997793928
20
-18.7418497326446
30
-1E-16
41
1
10
-1.99503997793928
20
-18.5826226298873
30
-1E-16
41
1
10
-1.99503997793928
20
-18.4193198181252
30
-1E-16
41
1
10
-1.99503997793928
20
-18.2949373683468
30
-1E-16
41
1
10
-1.99503997793928
20
-18.1686188521771
30
-1E-16
41
1
10
-1.99503997793928
20
-17.9975683374733
30
-1E-16
41
1
10
-1.99503997793928
20
-17.8228590748674
30
-1E-16
41
1
10
-1.99503997793928
20
-17.6441786252734
30
-1E-16
41
1
10
-1.99503997793928
20
-17.5083251903719
30
-1E-16
41
1
10
-1.99503997793928
20
-17.3705928023913
30
-1E-16
41
1
10
-1.99503997793928
20
-17.1843924611907
30
-1E-16
41
1
10
-1.99503997793928
20
-16.9946550481209
30
-1E-16
41
1
10
-1.99503997793928
20
-16.8010329188422
30
-1E-16
41
1
10
-1.99503997793928
20
-16.6540265683948
30
-1E-16
41
1
10
-1.99503997793928
20
-16.5051894037979
30
-1E-16
41
1
10
-1.99503997793928
20
-16.3042398246232
30
-1E-16
41
1
10
-1.99503997793928
20
-16.0998603532658
30
-1E-16
41
1
10
-1.99503997793928
20
-15.8916657661057
30
-1E-16
41
1
10
-1.99503997793928
20
-15.733775855726
30
-1E-16
41
1
10
-1.99503997793928
20
-15.574095422854
30
-1E-16
41
1
10
-1.99503997793928
20
-15.3587351142266
30
-1E-16
41
1
10
-1.99503997793928
20
-15.1400402265273
30
-1E-16
41
1
10
-1.99503997793928
20
-14.9175842595472
30
-1E-16
41
1
10
-1.99503997793928
20
-14.6927797943809
30
-1E-16
41
1
10
-1.99503997793928
20
-14.4646959102749
30
-1E-16
41
1
10
-1.99503997793928
20
-14.2328810143213
30
-1E-16
41
1
10
-1.99503997793928
20
-14.0573389921213
30
-1E-16
41
1
10
-1.99503997793928
20
-13.8800597145162
30
-1E-16
41
1
10
-1.99503997793928
20
-13.7010488212408
30
-1E-16
41
1
10
-1.99503997793928
20
-13.520309646993
30
-1E-16
41
1
10
-1.99503997793928
20
-13.3378467396349
30
-1E-16
41
1
10
-1.99503997793928
20
-13.1536651432542
30
-1E-16
41
1
10
-1.99503997793928
20
-12.9677676529033
30
-1E-16
41
1
10
-1.99503997793928
20
-12.7801589212449
30
-1E-16
41
1
10
-1.99503997793928
20
-12.5908431584255
30
-1E-16
41
1
10
-1.99503997793928
20
-12.3998230071702
30
-1E-16
41
1
10
-1.99503997793928
20
-12.1427687977971
30
-1E-16
41
1
10
-1.99503997793928
20
-11.8826118620781
30
-1E-16
41
1
10
-1.99503997793928
20
-11.6187779427602
30
-1E-16
41
1
10
-1.99503997793928
20
-11.4192921870092
30
-1E-16
41
1
10
-1.99503997793928
20
-11.2181233670389
30
-1E-16
41
1
10
-1.99503997793928
20
-11.0152749978462
30
-1E-16
41
1
10
-1.99503997793928
20
-10.8107494592904
30
-1E-16
41
1
10
-1.99503997793928
20
-10.6045508126063
30
-1E-16
41
1
10
-1.99503997793928
20
-10.3966814549587
30
-1E-16
41
1
10
-1.99503997793928
20
-10.1171869828061
30
-1E-16
41
1
10
-1.99503997793928
20
-9.76392165975841
30
-1E-16
41
1
10
-1.99503997793928
20
-9.33322609823665
30
-1E-16
41
1
10
-1.99503997793928
20
-8.96893239301764
30
-1E-16
41
1
10
-1.99503997793928
20
-8.67397577159846
30
-1E-16
41
1
10
-1.99503997793928
20
-8.4512197921853
30
-1E-16
41
1
10
-1.99503997793928
20
-8.22682785520686
30
-1E-16
41
1
10
-1.99503997793928
20
-8.00080468509063
30
-1E-16
41
1
10
-1.99503997793928
20
-7.77315487290267
30
-1E-16
41
1
10
-1.99503997793928
20
-7.54388383469134
30
-1E-16
41
1
10
-1.99503997793928
20
-7.31299670603016
30
-1E-16
41
1
10
-1.99503997793928
20
-7.08049963775395
30
-1E-16
41
1
10
-1.99503997793928
20
-6.84639976314463
30
-1E-16
41
1
10
-1.99503997793928
20
-6.61070492919379
30
-1E-16
41
1
10
-1.99503997793928
20
-6.37342317953835
30
-1E-16
41
1
10
-1.99503997793928
20
-6.13456381441384
30
-1E-16
41
1
10
-1.99503997793928
20
-5.89413750153935
30
-1E-16
41
1
10
-1.99503997793928
20
-5.65215640891225
30
-1E-16
41
1
10
-1.99503997793928
20
-5.40863364784667
30
-1E-16
41
1
10
-1.99503997793928
20
-5.16358497720142
30
-1E-16
41
1
10
-1.99503997793928
20
-4.95821801342223
30
-1E-16
41
1
10
-1.99503997793928
20
-4.79299519854527
30
-1E-16
41
1
10
-1.99503997793928
20
-4.66878844332788
30
-1E-16
41
1
10
-1.99503997793928
20
-4.54421502107886
30
-1E-16
41
1
10
-1.99503997793928
20
-4.37752560184694
30
-1E-16
41
1
10
-1.99503997793928
20
-4.16851549788919
30
-1E-16
41
1
10
-1.99503997793928
20
-3.95832365779984
30
-1E-16
41
1
10
-1.99503997793928
20
-3.78926935085312
30
-1E-16
41
1
10
-1.99503997793928
20
-3.66223140396673
30
-1E-16
41
1
10
-1.99503997793928
20
-3.53485872835634
30
-1E-16
41
1
10
-1.99503997793928
20
-3.36446606295527
30
-1E-16
41
1
10
-1.99503997793928
20
-3.19381066067948
30
-1E-16
41
1
10
-1.99503997793928
20
-3.02213556164864
30
-1E-16
41
1
10
-1.99503997793928
20
-2.89317847799558
30
-1E-16
41
1
10
-1.99503997793928
20
-2.76392444618182
30
-1E-16
41
1
10
-1.99503997793928
20
-2.63438254221708
30
-1E-16
41
1
10
-1.99503997793928
20
-2.50455989433328
30
-1E-16
41
1
10
-1.99503997793928
20
-2.37446635053539
30
-1E-16
41
1
10
-1.99503997793928
20
-2.24411116714702
30
-1E-16
41
1
10
-1.99503997793928
20
-2.11350400419804
30
-1E-16
41
1
10
-1.99503997793928
20
-1.98265628188182
30
-1E-16
41
1
10
-1.99503997793928
20
-1.85157817419838
30
-1E-16
41
1
10
-1.99503997793928
20
-1.72028261530932
30
-1E-16
41
1
10
-1.99503997793928
20
-1.58878099035152
30
-1E-16
41
1
10
-1.99503997793928
20
-1.45708720896539
30
-1E-16
41
1
10
-1.99503997793928
20
-1.32521410103647
30
-1E-16
41
1
10
-1.99503997793928
20
-1.1931764657121
30
-1E-16
41
1
10
-1.99503997793928
20
-1.06098853158755
30
-1E-16
41
1
10
-1.99503997793928
20
-0.92866594303203
30
-1E-16
41
1
10
-1.99503997793928
20
-0.796224050825089
30
-1E-16
41
1
10
-1.99503997793928
20
-0.663679323049081
30
-1E-16
41
1
10
-1.99503997793928
20
-0.531048037421954
30
-1E-16
41
1
10
-1.99503997793928
20
-0.398347307093388
30
-1E-16
41
1
10
-1.99503997793928
20
-0.265594069601519
30
-1E-16
41
1
10
-1.99503997793928
20
-0.132805835966792
30
-1E-16
41
1
10
-1.99503997793928
20
-2.0604887E-09
30
-1E-16
41
1
10
-1.99503997793928
20
0.132805828560237
30
-1E-16
41
1
10
-1.99503997793928
20
0.265594055935196
30
-1E-16
41
1
10
-1.99503997793928
20
0.398347293868937
30
-1E-16
41
1
10
-1.99503997793928
20
0.531048033506266
30
-1E-16
41
1
10
-1.99503997793928
20
0.663679321648374
30
-1E-16
41
1
10
-1.99503997793928
20
0.796224037396229
30
-1E-16
41
1
10
-1.99503997793928
20
0.928665923975672
30
-1E-16
41
1
10
-1.99503997793928
20
1.06098852682439
30
-1E-16
41
1
10
-1.99503997793928
20
1.19317647053177
30
-1E-16
41
1
10
-1.99503997793928
20
1.32521409071333
30
-1E-16
41
1
10
-1.99503997793928
20
1.45708718468359
30
-1E-16
41
1
10
-1.99503997793928
20
1.58878098022359
30
-1E-16
41
1
10
-1.99503997793928
20
1.72028262405345
30
-1E-16
41
1
10
-1.99503997793928
20
1.85157817347522
30
-1E-16
41
1
10
-1.99503997793928
20
1.98265625862297
30
-1E-16
41
1
10
-1.99503997793928
20
2.11350398186613
30
-1E-16
41
1
10
-1.99503997793928
20
2.24411116870439
30
-1E-16
41
1
10
-1.99503997793928
20
2.37446636334928
30
-1E-16
41
1
10
-1.99503997793928
20
2.50455988721876
30
-1E-16
41
1
10
-1.99503997793928
20
2.63438251344519
30
-1E-16
41
1
10
-1.99503997793928
20
2.76392442628162
30
-1E-16
41
1
10
-1.99503997793928
20
2.8931784837302
30
-1E-16
41
1
10
-1.99503997793928
20
3.02213557666008
30
-1E-16
41
1
10
-1.99503997793928
20
3.19381064862623
30
-1E-16
41
1
10
-1.99503997793928
20
3.36446603264318
30
-1E-16
41
1
10
-1.99503997793928
20
3.53485872774326
30
-1E-16
41
1
10
-1.99503997793928
20
3.66223142121836
30
-1E-16
41
1
10
-1.99503997793928
20
3.78926935835412
30
-1E-16
41
1
10
-1.99503997793928
20
3.95832363498766
30
-1E-16
41
1
10
-1.99503997793928
20
4.16851547631595
30
-1E-16
41
1
10
-1.99503997793928
20
4.37752561794156
30
-1E-16
41
1
10
-1.99503997793928
20
4.5442150281373
30
-1E-16
41
1
10
-1.99503997793928
20
4.66878842905288
30
-1E-16
41
1
10
-1.99503997793928
20
4.79299516838267
30
-1E-16
41
1
10
-1.99503997793928
20
4.95821799704331
30
-1E-16
41
1
10
-1.99503997793928
20
5.16358499073451
30
-1E-16
41
1
10
-1.99503997793928
20
5.4086336510897
30
-1E-16
41
1
10
-1.99503997793928
20
5.65215638001948
30
-1E-16
41
1
10
-1.99503997793928
20
5.89413749968628
30
-1E-16
41
1
10
-1.99503997793928
20
6.13456384015993
30
-1E-16
41
1
10
-1.99503997793928
20
6.37342319970753
30
-1E-16
41
1
10
-1.99503997793928
20
6.61070495432838
30
-1E-16
41
1
10
-1.99503997793928
20
6.8463997482805
30
-1E-16
41
1
10
-1.99503997793928
20
7.08049945458953
30
-1E-16
41
1
10
-1.99503997793928
20
7.31299637479285
30
-1E-16
41
1
10
-1.99503997793928
20
7.54388372935193
30
-1E-16
41
1
10
-1.99503997793928
20
7.77315513008728
30
-1E-16
41
1
10
-1.99503997793928
20
8.00080467620245
30
-1E-16
41
1
10
-1.99503997793928
20
8.22682776167494
30
-1E-16
41
1
10
-1.99503997793928
20
8.45121977200662
30
-1E-16
41
1
10
-1.99503997793928
20
8.67397578579323
30
-1E-16
41
1
10
-1.99503997793928
20
8.96893242084855
30
-1E-16
41
1
10
-1.99503997793928
20
9.33322608836653
30
-1E-16
41
1
10
-1.99503997793928
20
9.76392166117952
30
-1E-16
41
1
10
-1.99503997793928
20
10.1171870033238
30
-1E-16
41
1
10
-1.99503997793928
20
10.3966814407573
30
-1E-16
41
1
10
-1.99503997793928
20
10.6045508021232
30
-1E-16
41
1
10
-1.99503997793928
20
10.8107494713072
30
-1E-16
41
1
10
-1.99503997793928
20
11.0152750188843
30
-1E-16
41
1
10
-1.99503997793928
20
11.2181233733031
30
-1E-16
41
1
10
-1.99503997793928
20
11.4192921752591
30
-1E-16
41
1
10
-1.99503997793928
20
11.6187779306707
30
-1E-16
41
1
10
-1.99503997793928
20
11.8826118718573
30
-1E-16
41
1
10
-1.99503997793928
20
12.1427688173785
30
-1E-16
41
1
10
-1.99503997793928
20
12.3998230002593
30
-1E-16
41
1
10
-1.99503997793928
20
12.5908431445087
30
-1E-16
41
1
10
-1.99503997793928
20
12.7801589185361
30
-1E-16
41
1
10
-1.99503997793928
20
12.967767664355
30
-1E-16
41
1
10
-1.99503997793928
20
13.1536651576331
30
-1E-16
41
1
10
-1.99503997793928
20
13.3378467409434
30
-1E-16
41
1
10
-1.99503997793928
20
13.5203096364964
30
-1E-16
41
1
10
-1.99503997793928
20
13.7010488098078
30
-1E-16
41
1
10
-1.99503997793928
20
13.8800596938692
30
-1E-16
41
1
10
-1.99503997793928
20
14.0573388809364
30
-1E-16
41
1
10
-1.99503997793928
20
14.2328806917249
30
-1E-16
41
1
10
-1.99503997793928
20
14.4066808882548
30
-1E-16
41
1
10
-1.99503997793928
20
14.578735707937
30
-1E-16
41
1
10
-1.99503997793928
20
14.7490386600655
30
-1E-16
41
1
10
-1.99503997793928
20
14.8894548819647
30
-1E-16
41
1
10
-1.99503997793928
20
15.0009760777421
30
-1E-16
41
1
10
-1.99503997793928
20
15.1119089381336
30
-1E-16
41
1
10
-1.99503997793928
20
15.2493853238091
30
-1E-16
41
1
10
-1.99503997793928
20
15.4126292313156
30
-1E-16
41
1
10
-1.99503997793928
20
15.5471478788444
30
-1E-16
41
1
10
-1.99503997793928
20
15.6539352235828
30
-1E-16
41
1
10
-1.99503997793928
20
15.7601264684356
30
-1E-16
41
1
10
-1.99503997793928
20
15.8916662065006
30
-1E-16
41
1
10
-1.99503997793928
20
16.0998599858609
30
-1E-16
41
1
10
-1.99503997793928
20
16.3042392155796
30
-1E-16
41
1
10
-1.99503997793928
20
16.5051894370887
30
-1E-16
41
1
10
-1.99503997793928
20
16.654027023888
30
-1E-16
41
1
10
-1.99503997793928
20
16.8010333841432
30
-1E-16
41
1
10
-1.99503997793928
20
16.9946548235122
30
-1E-16
41
1
10
-1.99503997793928
20
17.1843913435575
30
-1E-16
41
1
10
-1.99503997793928
20
17.3472945498449
30
-1E-16
41
1
10
-1.99503997793928
20
17.4394590341184
30
-1E-16
41
1
10
-1.99503997793928
20
17.5309981410348
30
-1E-16
41
1
10
-1.99503997793928
20
17.6441795672679
30
-1E-16
41
1
10
-1.99503997793928
20
17.8228588844704
30
-1E-16
41
1
10
-1.99503997793928
20
17.9975681157064
30
-1E-16
41
1
10
-1.99503997793928
20
18.1686188381619
30
-1E-16
41
1
10
-1.99503997793928
20
18.2949375082747
30
-1E-16
41
1
10
-1.99503997793928
20
18.4193199892891
30
-1E-16
41
1
10
-1.99503997793928
20
18.5826225030747
30
-1E-16
41
1
10
-1.99503997793928
20
18.7418485706132
30
-1E-16
41
1
10
-1.99503997793928
20
18.877828345234
30
-1E-16
41
1
10
-1.99503997793928
20
18.9545457436666
30
-1E-16
41
1
10
-1.99503997793928
20
19.0305969699326
30
-1E-16
41
1
10
-1.99503997793928
20
19.1243520606764
30
-1E-16
41
1
10
-1.99503997793928
20
19.2717622924356
30
-1E-16
41
1
10
-1.99503997793928
20
19.4149698127943
30
-1E-16
41
1
10
-1.99503997793928
20
19.5542139601407
30
-1E-16
41
1
10
-1.99503997793928
20
19.6565424313982
30
-1E-16
41
1
10
-1.99503997793928
20
19.7567886026657
30
-1E-16
41
1
10
-1.99503997793928
20
19.8549383078336
30
-1E-16
41
1
10
-1.99503997793928
20
19.9509751576252
30
-1E-16
41
1
10
-1.99503997793928
20
20.0448848271876
30
-1E-16
41
1
10
-1.99503997793928
20
20.136651569995
30
-1E-16
41
1
10
-1.99503997793928
20
20.2262576082901
30
-1E-16
41
1
10
-1.99503997793928
20
20.3136873945745
30
-1E-16
41
1
10
-1.99503997793928
20
20.3989234016943
30
-1E-16
41
1
10
-1.99503997793928
20
20.4819464711493
30
-1E-16
41
1
10
-1.99503997793928
20
20.5627395849404
30
-1E-16
41
1
10
-1.99503997793928
20
20.6412830606924
30
-1E-16
41
1
10
-1.99503997793928
20
20.7430171949632
30
-1E-16
41
1
10
-1.99503997793928
20
20.8400664063016
30
-1E-16
41
1
10
-1.99503997793928
20
20.9325549476398
30
-1E-16
41
1
10
-1.99503997793928
20
20.9995415089612
30
-1E-16
41
1
10
-1.99503997793928
20
21.0641493981766
30
1E-16
41
1
10
-1.99503997793928
20
21.126355615456
30
1E-16
41
1
10
-1.99503997793928
20
21.1861355372814
30
1E-16
41
1
10
-1.99503997793928
20
21.2626002065084
30
0
41
1
10
-1.99503997793928
20
21.3340243579833
30
0
41
1
10
-1.99503997793928
20
21.4004602751572
30
0
41
1
10
-1.99503997793928
20
21.4477036012609
30
0
41
1
10
-1.99503997793928
20
21.4923512863894
30
0
41
1
10
-1.99503997793928
20
21.5484022523455
30
0
41
1
10
-1.99503997793928
20
21.6117670092986
30
1E-16
41
1
10
-1.99503997793928
20
21.6769140218914
30
1E-16
41
1
10
-1.99503997793928
20
21.7218385059106
30
-1E-16
41
1
10
-1.99503997793928
20
21.7520291985819
30
-1E-16
41
1
10
-1.99503997793928
20
21.7717308612526
30
-1E-16
41
1
10
-1.99503997793928
20
21.7884557330328
30
-1E-16
41
1
10
-1.99503997793928
20
21.8021565364934
30
-1E-16
41
1
10
-1.99503997793928
20
21.812783044142
30
-1E-16
41
1
10
-1.99503997793928
20
21.8202836860757
30
-1E-16
41
1
10
-1.99503997793928
20
21.8245118945139
30
-1E-16
41
1
10
-1.99503997793928
20
21.8252777775629
30
-1E-16
41
1
10
-1.99503997793928
20
21.8251669407308
30
-1E-16
0
SPLINE
5
DB
100
AcDbEntity
8
SK1
62
256
6
ByLayer
370
13
48
1
60
0
100
AcDbSpline
70
4
71
3
72
115
73
111
40
0
40
0
40
0
40
0
40
0.0023089423570602
40
0.0108443054736928
40
0.0193796685903254
40
0.027915031706958
40
0.0364503948235905
40
0.0449857579402231
40
0.0535211210568557
40
0.0620564841734883
40
0.0705918472901209
40
0.0791272104067534
40
0.087662573523386
40
0.0961979366400186
40
0.113268662873284
40
0.130339389106549
40
0.147410115339814
40
0.155945478456447
40
0.164480841573079
40
0.173016204689712
40
0.181551567806344
40
0.190086930922977
40
0.19862229403961
40
0.207157657156242
40
0.215693020272875
40
0.23276374650614
40
0.241299109622773
40
0.249834472739405
40
0.258369835856038
40
0.26690519897267
40
0.275440562089303
40
0.283975925205935
40
0.292511288322568
40
0.301046651439201
40
0.309582014555833
40
0.318117377672466
40
0.326652740789098
40
0.335188103905731
40
0.343723467022364
40
0.352258830138996
40
0.360794193255629
40
0.365061874813945
40
0.369329556372261
40
0.377864919488894
40
0.386400282605526
40
0.394935645722159
40
0.399203327280475
40
0.403471008838792
40
0.412006371955424
40
0.420541735072057
40
0.437612461305322
40
0.446147824421955
40
0.454683187538587
40
0.46321855065522
40
0.471753913771852
40
0.488824640005117
40
0.49736000312175
40
0.501627684680066
40
0.505895366238383
40
0.514430729355015
40
0.522966092471648
40
0.540036818704913
40
0.548572181821546
40
0.557107544938178
40
0.565642908054811
40
0.574178271171443
40
0.591248997404708
40
0.599784360521341
40
0.604052042079657
40
0.608319723637974
40
0.616855086754606
40
0.625390449871239
40
0.642461176104504
40
0.650996539221137
40
0.659531902337769
40
0.668067265454402
40
0.676602628571034
40
0.685137991687667
40
0.693673354804299
40
0.702208717920932
40
0.710744081037565
40
0.719279444154197
40
0.72781480727083
40
0.736350170387462
40
0.744885533504095
40
0.753420896620727
40
0.76195625973736
40
0.779026985970625
40
0.787562349087258
40
0.79609771220389
40
0.804633075320523
40
0.813168438437155
40
0.821703801553788
40
0.830239164670421
40
0.847309890903686
40
0.855845254020318
40
0.864380617136951
40
0.872915980253584
40
0.881451343370216
40
0.898522069603481
40
0.915592795836747
40
0.932663522070012
40
0.941198885186644
40
0.949734248303277
40
0.958269611419909
40
0.966804974536542
40
0.975340337653175
40
0.983875700769807
40
0.99241106388644
40
1
40
1
40
1
40
1
41
1
10
-0.394976888875306
20
6.32694309066582
30
0
41
1
10
-0.394976888875306
20
6.34849183540564
30
0
41
1
10
-0.394976888875306
20
6.44960786563183
30
0
41
1
10
-0.394976888875306
20
6.62954558311137
30
0
41
1
10
-0.394976888875306
20
6.86569504295815
30
0
41
1
10
-0.394976888875306
20
7.10023725398264
30
0
41
1
10
-0.394976888875306
20
7.33316516004027
30
0
41
1
10
-0.394976888875306
20
7.56447255210355
30
0
41
1
10
-0.394976888875306
20
7.79415362199521
30
0
41
1
10
-0.394976888875306
20
8.0222029406992
30
0
41
1
10
-0.394976888875306
20
8.24861627222975
30
0
41
1
10
-0.394976888875306
20
8.47338949471808
30
0
41
1
10
-0.394976888875306
20
8.69651812098675
30
0
41
1
10
-0.394976888875306
20
8.99192950801697
30
0
41
1
10
-0.394976888875306
20
9.3568391135907
30
0
41
1
10
-0.394976888875306
20
9.78821091215369
30
0
41
1
10
-0.394976888875306
20
10.1420454829465
30
0
41
1
10
-0.394976888875306
20
10.4219344610486
30
0
41
1
10
-0.394976888875306
20
10.630113157504
30
0
41
1
10
-0.394976888875306
20
10.8366153761928
30
0
41
1
10
-0.394976888875306
20
11.0414389105764
30
0
41
1
10
-0.394976888875306
20
11.2445799083311
30
0
41
1
10
-0.394976888875306
20
11.4460361066677
30
0
41
1
10
-0.394976888875306
20
11.6458042855523
30
0
41
1
10
-0.394976888875306
20
11.9099848332047
30
0
41
1
10
-0.394976888875306
20
12.1705475891153
30
0
41
1
10
-0.394976888875306
20
12.4279318017785
30
0
41
1
10
-0.394976888875306
20
12.6192114742801
30
0
41
1
10
-0.394976888875306
20
12.8087826212334
30
0
41
1
10
-0.394976888875306
20
12.9966426140257
30
0
41
1
10
-0.394976888875306
20
13.182787463215
30
0
41
1
10
-0.394976888875306
20
13.3672125481811
30
0
41
1
10
-0.394976888875306
20
13.549915145406
30
0
41
1
10
-0.394976888875306
20
13.7308904366346
30
0
41
1
10
-0.394976888875306
20
13.9101338497815
30
0
41
1
10
-0.394976888875306
20
14.0876420714538
30
0
41
1
10
-0.394976888875306
20
14.2634095816694
30
0
41
1
10
-0.394976888875306
20
14.4374320816019
30
0
41
1
10
-0.394976888875306
20
14.6097059483473
30
0
41
1
10
-0.394976888875306
20
14.7802248596231
30
0
41
1
10
-0.394976888875306
20
14.9208273816877
30
0
41
1
10
-0.394976888875306
20
15.0324801920763
30
0
41
1
10
-0.394976888875306
20
15.1435436982815
30
0
41
1
10
-0.394976888875306
20
15.2812010193763
30
0
41
1
10
-0.394976888875306
20
15.4446487492657
30
0
41
1
10
-0.394976888875306
20
15.5793432837569
30
0
41
1
10
-0.394976888875306
20
15.6862549949744
30
0
41
1
10
-0.394976888875306
20
15.7925696820839
30
0
41
1
10
-0.394976888875306
20
15.9242804112408
30
0
41
1
10
-0.394976888875306
20
16.1327150774874
30
0
41
1
10
-0.394976888875306
20
16.3373774066279
30
0
41
1
10
-0.394976888875306
20
16.5385587049943
30
0
41
1
10
-0.394976888875306
20
16.6875786248762
30
0
41
1
10
-0.394976888875306
20
16.8347647509306
30
0
41
1
10
-0.394976888875306
20
17.0286078387926
30
0
41
1
10
-0.394976888875306
20
17.2186048360495
30
0
41
1
10
-0.394976888875306
20
17.3816993239948
30
0
41
1
10
-0.394976888875306
20
17.4739690253912
30
0
41
1
10
-0.394976888875306
20
17.5656125946474
30
0
41
1
10
-0.394976888875306
20
17.6789387292296
30
0
41
1
10
-0.394976888875306
20
17.8578219077773
30
0
41
1
10
-0.394976888875306
20
18.0327705937831
30
0
41
1
10
-0.394976888875306
20
18.2040166079408
30
0
41
1
10
-0.394976888875306
20
18.330489335967
30
0
41
1
10
-0.394976888875306
20
18.4550236113311
30
0
41
1
10
-0.394976888875306
20
18.6185131846482
30
0
41
1
10
-0.394976888875306
20
18.777958735224
30
0
41
1
10
-0.394976888875306
20
18.9140993494365
30
0
41
1
10
-0.394976888875306
20
18.9909051568102
30
0
41
1
10
-0.394976888875306
20
19.0670441229991
30
0
41
1
10
-0.394976888875306
20
19.160920630363
30
0
41
1
10
-0.394976888875306
20
19.308501644014
30
0
41
1
10
-0.394976888875306
20
19.4519091739392
30
0
41
1
10
-0.394976888875306
20
19.5913158900225
30
0
41
1
10
-0.394976888875306
20
19.6937723311917
30
0
41
1
10
-0.394976888875306
20
19.79414426657
30
0
41
1
10
-0.394976888875306
20
19.8924175863555
30
0
41
1
10
-0.394976888875306
20
19.9885758834751
30
0
41
1
10
-0.394976888875306
20
20.082604770276
30
0
41
1
10
-0.394976888875306
20
20.1744885542463
30
0
41
1
10
-0.394976888875306
20
20.2642094206366
30
0
41
1
10
-0.394976888875306
20
20.3517517634561
30
0
41
1
10
-0.394976888875306
20
20.4370981008412
30
0
41
1
10
-0.394976888875306
20
20.5202292190253
30
0
41
1
10
-0.394976888875306
20
20.6011280536546
30
0
41
1
10
-0.394976888875306
20
20.6797749496461
30
0
41
1
10
-0.394976888875306
20
20.7816354627076
30
0
41
1
10
-0.394976888875306
20
20.8788308563806
30
0
41
1
10
-0.394976888875306
20
20.9714364994015
30
0
41
1
10
-0.394976888875306
20
21.038514297088
30
0
41
1
10
-0.394976888875306
20
21.1032108723211
30
0
41
1
10
-0.394976888875306
20
21.1655031445011
30
0
41
1
10
-0.394976888875306
20
21.2253664719936
30
0
41
1
10
-0.394976888875306
20
21.3019320664004
30
0
41
1
10
-0.394976888875306
20
21.3734709387681
30
0
41
1
10
-0.394976888875277
20
21.4399968711307
30
0
41
1
10
-0.394976888875277
20
21.4873092663299
30
0
41
1
10
-0.394976888875277
20
21.5320229149808
30
0
41
1
10
-0.394976888875277
20
21.5881524120742
30
0
41
1
10
-0.394976888875277
20
21.651618462036
30
0
41
1
10
-0.394976888875277
20
21.7168668922192
30
0
41
1
10
-0.394976888875277
20
21.7618666429643
30
0
41
1
10
-0.394976888875277
20
21.7921034347989
30
0
41
1
10
-0.394976888875277
20
21.8118377229246
30
0
41
1
10
-0.394976888875277
20
21.8285907137819
30
0
41
1
10
-0.394976888875277
20
21.8423149188875
30
0
41
1
10
-0.394976888875277
20
21.8529598769268
30
0
41
1
10
-0.394976888875277
20
21.8604737650697
30
0
41
1
10
-0.394976888875277
20
21.8646415460827
30
0
41
1
10
-0.394976888875277
20
21.8654382800454
30
0
41
1
10
-0.39497688887522
20
21.8653789159246
30
0
0
SPLINE
5
DC
100
AcDbEntity
8
SK1
62
256
6
ByLayer
370
13
48
1
60
0
100
AcDbSpline
70
4
71
3
72
111
73
107
40
0
40
0
40
0
40
0
40
0.0075759167382299
40
0.0161113917446432
40
0.0246468667510565
40
0.0331823417574698
40
0.0417178167638831
40
0.0502532917702965
40
0.0587887667767098
40
0.067324241783123
40
0.0758597167895364
40
0.0843951917959497
40
0.092930666802363
40
0.101466141808776
40
0.118537091821603
40
0.127072566828016
40
0.13560804183443
40
0.144143516840843
40
0.152678991847256
40
0.169749941860083
40
0.178285416866496
40
0.186820891872909
40
0.195356366879323
40
0.203891841885736
40
0.212427316892149
40
0.220962791898563
40
0.238033741911389
40
0.246569216917803
40
0.255104691924216
40
0.263640166930629
40
0.272175641937043
40
0.280711116943456
40
0.289246591949869
40
0.297782066956282
40
0.306317541962696
40
0.314853016969109
40
0.323388491975522
40
0.331923966981936
40
0.340459441988349
40
0.348994916994762
40
0.357530392001175
40
0.374601342014002
40
0.383136817020416
40
0.391672292026829
40
0.400207767033242
40
0.408743242039655
40
0.425814192052482
40
0.434349667058895
40
0.442885142065309
40
0.451420617071722
40
0.459956092078135
40
0.477027042090962
40
0.485562517097375
40
0.494097992103788
40
0.502633467110202
40
0.511168942116615
40
0.528239892129442
40
0.536775367135855
40
0.545310842142268
40
0.553846317148682
40
0.562381792155095
40
0.579452742167922
40
0.587988217174335
40
0.596523692180748
40
0.605059167187161
40
0.613594642193575
40
0.630665592206402
40
0.639201067212815
40
0.647736542219228
40
0.664807492232055
40
0.673342967238468
40
0.681878442244881
40
0.690413917251295
40
0.698949392257708
40
0.707484867264121
40
0.716020342270534
40
0.724555817276948
40
0.733091292283361
40
0.741626767289775
40
0.750162242296188
40
0.758697717302601
40
0.767233192309014
40
0.784304142321841
40
0.792839617328254
40
0.801375092334668
40
0.809910567341081
40
0.818446042347494
40
0.826981517353907
40
0.835516992360321
40
0.844052467366734
40
0.852587942373148
40
0.869658892385974
40
0.886729842398801
40
0.903800792411627
40
0.912336267418041
40
0.920871742424454
40
0.929407217430867
40
0.93794269243728
40
0.946478167443694
40
0.955013642450107
40
0.963549117456521
40
0.972084592462934
40
0.980620067469347
40
0.98915554247576
40
0.997691017482174
40
1
40
1
40
1
40
1
41
1
10
-0.394976888875277
20
-21.865379179034
30
0
41
1
10
-0.394976888875277
20
-21.8654370611935
30
0
41
1
10
-0.394976888875306
20
-21.8646396737046
30
0
41
1
10
-0.394976888875277
20
-21.8604739519412
30
0
41
1
10
-0.394976888875277
20
-21.8529599173647
30
0
41
1
10
-0.394976888875277
20
-21.8423149132633
30
0
41
1
10
-0.394976888875277
20
-21.8285907189997
30
0
41
1
10
-0.394976888875277
20
-21.8118377637545
30
0
41
1
10
-0.394976888875277
20
-21.7921034780961
30
0
41
1
10
-0.394976888875277
20
-21.7694337460976
30
0
41
1
10
-0.394976888875277
20
-21.7438726893518
30
0
41
1
10
-0.394976888875277
20
-21.7154617242468
30
0
41
1
10
-0.394976888875277
20
-21.6842420425293
30
0
41
1
10
-0.394976888875277
20
-21.6389063892513
30
0
41
1
10
-0.394976888875277
20
-21.5881524005931
30
0
41
1
10
-0.394976888875277
20
-21.5320229383892
30
0
41
1
10
-0.394976888875277
20
-21.4873093096751
30
0
41
1
10
-0.394976888875277
20
-21.4399968999807
30
0
41
1
10
-0.394976888875306
20
-21.3734709318986
30
0
41
1
10
-0.394976888875306
20
-21.301932078811
30
0
41
1
10
-0.394976888875306
20
-21.2253665102307
30
0
41
1
10
-0.394976888875306
20
-21.1655031751743
30
0
41
1
10
-0.394976888875306
20
-21.1032108820957
30
0
41
1
10
-0.394976888875306
20
-21.0385142950144
30
0
41
1
10
-0.394976888875306
20
-20.9714365096391
30
0
41
1
10
-0.394976888875306
20
-20.8788308931333
30
0
41
1
10
-0.394976888875306
20
-20.781635486227
30
0
41
1
10
-0.394976888875306
20
-20.6797749513881
30
0
41
1
10
-0.394976888875306
20
-20.6011280559991
30
0
41
1
10
-0.394976888875306
20
-20.5202292348052
30
0
41
1
10
-0.394976888875306
20
-20.437098129367
30
0
41
1
10
-0.394976888875306
20
-20.3517517880635
30
0
41
1
10
-0.394976888875306
20
-20.264209431984
30
0
41
1
10
-0.394976888875306
20
-20.1744885559187
30
0
41
1
10
-0.394976888875306
20
-20.082604778142
30
0
41
1
10
-0.394976888875306
20
-19.988575861591
30
0
41
1
10
-0.394976888875306
20
-19.8924174211231
30
0
41
1
10
-0.394976888875306
20
-19.7941438028822
30
0
41
1
10
-0.394976888875306
20
-19.6937719762305
30
0
41
1
10
-0.394976888875306
20
-19.5913159811741
30
0
41
1
10
-0.394976888875306
20
-19.4519098709686
30
0
41
1
10
-0.394976888875306
20
-19.3085018143331
30
0
41
1
10
-0.394976888875306
20
-19.1609196079758
30
0
41
1
10
-0.394976888875306
20
-19.048244884465
30
0
41
1
10
-0.394976888875306
20
-18.933565131357
30
0
41
1
10
-0.394976888875306
20
-18.7779598884918
30
0
41
1
10
-0.394976888875306
20
-18.6185132745736
30
0
41
1
10
-0.394976888875306
20
-18.4550234389153
30
0
41
1
10
-0.394976888875306
20
-18.3304892054167
30
0
41
1
10
-0.394976888875306
20
-18.2040166330947
30
0
41
1
10
-0.394976888875306
20
-18.0327708145484
30
0
41
1
10
-0.394976888875306
20
-17.8578220601067
30
0
41
1
10
-0.394976888875306
20
-17.6789377757623
30
0
41
1
10
-0.394976888875306
20
-17.5429190217058
30
0
41
1
10
-0.394976888875306
20
-17.4050188999402
30
0
41
1
10
-0.394976888875306
20
-17.2186059445175
30
0
41
1
10
-0.394976888875306
20
-17.0286080073569
30
0
41
1
10
-0.394976888875306
20
-16.8347642769002
30
0
41
1
10
-0.394976888875306
20
-16.6875782011067
30
0
41
1
10
-0.394976888875306
20
-16.5385587125243
30
0
41
1
10
-0.394976888875306
20
-16.3373780173449
30
0
41
1
10
-0.394976888875306
20
-16.1327154012234
30
0
41
1
10
-0.394976888875306
20
-15.9242799594928
30
0
41
1
10
-0.394976888875306
20
-15.7661946363952
30
0
41
1
10
-0.394976888875306
20
-15.6063159613101
30
0
41
1
10
-0.394976888875306
20
-15.3907043201103
30
0
41
1
10
-0.394976888875306
20
-15.171701411915
30
0
41
1
10
-0.394976888875306
20
-14.9489833053404
30
0
41
1
10
-0.394976888875306
20
-14.7239127068147
30
0
41
1
10
-0.394976888875306
20
-14.4955025482493
30
0
41
1
10
-0.394976888875306
20
-14.2634098807097
30
0
41
1
10
-0.394976888875306
20
-14.0876421688895
30
0
41
1
10
-0.394976888875306
20
-13.910133867705
30
0
41
1
10
-0.394976888875306
20
-13.7308904478326
30
0
41
1
10
-0.394976888875306
20
-13.5499151547097
30
0
41
1
10
-0.394976888875306
20
-13.3672125455487
30
0
41
1
10
-0.394976888875306
20
-13.182787448996
30
0
41
1
10
-0.394976888875306
20
-12.9966426041155
30
0
41
1
10
-0.394976888875306
20
-12.8087826250924
30
0
41
1
10
-0.394976888875306
20
-12.6192114874981
30
0
41
1
10
-0.394976888875306
20
-12.4279318067111
30
0
41
1
10
-0.394976888875306
20
-12.1705475695385
30
0
41
1
10
-0.394976888875306
20
-11.9099848253352
30
0
41
1
10
-0.394976888875306
20
-11.6458042976885
30
0
41
1
10
-0.394976888875306
20
-11.4460361162834
30
0
41
1
10
-0.394976888875306
20
-11.2445799004538
30
0
41
1
10
-0.394976888875306
20
-11.0414388905992
30
0
41
1
10
-0.394976888875306
20
-10.8366153667066
30
0
41
1
10
-0.394976888875306
20
-10.6301131683678
30
0
41
1
10
-0.394976888875306
20
-10.4219344727077
30
0
41
1
10
-0.394976888875306
20
-10.142045462177
30
0
41
1
10
-0.394976888875306
20
-9.78821091217483
30
0
41
1
10
-0.394976888875306
20
-9.35683912175983
30
0
41
1
10
-0.394976888875306
20
-8.99192948127941
30
0
41
1
10
-0.394976888875306
20
-8.69651811258549
30
0
41
1
10
-0.394976888875306
20
-8.47338951886385
30
0
41
1
10
-0.394976888875306
20
-8.24861635560848
30
0
41
1
10
-0.394976888875306
20
-8.02220293401996
30
0
41
1
10
-0.394976888875306
20
-7.79415340272945
30
0
41
1
10
-0.394976888875306
20
-7.56447269448574
30
0
41
1
10
-0.394976888875306
20
-7.33316546385933
30
0
41
1
10
-0.394976888875306
20
-7.10023740586411
30
0
41
1
10
-0.394976888875306
20
-6.8656950488801
30
0
41
1
10
-0.394976888875306
20
-6.62954555948869
30
0
41
1
10
-0.394976888875306
20
-6.44960775400915
30
0
41
1
10
-0.394976888875306
20
-6.34849163113913
30
0
41
1
10
-0.394976888875306
20
-6.32694279392979
30
0
0
SPLINE
5
DD
100
AcDbEntity
8
SK1
62
256
6
ByLayer
370
18
48
1
60
0
100
AcDbSpline
70
4
71
3
72
26
73
22
40
0
40
0
40
0
40
0
40
0.125
40
0.125
40
0.25
40
0.25
40
0.312499999999999
40
0.312499999999999
40
0.374999999999999
40
0.374999999999999
40
0.499999999999999
40
0.499999999999999
40
0.624999999999999
40
0.624999999999999
40
0.687499999999999
40
0.687499999999999
40
0.749999999999999
40
0.749999999999999
40
0.875
40
0.875
40
1
40
1
40
1
40
1
41
1
10
-1.30710678118655
20
4.81101329740287
30
-1E-16
41
1
10
-1.37461329628553
20
4.42906267002712
30
-1E-16
41
1
10
-1.43842288357251
20
4.04270825974379
30
-1E-16
41
1
10
-1.55482767545837
20
3.25964078646072
30
-1E-16
41
1
10
-1.60743482920452
20
2.86293463703905
30
-1E-16
41
1
10
-1.67407835953028
20
2.25842147165613
30
-1E-16
41
1
10
-1.69423470862273
20
2.05533443764031
30
-1E-16
41
1
10
-1.72965556309049
20
1.64563836285319
30
-1E-16
41
1
10
-1.74484710329557
20
1.43963199934166
30
-1E-16
41
1
10
-1.78162975563035
20
0.82275752324307
30
-1E-16
41
1
10
-1.79445291889314
20
0.41120781605369
30
-1E-16
41
1
10
-1.79442593338331
20
-0.412525631247973
30
-1E-16
41
1
10
-1.78157312882851
20
-0.824709416072182
30
-1E-16
41
1
10
-1.74458984279462
20
-1.44343920897936
30
-1E-16
41
1
10
-1.72930597743911
20
-1.65005948504415
30
-1E-16
41
1
10
-1.69390777409217
20
-2.05873054114889
30
-1E-16
41
1
10
-1.67377216548036
20
-2.26136839295083
30
-1E-16
41
1
10
-1.60720273884684
20
-2.86469699044164
30
-1E-16
41
1
10
-1.55465955887382
20
-3.26082920006922
30
-1E-16
41
1
10
-1.4383598816452
20
-4.04307426593766
30
-1E-16
41
1
10
-1.37459233181624
20
-4.42918087958253
30
-1E-16
41
1
10
-1.30710678118663
20
-4.81101321788435
30
-1E-16
0
SPLINE
5
DE
100
AcDbEntity
8
SK1
62
256
6
ByLayer
370
18
48
1
60
0
100
AcDbSpline
70
4
71
3
72
24
73
20
40
0
40
0
40
0
40
0
40
0.0312500000000009
40
0.0312500000000009
40
0.0625000000000018
40
0.0625000000000018
40
0.0937500000000027
40
0.0937500000000027
40
0.125000000000004
40
0.125000000000004
40
0.187500000000006
40
0.187500000000006
40
0.250000000000008
40
0.250000000000008
40
0.375000000000008
40
0.375000000000008
40
0.500000000000007
40
0.500000000000007
40
1
40
1
40
1
40
1
41
1
10
-0.394976888875192
20
6.32694309066341
30
0
41
1
10
-0.388478791140813
20
6.32122083099392
30
0
41
1
10
-0.381313154815899
20
6.31618565872435
30
0
41
1
10
-0.365409710569509
20
6.30942196278352
30
0
41
1
10
-0.356491145067963
20
6.30782589043272
30
0
41
1
10
-0.338830866575932
20
6.31048209062308
30
0
41
1
10
-0.330289930606085
20
6.31473882346771
30
0
41
1
10
-0.315858342046965
20
6.3259303329649
30
0
41
1
10
-0.309649778594547
20
6.33285276950232
30
0
41
1
10
-0.293313689375225
20
6.35478748070634
30
0
41
1
10
-0.285093867608936
20
6.37118996774834
30
0
41
1
10
-0.271027300227075
20
6.40434328922922
30
0
41
1
10
-0.265260102161733
20
6.42121101453048
30
0
41
1
10
-0.24995500609711
20
6.47225869816711
30
0
41
1
10
-0.242396853956393
20
6.50696236445765
30
0
41
1
10
-0.229806665912747
20
6.57651474417415
30
0
41
1
10
-0.22488157514158
20
6.61123172401142
30
0
41
1
10
-0.204383593087527
20
6.7845497387753
30
0
41
1
10
-0.200000000000387
20
6.922362199595
30
0
41
1
10
-0.199999999999989
20
7.05951756777353
30
0
0
SPLINE
5
DF
100
AcDbEntity
8
SK1
62
256
6
ByLayer
370
18
48
1
60
0
100
AcDbSpline
70
4
71
3
72
26
73
22
40
0
40
0
40
0
40
0
40
0.250000000000002
40
0.250000000000002
40
0.500000000000005
40
0.500000000000005
40
0.625000000000004
40
0.625000000000004
40
0.750000000000004
40
0.750000000000004
40
0.812500000000003
40
0.812500000000003
40
0.875000000000002
40
0.875000000000002
40
0.906250000000001
40
0.906250000000001
40
0.937500000000001
40
0.937500000000001
40
0.96875
40
0.96875
40
1
40
1
40
1
40
1
41
1
10
-0.199999999999989
20
-7.05951749341972
30
0
41
1
10
-0.199999999999989
20
-6.99088366826933
30
0
41
1
10
-0.201319609066871
20
-6.92203745652935
30
0
41
1
10
-0.207680242986783
20
-6.78384770613701
30
0
41
1
10
-0.212644818423371
20
-6.71441370073686
30
0
41
1
10
-0.225032362287834
20
-6.61010153250655
30
0
41
1
10
-0.229988536109005
20
-6.57535167439386
30
0
41
1
10
-0.242605757740478
20
-6.50597096289727
30
0
41
1
10
-0.250188173910828
20
-6.47131022304998
30
0
41
1
10
-0.26553436786179
20
-6.42038445843173
30
0
41
1
10
-0.271315983615835
20
-6.40356588205802
30
0
41
1
10
-0.285411407521479
20
-6.37054221190871
30
0
41
1
10
-0.293612475506364
20
-6.35425158209904
30
0
41
1
10
-0.310070058833048
20
-6.33235891704214
30
0
41
1
10
-0.316188975330107
20
-6.32559855176618
30
0
41
1
10
-0.33072812925306
20
-6.31447788013509
30
0
41
1
10
-0.339136190980383
20
-6.31039609843526
30
0
41
1
10
-0.356576769858577
20
-6.30785340244555
30
0
41
1
10
-0.365590532907532
20
-6.30947164062374
30
0
41
1
10
-0.381451989855151
20
-6.31627189389675
30
0
41
1
10
-0.388510166361129
20
-6.32124816508073
30
0
41
1
10
-0.394976888875306
20
-6.32694279392757
30
0
0
LINE
5
72
100
AcDbEntity
8
81
62
256
6
ByLayer
370
18
48
1
60
0
100
AcDbLine
10
100
20
0
30
0
11
102.367097
21
0
31
0
39
0
210
0
220
0
230
1
0
LINE
5
73
100
AcDbEntity
8
1
62
256
6
ByLayer
370
18
48
1
60
0
100
AcDbLine
10
0.3
20
-31.4925
30
0
11
22.317059
21
-31.4925
31
0
39
0
210
0
220
0
230
1
0
LINE
5
74
100
AcDbEntity
8
80
62
256
6
ByLayer
370
18
48
1
60
0
100
AcDbLine
10
0
20
0
30
0
11
-6.08897
21
0
31
0
39
0
210
0
220
0
230
1
0
LINE
5
75
100
AcDbEntity
8
4
62
256
6
ByLayer
370
18
48
0.05
60
0
100
AcDbLine
10
0
20
0
30
0
11
100
21
0
31
0
39
0
210
0
220
0
230
1
0
LINE
5
77
100
AcDbEntity
8
1
62
256
6
ByLayer
370
18
48
1
60
0
100
AcDbLine
10
22.317059
20
31.4925
30
0
11
0.3
21
31.4925
31
0
39
0
210
0
220
0
230
1
0
LINE
5
78
100
AcDbEntity
8
1
62
256
6
ByLayer
370
18
48
1
60
0
100
AcDbLine
10
0.3
20
31.4925
30
0
11
0
21
31.1925
31
0
39
0
210
0
220
0
230
1
0
LINE
5
79
100
AcDbEntity
8
1
62
256
6
ByLayer
370
18
48
1
60
0
100
AcDbLine
10
0
20
-31.1925
30
0
11
0.3
21
-31.4925
31
0
39
0
210
0
220
0
230
1
0
LINE
5
7A
100
AcDbEntity
8
1
62
256
6
ByLayer
370
18
48
1
60
0
100
AcDbLine
10
23.024963
20
-31.065155
30
0
11
25.9
21
-25.603676
31
0
39
0
210
0
220
0
230
1
0
LINE
5
7B
100
AcDbEntity
8
1
62
256
6
ByLayer
370
18
48
1
60
0
100
AcDbLine
10
25.9
20
25.603676
30
0
11
23.024963
21
31.065155
31
0
39
0
210
0
220
0
230
1
0
LINE
5
7C
100
AcDbEntity
8
1
62
256
6
ByLayer
370
18
48
1
60
0
100
AcDbLine
10
99.7
20
-25
30
0
11
100
21
-24.7
31
0
39
0
210
0
220
0
230
1
0
LINE
5
7D
100
AcDbEntity
8
1
62
256
6
ByLayer
370
18
48
1
60
0
100
AcDbLine
10
100
20
24.7
30
0
11
99.7
21
25
31
0
39
0
210
0
220
0
230
1
0
LINE
5
7E
100
AcDbEntity
8
1
62
256
6
ByLayer
370
18
48
1
60
0
100
AcDbLine
10
94.74279
20
-25
30
0
11
99.7
21
-25
31
0
39
0
210
0
220
0
230
1
0
LINE
5
7F
100
AcDbEntity
8
1
62
256
6
ByLayer
370
18
48
1
60
0
100
AcDbLine
10
48.5075
20
-25
30
0
11
53.207663
21
-25
31
0
39
0
210
0
220
0
230
1
0
LINE
5
80
100
AcDbEntity
8
1
62
256
6
ByLayer
370
18
48
1
60
0
100
AcDbLine
10
26.9
20
-25
30
0
11
35.503947
21
-25
31
0
39
0
210
0
220
0
230
1
0
LINE
5
81
100
AcDbEntity
8
1
62
256
6
ByLayer
370
18
48
1
60
0
100
AcDbLine
10
30.97839
20
25
30
0
11
26.9
21
25
31
0
39
0
210
0
220
0
230
1
0
LINE
5
82
100
AcDbEntity
8
1
62
256
6
ByLayer
370
18
48
1
60
0
100
AcDbLine
10
99.7
20
25
30
0
11
53.02161
21
25
31
0
39
0
210
0
220
0
230
1
0
LINE
5
83
100
AcDbEntity
8
SK4
62
256
6
ByLayer
370
18
48
0.05
60
0
100
AcDbLine
10
-43
20
0
30
0
11
105
21
0
31
0
39
0
210
0
220
0
230
1
0
LINE
5
85
100
AcDbEntity
8
1
62
256
6
ByLayer
370
13
48
1
60
0
100
AcDbLine
10
26.9
20
0
30
0
11
26.9
21
25
31
0
39
0
210
0
220
0
230
1
0
LINE
5
86
100
AcDbEntity
8
1
62
256
6
ByLayer
370
13
48
1
60
0
100
AcDbLine
10
26.9
20
-25
30
0
11
26.9
21
0
31
0
39
0
210
0
220
0
230
1
0
LINE
5
87
100
AcDbEntity
8
1
62
256
6
ByLayer
370
18
48
1
60
0
100
AcDbLine
10
46
20
22.791432
30
0
11
46
21
20
31
0
39
0
210
0
220
0
230
1
0
LINE
5
88
100
AcDbEntity
8
1
62
256
6
ByLayer
370
13
48
1
60
0
100
AcDbLine
10
54.087162
20
-20.667113
30
0
11
54.087162
21
-24.464431
31
0
39
0
210
0
220
0
230
1
0
LINE
5
89
100
AcDbEntity
8
1
62
256
6
ByLayer
370
18
48
1
60
0
100
AcDbLine
10
0.3
20
0
30
0
11
0.3
21
31.4925
31
0
39
0
210
0
220
0
230
1
0
LINE
5
8A
100
AcDbEntity
8
1
62
256
6
ByLayer
370
18
48
1
60
0
100
AcDbLine
10
0.3
20
-31.4925
30
0
11
0.3
21
0
31
0
39
0
210
0
220
0
230
1
0
LINE
5
8B
100
AcDbEntity
8
1
62
256
6
ByLayer
370
13
48
1
60
0
100
AcDbLine
10
25.9
20
0
30
0
11
25.9
21
25.603676
31
0
39
0
210
0
220
0
230
1
0
LINE
5
8C
100
AcDbEntity
8
1
62
256
6
ByLayer
370
13
48
1
60
0
100
AcDbLine
10
25.9
20
-25.603676
30
0
11
25.9
21
0
31
0
39
0
210
0
220
0
230
1
0
LINE
5
8D
100
AcDbEntity
8
1
62
256
6
ByLayer
370
13
48
1
60
0
100
AcDbLine
10
10.105662
20
29.902163
30
0
11
10.105662
21
9.881204
31
0
39
0
210
0
220
0
230
1
0
LINE
5
8E
100
AcDbEntity
8
1
62
256
6
ByLayer
370
18
48
1
60
0
100
AcDbLine
10
54.520175
20
-24.329224
30
0
11
93.430277
21
-24.329224
31
0
39
0
210
0
220
0
230
1
0
LINE
5
8F
100
AcDbEntity
8
1
62
256
6
ByLayer
370
18
48
1
60
0
100
AcDbLine
10
13.461325
20
30.069192
30
0
11
10.538675
21
30.069192
31
0
39
0
210
0
220
0
230
1
0
LINE
5
90
100
AcDbEntity
8
1
62
256
6
ByLayer
370
13
48
1
60
0
100
AcDbLine
10
13.894338
20
-9.881204
30
0
11
13.894338
21
-29.902163
31
0
39
0
210
0
220
0
230
1
0
LINE
5
91
100
AcDbEntity
8
1
62
256
6
ByLayer
370
18
48
1
60
0
100
AcDbLine
10
38
20
20
30
0
11
38
21
22.791432
31
0
39
0
210
0
220
0
230
1
0
LINE
5
92
100
AcDbEntity
8
1
62
256
6
ByLayer
370
18
48
1
60
0
100
AcDbLine
10
99.7
20
0
30
0
11
99.7
21
25
31
0
39
0
210
0
220
0
230
1
0
LINE
5
93
100
AcDbEntity
8
1
62
256
6
ByLayer
370
18
48
1
60
0
100
AcDbLine
10
99.7
20
-25
30
0
11
99.7
21
0
31
0
39
0
210
0
220
0
230
1
0
LINE
5
94
100
AcDbEntity
8
1
62
256
6
ByLayer
370
18
48
1
60
0
100
AcDbLine
10
13.461325
20
-9.360622
30
0
11
10.538675
21
-9.360622
31
0
39
0
210
0
220
0
230
1
0
LINE
5
95
100
AcDbEntity
8
1
62
256
6
ByLayer
370
13
48
1
60
0
100
AcDbLine
10
22.317059
20
0
30
0
11
22.317059
21
31.4925
31
0
39
0
210
0
220
0
230
1
0
LINE
5
96
100
AcDbEntity
8
1
62
256
6
ByLayer
370
13
48
1
60
0
100
AcDbLine
10
22.317059
20
-31.4925
30
0
11
22.317059
21
0
31
0
39
0
210
0
220
0
230
1
0
LINE
5
97
100
AcDbEntity
8
1
62
256
6
ByLayer
370
18
48
1
60
0
100
AcDbLine
10
46
20
20
30
0
11
38
21
20
31
0
39
0
210
0
220
0
230
1
0
LINE
5
98
100
AcDbEntity
8
1
62
256
6
ByLayer
370
13
48
1
60
0
100
AcDbLine
10
13.461325
20
-9.360622
30
0
11
13.461325
21
-30.069192
31
0
39
0
210
0
220
0
230
1
0
LINE
5
99
100
AcDbEntity
8
1
62
256
6
ByLayer
370
18
48
1
60
0
100
AcDbLine
10
10.538675
20
-30.069192
30
0
11
13.461325
21
-30.069192
31
0
39
0
210
0
220
0
230
1
0
LINE
5
9A
100
AcDbEntity
8
1
62
256
6
ByLayer
370
13
48
1
60
0
100
AcDbLine
10
23.024963
20
31.065155
30
0
11
23.024963
21
-31.065155
31
0
39
0
210
0
220
0
230
1
0
LINE
5
9B
100
AcDbEntity
8
1
62
256
6
ByLayer
370
18
48
1
60
0
100
AcDbLine
10
93.430277
20
-20.311808
30
0
11
54.520175
21
-20.311808
31
0
39
0
210
0
220
0
230
1
0
LINE
5
9C
100
AcDbEntity
8
1
62
256
6
ByLayer
370
18
48
1
60
0
100
AcDbLine
10
10.538675
20
9.360622
30
0
11
13.461325
21
9.360622
31
0
39
0
210
0
220
0
230
1
0
LINE
5
9D
100
AcDbEntity
8
1
62
256
6
ByLayer
370
13
48
1
60
0
100
AcDbLine
10
10.538675
20
30.069192
30
0
11
10.538675
21
9.360622
31
0
39
0
210
0
220
0
230
1
0
LINE
5
9E
100
AcDbEntity
8
1
62
256
6
ByLayer
370
13
48
1
60
0
100
AcDbLine
10
93.86329
20
-20.667113
30
0
11
93.86329
21
-24.464431
31
0
39
0
210
0
220
0
230
1
0
LINE
5
9F
100
AcDbEntity
8
1
62
256
6
ByLayer
370
13
48
1
60
0
100
AcDbLine
10
10.105662
20
-9.881204
30
0
11
10.105662
21
-29.902163
31
0
39
0
210
0
220
0
230
1
0
LINE
5
A0
100
AcDbEntity
8
1
62
256
6
ByLayer
370
18
48
1
60
0
100
AcDbLine
10
0
20
0
30
0
11
0
21
31.1925
31
0
39
0
210
0
220
0
230
1
0
LINE
5
A1
100
AcDbEntity
8
1
62
256
6
ByLayer
370
18
48
1
60
0
100
AcDbLine
10
0
20
-31.1925
30
0
11
0
21
0
31
0
39
0
210
0
220
0
230
1
0
LINE
5
A2
100
AcDbEntity
8
1
62
256
6
ByLayer
370
18
48
1
60
0
100
AcDbLine
10
100
20
0
30
0
11
100
21
24.7
31
0
39
0
210
0
220
0
230
1
0
LINE
5
A3
100
AcDbEntity
8
1
62
256
6
ByLayer
370
18
48
1
60
0
100
AcDbLine
10
100
20
-24.7
30
0
11
100
21
0
31
0
39
0
210
0
220
0
230
1
0
LINE
5
A4
100
AcDbEntity
8
1
62
256
6
ByLayer
370
13
48
1
60
0
100
AcDbLine
10
13.461325
20
30.069192
30
0
11
13.461325
21
9.360622
31
0
39
0
210
0
220
0
230
1
0
LINE
5
A5
100
AcDbEntity
8
1
62
256
6
ByLayer
370
13
48
1
60
0
100
AcDbLine
10
93.430277
20
-20.311808
30
0
11
93.430277
21
-24.329224
31
0
39
0
210
0
220
0
230
1
0
LINE
5
A6
100
AcDbEntity
8
1
62
256
6
ByLayer
370
13
48
1
60
0
100
AcDbLine
10
10.538675
20
-9.360622
30
0
11
10.538675
21
-30.069192
31
0
39
0
210
0
220
0
230
1
0
LINE
5
A7
100
AcDbEntity
8
1
62
256
6
ByLayer
370
13
48
1
60
0
100
AcDbLine
10
13.894338
20
29.902163
30
0
11
13.894338
21
9.881204
31
0
39
0
210
0
220
0
230
1
0
LINE
5
A8
100
AcDbEntity
8
1
62
256
6
ByLayer
370
13
48
1
60
0
100
AcDbLine
10
54.520175
20
-20.311808
30
0
11
54.520175
21
-24.329224
31
0
39
0
210
0
220
0
230
1
0
LINE
5
A9
100
AcDbEntity
8
SK1
62
256
6
ByLayer
370
18
48
1
60
0
100
AcDbLine
10
-0.394977
20
21.865379
30
0
11
-0.394977
21
21.865031
31
0
39
0
210
0
220
0
230
1
0
LINE
5
AB
100
AcDbEntity
8
SK1
62
256
6
ByLayer
370
18
48
1
60
0
100
AcDbLine
10
-0.394977
20
-21.865031
30
0
11
-0.394977
21
-21.865379
31
0
39
0
210
0
220
0
230
1
0
LINE
5
AC
100
AcDbEntity
8
SK1
62
256
6
ByLayer
370
18
48
1
60
0
100
AcDbLine
10
-0.2
20
7.059518
30
0
11
-0.2
21
22.533485
31
0
39
0
210
0
220
0
230
1
0
LINE
5
AD
100
AcDbEntity
8
SK1
62
256
6
ByLayer
370
13
48
1
60
0
100
AcDbLine
10
-1.307107
20
-4.811013
30
0
11
-1.307107
21
4.811013
31
0
39
0
210
0
220
0
230
1
0
LINE
5
AE
100
AcDbEntity
8
SK1
62
256
6
ByLayer
370
18
48
1
60
0
100
AcDbLine
10
-0.2
20
-22.533485
30
0
11
-0.2
21
-7.059517
31
0
39
0
210
0
220
0
230
1
0
MTEXT
5
E0
100
AcDbEntity
8
SK6
62
256
6
ByLayer
370
18
48
1
60
0
100
AcDbMText
10
0.875
20
-47.375
30
0
210
0
220
0
230
1
1
\W0.6966;C6-QC-C5-100
40
3.5
41
0
44
1.084337
50
0
71
7
72
5
7
iso_b_vert
0
DIMENSION
5
EE
100
AcDbEntity
8
SK2
62
256
6
ByLayer
370
13
48
1
60
0
100
AcDbDimension
2
DimnDraft3D1
10
22
20
38.0925
30
0
11
8.955263
21
38.0925
31
0
70
32
71
5
72
1
41
1
210
0
220
0
230
1
3
Standard
100
AcDbAlignedDimension
13
0
23
33.0875
33
0
14
22
24
33.0875
34
0
50
0
100
AcDbRotatedDimension
1001
ACAD
1000
DSTYLE
1002
{
1070
   279
1070
     0
1070
   172
1070
     1
1070
   173
1070
     1
1070
   340
1005
E1
1070
   271
1070
     1
1070
   272
1070
     2
1070
    77
1070
     1
1070
    73
1070
     0
1070
   171
1070
     3
1070
   274
1070
     4
1070
   177
1070
     2
1070
   176
1070
     2
1070
   178
1070
     2
1070
    78
1070
     8
1070
    48
1040
-0.005
1070
    41
1041
3.5
1070
   147
1041
1.75
1070
    42
1041
1.5875
1070
    44
1041
2.0
1070
   140
1041
3.5
1070
   343
1005
0
1070
   344
1005
0
1002
}
0
DIMENSION
5
F8
100
AcDbEntity
8
SK2
62
256
6
ByLayer
370
13
48
1
60
0
100
AcDbDimension
2
DimnDraft3D2
10
26.9
20
48.0925
30
0
11
59.963816
21
48.0925
31
0
70
32
71
5
72
1
41
1
210
0
220
0
230
1
3
Standard
100
AcDbAlignedDimension
13
100
23
26.5875
33
0
14
26.9
24
26.5875
34
0
50
0
100
AcDbRotatedDimension
1001
ACAD
1000
DSTYLE
1002
{
1070
   279
1070
     0
1070
   172
1070
     1
1070
   173
1070
     1
1070
   340
1005
E1
1070
   271
1070
     1
1070
   272
1070
     2
1070
    77
1070
     1
1070
    73
1070
     0
1070
   171
1070
     3
1070
   274
1070
     4
1070
   177
1070
     2
1070
   176
1070
     2
1070
   178
1070
     2
1070
    78
1070
     8
1070
    48
1040
-0.005
1070
    41
1041
3.5
1070
   147
1041
1.75
1070
    42
1041
1.5875
1070
    44
1041
2.0
1070
   140
1041
3.5
1070
   343
1005
0
1070
   344
1005
0
1002
}
0
DIMENSION
5
103
100
AcDbEntity
8
2
62
256
6
ByLayer
370
13
48
1
60
0
100
AcDbDimension
2
DimnDraft3D3
10
0
20
58.0925
30
0
11
47.107895
21
58.0925
31
0
70
32
71
5
72
1
41
1
210
0
220
0
230
1
3
Standard
100
AcDbAlignedDimension
13
100
23
26.5875
33
0
14
0
24
33.0875
34
0
50
0
100
AcDbRotatedDimension
1001
ACAD
1000
DSTYLE
1002
{
1070
   279
1070
     0
1070
   172
1070
     1
1070
   173
1070
     1
1070
   340
1005
E1
1070
   271
1070
     1
1070
   272
1070
     2
1070
    77
1070
     1
1070
    73
1070
     0
1070
   171
1070
     3
1070
   274
1070
     4
1070
   177
1070
     2
1070
   176
1070
     2
1070
   178
1070
     2
1070
    78
1070
     8
1070
    48
1040
-0.005
1070
    41
1041
3.5
1070
   147
1041
1.75
1070
    42
1041
1.5875
1070
    44
1041
2.0
1070
   140
1041
3.5
1070
   343
1005
0
1070
   344
1005
0
1002
}
0
DIMENSION
5
10D
100
AcDbEntity
8
SK2
62
256
6
ByLayer
370
13
48
1
60
0
100
AcDbDimension
2
DimnDraft3D4
10
0
20
58.0925
30
0
11
-21.090789
21
58.0925
31
0
70
32
71
5
72
1
41
1
210
0
220
0
230
1
3
Standard
100
AcDbAlignedDimension
13
-38
23
23.5875
33
0
14
0
24
33.0875
34
0
50
0
100
AcDbRotatedDimension
1001
ACAD
1000
DSTYLE
1002
{
1070
   279
1070
     0
1070
   172
1070
     1
1070
   173
1070
     1
1070
   340
1005
E1
1070
   271
1070
     1
1070
   272
1070
     2
1070
    77
1070
     1
1070
    73
1070
     0
1070
   171
1070
     3
1070
   274
1070
     4
1070
   177
1070
     2
1070
   176
1070
     2
1070
   178
1070
     2
1070
    78
1070
     8
1070
    48
1040
-0.005
1070
    41
1041
3.5
1070
   147
1041
1.75
1070
    42
1041
1.5875
1070
    44
1041
2.0
1070
   140
1041
3.5
1070
   343
1005
0
1070
   344
1005
0
1002
}
0
DIMENSION
5
118
100
AcDbEntity
8
SK2
62
256
6
ByLayer
370
13
48
1
60
0
100
AcDbDimension
2
DimnDraft3D5
10
-61.6
20
-31.5
30
0
11
-62.225
21
1.455263
31
0
70
33
71
5
72
1
41
1
210
0
220
0
230
1
3
Standard
100
AcDbAlignedDimension
13
-1.5875
23
31.5
33
0
14
-1.5875
24
-31.5
34
0
1001
ACAD
1000
DSTYLE
1002
{
1070
   279
1070
     0
1070
    74
1070
     0
1070
   173
1070
     1
1070
   340
1005
E1
1070
   271
1070
     1
1070
   272
1070
     2
1070
    77
1070
     1
1070
    73
1070
     0
1070
   171
1070
     3
1070
   274
1070
     4
1070
   177
1070
     2
1070
   176
1070
     2
1070
   178
1070
     2
1070
    78
1070
     8
1070
    48
1040
-0.005
1070
    41
1041
3.5
1070
   147
1041
1.75
1070
    42
1041
1.5875
1070
    44
1041
2.0
1070
   140
1041
3.5
1070
   343
1005
0
1070
   344
1005
0
1002
}
0
DIMENSION
5
123
100
AcDbEntity
8
SK2
62
256
6
ByLayer
370
13
48
1
60
0
100
AcDbDimension
2
DimnDraft3D6
10
127.1
20
-25
30
0
11
122.475
21
1.455263
31
0
70
33
71
5
72
1
41
1
210
0
220
0
230
1
3
Standard
100
AcDbAlignedDimension
13
101.5875
23
25
33
0
14
101.5875
24
-25
34
0
1001
ACAD
1000
DSTYLE
1002
{
1070
   279
1070
     0
1070
    74
1070
     0
1070
   173
1070
     1
1070
   340
1005
E1
1070
   271
1070
     1
1070
   272
1070
     2
1070
    77
1070
     1
1070
    73
1070
     0
1070
   171
1070
     3
1070
   274
1070
     4
1070
   177
1070
     2
1070
   176
1070
     2
1070
   178
1070
     2
1070
    78
1070
     8
1070
    48
1040
-0.005
1070
    41
1041
3.5
1070
   147
1041
1.75
1070
    42
1041
1.5875
1070
    44
1041
2.0
1070
   140
1041
3.5
1070
   343
1005
0
1070
   344
1005
0
1002
}
0
ENDSEC
0
SECTION
2
OBJECTS
0
DICTIONARY
5
18e
330
0
100
AcDbDictionary
280
0
281
1
3
ACAD_GROUP
350
18f
3
ACAD_MLINESTYLE
350
190
0
DICTIONARY
5
18f
330
0
100
AcDbDictionary
280
0
281
1
0
DICTIONARY
5
190
330
0
100
AcDbDictionary
280
0
281
1
3
Standard
350
18
0
MLINESTYLE
5
18
330
190
100
AcDbMlineStyle
2
Standard
70
0
3

62
256
51
90
52
90
71
2
49
-0.5
62
256
6
ByLayer
49
0.5
62
256
6
ByLayer
0
RASTERVARIABLES
5
17c
330

100
AcDbRasterVariables
90
0
70
1
71
1
72
1
0
ENDSEC
0
EOF
