0
SECTION
2
HEADER
9
$ACADVER
1
AC1015
9
$DWGCODEPAGE
3
ANSI_1252
9
$HANDSEED
5
1bc
9
$ANGBASE
50
0
9
$ANGDIR
70
0
9
$ATTMODE
70
1
9
$AUNITS
70
0
9
$AUPREC
70
0
9
$CECOLOR
62
256
9
$CELTSCALE
40
1
9
$CELTYPE
6
ByLayer
9
$CELWEIGHT
370
18
9
$CLAYER
8
0
9
$CMLJUST
70
0
9
$CMLSCALE
40
1
9
$CMLSTYLE
2
Standard
9
$DIMSTYLE
2
Standard
9
$TEXTSIZE
40
0.2
9
$TEXTSTYLE
7
Standard
9
$LUNITS
70
2
9
$LUPREC
70
4
9
$EXTNAMES
290
1
9
$INSUNITS
70
4
9
$LTSCALE
40
1
9
$LWDISPLAY
290
1
9
$PDMODE
70
0
9
$PDSIZE
40
0
9
$PLINEGEN
70
0
0
ENDSEC
0
SECTION
2
CLASSES
0
CLASS
1
RASTERVARIABLES
2
AcDbRasterVariables
3
ISM
90
0
280
0
281
0
0
ENDSEC
0
SECTION
2
TABLES
0
TABLE
2
VPORT
5
1b2
100
AcDbSymbolTable
0
VPORT
5
1
100
AcDbSymbolTableRecord
100
AcDbViewportTableRecord
2
*Active
70
0
10
0
20
0
11
1
21
1
12
-1
22
1
13
0
23
0
14
0.5
24
0.5
15
10
25
10
16
0
26
0
36
1
17
0
27
0
37
0
0
ENDTAB
0
TABLE
2
LTYPE
5
1b3
100
AcDbSymbolTable
0
LTYPE
5
14
100
AcDbSymbolTableRecord
100
AcDbLinetypeTableRecord
70
0
2
ByBlock
3

72
65
73
0
40
0
0
LTYPE
5
15
100
AcDbSymbolTableRecord
100
AcDbLinetypeTableRecord
70
0
2
ByLayer
3

72
65
73
0
40
0
0
LTYPE
5
16
100
AcDbSymbolTableRecord
100
AcDbLinetypeTableRecord
70
0
2
CONTINUOUS
3
Solid line
72
65
73
0
40
0
0
LTYPE
5
6A
100
AcDbSymbolTableRecord
100
AcDbLinetypeTableRecord
70
0
2
CENTER
3
____ _ ____ _ ____ _ ____
72
65
73
4
40
47.5
49
22
74
0
49
-8.5
74
0
49
8.5
74
0
49
-8.5
74
0
0
LTYPE
5
6B
100
AcDbSymbolTableRecord
100
AcDbLinetypeTableRecord
70
0
2
DASHED
3
__ __ __ __ __ __ __ __ __
72
65
73
2
40
25.72
49
12.86
74
0
49
-12.86
74
0
0
ENDTAB
0
TABLE
2
LAYER
5
1b4
100
AcDbSymbolTable
0
LAYER
5
10
100
AcDbSymbolTableRecord
100
AcDbLayerTableRecord
2
0
70
0
62
7
6
CONTINUOUS
290
1
370
-3
390
0
0
LAYER
5
6D
100
AcDbSymbolTableRecord
100
AcDbLayerTableRecord
2
80
70
0
62
-6
6
CONTINUOUS
290
1
370
-3
390
0
0
LAYER
5
6F
100
AcDbSymbolTableRecord
100
AcDbLayerTableRecord
2
81
70
0
62
-3
6
CONTINUOUS
290
1
370
-3
390
0
0
LAYER
5
72
100
AcDbSymbolTableRecord
100
AcDbLayerTableRecord
2
4
70
0
62
-2
6
CENTER
290
1
370
-3
390
0
0
LAYER
5
94
100
AcDbSymbolTableRecord
100
AcDbLayerTableRecord
2
1
70
0
62
4
6
CONTINUOUS
290
1
370
-3
390
0
0
LAYER
5
110
100
AcDbSymbolTableRecord
100
AcDbLayerTableRecord
2
2
70
0
62
7
6
CONTINUOUS
290
1
370
-3
390
0
0
LAYER
5
19e
100
AcDbSymbolTableRecord
100
AcDbLayerTableRecord
2
SK4
70
0
62
2
6
CENTER
290
1
370
-3
390
0
0
LAYER
5
19f
100
AcDbSymbolTableRecord
100
AcDbLayerTableRecord
2
SK1
70
0
62
4
6
CONTINUOUS
290
1
370
-3
390
0
0
LAYER
5
1a0
100
AcDbSymbolTableRecord
100
AcDbLayerTableRecord
2
SK6
70
0
62
5
6
CONTINUOUS
290
1
370
-3
390
0
0
LAYER
5
1a1
100
AcDbSymbolTableRecord
100
AcDbLayerTableRecord
2
SK2
70
0
62
7
6
CONTINUOUS
290
1
370
-3
390
0
0
ENDTAB
0
TABLE
2
STYLE
5
1b5
100
AcDbSymbolTable
0
STYLE
5
11
100
AcDbSymbolTableRecord
100
AcDbTextStyleTableRecord
2
Standard
3
txt
70
0
71
0
40
0
41
1
42
0
50
0
0
STYLE
5
10B
100
AcDbSymbolTableRecord
100
AcDbTextStyleTableRecord
2
iso_b_vert
3
simplex.shx
70
0
71
0
40
0
41
1
42
0
50
0
0
STYLE
5
10C
100
AcDbSymbolTableRecord
100
AcDbTextStyleTableRecord
2
DWGDirectTextStyle
3
simplex
70
0
71
0
40
0
41
1
42
0
50
0
0
ENDTAB
0
TABLE
2
DIMSTYLE
5
1b6
100
AcDbSymbolTable
100
AcDbDimStyleTable
0
DIMSTYLE
105
27
100
AcDbSymbolTableRecord
100
AcDbDimStyleTableRecord
2
Standard
70
0
3
<>
41
0.18
42
0.0625
44
0.18
140
0.18
147
0.09
73
0
74
0
77
1
271
2
275
0
278
52
280
0
340
11
0
ENDTAB
0
TABLE
2
VIEW
5
1b7
100
AcDbSymbolTable
0
ENDTAB
0
TABLE
2
UCS
5
1b8
100
AcDbSymbolTable
0
ENDTAB
0
TABLE
2
APPID
5
1b9
100
AcDbSymbolTable
0
APPID
5
12
100
AcDbSymbolTableRecord
100
AcDbRegAppTableRecord
2
ACAD
70
0
0
ENDTAB
0
TABLE
2
BLOCK_RECORD
5
1ba
100
AcDbSymbolTable
0
BLOCK_RECORD
5
1F
100
AcDbSymbolTableRecord
100
AcDbBlockTableRecord
2
*Model_Space
340
0
70
0
0
BLOCK_RECORD
5
1B
100
AcDbSymbolTableRecord
100
AcDbBlockTableRecord
2
*Paper_Space
340
0
70
0
0
BLOCK_RECORD
5
23
100
AcDbSymbolTableRecord
100
AcDbBlockTableRecord
2
*Paper_Space0
340
0
70
0
0
BLOCK_RECORD
5
10E
100
AcDbSymbolTableRecord
100
AcDbBlockTableRecord
2
DimnDraft3D1
340
0
70
0
0
BLOCK_RECORD
5
119
100
AcDbSymbolTableRecord
100
AcDbBlockTableRecord
2
DimnDraft3D2
340
0
70
0
0
BLOCK_RECORD
5
125
100
AcDbSymbolTableRecord
100
AcDbBlockTableRecord
2
DimnDraft3D3
340
0
70
0
0
BLOCK_RECORD
5
130
100
AcDbSymbolTableRecord
100
AcDbBlockTableRecord
2
DimnDraft3D4
340
0
70
0
0
BLOCK_RECORD
5
13B
100
AcDbSymbolTableRecord
100
AcDbBlockTableRecord
2
DimnDraft3D5
340
0
70
0
0
ENDTAB
0
ENDSEC
0
SECTION
2
BLOCKS
0
BLOCK
5
20
100
AcDbEntity
8
0
100
AcDbBlockBegin
2
*Model_Space
70
0
10
0
20
0
30
0
3
*Model_Space
0
ENDBLK
5
21
100
AcDbEntity
8
0
100
AcDbBlockEnd
0
BLOCK
5
1C
100
AcDbEntity
8
0
100
AcDbBlockBegin
2
*Paper_Space
70
0
10
0
20
0
30
0
3
*Paper_Space
0
ENDBLK
5
1D
100
AcDbEntity
8
0
100
AcDbBlockEnd
0
BLOCK
5
24
100
AcDbEntity
8
0
100
AcDbBlockBegin
2
*Paper_Space0
70
0
10
0
20
0
30
0
3
*Paper_Space0
0
ENDBLK
5
25
100
AcDbEntity
8
0
100
AcDbBlockEnd
0
BLOCK
5
116
100
AcDbEntity
8
0
100
AcDbBlockBegin
2
DimnDraft3D1
70
0
10
0
20
0
30
0
3
DimnDraft3D1
0
MTEXT
5
10F
100
AcDbEntity
8
2
62
256
6
ByLayer
370
13
48
1
60
0
100
AcDbMText
10
153.107533
20
59.460561
30
0
210
0
220
0
230
1
1
\W0.6217;310
40
3.175
41
0
44
1.084337
50
0
71
7
72
5
7
iso_b_vert
0
LINE
5
111
100
AcDbEntity
8
2
62
256
6
ByLayer
370
13
48
1
60
0
100
AcDbLine
10
0
20
1.5875
30
0
11
0
21
61.841811
31
0
39
0
210
0
220
0
230
1
0
LINE
5
112
100
AcDbEntity
8
2
62
256
6
ByLayer
370
13
48
1
60
0
100
AcDbLine
10
310
20
1.5875
30
0
11
310
21
61.841811
31
0
39
0
210
0
220
0
230
1
0
LINE
5
113
100
AcDbEntity
8
2
62
256
6
ByLayer
370
13
48
1
60
0
100
AcDbLine
10
0
20
58.666811
30
0
11
310
21
58.666811
31
0
39
0
210
0
220
0
230
1
0
SOLID
5
114
100
AcDbEntity
8
2
62
256
6
ByLayer
370
13
48
1
60
0
100
AcDbTrace
10
0
20
58.666811
30
0
11
3.174998
21
59.084807
31
0
12
3.175002
22
58.248814
32
0
13
0
23
58.666811
33
0
39
0
210
0
220
0
230
1
0
SOLID
5
115
100
AcDbEntity
8
2
62
256
6
ByLayer
370
13
48
1
60
0
100
AcDbTrace
10
310
20
58.666811
30
0
11
306.825002
21
58.248814
31
0
12
306.824998
22
59.084807
32
0
13
310
23
58.666811
33
0
39
0
210
0
220
0
230
1
0
ENDBLK
5
117
100
AcDbEntity
8
0
100
AcDbBlockEnd
0
BLOCK
5
122
100
AcDbEntity
8
0
100
AcDbBlockBegin
2
DimnDraft3D2
70
0
10
0
20
0
30
0
3
DimnDraft3D2
0
MTEXT
5
11A
100
AcDbEntity
8
SK2
62
256
6
ByLayer
370
13
48
1
60
0
100
AcDbMText
10
-49.72811
20
3.26273
30
0
210
0
220
0
230
1
1
\W0.6740;63
40
3.175
41
0
44
1.084337
50
90
71
7
72
5
7
iso_b_vert
0
MTEXT
5
11C
100
AcDbEntity
8
SK2
62
256
6
ByLayer
370
13
48
1
60
0
100
AcDbMText
10
-49.72811
20
-3.856215
30
0
210
0
220
0
230
1
1
%%c
40
3.175
41
0
44
1.084337
50
90
71
7
72
5
7
iso_b_vert
0
LINE
5
11D
100
AcDbEntity
8
SK2
62
256
6
ByLayer
370
13
48
1
60
0
100
AcDbLine
10
-1.2875
20
-31.5
30
0
11
-51.31561
21
-31.5
31
0
39
0
210
0
220
0
230
1
0
LINE
5
11E
100
AcDbEntity
8
SK2
62
256
6
ByLayer
370
13
48
1
60
0
100
AcDbLine
10
-1.2875
20
31.5
30
0
11
-51.31561
21
31.5
31
0
39
0
210
0
220
0
230
1
0
LINE
5
11F
100
AcDbEntity
8
SK2
62
256
6
ByLayer
370
13
48
1
60
0
100
AcDbLine
10
-48.14061
20
-31.5
30
0
11
-48.14061
21
31.5
31
0
39
0
210
0
220
0
230
1
0
SOLID
5
120
100
AcDbEntity
8
SK2
62
256
6
ByLayer
370
13
48
1
60
0
100
AcDbTrace
10
-48.14061
20
-31.5
30
0
11
-48.558607
21
-28.325002
31
0
12
-47.722613
22
-28.324998
32
0
13
-48.14061
23
-31.5
33
0
39
0
210
0
220
0
230
1
0
SOLID
5
121
100
AcDbEntity
8
SK2
62
256
6
ByLayer
370
13
48
1
60
0
100
AcDbTrace
10
-48.14061
20
31.5
30
0
11
-47.722613
21
28.325002
31
0
12
-48.558607
22
28.324998
32
0
13
-48.14061
23
31.5
33
0
39
0
210
0
220
0
230
1
0
ENDBLK
5
123
100
AcDbEntity
8
0
100
AcDbBlockEnd
0
BLOCK
5
12D
100
AcDbEntity
8
0
100
AcDbBlockBegin
2
DimnDraft3D3
70
0
10
0
20
0
30
0
3
DimnDraft3D3
0
MTEXT
5
126
100
AcDbEntity
8
SK2
62
256
6
ByLayer
370
13
48
1
60
0
100
AcDbMText
10
352.440659
20
3.26273
30
0
210
0
220
0
230
1
1
\W0.6740;22
40
3.175
41
0
44
1.084337
50
90
71
7
72
5
7
iso_b_vert
0
MTEXT
5
127
100
AcDbEntity
8
SK2
62
256
6
ByLayer
370
13
48
1
60
0
100
AcDbMText
10
352.440659
20
-3.856215
30
0
210
0
220
0
230
1
1
%%c
40
3.175
41
0
44
1.084337
50
90
71
7
72
5
7
iso_b_vert
0
LINE
5
128
100
AcDbEntity
8
SK2
62
256
6
ByLayer
370
13
48
1
60
0
100
AcDbLine
10
326.5875
20
-11
30
0
11
357.203159
21
-11
31
0
39
0
210
0
220
0
230
1
0
LINE
5
129
100
AcDbEntity
8
SK2
62
256
6
ByLayer
370
13
48
1
60
0
100
AcDbLine
10
326.5875
20
11
30
0
11
357.203159
21
11
31
0
39
0
210
0
220
0
230
1
0
LINE
5
12A
100
AcDbEntity
8
SK2
62
256
6
ByLayer
370
13
48
1
60
0
100
AcDbLine
10
354.028159
20
-11
30
0
11
354.028159
21
11
31
0
39
0
210
0
220
0
230
1
0
SOLID
5
12B
100
AcDbEntity
8
SK2
62
256
6
ByLayer
370
13
48
1
60
0
100
AcDbTrace
10
354.028159
20
-11
30
0
11
353.610163
21
-7.825002
31
0
12
354.446156
22
-7.824998
32
0
13
354.028159
23
-11
33
0
39
0
210
0
220
0
230
1
0
SOLID
5
12C
100
AcDbEntity
8
SK2
62
256
6
ByLayer
370
13
48
1
60
0
100
AcDbTrace
10
354.028159
20
11
30
0
11
354.446156
21
7.825002
31
0
12
353.610163
22
7.824998
32
0
13
354.028159
23
11
33
0
39
0
210
0
220
0
230
1
0
ENDBLK
5
12E
100
AcDbEntity
8
0
100
AcDbBlockEnd
0
BLOCK
5
138
100
AcDbEntity
8
0
100
AcDbBlockBegin
2
DimnDraft3D4
70
0
10
0
20
0
30
0
3
DimnDraft3D4
0
MTEXT
5
131
100
AcDbEntity
8
SK2
62
256
6
ByLayer
370
13
48
1
60
0
100
AcDbMText
10
363.762901
20
3.26273
30
0
210
0
220
0
230
1
1
\W0.6740;60
40
3.175
41
0
44
1.084337
50
90
71
7
72
5
7
iso_b_vert
0
MTEXT
5
132
100
AcDbEntity
8
SK2
62
256
6
ByLayer
370
13
48
1
60
0
100
AcDbMText
10
363.762901
20
-3.856215
30
0
210
0
220
0
230
1
1
%%c
40
3.175
41
0
44
1.084337
50
90
71
7
72
5
7
iso_b_vert
0
LINE
5
133
100
AcDbEntity
8
SK2
62
256
6
ByLayer
370
13
48
1
60
0
100
AcDbLine
10
311.1875
20
-30
30
0
11
368.525401
21
-30
31
0
39
0
210
0
220
0
230
1
0
LINE
5
134
100
AcDbEntity
8
SK2
62
256
6
ByLayer
370
13
48
1
60
0
100
AcDbLine
10
311.1875
20
30
30
0
11
368.525401
21
30
31
0
39
0
210
0
220
0
230
1
0
LINE
5
135
100
AcDbEntity
8
SK2
62
256
6
ByLayer
370
13
48
1
60
0
100
AcDbLine
10
365.350401
20
-30
30
0
11
365.350401
21
30
31
0
39
0
210
0
220
0
230
1
0
SOLID
5
136
100
AcDbEntity
8
SK2
62
256
6
ByLayer
370
13
48
1
60
0
100
AcDbTrace
10
365.350401
20
-30
30
0
11
364.932405
21
-26.825002
31
0
12
365.768398
22
-26.824998
32
0
13
365.350401
23
-30
33
0
39
0
210
0
220
0
230
1
0
SOLID
5
137
100
AcDbEntity
8
SK2
62
256
6
ByLayer
370
13
48
1
60
0
100
AcDbTrace
10
365.350401
20
30
30
0
11
365.768398
21
26.825002
31
0
12
364.932405
22
26.824998
32
0
13
365.350401
23
30
33
0
39
0
210
0
220
0
230
1
0
ENDBLK
5
139
100
AcDbEntity
8
0
100
AcDbBlockEnd
0
BLOCK
5
142
100
AcDbEntity
8
0
100
AcDbBlockBegin
2
DimnDraft3D5
70
0
10
0
20
0
30
0
3
DimnDraft3D5
0
MTEXT
5
13C
100
AcDbEntity
8
SK2
62
256
6
ByLayer
370
13
48
1
60
0
100
AcDbMText
10
163.096341
20
49.108915
30
0
210
0
220
0
230
1
1
\W0.7495;285,4
40
3.175
41
0
44
1.084337
50
0
71
7
72
5
7
iso_b_vert
0
LINE
5
13D
100
AcDbEntity
8
SK2
62
256
6
ByLayer
370
13
48
1
60
0
100
AcDbLine
10
24.598076
20
31.5875
30
0
11
24.598076
21
51.490165
31
0
39
0
210
0
220
0
230
1
0
LINE
5
13E
100
AcDbEntity
8
SK2
62
256
6
ByLayer
370
13
48
1
60
0
100
AcDbLine
10
310
20
1.5875
30
0
11
310
21
51.490165
31
0
39
0
210
0
220
0
230
1
0
LINE
5
13F
100
AcDbEntity
8
SK2
62
256
6
ByLayer
370
13
48
1
60
0
100
AcDbLine
10
24.598076
20
48.315165
30
0
11
310
21
48.315165
31
0
39
0
210
0
220
0
230
1
0
SOLID
5
140
100
AcDbEntity
8
SK2
62
256
6
ByLayer
370
13
48
1
60
0
100
AcDbTrace
10
24.598076
20
48.315165
30
0
11
27.773075
21
48.733162
31
0
12
27.773078
22
47.897169
32
0
13
24.598076
23
48.315165
33
0
39
0
210
0
220
0
230
1
0
SOLID
5
141
100
AcDbEntity
8
SK2
62
256
6
ByLayer
370
13
48
1
60
0
100
AcDbTrace
10
310
20
48.315165
30
0
11
306.825002
21
47.897169
31
0
12
306.824998
22
48.733162
32
0
13
310
23
48.315165
33
0
39
0
210
0
220
0
230
1
0
ENDBLK
5
143
100
AcDbEntity
8
0
100
AcDbBlockEnd
0
ENDSEC
0
SECTION
2
ENTITIES
0
ARC
5
DD
100
AcDbEntity
8
SK1
62
256
6
ByLayer
370
18
48
1
60
0
100
AcDbCircle
39
0
10
341.5
20
7
30
0
40
1
210
0
220
0
230
1
100
AcDbArc
50
0
51
90
0
ARC
5
DE
100
AcDbEntity
8
SK1
62
256
6
ByLayer
370
18
48
1
60
0
100
AcDbCircle
39
0
10
341.5
20
-7
30
0
40
1
210
0
220
0
230
1
100
AcDbArc
50
270
51
0
0
ARC
5
DF
100
AcDbEntity
8
1
62
256
6
ByLayer
370
18
48
1
60
0
100
AcDbCircle
39
0
10
-24.598076
20
-33
30
0
40
3
210
0
220
0
230
-1
100
AcDbArc
50
30
51
90
0
ARC
5
E0
100
AcDbEntity
8
1
62
256
6
ByLayer
370
18
48
1
60
0
100
AcDbCircle
39
0
10
-24.598076
20
33
30
0
40
3
210
0
220
0
230
-1
100
AcDbArc
50
270
51
330
0
ARC
5
E1
100
AcDbEntity
8
1
62
256
6
ByLayer
370
18
48
1
60
0
100
AcDbCircle
39
0
10
303.75
20
-29.7
30
0
40
0.3
210
0
220
0
230
1
100
AcDbArc
50
270
51
0
0
ARC
5
E2
100
AcDbEntity
8
1
62
256
6
ByLayer
370
18
48
1
60
0
100
AcDbCircle
39
0
10
303.75
20
29.7
30
0
40
0.3
210
0
220
0
230
1
100
AcDbArc
50
0
51
90
0
ARC
5
E3
100
AcDbEntity
8
SK1
62
256
6
ByLayer
370
18
48
1
60
0
100
AcDbCircle
39
0
10
-310.294161
20
11.3
30
0
40
0.600000000000001
210
0
220
0
230
-1
100
AcDbArc
50
270
51
288.880863
0
ARC
5
E4
100
AcDbEntity
8
SK1
62
256
6
ByLayer
370
18
48
1
60
0
100
AcDbCircle
39
0
10
-310.294161
20
-11.3
30
0
40
0.600000000000001
210
0
220
0
230
-1
100
AcDbArc
50
71.119137
51
90
0
ARC
5
E5
100
AcDbEntity
8
SK1
62
256
6
ByLayer
370
18
48
1
60
0
100
AcDbCircle
39
0
10
-311.401393
20
11.3
30
0
40
0.600000000000002
210
0
220
0
230
-1
100
AcDbArc
50
255
51
270
0
ARC
5
E6
100
AcDbEntity
8
SK1
62
256
6
ByLayer
370
18
48
1
60
0
100
AcDbCircle
39
0
10
-311.401393
20
-11.3
30
0
40
0.600000000000002
210
0
220
0
230
-1
100
AcDbArc
50
90
51
105
0
ELLIPSE
5
E7
100
AcDbEntity
8
1
62
256
6
ByLayer
370
18
48
1
60
0
100
AcDbEllipse
10
296.05
20
-27.815516
30
0
11
1.49999999999999
21
0
31
0
210
0
220
0
230
1
40
0.374607
41
0
42
6.28318530717959
0
ELLIPSE
5
E8
100
AcDbEntity
8
1
62
256
6
ByLayer
370
18
48
1
60
0
100
AcDbEllipse
10
296.05
20
11.238198
30
0
11
1.50000000000001
21
0
31
0
210
0
220
0
230
1
40
0.927184
41
0
42
6.28318530717959
0
ELLIPSE
5
E9
100
AcDbEntity
8
1
62
256
6
ByLayer
370
18
48
1
60
0
100
AcDbEllipse
10
-2.347154
20
0
30
0
11
14.7536831606592
21
31.0932549155846
31
0
210
0
220
0
230
1
40
0.341999
41
-1.09123958575272
42
-0.157806186645442
0
ELLIPSE
5
EA
100
AcDbEntity
8
1
62
256
6
ByLayer
370
18
48
1
60
0
100
AcDbEllipse
10
26.347154
20
0
30
0
11
-14.7536831606579
21
31.0932549155832
31
0
210
0
220
0
230
1
40
0.341999
41
0.157806186645446
42
1.09123958575275
0
ELLIPSE
5
EB
100
AcDbEntity
8
1
62
256
6
ByLayer
370
18
48
1
60
0
100
AcDbEllipse
10
-2.347154
20
0
30
0
11
-14.753683160658
21
31.0932549155832
31
0
210
0
220
0
230
1
40
0.341999
41
-2.98378646694435
42
-2.05035306783704
0
ELLIPSE
5
EC
100
AcDbEntity
8
1
62
256
6
ByLayer
370
18
48
1
60
0
100
AcDbEllipse
10
26.347154
20
0
30
0
11
14.7536831606577
21
31.0932549155829
31
0
210
0
220
0
230
1
40
0.341999
41
2.05035306783703
42
2.98378646694435
0
POINT
5
6C
100
AcDbEntity
8
80
62
256
6
ByLayer
370
18
48
1
60
0
100
AcDbPoint
10
0
20
0
30
0
39
0
210
0
220
0
230
1
50
360
0
POINT
5
6E
100
AcDbEntity
8
81
62
256
6
ByLayer
370
18
48
1
60
0
100
AcDbPoint
10
310
20
0
30
0
39
0
210
0
220
0
230
1
50
360
0
SPLINE
5
ED
100
AcDbEntity
8
1
62
256
6
ByLayer
370
18
48
1
60
0
100
AcDbSpline
70
4
71
3
72
12
73
8
40
0
40
0
40
0
40
0
40
0.461798013879947
40
0.645407899607803
40
0.830461193197939
40
0.946738350096271
40
1
40
1
40
1
40
1
41
1
10
13.8943375672976
20
9.86941261896682
30
0
41
1
10
13.8701761631583
20
9.75938295924509
30
0
41
1
10
13.8101621349558
20
9.61998966834252
30
0
41
1
10
13.6930335231596
20
9.45793253293078
30
0
41
1
10
13.6003446280491
20
9.38196916814507
30
0
41
1
10
13.5162431554865
20
9.35251845409581
30
0
41
1
10
13.4746491805382
20
9.34931066354834
30
0
41
1
10
13.4613248654054
20
9.34922131452565
30
0
0
SPLINE
5
EE
100
AcDbEntity
8
1
62
256
6
ByLayer
370
18
48
1
60
0
100
AcDbSpline
70
4
71
3
72
12
73
8
40
0
40
0
40
0
40
0
40
0.113758064200171
40
0.253886543920599
40
0.4743256233833
40
0.896259302887823
40
1
40
1
40
1
40
1
41
1
10
13.4613248654054
20
30.0805927603167
30
0
41
1
10
13.4904379087164
20
30.0803226020023
30
0
41
1
10
13.5519474811169
20
30.0772221282564
30
0
41
1
10
13.6547952404099
20
30.0586411017726
30
0
41
1
10
13.7805066916242
20
30.0136703329102
30
0
41
1
10
13.8521197708432
20
29.9605972221839
30
0
41
1
10
13.8880443065683
20
29.9217537772121
30
0
41
1
10
13.8943375672977
20
29.9139548464689
30
0
0
SPLINE
5
EF
100
AcDbEntity
8
1
62
256
6
ByLayer
370
18
48
1
60
0
100
AcDbSpline
70
4
71
3
72
12
73
8
40
0
40
0
40
0
40
0
40
0.461798013879951
40
0.64540789960782
40
0.830461193197966
40
0.946738350096292
40
1
40
1
40
1
40
1
41
1
10
10.1056624327028
20
29.9139548464689
30
0
41
1
10
10.129823836842
20
29.9501139959648
30
0
41
1
10
10.1898378650445
20
29.9953630877556
30
0
41
1
10
10.3069664768407
20
30.0466469632542
30
0
41
1
10
10.3996553719512
20
30.0704112236707
30
0
41
1
10
10.4837568445138
20
30.0795672354295
30
0
41
1
10
10.5253508194621
20
30.0805657056093
30
0
41
1
10
10.538675134595
20
30.0805927603167
30
0
0
SPLINE
5
F0
100
AcDbEntity
8
1
62
256
6
ByLayer
370
18
48
1
60
0
100
AcDbSpline
70
4
71
3
72
12
73
8
40
0
40
0
40
0
40
0
40
0.113758064200166
40
0.253886543920609
40
0.474325623383348
40
0.896259302887942
40
1
40
1
40
1
40
1
41
1
10
10.538675134595
20
9.34922131452574
30
0
41
1
10
10.509562091284
20
9.35011204152297
30
0
41
1
10
10.4480525188835
20
9.36006323903621
30
0
41
1
10
10.3452047595904
20
9.41969405477741
30
0
41
1
10
10.2194933083761
20
9.5625986266733
30
0
41
1
10
10.1478802291572
20
9.72759981512033
30
0
41
1
10
10.111955693432
20
9.84576439788858
30
0
41
1
10
10.1056624327027
20
9.86941261896682
30
0
0
SPLINE
5
F1
100
AcDbEntity
8
1
62
256
6
ByLayer
370
18
48
1
60
0
100
AcDbSpline
70
4
71
3
72
12
73
8
40
0
40
0
40
0
40
0
40
0.461798013879947
40
0.645407899607796
40
0.830461193197929
40
0.946738350096252
40
1
40
1
40
1
40
1
41
1
10
13.8943375672976
20
-29.9139548464689
30
0
41
1
10
13.8701761631583
20
-29.9501139959648
30
0
41
1
10
13.8101621349558
20
-29.9953630877556
30
0
41
1
10
13.6930335231596
20
-30.0466469632542
30
0
41
1
10
13.6003446280491
20
-30.0704112236707
30
0
41
1
10
13.5162431554866
20
-30.0795672354296
30
0
41
1
10
13.4746491805382
20
-30.0805657056093
30
0
41
1
10
13.4613248654054
20
-30.0805927603168
30
0
0
SPLINE
5
F2
100
AcDbEntity
8
1
62
256
6
ByLayer
370
18
48
1
60
0
100
AcDbSpline
70
4
71
3
72
12
73
8
40
0
40
0
40
0
40
0
40
0.113758064200167
40
0.253886543920594
40
0.474325623383307
40
0.89625930288785
40
1
40
1
40
1
40
1
41
1
10
13.4613248654054
20
-9.3492213145257
30
0
41
1
10
13.4904379087164
20
-9.35011204152294
30
0
41
1
10
13.5519474811169
20
-9.36006323903618
30
0
41
1
10
13.65479524041
20
-9.41969405477737
30
0
41
1
10
13.7805066916242
20
-9.56259862667326
30
0
41
1
10
13.8521197708432
20
-9.72759981512027
30
0
41
1
10
13.8880443065683
20
-9.84576439788853
30
0
41
1
10
13.8943375672977
20
-9.8694126189668
30
0
0
SPLINE
5
F3
100
AcDbEntity
8
1
62
256
6
ByLayer
370
18
48
1
60
0
100
AcDbSpline
70
4
71
3
72
12
73
8
40
0
40
0
40
0
40
0
40
0.461798013879928
40
0.645407899607795
40
0.830461193197937
40
0.946738350096267
40
1
40
1
40
1
40
1
41
1
10
10.1056624327028
20
-9.86941261896683
30
0
41
1
10
10.129823836842
20
-9.7593829592451
30
0
41
1
10
10.1898378650445
20
-9.61998966834254
30
0
41
1
10
10.3069664768407
20
-9.4579325329308
30
0
41
1
10
10.3996553719512
20
-9.38196916814509
30
0
41
1
10
10.4837568445138
20
-9.35251845409583
30
0
41
1
10
10.5253508194621
20
-9.34931066354834
30
0
41
1
10
10.538675134595
20
-9.34922131452565
30
0
0
SPLINE
5
F4
100
AcDbEntity
8
1
62
256
6
ByLayer
370
18
48
1
60
0
100
AcDbSpline
70
4
71
3
72
12
73
8
40
0
40
0
40
0
40
0
40
0.113758064200169
40
0.253886543920608
40
0.474325623383357
40
0.896259302887931
40
1
40
1
40
1
40
1
41
1
10
10.538675134595
20
-30.0805927603167
30
0
41
1
10
10.509562091284
20
-30.0803226020023
30
0
41
1
10
10.4480525188835
20
-30.0772221282564
30
0
41
1
10
10.3452047595904
20
-30.0586411017726
30
0
41
1
10
10.2194933083761
20
-30.0136703329102
30
0
41
1
10
10.1478802291572
20
-29.9605972221839
30
0
41
1
10
10.111955693432
20
-29.9217537772121
30
0
41
1
10
10.1056624327027
20
-29.9139548464689
30
0
0
SPLINE
5
F5
100
AcDbEntity
8
SK1
62
256
6
ByLayer
370
18
48
1
60
0
100
AcDbSpline
70
4
71
3
72
17
73
13
40
0
40
0
40
0
40
0
40
0.127259577323965
40
0.158885311267034
40
0.190826615845776
40
0.20838322879078
40
0.226003581982161
40
0.247383542230047
40
0.283324147741298
40
0.39003119710014
40
0.835242772349
40
1
40
1
40
1
40
1
41
1
10
-0.194976888875296
20
6.03119978687537
30
0
41
1
10
-0.183426297029603
20
6.00095952450336
30
0
41
1
10
-0.163028065428007
20
5.97002530753715
30
0
41
1
10
-0.131477423235229
20
5.93993000207454
30
0
41
1
10
-0.114907299833762
20
5.93158487253858
30
0
41
1
10
-0.099449520611024
20
5.93143973441836
30
0
41
1
10
-0.0866839324856613
20
5.93670835147538
30
0
41
1
10
-0.0724378201358509
20
5.94975835064552
30
0
41
1
10
-0.0500619718453504
20
5.98712413391558
30
0
41
1
10
-0.0096824509623575
20
6.13823959949757
30
0
41
1
10
-0.0029440580839746
20
6.32270439338585
30
0
41
1
10
0.0004212519689328
20
6.47681806715154
30
0
41
1
10
-3.67E-14
20
6.51833045883675
30
0
0
SPLINE
5
F6
100
AcDbEntity
8
SK1
62
256
6
ByLayer
370
18
48
1
60
0
100
AcDbSpline
70
4
71
3
72
18
73
14
40
0
40
0
40
0
40
0
40
0.506853871489917
40
0.601090883348403
40
0.686521503830016
40
0.725582346400935
40
0.757850363271954
40
0.776682875783169
40
0.795658863308754
40
0.812443550440567
40
0.839766859864737
40
0.894022064644011
40
1
40
1
40
1
40
1
41
1
10
-6E-16
20
-6.51832721803822
30
0
41
1
10
0.0063357698685379
20
-6.38969420379517
30
0
41
1
10
-0.0030166005227383
20
-6.23653100876691
30
0
41
1
10
-0.0310799954739152
20
-6.06015059619378
30
0
41
1
10
-0.0455150307809328
20
-6.00425071358095
30
0
41
1
10
-0.0619632862143123
20
-5.96624527810365
30
0
41
1
10
-0.07536327233986
20
-5.94644942955685
30
0
41
1
10
-0.0892349256677741
20
-5.93518015784824
30
0
41
1
10
-0.101814014570514
20
-5.93105144926548
30
0
41
1
10
-0.116150429772264
20
-5.93229999018449
30
0
41
1
10
-0.136026553269852
20
-5.94244228505275
30
0
41
1
10
-0.165154688721183
20
-5.97507814108143
30
0
41
1
10
-0.185063726404026
20
-6.00664483685573
30
0
41
1
10
-0.194976888875292
20
-6.03119623886741
30
0
0
SPLINE
5
F7
100
AcDbEntity
8
SK1
62
256
6
ByLayer
370
18
48
1
60
0
100
AcDbSpline
70
4
71
3
72
18
73
14
40
0
40
0
40
0
40
0
40
0.0888515267099801
40
0.1642554031233
40
0.195127782005985
40
0.226307786215168
40
0.253967513836013
40
0.286169290748843
40
0.341508798010433
40
0.425597558058223
40
0.510095611634687
40
0.754751907906818
40
1
40
1
40
1
40
1
41
1
10
-0.194976888875295
20
-6.0311962388674
30
0
41
1
10
-0.222599188104795
20
-6.09610856309611
30
0
41
1
10
-0.288718495897159
20
-6.20561485037662
30
0
41
1
10
-0.389136012465597
20
-6.3276181538156
30
0
41
1
10
-0.486056542719506
20
-6.38820460188171
30
0
41
1
10
-0.561590008480583
20
-6.40834159902319
30
0
41
1
10
-0.64122627798947
20
-6.39903873951866
30
0
41
1
10
-0.730015720044942
20
-6.35573978594001
30
0
41
1
10
-0.832077694034056
20
-6.25730770552568
30
0
41
1
10
-0.931096712470167
20
-6.10777743535164
30
0
41
1
10
-1.06875563668605
20
-5.81181473619406
30
0
41
1
10
-1.2043366408857
20
-5.37811709675788
30
0
41
1
10
-1.28608430117326
20
-4.99769040809056
30
0
41
1
10
-1.31543506509498
20
-4.80312334332311
30
0
0
SPLINE
5
F8
100
AcDbEntity
8
SK1
62
256
6
ByLayer
370
18
48
1
60
0
100
AcDbSpline
70
4
71
3
72
18
73
14
40
0
40
0
40
0
40
0
40
0.290471344035808
40
0.438632858051915
40
0.586306359533043
40
0.661378242884292
40
0.71210527887054
40
0.742728572988828
40
0.768112063176935
40
0.793537746572879
40
0.827212977195939
40
0.887043868035552
40
1
40
1
40
1
40
1
41
1
10
-1.31543506509497
20
4.80312611568494
30
0
41
1
10
-1.27840723314238
20
5.03324468688019
30
0
41
1
10
-1.20091426639337
20
5.37298898034278
30
0
41
1
10
-1.06696422177282
20
5.81538633946392
30
0
41
1
10
-0.946984360594683
20
6.08362906019542
30
0
41
1
10
-0.824654258990118
20
6.26525431525278
30
0
41
1
10
-0.73077829572704
20
6.35399927502897
30
0
41
1
10
-0.649763573457824
20
6.39557179665246
30
0
41
1
10
-0.579549346106308
20
6.40769723716795
30
0
41
1
10
-0.506794336036238
20
6.39641062068474
30
0
41
1
10
-0.417415827966851
20
6.35013033654482
30
0
41
1
10
-0.301642787240277
20
6.22863631270633
30
0
41
1
10
-0.228530000781615
20
6.11564886385167
30
0
41
1
10
-0.194976888875291
20
6.03119978687541
30
0
0
SPLINE
5
F9
100
AcDbEntity
8
SK1
62
256
6
ByLayer
370
18
48
1
60
0
100
AcDbSpline
70
4
71
1
72
4
73
2
40
0
40
0
40
1
40
1
41
1
10
-0.194976888875295
20
21.8639496970129
30
0
41
1
10
-0.201669873511363
20
21.8637816825662
30
0
0
SPLINE
5
FA
100
AcDbEntity
8
SK1
62
256
6
ByLayer
370
18
48
1
60
0
100
AcDbSpline
70
4
71
2
72
6
73
3
40
0
40
0
40
0
40
1
40
1
40
1
41
1
10
-0.201669873511363
20
21.8637816825662
30
0
41
1
10
-0.998354925715883
20
21.8437824437509
30
0
41
1
10
-1.7950399779393
20
21.8237832115739
30
0
0
SPLINE
5
FB
100
AcDbEntity
8
SK1
62
256
6
ByLayer
370
18
48
1
60
0
100
AcDbSpline
70
4
71
3
72
12
73
8
40
0
40
0
40
0
40
0
40
0.17989674193479
40
0.359826223394663
40
0.543574945020424
40
0.727353759991764
40
1
40
1
40
1
40
1
41
1
10
-1.7950399779393
20
0.497941450131572
30
0
41
1
10
-1.78794224511862
20
0.76592600721444
30
0
41
1
10
-1.76471781628355
20
1.29902896195458
30
0
41
1
10
-1.70026992141899
20
2.09725507632532
30
0
41
1
10
-1.61184072285948
20
2.88876232043772
30
0
41
1
10
-1.48541656702585
20
3.79795417887175
30
0
41
1
10
-1.38236569412621
20
4.43063353332417
30
0
41
1
10
-1.31543506509496
20
4.80312611568498
30
0
0
SPLINE
5
FC
100
AcDbEntity
8
SK1
62
256
6
ByLayer
370
18
48
1
60
0
100
AcDbSpline
70
4
71
2
72
6
73
3
40
0
40
0
40
0
40
1
40
1
40
1
41
1
10
-1.7950399779393
20
-0.497935257502374
30
0
41
1
10
-1.80760349038179
20
-0.0001358129938372
30
0
41
1
10
-1.7950399779393
20
0.497941450131421
30
0
0
SPLINE
5
FD
100
AcDbEntity
8
SK1
62
256
6
ByLayer
370
18
48
1
60
0
100
AcDbSpline
70
4
71
3
72
11
73
7
40
0
40
0
40
0
40
0
40
0.358918887831524
40
0.540798092946212
40
0.722646194225722
40
1
40
1
40
1
40
1
41
1
10
-1.31543506509498
20
-4.80312334332308
30
0
41
1
10
-1.40457235685963
20
-4.31254396635072
30
0
41
1
10
-1.52355356310077
20
-3.55942860405523
30
0
41
1
10
-1.65530846581816
20
-2.52453547239988
30
0
41
1
10
-1.74735556879615
20
-1.59054232137539
30
0
41
1
10
-1.78340222482356
20
-0.911864749780494
30
0
41
1
10
-1.7950399779393
20
-0.497935257502691
30
0
0
SPLINE
5
FE
100
AcDbEntity
8
SK1
62
256
6
ByLayer
370
18
48
1
60
0
100
AcDbSpline
70
4
71
2
72
6
73
3
40
0
40
0
40
0
40
1
40
1
40
1
41
1
10
-1.7950399779393
20
-21.8237832285765
30
0
41
1
10
-0.998137277254335
20
-21.8437879241029
30
0
41
1
10
-0.201234576588278
20
-21.8637926262712
30
0
0
SPLINE
5
FF
100
AcDbEntity
8
SK1
62
256
6
ByLayer
370
18
48
1
60
0
100
AcDbSpline
70
4
71
1
72
4
73
2
40
0
40
0
40
1
40
1
41
1
10
-0.201234576588278
20
-21.8637926262712
30
0
41
1
10
-0.194976888875295
20
-21.8639497134275
30
0
0
SPLINE
5
100
100
AcDbEntity
8
SK1
62
256
6
ByLayer
370
18
48
1
60
0
100
AcDbSpline
70
4
71
2
72
6
73
3
40
0
40
0
40
0
40
1
40
1
40
1
41
1
10
-36.5
20
-21.1524613224033
30
0
41
1
10
-19.2499999976426
20
-21.5855495141177
30
0
41
1
10
-2
20
-22.0186362439356
30
0
0
SPLINE
5
101
100
AcDbEntity
8
SK1
62
256
6
ByLayer
370
18
48
1
60
0
100
AcDbSpline
70
4
71
2
72
6
73
3
40
0
40
0
40
0
40
1
40
1
40
1
41
1
10
-2
20
22.018635875508
30
0
41
1
10
-19.2499999976431
20
21.5855491455244
30
0
41
1
10
-36.5
20
21.1524609537578
30
0
0
SPLINE
5
102
100
AcDbEntity
8
SK1
62
256
6
ByLayer
370
18
48
1
60
0
100
AcDbSpline
70
4
71
3
72
13
73
9
40
0
40
0
40
0
40
0
40
0.239406675533055
40
0.368294170919194
40
0.499927912611378
40
0.631573622065739
40
0.760494133568922
40
1
40
1
40
1
40
1
41
1
10
-2
20
-22.0251209952818
30
0
41
1
10
-1.99909122095
20
-21.9990737575566
30
0
41
1
10
-1.99103207881226
20
-21.9617163884142
30
0
41
1
10
-1.96563491014865
20
-21.9155180963752
30
0
41
1
10
-1.93886244237071
20
-21.8842503451973
30
0
41
1
10
-1.90627568046548
20
-21.8590943224455
30
0
41
1
10
-1.85883864366618
20
-21.8360608861174
30
0
41
1
10
-1.82110926269925
20
-21.8298912593851
30
0
41
1
10
-1.7950399779393
20
-21.8302933674114
30
0
0
SPLINE
5
103
100
AcDbEntity
8
SK1
62
256
6
ByLayer
370
18
48
1
60
0
100
AcDbSpline
70
4
71
3
72
13
73
9
40
0
40
0
40
0
40
0
40
0.255492291064396
40
0.39301792818624
40
0.533450663616651
40
0.673870632610641
40
0.811361050267703
40
1
40
1
40
1
40
1
41
1
10
-1.7950399779393
20
21.8302932076066
30
0
41
1
10
-1.82110926271048
20
21.8298910995853
30
0
41
1
10
-1.85883852485428
20
21.8360604318783
30
0
41
1
10
-1.90627589658555
20
21.8590946982961
30
0
41
1
10
-1.93886160364817
20
21.8842481072779
30
0
41
1
10
-1.96563801376328
20
21.9155256277306
30
0
41
1
10
-1.98784027487073
20
21.9559016062705
30
0
41
1
10
-1.9960846423147
20
21.9865731824641
30
0
41
1
10
-1.99851762354564
20
22.0053374231918
30
0
0
SPLINE
5
104
100
AcDbEntity
8
SK1
62
256
6
ByLayer
370
18
48
1
60
0
100
AcDbSpline
70
4
71
1
72
4
73
2
40
0
40
0
40
1
40
1
41
1
10
-1.99851762354564
20
22.0053374231918
30
0
41
1
10
-2
20
22.0251208364275
30
0
0
SPLINE
5
105
100
AcDbEntity
8
SK1
62
256
6
ByLayer
370
18
48
1
60
0
100
AcDbSpline
70
4
71
2
72
6
73
3
40
0
40
0
40
0
40
1
40
1
40
1
41
1
10
-38
20
-20.2898800072422
30
0
41
1
10
-37.2499998580851
20
-20.7226367943926
30
0
41
1
10
-36.5
20
-21.15539096789
30
0
0
SPLINE
5
106
100
AcDbEntity
8
SK1
62
256
6
ByLayer
370
18
48
1
60
0
100
AcDbSpline
70
4
71
1
72
4
73
2
40
0
40
0
40
1
40
1
41
1
10
-36.5
20
21.155390865424
30
0
41
1
10
-36.5166992895936
20
21.1457552803174
30
0
0
SPLINE
5
107
100
AcDbEntity
8
SK1
62
256
6
ByLayer
370
18
48
1
60
0
100
AcDbSpline
70
4
71
2
72
6
73
3
40
0
40
0
40
0
40
1
40
1
40
1
41
1
10
-36.5166992895936
20
21.1457552803174
30
0
41
1
10
-37.2583495060209
20
20.7178188686869
30
0
41
1
10
-38
20
20.2898799013383
30
0
0
SPLINE
5
108
100
AcDbEntity
8
SK1
62
256
6
ByLayer
370
18
48
1
60
0
100
AcDbSpline
70
4
71
3
72
21
73
17
40
0
40
0
40
0
40
0
40
0.0495899333459299
40
0.0592044169431584
40
0.0673022526241734
40
0.0708985575744551
40
0.0743376330508329
40
0.0778074479919529
40
0.081533868600898
40
0.0905911813207506
40
0.102982801007188
40
0.141338446973435
40
0.28186160443489
40
0.582201420528622
40
0.972242870358715
40
1
40
1
40
1
40
1
41
1
10
-0.194976888875295
20
-21.8704747460203
30
0
41
1
10
-0.186182501791866
20
-21.8699445683726
30
0
41
1
10
-0.171548285490157
20
-21.8717472782218
30
0
41
1
10
-0.150856523525052
20
-21.8763513619927
30
0
41
1
10
-0.14286634072584
20
-21.8785601272881
30
0
41
1
10
-0.136447406167046
20
-21.8806137244586
30
0
41
1
10
-0.131769525144491
20
-21.8822427935005
30
0
41
1
10
-0.12708534008496
20
-21.884010627338
30
0
41
1
10
-0.120485876857753
20
-21.8866999918402
30
0
41
1
10
-0.112329672228663
20
-21.8904493493453
30
0
41
1
10
-0.098780620876009
20
-21.8975497470643
30
0
41
1
10
-0.0740470635957365
20
-21.9136658855556
30
0
41
1
10
-0.0464934083085737
20
-21.9390343257356
30
0
41
1
10
-0.0194891795908681
20
-21.9709792410289
30
0
41
1
10
-0.0092504111498237
20
-21.9862595349467
30
0
41
1
10
-0.0053511045146346
20
-21.9914903698336
30
0
41
1
10
-0.0051065736701231
20
-21.9918202858042
30
0
0
SPLINE
5
109
100
AcDbEntity
8
SK1
62
256
6
ByLayer
370
18
48
1
60
0
100
AcDbSpline
70
4
71
3
72
23
73
19
40
0
40
0
40
0
40
0
40
0.283045043859745
40
0.434500066553013
40
0.55882009947161
40
0.652162919080321
40
0.716534253018811
40
0.755619911899727
40
0.767146843352086
40
0.771317865203815
40
0.774713802756963
40
0.777701174929876
40
0.780734414953882
40
0.784199084421241
40
0.788321409296995
40
0.812517725183915
40
0.893813313089234
40
1
40
1
40
1
40
1
41
1
10
-0.004776303308442
20
22.0061144692762
30
0
41
1
10
-0.0063843819434371
20
22.0044744289982
30
0
41
1
10
-0.0110957746458585
20
21.9975316599118
30
0
41
1
10
-0.020501815465984
20
21.9806942619776
30
0
41
1
10
-0.0298719064620342
20
21.9649134670329
30
0
41
1
10
-0.0407981122805041
20
21.9483903196927
30
0
41
1
10
-0.0535392826676414
20
21.9324226516351
30
0
41
1
10
-0.0655912286180385
20
21.919622954286
30
0
41
1
10
-0.0771512756453518
20
21.9097983888212
30
0
41
1
10
-0.0832445252603067
20
21.9051748758815
30
0
41
1
10
-0.0875273782104218
20
21.9021301324224
30
0
41
1
10
-0.0920548614190255
20
21.8991277142948
30
0
41
1
10
-0.0965764705246984
20
21.8963394751228
30
0
41
1
10
-0.10096366514317
20
21.8938204965258
30
0
41
1
10
-0.111968639566001
20
21.8879502253298
30
0
41
1
10
-0.135403612371266
20
21.8784994677196
30
0
41
1
10
-0.162642582499254
20
21.8728904560894
30
0
41
1
10
-0.185257693776647
20
21.8698414257539
30
0
41
1
10
-0.194976888875295
20
21.8704745864116
30
0
0
LINE
5
70
100
AcDbEntity
8
81
62
256
6
ByLayer
370
18
48
1
60
0
100
AcDbLine
10
310
20
0
30
0
11
341
21
0
31
0
39
0
210
0
220
0
230
1
0
LINE
5
71
100
AcDbEntity
8
4
62
256
6
ByLayer
370
18
48
0.05
60
0
100
AcDbLine
10
0
20
0
30
0
11
310
21
0
31
0
39
0
210
0
220
0
230
1
0
LINE
5
73
100
AcDbEntity
8
SK4
62
256
6
ByLayer
370
18
48
0.05
60
0
100
AcDbLine
10
-5
20
0
30
0
11
315
21
0
31
0
39
0
210
0
220
0
230
1
0
LINE
5
75
100
AcDbEntity
8
80
62
256
6
ByLayer
370
18
48
1
60
0
100
AcDbLine
10
0
20
0
30
0
11
-31
21
0
31
0
39
0
210
0
220
0
230
1
0
LINE
5
76
100
AcDbEntity
8
SK1
62
256
6
ByLayer
370
18
48
1
60
0
100
AcDbLine
10
341.5
20
8
30
0
11
336
21
8
31
0
39
0
210
0
220
0
230
1
0
LINE
5
78
100
AcDbEntity
8
SK1
62
256
6
ByLayer
370
18
48
1
60
0
100
AcDbLine
10
336
20
-8
30
0
11
341.5
21
-8
31
0
39
0
210
0
220
0
230
1
0
LINE
5
79
100
AcDbEntity
8
SK1
62
256
6
ByLayer
370
18
48
1
60
0
100
AcDbLine
10
331
20
5
30
0
11
326
21
5
31
0
39
0
210
0
220
0
230
1
0
LINE
5
7A
100
AcDbEntity
8
SK1
62
256
6
ByLayer
370
18
48
1
60
0
100
AcDbLine
10
326
20
-5
30
0
11
331
21
-5
31
0
39
0
210
0
220
0
230
1
0
LINE
5
7B
100
AcDbEntity
8
SK1
62
256
6
ByLayer
370
18
48
1
60
0
100
AcDbLine
10
315.1
20
12.01075
30
0
11
310.1
21
12.01075
31
0
39
0
210
0
220
0
230
1
0
LINE
5
7C
100
AcDbEntity
8
SK1
62
256
6
ByLayer
370
18
48
1
60
0
100
AcDbLine
10
310.1
20
12.81075
30
0
11
315.1
21
12.81075
31
0
39
0
210
0
220
0
230
1
0
LINE
5
7D
100
AcDbEntity
8
SK1
62
256
6
ByLayer
370
18
48
1
60
0
100
AcDbLine
10
315.5
20
12.41075
30
0
11
315.1
21
12.81075
31
0
39
0
210
0
220
0
230
1
0
LINE
5
7E
100
AcDbEntity
8
SK1
62
256
6
ByLayer
370
18
48
1
60
0
100
AcDbLine
10
315.1
20
12.01075
30
0
11
315.5
21
12.41075
31
0
39
0
210
0
220
0
230
1
0
LINE
5
7F
100
AcDbEntity
8
SK1
62
256
6
ByLayer
370
18
48
1
60
0
100
AcDbLine
10
315.1
20
23.18925
30
0
11
310.1
21
23.18925
31
0
39
0
210
0
220
0
230
1
0
LINE
5
80
100
AcDbEntity
8
SK1
62
256
6
ByLayer
370
18
48
1
60
0
100
AcDbLine
10
315.1
20
12.81075
30
0
11
315.1
21
23.18925
31
0
39
0
210
0
220
0
230
1
0
LINE
5
81
100
AcDbEntity
8
SK1
62
256
6
ByLayer
370
18
48
1
60
0
100
AcDbLine
10
315.1
20
23.18925
30
0
11
315.5
21
23.58925
31
0
39
0
210
0
220
0
230
1
0
LINE
5
82
100
AcDbEntity
8
SK1
62
256
6
ByLayer
370
18
48
1
60
0
100
AcDbLine
10
315.5
20
23.58925
30
0
11
315.7
21
23.38925
31
0
39
0
210
0
220
0
230
1
0
LINE
5
83
100
AcDbEntity
8
SK1
62
256
6
ByLayer
370
18
48
1
60
0
100
AcDbLine
10
315.7
20
23.38925
30
0
11
315.7
21
12.61075
31
0
39
0
210
0
220
0
230
1
0
LINE
5
84
100
AcDbEntity
8
SK1
62
256
6
ByLayer
370
18
48
1
60
0
100
AcDbLine
10
315.7
20
12.61075
30
0
11
315.5
21
12.41075
31
0
39
0
210
0
220
0
230
1
0
LINE
5
85
100
AcDbEntity
8
SK1
62
256
6
ByLayer
370
18
48
1
60
0
100
AcDbLine
10
310.1
20
23.98925
30
0
11
315.1
21
23.98925
31
0
39
0
210
0
220
0
230
1
0
LINE
5
86
100
AcDbEntity
8
SK1
62
256
6
ByLayer
370
18
48
1
60
0
100
AcDbLine
10
315.5
20
23.58925
30
0
11
315.1
21
23.98925
31
0
39
0
210
0
220
0
230
1
0
LINE
5
87
100
AcDbEntity
8
SK1
62
256
6
ByLayer
370
18
48
1
60
0
100
AcDbLine
10
310.1
20
-12.01075
30
0
11
315.1
21
-12.01075
31
0
39
0
210
0
220
0
230
1
0
LINE
5
88
100
AcDbEntity
8
SK1
62
256
6
ByLayer
370
18
48
1
60
0
100
AcDbLine
10
315.5
20
-12.41075
30
0
11
315.1
21
-12.01075
31
0
39
0
210
0
220
0
230
1
0
LINE
5
89
100
AcDbEntity
8
SK1
62
256
6
ByLayer
370
18
48
1
60
0
100
AcDbLine
10
315.1
20
-12.81075
30
0
11
315.5
21
-12.41075
31
0
39
0
210
0
220
0
230
1
0
LINE
5
8A
100
AcDbEntity
8
SK1
62
256
6
ByLayer
370
18
48
1
60
0
100
AcDbLine
10
315.1
20
-12.81075
30
0
11
310.1
21
-12.81075
31
0
39
0
210
0
220
0
230
1
0
LINE
5
8B
100
AcDbEntity
8
SK1
62
256
6
ByLayer
370
18
48
1
60
0
100
AcDbLine
10
315.1
20
-23.18925
30
0
11
315.1
21
-12.81075
31
0
39
0
210
0
220
0
230
1
0
LINE
5
8C
100
AcDbEntity
8
SK1
62
256
6
ByLayer
370
18
48
1
60
0
100
AcDbLine
10
310.1
20
-23.18925
30
0
11
315.1
21
-23.18925
31
0
39
0
210
0
220
0
230
1
0
LINE
5
8D
100
AcDbEntity
8
SK1
62
256
6
ByLayer
370
18
48
1
60
0
100
AcDbLine
10
315.7
20
-12.61075
30
0
11
315.5
21
-12.41075
31
0
39
0
210
0
220
0
230
1
0
LINE
5
8E
100
AcDbEntity
8
SK1
62
256
6
ByLayer
370
18
48
1
60
0
100
AcDbLine
10
315.7
20
-12.61075
30
0
11
315.7
21
-23.38925
31
0
39
0
210
0
220
0
230
1
0
LINE
5
8F
100
AcDbEntity
8
SK1
62
256
6
ByLayer
370
18
48
1
60
0
100
AcDbLine
10
315.5
20
-23.58925
30
0
11
315.7
21
-23.38925
31
0
39
0
210
0
220
0
230
1
0
LINE
5
90
100
AcDbEntity
8
SK1
62
256
6
ByLayer
370
18
48
1
60
0
100
AcDbLine
10
315.5
20
-23.58925
30
0
11
315.1
21
-23.18925
31
0
39
0
210
0
220
0
230
1
0
LINE
5
91
100
AcDbEntity
8
SK1
62
256
6
ByLayer
370
18
48
1
60
0
100
AcDbLine
10
315.1
20
-23.98925
30
0
11
310.1
21
-23.98925
31
0
39
0
210
0
220
0
230
1
0
LINE
5
92
100
AcDbEntity
8
SK1
62
256
6
ByLayer
370
18
48
1
60
0
100
AcDbLine
10
315.1
20
-23.98925
30
0
11
315.5
21
-23.58925
31
0
39
0
210
0
220
0
230
1
0
LINE
5
93
100
AcDbEntity
8
1
62
256
6
ByLayer
370
18
48
1
60
0
100
AcDbLine
10
0.3
20
-31.5
30
0
11
22
21
-31.5
31
0
39
0
210
0
220
0
230
1
0
LINE
5
95
100
AcDbEntity
8
1
62
256
6
ByLayer
370
18
48
1
60
0
100
AcDbLine
10
22
20
31.5
30
0
11
0.3
21
31.5
31
0
39
0
210
0
220
0
230
1
0
LINE
5
96
100
AcDbEntity
8
1
62
256
6
ByLayer
370
18
48
1
60
0
100
AcDbLine
10
13.461325
20
9.349221
30
0
11
10.538675
21
9.349221
31
0
39
0
210
0
220
0
230
1
0
LINE
5
97
100
AcDbEntity
8
1
62
256
6
ByLayer
370
18
48
1
60
0
100
AcDbLine
10
10.538675
20
30.080593
30
0
11
13.461325
21
30.080593
31
0
39
0
210
0
220
0
230
1
0
LINE
5
98
100
AcDbEntity
8
1
62
256
6
ByLayer
370
18
48
1
60
0
100
AcDbLine
10
13.461325
20
-30.080593
30
0
11
10.538675
21
-30.080593
31
0
39
0
210
0
220
0
230
1
0
LINE
5
99
100
AcDbEntity
8
1
62
256
6
ByLayer
370
18
48
1
60
0
100
AcDbLine
10
10.538675
20
-9.349221
30
0
11
13.461325
21
-9.349221
31
0
39
0
210
0
220
0
230
1
0
LINE
5
9A
100
AcDbEntity
8
1
62
256
6
ByLayer
370
18
48
1
60
0
100
AcDbLine
10
0.3
20
31.5
30
0
11
0
21
31.2
31
0
39
0
210
0
220
0
230
1
0
LINE
5
9B
100
AcDbEntity
8
1
62
256
6
ByLayer
370
18
48
1
60
0
100
AcDbLine
10
0
20
-31.2
30
0
11
0.3
21
-31.5
31
0
39
0
210
0
220
0
230
1
0
LINE
5
9C
100
AcDbEntity
8
1
62
256
6
ByLayer
370
18
48
1
60
0
100
AcDbLine
10
13.894338
20
9.869413
30
0
11
13.894338
21
29.913955
31
0
39
0
210
0
220
0
230
1
0
LINE
5
9D
100
AcDbEntity
8
1
62
256
6
ByLayer
370
18
48
1
60
0
100
AcDbLine
10
13.461325
20
9.349221
30
0
11
13.461325
21
30.080593
31
0
39
0
210
0
220
0
230
1
0
LINE
5
9E
100
AcDbEntity
8
1
62
256
6
ByLayer
370
18
48
1
60
0
100
AcDbLine
10
10.538675
20
-30.080593
30
0
11
10.538675
21
-9.349221
31
0
39
0
210
0
220
0
230
1
0
LINE
5
9F
100
AcDbEntity
8
1
62
256
6
ByLayer
370
18
48
1
60
0
100
AcDbLine
10
10.105662
20
-29.913955
30
0
11
10.105662
21
-9.869413
31
0
39
0
210
0
220
0
230
1
0
LINE
5
A0
100
AcDbEntity
8
1
62
256
6
ByLayer
370
18
48
1
60
0
100
AcDbLine
10
13.894338
20
-29.913955
30
0
11
13.894338
21
-9.869413
31
0
39
0
210
0
220
0
230
1
0
LINE
5
A1
100
AcDbEntity
8
1
62
256
6
ByLayer
370
18
48
1
60
0
100
AcDbLine
10
13.461325
20
-30.080593
30
0
11
13.461325
21
-9.349221
31
0
39
0
210
0
220
0
230
1
0
LINE
5
A2
100
AcDbEntity
8
1
62
256
6
ByLayer
370
18
48
1
60
0
100
AcDbLine
10
10.538675
20
9.349221
30
0
11
10.538675
21
30.080593
31
0
39
0
210
0
220
0
230
1
0
LINE
5
A3
100
AcDbEntity
8
1
62
256
6
ByLayer
370
18
48
1
60
0
100
AcDbLine
10
10.105662
20
9.869413
30
0
11
10.105662
21
29.913955
31
0
39
0
210
0
220
0
230
1
0
LINE
5
A4
100
AcDbEntity
8
1
62
256
6
ByLayer
370
18
48
1
60
0
100
AcDbLine
10
24.598076
20
-30
30
0
11
303.75
21
-30
31
0
39
0
210
0
220
0
230
1
0
LINE
5
A5
100
AcDbEntity
8
1
62
256
6
ByLayer
370
18
48
1
60
0
100
AcDbLine
10
303.75
20
30
30
0
11
24.598076
21
30
31
0
39
0
210
0
220
0
230
1
0
LINE
5
A6
100
AcDbEntity
8
1
62
256
6
ByLayer
370
18
48
1
60
0
100
AcDbLine
10
309.6
20
-30
30
0
11
310.1
21
-29.5
31
0
39
0
210
0
220
0
230
1
0
LINE
5
A7
100
AcDbEntity
8
1
62
256
6
ByLayer
370
18
48
1
60
0
100
AcDbLine
10
310.1
20
29.5
30
0
11
309.6
21
30
31
0
39
0
210
0
220
0
230
1
0
LINE
5
A8
100
AcDbEntity
8
1
62
256
6
ByLayer
370
18
48
1
60
0
100
AcDbLine
10
309.6
20
30
30
0
11
304.05
21
30
31
0
39
0
210
0
220
0
230
1
0
LINE
5
A9
100
AcDbEntity
8
1
62
256
6
ByLayer
370
18
48
1
60
0
100
AcDbLine
10
304.05
20
-30
30
0
11
309.6
21
-30
31
0
39
0
210
0
220
0
230
1
0
LINE
5
AA
100
AcDbEntity
8
SK1
62
256
6
ByLayer
370
18
48
1
60
0
100
AcDbLine
10
312.6
20
11
30
0
11
311.556685
21
10.720445
31
0
39
0
210
0
220
0
230
1
0
LINE
5
AB
100
AcDbEntity
8
SK1
62
256
6
ByLayer
370
18
48
1
60
0
100
AcDbLine
10
311.556685
20
-10.720445
30
0
11
312.6
21
-11
31
0
39
0
210
0
220
0
230
1
0
LINE
5
AC
100
AcDbEntity
8
SK1
62
256
6
ByLayer
370
18
48
1
60
0
100
AcDbLine
10
325
20
11
30
0
11
312.6
21
11
31
0
39
0
210
0
220
0
230
1
0
LINE
5
AD
100
AcDbEntity
8
SK1
62
256
6
ByLayer
370
18
48
1
60
0
100
AcDbLine
10
312.6
20
-11
30
0
11
325
21
-11
31
0
39
0
210
0
220
0
230
1
0
LINE
5
AE
100
AcDbEntity
8
SK1
62
256
6
ByLayer
370
18
48
1
60
0
100
AcDbLine
10
325
20
-11
30
0
11
326
21
-10.42265
31
0
39
0
210
0
220
0
230
1
0
LINE
5
AF
100
AcDbEntity
8
SK1
62
256
6
ByLayer
370
18
48
1
60
0
100
AcDbLine
10
326
20
10.42265
30
0
11
325
21
11
31
0
39
0
210
0
220
0
230
1
0
LINE
5
B0
100
AcDbEntity
8
SK1
62
256
6
ByLayer
370
18
48
1
60
0
100
AcDbLine
10
311.401393
20
10.7
30
0
11
310.294161
21
10.7
31
0
39
0
210
0
220
0
230
1
0
LINE
5
B1
100
AcDbEntity
8
SK1
62
256
6
ByLayer
370
18
48
1
60
0
100
AcDbLine
10
310.294161
20
-10.7
30
0
11
311.401393
21
-10.7
31
0
39
0
210
0
220
0
230
1
0
LINE
5
B2
100
AcDbEntity
8
SK1
62
256
6
ByLayer
370
18
48
1
60
0
100
AcDbLine
10
332
20
-14
30
0
11
336
21
-14
31
0
39
0
210
0
220
0
230
1
0
LINE
5
B3
100
AcDbEntity
8
SK1
62
256
6
ByLayer
370
18
48
1
60
0
100
AcDbLine
10
336
20
14
30
0
11
332
21
14
31
0
39
0
210
0
220
0
230
1
0
LINE
5
B4
100
AcDbEntity
8
SK1
62
256
6
ByLayer
370
18
48
1
60
0
100
AcDbLine
10
332
20
14
30
0
11
331
21
13
31
0
39
0
210
0
220
0
230
1
0
LINE
5
B5
100
AcDbEntity
8
SK1
62
256
6
ByLayer
370
18
48
1
60
0
100
AcDbLine
10
331
20
-13
30
0
11
332
21
-14
31
0
39
0
210
0
220
0
230
1
0
LINE
5
B6
100
AcDbEntity
8
SK1
62
256
6
ByLayer
370
18
48
1
60
0
100
AcDbLine
10
341.5
20
-8
30
0
11
341.5
21
8
31
0
39
0
210
0
220
0
230
1
0
LINE
5
B7
100
AcDbEntity
8
SK1
62
256
6
ByLayer
370
18
48
1
60
0
100
AcDbLine
10
342.5
20
7
30
0
11
342.5
21
-7
31
0
39
0
210
0
220
0
230
1
0
LINE
5
B8
100
AcDbEntity
8
1
62
256
6
ByLayer
370
18
48
1
60
0
100
AcDbLine
10
22
20
-31.5
30
0
11
22
21
0
31
0
39
0
210
0
220
0
230
1
0
LINE
5
B9
100
AcDbEntity
8
1
62
256
6
ByLayer
370
18
48
1
60
0
100
AcDbLine
10
24.598076
20
30
30
0
11
24.598076
21
0
31
0
39
0
210
0
220
0
230
1
0
LINE
5
BA
100
AcDbEntity
8
1
62
256
6
ByLayer
370
18
48
1
60
0
100
AcDbLine
10
22
20
0
30
0
11
22
21
31.5
31
0
39
0
210
0
220
0
230
1
0
LINE
5
BB
100
AcDbEntity
8
1
62
256
6
ByLayer
370
18
48
1
60
0
100
AcDbLine
10
24.598076
20
0
30
0
11
24.598076
21
-30
31
0
39
0
210
0
220
0
230
1
0
LINE
5
BC
100
AcDbEntity
8
1
62
256
6
ByLayer
370
18
48
1
60
0
100
AcDbLine
10
0.3
20
-31.5
30
0
11
0.3
21
0
31
0
39
0
210
0
220
0
230
1
0
LINE
5
BD
100
AcDbEntity
8
1
62
256
6
ByLayer
370
18
48
1
60
0
100
AcDbLine
10
0.3
20
0
30
0
11
0.3
21
31.5
31
0
39
0
210
0
220
0
230
1
0
LINE
5
BE
100
AcDbEntity
8
1
62
256
6
ByLayer
370
18
48
1
60
0
100
AcDbLine
10
0
20
-31.2
30
0
11
0
21
0
31
0
39
0
210
0
220
0
230
1
0
LINE
5
BF
100
AcDbEntity
8
1
62
256
6
ByLayer
370
18
48
1
60
0
100
AcDbLine
10
0
20
0
30
0
11
0
21
31.2
31
0
39
0
210
0
220
0
230
1
0
LINE
5
C0
100
AcDbEntity
8
1
62
256
6
ByLayer
370
18
48
1
60
0
100
AcDbLine
10
303.75
20
-30
30
0
11
303.75
21
0
31
0
39
0
210
0
220
0
230
1
0
LINE
5
C1
100
AcDbEntity
8
1
62
256
6
ByLayer
370
18
48
1
60
0
100
AcDbLine
10
303.75
20
0
30
0
11
303.75
21
30
31
0
39
0
210
0
220
0
230
1
0
LINE
5
C2
100
AcDbEntity
8
SK1
62
256
6
ByLayer
370
18
48
1
60
0
100
AcDbLine
10
-1.315435
20
-4.803123
30
0
11
-1.315435
21
4.803126
31
0
39
0
210
0
220
0
230
1
0
LINE
5
C3
100
AcDbEntity
8
1
62
256
6
ByLayer
370
18
48
1
60
0
100
AcDbLine
10
310.1
20
29.5
30
0
11
310.1
21
0
31
0
39
0
210
0
220
0
230
1
0
LINE
5
C4
100
AcDbEntity
8
1
62
256
6
ByLayer
370
18
48
1
60
0
100
AcDbLine
10
309.6
20
-30
30
0
11
309.6
21
0
31
0
39
0
210
0
220
0
230
1
0
LINE
5
C5
100
AcDbEntity
8
1
62
256
6
ByLayer
370
18
48
1
60
0
100
AcDbLine
10
310.1
20
0
30
0
11
310.1
21
-29.5
31
0
39
0
210
0
220
0
230
1
0
LINE
5
C6
100
AcDbEntity
8
1
62
256
6
ByLayer
370
18
48
1
60
0
100
AcDbLine
10
309.6
20
0
30
0
11
309.6
21
30
31
0
39
0
210
0
220
0
230
1
0
LINE
5
C7
100
AcDbEntity
8
1
62
256
6
ByLayer
370
18
48
1
60
0
100
AcDbLine
10
304.05
20
30
30
0
11
304.05
21
-30
31
0
39
0
210
0
220
0
230
1
0
LINE
5
C8
100
AcDbEntity
8
SK1
62
256
6
ByLayer
370
18
48
1
60
0
100
AcDbLine
10
310.294161
20
10.7
30
0
11
310.294161
21
-10.7
31
0
39
0
210
0
220
0
230
1
0
LINE
5
C9
100
AcDbEntity
8
SK1
62
256
6
ByLayer
370
18
48
1
60
0
100
AcDbLine
10
312.6
20
11
30
0
11
312.6
21
-11
31
0
39
0
210
0
220
0
230
1
0
LINE
5
CA
100
AcDbEntity
8
SK1
62
256
6
ByLayer
370
18
48
1
60
0
100
AcDbLine
10
311.556685
20
10.720445
30
0
11
311.556685
21
-10.720445
31
0
39
0
210
0
220
0
230
1
0
LINE
5
CB
100
AcDbEntity
8
SK1
62
256
6
ByLayer
370
18
48
1
60
0
100
AcDbLine
10
325
20
-11
30
0
11
325
21
0
31
0
39
0
210
0
220
0
230
1
0
LINE
5
CC
100
AcDbEntity
8
SK1
62
256
6
ByLayer
370
18
48
1
60
0
100
AcDbLine
10
325
20
0
30
0
11
325
21
11
31
0
39
0
210
0
220
0
230
1
0
LINE
5
CD
100
AcDbEntity
8
SK1
62
256
6
ByLayer
370
18
48
1
60
0
100
AcDbLine
10
326
20
10.42265
30
0
11
326
21
0
31
0
39
0
210
0
220
0
230
1
0
LINE
5
CE
100
AcDbEntity
8
SK1
62
256
6
ByLayer
370
18
48
1
60
0
100
AcDbLine
10
326
20
0
30
0
11
326
21
-10.42265
31
0
39
0
210
0
220
0
230
1
0
LINE
5
CF
100
AcDbEntity
8
SK1
62
256
6
ByLayer
370
18
48
1
60
0
100
AcDbLine
10
311.401393
20
10.7
30
0
11
311.401393
21
-10.7
31
0
39
0
210
0
220
0
230
1
0
LINE
5
D0
100
AcDbEntity
8
SK1
62
256
6
ByLayer
370
18
48
1
60
0
100
AcDbLine
10
336
20
-14
30
0
11
336
21
-7.657218
31
0
39
0
210
0
220
0
230
1
0
LINE
5
D1
100
AcDbEntity
8
SK1
62
256
6
ByLayer
370
18
48
1
60
0
100
AcDbLine
10
332
20
14
30
0
11
332
21
-7.657218
31
0
39
0
210
0
220
0
230
1
0
LINE
5
D2
100
AcDbEntity
8
SK1
62
256
6
ByLayer
370
18
48
1
60
0
100
AcDbLine
10
332
20
-7.657218
30
0
11
332
21
-14
31
0
39
0
210
0
220
0
230
1
0
LINE
5
D3
100
AcDbEntity
8
SK1
62
256
6
ByLayer
370
18
48
1
60
0
100
AcDbLine
10
336
20
-7.657218
30
0
11
336
21
14
31
0
39
0
210
0
220
0
230
1
0
LINE
5
D4
100
AcDbEntity
8
SK1
62
256
6
ByLayer
370
18
48
1
60
0
100
AcDbLine
10
331
20
-13
30
0
11
331
21
-7.110274
31
0
39
0
210
0
220
0
230
1
0
LINE
5
D5
100
AcDbEntity
8
SK1
62
256
6
ByLayer
370
18
48
1
60
0
100
AcDbLine
10
331
20
-7.110274
30
0
11
331
21
13
31
0
39
0
210
0
220
0
230
1
0
LINE
5
D6
100
AcDbEntity
8
SK1
62
256
6
ByLayer
370
18
48
1
60
0
100
AcDbLine
10
-1.79504
20
-0.497935
30
0
11
-1.79504
21
-21.830293
31
0
39
0
210
0
220
0
230
1
0
LINE
5
D7
100
AcDbEntity
8
SK1
62
256
6
ByLayer
370
18
48
1
60
0
100
AcDbLine
10
-0.194977
20
-6.031196
30
0
11
-0.194977
21
-21.870455
31
0
39
0
210
0
220
0
230
1
0
LINE
5
D8
100
AcDbEntity
8
SK1
62
256
6
ByLayer
370
18
48
1
60
0
100
AcDbLine
10
-2
20
22.018634
30
0
11
-2
21
-22.018634
31
0
39
0
210
0
220
0
230
1
0
LINE
5
D9
100
AcDbEntity
8
SK1
62
256
6
ByLayer
370
18
48
1
60
0
100
AcDbLine
10
-36.5
20
21.152489
30
0
11
-36.5
21
-21.15249
31
0
39
0
210
0
220
0
230
1
0
LINE
5
DA
100
AcDbEntity
8
SK1
62
256
6
ByLayer
370
18
48
1
60
0
100
AcDbLine
10
-1.79504
20
21.830293
30
0
11
-1.79504
21
0.497941
31
0
39
0
210
0
220
0
230
1
0
LINE
5
DB
100
AcDbEntity
8
SK1
62
256
6
ByLayer
370
18
48
1
60
0
100
AcDbLine
10
-38
20
20.289941
30
0
11
-38
21
-20.289941
31
0
39
0
210
0
220
0
230
1
0
LINE
5
DC
100
AcDbEntity
8
SK1
62
256
6
ByLayer
370
18
48
1
60
0
100
AcDbLine
10
-0.194977
20
21.870297
30
0
11
-0.194977
21
6.0312
31
0
39
0
210
0
220
0
230
1
0
MTEXT
5
10A
100
AcDbEntity
8
SK6
62
256
6
ByLayer
370
13
48
1
60
0
100
AcDbMText
10
5.132143
20
62.296798
30
0
210
0
220
0
230
1
1
\W0.7221;C6-Q22D-060-310
40
3.5
41
0
44
1.084337
50
0
71
7
72
5
7
iso_b_vert
0
DIMENSION
5
118
100
AcDbEntity
8
2
62
256
6
ByLayer
370
13
48
1
60
0
100
AcDbDimension
2
DimnDraft3D1
10
310
20
58.666811
30
0
11
152.313783
21
58.666811
31
0
70
32
71
5
72
1
41
1
210
0
220
0
230
1
3
Standard
100
AcDbAlignedDimension
13
0
23
1.5875
33
0
14
310
24
1.5875
34
0
50
0
100
AcDbRotatedDimension
1001
ACAD
1000
DSTYLE
1002
{
1070
   279
1070
     0
1070
   173
1070
     1
1070
   340
1005
10B
1070
   271
1070
     1
1070
   272
1070
     2
1070
    77
1070
     1
1070
    73
1070
     0
1070
   171
1070
     3
1070
   274
1070
     4
1070
   177
1070
     7
1070
   176
1070
     7
1070
   178
1070
     7
1070
    78
1070
     8
1070
    48
1040
-0.005
1070
    41
1041
3.175
1070
   147
1041
1.5875
1070
    42
1041
1.5875
1070
    44
1041
3.175
1070
   140
1041
3.175
1070
   343
1005
0
1070
   344
1005
0
1002
}
0
DIMENSION
5
124
100
AcDbEntity
8
SK2
62
256
6
ByLayer
370
13
48
1
60
0
100
AcDbDimension
2
DimnDraft3D2
10
-51.31561
20
31.5
30
0
11
-50.52186
21
2.46898
31
0
70
33
71
5
72
1
41
1
210
0
220
0
230
1
3
Standard
100
AcDbAlignedDimension
13
-1.2875
23
-31.5
33
0
14
-1.2875
24
31.5
34
0
1001
ACAD
1000
DSTYLE
1002
{
1070
   279
1070
     0
1070
    74
1070
     0
1070
   173
1070
     1
1070
   340
1005
10B
1070
   271
1070
     1
1070
   272
1070
     2
1070
    77
1070
     1
1070
    73
1070
     0
1070
   171
1070
     3
1070
   274
1070
     4
1070
   177
1070
     7
1070
   176
1070
     7
1070
   178
1070
     7
1070
    78
1070
     8
1070
    48
1040
-0.005
1070
    41
1041
3.175
1070
   147
1041
1.5875
1070
    42
1041
1.5875
1070
    44
1041
3.175
1070
   140
1041
3.175
1070
   343
1005
0
1070
   344
1005
0
1002
}
0
DIMENSION
5
12F
100
AcDbEntity
8
SK2
62
256
6
ByLayer
370
13
48
1
60
0
100
AcDbDimension
2
DimnDraft3D3
10
357.203159
20
11
30
0
11
351.646909
21
2.46898
31
0
70
33
71
5
72
1
41
1
210
0
220
0
230
1
3
Standard
100
AcDbAlignedDimension
13
326.5875
23
-11
33
0
14
326.5875
24
11
34
0
1001
ACAD
1000
DSTYLE
1002
{
1070
   279
1070
     0
1070
    74
1070
     0
1070
   173
1070
     1
1070
   340
1005
10B
1070
   271
1070
     1
1070
   272
1070
     2
1070
    77
1070
     1
1070
    73
1070
     0
1070
   171
1070
     3
1070
   274
1070
     4
1070
   177
1070
     7
1070
   176
1070
     7
1070
   178
1070
     7
1070
    78
1070
     8
1070
    48
1040
-0.005
1070
    41
1041
3.175
1070
   147
1041
1.5875
1070
    42
1041
1.5875
1070
    44
1041
3.175
1070
   140
1041
3.175
1070
   343
1005
0
1070
   344
1005
0
1002
}
0
DIMENSION
5
13A
100
AcDbEntity
8
SK2
62
256
6
ByLayer
370
13
48
1
60
0
100
AcDbDimension
2
DimnDraft3D4
10
368.525401
20
30
30
0
11
362.969151
21
2.46898
31
0
70
33
71
5
72
1
41
1
210
0
220
0
230
1
3
Standard
100
AcDbAlignedDimension
13
311.1875
23
-30
33
0
14
311.1875
24
30
34
0
1001
ACAD
1000
DSTYLE
1002
{
1070
   279
1070
     0
1070
    74
1070
     0
1070
   173
1070
     1
1070
   340
1005
10B
1070
   271
1070
     1
1070
   272
1070
     2
1070
    77
1070
     1
1070
    73
1070
     0
1070
   171
1070
     3
1070
   274
1070
     4
1070
   177
1070
     7
1070
   176
1070
     7
1070
   178
1070
     7
1070
    78
1070
     8
1070
    48
1040
-0.005
1070
    41
1041
3.175
1070
   147
1041
1.5875
1070
    42
1041
1.5875
1070
    44
1041
3.175
1070
   140
1041
3.175
1070
   343
1005
0
1070
   344
1005
0
1002
}
0
DIMENSION
5
144
100
AcDbEntity
8
SK2
62
256
6
ByLayer
370
13
48
1
60
0
100
AcDbDimension
2
DimnDraft3D5
10
310
20
48.315165
30
0
11
162.302591
21
48.315165
31
0
70
32
71
5
72
1
41
1
210
0
220
0
230
1
3
Standard
100
AcDbAlignedDimension
13
24.598076
23
31.5875
33
0
14
310
24
1.5875
34
0
50
0
100
AcDbRotatedDimension
1001
ACAD
1000
DSTYLE
1002
{
1070
   279
1070
     0
1070
   173
1070
     1
1070
   340
1005
10B
1070
   271
1070
     1
1070
   272
1070
     2
1070
    77
1070
     1
1070
    73
1070
     0
1070
   171
1070
     3
1070
   274
1070
     4
1070
   177
1070
     7
1070
   176
1070
     7
1070
   178
1070
     7
1070
    78
1070
     8
1070
    48
1040
-0.005
1070
    41
1041
3.175
1070
   147
1041
1.5875
1070
    42
1041
1.5875
1070
    44
1041
3.175
1070
   140
1041
3.175
1070
   343
1005
0
1070
   344
1005
0
1002
}
0
ENDSEC
0
SECTION
2
OBJECTS
0
DICTIONARY
5
1af
330
0
100
AcDbDictionary
280
0
281
1
3
ACAD_GROUP
350
1b0
3
ACAD_MLINESTYLE
350
1b1
0
DICTIONARY
5
1b0
330
0
100
AcDbDictionary
280
0
281
1
0
DICTIONARY
5
1b1
330
0
100
AcDbDictionary
280
0
281
1
3
Standard
350
18
0
MLINESTYLE
5
18
330
1b1
100
AcDbMlineStyle
2
Standard
70
0
3

62
256
51
90
52
90
71
2
49
-0.5
62
256
6
ByLayer
49
0.5
62
256
6
ByLayer
0
RASTERVARIABLES
5
19d
330

100
AcDbRasterVariables
90
0
70
1
71
1
72
1
0
ENDSEC
0
EOF
