0
SECTION
2
HEADER
9
$ACADVER
1
AC1015
9
$DWGCODEPAGE
3
ANSI_1252
9
$HANDSEED
5
211
9
$ANGBASE
50
0
9
$ANGDIR
70
0
9
$ATTMODE
70
1
9
$AUNITS
70
0
9
$AUPREC
70
0
9
$CECOLOR
62
256
9
$CELTSCALE
40
1
9
$CELTYPE
6
ByLayer
9
$CELWEIGHT
370
18
9
$CLAYER
8
0
9
$CMLJUST
70
0
9
$CMLSCALE
40
1
9
$CMLSTYLE
2
Standard
9
$DIMSTYLE
2
Standard
9
$TEXTSIZE
40
0.2
9
$TEXTSTYLE
7
Standard
9
$LUNITS
70
2
9
$LUPREC
70
4
9
$EXTNAMES
290
1
9
$INSUNITS
70
4
9
$LTSCALE
40
1
9
$LWDISPLAY
290
1
9
$PDMODE
70
0
9
$PDSIZE
40
0
9
$PLINEGEN
70
0
0
ENDSEC
0
SECTION
2
CLASSES
0
CLASS
1
RASTERVARIABLES
2
AcDbRasterVariables
3
ISM
90
0
280
0
281
0
0
ENDSEC
0
SECTION
2
TABLES
0
TABLE
2
VPORT
5
207
100
AcDbSymbolTable
0
VPORT
5
1
100
AcDbSymbolTableRecord
100
AcDbViewportTableRecord
2
*Active
70
0
10
0
20
0
11
1
21
1
12
-1
22
1
13
0
23
0
14
0.5
24
0.5
15
10
25
10
16
0
26
0
36
1
17
0
27
0
37
0
0
ENDTAB
0
TABLE
2
LTYPE
5
208
100
AcDbSymbolTable
0
LTYPE
5
14
100
AcDbSymbolTableRecord
100
AcDbLinetypeTableRecord
70
0
2
ByBlock
3

72
65
73
0
40
0
0
LTYPE
5
15
100
AcDbSymbolTableRecord
100
AcDbLinetypeTableRecord
70
0
2
ByLayer
3

72
65
73
0
40
0
0
LTYPE
5
16
100
AcDbSymbolTableRecord
100
AcDbLinetypeTableRecord
70
0
2
CONTINUOUS
3
Solid line
72
65
73
0
40
0
0
LTYPE
5
6A
100
AcDbSymbolTableRecord
100
AcDbLinetypeTableRecord
70
0
2
CENTER
3
____ _ ____ _ ____ _ ____
72
65
73
4
40
47.5
49
22
74
0
49
-8.5
74
0
49
8.5
74
0
49
-8.5
74
0
0
LTYPE
5
6B
100
AcDbSymbolTableRecord
100
AcDbLinetypeTableRecord
70
0
2
DASHED
3
__ __ __ __ __ __ __ __ __
72
65
73
2
40
25.72
49
12.86
74
0
49
-12.86
74
0
0
ENDTAB
0
TABLE
2
LAYER
5
209
100
AcDbSymbolTable
0
LAYER
5
10
100
AcDbSymbolTableRecord
100
AcDbLayerTableRecord
2
0
70
0
62
7
6
CONTINUOUS
290
1
370
-3
390
0
0
LAYER
5
6D
100
AcDbSymbolTableRecord
100
AcDbLayerTableRecord
2
80
70
0
62
-6
6
CONTINUOUS
290
1
370
-3
390
0
0
LAYER
5
6F
100
AcDbSymbolTableRecord
100
AcDbLayerTableRecord
2
81
70
0
62
-3
6
CONTINUOUS
290
1
370
-3
390
0
0
LAYER
5
71
100
AcDbSymbolTableRecord
100
AcDbLayerTableRecord
2
1
70
0
62
4
6
CONTINUOUS
290
1
370
-3
390
0
0
LAYER
5
BD
100
AcDbSymbolTableRecord
100
AcDbLayerTableRecord
2
4
70
0
62
-2
6
CENTER
290
1
370
-3
390
0
0
LAYER
5
15D
100
AcDbSymbolTableRecord
100
AcDbLayerTableRecord
2
2
70
0
62
7
6
CONTINUOUS
290
1
370
-3
390
0
0
LAYER
5
1f3
100
AcDbSymbolTableRecord
100
AcDbLayerTableRecord
2
SK1
70
0
62
4
6
CONTINUOUS
290
1
370
-3
390
0
0
LAYER
5
1f4
100
AcDbSymbolTableRecord
100
AcDbLayerTableRecord
2
SK4
70
0
62
2
6
CENTER
290
1
370
-3
390
0
0
LAYER
5
1f5
100
AcDbSymbolTableRecord
100
AcDbLayerTableRecord
2
SK6
70
0
62
5
6
CONTINUOUS
290
1
370
-3
390
0
0
LAYER
5
1f6
100
AcDbSymbolTableRecord
100
AcDbLayerTableRecord
2
SK2
70
0
62
7
6
CONTINUOUS
290
1
370
-3
390
0
0
ENDTAB
0
TABLE
2
STYLE
5
20a
100
AcDbSymbolTable
0
STYLE
5
11
100
AcDbSymbolTableRecord
100
AcDbTextStyleTableRecord
2
Standard
3
txt
70
0
71
0
40
0
41
1
42
0
50
0
0
STYLE
5
156
100
AcDbSymbolTableRecord
100
AcDbTextStyleTableRecord
2
iso_b_vert
3
simplex.shx
70
0
71
0
40
0
41
1
42
0
50
0
0
STYLE
5
157
100
AcDbSymbolTableRecord
100
AcDbTextStyleTableRecord
2
DWGDirectTextStyle
3
simplex
70
0
71
0
40
0
41
1
42
0
50
0
0
ENDTAB
0
TABLE
2
DIMSTYLE
5
20b
100
AcDbSymbolTable
100
AcDbDimStyleTable
0
DIMSTYLE
105
27
100
AcDbSymbolTableRecord
100
AcDbDimStyleTableRecord
2
Standard
70
0
3
<>
41
0.18
42
0.0625
44
0.18
140
0.18
147
0.09
73
0
74
0
77
1
271
2
275
0
278
52
280
0
340
11
0
ENDTAB
0
TABLE
2
VIEW
5
20c
100
AcDbSymbolTable
0
ENDTAB
0
TABLE
2
UCS
5
20d
100
AcDbSymbolTable
0
ENDTAB
0
TABLE
2
APPID
5
20e
100
AcDbSymbolTable
0
APPID
5
12
100
AcDbSymbolTableRecord
100
AcDbRegAppTableRecord
2
ACAD
70
0
0
ENDTAB
0
TABLE
2
BLOCK_RECORD
5
20f
100
AcDbSymbolTable
0
BLOCK_RECORD
5
1F
100
AcDbSymbolTableRecord
100
AcDbBlockTableRecord
2
*Model_Space
340
0
70
0
0
BLOCK_RECORD
5
1B
100
AcDbSymbolTableRecord
100
AcDbBlockTableRecord
2
*Paper_Space
340
0
70
0
0
BLOCK_RECORD
5
23
100
AcDbSymbolTableRecord
100
AcDbBlockTableRecord
2
*Paper_Space0
340
0
70
0
0
BLOCK_RECORD
5
159
100
AcDbSymbolTableRecord
100
AcDbBlockTableRecord
2
DimnDraft3D11
340
0
70
0
0
BLOCK_RECORD
5
168
100
AcDbSymbolTableRecord
100
AcDbBlockTableRecord
2
DimnDraft3D2
340
0
70
0
0
BLOCK_RECORD
5
177
100
AcDbSymbolTableRecord
100
AcDbBlockTableRecord
2
_CLOSED
340
0
70
0
0
BLOCK_RECORD
5
17E
100
AcDbSymbolTableRecord
100
AcDbBlockTableRecord
2
DimnDraft3D3
340
0
70
0
0
BLOCK_RECORD
5
18C
100
AcDbSymbolTableRecord
100
AcDbBlockTableRecord
2
DimnDraft3D4
340
0
70
0
0
ENDTAB
0
ENDSEC
0
SECTION
2
BLOCKS
0
BLOCK
5
20
100
AcDbEntity
8
0
100
AcDbBlockBegin
2
*Model_Space
70
0
10
0
20
0
30
0
3
*Model_Space
0
ENDBLK
5
21
100
AcDbEntity
8
0
100
AcDbBlockEnd
0
BLOCK
5
1C
100
AcDbEntity
8
0
100
AcDbBlockBegin
2
*Paper_Space
70
0
10
0
20
0
30
0
3
*Paper_Space
0
ENDBLK
5
1D
100
AcDbEntity
8
0
100
AcDbBlockEnd
0
BLOCK
5
24
100
AcDbEntity
8
0
100
AcDbBlockBegin
2
*Paper_Space0
70
0
10
0
20
0
30
0
3
*Paper_Space0
0
ENDBLK
5
25
100
AcDbEntity
8
0
100
AcDbBlockEnd
0
BLOCK
5
15A
100
AcDbEntity
8
0
100
AcDbBlockBegin
2
DimnDraft3D11
70
0
10
0
20
0
30
0
3
DimnDraft3D11
0
LINE
5
15C
100
AcDbEntity
8
2
62
256
6
ByLayer
370
25
48
1
60
0
100
AcDbLine
10
51.5875
20
0
30
0
11
82.425
21
0
31
0
39
0
210
0
220
0
230
1
0
LINE
5
15E
100
AcDbEntity
8
2
62
256
6
ByLayer
370
25
48
1
60
0
100
AcDbLine
10
66.5875
20
0.4932
30
0
11
82.425
21
0.4932
31
0
39
0
210
0
220
0
230
1
0
LINE
5
15F
100
AcDbEntity
8
2
62
256
6
ByLayer
370
25
48
1
60
0
100
AcDbLine
10
79.25
20
18.8057
30
0
11
79.25
21
-11.25
31
0
39
0
210
0
220
0
230
1
0
LINE
5
160
100
AcDbEntity
8
2
62
256
6
ByLayer
370
25
48
1
60
0
100
AcDbLine
10
79.25
20
0
30
0
11
80.100739
21
-3.174997
31
0
39
0
210
0
220
0
230
1
0
LINE
5
161
100
AcDbEntity
8
2
62
256
6
ByLayer
370
25
48
1
60
0
100
AcDbLine
10
79.25
20
0
30
0
11
78.399261
21
-3.175003
31
0
39
0
210
0
220
0
230
1
0
LINE
5
162
100
AcDbEntity
8
2
62
256
6
ByLayer
370
25
48
1
60
0
100
AcDbLine
10
80.100739
20
-3.174997
30
0
11
78.399261
21
-3.175003
31
0
39
0
210
0
220
0
230
1
0
LINE
5
163
100
AcDbEntity
8
2
62
256
6
ByLayer
370
25
48
1
60
0
100
AcDbLine
10
79.25
20
0.4932
30
0
11
78.399261
21
3.668197
31
0
39
0
210
0
220
0
230
1
0
LINE
5
164
100
AcDbEntity
8
2
62
256
6
ByLayer
370
25
48
1
60
0
100
AcDbLine
10
79.25
20
0.4932
30
0
11
80.100739
21
3.668203
31
0
39
0
210
0
220
0
230
1
0
LINE
5
165
100
AcDbEntity
8
2
62
256
6
ByLayer
370
25
48
1
60
0
100
AcDbLine
10
78.399261
20
3.668197
30
0
11
80.100739
21
3.668203
31
0
39
0
210
0
220
0
230
1
0
MTEXT
5
166
100
AcDbEntity
8
2
62
256
6
ByLayer
370
13
48
1
60
0
100
AcDbMText
10
78.125
20
12.7307
30
0
210
0
220
0
230
1
1
\W0.7121;0.5
40
4.5
41
0
44
1.084337
50
90
71
7
72
5
7
iso_b_vert
0
ENDBLK
5
15B
100
AcDbEntity
8
0
100
AcDbBlockEnd
0
BLOCK
5
174
100
AcDbEntity
8
0
100
AcDbBlockBegin
2
DimnDraft3D2
70
0
10
0
20
0
30
0
3
DimnDraft3D2
0
MTEXT
5
169
100
AcDbEntity
8
SK2
62
256
6
ByLayer
370
13
48
1
60
0
100
AcDbMText
10
-48.875
20
-1.563158
30
0
210
0
220
0
230
1
1
\W0.6740;63
40
4.5
41
0
44
1.084337
50
90
71
7
72
5
7
iso_b_vert
0
LINE
5
16B
100
AcDbEntity
8
SK2
62
256
6
ByLayer
370
13
48
1
60
0
100
AcDbLine
10
-1.5875
20
31.5
30
0
11
-50.925
21
31.5
31
0
39
0
210
0
220
0
230
1
0
LINE
5
16C
100
AcDbEntity
8
SK2
62
256
6
ByLayer
370
13
48
1
60
0
100
AcDbLine
10
-1.5875
20
-31.5
30
0
11
-50.925
21
-31.5
31
0
39
0
210
0
220
0
230
1
0
LINE
5
16D
100
AcDbEntity
8
SK2
62
256
6
ByLayer
370
13
48
1
60
0
100
AcDbLine
10
-47.75
20
31.5
30
0
11
-47.75
21
-31.5
31
0
39
0
210
0
220
0
230
1
0
LINE
5
16E
100
AcDbEntity
8
SK2
62
256
6
ByLayer
370
13
48
1
60
0
100
AcDbLine
10
-47.75
20
31.5
30
0
11
-46.899261
21
28.325003
31
0
39
0
210
0
220
0
230
1
0
LINE
5
16F
100
AcDbEntity
8
SK2
62
256
6
ByLayer
370
13
48
1
60
0
100
AcDbLine
10
-47.75
20
31.5
30
0
11
-48.600739
21
28.324997
31
0
39
0
210
0
220
0
230
1
0
LINE
5
170
100
AcDbEntity
8
SK2
62
256
6
ByLayer
370
13
48
1
60
0
100
AcDbLine
10
-46.899261
20
28.325003
30
0
11
-48.600739
21
28.324997
31
0
39
0
210
0
220
0
230
1
0
LINE
5
171
100
AcDbEntity
8
SK2
62
256
6
ByLayer
370
13
48
1
60
0
100
AcDbLine
10
-47.75
20
-31.5
30
0
11
-48.600739
21
-28.325003
31
0
39
0
210
0
220
0
230
1
0
LINE
5
172
100
AcDbEntity
8
SK2
62
256
6
ByLayer
370
13
48
1
60
0
100
AcDbLine
10
-47.75
20
-31.5
30
0
11
-46.899261
21
-28.324997
31
0
39
0
210
0
220
0
230
1
0
LINE
5
173
100
AcDbEntity
8
SK2
62
256
6
ByLayer
370
13
48
1
60
0
100
AcDbLine
10
-48.600739
20
-28.325003
30
0
11
-46.899261
21
-28.324997
31
0
39
0
210
0
220
0
230
1
0
ENDBLK
5
175
100
AcDbEntity
8
0
100
AcDbBlockEnd
0
BLOCK
5
178
100
AcDbEntity
8
0
100
AcDbBlockBegin
2
_CLOSED
70
0
10
0
20
0
30
0
3
_CLOSED
0
LINE
5
17A
100
AcDbEntity
8
0
62
256
6
ByLayer
370
-2
48
1
60
0
100
AcDbLine
10
-1
20
0.166667
30
0
11
0
21
0
31
0
39
0
210
0
220
0
230
1
0
LINE
5
17B
100
AcDbEntity
8
0
62
256
6
ByLayer
370
-2
48
1
60
0
100
AcDbLine
10
0
20
0
30
0
11
-1
21
-0.166667
31
0
39
0
210
0
220
0
230
1
0
LINE
5
17C
100
AcDbEntity
8
0
62
256
6
ByLayer
370
-2
48
1
60
0
100
AcDbLine
10
-1
20
0.166667
30
0
11
-1
21
-0.166667
31
0
39
0
210
0
220
0
230
1
0
LINE
5
17D
100
AcDbEntity
8
0
62
256
6
ByLayer
370
-2
48
1
60
0
100
AcDbLine
10
0
20
0
30
0
11
-1
21
0
31
0
39
0
210
0
220
0
230
1
0
ENDBLK
5
179
100
AcDbEntity
8
0
100
AcDbBlockEnd
0
BLOCK
5
189
100
AcDbEntity
8
0
100
AcDbBlockBegin
2
DimnDraft3D3
70
0
10
0
20
0
30
0
3
DimnDraft3D3
0
MTEXT
5
17F
100
AcDbEntity
8
2
62
256
6
ByLayer
370
13
48
1
60
0
100
AcDbMText
10
30.936842
20
50.125
30
0
210
0
220
0
230
1
1
\W0.6740;65
40
4.5
41
0
44
1.084337
50
0
71
7
72
5
7
iso_b_vert
0
LINE
5
180
100
AcDbEntity
8
2
62
256
6
ByLayer
370
13
48
1
60
0
100
AcDbLine
10
65
20
2.0807
30
0
11
65
21
52.175
31
0
39
0
210
0
220
0
230
1
0
LINE
5
181
100
AcDbEntity
8
2
62
256
6
ByLayer
370
13
48
1
60
0
100
AcDbLine
10
0
20
33.0875
30
0
11
0
21
52.175
31
0
39
0
210
0
220
0
230
1
0
LINE
5
182
100
AcDbEntity
8
2
62
256
6
ByLayer
370
13
48
1
60
0
100
AcDbLine
10
65
20
49
30
0
11
0
21
49
31
0
39
0
210
0
220
0
230
1
0
LINE
5
183
100
AcDbEntity
8
2
62
256
6
ByLayer
370
13
48
1
60
0
100
AcDbLine
10
65
20
49
30
0
11
61.825003
21
48.149261
31
0
39
0
210
0
220
0
230
1
0
LINE
5
184
100
AcDbEntity
8
2
62
256
6
ByLayer
370
13
48
1
60
0
100
AcDbLine
10
65
20
49
30
0
11
61.824997
21
49.850739
31
0
39
0
210
0
220
0
230
1
0
LINE
5
185
100
AcDbEntity
8
2
62
256
6
ByLayer
370
13
48
1
60
0
100
AcDbLine
10
61.825003
20
48.149261
30
0
11
61.824997
21
49.850739
31
0
39
0
210
0
220
0
230
1
0
LINE
5
186
100
AcDbEntity
8
2
62
256
6
ByLayer
370
13
48
1
60
0
100
AcDbLine
10
0
20
49
30
0
11
3.174997
21
49.850739
31
0
39
0
210
0
220
0
230
1
0
LINE
5
187
100
AcDbEntity
8
2
62
256
6
ByLayer
370
13
48
1
60
0
100
AcDbLine
10
0
20
49
30
0
11
3.175003
21
48.149261
31
0
39
0
210
0
220
0
230
1
0
LINE
5
188
100
AcDbEntity
8
2
62
256
6
ByLayer
370
13
48
1
60
0
100
AcDbLine
10
3.174997
20
49.850739
30
0
11
3.175003
21
48.149261
31
0
39
0
210
0
220
0
230
1
0
ENDBLK
5
18A
100
AcDbEntity
8
0
100
AcDbBlockEnd
0
BLOCK
5
197
100
AcDbEntity
8
0
100
AcDbBlockBegin
2
DimnDraft3D4
70
0
10
0
20
0
30
0
3
DimnDraft3D4
0
MTEXT
5
18D
100
AcDbEntity
8
2
62
256
6
ByLayer
370
13
48
1
60
0
100
AcDbMText
10
46.974776
20
28.404778
30
0
210
0
220
0
230
1
1
\W0.8602;45%%d0'
40
4.5
41
0
44
1.084337
50
22.5
71
7
72
5
7
iso_b_vert
0
LINE
5
18E
100
AcDbEntity
8
2
62
256
6
ByLayer
370
13
48
1
60
0
100
AcDbLine
10
65
20
2.0807
30
0
11
65
21
35.175
31
0
39
0
210
0
220
0
230
1
0
LINE
5
18F
100
AcDbEntity
8
2
62
256
6
ByLayer
370
13
48
1
60
0
100
AcDbLine
10
50.093713
20
14.702035
30
0
11
39.983091
21
24.812657
31
0
39
0
210
0
220
0
230
1
0
ARC
5
190
100
AcDbEntity
8
2
62
256
6
ByLayer
370
13
48
1
60
0
100
AcDbCircle
39
0
10
65
20
-0.204252
30
0
40
32.2042519772995
210
0
220
0
230
1
100
AcDbArc
50
90
51
135
0
LINE
5
191
100
AcDbEntity
8
2
62
256
6
ByLayer
370
13
48
1
60
0
100
AcDbLine
10
65
20
32
30
0
11
61.846915
21
31.071335
31
0
39
0
210
0
220
0
230
1
0
LINE
5
192
100
AcDbEntity
8
2
62
256
6
ByLayer
370
13
48
1
60
0
100
AcDbLine
10
65
20
32
30
0
11
61.80501
21
32.772296
31
0
39
0
210
0
220
0
230
1
0
LINE
5
193
100
AcDbEntity
8
2
62
256
6
ByLayer
370
13
48
1
60
0
100
AcDbLine
10
61.846915
20
31.071335
30
0
11
61.80501
21
32.772296
31
0
39
0
210
0
220
0
230
1
0
LINE
5
194
100
AcDbEntity
8
2
62
256
6
ByLayer
370
13
48
1
60
0
100
AcDbLine
10
42.228155
20
22.567593
30
0
11
43.941253
21
25.372884
31
0
39
0
210
0
220
0
230
1
0
LINE
5
195
100
AcDbEntity
8
2
62
256
6
ByLayer
370
13
48
1
60
0
100
AcDbLine
10
42.228155
20
22.567593
30
0
11
45.114392
21
24.1405
31
0
39
0
210
0
220
0
230
1
0
LINE
5
196
100
AcDbEntity
8
2
62
256
6
ByLayer
370
13
48
1
60
0
100
AcDbLine
10
43.941253
20
25.372884
30
0
11
45.114392
21
24.1405
31
0
39
0
210
0
220
0
230
1
0
ENDBLK
5
198
100
AcDbEntity
8
0
100
AcDbBlockEnd
0
ENDSEC
0
SECTION
2
ENTITIES
0
ARC
5
D2
100
AcDbEntity
8
1
62
256
6
ByLayer
370
18
48
1
60
0
100
AcDbCircle
39
0
10
-22.186138
20
32.3
30
0
40
0.8
210
0
220
0
230
-1
100
AcDbArc
50
234.766904
51
270
0
ARC
5
D3
100
AcDbEntity
8
1
62
256
6
ByLayer
370
18
48
1
60
0
100
AcDbCircle
39
0
10
-22.186138
20
-32.3
30
0
40
0.8
210
0
220
0
230
-1
100
AcDbArc
50
90
51
125.192531
0
ARC
5
D4
100
AcDbEntity
8
SK1
62
256
6
ByLayer
370
18
48
1
60
0
100
AcDbCircle
39
0
10
0.6
20
-23.45
30
0
40
0.999999999999999
210
0
220
0
230
-1
100
AcDbArc
50
113.578178
51
126.869898
0
ARC
5
D5
100
AcDbEntity
8
SK1
62
256
6
ByLayer
370
18
48
1
60
0
100
AcDbCircle
39
0
10
0.6
20
23.45
30
0
40
0.999999999999999
210
0
220
0
230
-1
100
AcDbArc
50
233.130102
51
246.421822
0
ELLIPSE
5
D6
100
AcDbEntity
8
1
62
256
6
ByLayer
370
18
48
1
60
0
100
AcDbEllipse
10
19.354207
20
0
30
0
11
-2.90844009007858E-16
21
4.74999999959242
31
0
210
0
220
0
230
-1
40
0.091641
41
-1.75133087287228
42
-1.39026178071751
0
ELLIPSE
5
D7
100
AcDbEntity
8
1
62
256
6
ByLayer
370
18
48
1
60
0
100
AcDbEllipse
10
81.382515
20
-3.35
30
0
11
58.6781874005836
21
-34.9249151750506
31
0
210
0
220
0
230
-1
40
0.039049
41
-3.07608216782174
42
-2.91707672334884
0
ELLIPSE
5
D8
100
AcDbEntity
8
1
62
256
6
ByLayer
370
18
48
1
60
0
100
AcDbEllipse
10
34.881085
20
7.384818
30
0
11
-8.26609288830105E-16
21
-4.5
31
0
210
0
220
0
230
1
40
0.989133
41
0
42
6.28318530717959
0
ELLIPSE
5
D9
100
AcDbEntity
8
1
62
256
6
ByLayer
370
18
48
1
60
0
100
AcDbEllipse
10
-2.347154
20
0
30
0
11
14.7536831606562
21
31.0932549155811
31
0
210
0
220
0
230
-1
40
0.341999
41
0.157806186645431
42
1.09123958575283
0
ELLIPSE
5
DA
100
AcDbEntity
8
1
62
256
6
ByLayer
370
18
48
1
60
0
100
AcDbEllipse
10
25.540941
20
30.916958
30
0
11
3.99690109444624
21
-2.40682918388751
31
0
210
0
220
0
230
-1
40
0.065406
41
1.67898946425474
42
1.79970676281182
0
ELLIPSE
5
DB
100
AcDbEntity
8
1
62
256
6
ByLayer
370
18
48
1
60
0
100
AcDbEllipse
10
25.540941
20
-30.916958
30
0
11
3.99690105477162
21
2.40682916113452
31
0
210
0
220
0
230
-1
40
0.065406
41
-1.79970676177249
42
-1.67898946206381
0
ELLIPSE
5
DC
100
AcDbEntity
8
1
62
256
6
ByLayer
370
18
48
1
60
0
100
AcDbEllipse
10
39.313701
20
-2.637508
30
0
11
-4.92869297027733E-16
21
-2.68314410035701
31
0
210
0
220
0
230
1
40
0.989133
41
0.374585655529467
42
0.78539816339745
0
ELLIPSE
5
DD
100
AcDbEntity
8
1
62
256
6
ByLayer
370
18
48
1
60
0
100
AcDbEllipse
10
26.347154
20
0
30
0
11
14.7536831606555
21
-31.0932549155802
31
0
210
0
220
0
230
-1
40
0.341999
41
2.05035306783694
42
2.98378646694436
0
ELLIPSE
5
DE
100
AcDbEntity
8
1
62
256
6
ByLayer
370
18
48
1
60
0
100
AcDbEllipse
10
39.291391
20
-2.637508
30
0
11
1.55105839804781E-16
21
2.53315425517184
31
0
210
0
220
0
230
1
40
0.989133
41
-2.84441766305196
42
-2.35619449019235
0
ELLIPSE
5
DF
100
AcDbEntity
8
1
62
256
6
ByLayer
370
18
48
1
60
0
100
AcDbEllipse
10
81.382515
20
3.35
30
0
11
58.6781874005811
21
34.9249151750491
31
0
210
0
220
0
230
-1
40
0.039049
41
2.91707672334882
42
3.07608216782182
0
ELLIPSE
5
E0
100
AcDbEntity
8
1
62
256
6
ByLayer
370
18
48
1
60
0
100
AcDbEllipse
10
40.333367
20
-1.832514
30
0
11
-4.42982855770104E-16
21
-2.41156599363497
31
0
210
0
220
0
230
1
40
0.989133
41
-2.35619449019235
42
-0.957616467970046
0
ELLIPSE
5
E1
100
AcDbEntity
8
1
62
256
6
ByLayer
370
18
48
1
60
0
100
AcDbEllipse
10
41.08519
20
-4.428719
30
0
11
0.10664388761268
21
-0.105484981086665
31
0
210
0
220
0
230
1
40
0.103962
41
-1.675515662622
42
-0.093083225703928
0
ELLIPSE
5
E2
100
AcDbEntity
8
1
62
256
6
ByLayer
370
18
48
1
60
0
100
AcDbEllipse
10
48.73699
20
5.194867
30
0
11
2.2042914368803E-16
21
3.60000000000003
31
0
210
0
220
0
230
1
40
0.989133
41
0.495711169400319
42
0.785398163397445
0
ELLIPSE
5
E3
100
AcDbEntity
8
1
62
256
6
ByLayer
370
18
48
1
60
0
100
AcDbEllipse
10
19.354207
20
0
30
0
11
-3.36766747301154E-16
21
5.5
31
0
210
0
220
0
230
-1
40
0.091641
41
1.94294128915999
42
-2.12636542869371
0
ELLIPSE
5
E4
100
AcDbEntity
8
1
62
256
6
ByLayer
370
18
48
1
60
0
100
AcDbEllipse
10
19.354207
20
0
30
0
11
-3.36766747301154E-16
21
5.5
31
0
210
0
220
0
230
-1
40
0.091641
41
-1.01522722489609
42
1.19865136442984
0
ELLIPSE
5
E5
100
AcDbEntity
8
1
62
256
6
ByLayer
370
18
48
1
60
0
100
AcDbEllipse
10
26.347154
20
0
30
0
11
14.7536831606553
21
31.0932549155799
31
0
210
0
220
0
230
-1
40
0.341999
41
-2.98378646694436
42
-2.05035306783694
0
ELLIPSE
5
E6
100
AcDbEntity
8
1
62
256
6
ByLayer
370
18
48
1
60
0
100
AcDbEllipse
10
46.258723
20
2.689373
30
0
11
2.20429143688028E-16
21
3.6
31
0
210
0
220
0
230
1
40
0.989133
41
0.785398163397445
42
1.07508515739456
0
ELLIPSE
5
E7
100
AcDbEntity
8
1
62
256
6
ByLayer
370
18
48
1
60
0
100
AcDbEllipse
10
20.724932
20
0
30
0
11
-1.92875500727024E-15
21
31.5
31
0
210
0
220
0
230
-1
40
0.087489
41
-2.8301912695157
42
-0.311401384074093
0
ELLIPSE
5
E8
100
AcDbEntity
8
1
62
256
6
ByLayer
370
18
48
1
60
0
100
AcDbEllipse
10
-2.347154
20
0
30
0
11
14.7536831606569
21
-31.0932549155819
31
0
210
0
220
0
230
-1
40
0.341999
41
-1.09123958575281
42
-0.15780618664543
0
ELLIPSE
5
E9
100
AcDbEntity
8
1
62
256
6
ByLayer
370
18
48
1
60
0
100
AcDbEllipse
10
40.849845
20
-2.637508
30
0
11
-4.70535686431439E-16
21
-2.56156157153549
31
0
210
0
220
0
230
1
40
0.989133
41
-1.3412721250914
42
0.785398163397448
0
ELLIPSE
5
EA
100
AcDbEntity
8
1
62
256
6
ByLayer
370
18
48
1
60
0
100
AcDbEllipse
10
41.906024
20
-4.207561
30
0
11
0.106515107698104
21
0.105616057184044
31
0
210
0
220
0
230
-1
40
0.092451
41
3.0254022525709
42
-1.67535119946939
0
ELLIPSE
5
EB
100
AcDbEntity
8
1
62
256
6
ByLayer
370
18
48
1
60
0
100
AcDbEllipse
10
51.34564
20
0.644353
30
0
11
2.44921270764475E-16
21
4
31
0
210
0
220
0
230
1
40
0.989133
41
2.64726013741305
42
3.14159091512491
0
ELLIPSE
5
EC
100
AcDbEntity
8
1
62
256
6
ByLayer
370
18
48
1
60
0
100
AcDbEllipse
10
50.804561
20
-0.644353
30
0
11
-7.34763812293426E-16
21
-4
31
0
210
0
220
0
230
1
40
0.989133
41
3.1415851321629
42
-2.91912598296282
0
ELLIPSE
5
ED
100
AcDbEntity
8
1
62
256
6
ByLayer
370
18
48
1
60
0
100
AcDbEllipse
10
51.128411
20
-0.136756
30
0
11
2.29613691341695E-16
21
3.74999999999999
31
0
210
0
220
0
230
1
40
0.989133
41
4.28092223465987E-05
42
0.196224761084439
0
ELLIPSE
5
EE
100
AcDbEntity
8
1
62
256
6
ByLayer
370
18
48
1
60
0
100
AcDbEllipse
10
49.266706
20
0
30
0
11
-7.80686550561764E-16
21
-4.24999999999999
31
0
210
0
220
0
230
1
40
0.989133
41
0.454952813238526
42
0.473409711793226
0
ELLIPSE
5
EF
100
AcDbEntity
8
1
62
256
6
ByLayer
370
18
48
1
60
0
100
AcDbEllipse
10
17.874835
20
0
30
0
11
2.90517755958674E-16
21
4.74467170698368
31
0
210
0
220
0
230
1
40
0.224951
41
-1.74696791110643
42
-1.69759346034957
0
ELLIPSE
5
F0
100
AcDbEntity
8
1
62
256
6
ByLayer
370
18
48
1
60
0
100
AcDbEllipse
10
17.874835
20
0
30
0
11
2.90517755958674E-16
21
4.74467170698368
31
0
210
0
220
0
230
1
40
0.224951
41
-1.44399919324022
42
-1.39462474248336
0
ELLIPSE
5
F1
100
AcDbEntity
8
1
62
256
6
ByLayer
370
18
48
1
60
0
100
AcDbEllipse
10
18.707054
20
0
30
0
11
-3.37126925640514E-16
21
-1.83529411764706
31
0
210
0
220
0
230
1
40
0.224951
41
0.559007302510376
42
2.58268370108737
0
ELLIPSE
5
F2
100
AcDbEntity
8
1
62
256
6
ByLayer
370
18
48
1
60
0
100
AcDbEllipse
10
19.045289
20
0
30
0
11
-3.1842710054132E-16
21
-1.73349364905389
31
0
210
0
220
0
230
1
40
0.224951
41
0
42
-3.00797736027899
0
ELLIPSE
5
F3
100
AcDbEntity
8
1
62
256
6
ByLayer
370
18
48
1
60
0
100
AcDbEllipse
10
19.045289
20
0
30
0
11
-3.1842710054132E-16
21
-1.73349364905389
31
0
210
0
220
0
230
1
40
0.224951
41
-0.133713532289925
42
-1.08877609241335E-15
0
ELLIPSE
5
F4
100
AcDbEntity
8
1
62
256
6
ByLayer
370
18
48
1
60
0
100
AcDbEllipse
10
19.495061
20
0
30
0
11
1.22460635382238E-16
21
2
31
0
210
0
220
0
230
1
40
0.224951
41
3.00797747076638
42
-1.08877609241335E-15
0
ELLIPSE
5
F5
100
AcDbEntity
8
1
62
256
6
ByLayer
370
18
48
1
60
0
100
AcDbEllipse
10
19.495061
20
0
30
0
11
1.22460635382238E-16
21
2
31
0
210
0
220
0
230
1
40
0.224951
41
0
42
0.13371400321277
0
ELLIPSE
5
F6
100
AcDbEntity
8
1
62
256
6
ByLayer
370
18
48
1
60
0
100
AcDbEllipse
10
22.321958
20
0
30
0
11
-3.67381906146713E-16
21
-2
31
0
210
0
220
0
230
1
40
0.224951
41
0
42
3.1415919089491
0
ELLIPSE
5
F7
100
AcDbEntity
8
1
62
256
6
ByLayer
370
18
48
1
60
0
100
AcDbEllipse
10
22.516832
20
0
30
0
11
1.10214571844014E-16
21
1.8
31
0
210
0
220
0
230
1
40
0.224951
41
-2.90862318725882
42
-0.233066200182572
0
ELLIPSE
5
F8
100
AcDbEntity
8
1
62
256
6
ByLayer
370
18
48
1
60
0
100
AcDbEllipse
10
49.605596
20
0
30
0
11
2.54718121595054E-16
21
4.16
31
0
210
0
220
0
230
1
40
0.989133
41
-2.74594127925962
42
-2.69753460591426
0
ELLIPSE
5
F9
100
AcDbEntity
8
1
62
256
6
ByLayer
370
18
48
1
60
0
100
AcDbEllipse
10
34.000301
20
7.384818
30
0
11
-3.80240272861848E-16
21
-2.07
31
0
210
0
220
0
230
1
40
0.989133
41
0.205479653204102
42
1.57079602590275
0
ELLIPSE
5
FA
100
AcDbEntity
8
1
62
256
6
ByLayer
370
18
48
1
60
0
100
AcDbEllipse
10
34.000301
20
7.384818
30
0
11
-3.80240272861848E-16
21
-2.07
31
0
210
0
220
0
230
1
40
0.989133
41
1.57079650899454
42
3.04273064270953
0
ELLIPSE
5
FB
100
AcDbEntity
8
1
62
256
6
ByLayer
370
18
48
1
60
0
100
AcDbEllipse
10
34.17673
20
7.384818
30
0
11
1.26746757620616E-16
21
2.07
31
0
210
0
220
0
230
1
40
0.989133
41
-0.180084448778746
42
4.11135665928807E-06
0
ELLIPSE
5
FC
100
AcDbEntity
8
1
62
256
6
ByLayer
370
18
48
1
60
0
100
AcDbEllipse
10
34.17673
20
7.384818
30
0
11
1.26746757620616E-16
21
2.07
31
0
210
0
220
0
230
1
40
0.989133
41
-2.98103266540291
42
-2.71716210953183
0
ELLIPSE
5
FD
100
AcDbEntity
8
1
62
256
6
ByLayer
370
18
48
1
60
0
100
AcDbEllipse
10
39.57171
20
0
30
0
11
-2.18707041002965E-16
21
-1.190625
31
0
210
0
220
0
230
1
40
0.989133
41
-1.26758354776597
42
-0.785398163397444
0
ELLIPSE
5
FE
100
AcDbEntity
8
1
62
256
6
ByLayer
370
18
48
1
60
0
100
AcDbEllipse
10
51.230211
20
0
30
0
11
2.42625133851059E-16
21
3.9625
31
0
210
0
220
0
230
1
40
0.989133
41
-3.02211407194416
42
-2.45319117007945
0
ELLIPSE
5
FF
100
AcDbEntity
8
1
62
256
6
ByLayer
370
18
48
1
60
0
100
AcDbEllipse
10
51.230211
20
0
30
0
11
2.42625133851059E-16
21
3.9625
31
0
210
0
220
0
230
1
40
0.989133
41
-1.00177547056734
42
-0.119478687466742
0
ELLIPSE
5
100
100
AcDbEntity
8
1
62
256
6
ByLayer
370
18
48
1
60
0
100
AcDbEllipse
10
52.030756
20
0
30
0
11
1.98998532496136E-16
21
3.25
31
0
210
0
220
0
230
1
40
0.989133
41
0.903046606610565
42
1.43569459106182
0
ELLIPSE
5
101
100
AcDbEntity
8
1
62
256
6
ByLayer
370
18
48
1
60
0
100
AcDbEllipse
10
51.760217
20
-0.644353
30
0
11
2.14306111918916E-16
21
3.5
31
0
210
0
220
0
230
1
40
0.989133
41
-1.51173134510671
42
0.708879889189367
0
ELLIPSE
5
102
100
AcDbEntity
8
1
62
256
6
ByLayer
370
18
48
1
60
0
100
AcDbEllipse
10
51.957244
20
0
30
0
11
-6.88841074025087E-16
21
-3.75
31
0
210
0
220
0
230
1
40
0.989133
41
-2.2515547661198
42
-1.69288934338739
0
ELLIPSE
5
103
100
AcDbEntity
8
1
62
256
6
ByLayer
370
18
48
1
60
0
100
AcDbEllipse
10
52.227784
20
0.644353
30
0
11
-7.34763812293426E-16
21
-4
31
0
210
0
220
0
230
1
40
0.989133
41
-1.52386879464663
42
0.721017338729193
0
ELLIPSE
5
104
100
AcDbEntity
8
1
62
256
6
ByLayer
370
18
48
1
60
0
100
AcDbEllipse
10
51.686705
20
-0.644353
30
0
11
-7.34763812293426E-16
21
-4
31
0
210
0
220
0
230
1
40
0.989133
41
1.61772385894321
42
-2.42057531486055
0
ELLIPSE
5
105
100
AcDbEntity
8
1
62
256
6
ByLayer
370
18
48
1
60
0
100
AcDbEllipse
10
52.301296
20
0.644353
30
0
11
2.14306111918915E-16
21
3.49999999999999
31
0
210
0
220
0
230
1
40
0.989133
41
1.62986130848302
42
-2.43271276440047
0
ELLIPSE
5
106
100
AcDbEntity
8
1
62
256
6
ByLayer
370
18
48
1
60
0
100
AcDbEllipse
10
51.957244
20
0
30
0
11
-6.88841074025085E-16
21
-3.74999999999999
31
0
210
0
220
0
230
1
40
0.989133
41
0.890037887469951
42
1.44870331020245
0
ELLIPSE
5
107
100
AcDbEntity
8
1
62
256
6
ByLayer
370
18
48
1
60
0
100
AcDbEllipse
10
52.030756
20
0
30
0
11
1.98998532496136E-16
21
3.24999999999999
31
0
210
0
220
0
230
1
40
0.989133
41
-2.23854604697927
42
-1.7058980625279
0
ELLIPSE
5
108
100
AcDbEntity
8
1
62
256
6
ByLayer
370
18
48
1
60
0
100
AcDbEllipse
10
34.836132
20
7.384818
30
0
11
1.26746757620616E-16
21
2.07
31
0
210
0
220
0
230
1
40
0.989133
41
1.47162809525455
42
1.91431065361445
0
ELLIPSE
5
109
100
AcDbEntity
8
1
62
256
6
ByLayer
370
18
48
1
60
0
100
AcDbEllipse
10
34.17673
20
7.384818
30
0
11
1.26746757620616E-16
21
2.07
31
0
210
0
220
0
230
1
40
0.989133
41
-1.22728199997534
42
-0.622767007138667
0
ELLIPSE
5
10A
100
AcDbEntity
8
1
62
256
6
ByLayer
370
18
48
1
60
0
100
AcDbEllipse
10
34.836132
20
7.384818
30
0
11
1.26746757620616E-16
21
2.07
31
0
210
0
220
0
230
1
40
0.989133
41
-0.622767007138665
42
-0.180084448778743
0
ELLIPSE
5
10B
100
AcDbEntity
8
1
62
256
6
ByLayer
370
18
48
1
60
0
100
AcDbEllipse
10
34.836132
20
7.384818
30
0
11
1.26746757620616E-16
21
2.07
31
0
210
0
220
0
230
1
40
0.989133
41
-2.71716210953183
42
-2.27447955117195
0
ELLIPSE
5
10C
100
AcDbEntity
8
1
62
256
6
ByLayer
370
18
48
1
60
0
100
AcDbEllipse
10
34.836132
20
7.384818
30
0
11
1.26746757620616E-16
21
2.07
31
0
210
0
220
0
230
1
40
0.989133
41
0.424430544057951
42
0.867113102417852
0
ELLIPSE
5
10D
100
AcDbEntity
8
1
62
256
6
ByLayer
370
18
48
1
60
0
100
AcDbEllipse
10
34.836132
20
7.384818
30
0
11
1.26746757620616E-16
21
2.07
31
0
210
0
220
0
230
1
40
0.989133
41
2.51882564645115
42
2.96150820481104
0
ELLIPSE
5
10E
100
AcDbEntity
8
1
62
256
6
ByLayer
370
18
48
1
60
0
100
AcDbEllipse
10
34.836132
20
7.384818
30
0
11
1.26746757620616E-16
21
2.07
31
0
210
0
220
0
230
1
40
0.989133
41
-1.66996455833524
42
-1.22728199997534
0
ELLIPSE
5
10F
100
AcDbEntity
8
1
62
256
6
ByLayer
370
18
48
1
60
0
100
AcDbEllipse
10
34.867742
20
7.384818
30
0
11
-7.77931186265665E-16
21
-4.235
31
0
210
0
220
0
230
1
40
0.989133
41
0
42
6.28318530717959
0
ELLIPSE
5
110
100
AcDbEntity
8
1
62
256
6
ByLayer
370
18
48
1
60
0
100
AcDbEllipse
10
34.17673
20
7.384818
30
0
11
1.26746757620616E-16
21
2.07
31
0
210
0
220
0
230
1
40
0.989133
41
-2.27447955117195
42
-1.66996455833524
0
ELLIPSE
5
111
100
AcDbEntity
8
1
62
256
6
ByLayer
370
18
48
1
60
0
100
AcDbEllipse
10
34.867742
20
7.384818
30
0
11
-4.48645116538816E-16
21
-2.44239092362731
31
0
210
0
220
0
230
1
40
0.989133
41
0
42
6.28318530717959
0
ELLIPSE
5
112
100
AcDbEntity
8
1
62
256
6
ByLayer
370
18
48
1
60
0
100
AcDbEllipse
10
52.163813
20
11.786586
30
0
11
7.29023470009884E-17
21
1.190625
31
0
210
0
220
0
230
1
40
0.989133
41
-0.785398163397445
42
0.785398163397445
0
ELLIPSE
5
113
100
AcDbEntity
8
1
62
256
6
ByLayer
370
18
48
1
60
0
100
AcDbEllipse
10
40.505313
20
0
30
0
11
7.29023470009884E-17
21
1.190625
31
0
210
0
220
0
230
1
40
0.989133
41
0.785398163397444
42
2.35619449019235
0
ELLIPSE
5
114
100
AcDbEntity
8
1
62
256
6
ByLayer
370
18
48
1
60
0
100
AcDbEllipse
10
52.163813
20
0
30
0
11
2.42625133851059E-16
21
3.9625
31
0
210
0
220
0
230
1
40
0.989133
41
0
42
6.28318530717959
0
ELLIPSE
5
115
100
AcDbEntity
8
1
62
256
6
ByLayer
370
18
48
1
60
0
100
AcDbEllipse
10
52.163813
20
-11.786586
30
0
11
7.29023470009884E-17
21
1.190625
31
0
210
0
220
0
230
1
40
0.989133
41
2.35619449019235
42
-2.35619449019235
0
ELLIPSE
5
116
100
AcDbEntity
8
1
62
256
6
ByLayer
370
18
48
1
60
0
100
AcDbEllipse
10
63.822314
20
0
30
0
11
7.29023470009884E-17
21
1.190625
31
0
210
0
220
0
230
1
40
0.989133
41
-2.35619449019235
42
-0.785398163397452
0
POINT
5
6C
100
AcDbEntity
8
80
62
256
6
ByLayer
370
18
48
1
60
0
100
AcDbPoint
10
0
20
0
30
0
39
0
210
0
220
0
230
1
50
360
0
POINT
5
6E
100
AcDbEntity
8
81
62
256
6
ByLayer
370
18
48
1
60
0
100
AcDbPoint
10
65
20
0.4932
30
0
39
0
210
0
220
0
230
1
50
360
0
POINT
5
70
100
AcDbEntity
8
1
62
256
6
ByLayer
370
18
48
1
60
0
100
AcDbPoint
10
0
20
0
30
0
39
0
210
0
220
0
230
1
50
360
0
SPLINE
5
117
100
AcDbEntity
8
1
62
256
6
ByLayer
370
18
48
1
60
0
100
AcDbSpline
70
4
71
3
72
8
73
4
40
0
40
0
40
0
40
0
40
1
40
1
40
1
40
1
41
1
10
18.985820758881
20
1.71749968275819
30
0
41
1
10
18.9642231364492
20
1.7068468555548
30
0
41
1
10
18.9471794016961
20
1.69802784463161
30
0
41
1
10
18.9239688304452
20
1.69960566958449
30
0
0
SPLINE
5
118
100
AcDbEntity
8
1
62
256
6
ByLayer
370
18
48
1
60
0
100
AcDbSpline
70
4
71
2
72
6
73
3
40
0
40
0
40
0
40
1
40
1
40
1
41
1
10
18.923492936055
20
-1.7000000000001
30
0
41
1
10
18.9859340511865
20
-1.71275040758556
30
0
41
1
10
18.9879387653837
20
-1.71501894682805
30
0
0
SPLINE
5
119
100
AcDbEntity
8
SK1
62
256
6
ByLayer
370
18
48
1
60
0
100
AcDbSpline
70
4
71
2
72
6
73
3
40
0
40
0
40
0
40
1
40
1
40
1
41
1
10
-36.5
20
-21.1521177089669
30
0
41
1
10
-19.3499999999701
20
-21.5828554470541
30
0
41
1
10
-2.20000000000002
20
-22.0135928951589
30
0
0
SPLINE
5
11A
100
AcDbEntity
8
SK1
62
256
6
ByLayer
370
18
48
1
60
0
100
AcDbSpline
70
4
71
2
72
6
73
3
40
0
40
0
40
0
40
1
40
1
40
1
41
1
10
-2.20000000000002
20
22.0135927638551
30
0
41
1
10
-19.349999999987
20
21.5828539542124
30
0
41
1
10
-36.5
20
21.1521149580209
30
0
0
SPLINE
5
11B
100
AcDbEntity
8
SK1
62
256
6
ByLayer
370
18
48
1
60
0
100
AcDbSpline
70
4
71
3
72
13
73
9
40
0
40
0
40
0
40
0
40
0.239456135763629
40
0.368359721933538
40
0.499998984021004
40
0.631638415283642
40
0.760542467778091
40
1
40
1
40
1
40
1
41
1
10
-2.19999999999999
20
-22.0200986606755
30
0
41
1
10
-2.19909198642273
20
-21.9940411845603
30
0
41
1
10
-2.19103284106941
20
-21.9566686002238
30
0
41
1
10
-2.1656359220334
20
-21.9104494263859
30
0
41
1
10
-2.13886378679263
20
-21.8791678725253
30
0
41
1
10
-2.10627712749871
20
-21.8540005023229
30
0
41
1
10
-2.05884064234081
20
-21.8309566998545
30
0
41
1
10
-2.02111030873027
20
-21.8247844448325
30
0
41
1
10
-1.99503997793931
20
-21.825186084775
30
0
0
SPLINE
5
11C
100
AcDbEntity
8
SK1
62
256
6
ByLayer
370
18
48
1
60
0
100
AcDbSpline
70
4
71
3
72
13
73
9
40
0
40
0
40
0
40
0
40
0.239457532153071
40
0.368361584623267
40
0.500001015876253
40
0.631640277971336
40
0.760543864164404
40
1
40
1
40
1
40
1
41
1
10
-1.99503997793931
20
21.8251861015554
30
0
41
1
10
-2.02111030873166
20
21.8247844616134
30
0
41
1
10
-2.05884064234345
20
21.8309567166392
30
0
41
1
10
-2.10627712750079
20
21.854000519123
30
0
41
1
10
-2.13886378679459
20
21.8791678893422
30
0
41
1
10
-2.16563592203488
20
21.9104494432231
30
0
41
1
10
-2.19103284107055
20
21.9566686170919
30
0
41
1
10
-2.19909198642387
20
21.994041201451
30
0
41
1
10
-2.20000000000002
20
22.0200986775813
30
0
0
SPLINE
5
11D
100
AcDbEntity
8
SK1
62
256
6
ByLayer
370
18
48
1
60
0
100
AcDbSpline
70
4
71
2
72
6
73
3
40
0
40
0
40
0
40
1
40
1
40
1
41
1
10
-1.99503997793931
20
-21.8251812553754
30
0
41
1
10
-1.19500843340728
20
-21.8452807024746
30
0
41
1
10
-0.394976888875306
20
-21.8653801495793
30
0
0
SPLINE
5
11E
100
AcDbEntity
8
SK1
62
256
6
ByLayer
370
18
48
1
60
0
100
AcDbSpline
70
4
71
2
72
6
73
3
40
0
40
0
40
0
40
1
40
1
40
1
41
1
10
-0.394976888875306
20
21.8653802062992
30
0
41
1
10
-1.19500843340731
20
21.8452807593863
30
0
41
1
10
-1.99503997793931
20
21.8251813124779
30
0
0
SPLINE
5
11F
100
AcDbEntity
8
SK1
62
256
6
ByLayer
370
18
48
1
60
0
100
AcDbSpline
70
4
71
2
72
6
73
3
40
0
40
0
40
0
40
1
40
1
40
1
41
1
10
-38
20
-20.2894052255531
30
0
41
1
10
-37.2500000000012
20
-20.7223540793632
30
0
41
1
10
-36.5
20
-21.1553029418638
30
0
0
SPLINE
5
120
100
AcDbEntity
8
SK1
62
256
6
ByLayer
370
18
48
1
60
0
100
AcDbSpline
70
4
71
2
72
6
73
3
40
0
40
0
40
0
40
1
40
1
40
1
41
1
10
-36.5
20
21.155302724897
30
0
41
1
10
-37.2500000000012
20
20.7223538609616
30
0
41
1
10
-38
20
20.2894050057151
30
0
0
SPLINE
5
121
100
AcDbEntity
8
SK1
62
256
6
ByLayer
370
18
48
1
60
0
100
AcDbSpline
70
4
71
2
72
6
73
3
40
0
40
0
40
0
40
1
40
1
40
1
41
1
10
-0.394976888875306
20
-21.8653849865467
30
0
41
1
10
-0.265172990617032
20
-21.8689012906761
30
0
41
1
10
-0.240502439654279
20
-21.9465691723769
30
0
0
SPLINE
5
122
100
AcDbEntity
8
SK1
62
256
6
ByLayer
370
18
48
1
60
0
100
AcDbSpline
70
4
71
2
72
6
73
3
40
0
40
0
40
0
40
1
40
1
40
1
41
1
10
-0.239684768755779
20
21.9481214799356
30
0
41
1
10
-0.264174311740391
20
21.8692639605625
30
0
41
1
10
-0.394976888875306
20
21.865385003355
30
0
0
SPLINE
5
123
100
AcDbEntity
8
SK1
62
256
6
ByLayer
370
18
48
1
60
0
100
AcDbSpline
70
4
71
3
72
299
73
295
40
0
40
0
40
0
40
0
40
0.0033212306613015
40
0.0068437544619393
40
0.0103662782625771
40
0.0138888020632148
40
0.0174113258638526
40
0.0209338496644904
40
0.0244563734651282
40
0.0279788972657659
40
0.0315014210664037
40
0.0350239448670415
40
0.0385464686676793
40
0.042068992468317
40
0.0491140400695926
40
0.0526365638702304
40
0.0561590876708681
40
0.0596816114715059
40
0.0632041352721437
40
0.0702491828734192
40
0.073771706674057
40
0.0772942304746948
40
0.0808167542753325
40
0.0843392780759703
40
0.0878618018766081
40
0.0913843256772458
40
0.0984293732785214
40
0.101951897079159
40
0.105474420879797
40
0.108996944680435
40
0.112519468481072
40
0.11604199228171
40
0.119564516082348
40
0.123087039882986
40
0.126609563683624
40
0.130132087484261
40
0.133654611284899
40
0.137177135085537
40
0.140699658886175
40
0.144222182686813
40
0.14774470648745
40
0.154789754088726
40
0.158312277889364
40
0.161834801690001
40
0.165357325490639
40
0.168879849291277
40
0.175924896892552
40
0.17944742069319
40
0.182969944493828
40
0.186492468294466
40
0.190014992095104
40
0.197060039696379
40
0.200582563497017
40
0.204105087297655
40
0.207627611098292
40
0.21115013489893
40
0.218195182500206
40
0.221717706300844
40
0.225240230101481
40
0.228762753902119
40
0.232285277702757
40
0.239330325304032
40
0.24285284910467
40
0.246375372905308
40
0.249897896705946
40
0.253420420506583
40
0.260465468107859
40
0.263987991908497
40
0.267510515709134
40
0.27455556331041
40
0.278078087111048
40
0.281600610911686
40
0.285123134712323
40
0.288645658512961
40
0.292168182313599
40
0.295690706114237
40
0.299213229914874
40
0.302735753715512
40
0.30625827751615
40
0.309780801316788
40
0.313303325117426
40
0.316825848918063
40
0.323870896519339
40
0.327393420319977
40
0.330915944120614
40
0.334438467921252
40
0.33796099172189
40
0.341483515522528
40
0.345006039323165
40
0.348528563123803
40
0.352051086924441
40
0.359096134525717
40
0.366141182126992
40
0.373186229728268
40
0.376708753528905
40
0.380231277329543
40
0.383753801130181
40
0.387276324930819
40
0.390798848731457
40
0.394321372532094
40
0.397843896332732
40
0.40136642013337
40
0.404888943934008
40
0.408411467734645
40
0.411933991535283
40
0.415456515335921
40
0.418979039136559
40
0.422501562937196
40
0.426024086737834
40
0.429546610538472
40
0.43306913433911
40
0.434830396239429
40
0.436591658139748
40
0.438352920040066
40
0.440114181940385
40
0.443636705741023
40
0.447159229541661
40
0.44892049144198
40
0.450681753342299
40
0.452443015242618
40
0.454204277142936
40
0.457726800943574
40
0.459488062843893
40
0.461249324744212
40
0.463010586644531
40
0.46477184854485
40
0.466533110445169
40
0.468294372345488
40
0.470055634245806
40
0.471816896146125
40
0.473578158046444
40
0.475339419946763
40
0.477100681847082
40
0.478861943747401
40
0.48062320564772
40
0.482384467548039
40
0.484145729448357
40
0.485906991348676
40
0.487668253248995
40
0.489429515149314
40
0.491190777049633
40
0.492952038949952
40
0.494713300850271
40
0.49647456275059
40
0.498235824650909
40
0.499997086551227
40
0.501758348451546
40
0.503519610351865
40
0.505280872252184
40
0.507042134152503
40
0.508803396052822
40
0.510564657953141
40
0.51232591985346
40
0.514087181753779
40
0.515848443654098
40
0.517609705554416
40
0.519370967454735
40
0.521132229355054
40
0.522893491255373
40
0.524654753155692
40
0.526416015056011
40
0.52817727695633
40
0.529938538856649
40
0.531699800756968
40
0.533461062657286
40
0.535222324557605
40
0.536983586457924
40
0.538744848358243
40
0.540506110258562
40
0.542267372158881
40
0.545789895959519
40
0.547551157859837
40
0.549312419760156
40
0.551073681660475
40
0.552834943560794
40
0.556357467361432
40
0.55987999116207
40
0.561641253062389
40
0.563402514962707
40
0.565163776863026
40
0.566925038763345
40
0.570447562563983
40
0.573970086364621
40
0.577492610165259
40
0.581015133965896
40
0.584537657766534
40
0.588060181567172
40
0.59158270536781
40
0.595105229168447
40
0.598627752969085
40
0.602150276769723
40
0.605672800570361
40
0.609195324370999
40
0.612717848171636
40
0.616240371972274
40
0.619762895772912
40
0.62328541957355
40
0.626807943374187
40
0.633852990975463
40
0.640898038576739
40
0.647943086178014
40
0.651465609978652
40
0.65498813377929
40
0.658510657579927
40
0.662033181380565
40
0.665555705181203
40
0.669078228981841
40
0.672600752782478
40
0.676123276583116
40
0.683168324184392
40
0.68669084798503
40
0.690213371785667
40
0.693735895586305
40
0.697258419386943
40
0.700780943187581
40
0.704303466988218
40
0.707825990788856
40
0.711348514589494
40
0.714871038390132
40
0.71839356219077
40
0.721916085991407
40
0.725438609792045
40
0.728961133592683
40
0.732483657393321
40
0.736006181193958
40
0.737767443094277
40
0.739528704994596
40
0.743051228795234
40
0.746573752595872
40
0.750096276396509
40
0.751857538296828
40
0.753618800197147
40
0.757141323997785
40
0.760663847798423
40
0.767708895399698
40
0.771231419200336
40
0.774753943000974
40
0.778276466801612
40
0.781798990602249
40
0.788844038203525
40
0.792366562004163
40
0.794127823904482
40
0.795889085804801
40
0.799411609605438
40
0.802934133406076
40
0.809979181007352
40
0.813501704807989
40
0.817024228608627
40
0.820546752409265
40
0.824069276209903
40
0.831114323811178
40
0.834636847611816
40
0.836398109512135
40
0.838159371412454
40
0.841681895213092
40
0.845204419013729
40
0.852249466615005
40
0.855771990415643
40
0.85929451421628
40
0.862817038016918
40
0.866339561817556
40
0.869862085618194
40
0.873384609418832
40
0.876907133219469
40
0.880429657020107
40
0.883952180820745
40
0.887474704621383
40
0.89099722842202
40
0.894519752222658
40
0.898042276023296
40
0.901564799823934
40
0.908609847425209
40
0.912132371225847
40
0.915654895026485
40
0.919177418827123
40
0.92269994262776
40
0.926222466428398
40
0.929744990229036
40
0.936790037830311
40
0.940312561630949
40
0.943835085431587
40
0.947357609232225
40
0.950880133032863
40
0.957925180634138
40
0.964970228235414
40
0.972015275836689
40
0.975537799637327
40
0.979060323437965
40
0.982582847238602
40
0.98610537103924
40
0.989627894839878
40
0.993150418640516
40
0.996672942441154
40
1
40
1
40
1
40
1
41
1
10
-1.99503997793931
20
-21.8251644686587
30
0
41
1
10
-1.99503997793931
20
-21.8252830243118
30
0
41
1
10
-1.99503997793931
20
-21.824521720401
30
0
41
1
10
-1.99503997793931
20
-21.8202838734724
30
0
41
1
10
-1.99503997793931
20
-21.8127830851058
30
0
41
1
10
-1.99503997793931
20
-21.8021565310045
30
0
41
1
10
-1.99503997793931
20
-21.7884557380592
30
0
41
1
10
-1.99503997793931
20
-21.7717309018817
30
0
41
1
10
-1.99503997793931
20
-21.7520292420694
30
0
41
1
10
-1.99503997793931
20
-21.7293964429163
30
0
41
1
10
-1.99503997793931
20
-21.7038764495607
30
0
41
1
10
-1.99503997793931
20
-21.6755105092645
30
0
41
1
10
-1.99503997793931
20
-21.6443396610233
30
0
41
1
10
-1.99503997793931
20
-21.5990695510926
30
0
41
1
10
-1.99503997793931
20
-21.5484022410126
30
0
41
1
10
-1.99503997793931
20
-21.4923513092323
30
0
41
1
10
-1.99503997793931
20
-21.4477036445725
30
0
41
1
10
-1.99503997793931
20
-21.4004603045828
30
0
41
1
10
-1.99503997793931
20
-21.3340243512753
30
0
41
1
10
-1.99503997793931
20
-21.262600218376
30
0
41
1
10
-1.99503997793931
20
-21.1861355753666
30
0
41
1
10
-1.99503997793931
20
-21.1263556466612
30
0
41
1
10
-1.99503997793931
20
-21.064149408511
30
0
41
1
10
-1.99503997793931
20
-20.9995415068112
30
0
41
1
10
-1.99503997793931
20
-20.9325549572362
30
0
41
1
10
-1.99503997793931
20
-20.8400664428987
30
0
41
1
10
-1.99503997793931
20
-20.7430172190697
30
0
41
1
10
-1.99503997793931
20
-20.6412830627252
30
0
41
1
10
-1.99503997793928
20
-20.5627395868944
30
0
41
1
10
-1.99503997793931
20
-20.4819464863244
30
0
41
1
10
-1.99503997793931
20
-20.398923430088
30
0
41
1
10
-1.99503997793931
20
-20.3136874196731
30
0
41
1
10
-1.99503997793931
20
-20.2262576202058
30
0
41
1
10
-1.99503997793931
20
-20.1366515718167
30
0
41
1
10
-1.99503997793931
20
-20.0448848362119
30
0
41
1
10
-1.99503997793931
20
-19.9509751416388
30
0
41
1
10
-1.99503997793931
20
-19.8549381550126
30
0
41
1
10
-1.99503997793931
20
-19.7567881415466
30
0
41
1
10
-1.99503997793931
20
-19.6565420567613
30
0
41
1
10
-1.99503997793931
20
-19.5542140249085
30
0
41
1
10
-1.99503997793931
20
-19.414970513124
30
0
41
1
10
-1.99503997793931
20
-19.2717625055688
30
0
41
1
10
-1.99503997793931
20
-19.1243510467918
30
0
41
1
10
-1.99503997793931
20
-19.0118150097952
30
0
41
1
10
-1.99503997793931
20
-18.8972761707097
30
0
41
1
10
-1.99503997793928
20
-18.7418497326446
30
0
41
1
10
-1.99503997793931
20
-18.5826226298873
30
0
41
1
10
-1.99503997793931
20
-18.4193198181252
30
0
41
1
10
-1.99503997793931
20
-18.2949373683468
30
0
41
1
10
-1.99503997793931
20
-18.1686188521771
30
0
41
1
10
-1.99503997793931
20
-17.9975683374733
30
0
41
1
10
-1.99503997793928
20
-17.8228590748675
30
0
41
1
10
-1.99503997793931
20
-17.6441786252734
30
0
41
1
10
-1.99503997793931
20
-17.5083251903719
30
0
41
1
10
-1.99503997793931
20
-17.3705928023913
30
0
41
1
10
-1.99503997793931
20
-17.1843924611907
30
0
41
1
10
-1.99503997793931
20
-16.9946550481209
30
0
41
1
10
-1.99503997793931
20
-16.8010329188422
30
0
41
1
10
-1.99503997793931
20
-16.6540265683948
30
0
41
1
10
-1.99503997793931
20
-16.5051894037979
30
0
41
1
10
-1.99503997793931
20
-16.3042398246232
30
0
41
1
10
-1.99503997793928
20
-16.0998603532658
30
0
41
1
10
-1.99503997793931
20
-15.8916657661057
30
0
41
1
10
-1.99503997793928
20
-15.733775855726
30
0
41
1
10
-1.99503997793928
20
-15.574095422854
30
0
41
1
10
-1.99503997793928
20
-15.3587351142266
30
0
41
1
10
-1.99503997793928
20
-15.1400402265273
30
0
41
1
10
-1.99503997793931
20
-14.9175842595472
30
0
41
1
10
-1.99503997793931
20
-14.6927797943809
30
0
41
1
10
-1.99503997793928
20
-14.4646959102749
30
0
41
1
10
-1.99503997793928
20
-14.2328810143213
30
0
41
1
10
-1.99503997793931
20
-14.0573389921213
30
0
41
1
10
-1.99503997793931
20
-13.8800597145162
30
0
41
1
10
-1.99503997793931
20
-13.7010488212408
30
0
41
1
10
-1.99503997793931
20
-13.520309646993
30
0
41
1
10
-1.99503997793928
20
-13.3378467396349
30
0
41
1
10
-1.99503997793928
20
-13.1536651432542
30
0
41
1
10
-1.99503997793928
20
-12.9677676529033
30
0
41
1
10
-1.99503997793931
20
-12.7801589212449
30
0
41
1
10
-1.99503997793931
20
-12.5908431584255
30
0
41
1
10
-1.99503997793931
20
-12.3998230071702
30
0
41
1
10
-1.99503997793928
20
-12.1427687977971
30
0
41
1
10
-1.99503997793928
20
-11.8826118620781
30
0
41
1
10
-1.99503997793931
20
-11.6187779427602
30
0
41
1
10
-1.99503997793931
20
-11.4192921870092
30
0
41
1
10
-1.99503997793928
20
-11.2181233670389
30
0
41
1
10
-1.99503997793931
20
-11.0152749978462
30
0
41
1
10
-1.99503997793928
20
-10.8107494592904
30
0
41
1
10
-1.99503997793928
20
-10.6045508126063
30
0
41
1
10
-1.99503997793931
20
-10.3966814549587
30
0
41
1
10
-1.99503997793931
20
-10.1171869828061
30
0
41
1
10
-1.99503997793931
20
-9.76392165975841
30
0
41
1
10
-1.99503997793931
20
-9.33322609823665
30
0
41
1
10
-1.99503997793928
20
-8.96893239301764
30
0
41
1
10
-1.99503997793931
20
-8.67397577159846
30
0
41
1
10
-1.99503997793928
20
-8.4512197921853
30
0
41
1
10
-1.99503997793928
20
-8.22682785520686
30
0
41
1
10
-1.99503997793931
20
-8.00080468509063
30
0
41
1
10
-1.99503997793928
20
-7.77315487290267
30
0
41
1
10
-1.99503997793928
20
-7.54388383469134
30
0
41
1
10
-1.99503997793931
20
-7.31299670603016
30
0
41
1
10
-1.99503997793931
20
-7.08049963775395
30
0
41
1
10
-1.99503997793931
20
-6.84639976314466
30
0
41
1
10
-1.99503997793928
20
-6.61070492919379
30
0
41
1
10
-1.99503997793928
20
-6.37342317953835
30
0
41
1
10
-1.99503997793931
20
-6.13456381441384
30
0
41
1
10
-1.99503997793928
20
-5.89413750153935
30
0
41
1
10
-1.99503997793928
20
-5.65215640891225
30
0
41
1
10
-1.99503997793931
20
-5.40863364784667
30
0
41
1
10
-1.99503997793928
20
-5.16358497720142
30
0
41
1
10
-1.99503997793928
20
-4.95821801342223
30
0
41
1
10
-1.99503997793928
20
-4.7929951985453
30
0
41
1
10
-1.99503997793931
20
-4.66878844332788
30
0
41
1
10
-1.99503997793931
20
-4.54421502107886
30
0
41
1
10
-1.99503997793928
20
-4.37752560184694
30
0
41
1
10
-1.99503997793928
20
-4.16851549788919
30
0
41
1
10
-1.99503997793931
20
-3.95832365779984
30
0
41
1
10
-1.99503997793928
20
-3.78926935085312
30
0
41
1
10
-1.99503997793928
20
-3.66223140396673
30
0
41
1
10
-1.99503997793928
20
-3.53485872835634
30
0
41
1
10
-1.99503997793928
20
-3.36446606295527
30
0
41
1
10
-1.99503997793931
20
-3.19381066067948
30
0
41
1
10
-1.99503997793931
20
-3.02213556164864
30
0
41
1
10
-1.99503997793931
20
-2.89317847799558
30
0
41
1
10
-1.99503997793931
20
-2.76392444618182
30
0
41
1
10
-1.99503997793931
20
-2.63438254221708
30
0
41
1
10
-1.99503997793928
20
-2.50455989433328
30
0
41
1
10
-1.99503997793928
20
-2.37446635053539
30
0
41
1
10
-1.99503997793928
20
-2.24411116714702
30
0
41
1
10
-1.99503997793928
20
-2.11350400419804
30
0
41
1
10
-1.99503997793931
20
-1.98265628188182
30
0
41
1
10
-1.99503997793931
20
-1.85157817419838
30
0
41
1
10
-1.99503997793928
20
-1.72028261530932
30
0
41
1
10
-1.99503997793931
20
-1.58878099035152
30
0
41
1
10
-1.99503997793931
20
-1.45708720896539
30
0
41
1
10
-1.99503997793928
20
-1.32521410103647
30
0
41
1
10
-1.99503997793928
20
-1.1931764657121
30
0
41
1
10
-1.99503997793928
20
-1.06098853158755
30
0
41
1
10
-1.99503997793928
20
-0.92866594303203
30
0
41
1
10
-1.99503997793928
20
-0.796224050825089
30
0
41
1
10
-1.99503997793928
20
-0.663679323049081
30
0
41
1
10
-1.99503997793928
20
-0.531048037421954
30
0
41
1
10
-1.99503997793928
20
-0.398347307093388
30
0
41
1
10
-1.99503997793928
20
-0.265594069601519
30
0
41
1
10
-1.99503997793928
20
-0.132805835966792
30
0
41
1
10
-1.99503997793931
20
-2.0604887E-09
30
0
41
1
10
-1.99503997793928
20
0.132805828560237
30
0
41
1
10
-1.99503997793928
20
0.265594055935196
30
0
41
1
10
-1.99503997793928
20
0.398347293868937
30
0
41
1
10
-1.99503997793931
20
0.531048033506266
30
0
41
1
10
-1.99503997793928
20
0.663679321648374
30
0
41
1
10
-1.99503997793928
20
0.796224037396229
30
0
41
1
10
-1.99503997793928
20
0.928665923975672
30
0
41
1
10
-1.99503997793928
20
1.06098852682439
30
0
41
1
10
-1.99503997793928
20
1.19317647053177
30
0
41
1
10
-1.99503997793928
20
1.32521409071333
30
0
41
1
10
-1.99503997793928
20
1.45708718468359
30
0
41
1
10
-1.99503997793931
20
1.58878098022359
30
0
41
1
10
-1.99503997793928
20
1.72028262405345
30
0
41
1
10
-1.99503997793928
20
1.85157817347522
30
0
41
1
10
-1.99503997793931
20
1.98265625862297
30
0
41
1
10
-1.99503997793931
20
2.11350398186613
30
0
41
1
10
-1.99503997793928
20
2.24411116870439
30
0
41
1
10
-1.99503997793928
20
2.37446636334928
30
0
41
1
10
-1.99503997793931
20
2.50455988721876
30
0
41
1
10
-1.99503997793931
20
2.63438251344519
30
0
41
1
10
-1.99503997793928
20
2.76392442628162
30
0
41
1
10
-1.99503997793931
20
2.8931784837302
30
0
41
1
10
-1.99503997793928
20
3.02213557666008
30
0
41
1
10
-1.99503997793928
20
3.19381064862623
30
0
41
1
10
-1.99503997793928
20
3.36446603264318
30
0
41
1
10
-1.99503997793928
20
3.53485872774326
30
0
41
1
10
-1.99503997793928
20
3.66223142121836
30
0
41
1
10
-1.99503997793931
20
3.78926935835412
30
0
41
1
10
-1.99503997793928
20
3.95832363498766
30
0
41
1
10
-1.99503997793931
20
4.16851547631595
30
0
41
1
10
-1.99503997793928
20
4.37752561794156
30
0
41
1
10
-1.99503997793931
20
4.5442150281373
30
0
41
1
10
-1.99503997793928
20
4.66878842905288
30
0
41
1
10
-1.99503997793931
20
4.79299516838267
30
0
41
1
10
-1.99503997793928
20
4.95821799704331
30
0
41
1
10
-1.99503997793928
20
5.16358499073451
30
0
41
1
10
-1.99503997793928
20
5.4086336510897
30
0
41
1
10
-1.99503997793928
20
5.65215638001948
30
0
41
1
10
-1.99503997793928
20
5.89413749968631
30
0
41
1
10
-1.99503997793931
20
6.13456384015993
30
0
41
1
10
-1.99503997793931
20
6.37342319970753
30
0
41
1
10
-1.99503997793928
20
6.61070495432838
30
0
41
1
10
-1.99503997793931
20
6.8463997482805
30
0
41
1
10
-1.99503997793928
20
7.08049945458953
30
0
41
1
10
-1.99503997793931
20
7.31299637479285
30
0
41
1
10
-1.99503997793928
20
7.54388372935193
30
0
41
1
10
-1.99503997793931
20
7.77315513008728
30
0
41
1
10
-1.99503997793928
20
8.00080467620245
30
0
41
1
10
-1.99503997793931
20
8.22682776167497
30
0
41
1
10
-1.99503997793931
20
8.45121977200662
30
0
41
1
10
-1.99503997793931
20
8.67397578579323
30
0
41
1
10
-1.99503997793928
20
8.96893242084855
30
0
41
1
10
-1.99503997793931
20
9.33322608836653
30
0
41
1
10
-1.99503997793931
20
9.76392166117952
30
0
41
1
10
-1.99503997793928
20
10.1171870033238
30
0
41
1
10
-1.99503997793931
20
10.3966814407573
30
0
41
1
10
-1.99503997793931
20
10.6045508021232
30
0
41
1
10
-1.99503997793928
20
10.8107494713072
30
0
41
1
10
-1.99503997793931
20
11.0152750188843
30
0
41
1
10
-1.99503997793928
20
11.2181233733031
30
0
41
1
10
-1.99503997793928
20
11.4192921752591
30
0
41
1
10
-1.99503997793931
20
11.6187779306707
30
0
41
1
10
-1.99503997793931
20
11.8826118718573
30
0
41
1
10
-1.99503997793931
20
12.1427688173785
30
0
41
1
10
-1.99503997793928
20
12.3998230002593
30
0
41
1
10
-1.99503997793928
20
12.5908431445087
30
0
41
1
10
-1.99503997793928
20
12.7801589185361
30
0
41
1
10
-1.99503997793931
20
12.967767664355
30
0
41
1
10
-1.99503997793928
20
13.1536651576331
30
0
41
1
10
-1.99503997793931
20
13.3378467409434
30
0
41
1
10
-1.99503997793928
20
13.5203096364964
30
0
41
1
10
-1.99503997793928
20
13.7010488098078
30
0
41
1
10
-1.99503997793931
20
13.8800596938692
30
0
41
1
10
-1.99503997793931
20
14.0573388809364
30
0
41
1
10
-1.99503997793928
20
14.2328806917249
30
0
41
1
10
-1.99503997793928
20
14.4066808882548
30
0
41
1
10
-1.99503997793928
20
14.5787357079371
30
0
41
1
10
-1.99503997793931
20
14.7490386600655
30
0
41
1
10
-1.99503997793931
20
14.8894548819647
30
0
41
1
10
-1.99503997793931
20
15.0009760777421
30
0
41
1
10
-1.99503997793931
20
15.1119089381336
30
0
41
1
10
-1.99503997793928
20
15.2493853238091
30
0
41
1
10
-1.99503997793928
20
15.4126292313156
30
0
41
1
10
-1.99503997793931
20
15.5471478788445
30
0
41
1
10
-1.99503997793931
20
15.6539352235828
30
0
41
1
10
-1.99503997793928
20
15.7601264684356
30
0
41
1
10
-1.99503997793931
20
15.8916662065006
30
0
41
1
10
-1.99503997793931
20
16.0998599858609
30
0
41
1
10
-1.99503997793931
20
16.3042392155796
30
0
41
1
10
-1.99503997793931
20
16.5051894370887
30
0
41
1
10
-1.99503997793931
20
16.654027023888
30
0
41
1
10
-1.99503997793931
20
16.8010333841432
30
0
41
1
10
-1.99503997793931
20
16.9946548235122
30
0
41
1
10
-1.99503997793931
20
17.1843913435575
30
0
41
1
10
-1.99503997793931
20
17.3472945498449
30
0
41
1
10
-1.99503997793931
20
17.4394590341185
30
0
41
1
10
-1.99503997793931
20
17.5309981410348
30
0
41
1
10
-1.99503997793931
20
17.6441795672679
30
0
41
1
10
-1.99503997793931
20
17.8228588844704
30
0
41
1
10
-1.99503997793928
20
17.9975681157064
30
0
41
1
10
-1.99503997793931
20
18.1686188381619
30
0
41
1
10
-1.99503997793931
20
18.2949375082747
30
0
41
1
10
-1.99503997793931
20
18.4193199892891
30
0
41
1
10
-1.99503997793928
20
18.5826225030747
30
0
41
1
10
-1.99503997793931
20
18.7418485706132
30
0
41
1
10
-1.99503997793931
20
18.877828345234
30
0
41
1
10
-1.99503997793931
20
18.9545457436666
30
0
41
1
10
-1.99503997793931
20
19.0305969699326
30
0
41
1
10
-1.99503997793928
20
19.1243520606764
30
0
41
1
10
-1.99503997793928
20
19.2717622924356
30
0
41
1
10
-1.99503997793931
20
19.4149698127943
30
0
41
1
10
-1.99503997793931
20
19.5542139601407
30
0
41
1
10
-1.99503997793931
20
19.6565424313982
30
0
41
1
10
-1.99503997793931
20
19.7567886026657
30
0
41
1
10
-1.99503997793931
20
19.8549383078336
30
0
41
1
10
-1.99503997793931
20
19.9509751576252
30
0
41
1
10
-1.99503997793931
20
20.0448848271876
30
0
41
1
10
-1.99503997793931
20
20.136651569995
30
0
41
1
10
-1.99503997793931
20
20.2262576082901
30
0
41
1
10
-1.99503997793931
20
20.3136873945745
30
0
41
1
10
-1.99503997793931
20
20.3989234016943
30
0
41
1
10
-1.99503997793931
20
20.4819464711493
30
0
41
1
10
-1.99503997793931
20
20.5627395849404
30
0
41
1
10
-1.99503997793931
20
20.6412830606924
30
0
41
1
10
-1.99503997793931
20
20.7430171949632
30
0
41
1
10
-1.99503997793931
20
20.8400664063016
30
0
41
1
10
-1.99503997793931
20
20.9325549476398
30
0
41
1
10
-1.99503997793931
20
20.9995415089612
30
0
41
1
10
-1.99503997793931
20
21.0641493981766
30
0
41
1
10
-1.99503997793931
20
21.126355615456
30
0
41
1
10
-1.99503997793931
20
21.1861355372814
30
0
41
1
10
-1.99503997793931
20
21.2626002065085
30
0
41
1
10
-1.99503997793931
20
21.3340243579833
30
0
41
1
10
-1.99503997793931
20
21.4004602751572
30
0
41
1
10
-1.99503997793931
20
21.4477036012609
30
0
41
1
10
-1.99503997793931
20
21.4923512863894
30
0
41
1
10
-1.99503997793931
20
21.5484022523455
30
0
41
1
10
-1.99503997793931
20
21.6117670092986
30
0
41
1
10
-1.99503997793931
20
21.6769140218914
30
0
41
1
10
-1.99503997793931
20
21.7218385059106
30
0
41
1
10
-1.99503997793931
20
21.7520291985819
30
0
41
1
10
-1.99503997793931
20
21.7717308612526
30
0
41
1
10
-1.99503997793931
20
21.7884557330328
30
0
41
1
10
-1.99503997793931
20
21.8021565364934
30
0
41
1
10
-1.99503997793931
20
21.812783044142
30
0
41
1
10
-1.99503997793931
20
21.8202836860757
30
0
41
1
10
-1.99503997793931
20
21.8245237550299
30
0
41
1
10
-1.99503997793931
20
21.8252842567952
30
0
41
1
10
-1.99503997793931
20
21.8251639038728
30
0
0
SPLINE
5
124
100
AcDbEntity
8
SK1
62
256
6
ByLayer
370
18
48
1
60
0
100
AcDbSpline
70
4
71
3
72
295
73
291
40
0
40
0
40
0
40
0
40
0.002946755215984
40
0.00652268009806
40
0.010098604980136
40
0.013674529862212
40
0.017250454744288
40
0.020826379626364
40
0.02440230450844
40
0.027978229390516
40
0.031554154272592
40
0.035130079154668
40
0.04228192891882
40
0.045857853800896
40
0.049433778682972
40
0.053009703565048
40
0.056585628447124
40
0.0637374782112759
40
0.0673134030933519
40
0.0708893279754279
40
0.074465252857504
40
0.0780411777395799
40
0.0816171026216559
40
0.0851930275037319
40
0.0923448772678839
40
0.0959208021499599
40
0.0994967270320359
40
0.103072651914112
40
0.106648576796188
40
0.110224501678264
40
0.11380042656034
40
0.117376351442416
40
0.120952276324492
40
0.124528201206568
40
0.128104126088644
40
0.13168005097072
40
0.135255975852796
40
0.138831900734872
40
0.142407825616948
40
0.1495596753811
40
0.153135600263176
40
0.156711525145252
40
0.160287450027328
40
0.163863374909404
40
0.171015224673556
40
0.174591149555632
40
0.178167074437708
40
0.181742999319784
40
0.18531892420186
40
0.192470773966012
40
0.196046698848088
40
0.199622623730164
40
0.20319854861224
40
0.206774473494316
40
0.213926323258468
40
0.217502248140544
40
0.22107817302262
40
0.224654097904696
40
0.228230022786772
40
0.235381872550924
40
0.238957797433
40
0.242533722315076
40
0.246109647197152
40
0.249685572079228
40
0.25683742184338
40
0.260413346725456
40
0.263989271607532
40
0.271141121371684
40
0.27471704625376
40
0.278292971135836
40
0.281868896017912
40
0.285444820899988
40
0.289020745782064
40
0.29259667066414
40
0.296172595546216
40
0.299748520428292
40
0.303324445310368
40
0.306900370192444
40
0.31047629507452
40
0.314052219956596
40
0.321204069720748
40
0.324779994602824
40
0.3283559194849
40
0.331931844366976
40
0.335507769249052
40
0.339083694131128
40
0.342659619013204
40
0.34623554389528
40
0.349811468777356
40
0.356963318541508
40
0.36411516830566
40
0.371267018069812
40
0.374842942951888
40
0.378418867833964
40
0.38199479271604
40
0.385570717598116
40
0.389146642480192
40
0.392722567362268
40
0.396298492244344
40
0.39987441712642
40
0.403450342008496
40
0.407026266890572
40
0.410602191772648
40
0.414178116654724
40
0.4177540415368
40
0.421329966418876
40
0.424905891300952
40
0.428481816183028
40
0.432057741065104
40
0.433845703506142
40
0.43563366594718
40
0.437421628388218
40
0.439209590829256
40
0.442785515711332
40
0.446361440593408
40
0.448149403034446
40
0.449937365475484
40
0.451725327916522
40
0.45351329035756
40
0.457089215239636
40
0.458877177680674
40
0.460665140121712
40
0.46245310256275
40
0.464241065003788
40
0.466029027444826
40
0.467816989885864
40
0.469604952326902
40
0.47139291476794
40
0.473180877208978
40
0.474968839650016
40
0.476756802091054
40
0.478544764532092
40
0.48033272697313
40
0.482120689414168
40
0.483908651855206
40
0.485696614296244
40
0.487484576737282
40
0.48927253917832
40
0.491060501619358
40
0.492848464060396
40
0.494636426501434
40
0.496424388942472
40
0.49821235138351
40
0.500000313824548
40
0.501788276265586
40
0.503576238706624
40
0.505364201147662
40
0.5071521635887
40
0.508940126029738
40
0.510728088470776
40
0.512516050911814
40
0.514304013352852
40
0.51609197579389
40
0.517879938234928
40
0.519667900675966
40
0.521455863117004
40
0.523243825558042
40
0.52503178799908
40
0.526819750440118
40
0.528607712881156
40
0.530395675322194
40
0.532183637763232
40
0.53397160020427
40
0.535759562645308
40
0.537547525086346
40
0.539335487527384
40
0.541123449968422
40
0.54291141240946
40
0.546487337291536
40
0.548275299732574
40
0.550063262173612
40
0.55185122461465
40
0.553639187055688
40
0.557215111937764
40
0.56079103681984
40
0.562578999260878
40
0.564366961701916
40
0.566154924142954
40
0.567942886583992
40
0.571518811466068
40
0.575094736348144
40
0.57867066123022
40
0.582246586112296
40
0.585822510994372
40
0.589398435876448
40
0.592974360758524
40
0.5965502856406
40
0.600126210522676
40
0.603702135404752
40
0.607278060286828
40
0.610853985168904
40
0.61442991005098
40
0.618005834933056
40
0.621581759815132
40
0.625157684697208
40
0.628733609579284
40
0.635885459343436
40
0.643037309107588
40
0.65018915887174
40
0.653765083753816
40
0.657341008635892
40
0.660916933517968
40
0.664492858400044
40
0.66806878328212
40
0.671644708164196
40
0.675220633046272
40
0.678796557928348
40
0.6859484076925
40
0.689524332574576
40
0.693100257456652
40
0.696676182338728
40
0.700252107220804
40
0.70382803210288
40
0.707403956984956
40
0.710979881867032
40
0.714555806749108
40
0.718131731631184
40
0.72170765651326
40
0.725283581395336
40
0.728859506277411
40
0.732435431159488
40
0.736011356041564
40
0.73958728092364
40
0.741375243364678
40
0.743163205805715
40
0.746739130687792
40
0.750315055569868
40
0.753890980451944
40
0.755678942892982
40
0.75746690533402
40
0.761042830216096
40
0.764618755098172
40
0.771770604862324
40
0.775346529744399
40
0.778922454626476
40
0.782498379508552
40
0.786074304390628
40
0.79322615415478
40
0.796802079036856
40
0.798590041477893
40
0.800378003918932
40
0.803953928801007
40
0.807529853683084
40
0.814681703447236
40
0.818257628329311
40
0.821833553211387
40
0.825409478093464
40
0.82898540297554
40
0.836137252739691
40
0.839713177621768
40
0.841501140062806
40
0.843289102503843
40
0.84686502738592
40
0.850440952267995
40
0.857592802032147
40
0.861168726914224
40
0.864744651796299
40
0.868320576678376
40
0.871896501560452
40
0.875472426442528
40
0.879048351324603
40
0.882624276206679
40
0.886200201088756
40
0.889776125970831
40
0.893352050852907
40
0.896927975734983
40
0.90050390061706
40
0.904079825499135
40
0.907655750381211
40
0.914807600145364
40
0.918383525027439
40
0.921959449909516
40
0.925535374791591
40
0.929111299673667
40
0.932687224555743
40
0.93626314943782
40
0.943414999201971
40
0.946990924084048
40
0.950566848966123
40
0.954142773848199
40
0.957718698730275
40
0.964870548494427
40
0.972022398258579
40
0.979174248022731
40
0.982750172904807
40
0.986326097786883
40
0.989902022668959
40
0.993477947551035
40
0.997053872433111
40
1
40
1
40
1
40
1
41
1
10
-2.20000000000002
20
-22.0135206533288
30
0
41
1
10
-2.20000000000002
20
-22.011728382549
30
0
41
1
10
-2.19999999999999
20
-22.006960172833
30
0
41
1
10
-2.19999999999999
20
-21.9968726399857
30
0
41
1
10
-2.19999999999999
20
-21.9830583809744
30
0
41
1
10
-2.19999999999999
20
-21.9661972037607
30
0
41
1
10
-2.19999999999999
20
-21.9463373508774
30
0
41
1
10
-2.20000000000002
20
-21.9235254752891
30
0
41
1
10
-2.20000000000002
20
-21.8978063777089
30
0
41
1
10
-2.20000000000002
20
-21.8692221254414
30
0
41
1
10
-2.19999999999999
20
-21.8378144981283
30
0
41
1
10
-2.20000000000002
20
-21.7922265879071
30
0
41
1
10
-2.20000000000002
20
-21.7411389990572
30
0
41
1
10
-2.20000000000002
20
-21.6847072964973
30
0
41
1
10
-2.20000000000002
20
-21.6397397916631
30
0
41
1
10
-2.19999999999999
20
-21.5921615531195
30
0
41
1
10
-2.19999999999999
20
-21.5252891448141
30
0
41
1
10
-2.20000000000002
20
-21.4533087676779
30
0
41
1
10
-2.20000000000002
20
-21.3763547664481
30
0
41
1
10
-2.19999999999999
20
-21.3161704250344
30
0
41
1
10
-2.20000000000002
20
-21.2535469320083
30
0
41
1
10
-2.19999999999999
20
-21.1885090211437
30
0
41
1
10
-2.19999999999999
20
-21.1210800961781
30
0
41
1
10
-2.20000000000002
20
-21.0280237880878
30
0
41
1
10
-2.20000000000002
20
-20.9302657657864
30
0
41
1
10
-2.19999999999999
20
-20.82791883753
30
0
41
1
10
-2.20000000000002
20
-20.7488739108727
30
0
41
1
10
-2.19999999999999
20
-20.6675682022903
30
0
41
1
10
-2.19999999999999
20
-20.5840212474559
30
0
41
1
10
-2.19999999999999
20
-20.4982502752196
30
0
41
1
10
-2.20000000000002
20
-20.4102747220553
30
0
41
1
10
-2.20000000000002
20
-20.3201119082527
30
0
41
1
10
-2.19999999999999
20
-20.2277776697998
30
0
41
1
10
-2.19999999999999
20
-20.133289903145
30
0
41
1
10
-2.19999999999999
20
-20.0366640227898
30
0
41
1
10
-2.19999999999999
20
-19.9379146863563
30
0
41
1
10
-2.20000000000002
20
-19.8370589164793
30
0
41
1
10
-2.19999999999999
20
-19.7341104289282
30
0
41
1
10
-2.19999999999999
20
-19.5940785255289
30
0
41
1
10
-2.19999999999999
20
-19.4499005391959
30
0
41
1
10
-2.19999999999999
20
-19.3016611759423
30
0
41
1
10
-2.20000000000002
20
-19.1884526890887
30
0
41
1
10
-2.19999999999999
20
-19.0732305996174
30
0
41
1
10
-2.19999999999999
20
-18.9169371900015
30
0
41
1
10
-2.19999999999999
20
-18.7566457425986
30
0
41
1
10
-2.19999999999999
20
-18.5924361073221
30
0
41
1
10
-2.20000000000002
20
-18.4673177032107
30
0
41
1
10
-2.19999999999999
20
-18.3402522143585
30
0
41
1
10
-2.19999999999999
20
-18.1682547291306
30
0
41
1
10
-2.19999999999999
20
-17.9923842415009
30
0
41
1
10
-2.20000000000002
20
-17.8127154575359
30
0
41
1
10
-2.19999999999999
20
-17.676060438985
30
0
41
1
10
-2.19999999999999
20
-17.5375147595292
30
0
41
1
10
-2.20000000000002
20
-17.3502835148979
30
0
41
1
10
-2.20000000000002
20
-17.1592828976246
30
0
41
1
10
-2.20000000000002
20
-16.9645862898264
30
0
41
1
10
-2.19999999999999
20
-16.8167085043733
30
0
41
1
10
-2.19999999999999
20
-16.666987304737
30
0
41
1
10
-2.19999999999999
20
-16.4649171124643
30
0
41
1
10
-2.19999999999999
20
-16.2591647559547
30
0
41
1
10
-2.19999999999999
20
-16.0498023362736
30
0
41
1
10
-2.19999999999999
20
-15.8909649274654
30
0
41
1
10
-2.20000000000002
20
-15.7303232767805
30
0
41
1
10
-2.19999999999999
20
-15.513744330902
30
0
41
1
10
-2.19999999999999
20
-15.2935559429894
30
0
41
1
10
-2.19999999999999
20
-15.069828938707
30
0
41
1
10
-2.19999999999999
20
-14.8437340716545
30
0
41
1
10
-2.19999999999999
20
-14.61406817927
30
0
41
1
10
-2.20000000000002
20
-14.3809064511142
30
0
41
1
10
-2.20000000000002
20
-14.2042701267484
30
0
41
1
10
-2.20000000000002
20
-14.0258803815961
30
0
41
1
10
-2.19999999999999
20
-13.845742035678
30
0
41
1
10
-2.19999999999999
20
-13.6638579908946
30
0
41
1
10
-2.19999999999999
20
-13.4802328404438
30
0
41
1
10
-2.19999999999999
20
-13.2948705838035
30
0
41
1
10
-2.19999999999999
20
-13.1077737445537
30
0
41
1
10
-2.19999999999999
20
-12.9189467887917
30
0
41
1
10
-2.19999999999999
20
-12.7283927892775
30
0
41
1
10
-2.20000000000002
20
-12.5361142561418
30
0
41
1
10
-2.19999999999999
20
-12.277459839655
30
0
41
1
10
-2.19999999999999
20
-12.015335258712
30
0
41
1
10
-2.19999999999999
20
-11.7498207382014
30
0
41
1
10
-2.19999999999999
20
-11.5489655840494
30
0
41
1
10
-2.19999999999999
20
-11.3464032666245
30
0
41
1
10
-2.19999999999999
20
-11.1421359694817
30
0
41
1
10
-2.19999999999999
20
-10.9361655882296
30
0
41
1
10
-2.19999999999999
20
-10.7284951094206
30
0
41
1
10
-2.19999999999999
20
-10.5191258633122
30
0
41
1
10
-2.20000000000002
20
-10.2377183913447
30
0
41
1
10
-2.19999999999999
20
-9.88169305528194
30
0
41
1
10
-2.19999999999999
20
-9.44771866001565
30
0
41
1
10
-2.19999999999999
20
-9.08043846702645
30
0
41
1
10
-2.19999999999999
20
-8.78327691067398
30
0
41
1
10
-2.19999999999999
20
-8.55871423477029
30
0
41
1
10
-2.19999999999999
20
-8.33247384441506
30
0
41
1
10
-2.19999999999999
20
-8.10455846042146
30
0
41
1
10
-2.19999999999999
20
-7.87497052861914
30
0
41
1
10
-2.19999999999999
20
-7.64371312168015
30
0
41
1
10
-2.19999999999999
20
-7.41078904293681
30
0
41
1
10
-2.19999999999999
20
-7.17620223308296
30
0
41
1
10
-2.19999999999999
20
-6.93995689241024
30
0
41
1
10
-2.19999999999999
20
-6.70205756880287
30
0
41
1
10
-2.19999999999999
20
-6.46250917346816
30
0
41
1
10
-2.19999999999999
20
-6.22131783489101
30
0
41
1
10
-2.19999999999999
20
-5.97849051253721
30
0
41
1
10
-2.19999999999999
20
-5.73403522651989
30
0
41
1
10
-2.19999999999999
20
-5.48796106514416
30
0
41
1
10
-2.19999999999999
20
-5.24027911954084
30
0
41
1
10
-2.19999999999999
20
-5.03253662624778
30
0
41
1
10
-2.19999999999999
20
-4.86557359653662
30
0
41
1
10
-2.19999999999999
20
-4.73994907984499
30
0
41
1
10
-2.19999999999999
20
-4.61393371339872
30
0
41
1
10
-2.19999999999999
20
-4.44540775759583
30
0
41
1
10
-2.19999999999999
20
-4.23375654375474
30
0
41
1
10
-2.19999999999999
20
-4.020839617489
30
0
41
1
10
-2.19999999999999
20
-3.84978439330678
30
0
41
1
10
-2.19999999999999
20
-3.72111343644576
30
0
41
1
10
-2.19999999999999
20
-3.59207750684843
30
0
41
1
10
-2.19999999999999
20
-3.41956370437865
30
0
41
1
10
-2.19999999999999
20
-3.24629481975686
30
0
41
1
10
-2.19999999999999
20
-3.072383622975
30
0
41
1
10
-2.19999999999999
20
-2.94160047796311
30
0
41
1
10
-2.19999999999999
20
-2.81048648769612
30
0
41
1
10
-2.19999999999999
20
-2.67904893291683
30
0
41
1
10
-2.19999999999999
20
-2.54729563151926
30
0
41
1
10
-2.19999999999999
20
-2.41523552035437
30
0
41
1
10
-2.19999999999999
20
-2.28287741514001
30
0
41
1
10
-2.19999999999999
20
-2.15023167925048
30
0
41
1
10
-2.19999999999999
20
-2.01730874020455
30
0
41
1
10
-2.19999999999999
20
-1.88412021847037
30
0
41
1
10
-2.19999999999999
20
-1.75067843002711
30
0
41
1
10
-2.19999999999999
20
-1.61699635855226
30
0
41
1
10
-2.19999999999999
20
-1.48308822685564
30
0
41
1
10
-2.19999999999999
20
-1.34896860046499
30
0
41
1
10
-2.19999999999999
20
-1.21465351395383
30
0
41
1
10
-2.19999999999999
20
-1.08015922751395
30
0
41
1
10
-2.19999999999999
20
-0.945503451789534
30
0
41
1
10
-2.19999999999999
20
-0.810704122044939
30
0
41
1
10
-2.19999999999999
20
-0.675780432522174
30
0
41
1
10
-2.19999999999999
20
-0.540751798686529
30
0
41
1
10
-2.19999999999999
20
-0.405638608907907
30
0
41
1
10
-2.20000000000002
20
-0.270461437853925
30
0
41
1
10
-2.19999999999999
20
-0.135241472589996
30
0
41
1
10
-2.19999999999999
20
-5.3654787E-09
30
0
41
1
10
-2.19999999999999
20
0.135241462279822
30
0
41
1
10
-2.19999999999999
20
0.270461428271432
30
0
41
1
10
-2.19999999999999
20
0.405638599098921
30
0
41
1
10
-2.19999999999999
20
0.540751787789588
30
0
41
1
10
-2.19999999999999
20
0.675780421912322
30
0
41
1
10
-2.19999999999999
20
0.810704113119073
30
0
41
1
10
-2.19999999999999
20
0.945503442662783
30
0
41
1
10
-2.19999999999999
20
1.0801592162689
30
0
41
1
10
-2.19999999999999
20
1.21465350310541
30
0
41
1
10
-2.19999999999999
20
1.34896859254377
30
0
41
1
10
-2.19999999999999
20
1.48308821885627
30
0
41
1
10
-2.19999999999999
20
1.61699634722072
30
0
41
1
10
-2.19999999999999
20
1.75067841854351
30
0
41
1
10
-2.19999999999999
20
1.88412021099791
30
0
41
1
10
-2.20000000000002
20
2.01730873413072
30
0
41
1
10
-2.19999999999999
20
2.15023166945255
30
0
41
1
10
-2.19999999999999
20
2.28287740252156
30
0
41
1
10
-2.19999999999999
20
2.41523551097489
30
0
41
1
10
-2.19999999999999
20
2.54729562722176
30
0
41
1
10
-2.19999999999999
20
2.67904892732182
30
0
41
1
10
-2.19999999999999
20
2.81048647644627
30
0
41
1
10
-2.19999999999999
20
2.94160046512801
30
0
41
1
10
-2.19999999999999
20
3.0723836150739
30
0
41
1
10
-2.19999999999999
20
3.24629481959221
30
0
41
1
10
-2.19999999999999
20
3.41956369464535
30
0
41
1
10
-2.19999999999999
20
3.59207749308624
30
0
41
1
10
-2.19999999999999
20
3.72111342731068
30
0
41
1
10
-2.19999999999999
20
3.84978439152417
30
0
41
1
10
-2.19999999999999
20
4.02083961713782
30
0
41
1
10
-2.19999999999999
20
4.23375652596863
30
0
41
1
10
-2.19999999999999
20
4.44540774959788
30
0
41
1
10
-2.19999999999999
20
4.61393371339017
30
0
41
1
10
-2.19999999999999
20
4.73994908127321
30
0
41
1
10
-2.19999999999999
20
4.86557359122418
30
0
41
1
10
-2.19999999999999
20
5.03253661023487
30
0
41
1
10
-2.19999999999999
20
5.24027911118978
30
0
41
1
10
-2.19999999999999
20
5.48796107357256
30
0
41
1
10
-2.19999999999999
20
5.73403521575827
30
0
41
1
10
-2.19999999999999
20
5.97849049576266
30
0
41
1
10
-2.19999999999999
20
6.2213178400012
30
0
41
1
10
-2.19999999999999
20
6.46250918569618
30
0
41
1
10
-2.19999999999999
20
6.70205758660663
30
0
41
1
10
-2.19999999999999
20
6.93995692090422
30
0
41
1
10
-2.19999999999999
20
7.17620220160032
30
0
41
1
10
-2.19999999999999
20
7.41078884464241
30
0
41
1
10
-2.19999999999999
20
7.6437128367312
30
0
41
1
10
-2.19999999999999
20
7.87497060194644
30
0
41
1
10
-2.19999999999999
20
8.10455852701506
30
0
41
1
10
-2.19999999999999
20
8.33247380011301
30
0
41
1
10
-2.19999999999999
20
8.55871419535617
30
0
41
1
10
-2.19999999999999
20
8.78327689677775
30
0
41
1
10
-2.19999999999999
20
9.08043848955603
30
0
41
1
10
-2.19999999999999
20
9.44771865839311
30
0
41
1
10
-2.19999999999999
20
9.88169304970987
30
0
41
1
10
-2.19999999999999
20
10.2377184130835
30
0
41
1
10
-2.19999999999999
20
10.5191258614377
30
0
41
1
10
-2.19999999999999
20
10.7284950970913
30
0
41
1
10
-2.19999999999999
20
10.9361655879759
30
0
41
1
10
-2.19999999999999
20
11.1421359853758
30
0
41
1
10
-2.19999999999999
20
11.3464032807099
30
0
41
1
10
-2.19999999999999
20
11.5489655826483
30
0
41
1
10
-2.19999999999999
20
11.7498207258852
30
0
41
1
10
-2.19999999999999
20
12.0153352592314
30
0
41
1
10
-2.20000000000002
20
12.2774598592137
30
0
41
1
10
-2.19999999999999
20
12.5361142588231
30
0
41
1
10
-2.19999999999999
20
12.728392778749
30
0
41
1
10
-2.19999999999999
20
12.9189467805057
30
0
41
1
10
-2.19999999999999
20
13.1077737485311
30
0
41
1
10
-2.19999999999999
20
13.2948705974071
30
0
41
1
10
-2.20000000000002
20
13.4802328481714
30
0
41
1
10
-2.19999999999999
20
13.6638579861817
30
0
41
1
10
-2.19999999999999
20
13.8457420253844
30
0
41
1
10
-2.19999999999999
20
14.0258803741545
30
0
41
1
10
-2.19999999999999
20
14.2042700822292
30
0
41
1
10
-2.19999999999999
20
14.3809062427341
30
0
41
1
10
-2.19999999999999
20
14.5557843226631
30
0
41
1
10
-2.19999999999999
20
14.7289012367181
30
0
41
1
10
-2.19999999999999
20
14.90025131083
30
0
41
1
10
-2.19999999999999
20
15.0415708470876
30
0
41
1
10
-2.19999999999999
20
15.1537302031574
30
0
41
1
10
-2.19999999999999
20
15.2652965264295
30
0
41
1
10
-2.20000000000002
20
15.4036502143979
30
0
41
1
10
-2.19999999999999
20
15.567882396309
30
0
41
1
10
-2.19999999999999
20
15.7032538676567
30
0
41
1
10
-2.19999999999999
20
15.8106442286412
30
0
41
1
10
-2.19999999999999
20
15.9174340084588
30
0
41
1
10
-2.19999999999999
20
16.049802831716
30
0
41
1
10
-2.19999999999999
20
16.2591646002876
30
0
41
1
10
-2.20000000000002
20
16.4649164953067
30
0
41
1
10
-2.19999999999999
20
16.6669871400996
30
0
41
1
10
-2.19999999999999
20
16.8167088060477
30
0
41
1
10
-2.19999999999999
20
16.9645867974536
30
0
41
1
10
-2.19999999999999
20
17.1592829447589
30
0
41
1
10
-2.19999999999999
20
17.3502824417036
30
0
41
1
10
-2.19999999999999
20
17.5141131161323
30
0
41
1
10
-2.19999999999999
20
17.606787767091
30
0
41
1
10
-2.19999999999999
20
17.6988333809735
30
0
41
1
10
-2.20000000000002
20
17.8127164551587
30
0
41
1
10
-2.20000000000002
20
17.9923842356821
30
0
41
1
10
-2.19999999999999
20
18.1682545122203
30
0
41
1
10
-2.19999999999999
20
18.3402521463352
30
0
41
1
10
-2.19999999999999
20
18.4673177976698
30
0
41
1
10
-2.19999999999999
20
18.5924362845557
30
0
41
1
10
-2.19999999999999
20
18.756645794641
30
0
41
1
10
-2.19999999999999
20
18.9169360704622
30
0
41
1
10
-2.19999999999999
20
19.0536957086557
30
0
41
1
10
-2.19999999999999
20
19.1308417758755
30
0
41
1
10
-2.19999999999999
20
19.2073184270571
30
0
41
1
10
-2.19999999999999
20
19.3016622310533
30
0
41
1
10
-2.19999999999999
20
19.4499005336558
30
0
41
1
10
-2.19999999999999
20
19.5940778412012
30
0
41
1
10
-2.19999999999999
20
19.7341102362335
30
0
41
1
10
-2.19999999999999
20
19.8370591957147
30
0
41
1
10
-2.19999999999999
20
19.9379151599299
30
0
41
1
10
-2.19999999999999
20
20.0366642357895
30
0
41
1
10
-2.19999999999999
20
20.1332899477274
30
0
41
1
10
-2.20000000000002
20
20.2277776663919
30
0
41
1
10
-2.19999999999999
20
20.3201119071544
30
0
41
1
10
-2.19999999999999
20
20.4102747128949
30
0
41
1
10
-2.20000000000002
20
20.4982502525025
30
0
41
1
10
-2.20000000000002
20
20.5840212184218
30
0
41
1
10
-2.20000000000002
20
20.6675681841826
30
0
41
1
10
-2.20000000000002
20
20.7488739070252
30
0
41
1
10
-2.19999999999999
20
20.8279188369072
30
0
41
1
10
-2.19999999999999
20
20.9302657445266
30
0
41
1
10
-2.19999999999999
20
21.0280237507364
30
0
41
1
10
-2.19999999999999
20
21.121080083473
30
0
41
1
10
-2.19999999999999
20
21.1885090229233
30
0
41
1
10
-2.19999999999999
20
21.2535469243879
30
0
41
1
10
-2.20000000000002
20
21.3161703964091
30
0
41
1
10
-2.20000000000002
20
21.3763547276269
30
0
41
1
10
-2.19999999999999
20
21.453308753177
30
0
41
1
10
-2.20000000000002
20
21.5252891523049
30
0
41
1
10
-2.19999999999999
20
21.5921615264853
30
0
41
1
10
-2.19999999999999
20
21.6397397481888
30
0
41
1
10
-2.19999999999999
20
21.6847072709128
30
0
41
1
10
-2.20000000000002
20
21.7411390111089
30
0
41
1
10
-2.20000000000002
20
21.8049949078793
30
0
41
1
10
-2.20000000000002
20
21.870633664349
30
0
41
1
10
-2.20000000000002
20
21.9159230944434
30
0
41
1
10
-2.19999999999999
20
21.9463373083127
30
0
41
1
10
-2.20000000000002
20
21.9661971621578
30
0
41
1
10
-2.19999999999999
20
21.9830583750197
30
0
41
1
10
-2.19999999999999
20
21.9968726461305
30
0
41
1
10
-2.20000000000002
20
22.0069595100739
30
0
41
1
10
-2.19999999999999
20
22.0117273455135
30
0
41
1
10
-2.20000000000002
20
22.0135193468676
30
0
0
SPLINE
5
125
100
AcDbEntity
8
SK1
62
256
6
ByLayer
370
18
48
1
60
0
100
AcDbSpline
70
4
71
3
72
299
73
295
40
0
40
0
40
0
40
0
40
0.002948508349585
40
0.006474028853545
40
0.0099995493575049
40
0.0135250698614649
40
0.0170505903654248
40
0.0205761108693848
40
0.0241016313733447
40
0.0276271518773046
40
0.0346781928852245
40
0.0417292338931444
40
0.0487802749010643
40
0.0523057954050242
40
0.0558313159089842
40
0.0593568364129441
40
0.0628823569169041
40
0.0699333979248239
40
0.0734589184287839
40
0.0769844389327438
40
0.0805099594367037
40
0.0840354799406637
40
0.0875610004446237
40
0.0910865209485836
40
0.0981375619565034
40
0.101663082460463
40
0.105188602964423
40
0.108714123468383
40
0.112239643972343
40
0.115765164476303
40
0.119290684980263
40
0.122816205484223
40
0.126341725988183
40
0.129867246492143
40
0.133392766996103
40
0.136918287500063
40
0.140443808004023
40
0.143969328507983
40
0.147494849011943
40
0.154545890019862
40
0.158071410523823
40
0.161596931027782
40
0.163359691279762
40
0.165122451531742
40
0.168647972035702
40
0.175699013043622
40
0.179224533547582
40
0.182750054051542
40
0.186275574555502
40
0.189801095059462
40
0.196852136067382
40
0.200377656571342
40
0.203903177075302
40
0.205665937327282
40
0.207428697579262
40
0.210954218083222
40
0.218005259091141
40
0.221530779595102
40
0.225056300099061
40
0.228581820603021
40
0.232107341106981
40
0.239158382114901
40
0.242683902618861
40
0.246209423122821
40
0.247972183374801
40
0.249734943626781
40
0.253260464130741
40
0.256785984634701
40
0.260311505138661
40
0.262074265390641
40
0.263837025642621
40
0.267362546146581
40
0.270888066650541
40
0.274413587154501
40
0.277939107658461
40
0.281464628162421
40
0.28499014866638
40
0.28851566917034
40
0.2920411896743
40
0.29556671017826
40
0.29909223068222
40
0.30261775118618
40
0.30614327169014
40
0.3096687921941
40
0.31319431269806
40
0.31671983320202
40
0.32377087420994
40
0.3272963947139
40
0.33082191521786
40
0.33434743572182
40
0.33787295622578
40
0.341398476729739
40
0.344923997233699
40
0.348449517737659
40
0.351975038241619
40
0.359026079249539
40
0.366077120257459
40
0.373128161265379
40
0.376653681769339
40
0.380179202273299
40
0.383704722777259
40
0.387230243281219
40
0.390755763785179
40
0.394281284289139
40
0.397806804793098
40
0.401332325297058
40
0.404857845801019
40
0.408383366304979
40
0.411908886808938
40
0.415434407312898
40
0.418959927816858
40
0.422485448320818
40
0.426010968824778
40
0.429536489328738
40
0.433062009832698
40
0.434824770084678
40
0.436587530336658
40
0.438350290588638
40
0.440113050840618
40
0.443638571344578
40
0.447164091848538
40
0.448926852100518
40
0.450689612352498
40
0.452452372604478
40
0.454215132856458
40
0.457740653360418
40
0.459503413612397
40
0.461266173864378
40
0.463028934116357
40
0.464791694368337
40
0.466554454620318
40
0.468317214872297
40
0.470079975124277
40
0.471842735376257
40
0.473605495628237
40
0.475368255880217
40
0.477131016132197
40
0.478893776384177
40
0.480656536636157
40
0.482419296888137
40
0.484182057140117
40
0.485944817392097
40
0.487707577644077
40
0.489470337896057
40
0.491233098148037
40
0.492995858400017
40
0.494758618651997
40
0.496521378903977
40
0.498284139155957
40
0.500046899407937
40
0.501809659659917
40
0.503572419911897
40
0.505335180163877
40
0.507097940415857
40
0.508860700667837
40
0.510623460919817
40
0.512386221171797
40
0.514148981423777
40
0.515911741675757
40
0.517674501927737
40
0.519437262179717
40
0.521200022431696
40
0.522962782683676
40
0.524725542935657
40
0.526488303187637
40
0.528251063439616
40
0.530013823691596
40
0.531776583943576
40
0.533539344195556
40
0.535302104447536
40
0.537064864699516
40
0.538827624951496
40
0.540590385203476
40
0.542353145455456
40
0.545878665959416
40
0.547641426211396
40
0.549404186463376
40
0.551166946715356
40
0.552929706967336
40
0.556455227471296
40
0.559980747975256
40
0.561743508227236
40
0.563506268479216
40
0.565269028731196
40
0.567031788983176
40
0.570557309487136
40
0.574082829991096
40
0.577608350495056
40
0.581133870999015
40
0.584659391502976
40
0.588184912006935
40
0.591710432510895
40
0.595235953014855
40
0.598761473518815
40
0.602286994022775
40
0.605812514526735
40
0.609338035030695
40
0.612863555534655
40
0.616389076038615
40
0.619914596542575
40
0.623440117046535
40
0.626965637550495
40
0.634016678558415
40
0.641067719566335
40
0.648118760574254
40
0.651644281078214
40
0.655169801582174
40
0.658695322086134
40
0.662220842590094
40
0.665746363094054
40
0.669271883598014
40
0.672797404101974
40
0.676322924605934
40
0.683373965613854
40
0.686899486117814
40
0.690425006621774
40
0.693950527125734
40
0.697476047629694
40
0.701001568133654
40
0.704527088637613
40
0.708052609141573
40
0.711578129645533
40
0.715103650149493
40
0.718629170653453
40
0.722154691157413
40
0.725680211661373
40
0.732731252669293
40
0.736256773173253
40
0.739782293677213
40
0.746833334685133
40
0.750358855189093
40
0.753884375693053
40
0.757409896197013
40
0.760935416700973
40
0.767986457708893
40
0.771511978212852
40
0.775037498716812
40
0.778563019220772
40
0.782088539724732
40
0.789139580732652
40
0.792665101236612
40
0.796190621740572
40
0.799716142244532
40
0.803241662748492
40
0.810292703756412
40
0.813818224260372
40
0.817343744764332
40
0.820869265268292
40
0.824394785772252
40
0.831445826780171
40
0.834971347284131
40
0.838496867788091
40
0.842022388292051
40
0.845547908796011
40
0.852598949803931
40
0.856124470307891
40
0.859649990811851
40
0.863175511315811
40
0.866701031819771
40
0.870226552323731
40
0.873752072827691
40
0.877277593331651
40
0.880803113835611
40
0.884328634339571
40
0.88785415484353
40
0.891379675347491
40
0.89490519585145
40
0.89843071635541
40
0.90195623685937
40
0.90900727786729
40
0.91253279837125
40
0.91605831887521
40
0.91958383937917
40
0.92310935988313
40
0.92663488038709
40
0.93016040089105
40
0.93721144189897
40
0.94073696240293
40
0.94426248290689
40
0.947788003410849
40
0.95131352391481
40
0.958364564922729
40
0.961890085426689
40
0.965415605930649
40
0.968941126434609
40
0.972466646938569
40
0.975992167442529
40
0.979517687946489
40
0.983043208450449
40
0.986568728954409
40
0.990094249458369
40
0.993619769962329
40
0.997145290466289
40
1
40
1
40
1
40
1
41
1
10
-38
20
20.292348644501
30
0
41
1
10
-38
20
20.2923551517624
30
0
41
1
10
-38
20
20.2915871378972
30
0
41
1
10
-38
20
20.2877827415225
30
0
41
1
10
-38
20
20.2807871950942
30
0
41
1
10
-38
20
20.270864225278
30
0
41
1
10
-38
20
20.2580557575388
30
0
41
1
10
-38
20
20.2424031034125
30
0
41
1
10
-38
20
20.2239454925533
30
0
41
1
10
-38
20
20.19551262204
30
0
41
1
10
-38
20
20.153458157969
30
0
41
1
10
-38
20
20.0921783324266
30
0
41
1
10
-38
20
20.0326760120608
30
0
41
1
10
-38
20
19.9796195423852
30
0
41
1
10
-38
20
19.9374871337363
30
0
41
1
10
-38
20
19.8928775037255
30
0
41
1
10
-38
20
19.8298739849263
30
0
41
1
10
-38
20
19.7628242930464
30
0
41
1
10
-38
20
19.6902080345968
30
0
41
1
10
-38
20
19.6336084813315
30
0
41
1
10
-38
20
19.5746836513967
30
0
41
1
10
-38
20
19.5134574775013
30
0
41
1
10
-38
20
19.4499498796239
30
0
41
1
10
-38
20
19.361926580552
30
0
41
1
10
-38
20
19.2704514952516
30
0
41
1
10
-38
20
19.1735363516591
30
0
41
1
10
-38
20
19.0989364266239
30
0
41
1
10
-38
20
19.0221745884206
30
0
41
1
10
-38
20
18.9432715601189
30
0
41
1
10
-38
20
18.8622425921488
30
0
41
1
10
-38
20
18.7791047356355
30
0
41
1
10
-38
20
18.6938772447032
30
0
41
1
10
-38
20
18.6065734364562
30
0
41
1
10
-38
20
18.5172096781029
30
0
41
1
10
-38
20
18.4258037757915
30
0
41
1
10
-38
20
18.3323676597213
30
0
41
1
10
-38
20
18.236917040573
30
0
41
1
10
-38
20
18.1394682315479
30
0
41
1
10
-38
20
18.006423045464
30
0
41
1
10
-38
20
17.870842154793
30
0
41
1
10
-38
20
17.7299440627733
30
0
41
1
10
-38
20
17.6408187485726
30
0
41
1
10
-38
20
17.5681131617785
30
0
41
1
10
-38
20
17.4947669133713
30
0
41
1
10
-38
20
17.3649201654158
30
0
41
1
10
-38
20
17.2140632768009
30
0
41
1
10
-38
20
17.0578935907134
30
0
41
1
10
-38
20
16.9392992293059
30
0
41
1
10
-38
20
16.8188549914818
30
0
41
1
10
-38
20
16.6552510003021
30
0
41
1
10
-38
20
16.489672496603
30
0
41
1
10
-38
20
16.3187666825072
30
0
41
1
10
-38
20
16.2111031772939
30
0
41
1
10
-38
20
16.1235473577608
30
0
41
1
10
-38
20
16.0353949417433
30
0
41
1
10
-38
20
15.8797855584285
30
0
41
1
10
-38
20
15.6999813794666
30
0
41
1
10
-38
20
15.5148116907138
30
0
41
1
10
-38
20
15.3746600384839
30
0
41
1
10
-38
20
15.2327750536327
30
0
41
1
10
-38
20
15.0406360987563
30
0
41
1
10
-38
20
14.8470518249568
30
0
41
1
10
-38
20
14.6480433816337
30
0
41
1
10
-38
20
14.5230237603812
30
0
41
1
10
-38
20
14.4215395322791
30
0
41
1
10
-38
20
14.319494446119
30
0
41
1
10
-38
20
14.1916826014269
30
0
41
1
10
-38
20
14.0362107113462
30
0
41
1
10
-38
20
13.905633632864
30
0
41
1
10
-38
20
13.7996824703933
30
0
41
1
10
-38
20
13.6931799140641
30
0
41
1
10
-38
20
13.5598675642285
30
0
41
1
10
-38
20
13.3977994204325
30
0
41
1
10
-38
20
13.2340971553998
30
0
41
1
10
-38
20
13.0687736820565
30
0
41
1
10
-38
20
12.9018380893652
30
0
41
1
10
-38
20
12.7332922951509
30
0
41
1
10
-38
20
12.5631480531082
30
0
41
1
10
-38
20
12.3914123687224
30
0
41
1
10
-38
20
12.2180896154105
30
0
41
1
10
-38
20
12.0431930727568
30
0
41
1
10
-38
20
11.8667275879997
30
0
41
1
10
-38
20
11.6886992220563
30
0
41
1
10
-38
20
11.5091211559413
30
0
41
1
10
-38
20
11.3279971676986
30
0
41
1
10
-38
20
11.0835274575533
30
0
41
1
10
-38
20
10.8388445996823
30
0
41
1
10
-38
20
10.5882272221232
30
0
41
1
10
-38
20
10.3995106478125
30
0
41
1
10
-38
20
10.2093006505112
30
0
41
1
10
-38
20
10.0176111741013
30
0
41
1
10
-38
20
9.82444825814403
30
0
41
1
10
-38
20
9.62982433363783
30
0
41
1
10
-38
20
9.43375032895256
30
0
41
1
10
-38
20
9.16930024978845
30
0
41
1
10
-38
20
8.83774034996796
30
0
41
1
10
-38
20
8.43283016067576
30
0
41
1
10
-38
20
8.09202302704495
30
0
41
1
10
-38
20
7.81440668711983
30
0
41
1
10
-38
20
7.60585888080689
30
0
41
1
10
-38
20
7.39600299493051
30
0
41
1
10
-38
20
7.18486050853949
30
0
41
1
10
-38
20
6.972454820743
30
0
41
1
10
-38
20
6.75880464755275
30
0
41
1
10
-38
20
6.54393387937549
30
0
41
1
10
-38
20
6.32787102064523
30
0
41
1
10
-38
20
6.11064460524281
30
0
41
1
10
-38
20
5.89228682406826
30
0
41
1
10
-38
20
5.67283049766698
30
0
41
1
10
-38
20
5.45231041402207
30
0
41
1
10
-38
20
5.2307661198837
30
0
41
1
10
-38
20
5.00824236668089
30
0
41
1
10
-38
20
4.78478453894905
30
0
41
1
10
-38
20
4.56044477194348
30
0
41
1
10
-38
20
4.3737593142329
30
0
41
1
10
-38
20
4.22222174308928
30
0
41
1
10
-38
20
4.10916467830541
30
0
41
1
10
-38
20
3.99593123757285
30
0
41
1
10
-38
20
3.84368490764803
30
0
41
1
10
-38
20
3.65544484289478
30
0
41
1
10
-38
20
3.46668355973628
30
0
41
1
10
-38
20
3.31336520651504
30
0
41
1
10
-38
20
3.19916977025284
30
0
41
1
10
-38
20
3.0848771849204
30
0
41
1
10
-38
20
2.93116533478539
30
0
41
1
10
-38
20
2.7810630459212
30
0
41
1
10
-38
20
2.62697343511894
30
0
41
1
10
-38
20
2.51237687493429
30
0
41
1
10
-38
20
2.39774974487253
30
0
41
1
10
-38
20
2.28311555219403
30
0
41
1
10
-38
20
2.16847618976473
30
0
41
1
10
-38
20
2.05384840107453
30
0
41
1
10
-38
20
1.93924458170406
30
0
41
1
10
-38
20
1.82466899171223
30
0
41
1
10
-38
20
1.71014121398446
30
0
41
1
10
-38
20
1.59566009898879
30
0
41
1
10
-38
20
1.48124309885608
30
0
41
1
10
-38
20
1.36688883878045
30
0
41
1
10
-38
20
1.25260906632701
30
0
41
1
10
-38
20
1.13840321986405
30
0
41
1
10
-38
20
1.02427614220741
30
0
41
1
10
-38
20
0.910225811803912
30
0
41
1
10
-38
20
0.796251800903974
30
0
41
1
10
-38
20
0.682349388495624
30
0
41
1
10
-38
20
0.568513483413511
30
0
41
1
10
-38
20
0.454735475948979
30
0
41
1
10
-38
20
0.341006791030111
30
0
41
1
10
-38
20
0.227315919379521
30
0
41
1
10
-38
20
0.113651444289076
30
0
41
1
10
-38
20
2.39306814E-08
30
0
41
1
10
-38
20
-0.113651428861147
30
0
41
1
10
-38
20
-0.227315965161807
30
0
41
1
10
-38
20
-0.341006831114754
30
0
41
1
10
-38
20
-0.454735424962735
30
0
41
1
10
-38
20
-0.568513412391525
30
0
41
1
10
-38
20
-0.682349437337052
30
0
41
1
10
-38
20
-0.796251898049235
30
0
41
1
10
-38
20
-0.910225765592202
30
0
41
1
10
-38
20
-1.02427601417025
30
0
41
1
10
-38
20
-1.13840324907633
30
0
41
1
10
-38
20
-1.25260921865757
30
0
41
1
10
-38
20
-1.36688883944316
30
0
41
1
10
-38
20
-1.48124293103632
30
0
41
1
10
-38
20
-1.59566004663384
30
0
41
1
10
-38
20
-1.71014137238996
30
0
41
1
10
-38
20
-1.82466911261432
30
0
41
1
10
-38
20
-1.93924446866484
30
0
41
1
10
-38
20
-2.05384821372689
30
0
41
1
10
-38
20
-2.1684762190329
30
0
41
1
10
-38
20
-2.28311576323418
30
0
41
1
10
-38
20
-2.39774983280105
30
0
41
1
10
-38
20
-2.51237672316307
30
0
41
1
10
-38
20
-2.62697323991799
30
0
41
1
10
-38
20
-2.78106315146928
30
0
41
1
10
-38
20
-2.93116552693385
30
0
41
1
10
-38
20
-3.08487708212581
30
0
41
1
10
-38
20
-3.19916954549007
30
0
41
1
10
-38
20
-3.31336512600546
30
0
41
1
10
-38
20
-3.46668375918677
30
0
41
1
10
-38
20
-3.65544489425088
30
0
41
1
10
-38
20
-3.84368470208372
30
0
41
1
10
-38
20
-3.99593117493791
30
0
41
1
10
-38
20
-4.10916481607396
30
0
41
1
10
-38
20
-4.22222196867938
30
0
41
1
10
-38
20
-4.37375933349006
30
0
41
1
10
-38
20
-4.56044458630845
30
0
41
1
10
-38
20
-4.78478457648492
30
0
41
1
10
-38
20
-5.00824253816086
30
0
41
1
10
-38
20
-5.23076600439052
30
0
41
1
10
-38
20
-5.45231022599046
30
0
41
1
10
-38
20
-5.67283041504652
30
0
41
1
10
-38
20
-5.89228674128222
30
0
41
1
10
-38
20
-6.11064496108523
30
0
41
1
10
-38
20
-6.32787239667013
30
0
41
1
10
-38
20
-6.54393525610644
30
0
41
1
10
-38
20
-6.75880334040127
30
0
41
1
10
-38
20
-6.97245311766207
30
0
41
1
10
-38
20
-7.18486111103374
30
0
41
1
10
-38
20
-7.39600347561742
30
0
41
1
10
-38
20
-7.60585874971361
30
0
41
1
10
-38
20
-7.8144064520111
30
0
41
1
10
-38
20
-8.09202295752311
30
0
41
1
10
-38
20
-8.43283023540656
30
0
41
1
10
-38
20
-8.83774029355055
30
0
41
1
10
-38
20
-9.16930023887323
30
0
41
1
10
-38
20
-9.43375044009511
30
0
41
1
10
-38
20
-9.62982432960192
30
0
41
1
10
-38
20
-9.82444814962994
30
0
41
1
10
-38
20
-10.0176111126089
30
0
41
1
10
-38
20
-10.2093007057547
30
0
41
1
10
-38
20
-10.3995107409486
30
0
41
1
10
-38
20
-10.5882272324294
30
0
41
1
10
-38
20
-10.8388445170812
30
0
41
1
10
-38
20
-11.0835274377931
30
0
41
1
10
-38
20
-11.327997250045
30
0
41
1
10
-38
20
-11.5091211965041
30
0
41
1
10
-38
20
-11.6886991809046
30
0
41
1
10
-38
20
-11.8667275177687
30
0
41
1
10
-38
20
-12.0431930522803
30
0
41
1
10
-38
20
-12.2180896645831
30
0
41
1
10
-38
20
-12.3914124247035
30
0
41
1
10
-38
20
-12.5631480735019
30
0
41
1
10
-38
20
-12.7332924196477
30
0
41
1
10
-38
20
-12.9018387248249
30
0
41
1
10
-38
20
-13.068774902876
30
0
41
1
10
-38
20
-13.2899980003418
30
0
41
1
10
-38
20
-13.5056406071554
30
0
41
1
10
-38
20
-13.7202970548285
30
0
41
1
10
-38
20
-13.9327572918622
30
0
41
1
10
-38
20
-14.1397069500695
30
0
41
1
10
-38
20
-14.3454836148157
30
0
41
1
10
-38
20
-14.4976048095277
30
0
41
1
10
-38
20
-14.6480433741443
30
0
41
1
10
-38
20
-14.8470538575164
30
0
41
1
10
-38
20
-15.0406366439893
30
0
41
1
10
-38
20
-15.2327734637881
30
0
41
1
10
-38
20
-15.3746583733236
30
0
41
1
10
-38
20
-15.5148115582755
30
0
41
1
10
-38
20
-15.6999837411247
30
0
41
1
10
-38
20
-15.8797870255403
30
0
41
1
10
-38
20
-16.0578801048401
30
0
41
1
10
-38
20
-16.189216581434
30
0
41
1
10
-38
20
-16.3187661779867
30
0
41
1
10
-38
20
-16.4896741385663
30
0
41
1
10
-38
20
-16.6552512602625
30
0
41
1
10
-38
20
-16.8188545807649
30
0
41
1
10
-38
20
-16.9392987318018
30
0
41
1
10
-38
20
-17.0578934672827
30
0
41
1
10
-38
20
-17.2140648101705
30
0
41
1
10
-38
20
-17.3649216616153
30
0
41
1
10
-38
20
-17.513530035822
30
0
41
1
10
-38
20
-17.6226956365842
30
0
41
1
10
-38
20
-17.7299433731025
30
0
41
1
10
-38
20
-17.8708440004863
30
0
41
1
10
-38
20
-18.0064238716364
30
0
41
1
10
-38
20
-18.1394672902698
30
0
41
1
10
-38
20
-18.236915915677
30
0
41
1
10
-38
20
-18.3323672965474
30
0
41
1
10
-38
20
-18.4258040962282
30
0
41
1
10
-38
20
-18.517209887002
30
0
41
1
10
-38
20
-18.6065734896479
30
0
41
1
10
-38
20
-18.6938772522127
30
0
41
1
10
-38
20
-18.7791047692188
30
0
41
1
10
-38
20
-18.8622426359768
30
0
41
1
10
-38
20
-18.9432715834756
30
0
41
1
10
-38
20
-19.0221745805325
30
0
41
1
10
-38
20
-19.0989364136873
30
0
41
1
10
-38
20
-19.1735363647814
30
0
41
1
10
-38
20
-19.2704515417461
30
0
41
1
10
-38
20
-19.3619266112172
30
0
41
1
10
-38
20
-19.4499498647732
30
0
41
1
10
-38
20
-19.5134574724377
30
0
41
1
10
-38
20
-19.5746836830748
30
0
41
1
10
-38
20
-19.6336085328263
30
0
41
1
10
-38
20
-19.6902080668946
30
0
41
1
10
-38
20
-19.7628242842049
30
0
41
1
10
-38
20
-19.829873984374
30
0
41
1
10
-38
20
-19.8928775551026
30
0
41
1
10
-38
20
-19.9374871757692
30
0
41
1
10
-38
20
-19.9796195436674
30
0
41
1
10
-38
20
-20.0326760063813
30
0
41
1
10
-38
20
-20.0800381474625
30
0
41
1
10
-38
20
-20.1228090027496
30
0
41
1
10
-38
20
-20.1521177658612
30
0
41
1
10
-38
20
-20.1787668505585
30
0
41
1
10
-38
20
-20.2027210424566
30
0
41
1
10
-38
20
-20.2239455432986
30
0
41
1
10
-38
20
-20.2424031363825
30
0
41
1
10
-38
20
-20.2580557552655
30
0
41
1
10
-38
20
-20.2708642249464
30
0
41
1
10
-38
20
-20.2807872561095
30
0
41
1
10
-38
20
-20.2877829489451
30
0
41
1
10
-38.0000000000001
20
-20.2915517749944
30
0
41
1
10
-38
20
-20.2923326366385
30
0
41
1
10
-38
20
-20.2923481754509
30
0
0
SPLINE
5
126
100
AcDbEntity
8
SK1
62
256
6
ByLayer
370
18
48
1
60
0
100
AcDbSpline
70
4
71
3
72
30
73
26
40
0
40
0
40
0
40
0
40
0.0312499999999997
40
0.0312499999999997
40
0.0624999999999994
40
0.0624999999999994
40
0.0937499999999991
40
0.0937499999999991
40
0.124999999999999
40
0.124999999999999
40
0.156249999999998
40
0.156249999999998
40
0.187499999999998
40
0.187499999999998
40
0.249999999999998
40
0.249999999999998
40
0.312499999999998
40
0.312499999999998
40
0.374999999999999
40
0.374999999999999
40
0.499999999999999
40
0.499999999999999
40
0.749999999999999
40
0.749999999999999
40
1
40
1
40
1
40
1
41
1
10
-0.394976888875306
20
-6.32694279392757
30
0
41
1
10
-0.411238696721767
20
-6.34126302490415
30
0
41
1
10
-0.428507485946397
20
-6.35445833731507
30
0
41
1
10
-0.466057816276162
20
-6.37750355983715
30
0
41
1
10
-0.486259278879999
20
-6.38723211102038
30
0
41
1
10
-0.528928737140888
20
-6.40070980810015
30
0
41
1
10
-0.552005370573369
20
-6.40446654618015
30
0
41
1
10
-0.597682826800479
20
-6.40404538429897
30
0
41
1
10
-0.620747969171418
20
-6.39988942772294
30
0
41
1
10
-0.663841284887184
20
-6.38551624086298
30
0
41
1
10
-0.684254761753095
20
-6.37530734814359
30
0
41
1
10
-0.721714491331937
20
-6.35175818060955
30
0
41
1
10
-0.739184552681479
20
-6.33820913265026
30
0
41
1
10
-0.788162075932092
20
-6.29461172820726
30
0
41
1
10
-0.815964113388588
20
-6.26223556861285
30
0
41
1
10
-0.866810585477168
20
-6.19416487342832
30
0
41
1
10
-0.889725334639508
20
-6.1583192245233
30
0
41
1
10
-0.931663440024437
20
-6.08576021404923
30
0
41
1
10
-0.950810679353566
20
-6.0488206370035
30
0
41
1
10
-1.00456810808541
20
-5.93660131926188
30
0
41
1
10
-1.03556300059233
20
-5.8599435845837
30
0
41
1
10
-1.12018816360208
20
-5.62641894994655
30
0
41
1
10
-1.16556178401135
20
-5.4658169284836
30
0
41
1
10
-1.24442385148592
20
-5.14144332217066
30
0
41
1
10
-1.2777459036995
20
-4.97713666802881
30
0
41
1
10
-1.30710678118655
20
-4.81101321788441
30
0
0
SPLINE
5
127
100
AcDbEntity
8
SK1
62
256
6
ByLayer
370
18
48
1
60
0
100
AcDbSpline
70
4
71
3
72
26
73
22
40
0
40
0
40
0
40
0
40
0.125
40
0.125
40
0.25
40
0.25
40
0.3125
40
0.3125
40
0.375
40
0.375
40
0.5
40
0.5
40
0.625
40
0.625
40
0.6875
40
0.6875
40
0.75
40
0.75
40
0.875
40
0.875
40
1
40
1
40
1
40
1
41
1
10
-1.30710678118655
20
4.81101329740289
30
0
41
1
10
-1.37461329628553
20
4.42906267002715
30
0
41
1
10
-1.43842288357249
20
4.04270825974382
30
0
41
1
10
-1.55482767545837
20
3.25964078646078
30
0
41
1
10
-1.60743482920452
20
2.8629346370391
30
0
41
1
10
-1.67407835953028
20
2.25842147165619
30
0
41
1
10
-1.69423470862267
20
2.05533443764037
30
0
41
1
10
-1.72965556309052
20
1.64563836285328
30
0
41
1
10
-1.7448471032956
20
1.43963199934174
30
0
41
1
10
-1.78162975563026
20
0.822757523243126
30
0
41
1
10
-1.79445291889314
20
0.411207816053747
30
0
41
1
10
-1.79442593338328
20
-0.412525631247917
30
0
41
1
10
-1.78157312882854
20
-0.824709416072125
30
0
41
1
10
-1.7445898427946
20
-1.44343920897933
30
0
41
1
10
-1.72930597743908
20
-1.6500594850441
30
0
41
1
10
-1.6939077740922
20
-2.05873054114886
30
0
41
1
10
-1.67377216548033
20
-2.26136839295077
30
0
41
1
10
-1.60720273884692
20
-2.86469699044164
30
0
41
1
10
-1.55465955887379
20
-3.26082920006922
30
0
41
1
10
-1.4383598816452
20
-4.04307426593763
30
0
41
1
10
-1.37459233181622
20
-4.42918087958253
30
0
41
1
10
-1.30710678118663
20
-4.81101321788435
30
0
0
SPLINE
5
128
100
AcDbEntity
8
SK1
62
256
6
ByLayer
370
18
48
1
60
0
100
AcDbSpline
70
4
71
3
72
26
73
22
40
0
40
0
40
0
40
0
40
0.25
40
0.25
40
0.500000000000001
40
0.500000000000001
40
0.625000000000001
40
0.625000000000001
40
0.687500000000001
40
0.687500000000001
40
0.750000000000001
40
0.750000000000001
40
0.812500000000001
40
0.812500000000001
40
0.875000000000001
40
0.875000000000001
40
0.906250000000001
40
0.906250000000001
40
0.9375
40
0.9375
40
1
40
1
40
1
40
1
41
1
10
-1.30710678118655
20
4.81101329740289
30
0
41
1
10
-1.27777674809065
20
4.97696208805669
30
0
41
1
10
-1.24449184372207
20
5.14110933888219
30
0
41
1
10
-1.16572403812288
20
5.46520409815253
30
0
41
1
10
-1.1204198695232
20
5.62560509654318
30
0
41
1
10
-1.03604034231245
20
5.85871268051358
30
0
41
1
10
-1.00514324915821
20
5.93523451486101
30
0
41
1
10
-0.951595196520515
20
6.04726373371713
30
0
41
1
10
-0.932528346395401
20
6.0841422654172
30
0
41
1
10
-0.890792591053469
20
6.1565891448071
30
0
41
1
10
-0.86800236553799
20
6.19240090738069
30
0
41
1
10
-0.817160575690593
20
6.26079505981266
30
0
41
1
10
-0.789433163823588
20
6.29319778625549
30
0
41
1
10
-0.724969179209751
20
6.35113158829387
30
0
41
1
10
-0.687361729545614
20
6.37733024516984
30
0
41
1
10
-0.622158748113947
20
6.39958064489679
30
0
41
1
10
-0.599752058371365
20
6.40383193252995
30
0
41
1
10
-0.553302263741188
20
6.40463597982043
30
0
41
1
10
-0.530550758270607
20
6.40110290558201
30
0
41
1
10
-0.464963827942824
20
6.38073633145459
30
0
41
1
10
-0.427743955231875
20
6.35579794481987
30
0
41
1
10
-0.394976888874737
20
6.32694309068151
30
0
0
SPLINE
5
129
100
AcDbEntity
8
SK1
62
256
6
ByLayer
370
18
48
1
60
0
100
AcDbSpline
70
4
71
3
72
111
73
107
40
0
40
0
40
0
40
0
40
0.0065522607365673
40
0.0150965398322452
40
0.0236408189279231
40
0.032185098023601
40
0.0407293771192789
40
0.0492736562149567
40
0.0578179353106346
40
0.0663622144063125
40
0.0749064935019904
40
0.0834507725976683
40
0.0919950516933461
40
0.100539330789024
40
0.11762788898038
40
0.126172168076058
40
0.134716447171736
40
0.143260726267413
40
0.151805005363091
40
0.168893563554447
40
0.177437842650125
40
0.185982121745803
40
0.194526400841481
40
0.203070679937159
40
0.211614959032837
40
0.220159238128514
40
0.23724779631987
40
0.245792075415548
40
0.254336354511226
40
0.262880633606904
40
0.271424912702582
40
0.27996919179826
40
0.288513470893937
40
0.297057749989615
40
0.305602029085293
40
0.314146308180971
40
0.322690587276649
40
0.331234866372327
40
0.339779145468005
40
0.348323424563682
40
0.35686770365936
40
0.373956261850716
40
0.382500540946394
40
0.391044820042072
40
0.39958909913775
40
0.408133378233428
40
0.425221936424784
40
0.433766215520461
40
0.442310494616139
40
0.450854773711817
40
0.459399052807495
40
0.476487610998851
40
0.485031890094529
40
0.493576169190207
40
0.502120448285884
40
0.510664727381562
40
0.527753285572918
40
0.536297564668596
40
0.544841843764274
40
0.553386122859952
40
0.56193040195563
40
0.579018960146985
40
0.587563239242663
40
0.596107518338341
40
0.604651797434019
40
0.613196076529697
40
0.630284634721053
40
0.63882891381673
40
0.647373192912408
40
0.664461751103764
40
0.673006030199442
40
0.68155030929512
40
0.690094588390798
40
0.698638867486476
40
0.707183146582153
40
0.715727425677831
40
0.724271704773509
40
0.732815983869187
40
0.741360262964865
40
0.749904542060543
40
0.758448821156221
40
0.766993100251899
40
0.784081658443255
40
0.792625937538932
40
0.80117021663461
40
0.809714495730288
40
0.818258774825966
40
0.826803053921644
40
0.835347333017322
40
0.843891612112999
40
0.852435891208677
40
0.869524449400033
40
0.886613007591389
40
0.903701565782745
40
0.912245844878423
40
0.920790123974101
40
0.929334403069779
40
0.937878682165456
40
0.946422961261134
40
0.954967240356812
40
0.96351151945249
40
0.972055798548168
40
0.980600077643846
40
0.989144356739524
40
0.997688635835201
40
1
40
1
40
1
40
1
41
1
10
-0.394976888875306
20
-21.8653787938085
30
0
41
1
10
-0.394976888875277
20
-21.8653271903873
30
0
41
1
10
-0.394976888875306
20
-21.8644655180607
30
0
41
1
10
-0.394976888875277
20
-21.8604739519412
30
0
41
1
10
-0.394976888875306
20
-21.8529599173647
30
0
41
1
10
-0.394976888875306
20
-21.8423149132633
30
0
41
1
10
-0.394976888875277
20
-21.8285907189997
30
0
41
1
10
-0.394976888875277
20
-21.8118377637545
30
0
41
1
10
-0.394976888875306
20
-21.7921034780961
30
0
41
1
10
-0.394976888875277
20
-21.7694337460976
30
0
41
1
10
-0.394976888875306
20
-21.7438726893518
30
0
41
1
10
-0.394976888875306
20
-21.7154617242468
30
0
41
1
10
-0.394976888875306
20
-21.6842420425293
30
0
41
1
10
-0.394976888875277
20
-21.6389063892513
30
0
41
1
10
-0.394976888875277
20
-21.5881524005931
30
0
41
1
10
-0.394976888875306
20
-21.5320229383892
30
0
41
1
10
-0.394976888875306
20
-21.4873093096751
30
0
41
1
10
-0.394976888875306
20
-21.4399968999807
30
0
41
1
10
-0.394976888875306
20
-21.3734709318986
30
0
41
1
10
-0.394976888875306
20
-21.301932078811
30
0
41
1
10
-0.394976888875306
20
-21.2253665102307
30
0
41
1
10
-0.394976888875306
20
-21.1655031751743
30
0
41
1
10
-0.394976888875277
20
-21.1032108820957
30
0
41
1
10
-0.394976888875306
20
-21.0385142950144
30
0
41
1
10
-0.394976888875306
20
-20.9714365096391
30
0
41
1
10
-0.394976888875277
20
-20.8788308931333
30
0
41
1
10
-0.394976888875277
20
-20.781635486227
30
0
41
1
10
-0.394976888875277
20
-20.6797749513881
30
0
41
1
10
-0.394976888875306
20
-20.6011280559991
30
0
41
1
10
-0.394976888875277
20
-20.5202292348052
30
0
41
1
10
-0.394976888875306
20
-20.437098129367
30
0
41
1
10
-0.394976888875277
20
-20.3517517880635
30
0
41
1
10
-0.394976888875306
20
-20.264209431984
30
0
41
1
10
-0.394976888875306
20
-20.1744885559187
30
0
41
1
10
-0.394976888875277
20
-20.082604778142
30
0
41
1
10
-0.394976888875277
20
-19.988575861591
30
0
41
1
10
-0.394976888875306
20
-19.8924174211231
30
0
41
1
10
-0.394976888875306
20
-19.7941438028822
30
0
41
1
10
-0.394976888875277
20
-19.6937719762305
30
0
41
1
10
-0.394976888875306
20
-19.5913159811741
30
0
41
1
10
-0.394976888875277
20
-19.4519098709686
30
0
41
1
10
-0.394976888875306
20
-19.3085018143331
30
0
41
1
10
-0.394976888875306
20
-19.1609196079758
30
0
41
1
10
-0.394976888875306
20
-19.048244884465
30
0
41
1
10
-0.394976888875306
20
-18.933565131357
30
0
41
1
10
-0.394976888875277
20
-18.7779598884918
30
0
41
1
10
-0.394976888875306
20
-18.6185132745736
30
0
41
1
10
-0.394976888875277
20
-18.4550234389153
30
0
41
1
10
-0.394976888875306
20
-18.3304892054167
30
0
41
1
10
-0.394976888875277
20
-18.2040166330948
30
0
41
1
10
-0.394976888875306
20
-18.0327708145484
30
0
41
1
10
-0.394976888875306
20
-17.8578220601067
30
0
41
1
10
-0.394976888875277
20
-17.6789377757623
30
0
41
1
10
-0.394976888875277
20
-17.5429190217058
30
0
41
1
10
-0.394976888875277
20
-17.4050188999402
30
0
41
1
10
-0.394976888875277
20
-17.2186059445176
30
0
41
1
10
-0.394976888875277
20
-17.0286080073569
30
0
41
1
10
-0.394976888875277
20
-16.8347642769002
30
0
41
1
10
-0.394976888875277
20
-16.6875782011067
30
0
41
1
10
-0.394976888875277
20
-16.5385587125243
30
0
41
1
10
-0.394976888875277
20
-16.3373780173449
30
0
41
1
10
-0.394976888875306
20
-16.1327154012234
30
0
41
1
10
-0.394976888875277
20
-15.9242799594928
30
0
41
1
10
-0.394976888875277
20
-15.7661946363952
30
0
41
1
10
-0.394976888875306
20
-15.6063159613101
30
0
41
1
10
-0.394976888875306
20
-15.3907043201103
30
0
41
1
10
-0.394976888875306
20
-15.171701411915
30
0
41
1
10
-0.394976888875277
20
-14.9489833053404
30
0
41
1
10
-0.394976888875277
20
-14.7239127068147
30
0
41
1
10
-0.394976888875306
20
-14.4955025482493
30
0
41
1
10
-0.394976888875277
20
-14.2634098807097
30
0
41
1
10
-0.394976888875277
20
-14.0876421688895
30
0
41
1
10
-0.394976888875277
20
-13.9101338677051
30
0
41
1
10
-0.394976888875277
20
-13.7308904478326
30
0
41
1
10
-0.394976888875277
20
-13.5499151547097
30
0
41
1
10
-0.394976888875277
20
-13.3672125455487
30
0
41
1
10
-0.394976888875277
20
-13.182787448996
30
0
41
1
10
-0.394976888875277
20
-12.9966426041155
30
0
41
1
10
-0.394976888875277
20
-12.8087826250924
30
0
41
1
10
-0.394976888875306
20
-12.6192114874981
30
0
41
1
10
-0.394976888875277
20
-12.4279318067111
30
0
41
1
10
-0.394976888875277
20
-12.1705475695385
30
0
41
1
10
-0.394976888875277
20
-11.9099848253352
30
0
41
1
10
-0.394976888875277
20
-11.6458042976885
30
0
41
1
10
-0.394976888875277
20
-11.4460361162834
30
0
41
1
10
-0.394976888875277
20
-11.2445799004538
30
0
41
1
10
-0.394976888875306
20
-11.0414388905992
30
0
41
1
10
-0.394976888875306
20
-10.8366153667066
30
0
41
1
10
-0.394976888875277
20
-10.6301131683678
30
0
41
1
10
-0.394976888875277
20
-10.4219344727077
30
0
41
1
10
-0.394976888875277
20
-10.142045462177
30
0
41
1
10
-0.394976888875277
20
-9.78821091217483
30
0
41
1
10
-0.394976888875277
20
-9.35683912175983
30
0
41
1
10
-0.394976888875277
20
-8.99192948127941
30
0
41
1
10
-0.394976888875277
20
-8.69651811258549
30
0
41
1
10
-0.394976888875277
20
-8.47338951886385
30
0
41
1
10
-0.394976888875277
20
-8.24861635560848
30
0
41
1
10
-0.394976888875277
20
-8.02220293401996
30
0
41
1
10
-0.394976888875277
20
-7.79415340272945
30
0
41
1
10
-0.394976888875306
20
-7.56447269448574
30
0
41
1
10
-0.394976888875277
20
-7.33316546385933
30
0
41
1
10
-0.394976888875306
20
-7.10023740586411
30
0
41
1
10
-0.394976888875277
20
-6.8656950488801
30
0
41
1
10
-0.394976888875277
20
-6.62954555948869
30
0
41
1
10
-0.394976888875277
20
-6.44960775400912
30
0
41
1
10
-0.394976888875277
20
-6.3484916311391
30
0
41
1
10
-0.394976888875277
20
-6.32694279392976
30
0
0
SPLINE
5
12A
100
AcDbEntity
8
SK1
62
256
6
ByLayer
370
18
48
1
60
0
100
AcDbSpline
70
4
71
3
72
24
73
20
40
0
40
0
40
0
40
0
40
0.0312500000000014
40
0.0312500000000014
40
0.0625000000000027
40
0.0625000000000027
40
0.0937500000000041
40
0.0937500000000041
40
0.125000000000005
40
0.125000000000005
40
0.187500000000005
40
0.187500000000005
40
0.250000000000005
40
0.250000000000005
40
0.375000000000005
40
0.375000000000005
40
0.500000000000004
40
0.500000000000004
40
1
40
1
40
1
40
1
41
1
10
-0.394976888875277
20
6.326943090669
30
0
41
1
10
-0.38847879114121
20
6.32122083099978
30
0
41
1
10
-0.381313154819537
20
6.31618565872657
30
0
41
1
10
-0.365409710573573
20
6.30942196278454
30
0
41
1
10
-0.356491145072255
20
6.30782589043295
30
0
41
1
10
-0.338830866580082
20
6.31048209062155
30
0
41
1
10
-0.330289930609837
20
6.31473882346546
30
0
41
1
10
-0.315858342049921
20
6.32593033296192
30
0
41
1
10
-0.309649778597219
20
6.33285276949908
30
0
41
1
10
-0.293313689377072
20
6.35478748070284
30
0
41
1
10
-0.285093867610584
20
6.37118996774478
30
0
41
1
10
-0.271027300228241
20
6.40434328922584
30
0
41
1
10
-0.265260102162756
20
6.42121101452722
30
0
41
1
10
-0.249955006097821
20
6.47225869816407
30
0
41
1
10
-0.24239685395699
20
6.50696236445458
30
0
41
1
10
-0.229806665913117
20
6.57651474417165
30
0
41
1
10
-0.224881575141865
20
6.6112317240092
30
0
41
1
10
-0.204383593087499
20
6.78454973877444
30
0
41
1
10
-0.200000000000955
20
6.92236219959716
30
0
41
1
10
-0.200000000000983
20
7.05951756777668
30
0
0
SPLINE
5
12B
100
AcDbEntity
8
SK1
62
256
6
ByLayer
370
18
48
1
60
0
100
AcDbSpline
70
4
71
3
72
115
73
111
40
0
40
0
40
0
40
0
40
0.0023113241341955
40
0.0108554918596969
40
0.0193996595851982
40
0.0279438273106995
40
0.0364879950362009
40
0.0450321627617022
40
0.0535763304872036
40
0.0621204982127049
40
0.0706646659382062
40
0.0792088336637076
40
0.0877530013892089
40
0.0962971691147103
40
0.113385504565713
40
0.130473840016716
40
0.147562175467718
40
0.15610634319322
40
0.164650510918721
40
0.173194678644222
40
0.181738846369724
40
0.190283014095225
40
0.198827181820726
40
0.207371349546228
40
0.215915517271729
40
0.233003852722732
40
0.241548020448233
40
0.250092188173734
40
0.258636355899236
40
0.267180523624737
40
0.275724691350238
40
0.28426885907574
40
0.292813026801241
40
0.301357194526742
40
0.309901362252244
40
0.318445529977745
40
0.326989697703246
40
0.335533865428748
40
0.344078033154249
40
0.35262220087975
40
0.361166368605252
40
0.365438452468002
40
0.369710536330753
40
0.378254704056254
40
0.386798871781756
40
0.395343039507257
40
0.399615123370008
40
0.403887207232758
40
0.41243137495826
40
0.420975542683761
40
0.438063878134764
40
0.446608045860265
40
0.455152213585767
40
0.463696381311268
40
0.472240549036769
40
0.489328884487772
40
0.497873052213273
40
0.502145136076024
40
0.506417219938774
40
0.514961387664276
40
0.523505555389777
40
0.54059389084078
40
0.549138058566281
40
0.557682226291782
40
0.566226394017284
40
0.574770561742785
40
0.591858897193788
40
0.600403064919289
40
0.60467514878204
40
0.60894723264479
40
0.617491400370292
40
0.626035568095793
40
0.643123903546796
40
0.651668071272297
40
0.660212238997799
40
0.6687564067233
40
0.677300574448801
40
0.685844742174302
40
0.694388909899804
40
0.702933077625305
40
0.711477245350807
40
0.720021413076308
40
0.728565580801809
40
0.737109748527311
40
0.745653916252812
40
0.754198083978313
40
0.762742251703815
40
0.779830587154817
40
0.788374754880319
40
0.79691892260582
40
0.805463090331321
40
0.814007258056823
40
0.822551425782324
40
0.831095593507825
40
0.848183928958828
40
0.856728096684329
40
0.865272264409831
40
0.873816432135332
40
0.882360599860833
40
0.899448935311836
40
0.916537270762839
40
0.933625606213841
40
0.942169773939343
40
0.950713941664844
40
0.959258109390345
40
0.967802277115847
40
0.976346444841348
40
0.984890612566849
40
0.993434780292351
40
1
40
1
40
1
40
1
41
1
10
-0.394976888875277
20
6.32694309067119
30
0
41
1
10
-0.394976888875277
20
6.34849183540922
30
0
41
1
10
-0.394976888875277
20
6.44960786563362
30
0
41
1
10
-0.394976888875277
20
6.62954558311137
30
0
41
1
10
-0.394976888875277
20
6.86569504295815
30
0
41
1
10
-0.394976888875277
20
7.10023725398264
30
0
41
1
10
-0.394976888875277
20
7.33316516004027
30
0
41
1
10
-0.394976888875277
20
7.56447255210355
30
0
41
1
10
-0.394976888875277
20
7.79415362199521
30
0
41
1
10
-0.394976888875277
20
8.0222029406992
30
0
41
1
10
-0.394976888875277
20
8.24861627222978
30
0
41
1
10
-0.394976888875277
20
8.47338949471808
30
0
41
1
10
-0.394976888875277
20
8.69651812098675
30
0
41
1
10
-0.394976888875277
20
8.99192950801697
30
0
41
1
10
-0.394976888875277
20
9.3568391135907
30
0
41
1
10
-0.394976888875277
20
9.78821091215369
30
0
41
1
10
-0.394976888875277
20
10.1420454829465
30
0
41
1
10
-0.394976888875277
20
10.4219344610486
30
0
41
1
10
-0.394976888875277
20
10.630113157504
30
0
41
1
10
-0.394976888875277
20
10.8366153761928
30
0
41
1
10
-0.394976888875277
20
11.0414389105764
30
0
41
1
10
-0.394976888875306
20
11.2445799083311
30
0
41
1
10
-0.394976888875277
20
11.4460361066677
30
0
41
1
10
-0.394976888875277
20
11.6458042855523
30
0
41
1
10
-0.394976888875306
20
11.9099848332047
30
0
41
1
10
-0.394976888875277
20
12.1705475891153
30
0
41
1
10
-0.394976888875277
20
12.4279318017785
30
0
41
1
10
-0.394976888875277
20
12.6192114742801
30
0
41
1
10
-0.394976888875277
20
12.8087826212334
30
0
41
1
10
-0.394976888875306
20
12.9966426140257
30
0
41
1
10
-0.394976888875277
20
13.182787463215
30
0
41
1
10
-0.394976888875277
20
13.3672125481811
30
0
41
1
10
-0.394976888875277
20
13.549915145406
30
0
41
1
10
-0.394976888875277
20
13.7308904366346
30
0
41
1
10
-0.394976888875277
20
13.9101338497815
30
0
41
1
10
-0.394976888875277
20
14.0876420714538
30
0
41
1
10
-0.394976888875277
20
14.2634095816694
30
0
41
1
10
-0.394976888875277
20
14.4374320816019
30
0
41
1
10
-0.394976888875277
20
14.6097059483473
30
0
41
1
10
-0.394976888875306
20
14.7802248596231
30
0
41
1
10
-0.394976888875277
20
14.9208273816877
30
0
41
1
10
-0.394976888875277
20
15.0324801920763
30
0
41
1
10
-0.394976888875277
20
15.1435436982815
30
0
41
1
10
-0.394976888875277
20
15.2812010193763
30
0
41
1
10
-0.394976888875277
20
15.4446487492657
30
0
41
1
10
-0.394976888875306
20
15.5793432837569
30
0
41
1
10
-0.394976888875277
20
15.6862549949744
30
0
41
1
10
-0.394976888875277
20
15.7925696820839
30
0
41
1
10
-0.394976888875277
20
15.9242804112408
30
0
41
1
10
-0.394976888875277
20
16.1327150774874
30
0
41
1
10
-0.394976888875277
20
16.3373774066279
30
0
41
1
10
-0.394976888875277
20
16.5385587049943
30
0
41
1
10
-0.394976888875306
20
16.6875786248762
30
0
41
1
10
-0.394976888875277
20
16.8347647509306
30
0
41
1
10
-0.394976888875306
20
17.0286078387926
30
0
41
1
10
-0.394976888875277
20
17.2186048360495
30
0
41
1
10
-0.394976888875277
20
17.3816993239948
30
0
41
1
10
-0.394976888875277
20
17.4739690253912
30
0
41
1
10
-0.394976888875277
20
17.5656125946474
30
0
41
1
10
-0.394976888875306
20
17.6789387292296
30
0
41
1
10
-0.394976888875277
20
17.8578219077773
30
0
41
1
10
-0.394976888875277
20
18.0327705937831
30
0
41
1
10
-0.394976888875306
20
18.2040166079408
30
0
41
1
10
-0.394976888875277
20
18.330489335967
30
0
41
1
10
-0.394976888875306
20
18.4550236113311
30
0
41
1
10
-0.394976888875306
20
18.6185131846482
30
0
41
1
10
-0.394976888875277
20
18.777958735224
30
0
41
1
10
-0.394976888875277
20
18.9140993494365
30
0
41
1
10
-0.394976888875277
20
18.9909051568102
30
0
41
1
10
-0.394976888875277
20
19.0670441229991
30
0
41
1
10
-0.394976888875277
20
19.160920630363
30
0
41
1
10
-0.394976888875306
20
19.308501644014
30
0
41
1
10
-0.394976888875277
20
19.4519091739392
30
0
41
1
10
-0.394976888875306
20
19.5913158900225
30
0
41
1
10
-0.394976888875277
20
19.6937723311917
30
0
41
1
10
-0.394976888875277
20
19.79414426657
30
0
41
1
10
-0.394976888875306
20
19.8924175863555
30
0
41
1
10
-0.394976888875306
20
19.9885758834751
30
0
41
1
10
-0.394976888875277
20
20.082604770276
30
0
41
1
10
-0.394976888875306
20
20.1744885542463
30
0
41
1
10
-0.394976888875306
20
20.2642094206366
30
0
41
1
10
-0.394976888875277
20
20.3517517634561
30
0
41
1
10
-0.394976888875277
20
20.4370981008412
30
0
41
1
10
-0.394976888875277
20
20.5202292190253
30
0
41
1
10
-0.394976888875306
20
20.6011280536546
30
0
41
1
10
-0.394976888875306
20
20.6797749496461
30
0
41
1
10
-0.394976888875306
20
20.7816354627076
30
0
41
1
10
-0.394976888875277
20
20.8788308563806
30
0
41
1
10
-0.394976888875277
20
20.9714364994015
30
0
41
1
10
-0.394976888875306
20
21.038514297088
30
0
41
1
10
-0.394976888875306
20
21.1032108723211
30
0
41
1
10
-0.394976888875277
20
21.1655031445011
30
0
41
1
10
-0.394976888875306
20
21.2253664719936
30
0
41
1
10
-0.394976888875306
20
21.3019320664004
30
0
41
1
10
-0.394976888875277
20
21.3734709387681
30
0
41
1
10
-0.394976888875277
20
21.4399968711308
30
0
41
1
10
-0.394976888875306
20
21.4873092663299
30
0
41
1
10
-0.394976888875306
20
21.5320229149808
30
0
41
1
10
-0.394976888875277
20
21.5881524120742
30
0
41
1
10
-0.394976888875306
20
21.651618462036
30
0
41
1
10
-0.394976888875306
20
21.7168668922192
30
0
41
1
10
-0.394976888875277
20
21.7618666429643
30
0
41
1
10
-0.394976888875306
20
21.7921034347989
30
0
41
1
10
-0.394976888875277
20
21.8118377229246
30
0
41
1
10
-0.394976888875306
20
21.8285907137819
30
0
41
1
10
-0.394976888875306
20
21.8423149188875
30
0
41
1
10
-0.394976888875306
20
21.8529598769268
30
0
41
1
10
-0.394976888875277
20
21.8604737650697
30
0
41
1
10
-0.394976888875306
20
21.8644673822117
30
0
41
1
10
-0.394976888875277
20
21.8653285672432
30
0
41
1
10
-0.394976888875277
20
21.8653790907249
30
0
0
SPLINE
5
12C
100
AcDbEntity
8
SK1
62
256
6
ByLayer
370
18
48
1
60
0
100
AcDbSpline
70
4
71
3
72
26
73
22
40
0
40
0
40
0
40
0
40
0.250000000000002
40
0.250000000000002
40
0.500000000000004
40
0.500000000000004
40
0.625000000000005
40
0.625000000000005
40
0.750000000000006
40
0.750000000000006
40
0.812500000000006
40
0.812500000000006
40
0.875000000000005
40
0.875000000000005
40
0.906250000000004
40
0.906250000000004
40
0.937500000000003
40
0.937500000000003
40
0.968750000000001
40
0.968750000000001
40
1
40
1
40
1
40
1
41
1
10
-0.199999999999989
20
-7.05951749342083
30
0
41
1
10
-0.199999999999989
20
-6.99088366827036
30
0
41
1
10
-0.201319609066843
20
-6.92203745653026
30
0
41
1
10
-0.207680242986726
20
-6.78384770613772
30
0
41
1
10
-0.212644818423314
20
-6.71441370073745
30
0
41
1
10
-0.225032362287749
20
-6.610101532507
30
0
41
1
10
-0.22998853610892
20
-6.57535167439425
30
0
41
1
10
-0.242605757740392
20
-6.50597096289755
30
0
41
1
10
-0.250188173910743
20
-6.47131022305024
30
0
41
1
10
-0.265534367861704
20
-6.4203844584319
30
0
41
1
10
-0.271315983615722
20
-6.40356588205816
30
0
41
1
10
-0.285411407521366
20
-6.37054221190877
30
0
41
1
10
-0.293612475506308
20
-6.3542515820991
30
0
41
1
10
-0.310070058832963
20
-6.33235891704217
30
0
41
1
10
-0.316188975330021
20
-6.32559855176618
30
0
41
1
10
-0.330728129252975
20
-6.31447788013509
30
0
41
1
10
-0.339136190980326
20
-6.31039609843523
30
0
41
1
10
-0.35657676985852
20
-6.30785340244552
30
0
41
1
10
-0.365590532907476
20
-6.30947164062368
30
0
41
1
10
-0.381451989855123
20
-6.31627189389673
30
0
41
1
10
-0.388510166361129
20
-6.32124816508073
30
0
41
1
10
-0.394976888875277
20
-6.32694279392757
30
0
0
SPLINE
5
12D
100
AcDbEntity
8
SK1
62
256
6
ByLayer
370
18
48
1
60
0
100
AcDbSpline
70
4
71
3
72
303
73
299
40
0
40
0
40
0
40
0
40
0.0004865450703969
40
0.00397964284117
40
0.0074727406119431
40
0.0109658383827162
40
0.0144589361534892
40
0.0179520339242624
40
0.0214451316950354
40
0.0249382294658085
40
0.0284313272365816
40
0.0319244250073547
40
0.0354175227781277
40
0.0389106205489008
40
0.0424037183196739
40
0.045896816090447
40
0.0528830116319932
40
0.0563761094027662
40
0.0598692071735393
40
0.0633623049443124
40
0.0668554027150855
40
0.0738415982566317
40
0.0773346960274047
40
0.0808277937981778
40
0.084320891568951
40
0.087813989339724
40
0.0913070871104971
40
0.0948001848812701
40
0.101786380422816
40
0.105279478193589
40
0.108772575964363
40
0.112265673735136
40
0.115758771505909
40
0.119251869276682
40
0.122744967047455
40
0.126238064818228
40
0.129731162589001
40
0.133224260359774
40
0.136717358130547
40
0.14021045590132
40
0.143703553672093
40
0.147196651442866
40
0.15068974921364
40
0.157675944755186
40
0.161169042525959
40
0.164662140296732
40
0.168155238067505
40
0.171648335838278
40
0.178634531379824
40
0.182127629150597
40
0.18562072692137
40
0.189113824692143
40
0.192606922462917
40
0.199593118004463
40
0.203086215775236
40
0.206579313546009
40
0.210072411316782
40
0.213565509087555
40
0.220551704629101
40
0.224044802399874
40
0.227537900170647
40
0.23103099794142
40
0.234524095712193
40
0.24151029125374
40
0.245003389024513
40
0.248496486795286
40
0.251989584566059
40
0.255482682336832
40
0.262468877878378
40
0.265961975649151
40
0.269455073419924
40
0.27644126896147
40
0.279934366732244
40
0.283427464503017
40
0.28692056227379
40
0.290413660044563
40
0.293906757815336
40
0.297399855586109
40
0.300892953356882
40
0.304386051127655
40
0.307879148898428
40
0.311372246669201
40
0.314865344439974
40
0.318358442210747
40
0.325344637752294
40
0.328837735523067
40
0.33233083329384
40
0.335823931064613
40
0.339317028835386
40
0.342810126606159
40
0.346303224376932
40
0.349796322147705
40
0.353289419918478
40
0.360275615460025
40
0.367261811001571
40
0.374248006543117
40
0.37774110431389
40
0.381234202084663
40
0.384727299855436
40
0.388220397626209
40
0.391713495396982
40
0.395206593167755
40
0.398699690938528
40
0.402192788709301
40
0.405685886480074
40
0.409178984250848
40
0.412672082021621
40
0.416165179792394
40
0.419658277563167
40
0.42315137533394
40
0.426644473104713
40
0.430137570875486
40
0.433630668646259
40
0.435377217531646
40
0.437123766417032
40
0.438870315302419
40
0.440616864187805
40
0.444109961958578
40
0.447603059729351
40
0.449349608614738
40
0.451096157500125
40
0.452842706385511
40
0.454589255270898
40
0.458082353041671
40
0.459828901927057
40
0.461575450812444
40
0.46332199969783
40
0.465068548583217
40
0.466815097468604
40
0.46856164635399
40
0.470308195239376
40
0.472054744124763
40
0.47380129301015
40
0.475547841895536
40
0.477294390780923
40
0.479040939666309
40
0.480787488551696
40
0.482534037437082
40
0.484280586322469
40
0.486027135207855
40
0.487773684093242
40
0.489520232978629
40
0.491266781864015
40
0.493013330749402
40
0.494759879634788
40
0.496506428520175
40
0.498252977405561
40
0.499999526290948
40
0.501746075176334
40
0.503492624061721
40
0.505239172947108
40
0.506985721832494
40
0.508732270717881
40
0.510478819603267
40
0.512225368488654
40
0.51397191737404
40
0.515718466259427
40
0.517465015144813
40
0.5192115640302
40
0.520958112915586
40
0.522704661800973
40
0.524451210686359
40
0.526197759571746
40
0.527944308457133
40
0.529690857342519
40
0.531437406227905
40
0.533183955113292
40
0.534930503998679
40
0.536677052884065
40
0.538423601769452
40
0.540170150654838
40
0.541916699540225
40
0.545409797310998
40
0.547156346196384
40
0.548902895081771
40
0.550649443967158
40
0.552395992852544
40
0.555889090623317
40
0.55938218839409
40
0.561128737279477
40
0.562875286164863
40
0.56462183505025
40
0.566368383935636
40
0.569861481706409
40
0.573354579477182
40
0.576847677247955
40
0.580340775018729
40
0.583833872789502
40
0.587326970560275
40
0.590820068331048
40
0.594313166101821
40
0.597806263872594
40
0.601299361643367
40
0.60479245941414
40
0.608285557184913
40
0.611778654955687
40
0.615271752726459
40
0.618764850497233
40
0.622257948268006
40
0.625751046038779
40
0.632737241580325
40
0.639723437121871
40
0.646709632663417
40
0.65020273043419
40
0.653695828204963
40
0.657188925975737
40
0.66068202374651
40
0.664175121517283
40
0.667668219288056
40
0.671161317058829
40
0.674654414829602
40
0.681640610371148
40
0.685133708141921
40
0.688626805912694
40
0.692119903683467
40
0.695613001454241
40
0.699106099225014
40
0.702599196995787
40
0.70609229476656
40
0.709585392537333
40
0.713078490308106
40
0.716571588078879
40
0.720064685849652
40
0.723557783620425
40
0.727050881391198
40
0.730543979161971
40
0.734037076932744
40
0.735783625818131
40
0.737530174703517
40
0.74102327247429
40
0.744516370245063
40
0.748009468015837
40
0.749756016901223
40
0.75150256578661
40
0.754995663557383
40
0.758488761328156
40
0.765474956869702
40
0.768968054640475
40
0.772461152411248
40
0.775954250182021
40
0.779447347952794
40
0.786433543494341
40
0.789926641265114
40
0.7916731901505
40
0.793419739035887
40
0.79691283680666
40
0.800405934577433
40
0.807392130118979
40
0.810885227889752
40
0.814378325660525
40
0.817871423431298
40
0.821364521202071
40
0.828350716743618
40
0.831843814514391
40
0.833590363399777
40
0.835336912285164
40
0.838830010055937
40
0.84232310782671
40
0.849309303368256
40
0.852802401139029
40
0.856295498909802
40
0.859788596680575
40
0.863281694451348
40
0.866774792222121
40
0.870267889992894
40
0.873760987763668
40
0.877254085534441
40
0.880747183305214
40
0.884240281075987
40
0.88773337884676
40
0.891226476617533
40
0.894719574388306
40
0.898212672159079
40
0.905198867700625
40
0.908691965471398
40
0.912185063242171
40
0.915678161012944
40
0.919171258783718
40
0.922664356554491
40
0.926157454325264
40
0.93314364986681
40
0.936636747637583
40
0.940129845408356
40
0.943622943179129
40
0.947116040949902
40
0.954102236491448
40
0.961088432032995
40
0.968074627574541
40
0.971567725345314
40
0.975060823116087
40
0.97855392088686
40
0.982047018657633
40
0.985540116428406
40
0.989033214199179
40
0.992526311969952
40
0.996019409740725
40
0.999512507511498
40
1
40
1
40
1
40
1
41
1
10
-36.5
20
-21.1556097624929
30
0
41
1
10
-36.5
20
-21.155805938245
30
0
41
1
10
-36.5
20
-21.1573243052552
30
0
41
1
10
-36.5
20
-21.1588543296933
30
0
41
1
10
-36.5
20
-21.1578041644649
30
0
41
1
10
-36.5
20
-21.1536128319466
30
0
41
1
10
-36.5
20
-21.1463317710584
30
0
41
1
10
-36.5
20
-21.1360112646484
30
0
41
1
10
-36.5
20
-21.1226986516191
30
0
41
1
10
-36.5
20
-21.1064402531507
30
0
41
1
10
-36.5
20
-21.0872797892674
30
0
41
1
10
-36.5
20
-21.0652596303332
30
0
41
1
10
-36.5
20
-21.0404207944711
30
0
41
1
10
-36.5
20
-21.0128017234864
30
0
41
1
10
-36.5
20
-20.9824409225429
30
0
41
1
10
-36.5
20
-20.9382580424269
30
0
41
1
10
-36.5
20
-20.8890285523336
30
0
41
1
10
-36.5
20
-20.8342802793506
30
0
41
1
10
-36.5
20
-20.7907268231739
30
0
41
1
10
-36.5
20
-20.7446292080422
30
0
41
1
10
-36.5
20
-20.6796864153796
30
0
41
1
10
-36.5
20
-20.6101652553123
30
0
41
1
10
-36.5
20
-20.5353747607017
30
0
41
1
10
-36.5
20
-20.4769783724375
30
0
41
1
10
-36.5
20
-20.4161996091986
30
0
41
1
10
-36.5
20
-20.353062816238
30
0
41
1
10
-36.5
20
-20.287589681624
30
0
41
1
10
-36.5
20
-20.1970436522849
30
0
41
1
10
-36.5
20
-20.1024193061391
30
0
41
1
10
-36.5
20
-20.0027815100322
30
0
41
1
10
-36.5
20
-19.9259535527381
30
0
41
1
10
-36.5
20
-19.8469141406672
30
0
41
1
10
-36.5
20
-19.7656833992675
30
0
41
1
10
-36.5
20
-19.6822775521962
30
0
41
1
10
-36.5
20
-19.5967148362678
30
0
41
1
10
-36.5
20
-19.5090135437133
30
0
41
1
10
-36.5
20
-19.4191882978898
30
0
41
1
10
-36.5
20
-19.3272562516113
30
0
41
1
10
-36.5
20
-19.2332339353276
30
0
41
1
10
-36.5
20
-19.1371342717784
30
0
41
1
10
-36.5
20
-19.0389739868785
30
0
41
1
10
-36.5
20
-18.9387686023437
30
0
41
1
10
-36.5
20
-18.8022222651529
30
0
41
1
10
-36.5
20
-18.6623326618876
30
0
41
1
10
-36.5
20
-18.5177535555592
30
0
41
1
10
-36.5
20
-18.4075180436267
30
0
41
1
10
-36.5
20
-18.2953166794047
30
0
41
1
10
-36.5
20
-18.1428562465544
30
0
41
1
10
-36.5
20
-17.9872703841193
30
0
41
1
10
-36.5
20
-17.827069915531
30
0
41
1
10
-36.5
20
-17.7052052466277
30
0
41
1
10
-36.5
20
-17.5814422063202
30
0
41
1
10
-36.5
20
-17.4136313821348
30
0
41
1
10
-36.5
20
-17.2428947983014
30
0
41
1
10
-36.5
20
-17.0675955495038
30
0
41
1
10
-36.5
20
-16.9344844206004
30
0
41
1
10
-36.5
20
-16.7995343923805
30
0
41
1
10
-36.5
20
-16.6168608854212
30
0
41
1
10
-36.5
20
-16.4314450331352
30
0
41
1
10
-36.5
20
-16.241498813278
30
0
41
1
10
-36.5
20
-16.0974737380165
30
0
41
1
10
-36.5
20
-15.9516609547094
30
0
41
1
10
-36.5
20
-15.7545451164335
30
0
41
1
10
-36.5
20
-15.5548624364723
30
0
41
1
10
-36.5
20
-15.3506631330604
30
0
41
1
10
-36.5
20
-15.1960147192182
30
0
41
1
10
-36.5
20
-15.0396227184095
30
0
41
1
10
-36.5
20
-14.8284315021107
30
0
41
1
10
-36.5
20
-14.6148460432235
30
0
41
1
10
-36.5
20
-14.3967384349214
30
0
41
1
10
-36.5
20
-14.176348576809
30
0
41
1
10
-36.5
20
-13.9536769173599
30
0
41
1
10
-36.5
20
-13.7264696827894
30
0
41
1
10
-36.5
20
-13.5546713888901
30
0
41
1
10
-36.5
20
-13.3811911431361
30
0
41
1
10
-36.5
20
-13.2060373895955
30
0
41
1
10
-36.5
20
-13.0292149436137
30
0
41
1
10
-36.5
20
-12.8507281979538
30
0
41
1
10
-36.5
20
-12.6705857704289
30
0
41
1
10
-36.5
20
-12.4887913848281
30
0
41
1
10
-36.5
20
-12.3053503320752
30
0
41
1
10
-36.5
20
-12.1202707134412
30
0
41
1
10
-36.5
20
-11.9335556252714
30
0
41
1
10
-36.5
20
-11.6819759007756
30
0
41
1
10
-36.5
20
-11.4285504962004
30
0
41
1
10
-36.5
20
-11.1704660987636
30
0
41
1
10
-36.5
20
-10.9756652058486
30
0
41
1
10
-36.5
20
-10.7792636942327
30
0
41
1
10
-36.5
20
-10.5812696339219
30
0
41
1
10
-36.5
20
-10.3816870614505
30
0
41
1
10
-36.5
20
-10.18052371466
30
0
41
1
10
-36.5
20
-9.97778564072317
30
0
41
1
10
-36.5
20
-9.70483575174822
30
0
41
1
10
-36.5
20
-9.36101273737586
30
0
41
1
10
-36.5
20
-8.94153442741853
30
0
41
1
10
-36.5
20
-8.58745782596952
30
0
41
1
10
-36.5
20
-8.30004452993893
30
0
41
1
10
-36.5
20
-8.08346945831602
30
0
41
1
10
-36.5
20
-7.86540128403743
30
0
41
1
10
-36.5
20
-7.64585158611581
30
0
41
1
10
-36.5
20
-7.42483229470756
30
0
41
1
10
-36.5
20
-7.20235684280954
30
0
41
1
10
-36.5
20
-6.97843834484934
30
0
41
1
10
-36.5
20
-6.75309051279777
30
0
41
1
10
-36.5
20
-6.52633051401983
30
0
41
1
10
-36.5
20
-6.29817748211653
30
0
41
1
10
-36.5
20
-6.06865017711209
30
0
41
1
10
-36.5
20
-5.83776875015039
30
0
41
1
10
-36.5
20
-5.6055565552935
30
0
41
1
10
-36.5
20
-5.37203995090806
30
0
41
1
10
-36.5
20
-5.1372458114655
30
0
41
1
10
-36.5
20
-4.90120586463618
30
0
41
1
10
-36.5
20
-4.70396584910503
30
0
41
1
10
-36.5
20
-4.54469650094606
30
0
41
1
10
-36.5
20
-4.42534006396792
30
0
41
1
10
-36.5
20
-4.30569969171862
30
0
41
1
10
-36.5
20
-4.14529326648051
30
0
41
1
10
-36.5
20
-3.94531869048151
30
0
41
1
10
-36.5
20
-3.74444967050349
30
0
41
1
10
-36.5
20
-3.58224072191865
30
0
41
1
10
-36.5
20
-3.46078948211164
30
0
41
1
10
-36.5
20
-3.33910698167958
30
0
41
1
10
-36.5
20
-3.17597095993784
30
0
41
1
10
-36.5
20
-3.01425656877106
30
0
41
1
10
-36.5
20
-2.8502314065623
30
0
41
1
10
-36.5
20
-2.72752148004804
30
0
41
1
10
-36.5
20
-2.60463057106841
30
0
41
1
10
-36.5
20
-2.48157389743918
30
0
41
1
10
-36.5
20
-2.3583562279822
30
0
41
1
10
-36.5
20
-2.2349905278607
30
0
41
1
10
-36.5
20
-2.11148756075909
30
0
41
1
10
-36.5
20
-1.98785458048855
30
0
41
1
10
-36.5
20
-1.86410640329151
30
0
41
1
10
-36.5
20
-1.7402482546413
30
0
41
1
10
-36.5
20
-1.61629518356963
30
0
41
1
10
-36.5
20
-1.49225310642996
30
0
41
1
10
-36.5
20
-1.36813486147517
30
0
41
1
10
-36.5
20
-1.24394734076813
30
0
41
1
10
-36.5
20
-1.11970111692671
30
0
41
1
10
-36.5
20
-0.995403468230791
30
0
41
1
10
-36.5
20
-0.871062970095124
30
0
41
1
10
-36.5
20
-0.746686131491799
30
0
41
1
10
-36.5
20
-0.622280094010847
30
0
41
1
10
-36.5
20
-0.497850400790554
30
0
41
1
10
-36.5
20
-0.373402960091397
30
0
41
1
10
-36.5
20
-0.248942266430618
30
0
41
1
10
-36.5
20
-0.124473254673973
30
0
41
1
10
-36.5
20
9.2462358E-09
30
0
41
1
10
-36.5
20
0.124473257200918
30
0
41
1
10
-36.5
20
0.248942238793148
30
0
41
1
10
-36.5
20
0.373402935182185
30
0
41
1
10
-36.5
20
0.497850420758397
30
0
41
1
10
-36.5
20
0.622280124115576
30
0
41
1
10
-36.5
20
0.746686102657719
30
0
41
1
10
-36.5
20
0.8710629170684
30
0
41
1
10
-36.5
20
0.995403485642782
30
0
41
1
10
-36.5
20
1.11970117534864
30
0
41
1
10
-36.5
20
1.2439473222278
30
0
41
1
10
-36.5
20
1.3681347814894
30
0
41
1
10
-36.5
20
1.49225310041959
30
0
41
1
10
-36.5
20
1.61629526151512
30
0
41
1
10
-36.5
20
1.74024827700825
30
0
41
1
10
-36.5
20
1.86410632124094
30
0
41
1
10
-36.5
20
1.9878545152765
30
0
41
1
10
-36.5
20
2.11148761081347
30
0
41
1
10
-36.5
20
2.23499061660055
30
0
41
1
10
-36.5
20
2.35835621123036
30
0
41
1
10
-36.5
20
2.48157378937663
30
0
41
1
10
-36.5
20
2.60463052157442
30
0
41
1
10
-36.5
20
2.72752154931175
30
0
41
1
10
-36.5
20
2.85023149996007
30
0
41
1
10
-36.5
20
3.01425651604552
30
0
41
1
10
-36.5
20
3.17597085922344
30
0
41
1
10
-36.5
20
3.33910702605107
30
0
41
1
10
-36.5
20
3.46078958963511
30
0
41
1
10
-36.5
20
3.58224076117995
30
0
41
1
10
-36.5
20
3.74444957084984
30
0
41
1
10
-36.5
20
3.94531865595207
30
0
41
1
10
-36.5
20
4.14529336499854
30
0
41
1
10
-36.5
20
4.30569972295402
30
0
41
1
10
-36.5
20
4.42533999597057
30
0
41
1
10
-36.5
20
4.54469638576828
30
0
41
1
10
-36.5
20
4.70396583147402
30
0
41
1
10
-36.5
20
4.90120595303733
30
0
41
1
10
-36.5
20
5.13724579696881
30
0
41
1
10
-36.5
20
5.37203985998678
30
0
41
1
10
-36.5
20
5.60555660448861
30
0
41
1
10
-36.5
20
5.83776884649418
30
0
41
1
10
-36.5
20
6.06865022444896
30
0
41
1
10
-36.5
20
6.29817753233076
30
0
41
1
10
-36.5
20
6.52633035082275
30
0
41
1
10
-36.5
20
6.75308981071325
30
0
41
1
10
-36.5
20
6.97843755879967
30
0
41
1
10
-36.5
20
7.20235735193418
30
0
41
1
10
-36.5
20
7.42483318088833
30
0
41
1
10
-36.5
20
7.64585131899614
30
0
41
1
10
-36.5
20
7.86540102208474
30
0
41
1
10
-36.5
20
8.08346950394392
30
0
41
1
10
-36.5
20
8.30004464023602
30
0
41
1
10
-36.5
20
8.58745787193689
30
0
41
1
10
-36.5
20
8.94153438933262
30
0
41
1
10
-36.5
20
9.36101276272154
30
0
41
1
10
-36.5
20
9.70483576808863
30
0
41
1
10
-36.5
20
9.9777855843503
30
0
41
1
10
-36.5
20
10.180523710493
30
0
41
1
10
-36.5
20
10.3816871154457
30
0
41
1
10
-36.5
20
10.5812696725585
30
0
41
1
10
-36.5
20
10.7792636737398
30
0
41
1
10
-36.5
20
10.9756651586938
30
0
41
1
10
-36.5
20
11.1704660874499
30
0
41
1
10
-36.5
20
11.4285505376587
30
0
41
1
10
-36.5
20
11.6819759204348
30
0
41
1
10
-36.5
20
11.9335555855444
30
0
41
1
10
-36.5
20
12.1202706879328
30
0
41
1
10
-36.5
20
12.3053503484466
30
0
41
1
10
-36.5
20
12.4887914218501
30
0
41
1
10
-36.5
20
12.6705857874604
30
0
41
1
10
-36.5
20
12.850728177302
30
0
41
1
10
-36.5
20
13.0292149133303
30
0
41
1
10
-36.5
20
13.2060373742644
30
0
41
1
10
-36.5
20
13.3811910773122
30
0
41
1
10
-36.5
20
13.5546710496343
30
0
41
1
10
-36.5
20
13.7264689694465
30
0
41
1
10
-36.5
20
13.8965816080865
30
0
41
1
10
-36.5
20
14.0650028858775
30
0
41
1
10
-36.5
20
14.2317235183089
30
0
41
1
10
-36.5
20
14.3690494022437
30
0
41
1
10
-36.5
20
14.4783873813363
30
0
41
1
10
-36.5
20
14.5871530954062
30
0
41
1
10
-36.5
20
14.7216281332594
30
0
41
1
10
-36.5
20
14.8814910451208
30
0
41
1
10
-36.5
20
15.0130920883853
30
0
41
1
10
-36.5
20
15.1178164480938
30
0
41
1
10
-36.5
20
15.2219600388738
30
0
41
1
10
-36.5
20
15.350663385132
30
0
41
1
10
-36.5
20
15.5548613446891
30
0
41
1
10
-36.5
20
15.7545445351489
30
0
41
1
10
-36.5
20
15.9516616651348
30
0
41
1
10
-36.5
20
16.097474719741
30
0
41
1
10
-36.5
20
16.2414991337765
30
0
41
1
10
-36.5
20
16.4314438788638
30
0
41
1
10
-36.5
20
16.6168596157572
30
0
41
1
10
-36.5
20
16.7765898513273
30
0
41
1
10
-36.5
20
16.867008999151
30
0
41
1
10
-36.5
20
16.9568152899196
30
0
41
1
10
-36.5
20
17.0675963011876
30
0
41
1
10
-36.5
20
17.2428939764417
30
0
41
1
10
-36.5
20
17.4136311437529
30
0
41
1
10
-36.5
20
17.5814423770725
30
0
41
1
10
-36.5
20
17.705205542109
30
0
41
1
10
-36.5
20
17.8270700659299
30
0
41
1
10
-36.5
20
17.987269645424
30
0
41
1
10
-36.5
20
18.1428549391526
30
0
41
1
10
-36.5
20
18.2761667145512
30
0
41
1
10
-36.5
20
18.3514175898237
30
0
41
1
10
-36.5
20
18.4260133905722
30
0
41
1
10
-36.5
20
18.5177544284038
30
0
41
1
10
-36.5
20
18.6623317385554
30
0
41
1
10
-36.5
20
18.8022215100789
30
0
41
1
10
-36.5
20
18.9387689752275
30
0
41
1
10
-36.5
20
19.0389746878943
30
0
41
1
10
-36.5
20
19.1371346902892
30
0
41
1
10
-36.5
20
19.2332338822713
30
0
41
1
10
-36.5
20
19.3272561697677
30
0
41
1
10
-36.5
20
19.4191882696517
30
0
41
1
10
-36.5
20
19.5090135394173
30
0
41
1
10
-36.5
20
19.5967148149262
30
0
41
1
10
-36.5
20
19.6822775189499
30
0
41
1
10
-36.5
20
19.7656833730651
30
0
41
1
10
-36.5
20
19.8469141355251
30
0
41
1
10
-36.5
20
19.9259535572617
30
0
41
1
10
-36.5
20
20.0027815031752
30
0
41
1
10
-36.5
20
20.1024192722933
30
0
41
1
10
-36.5
20
20.1970436182683
30
0
41
1
10
-36.5
20
20.2875896826626
30
0
41
1
10
-36.5
20
20.3530628196555
30
0
41
1
10
-36.5
20
20.4161995895792
30
0
41
1
10
-36.5
20
20.4769783324059
30
0
41
1
10
-36.5
20
20.5353747251341
30
0
41
1
10
-36.5
20
20.6101652524536
30
0
41
1
10
-36.5
20
20.6796864194097
30
0
41
1
10
-36.5
20
20.7446291690672
30
0
41
1
10
-36.5
20
20.7907267804185
30
0
41
1
10
-36.5
20
20.8342802658871
30
0
41
1
10
-36.5
20
20.8890285612071
30
0
41
1
10
-36.5
20
20.950713074722
30
0
41
1
10
-36.5
20
21.0141777773224
30
0
41
1
10
-36.5
20
21.0578537406018
30
0
41
1
10
-36.5
20
21.0872797426226
30
0
41
1
10
-36.5
20
21.1064402158535
30
0
41
1
10
-36.5
20
21.1226986497682
30
0
41
1
10
-36.5
20
21.1360112678938
30
0
41
1
10
-36.5
20
21.1463317213718
30
0
41
1
10
-36.5
20
21.1536126358382
30
0
41
1
10
-36.5
20
21.1578038223016
30
0
41
1
10
-36.5
20
21.1588544331657
30
0
41
1
10
-36.5
20
21.1573244486063
30
0
41
1
10
-36.5
20
21.1558055984576
30
0
41
1
10
-36.5
20
21.1556090039375
30
0
0
SPLINE
5
12E
100
AcDbEntity
8
1
62
256
6
ByLayer
370
18
48
1
60
0
100
AcDbSpline
70
4
71
3
72
14
73
10
40
0
40
0
40
0
40
0
40
0.25
40
0.25
40
0.5
40
0.5
40
0.75
40
0.75
40
1
40
1
40
1
40
1
41
1
10
22.7241065253425
20
-31.102537381529
30
0
41
1
10
22.6865896771739
20
-31.0655733077159
30
0
41
1
10
22.6465597927904
20
-31.0325934865229
30
0
41
1
10
22.5622212398951
20
-30.9742363426417
30
0
41
1
10
22.5175784443768
20
-30.9486946998561
30
0
41
1
10
22.4253857509853
20
-30.9058575847831
30
0
41
1
10
22.3784711657181
20
-30.8887884983139
30
0
41
1
10
22.2832443229696
20
-30.8628324152788
30
0
41
1
10
22.2345418396491
20
-30.8539194502299
30
0
41
1
10
22.1861384096168
20
-30.8492969840993
30
0
0
SPLINE
5
12F
100
AcDbEntity
8
1
62
256
6
ByLayer
370
18
48
1
60
0
100
AcDbSpline
70
4
71
3
72
16
73
12
40
0
40
0
40
0
40
0
40
0.250000000000002
40
0.250000000000002
40
0.500000000000005
40
0.500000000000005
40
0.750000000000007
40
0.750000000000007
40
0.875000000000004
40
0.875000000000004
40
1
40
1
40
1
40
1
41
1
10
10.1056624327026
20
-29.9139548464691
30
0
41
1
10
10.1212498345487
20
-29.9327542695084
30
0
41
1
10
10.1399018475135
20
-29.9510098933136
30
0
41
1
10
10.1854864096889
20
-29.9862144781928
30
0
41
1
10
10.2124982207834
20
-30.0032856662985
30
0
41
1
10
10.279179996877
20
-30.0350501233767
30
0
41
1
10
10.3189381439131
20
-30.0498069467437
30
0
41
1
10
10.3915918423741
20
-30.0668840803113
30
0
41
1
10
10.4185844965197
20
-30.0718038277879
30
0
41
1
10
10.4761894743047
20
-30.0786461490401
30
0
41
1
10
10.5072412025891
20
-30.0805927603169
30
0
41
1
10
10.5386751345948
20
-30.0805927603169
30
0
0
SPLINE
5
130
100
AcDbEntity
8
1
62
256
6
ByLayer
370
18
48
1
60
0
100
AcDbSpline
70
4
71
3
72
16
73
12
40
0
40
0
40
0
40
0
40
0.125000000000001
40
0.125000000000001
40
0.250000000000002
40
0.250000000000002
40
0.500000000000001
40
0.500000000000001
40
0.750000000000001
40
0.750000000000001
40
1
40
1
40
1
40
1
41
1
10
13.4613248654052
20
9.3492213145251
30
0
41
1
10
13.4928040273173
20
9.34922131452512
30
0
41
1
10
13.5234304266402
20
9.35536120669457
30
0
41
1
10
13.5815263070002
20
9.37748487924964
30
0
41
1
10
13.6079581046676
20
9.39290424748307
30
0
41
1
10
13.6817632688741
20
9.44829073160849
30
0
41
1
10
13.7208296342407
20
9.49467220053413
30
0
41
1
10
13.7874862877332
20
9.594536803469
30
0
41
1
10
13.8142652669256
20
9.64728479257934
30
0
41
1
10
13.8599440812239
20
9.75611455014877
30
0
41
1
10
13.8787443055274
20
9.81241059371428
30
0
41
1
10
13.8943375672975
20
9.86941261896621
30
0
0
SPLINE
5
131
100
AcDbEntity
8
1
62
256
6
ByLayer
370
18
48
1
60
0
100
AcDbSpline
70
4
71
3
72
16
73
12
40
0
40
0
40
0
40
0
40
0.249999999999999
40
0.249999999999999
40
0.499999999999998
40
0.499999999999998
40
0.749999999999997
40
0.749999999999997
40
0.874999999999998
40
0.874999999999998
40
1
40
1
40
1
40
1
41
1
10
10.1056624327026
20
9.86941261896621
30
0
41
1
10
10.1212498345487
20
9.81243201498808
30
0
41
1
10
10.1399018475135
20
9.75655023082973
30
0
41
1
10
10.1854864096889
20
9.64780841973396
30
0
41
1
10
10.2124982207834
20
9.59456078532611
30
0
41
1
10
10.279179996877
20
9.49465699870629
30
0
41
1
10
10.3189381439131
20
9.44778039735212
30
0
41
1
10
10.3915918423741
20
9.39323398486459
30
0
41
1
10
10.4185844965197
20
9.37745951316344
30
0
41
1
10
10.4761894743047
20
9.35548920253854
30
0
41
1
10
10.5072412025891
20
9.34922131452507
30
0
41
1
10
10.5386751345948
20
9.34922131452504
30
0
0
SPLINE
5
132
100
AcDbEntity
8
1
62
256
6
ByLayer
370
18
48
1
60
0
100
AcDbSpline
70
4
71
3
72
16
73
12
40
0
40
0
40
0
40
0
40
0.124999999999999
40
0.124999999999999
40
0.249999999999998
40
0.249999999999998
40
0.499999999999999
40
0.499999999999999
40
0.749999999999999
40
0.749999999999999
40
1
40
1
40
1
40
1
41
1
10
10.5386751345948
20
30.0805927603169
30
0
41
1
10
10.5071959726827
20
30.0805927603169
30
0
41
1
10
10.4765695733598
20
30.078685990659
30
0
41
1
10
10.4184736929998
20
30.0717959485601
30
0
41
1
10
10.3920418953324
20
30.0669872793661
30
0
41
1
10
10.3182367311259
20
30.049647240705
30
0
41
1
10
10.2791703657593
20
30.0350452819075
30
0
41
1
10
10.2125137122668
20
30.0032932993815
30
0
41
1
10
10.1857347330744
20
29.9863830332716
30
0
41
1
10
10.1400559187761
20
29.9511519005795
30
0
41
1
10
10.1212556944726
20
29.9327613369588
30
0
41
1
10
10.1056624327025
20
29.9139548464691
30
0
0
SPLINE
5
133
100
AcDbEntity
8
1
62
256
6
ByLayer
370
18
48
1
60
0
100
AcDbSpline
70
4
71
3
72
12
73
8
40
0
40
0
40
0
40
0
40
0.479435244588444
40
0.479435244588444
40
0.958870489176887
40
0.958870489176887
40
1
40
1
40
1
40
1
41
1
10
22.7241065253347
20
-31.1025373815222
30
0
41
1
10
22.7038840748277
20
-31.2764427333384
30
0
41
1
10
22.6863627242787
20
-31.4091943276047
30
0
41
1
10
22.6612736694667
20
-31.5915675929214
30
0
41
1
10
22.6538498638803
20
-31.6408948896025
30
0
41
1
10
22.6525759248263
20
-31.6495352965719
30
0
41
1
10
22.6525213163685
20
-31.64991383835
30
0
41
1
10
22.6525122477347
20
-31.649988085303
30
0
0
SPLINE
5
134
100
AcDbEntity
8
1
62
256
6
ByLayer
370
18
48
1
60
0
100
AcDbSpline
70
4
71
3
72
20
73
16
40
0
40
0
40
0
40
0
40
0.25
40
0.25
40
0.375
40
0.375
40
0.500000000000001
40
0.500000000000001
40
0.625
40
0.625
40
0.75
40
0.75
40
0.875
40
0.875
40
1
40
1
40
1
40
1
41
1
10
22.1861384096168
20
-30.8492969840993
30
0
41
1
10
21.8592688804593
20
-30.8180813589537
30
0
41
1
10
21.5608231666033
20
-30.777617741946
30
0
41
1
10
21.1541281873153
20
-30.7003142480126
30
0
41
1
10
21.0248700123375
20
-30.6715241836477
30
0
41
1
10
20.7875047015267
20
-30.609272779929
30
0
41
1
10
20.6785273409657
20
-30.5756941029765
30
0
41
1
10
20.4794686497436
20
-30.5031798009355
30
0
41
1
10
20.3893878979808
20
-30.4642456350143
30
0
41
1
10
20.2285450965118
20
-30.3803547013359
30
0
41
1
10
20.1594663009165
20
-30.3362681020981
30
0
41
1
10
20.0429053570503
20
-30.2437134788922
30
0
41
1
10
19.9953960460481
20
-30.1952287838355
30
0
41
1
10
19.9217119983651
20
-30.0935516788776
30
0
41
1
10
19.8955342153816
20
-30.0401540550008
30
0
41
1
10
19.8805459037027
20
-29.9850116132028
30
0
0
SPLINE
5
135
100
AcDbEntity
8
1
62
256
6
ByLayer
370
18
48
1
60
0
100
AcDbSpline
70
4
71
3
72
8
73
4
40
0
40
0
40
0
40
0
40
1
40
1
40
1
40
1
41
1
10
22.7241065253348
20
31.1025373815213
30
0
41
1
10
22.9390431466924
20
31.1139887042222
30
0
41
1
10
23.1594850371209
20
31.12206747409
30
0
41
1
10
23.3856889801162
20
31.1268450131484
30
0
0
SPLINE
5
136
100
AcDbEntity
8
1
62
256
6
ByLayer
370
18
48
1
60
0
100
AcDbSpline
70
4
71
3
72
8
73
4
40
0
40
0
40
0
40
0
40
1
40
1
40
1
40
1
41
1
10
23.3856889801162
20
-31.1268450131484
30
0
41
1
10
23.1595353843493
20
-31.1220685374483
30
0
41
1
10
22.9390902882194
20
-31.1139912158128
30
0
41
1
10
22.7241065253509
20
-31.1025373815222
30
0
0
SPLINE
5
137
100
AcDbEntity
8
1
62
256
6
ByLayer
370
18
48
1
60
0
100
AcDbSpline
70
4
71
3
72
16
73
12
40
0
40
0
40
0
40
0
40
0.249999999999999
40
0.249999999999999
40
0.499999999999998
40
0.499999999999998
40
0.749999999999997
40
0.749999999999997
40
0.874999999999998
40
0.874999999999998
40
1
40
1
40
1
40
1
41
1
10
13.8943375672974
20
29.9139548464691
30
0
41
1
10
13.8787501654512
20
29.9327542695084
30
0
41
1
10
13.8600981524864
20
29.9510098933135
30
0
41
1
10
13.8145135903111
20
29.9862144781928
30
0
41
1
10
13.7875017792166
20
30.0032856662985
30
0
41
1
10
13.720820003123
20
30.0350501233766
30
0
41
1
10
13.6810618560869
20
30.0498069467438
30
0
41
1
10
13.6084081576259
20
30.0668840803113
30
0
41
1
10
13.5814155034803
20
30.0718038277879
30
0
41
1
10
13.5238105256953
20
30.0786461490401
30
0
41
1
10
13.4927587974109
20
30.080592760317
30
0
41
1
10
13.4613248654052
20
30.0805927603169
30
0
0
SPLINE
5
138
100
AcDbEntity
8
1
62
256
6
ByLayer
370
18
48
1
60
0
100
AcDbSpline
70
4
71
3
72
10
73
6
40
0
40
0
40
0
40
0
40
0.5
40
0.5
40
1
40
1
40
1
40
1
41
1
10
24.4806622937612
20
-31.2085035966476
30
0
41
1
10
24.2881196641005
20
-31.2000158897504
30
0
41
1
10
24.1002950787171
20
-31.1891478456084
30
0
41
1
10
23.7341928618237
20
-31.1620996785107
30
0
41
1
10
23.5555472627663
20
-31.1458427136256
30
0
41
1
10
23.3856889801162
20
-31.1268450131484
30
0
0
SPLINE
5
139
100
AcDbEntity
8
1
62
256
6
ByLayer
370
18
48
1
60
0
100
AcDbSpline
70
4
71
3
72
22
73
18
40
0
40
0
40
0
40
0
40
0.249999999999996
40
0.249999999999996
40
0.312499999999996
40
0.312499999999996
40
0.374999999999996
40
0.374999999999996
40
0.499999999999996
40
0.499999999999996
40
0.624999999999996
40
0.624999999999996
40
0.687499999999997
40
0.687499999999997
40
0.749999999999998
40
0.749999999999998
40
1
40
1
40
1
40
1
41
1
10
19.8805459037027
20
29.9850116132029
30
0
41
1
10
19.9105671689422
20
30.0954607356012
30
0
41
1
10
19.9837889807293
20
30.1966424744899
30
0
41
1
10
20.1298818030595
20
30.312808807058
30
0
41
1
10
20.1618690127445
20
30.3355233372455
30
0
41
1
10
20.2315654242975
20
30.3799347239518
30
0
41
1
10
20.2692469173456
20
30.4015930693559
30
0
41
1
10
20.3892626600104
20
30.4641612517418
30
0
41
1
10
20.4790294546592
20
30.502998579841
30
0
41
1
10
20.6779371451878
20
30.5755002217927
30
0
41
1
10
20.7870750525454
20
30.6091636146663
30
0
41
1
10
20.9659298049445
20
30.6560647705262
30
0
41
1
10
21.028326873569
20
30.6711474392302
30
0
41
1
10
21.1564743695222
20
30.6997363296123
30
0
41
1
10
21.2223439224707
20
30.71328336496
30
0
41
1
10
21.5604964702934
20
30.7775442048416
30
0
41
1
10
21.8587282294849
20
30.8180297274719
30
0
41
1
10
22.1861384096168
20
30.8492969840993
30
0
0
SPLINE
5
13A
100
AcDbEntity
8
1
62
256
6
ByLayer
370
18
48
1
60
0
100
AcDbSpline
70
4
71
3
72
16
73
12
40
0
40
0
40
0
40
0
40
0.249999999999999
40
0.249999999999999
40
0.499999999999999
40
0.499999999999999
40
0.749999999999998
40
0.749999999999998
40
0.874999999999999
40
0.874999999999999
40
1
40
1
40
1
40
1
41
1
10
13.8943375672974
20
-9.86941261896621
30
0
41
1
10
13.8787501654513
20
-9.81243201498805
30
0
41
1
10
13.8600981524864
20
-9.7565502308297
30
0
41
1
10
13.8145135903111
20
-9.64780841973393
30
0
41
1
10
13.7875017792166
20
-9.59456078532611
30
0
41
1
10
13.720820003123
20
-9.49465699870629
30
0
41
1
10
13.6810618560869
20
-9.44778039735209
30
0
41
1
10
13.6084081576259
20
-9.39323398486457
30
0
41
1
10
13.5814155034803
20
-9.37745951316342
30
0
41
1
10
13.5238105256953
20
-9.35548920253851
30
0
41
1
10
13.4927587974109
20
-9.34922131452501
30
0
41
1
10
13.4613248654052
20
-9.34922131452501
30
0
0
SPLINE
5
13B
100
AcDbEntity
8
1
62
256
6
ByLayer
370
18
48
1
60
0
100
AcDbSpline
70
4
71
3
72
16
73
12
40
0
40
0
40
0
40
0
40
0.124999999999999
40
0.124999999999999
40
0.249999999999999
40
0.249999999999999
40
0.499999999999999
40
0.499999999999999
40
0.75
40
0.75
40
1
40
1
40
1
40
1
41
1
10
10.5386751345948
20
-9.34922131452512
30
0
41
1
10
10.5071959726827
20
-9.34922131452512
30
0
41
1
10
10.4765695733598
20
-9.35536120669457
30
0
41
1
10
10.4184736929998
20
-9.37748487924966
30
0
41
1
10
10.3920418953324
20
-9.3929042474831
30
0
41
1
10
10.3182367311259
20
-9.44829073160849
30
0
41
1
10
10.2791703657593
20
-9.49467220053413
30
0
41
1
10
10.2125137122668
20
-9.59453680346903
30
0
41
1
10
10.1857347330744
20
-9.64728479257934
30
0
41
1
10
10.1400559187761
20
-9.75611455014877
30
0
41
1
10
10.1212556944726
20
-9.81241059371428
30
0
41
1
10
10.1056624327025
20
-9.86941261896618
30
0
0
SPLINE
5
13C
100
AcDbEntity
8
1
62
256
6
ByLayer
370
18
48
1
60
0
100
AcDbSpline
70
4
71
3
72
12
73
8
40
0
40
0
40
0
40
0
40
0.0427478580185207
40
0.0427478580185207
40
0.52137392900926
40
0.52137392900926
40
1
40
1
40
1
40
1
41
1
10
22.6525117145712
20
31.6499930523871
30
0
41
1
10
22.6525188021764
20
31.6499314866158
30
0
41
1
10
22.6525750609511
20
31.6495411660951
30
0
41
1
10
22.6538680329923
20
31.6407715402299
30
0
41
1
10
22.6612881893563
20
31.5914679984864
30
0
41
1
10
22.6863879223965
20
31.4090052009534
30
0
41
1
10
22.7038853734589
20
31.2764315656059
30
0
41
1
10
22.7241065253348
20
31.1025373815214
30
0
0
SPLINE
5
13D
100
AcDbEntity
8
1
62
256
6
ByLayer
370
18
48
1
60
0
100
AcDbSpline
70
4
71
3
72
10
73
6
40
0
40
0
40
0
40
0
40
0.5
40
0.5
40
1
40
1
40
1
40
1
41
1
10
23.3856889801162
20
31.1268450131485
30
0
41
1
10
23.5559961893407
20
31.1458929235562
30
0
41
1
10
23.7325223349276
20
31.1619516905487
30
0
41
1
10
24.0975343032716
20
31.1889681460856
30
0
41
1
10
24.2860204625473
20
31.1999233522821
30
0
41
1
10
24.4806622937612
20
31.2085035966477
30
0
0
SPLINE
5
13E
100
AcDbEntity
8
1
62
256
6
ByLayer
370
18
48
1
60
0
100
AcDbSpline
70
4
71
3
72
16
73
12
40
0
40
0
40
0
40
0
40
0.125000000000001
40
0.125000000000001
40
0.250000000000003
40
0.250000000000003
40
0.500000000000002
40
0.500000000000002
40
0.750000000000001
40
0.750000000000001
40
1
40
1
40
1
40
1
41
1
10
13.4613248654052
20
-30.0805927603169
30
0
41
1
10
13.4928040273173
20
-30.0805927603169
30
0
41
1
10
13.5234304266402
20
-30.078685990659
30
0
41
1
10
13.5815263070002
20
-30.0717959485601
30
0
41
1
10
13.6079581046676
20
-30.0669872793661
30
0
41
1
10
13.6817632688741
20
-30.049647240705
30
0
41
1
10
13.7208296342407
20
-30.0350452819075
30
0
41
1
10
13.7874862877332
20
-30.0032932993815
30
0
41
1
10
13.8142652669256
20
-29.9863830332716
30
0
41
1
10
13.8599440812239
20
-29.9511519005795
30
0
41
1
10
13.8787443055274
20
-29.9327613369588
30
0
41
1
10
13.8943375672974
20
-29.9139548464691
30
0
0
SPLINE
5
13F
100
AcDbEntity
8
1
62
256
6
ByLayer
370
18
48
1
60
0
100
AcDbSpline
70
4
71
3
72
14
73
10
40
0
40
0
40
0
40
0
40
0.25
40
0.25
40
0.5
40
0.5
40
0.75
40
0.75
40
1
40
1
40
1
40
1
41
1
10
22.1861384096168
20
30.8492969840993
30
0
41
1
10
22.2342423243
20
30.8538908468942
30
0
41
1
10
22.2823092130685
20
30.8626122232328
30
0
41
1
10
22.3782735376856
20
30.8887003458821
30
0
41
1
10
22.4259481112616
20
30.9061084849727
30
0
41
1
10
22.5173208723494
20
30.9485854535439
30
0
41
1
10
22.5614755444322
20
30.9737600835903
30
0
41
1
10
22.6463708578112
20
31.0324234731616
30
0
41
1
10
22.687032830549
20
31.0660099316569
30
0
41
1
10
22.7241065253348
20
31.1025373815214
30
0
0
SPLINE
5
140
100
AcDbEntity
8
1
62
256
6
ByLayer
370
18
48
1
60
0
100
AcDbSpline
70
4
71
3
72
18
73
14
40
0
40
0
40
0
40
0
40
0.0081409361030548
40
0.0081409361030548
40
0.338760624068703
40
0.338760624068703
40
0.504070468051527
40
0.504070468051527
40
0.669380312034352
40
0.669380312034352
40
0.834690156017176
40
0.834690156017176
40
1
40
1
40
1
40
1
41
1
10
49.7110509239505
20
3.06098857123368
30
0
41
1
10
49.7123375622791
20
3.06158226679449
30
0
41
1
10
49.7136229053454
20
3.06217455519843
30
0
41
1
10
49.7670540434358
20
3.08676226967094
30
0
41
1
10
49.8174555257469
20
3.10858413901485
30
0
41
1
10
49.8851673932955
20
3.13695644502781
30
0
41
1
10
49.906324183979
20
3.14565639217216
30
0
41
1
10
49.9445428380183
20
3.16137295059542
30
0
41
1
10
49.9615379208676
20
3.16836309807991
30
0
41
1
10
49.9885015908704
20
3.17996529510631
30
0
41
1
10
49.9986378090213
20
3.18464353589431
30
0
41
1
10
50.0092019250596
20
3.19118896072743
30
0
41
1
10
50.0092917343335
20
3.1928901417042
30
0
41
1
10
50.0035281877045
20
3.1928901417042
30
0
0
SPLINE
5
141
100
AcDbEntity
8
1
62
256
6
ByLayer
370
18
48
1
60
0
100
AcDbSpline
70
4
71
3
72
8
73
4
40
0
40
0
40
0
40
0
40
1
40
1
40
1
40
1
41
1
10
52.4964673383486
20
3.3797544761594
30
0
41
1
10
52.6301618694288
20
3.31487446009109
30
0
41
1
10
52.7594635420519
20
3.24236787475783
30
0
41
1
10
52.8844148817641
20
3.1622910164879
30
0
0
SPLINE
5
142
100
AcDbEntity
8
1
62
256
6
ByLayer
370
18
48
1
60
0
100
AcDbSpline
70
4
71
3
72
14
73
10
40
0
40
0
40
0
40
0
40
0.312390107049832
40
0.312390107049832
40
0.488013600196171
40
0.488013600196171
40
0.66363709334251
40
0.66363709334251
40
1
40
1
40
1
40
1
41
1
10
50.894527298772
20
-3.75000164337709
30
0
41
1
10
51.0803730320673
20
-3.75019463329736
30
0
41
1
10
51.2653555273101
20
-3.73664152536364
30
0
41
1
10
51.5530596453927
20
-3.69433349457523
30
0
41
1
10
51.6563381396743
20
-3.67481066989791
30
0
41
1
10
51.8623854025346
20
-3.62699408224728
30
0
41
1
10
51.9641631741198
20
-3.59890751869264
30
0
41
1
10
52.2551186061141
20
-3.50597427142128
30
0
41
1
10
52.4399816142997
20
-3.43083562745798
30
0
41
1
10
52.6186965016334
20
-3.34243180721754
30
0
0
SPLINE
5
143
100
AcDbEntity
8
1
62
256
6
ByLayer
370
18
48
1
60
0
100
AcDbSpline
70
4
71
3
72
14
73
10
40
0
40
0
40
0
40
0
40
0.197129833033988
40
0.197129833033988
40
0.397847374775491
40
0.397847374775491
40
0.598564916516994
40
0.598564916516994
40
1
40
1
40
1
40
1
41
1
10
50.4739267668078
20
3.52507377769288
30
0
41
1
10
50.5979779513389
20
3.55441040269892
30
0
41
1
10
50.7256480163183
20
3.57673996672162
30
0
41
1
10
50.9885661497957
20
3.60669801541675
30
0
41
1
10
51.1239431322797
20
3.61407096198298
30
0
41
1
10
51.3991486897741
20
3.61227034693431
30
0
41
1
10
51.5390915346948
20
3.60295493198922
30
0
41
1
10
51.9539452146712
20
3.55012728556233
30
0
41
1
10
52.2276962060753
20
3.48211560719804
30
0
41
1
10
52.4964673383487
20
3.3797544761594
30
0
0
SPLINE
5
144
100
AcDbEntity
8
1
62
256
6
ByLayer
370
18
48
1
60
0
100
AcDbSpline
70
4
71
3
72
8
73
4
40
0
40
0
40
0
40
0
40
1
40
1
40
1
40
1
41
1
10
52.200948013694
20
3.45189320044705
30
0
41
1
10
51.8810674726579
20
3.56806557744534
30
0
41
1
10
51.5594008184647
20
3.685154118063
30
0
41
1
10
51.2315771747663
20
3.80540080673359
30
0
0
SPLINE
5
145
100
AcDbEntity
8
1
62
256
6
ByLayer
370
18
48
1
60
0
100
AcDbSpline
70
4
71
3
72
8
73
4
40
0
40
0
40
0
40
0
40
1
40
1
40
1
40
1
41
1
10
48.8453677455399
20
0.437746141247942
30
0
41
1
10
48.6554063965601
20
0.444109026207002
30
0
41
1
10
48.4654918159407
20
0.450425731053741
30
0
41
1
10
48.2756079479704
20
0.456712156901744
30
0
0
SPLINE
5
146
100
AcDbEntity
8
1
62
256
6
ByLayer
370
18
48
1
60
0
100
AcDbSpline
70
4
71
3
72
8
73
4
40
0
40
0
40
0
40
0
40
1
40
1
40
1
40
1
41
1
10
55.6388809075356
20
-0.456712156901545
30
0
41
1
10
55.498018131552
20
-0.450425731053542
30
0
41
1
10
55.3571134964733
20
-0.444109026206803
30
0
41
1
10
55.2161450725372
20
-0.437746141247743
30
0
0
SPLINE
5
147
100
AcDbEntity
8
1
62
256
6
ByLayer
370
18
48
1
60
0
100
AcDbSpline
70
4
71
3
72
8
73
4
40
0
40
0
40
0
40
0
40
1
40
1
40
1
40
1
41
1
10
49.0748037700171
20
2.36018469314789
30
0
41
1
10
49.2186652129696
20
2.24428505404703
30
0
41
1
10
49.3625678331784
20
2.12838005986697
30
0
41
1
10
49.5065332010846
20
2.01246694411824
30
0
0
SPLINE
5
148
100
AcDbEntity
8
1
62
256
6
ByLayer
370
18
48
1
60
0
100
AcDbSpline
70
4
71
3
72
8
73
4
40
0
40
0
40
0
40
0
40
1
40
1
40
1
40
1
41
1
10
54.5549796169924
20
-2.01246694411836
30
0
41
1
10
54.6499520598549
20
-2.12838005986708
30
0
41
1
10
54.744844734523
20
-2.24428505404714
30
0
41
1
10
54.8396850854888
20
-2.360184693148
30
0
0
SPLINE
5
149
100
AcDbEntity
8
1
62
256
6
ByLayer
370
18
48
1
60
0
100
AcDbSpline
70
4
71
3
72
10
73
6
40
0
40
0
40
0
40
0
40
0.5
40
0.5
40
1
40
1
40
1
40
1
41
1
10
34.5772640455794
20
9.69935430450573
30
0
41
1
10
34.4800620422679
20
9.62907834696011
30
0
41
1
10
34.3819828793139
20
9.55776181305797
30
0
41
1
10
34.1867966281893
20
9.41479298341881
30
0
41
1
10
34.0896289768495
20
9.34309827054108
30
0
41
1
10
33.9929657586168
20
9.27115423279878
30
0
0
SPLINE
5
14A
100
AcDbEntity
8
1
62
256
6
ByLayer
370
18
48
1
60
0
100
AcDbSpline
70
4
71
3
72
10
73
6
40
0
40
0
40
0
40
0
40
0.5
40
0.5
40
1
40
1
40
1
40
1
41
1
10
36.7004790241287
20
8.78820145548318
30
0
41
1
10
36.5896893638841
20
8.83362802503822
30
0
41
1
10
36.4783029144302
20
8.87952502082254
30
0
41
1
10
36.2539523205961
20
8.97256264927904
30
0
41
1
10
36.1416515099446
20
9.01943228606638
30
0
41
1
10
36.0304112441584
20
9.06621229070785
30
0
0
SPLINE
5
14B
100
AcDbEntity
8
1
62
256
6
ByLayer
370
18
48
1
60
0
100
AcDbSpline
70
4
71
3
72
8
73
4
40
0
40
0
40
0
40
0
40
1
40
1
40
1
40
1
41
1
10
32.90824882156
20
6.68764610834296
30
0
41
1
10
32.9420692536909
20
6.44646019143082
30
0
41
1
10
32.9784006404336
20
6.21193346397126
30
0
41
1
10
33.0162510247347
20
5.98143520141133
30
0
0
SPLINE
5
14C
100
AcDbEntity
8
1
62
256
6
ByLayer
370
18
48
1
60
0
100
AcDbSpline
70
4
71
3
72
8
73
4
40
0
40
0
40
0
40
0
40
1
40
1
40
1
40
1
41
1
10
33.274982912511
20
8.72417124917678
30
0
41
1
10
33.0875540071073
20
8.5779318950365
30
0
41
1
10
32.9087447929853
20
8.43573023752924
30
0
41
1
10
32.7351500458824
20
8.2959711774698
30
0
0
SPLINE
5
14D
100
AcDbEntity
8
1
62
256
6
ByLayer
370
18
48
1
60
0
100
AcDbSpline
70
4
71
3
72
10
73
6
40
0
40
0
40
0
40
0
40
0.5
40
0.5
40
1
40
1
40
1
40
1
41
1
10
35.139466003284
20
5.07028235238877
30
0
41
1
10
35.2267557795057
20
5.14055830993439
30
0
41
1
10
35.3159001665291
20
5.21187484383657
30
0
41
1
10
35.4960424732658
20
5.3548436734757
30
0
41
1
10
35.5870911853011
20
5.42653838635346
30
0
41
1
10
35.6792988699127
20
5.49848242409576
30
0
0
SPLINE
5
14E
100
AcDbEntity
8
1
62
256
6
ByLayer
370
18
48
1
60
0
100
AcDbSpline
70
4
71
3
72
10
73
6
40
0
40
0
40
0
40
0
40
0.5
40
0.5
40
1
40
1
40
1
40
1
41
1
10
35.139466003284
20
5.07028235238877
30
0
41
1
10
35.0286763430394
20
5.11570892194382
30
0
41
1
10
34.9172898935855
20
5.16160591772814
30
0
41
1
10
34.6929392997514
20
5.25464354618467
30
0
41
1
10
34.5806384890999
20
5.30151318297197
30
0
41
1
10
34.4693982233137
20
5.34829318761345
30
0
0
SPLINE
5
14F
100
AcDbEntity
8
1
62
256
6
ByLayer
370
18
48
1
60
0
100
AcDbSpline
70
4
71
3
72
10
73
6
40
0
40
0
40
0
40
0
40
0.5
40
0.5
40
1
40
1
40
1
40
1
41
1
10
33.6418533843711
20
5.70342436618665
30
0
41
1
10
33.5344424450484
20
5.75048164113676
30
0
41
1
10
33.4275844738793
20
5.79767479289205
30
0
41
1
10
33.219097262645
20
5.89037652697812
30
0
41
1
10
33.1168981885745
20
5.93613187847794
30
0
41
1
10
33.0162510247347
20
5.98143520141133
30
0
0
SPLINE
5
150
100
AcDbEntity
8
1
62
256
6
ByLayer
370
18
48
1
60
0
100
AcDbSpline
70
4
71
3
72
10
73
6
40
0
40
0
40
0
40
0
40
0.5
40
0.5
40
1
40
1
40
1
40
1
41
1
10
36.981580002981
20
6.47366547942471
30
0
41
1
10
36.9625474479603
20
6.58956842058009
30
0
41
1
10
36.9437951885995
20
6.70718753700268
30
0
41
1
10
36.9076362197204
20
6.94297952657413
30
0
41
1
10
36.8902161285243
20
7.06122235638438
30
0
41
1
10
36.8735777998063
20
7.17987638635637
30
0
0
SPLINE
5
151
100
AcDbEntity
8
1
62
256
6
ByLayer
370
18
48
1
60
0
100
AcDbSpline
70
4
71
3
72
10
73
6
40
0
40
0
40
0
40
0
40
0.5
40
0.5
40
1
40
1
40
1
40
1
41
1
10
32.7351500458824
20
8.2959711774698
30
0
41
1
10
32.7442703738133
20
8.18006823631444
30
0
41
1
10
32.7540878572434
20
8.06244911989185
30
0
41
1
10
32.7752028817346
20
7.8266571303204
30
0
41
1
10
32.7865040336263
20
7.70841430051013
30
0
41
1
10
32.7986868287231
20
7.58976027053816
30
0
0
SPLINE
5
152
100
AcDbEntity
8
1
62
256
6
ByLayer
370
18
48
1
60
0
100
AcDbSpline
70
4
71
3
72
8
73
4
40
0
40
0
40
0
40
0
40
1
40
1
40
1
40
1
41
1
10
36.7640158069694
20
8.08199054855157
30
0
41
1
10
36.7392520580543
20
8.32317646546369
30
0
41
1
10
36.7186167842329
20
8.55770319292324
30
0
41
1
10
36.7004790241287
20
8.78820145548318
30
0
0
SPLINE
5
153
100
AcDbEntity
8
1
62
256
6
ByLayer
370
18
48
1
60
0
100
AcDbSpline
70
4
71
3
72
10
73
6
40
0
40
0
40
0
40
0
40
0.5
40
0.5
40
1
40
1
40
1
40
1
41
1
10
35.2028664052157
20
9.42134346928108
30
0
41
1
10
35.0954554658931
20
9.46840074423119
30
0
41
1
10
34.9885974947239
20
9.51559389598646
30
0
41
1
10
34.7801102834897
20
9.60829563007252
30
0
41
1
10
34.6779112094192
20
9.65405098157237
30
0
41
1
10
34.5772640455794
20
9.69935430450573
30
0
0
SPLINE
5
154
100
AcDbEntity
8
1
62
256
6
ByLayer
370
18
48
1
60
0
100
AcDbSpline
70
4
71
3
72
8
73
4
40
0
40
0
40
0
40
0
40
1
40
1
40
1
40
1
41
1
10
36.3972817160184
20
6.04546540771773
30
0
41
1
10
36.593767304638
20
6.19170476185801
30
0
41
1
10
36.7882726316813
20
6.33390641936526
30
0
41
1
10
36.981580002981
20
6.47366547942471
30
0
0
INSERT
5
167
100
AcDbEntity
8
2
62
256
6
ByLayer
370
25
48
1
60
0
100
AcDbBlockReference
2
DimnDraft3D11
10
0
20
0
30
0
41
1
42
1
43
1
50
0
210
0
220
0
230
1
0
LINE
5
72
100
AcDbEntity
8
1
62
256
6
ByLayer
370
18
48
1
60
0
100
AcDbLine
10
19.435093
20
1.982154
30
0
11
18.993312
21
1.718025
31
0
39
0
210
0
220
0
230
1
0
LINE
5
73
100
AcDbEntity
8
1
62
256
6
ByLayer
370
18
48
1
60
0
100
AcDbLine
10
51.686705
20
3.355647
30
0
11
50.804561
21
3.355647
31
0
39
0
210
0
220
0
230
1
0
LINE
5
74
100
AcDbEntity
8
1
62
256
6
ByLayer
370
18
48
1
60
0
100
AcDbLine
10
50.897506
20
-3.75
30
0
11
50.898529
21
-3.75
31
0
39
0
210
0
220
0
230
1
0
LINE
5
75
100
AcDbEntity
8
1
62
256
6
ByLayer
370
18
48
1
60
0
100
AcDbLine
10
51.239735
20
3.613244
30
0
11
51.128411
21
3.613244
31
0
39
0
210
0
220
0
230
1
0
LINE
5
76
100
AcDbEntity
8
1
62
256
6
ByLayer
370
18
48
1
60
0
100
AcDbLine
10
51.430337
20
-12.977211
30
0
11
52.163813
21
-12.977211
31
0
39
0
210
0
220
0
230
1
0
LINE
5
77
100
AcDbEntity
8
1
62
256
6
ByLayer
370
18
48
1
60
0
100
AcDbLine
10
52.163813
20
12.977211
30
0
11
51.430337
21
12.977211
31
0
39
0
210
0
220
0
230
1
0
LINE
5
78
100
AcDbEntity
8
1
62
256
6
ByLayer
370
18
48
1
60
0
100
AcDbLine
10
22.610313
20
1.751373
30
0
11
22.425826
21
1.94597
31
0
39
0
210
0
220
0
230
1
0
LINE
5
79
100
AcDbEntity
8
1
62
256
6
ByLayer
370
18
48
1
60
0
100
AcDbLine
10
22.425826
20
-1.94597
30
0
11
22.610313
21
-1.751373
31
0
39
0
210
0
220
0
230
1
0
LINE
5
7A
100
AcDbEntity
8
1
62
256
6
ByLayer
370
18
48
1
60
0
100
AcDbLine
10
19.495061
20
-2
30
0
11
22.321958
21
-2
31
0
39
0
210
0
220
0
230
1
0
LINE
5
7B
100
AcDbEntity
8
1
62
256
6
ByLayer
370
18
48
1
60
0
100
AcDbLine
10
22.321958
20
2
30
0
11
19.495061
21
2
31
0
39
0
210
0
220
0
230
1
0
LINE
5
7C
100
AcDbEntity
8
1
62
256
6
ByLayer
370
18
48
1
60
0
100
AcDbLine
10
18.993312
20
-1.718025
30
0
11
19.435093
21
-1.982154
31
0
39
0
210
0
220
0
230
1
0
LINE
5
7D
100
AcDbEntity
8
1
62
256
6
ByLayer
370
18
48
1
60
0
100
AcDbLine
10
0.3
20
31.5
30
0
11
0
21
31.2
31
0
39
0
210
0
220
0
230
1
0
LINE
5
7E
100
AcDbEntity
8
1
62
256
6
ByLayer
370
18
48
1
60
0
100
AcDbLine
10
0
20
-31.2
30
0
11
0.3
21
-31.5
31
0
39
0
210
0
220
0
230
1
0
LINE
5
7F
100
AcDbEntity
8
1
62
256
6
ByLayer
370
18
48
1
60
0
100
AcDbLine
10
0.3
20
-31.5
30
0
11
22.186138
21
-31.5
31
0
39
0
210
0
220
0
230
1
0
LINE
5
80
100
AcDbEntity
8
1
62
256
6
ByLayer
370
18
48
1
60
0
100
AcDbLine
10
22.186138
20
31.5
30
0
11
0.3
21
31.5
31
0
39
0
210
0
220
0
230
1
0
LINE
5
81
100
AcDbEntity
8
1
62
256
6
ByLayer
370
18
48
1
60
0
100
AcDbLine
10
22.919493
20
31.65
30
0
11
22.654763
21
31.65
31
0
39
0
210
0
220
0
230
1
0
LINE
5
82
100
AcDbEntity
8
1
62
256
6
ByLayer
370
18
48
1
60
0
100
AcDbLine
10
22.654441
20
-31.65
30
0
11
22.919493
21
-31.65
31
0
39
0
210
0
220
0
230
1
0
LINE
5
83
100
AcDbEntity
8
1
62
256
6
ByLayer
370
18
48
1
60
0
100
AcDbLine
10
51.34564
20
-3.355647
30
0
11
52.227784
21
-3.355647
31
0
39
0
210
0
220
0
230
1
0
LINE
5
84
100
AcDbEntity
8
SK1
62
256
6
ByLayer
370
18
48
1
60
0
100
AcDbLine
10
-0.2
20
-22.533485
30
0
11
-0.2
21
-7.059517
31
0
39
0
210
0
220
0
230
1
0
LINE
5
86
100
AcDbEntity
8
SK1
62
256
6
ByLayer
370
18
48
1
60
0
100
AcDbLine
10
-0.2
20
7.059518
30
0
11
-0.2
21
22.533485
31
0
39
0
210
0
220
0
230
1
0
LINE
5
87
100
AcDbEntity
8
SK1
62
256
6
ByLayer
370
18
48
1
60
0
100
AcDbLine
10
-1.307107
20
-4.811013
30
0
11
-1.307107
21
4.811013
31
0
39
0
210
0
220
0
230
1
0
LINE
5
88
100
AcDbEntity
8
1
62
256
6
ByLayer
370
18
48
1
60
0
100
AcDbLine
10
41.190353
20
-4.534778
30
0
11
42.641459
21
-4.448806
31
0
39
0
210
0
220
0
230
1
0
LINE
5
89
100
AcDbEntity
8
1
62
256
6
ByLayer
370
18
48
1
60
0
100
AcDbLine
10
13.894338
20
-9.869413
30
0
11
13.894338
21
-29.913955
31
0
39
0
210
0
220
0
230
1
0
LINE
5
8A
100
AcDbEntity
8
1
62
256
6
ByLayer
370
18
48
1
60
0
100
AcDbLine
10
41.885196
20
-4.20879
30
0
11
41.97094
21
-4.294722
31
0
39
0
210
0
220
0
230
1
0
LINE
5
8B
100
AcDbEntity
8
1
62
256
6
ByLayer
370
18
48
1
60
0
100
AcDbLine
10
47.074706
20
-17.380685
30
0
11
51.546039
21
-12.860227
31
0
39
0
210
0
220
0
230
1
0
LINE
5
8C
100
AcDbEntity
8
1
62
256
6
ByLayer
370
18
48
1
60
0
100
AcDbLine
10
19.880546
20
-29.985012
30
0
11
19.880546
21
-1.999625
31
0
39
0
210
0
220
0
230
1
0
LINE
5
8D
100
AcDbEntity
8
1
62
256
6
ByLayer
370
18
48
1
60
0
100
AcDbLine
10
19.880546
20
1.999625
30
0
11
19.880546
21
29.985012
31
0
39
0
210
0
220
0
230
1
0
LINE
5
8E
100
AcDbEntity
8
1
62
256
6
ByLayer
370
18
48
1
60
0
100
AcDbLine
10
13.894338
20
29.913955
30
0
11
13.894338
21
9.869413
31
0
39
0
210
0
220
0
230
1
0
LINE
5
8F
100
AcDbEntity
8
1
62
256
6
ByLayer
370
18
48
1
60
0
100
AcDbLine
10
41.97723
20
-4.115744
30
0
11
41.885196
21
-4.20879
31
0
39
0
210
0
220
0
230
1
0
LINE
5
90
100
AcDbEntity
8
1
62
256
6
ByLayer
370
18
48
1
60
0
100
AcDbLine
10
13.461325
20
-9.349221
30
0
11
13.461325
21
-30.080593
31
0
39
0
210
0
220
0
230
1
0
LINE
5
91
100
AcDbEntity
8
1
62
256
6
ByLayer
370
18
48
1
60
0
100
AcDbLine
10
42.896164
20
-4.191303
30
0
11
42.641459
21
-4.448806
31
0
39
0
210
0
220
0
230
1
0
LINE
5
92
100
AcDbEntity
8
1
62
256
6
ByLayer
370
18
48
1
60
0
100
AcDbLine
10
10.538675
20
-30.080593
30
0
11
13.461325
21
-30.080593
31
0
39
0
210
0
220
0
230
1
0
LINE
5
93
100
AcDbEntity
8
1
62
256
6
ByLayer
370
18
48
1
60
0
100
AcDbLine
10
22.186138
20
-30.849297
30
0
11
22.186138
21
-31.5
31
0
39
0
210
0
220
0
230
1
0
LINE
5
94
100
AcDbEntity
8
1
62
256
6
ByLayer
370
18
48
1
60
0
100
AcDbLine
10
22.186138
20
31.5
30
0
11
22.186138
21
30.849297
31
0
39
0
210
0
220
0
230
1
0
LINE
5
95
100
AcDbEntity
8
1
62
256
6
ByLayer
370
18
48
1
60
0
100
AcDbLine
10
13.461325
20
30.080593
30
0
11
10.538675
21
30.080593
31
0
39
0
210
0
220
0
230
1
0
LINE
5
96
100
AcDbEntity
8
1
62
256
6
ByLayer
370
18
48
1
60
0
100
AcDbLine
10
0
20
-31.2
30
0
11
0
21
31.2
31
0
39
0
210
0
220
0
230
1
0
LINE
5
97
100
AcDbEntity
8
1
62
256
6
ByLayer
370
18
48
1
60
0
100
AcDbLine
10
18.925987
20
2.900848
30
0
11
18.925987
21
0.852888
31
0
39
0
210
0
220
0
230
1
0
LINE
5
98
100
AcDbEntity
8
1
62
256
6
ByLayer
370
18
48
1
60
0
100
AcDbLine
10
10.538675
20
9.349221
30
0
11
13.461325
21
9.349221
31
0
39
0
210
0
220
0
230
1
0
LINE
5
99
100
AcDbEntity
8
1
62
256
6
ByLayer
370
18
48
1
60
0
100
AcDbLine
10
41.79103
20
-3.927498
30
0
11
41.701919
21
-4.017588
31
0
39
0
210
0
220
0
230
1
0
LINE
5
9A
100
AcDbEntity
8
1
62
256
6
ByLayer
370
18
48
1
60
0
100
AcDbLine
10
46.219069
20
7.740452
30
0
11
43.740802
21
5.234958
31
0
39
0
210
0
220
0
230
1
0
LINE
5
9B
100
AcDbEntity
8
1
62
256
6
ByLayer
370
18
48
1
60
0
100
AcDbLine
10
39.525615
20
0.761328
30
0
11
38.646664
21
-0.127279
31
0
39
0
210
0
220
0
230
1
0
LINE
5
9C
100
AcDbEntity
8
1
62
256
6
ByLayer
370
18
48
1
60
0
100
AcDbLine
10
10.105662
20
29.913955
30
0
11
10.105662
21
9.869413
31
0
39
0
210
0
220
0
230
1
0
LINE
5
9D
100
AcDbEntity
8
1
62
256
6
ByLayer
370
18
48
1
60
0
100
AcDbLine
10
41.063136
20
-4.428719
30
0
11
41.674968
21
-3.810165
31
0
39
0
210
0
220
0
230
1
0
LINE
5
9E
100
AcDbEntity
8
1
62
256
6
ByLayer
370
18
48
1
60
0
100
AcDbLine
10
10.538675
20
-9.349221
30
0
11
10.538675
21
-30.080593
31
0
39
0
210
0
220
0
230
1
0
LINE
5
9F
100
AcDbEntity
8
1
62
256
6
ByLayer
370
18
48
1
60
0
100
AcDbLine
10
41.801359
20
-4.313606
30
0
11
42.896164
21
-4.191303
31
0
39
0
210
0
220
0
230
1
0
LINE
5
A0
100
AcDbEntity
8
1
62
256
6
ByLayer
370
18
48
1
60
0
100
AcDbLine
10
51.519537
20
12.887021
30
0
11
51.336498
21
12.701971
31
0
39
0
210
0
220
0
230
1
0
LINE
5
A1
100
AcDbEntity
8
1
62
256
6
ByLayer
370
18
48
1
60
0
100
AcDbLine
10
13.461325
20
-9.349221
30
0
11
10.538675
21
-9.349221
31
0
39
0
210
0
220
0
230
1
0
LINE
5
A2
100
AcDbEntity
8
1
62
256
6
ByLayer
370
18
48
1
60
0
100
AcDbLine
10
47.074706
20
17.380685
30
0
11
24.952845
21
30.916958
31
0
39
0
210
0
220
0
230
1
0
LINE
5
A3
100
AcDbEntity
8
1
62
256
6
ByLayer
370
18
48
1
60
0
100
AcDbLine
10
41.701921
20
-4.017589
30
0
11
41.190353
21
-4.534778
31
0
39
0
210
0
220
0
230
1
0
LINE
5
A4
100
AcDbEntity
8
1
62
256
6
ByLayer
370
18
48
1
60
0
100
AcDbLine
10
23.385689
20
-31.126845
30
0
11
23.385689
21
31.126845
31
0
39
0
210
0
220
0
230
1
0
LINE
5
A5
100
AcDbEntity
8
1
62
256
6
ByLayer
370
18
48
1
60
0
100
AcDbLine
10
0.3
20
-31.5
30
0
11
0.3
21
31.5
31
0
39
0
210
0
220
0
230
1
0
LINE
5
A6
100
AcDbEntity
8
1
62
256
6
ByLayer
370
18
48
1
60
0
100
AcDbLine
10
41.701919
20
-4.017588
30
0
11
41.862377
21
-3.999629
31
0
39
0
210
0
220
0
230
1
0
LINE
5
A7
100
AcDbEntity
8
1
62
256
6
ByLayer
370
18
48
1
60
0
100
AcDbLine
10
10.538675
20
30.080593
30
0
11
10.538675
21
9.349221
31
0
39
0
210
0
220
0
230
1
0
LINE
5
A8
100
AcDbEntity
8
1
62
256
6
ByLayer
370
18
48
1
60
0
100
AcDbLine
10
18.925987
20
-0.852888
30
0
11
18.925987
21
-2.900848
31
0
39
0
210
0
220
0
230
1
0
LINE
5
A9
100
AcDbEntity
8
1
62
256
6
ByLayer
370
18
48
1
60
0
100
AcDbLine
10
13.461325
20
30.080593
30
0
11
13.461325
21
9.349221
31
0
39
0
210
0
220
0
230
1
0
LINE
5
AA
100
AcDbEntity
8
1
62
256
6
ByLayer
370
18
48
1
60
0
100
AcDbLine
10
24.952845
20
30.916958
30
0
11
24.952845
21
-30.916958
31
0
39
0
210
0
220
0
230
1
0
LINE
5
AB
100
AcDbEntity
8
1
62
256
6
ByLayer
370
18
48
1
60
0
100
AcDbLine
10
10.105662
20
-9.869413
30
0
11
10.105662
21
-29.913955
31
0
39
0
210
0
220
0
230
1
0
LINE
5
AC
100
AcDbEntity
8
1
62
256
6
ByLayer
370
18
48
1
60
0
100
AcDbLine
10
42.896164
20
-4.191303
30
0
11
44.640735
21
-5.939716
31
0
39
0
210
0
220
0
230
1
0
LINE
5
AD
100
AcDbEntity
8
1
62
256
6
ByLayer
370
18
48
1
60
0
100
AcDbLine
10
51.50752
20
-12.821623
30
0
11
51.546039
21
-12.860227
31
0
39
0
210
0
220
0
230
1
0
LINE
5
AE
100
AcDbEntity
8
1
62
256
6
ByLayer
370
18
48
1
60
0
100
AcDbLine
10
51.519537
20
12.887021
30
0
11
47.074706
21
17.380685
31
0
39
0
210
0
220
0
230
1
0
LINE
5
AF
100
AcDbEntity
8
1
62
256
6
ByLayer
370
18
48
1
60
0
100
AcDbLine
10
47.074706
20
-17.380685
30
0
11
24.952845
21
-30.916958
31
0
39
0
210
0
220
0
230
1
0
LINE
5
B0
100
AcDbEntity
8
1
62
256
6
ByLayer
370
18
48
1
60
0
100
AcDbLine
10
49.842647
20
3.19289
30
0
11
50.003528
21
3.19289
31
0
39
0
210
0
220
0
230
1
0
LINE
5
B1
100
AcDbEntity
8
1
62
256
6
ByLayer
370
18
48
1
60
0
100
AcDbLine
10
49.074804
20
2.360185
30
0
11
49.015489
21
2.360185
31
0
39
0
210
0
220
0
230
1
0
LINE
5
B2
100
AcDbEntity
8
1
62
256
6
ByLayer
370
18
48
1
60
0
100
AcDbLine
10
18.933586
20
-0.6
30
0
11
18.922399
21
-0.6
31
0
39
0
210
0
220
0
230
1
0
LINE
5
B3
100
AcDbEntity
8
1
62
256
6
ByLayer
370
18
48
1
60
0
100
AcDbLine
10
18.922399
20
0.6
30
0
11
18.933586
21
0.6
31
0
39
0
210
0
220
0
230
1
0
LINE
5
B4
100
AcDbEntity
8
1
62
256
6
ByLayer
370
18
48
1
60
0
100
AcDbLine
10
34.324617
20
9.515259
30
0
11
34.543464
21
9.421343
31
0
39
0
210
0
220
0
230
1
0
LINE
5
B5
100
AcDbEntity
8
1
62
256
6
ByLayer
370
18
48
1
60
0
100
AcDbLine
10
35.019896
20
5.498482
30
0
11
34.697578
21
5.25293
31
0
39
0
210
0
220
0
230
1
0
LINE
5
B6
100
AcDbEntity
8
1
62
256
6
ByLayer
370
18
48
1
60
0
100
AcDbLine
10
39.598312
20
0.841899
30
0
11
39.672563
21
0.841899
31
0
39
0
210
0
220
0
230
1
0
LINE
5
B7
100
AcDbEntity
8
1
62
256
6
ByLayer
370
18
48
1
60
0
100
AcDbLine
10
51.256813
20
-12.628485
30
0
11
51.331063
21
-12.628485
31
0
39
0
210
0
220
0
230
1
0
LINE
5
B8
100
AcDbEntity
8
1
62
256
6
ByLayer
370
18
48
1
60
0
100
AcDbLine
10
42.136138
20
-4.2764
30
0
11
38.73896
21
-0.841899
31
0
39
0
210
0
220
0
230
1
0
LINE
5
B9
100
AcDbEntity
8
1
62
256
6
ByLayer
370
18
48
1
60
0
100
AcDbLine
10
51.331063
20
12.628485
30
0
11
51.256813
21
12.628485
31
0
39
0
210
0
220
0
230
1
0
LINE
5
BA
100
AcDbEntity
8
1
62
256
6
ByLayer
370
18
48
1
60
0
100
AcDbLine
10
48.270494
20
0.456712
30
0
11
48.275608
21
0.456712
31
0
39
0
210
0
220
0
230
1
0
LINE
5
BB
100
AcDbEntity
8
80
62
256
6
ByLayer
370
18
48
1
60
0
100
AcDbLine
10
0
20
0
30
0
11
-5
21
0
31
0
39
0
210
0
220
0
230
1
0
LINE
5
BC
100
AcDbEntity
8
4
62
256
6
ByLayer
370
18
48
0.05
60
0
100
AcDbLine
10
0
20
0
30
0
11
65
21
0
31
0
39
0
210
0
220
0
230
1
0
LINE
5
BE
100
AcDbEntity
8
81
62
256
6
ByLayer
370
18
48
1
60
0
100
AcDbLine
10
65
20
0.4932
30
0
11
75
21
0.4932
31
0
39
0
210
0
220
0
230
1
0
LINE
5
BF
100
AcDbEntity
8
SK4
62
256
6
ByLayer
370
18
48
0.05
60
0
100
AcDbLine
10
-43
20
0
30
0
11
65
21
0
31
0
39
0
210
0
220
0
230
1
0
LINE
5
C1
100
AcDbEntity
8
1
62
256
6
ByLayer
370
18
48
1
60
0
100
AcDbLine
10
35.371009
20
9.066212
30
0
11
36.018844
21
8.788201
31
0
39
0
210
0
220
0
230
1
0
LINE
5
C2
100
AcDbEntity
8
1
62
256
6
ByLayer
370
18
48
1
60
0
100
AcDbLine
10
36.397282
20
6.045465
30
0
11
35.737879
21
6.045465
31
0
39
0
210
0
220
0
230
1
0
LINE
5
C3
100
AcDbEntity
8
1
62
256
6
ByLayer
370
18
48
1
60
0
100
AcDbLine
10
36.018844
20
8.788201
30
0
11
36.104613
21
8.081991
31
0
39
0
210
0
220
0
230
1
0
LINE
5
C4
100
AcDbEntity
8
1
62
256
6
ByLayer
370
18
48
1
60
0
100
AcDbLine
10
36.299945
20
6.473665
30
0
11
35.737879
21
6.045465
31
0
39
0
210
0
220
0
230
1
0
LINE
5
C5
100
AcDbEntity
8
1
62
256
6
ByLayer
370
18
48
1
60
0
100
AcDbLine
10
35.019896
20
5.498482
30
0
11
35.679299
21
5.498482
31
0
39
0
210
0
220
0
230
1
0
LINE
5
C6
100
AcDbEntity
8
1
62
256
6
ByLayer
370
18
48
1
60
0
100
AcDbLine
10
36.98158
20
6.473665
30
0
11
36.299945
21
6.473665
31
0
39
0
210
0
220
0
230
1
0
LINE
5
C7
100
AcDbEntity
8
1
62
256
6
ByLayer
370
18
48
1
60
0
100
AcDbLine
10
35.371009
20
9.066212
30
0
11
36.030411
21
9.066212
31
0
39
0
210
0
220
0
230
1
0
LINE
5
C8
100
AcDbEntity
8
1
62
256
6
ByLayer
370
18
48
1
60
0
100
AcDbLine
10
36.700479
20
8.788201
30
0
11
36.018844
21
8.788201
31
0
39
0
210
0
220
0
230
1
0
LINE
5
C9
100
AcDbEntity
8
1
62
256
6
ByLayer
370
18
48
1
60
0
100
AcDbLine
10
36.214175
20
7.179876
30
0
11
36.299945
21
6.473665
31
0
39
0
210
0
220
0
230
1
0
LINE
5
CA
100
AcDbEntity
8
1
62
256
6
ByLayer
370
18
48
1
60
0
100
AcDbLine
10
35.202866
20
9.421343
30
0
11
34.543464
21
9.421343
31
0
39
0
210
0
220
0
230
1
0
LINE
5
CB
100
AcDbEntity
8
1
62
256
6
ByLayer
370
18
48
1
60
0
100
AcDbLine
10
36.764016
20
8.081991
30
0
11
36.104613
21
8.081991
31
0
39
0
210
0
220
0
230
1
0
LINE
5
CC
100
AcDbEntity
8
1
62
256
6
ByLayer
370
18
48
1
60
0
100
AcDbLine
10
36.214175
20
7.179876
30
0
11
36.873578
21
7.179876
31
0
39
0
210
0
220
0
230
1
0
LINE
5
CD
100
AcDbEntity
8
1
62
256
6
ByLayer
370
18
48
1
60
0
100
AcDbLine
10
52.996563
20
12.628485
30
0
11
64.655064
21
0.841899
31
0
39
0
210
0
220
0
230
1
0
LINE
5
CE
100
AcDbEntity
8
1
62
256
6
ByLayer
370
18
48
1
60
0
100
AcDbLine
10
39.672563
20
0.841899
30
0
11
51.331063
21
12.628485
31
0
39
0
210
0
220
0
230
1
0
LINE
5
CF
100
AcDbEntity
8
1
62
256
6
ByLayer
370
18
48
1
60
0
100
AcDbLine
10
39.672563
20
-0.841899
30
0
11
38.73896
21
-0.841899
31
0
39
0
210
0
220
0
230
1
0
LINE
5
D0
100
AcDbEntity
8
1
62
256
6
ByLayer
370
18
48
1
60
0
100
AcDbLine
10
51.331063
20
-12.628485
30
0
11
39.672563
21
-0.841899
31
0
39
0
210
0
220
0
230
1
0
LINE
5
D1
100
AcDbEntity
8
1
62
256
6
ByLayer
370
18
48
1
60
0
100
AcDbLine
10
64.655064
20
-0.841899
30
0
11
52.996563
21
-12.628485
31
0
39
0
210
0
220
0
230
1
0
MTEXT
5
155
100
AcDbEntity
8
SK6
62
256
6
ByLayer
370
13
48
1
60
0
100
AcDbMText
10
-4.859793
20
-46.797905
30
0
210
0
220
0
230
1
1
\W0.7371;C6-PSDNN-00065-19
40
3.5
41
0
44
1.084337
50
0
71
7
72
5
7
iso_b_vert
0
DIMENSION
5
176
100
AcDbEntity
8
SK2
62
256
6
ByLayer
370
13
48
1
60
0
100
AcDbDimension
2
DimnDraft3D2
10
-47.75
20
-31.5
30
0
11
-47.75
21
0
31
0
70
32
71
5
72
1
41
1
210
0
220
0
230
1
3
Standard
100
AcDbAlignedDimension
13
-1.5875
23
31.5
33
0
14
-1.5875
24
-31.5
34
0
50
90
100
AcDbRotatedDimension
1001
ACAD
1000
DSTYLE
1002
{
1070
    74
1070
     0
1070
   279
1070
     0
1070
   172
1070
     1
1070
   173
1070
     1
1070
   340
1005
156
1070
   271
1070
     1
1070
   272
1070
     2
1070
    77
1070
     1
1070
    73
1070
     0
1070
   171
1070
     3
1070
   274
1070
     4
1070
   177
1070
   150
1070
   176
1070
     9
1070
   178
1070
    43
1070
    78
1070
     8
1070
    48
1040
-0.005
1070
    41
1041
3.175
1070
   147
1041
2.25
1070
    42
1041
1.5875
1070
    44
1041
3.175
1070
   140
1041
4.5
1070
   343
1005
177
1070
   344
1005
177
1002
}
0
DIMENSION
5
18B
100
AcDbEntity
8
2
62
256
6
ByLayer
370
13
48
1
60
0
100
AcDbDimension
2
DimnDraft3D3
10
0
20
49
30
0
11
32.5
21
49
31
0
70
32
71
5
72
1
41
1
210
0
220
0
230
1
3
Standard
100
AcDbAlignedDimension
13
65
23
2.0807
33
0
14
0
24
33.0875
34
0
50
0
100
AcDbRotatedDimension
1001
ACAD
1000
DSTYLE
1002
{
1070
   279
1070
     0
1070
   172
1070
     1
1070
   173
1070
     1
1070
   340
1005
156
1070
   271
1070
     1
1070
   272
1070
     2
1070
    77
1070
     1
1070
    73
1070
     0
1070
   171
1070
     3
1070
   274
1070
     4
1070
   177
1070
   150
1070
   176
1070
     9
1070
   178
1070
    43
1070
    78
1070
     8
1070
    48
1040
-0.005
1070
    41
1041
3.175
1070
   147
1041
2.25
1070
    42
1041
1.5875
1070
    44
1041
3.175
1070
   140
1041
4.5
1070
   343
1005
177
1070
   344
1005
177
1002
}
0
DIMENSION
5
199
100
AcDbEntity
8
2
62
256
6
ByLayer
370
13
48
1
60
0
100
AcDbDimension
2
DimnDraft3D4
10
51.216245
20
13.579503
30
0
11
50.953891
21
33.706055
31
0
70
34
71
5
72
1
41
1
210
0
220
0
230
1
3
Standard
100
AcDb2LineAngularDimension
13
65
23
0.4932
33
0
14
65
24
-1.88805
34
0
15
64.651274
25
0.144474
35
0
16
52.675966
26
29.548597
36
0
40
0
0
ENDSEC
0
SECTION
2
OBJECTS
0
DICTIONARY
5
204
330
0
100
AcDbDictionary
280
0
281
1
3
ACAD_GROUP
350
205
3
ACAD_MLINESTYLE
350
206
0
DICTIONARY
5
205
330
0
100
AcDbDictionary
280
0
281
1
0
DICTIONARY
5
206
330
0
100
AcDbDictionary
280
0
281
1
3
Standard
350
18
0
MLINESTYLE
5
18
330
206
100
AcDbMlineStyle
2
Standard
70
0
3

62
256
51
90
52
90
71
2
49
-0.5
62
256
6
ByLayer
49
0.5
62
256
6
ByLayer
0
RASTERVARIABLES
5
1f2
330

100
AcDbRasterVariables
90
0
70
1
71
1
72
1
0
ENDSEC
0
EOF
