0
SECTION
2
HEADER
9
$ACADVER
1
AC1015
9
$DWGCODEPAGE
3
ANSI_1252
9
$HANDSEED
5
218
9
$ANGBASE
50
0
9
$ANGDIR
70
0
9
$ATTMODE
70
1
9
$AUNITS
70
0
9
$AUPREC
70
0
9
$CECOLOR
62
256
9
$CELTSCALE
40
1
9
$CELTYPE
6
ByLayer
9
$CELWEIGHT
370
18
9
$CLAYER
8
0
9
$CMLJUST
70
0
9
$CMLSCALE
40
1
9
$CMLSTYLE
2
Standard
9
$DIMSTYLE
2
Standard
9
$TEXTSIZE
40
0.2
9
$TEXTSTYLE
7
Standard
9
$LUNITS
70
2
9
$LUPREC
70
4
9
$EXTNAMES
290
1
9
$INSUNITS
70
4
9
$LTSCALE
40
1
9
$LWDISPLAY
290
1
9
$PDMODE
70
0
9
$PDSIZE
40
0
9
$PLINEGEN
70
0
0
ENDSEC
0
SECTION
2
CLASSES
0
CLASS
1
RASTERVARIABLES
2
AcDbRasterVariables
3
ISM
90
0
280
0
281
0
0
ENDSEC
0
SECTION
2
TABLES
0
TABLE
2
VPORT
5
20e
100
AcDbSymbolTable
0
VPORT
5
1
100
AcDbSymbolTableRecord
100
AcDbViewportTableRecord
2
*Active
70
0
10
0
20
0
11
1
21
1
12
-1
22
1
13
0
23
0
14
0.5
24
0.5
15
10
25
10
16
0
26
0
36
1
17
0
27
0
37
0
0
ENDTAB
0
TABLE
2
LTYPE
5
20f
100
AcDbSymbolTable
0
LTYPE
5
14
100
AcDbSymbolTableRecord
100
AcDbLinetypeTableRecord
70
0
2
ByBlock
3

72
65
73
0
40
0
0
LTYPE
5
15
100
AcDbSymbolTableRecord
100
AcDbLinetypeTableRecord
70
0
2
ByLayer
3

72
65
73
0
40
0
0
LTYPE
5
16
100
AcDbSymbolTableRecord
100
AcDbLinetypeTableRecord
70
0
2
CONTINUOUS
3
Solid line
72
65
73
0
40
0
0
LTYPE
5
6A
100
AcDbSymbolTableRecord
100
AcDbLinetypeTableRecord
70
0
2
CENTER
3
____ _ ____ _ ____ _ ____
72
65
73
4
40
47.5
49
22
74
0
49
-8.5
74
0
49
8.5
74
0
49
-8.5
74
0
0
LTYPE
5
6B
100
AcDbSymbolTableRecord
100
AcDbLinetypeTableRecord
70
0
2
DASHED
3
__ __ __ __ __ __ __ __ __
72
65
73
2
40
25.72
49
12.86
74
0
49
-12.86
74
0
0
ENDTAB
0
TABLE
2
LAYER
5
210
100
AcDbSymbolTable
0
LAYER
5
10
100
AcDbSymbolTableRecord
100
AcDbLayerTableRecord
2
0
70
0
62
7
6
CONTINUOUS
290
1
370
-3
390
0
0
LAYER
5
6D
100
AcDbSymbolTableRecord
100
AcDbLayerTableRecord
2
80
70
0
62
-6
6
CONTINUOUS
290
1
370
-3
390
0
0
LAYER
5
6F
100
AcDbSymbolTableRecord
100
AcDbLayerTableRecord
2
81
70
0
62
-3
6
CONTINUOUS
290
1
370
-3
390
0
0
LAYER
5
71
100
AcDbSymbolTableRecord
100
AcDbLayerTableRecord
2
1
70
0
62
4
6
CONTINUOUS
290
1
370
-3
390
0
0
LAYER
5
BC
100
AcDbSymbolTableRecord
100
AcDbLayerTableRecord
2
4
70
0
62
-2
6
CENTER
290
1
370
-3
390
0
0
LAYER
5
164
100
AcDbSymbolTableRecord
100
AcDbLayerTableRecord
2
2
70
0
62
7
6
CONTINUOUS
290
1
370
-3
390
0
0
LAYER
5
1fa
100
AcDbSymbolTableRecord
100
AcDbLayerTableRecord
2
SK1
70
0
62
4
6
CONTINUOUS
290
1
370
-3
390
0
0
LAYER
5
1fb
100
AcDbSymbolTableRecord
100
AcDbLayerTableRecord
2
SK4
70
0
62
2
6
CENTER
290
1
370
-3
390
0
0
LAYER
5
1fc
100
AcDbSymbolTableRecord
100
AcDbLayerTableRecord
2
SK6
70
0
62
5
6
CONTINUOUS
290
1
370
-3
390
0
0
LAYER
5
1fd
100
AcDbSymbolTableRecord
100
AcDbLayerTableRecord
2
SK2
70
0
62
7
6
CONTINUOUS
290
1
370
-3
390
0
0
ENDTAB
0
TABLE
2
STYLE
5
211
100
AcDbSymbolTable
0
STYLE
5
11
100
AcDbSymbolTableRecord
100
AcDbTextStyleTableRecord
2
Standard
3
txt
70
0
71
0
40
0
41
1
42
0
50
0
0
STYLE
5
15D
100
AcDbSymbolTableRecord
100
AcDbTextStyleTableRecord
2
iso_b_vert
3
simplex.shx
70
0
71
0
40
0
41
1
42
0
50
0
0
STYLE
5
15E
100
AcDbSymbolTableRecord
100
AcDbTextStyleTableRecord
2
DWGDirectTextStyle
3
simplex
70
0
71
0
40
0
41
1
42
0
50
0
0
ENDTAB
0
TABLE
2
DIMSTYLE
5
212
100
AcDbSymbolTable
100
AcDbDimStyleTable
0
DIMSTYLE
105
27
100
AcDbSymbolTableRecord
100
AcDbDimStyleTableRecord
2
Standard
70
0
3
<>
41
0.18
42
0.0625
44
0.18
140
0.18
147
0.09
73
0
74
0
77
1
271
2
275
0
278
52
280
0
340
11
0
ENDTAB
0
TABLE
2
VIEW
5
213
100
AcDbSymbolTable
0
ENDTAB
0
TABLE
2
UCS
5
214
100
AcDbSymbolTable
0
ENDTAB
0
TABLE
2
APPID
5
215
100
AcDbSymbolTable
0
APPID
5
12
100
AcDbSymbolTableRecord
100
AcDbRegAppTableRecord
2
ACAD
70
0
0
ENDTAB
0
TABLE
2
BLOCK_RECORD
5
216
100
AcDbSymbolTable
0
BLOCK_RECORD
5
1F
100
AcDbSymbolTableRecord
100
AcDbBlockTableRecord
2
*Model_Space
340
0
70
0
0
BLOCK_RECORD
5
1B
100
AcDbSymbolTableRecord
100
AcDbBlockTableRecord
2
*Paper_Space
340
0
70
0
0
BLOCK_RECORD
5
23
100
AcDbSymbolTableRecord
100
AcDbBlockTableRecord
2
*Paper_Space0
340
0
70
0
0
BLOCK_RECORD
5
160
100
AcDbSymbolTableRecord
100
AcDbBlockTableRecord
2
DimnDraft3D11
340
0
70
0
0
BLOCK_RECORD
5
16F
100
AcDbSymbolTableRecord
100
AcDbBlockTableRecord
2
DimnDraft3D2
340
0
70
0
0
BLOCK_RECORD
5
17E
100
AcDbSymbolTableRecord
100
AcDbBlockTableRecord
2
_CLOSED
340
0
70
0
0
BLOCK_RECORD
5
185
100
AcDbSymbolTableRecord
100
AcDbBlockTableRecord
2
DimnDraft3D3
340
0
70
0
0
BLOCK_RECORD
5
193
100
AcDbSymbolTableRecord
100
AcDbBlockTableRecord
2
DimnDraft3D4
340
0
70
0
0
ENDTAB
0
ENDSEC
0
SECTION
2
BLOCKS
0
BLOCK
5
20
100
AcDbEntity
8
0
100
AcDbBlockBegin
2
*Model_Space
70
0
10
0
20
0
30
0
3
*Model_Space
0
ENDBLK
5
21
100
AcDbEntity
8
0
100
AcDbBlockEnd
0
BLOCK
5
1C
100
AcDbEntity
8
0
100
AcDbBlockBegin
2
*Paper_Space
70
0
10
0
20
0
30
0
3
*Paper_Space
0
ENDBLK
5
1D
100
AcDbEntity
8
0
100
AcDbBlockEnd
0
BLOCK
5
24
100
AcDbEntity
8
0
100
AcDbBlockBegin
2
*Paper_Space0
70
0
10
0
20
0
30
0
3
*Paper_Space0
0
ENDBLK
5
25
100
AcDbEntity
8
0
100
AcDbBlockEnd
0
BLOCK
5
161
100
AcDbEntity
8
0
100
AcDbBlockBegin
2
DimnDraft3D11
70
0
10
0
20
0
30
0
3
DimnDraft3D11
0
LINE
5
163
100
AcDbEntity
8
2
62
256
6
ByLayer
370
25
48
1
60
0
100
AcDbLine
10
51.5875
20
0
30
0
11
82.425
21
0
31
0
39
0
210
0
220
0
230
1
0
LINE
5
165
100
AcDbEntity
8
2
62
256
6
ByLayer
370
25
48
1
60
0
100
AcDbLine
10
66.5875
20
0.3288
30
0
11
82.425
21
0.3288
31
0
39
0
210
0
220
0
230
1
0
LINE
5
166
100
AcDbEntity
8
2
62
256
6
ByLayer
370
25
48
1
60
0
100
AcDbLine
10
79.25
20
18.6413
30
0
11
79.25
21
-11.25
31
0
39
0
210
0
220
0
230
1
0
LINE
5
167
100
AcDbEntity
8
2
62
256
6
ByLayer
370
25
48
1
60
0
100
AcDbLine
10
79.25
20
0
30
0
11
80.100739
21
-3.174997
31
0
39
0
210
0
220
0
230
1
0
LINE
5
168
100
AcDbEntity
8
2
62
256
6
ByLayer
370
25
48
1
60
0
100
AcDbLine
10
79.25
20
0
30
0
11
78.399261
21
-3.175003
31
0
39
0
210
0
220
0
230
1
0
LINE
5
169
100
AcDbEntity
8
2
62
256
6
ByLayer
370
25
48
1
60
0
100
AcDbLine
10
80.100739
20
-3.174997
30
0
11
78.399261
21
-3.175003
31
0
39
0
210
0
220
0
230
1
0
LINE
5
16A
100
AcDbEntity
8
2
62
256
6
ByLayer
370
25
48
1
60
0
100
AcDbLine
10
79.25
20
0.3288
30
0
11
78.399261
21
3.503797
31
0
39
0
210
0
220
0
230
1
0
LINE
5
16B
100
AcDbEntity
8
2
62
256
6
ByLayer
370
25
48
1
60
0
100
AcDbLine
10
79.25
20
0.3288
30
0
11
80.100739
21
3.503803
31
0
39
0
210
0
220
0
230
1
0
LINE
5
16C
100
AcDbEntity
8
2
62
256
6
ByLayer
370
25
48
1
60
0
100
AcDbLine
10
78.399261
20
3.503797
30
0
11
80.100739
21
3.503803
31
0
39
0
210
0
220
0
230
1
0
MTEXT
5
16D
100
AcDbEntity
8
2
62
256
6
ByLayer
370
13
48
1
60
0
100
AcDbMText
10
78.125
20
12.5663
30
0
210
0
220
0
230
1
1
\W0.7121;0.3
40
4.5
41
0
44
1.084337
50
90
71
7
72
5
7
iso_b_vert
0
ENDBLK
5
162
100
AcDbEntity
8
0
100
AcDbBlockEnd
0
BLOCK
5
17B
100
AcDbEntity
8
0
100
AcDbBlockBegin
2
DimnDraft3D2
70
0
10
0
20
0
30
0
3
DimnDraft3D2
0
MTEXT
5
170
100
AcDbEntity
8
SK2
62
256
6
ByLayer
370
13
48
1
60
0
100
AcDbMText
10
-48.875
20
-1.563158
30
0
210
0
220
0
230
1
1
\W0.6740;63
40
4.5
41
0
44
1.084337
50
90
71
7
72
5
7
iso_b_vert
0
LINE
5
172
100
AcDbEntity
8
SK2
62
256
6
ByLayer
370
13
48
1
60
0
100
AcDbLine
10
-1.5875
20
31.5
30
0
11
-50.925
21
31.5
31
0
39
0
210
0
220
0
230
1
0
LINE
5
173
100
AcDbEntity
8
SK2
62
256
6
ByLayer
370
13
48
1
60
0
100
AcDbLine
10
-1.5875
20
-31.5
30
0
11
-50.925
21
-31.5
31
0
39
0
210
0
220
0
230
1
0
LINE
5
174
100
AcDbEntity
8
SK2
62
256
6
ByLayer
370
13
48
1
60
0
100
AcDbLine
10
-47.75
20
31.5
30
0
11
-47.75
21
-31.5
31
0
39
0
210
0
220
0
230
1
0
LINE
5
175
100
AcDbEntity
8
SK2
62
256
6
ByLayer
370
13
48
1
60
0
100
AcDbLine
10
-47.75
20
31.5
30
0
11
-46.899261
21
28.325003
31
0
39
0
210
0
220
0
230
1
0
LINE
5
176
100
AcDbEntity
8
SK2
62
256
6
ByLayer
370
13
48
1
60
0
100
AcDbLine
10
-47.75
20
31.5
30
0
11
-48.600739
21
28.324997
31
0
39
0
210
0
220
0
230
1
0
LINE
5
177
100
AcDbEntity
8
SK2
62
256
6
ByLayer
370
13
48
1
60
0
100
AcDbLine
10
-46.899261
20
28.325003
30
0
11
-48.600739
21
28.324997
31
0
39
0
210
0
220
0
230
1
0
LINE
5
178
100
AcDbEntity
8
SK2
62
256
6
ByLayer
370
13
48
1
60
0
100
AcDbLine
10
-47.75
20
-31.5
30
0
11
-48.600739
21
-28.325003
31
0
39
0
210
0
220
0
230
1
0
LINE
5
179
100
AcDbEntity
8
SK2
62
256
6
ByLayer
370
13
48
1
60
0
100
AcDbLine
10
-47.75
20
-31.5
30
0
11
-46.899261
21
-28.324997
31
0
39
0
210
0
220
0
230
1
0
LINE
5
17A
100
AcDbEntity
8
SK2
62
256
6
ByLayer
370
13
48
1
60
0
100
AcDbLine
10
-48.600739
20
-28.325003
30
0
11
-46.899261
21
-28.324997
31
0
39
0
210
0
220
0
230
1
0
ENDBLK
5
17C
100
AcDbEntity
8
0
100
AcDbBlockEnd
0
BLOCK
5
17F
100
AcDbEntity
8
0
100
AcDbBlockBegin
2
_CLOSED
70
0
10
0
20
0
30
0
3
_CLOSED
0
LINE
5
181
100
AcDbEntity
8
0
62
256
6
ByLayer
370
-2
48
1
60
0
100
AcDbLine
10
-1
20
0.166667
30
0
11
0
21
0
31
0
39
0
210
0
220
0
230
1
0
LINE
5
182
100
AcDbEntity
8
0
62
256
6
ByLayer
370
-2
48
1
60
0
100
AcDbLine
10
0
20
0
30
0
11
-1
21
-0.166667
31
0
39
0
210
0
220
0
230
1
0
LINE
5
183
100
AcDbEntity
8
0
62
256
6
ByLayer
370
-2
48
1
60
0
100
AcDbLine
10
-1
20
0.166667
30
0
11
-1
21
-0.166667
31
0
39
0
210
0
220
0
230
1
0
LINE
5
184
100
AcDbEntity
8
0
62
256
6
ByLayer
370
-2
48
1
60
0
100
AcDbLine
10
0
20
0
30
0
11
-1
21
0
31
0
39
0
210
0
220
0
230
1
0
ENDBLK
5
180
100
AcDbEntity
8
0
100
AcDbBlockEnd
0
BLOCK
5
190
100
AcDbEntity
8
0
100
AcDbBlockBegin
2
DimnDraft3D3
70
0
10
0
20
0
30
0
3
DimnDraft3D3
0
MTEXT
5
186
100
AcDbEntity
8
2
62
256
6
ByLayer
370
13
48
1
60
0
100
AcDbMText
10
30.936842
20
50.125
30
0
210
0
220
0
230
1
1
\W0.6740;65
40
4.5
41
0
44
1.084337
50
0
71
7
72
5
7
iso_b_vert
0
LINE
5
187
100
AcDbEntity
8
2
62
256
6
ByLayer
370
13
48
1
60
0
100
AcDbLine
10
65
20
1.9163
30
0
11
65
21
52.175
31
0
39
0
210
0
220
0
230
1
0
LINE
5
188
100
AcDbEntity
8
2
62
256
6
ByLayer
370
13
48
1
60
0
100
AcDbLine
10
0
20
33.0875
30
0
11
0
21
52.175
31
0
39
0
210
0
220
0
230
1
0
LINE
5
189
100
AcDbEntity
8
2
62
256
6
ByLayer
370
13
48
1
60
0
100
AcDbLine
10
65
20
49
30
0
11
0
21
49
31
0
39
0
210
0
220
0
230
1
0
LINE
5
18A
100
AcDbEntity
8
2
62
256
6
ByLayer
370
13
48
1
60
0
100
AcDbLine
10
65
20
49
30
0
11
61.825003
21
48.149261
31
0
39
0
210
0
220
0
230
1
0
LINE
5
18B
100
AcDbEntity
8
2
62
256
6
ByLayer
370
13
48
1
60
0
100
AcDbLine
10
65
20
49
30
0
11
61.824997
21
49.850739
31
0
39
0
210
0
220
0
230
1
0
LINE
5
18C
100
AcDbEntity
8
2
62
256
6
ByLayer
370
13
48
1
60
0
100
AcDbLine
10
61.825003
20
48.149261
30
0
11
61.824997
21
49.850739
31
0
39
0
210
0
220
0
230
1
0
LINE
5
18D
100
AcDbEntity
8
2
62
256
6
ByLayer
370
13
48
1
60
0
100
AcDbLine
10
0
20
49
30
0
11
3.174997
21
49.850739
31
0
39
0
210
0
220
0
230
1
0
LINE
5
18E
100
AcDbEntity
8
2
62
256
6
ByLayer
370
13
48
1
60
0
100
AcDbLine
10
0
20
49
30
0
11
3.175003
21
48.149261
31
0
39
0
210
0
220
0
230
1
0
LINE
5
18F
100
AcDbEntity
8
2
62
256
6
ByLayer
370
13
48
1
60
0
100
AcDbLine
10
3.174997
20
49.850739
30
0
11
3.175003
21
48.149261
31
0
39
0
210
0
220
0
230
1
0
ENDBLK
5
191
100
AcDbEntity
8
0
100
AcDbBlockEnd
0
BLOCK
5
19E
100
AcDbEntity
8
0
100
AcDbBlockBegin
2
DimnDraft3D4
70
0
10
0
20
0
30
0
3
DimnDraft3D4
0
MTEXT
5
194
100
AcDbEntity
8
2
62
256
6
ByLayer
370
13
48
1
60
0
100
AcDbMText
10
47.00083
20
28.409961
30
0
210
0
220
0
230
1
1
\W0.8602;45%%d0'
40
4.5
41
0
44
1.084337
50
22.5
71
7
72
5
7
iso_b_vert
0
LINE
5
195
100
AcDbEntity
8
2
62
256
6
ByLayer
370
13
48
1
60
0
100
AcDbLine
10
65
20
1.9163
30
0
11
65
21
35.175
31
0
39
0
210
0
220
0
230
1
0
LINE
5
196
100
AcDbEntity
8
2
62
256
6
ByLayer
370
13
48
1
60
0
100
AcDbLine
10
55.159703
20
9.704129
30
0
11
40.031234
21
24.832598
31
0
39
0
210
0
220
0
230
1
0
ARC
5
197
100
AcDbEntity
8
2
62
256
6
ByLayer
370
13
48
1
60
0
100
AcDbCircle
39
0
10
65
20
-0.136168
30
0
40
32.1361679848663
210
0
220
0
230
1
100
AcDbArc
50
90
51
135
0
LINE
5
198
100
AcDbEntity
8
2
62
256
6
ByLayer
370
13
48
1
60
0
100
AcDbLine
10
65
20
32
30
0
11
61.846964
21
31.071171
31
0
39
0
210
0
220
0
230
1
0
LINE
5
199
100
AcDbEntity
8
2
62
256
6
ByLayer
370
13
48
1
60
0
100
AcDbLine
10
65
20
32
30
0
11
61.80497
21
32.77213
31
0
39
0
210
0
220
0
230
1
0
LINE
5
19A
100
AcDbEntity
8
2
62
256
6
ByLayer
370
13
48
1
60
0
100
AcDbLine
10
61.846964
20
31.071171
30
0
11
61.80497
21
32.77213
31
0
39
0
210
0
220
0
230
1
0
LINE
5
19B
100
AcDbEntity
8
2
62
256
6
ByLayer
370
13
48
1
60
0
100
AcDbLine
10
42.276298
20
22.587534
30
0
11
43.989542
21
25.392736
31
0
39
0
210
0
220
0
230
1
0
LINE
5
19C
100
AcDbEntity
8
2
62
256
6
ByLayer
370
13
48
1
60
0
100
AcDbLine
10
42.276298
20
22.587534
30
0
11
45.162617
21
24.160291
31
0
39
0
210
0
220
0
230
1
0
LINE
5
19D
100
AcDbEntity
8
2
62
256
6
ByLayer
370
13
48
1
60
0
100
AcDbLine
10
43.989542
20
25.392736
30
0
11
45.162617
21
24.160291
31
0
39
0
210
0
220
0
230
1
0
ENDBLK
5
19F
100
AcDbEntity
8
0
100
AcDbBlockEnd
0
ENDSEC
0
SECTION
2
ENTITIES
0
ARC
5
D2
100
AcDbEntity
8
1
62
256
6
ByLayer
370
18
48
1
60
0
100
AcDbCircle
39
0
10
-22.186138
20
32.3
30
0
40
0.8
210
0
220
0
230
-1
100
AcDbArc
50
234.580559
51
270
0
ARC
5
D3
100
AcDbEntity
8
1
62
256
6
ByLayer
370
18
48
1
60
0
100
AcDbCircle
39
0
10
-22.186138
20
-32.3
30
0
40
0.8
210
0
220
0
230
-1
100
AcDbArc
50
90
51
125.382674
0
ARC
5
D4
100
AcDbEntity
8
SK1
62
256
6
ByLayer
370
18
48
1
60
0
100
AcDbCircle
39
0
10
0.6
20
-23.45
30
0
40
0.999999999999999
210
0
220
0
230
-1
100
AcDbArc
50
113.578178
51
126.869898
0
ARC
5
D5
100
AcDbEntity
8
SK1
62
256
6
ByLayer
370
18
48
1
60
0
100
AcDbCircle
39
0
10
0.6
20
23.45
30
0
40
0.999999999999999
210
0
220
0
230
-1
100
AcDbArc
50
233.130102
51
246.421822
0
ELLIPSE
5
D6
100
AcDbEntity
8
1
62
256
6
ByLayer
370
18
48
1
60
0
100
AcDbEllipse
10
25.550939
20
30.82963
30
0
11
3.99552593656052
21
-2.74086424781896
31
0
210
0
220
0
230
-1
40
0.069006
41
1.67105347020818
42
1.80424622130823
0
ELLIPSE
5
D7
100
AcDbEntity
8
1
62
256
6
ByLayer
370
18
48
1
60
0
100
AcDbEllipse
10
49.15617
20
-3.690525
30
0
11
0.10664388761268
21
-0.105484981086665
31
0
210
0
220
0
230
1
40
0.103962
41
-1.675515662622
42
-0.0930832257036968
0
ELLIPSE
5
D8
100
AcDbEntity
8
1
62
256
6
ByLayer
370
18
48
1
60
0
100
AcDbEllipse
10
74.32027
20
3.35
30
0
11
51.6173905997917
21
34.9162264206963
31
0
210
0
220
0
230
-1
40
0.046886
41
2.91105024790287
42
3.07238897832439
0
ELLIPSE
5
D9
100
AcDbEntity
8
1
62
256
6
ByLayer
370
18
48
1
60
0
100
AcDbEllipse
10
48.894471
20
-2.333452
30
0
11
-3.64382449390665E-16
21
-1.98367117865162
31
0
210
0
220
0
230
1
40
0.989133
41
-1.33746442990793
42
0.785398163397447
0
ELLIPSE
5
DA
100
AcDbEntity
8
1
62
256
6
ByLayer
370
18
48
1
60
0
100
AcDbEllipse
10
48.673226
20
-1.685512
30
0
11
-3.73567606269082E-16
21
-2.03367449522622
31
0
210
0
220
0
230
1
40
0.989133
41
-2.35619449019234
42
-0.995431653305855
0
ELLIPSE
5
DB
100
AcDbEntity
8
1
62
256
6
ByLayer
370
18
48
1
60
0
100
AcDbEllipse
10
-2.347154
20
0
30
0
11
14.7536831606568
21
31.0932549155818
31
0
210
0
220
0
230
-1
40
0.341999
41
0.15780618664543
42
1.09123958575281
0
ELLIPSE
5
DC
100
AcDbEntity
8
1
62
256
6
ByLayer
370
18
48
1
60
0
100
AcDbEllipse
10
25.550939
20
-30.82963
30
0
11
3.99552592504164
21
2.74086424027268
31
0
210
0
220
0
230
-1
40
0.069006
41
-1.80424622107153
42
-1.67105346960184
0
ELLIPSE
5
DD
100
AcDbEntity
8
1
62
256
6
ByLayer
370
18
48
1
60
0
100
AcDbEllipse
10
50.020377
20
-3.266898
30
0
11
0.106515107698285
21
0.105616057184197
31
0
210
0
220
0
230
-1
40
0.092451
41
3.02540225257118
42
-1.67535119947085
0
ELLIPSE
5
DE
100
AcDbEntity
8
1
62
256
6
ByLayer
370
18
48
1
60
0
100
AcDbEllipse
10
74.32027
20
-3.35
30
0
11
51.6173906003056
21
-34.9162264210473
31
0
210
0
220
0
230
-1
40
0.046886
41
-3.07238897832474
42
-2.91105024790406
0
ELLIPSE
5
DF
100
AcDbEntity
8
1
62
256
6
ByLayer
370
18
48
1
60
0
100
AcDbEllipse
10
47.814101
20
-2.333452
30
0
11
-3.80089671623779E-16
21
-2.06918013796788
31
0
210
0
220
0
230
1
40
0.989133
41
0.34753848333751
42
0.785398163397449
0
ELLIPSE
5
E0
100
AcDbEntity
8
1
62
256
6
ByLayer
370
18
48
1
60
0
100
AcDbEllipse
10
19.354207
20
0
30
0
11
-3.36766747301154E-16
21
5.5
31
0
210
0
220
0
230
-1
40
0.091641
41
1.94294128915983
42
-2.1263654286939
0
ELLIPSE
5
E1
100
AcDbEntity
8
1
62
256
6
ByLayer
370
18
48
1
60
0
100
AcDbEllipse
10
19.354207
20
0
30
0
11
-3.36766747301154E-16
21
5.5
31
0
210
0
220
0
230
-1
40
0.091641
41
-1.0152272248959
42
1.19865136443001
0
ELLIPSE
5
E2
100
AcDbEntity
8
1
62
256
6
ByLayer
370
18
48
1
60
0
100
AcDbEllipse
10
52.46358
20
1.699132
30
0
11
1.53075794227797E-16
21
2.5
31
0
210
0
220
0
230
1
40
0.989133
41
0.785398163397444
42
1.13356418467042
0
ELLIPSE
5
E3
100
AcDbEntity
8
1
62
256
6
ByLayer
370
18
48
1
60
0
100
AcDbEllipse
10
19.354207
20
0
30
0
11
-2.90844009001397E-16
21
4.74999999948689
31
0
210
0
220
0
230
-1
40
0.091641
41
-1.7513308728769
42
-1.39026178071288
0
ELLIPSE
5
E4
100
AcDbEntity
8
1
62
256
6
ByLayer
370
18
48
1
60
0
100
AcDbEllipse
10
26.347154
20
0
30
0
11
14.7536831606551
21
-31.0932549155797
31
0
210
0
220
0
230
-1
40
0.341999
41
2.05035306783693
42
2.98378646694436
0
ELLIPSE
5
E5
100
AcDbEntity
8
1
62
256
6
ByLayer
370
18
48
1
60
0
100
AcDbEllipse
10
26.347154
20
0
30
0
11
14.7536831606554
21
31.0932549155801
31
0
210
0
220
0
230
-1
40
0.341999
41
-2.98378646694436
42
-2.05035306783694
0
ELLIPSE
5
E6
100
AcDbEntity
8
1
62
256
6
ByLayer
370
18
48
1
60
0
100
AcDbEllipse
10
20.724932
20
0
30
0
11
-1.92875500727024E-15
21
31.5
31
0
210
0
220
0
230
-1
40
0.087489
41
-2.83019126951571
42
-0.311401384074084
0
ELLIPSE
5
E7
100
AcDbEntity
8
1
62
256
6
ByLayer
370
18
48
1
60
0
100
AcDbEllipse
10
54.417856
20
3.674879
30
0
11
1.53075794227797E-16
21
2.5
31
0
210
0
220
0
230
1
40
0.989133
41
0.437232142124479
42
0.785398163397448
0
ELLIPSE
5
E8
100
AcDbEntity
8
1
62
256
6
ByLayer
370
18
48
1
60
0
100
AcDbEllipse
10
-2.347154
20
0
30
0
11
14.7536831606576
21
-31.0932549155827
31
0
210
0
220
0
230
-1
40
0.341999
41
-1.09123958575279
42
-0.157806186645427
0
ELLIPSE
5
E9
100
AcDbEntity
8
1
62
256
6
ByLayer
370
18
48
1
60
0
100
AcDbEllipse
10
47.791791
20
-2.333452
30
0
11
1.17512631336797E-16
21
1.91919029278271
31
0
210
0
220
0
230
1
40
0.989133
41
-2.90788756670312
42
-2.35619449019235
0
ELLIPSE
5
EA
100
AcDbEntity
8
1
62
256
6
ByLayer
370
18
48
1
60
0
100
AcDbEllipse
10
55.841037
20
0.506278
30
0
11
1.59198825996909E-16
21
2.6
31
0
210
0
220
0
230
1
40
0.989133
41
2.62817887628812
42
3.14158707875178
0
ELLIPSE
5
EB
100
AcDbEntity
8
1
62
256
6
ByLayer
370
18
48
1
60
0
100
AcDbEllipse
10
55.415904
20
-0.506278
30
0
11
1.59198825996909E-16
21
2.6
31
0
210
0
220
0
230
1
40
0.989133
41
-1.25061832713075E-05
42
0.0900753659428976
0
ELLIPSE
5
EC
100
AcDbEntity
8
1
62
256
6
ByLayer
370
18
48
1
60
0
100
AcDbEllipse
10
55.853337
20
-0.136756
30
0
11
-4.31673739722388E-16
21
-2.35
31
0
210
0
220
0
230
1
40
0.989133
41
-3.14155628755929
42
-2.65172442802253
0
ELLIPSE
5
ED
100
AcDbEntity
8
1
62
256
6
ByLayer
370
18
48
1
60
0
100
AcDbEllipse
10
54.628707
20
0
30
0
11
-5.23519216259066E-16
21
-2.85
31
0
210
0
220
0
230
1
40
0.989133
41
2.43133746414574
42
2.66022474936249
0
ELLIPSE
5
EE
100
AcDbEntity
8
1
62
256
6
ByLayer
370
18
48
1
60
0
100
AcDbEllipse
10
54.628707
20
0
30
0
11
-5.23519216259066E-16
21
-2.85
31
0
210
0
220
0
230
1
40
0.989133
41
0.481378174005733
42
0.703984322618389
0
ELLIPSE
5
EF
100
AcDbEntity
8
1
62
256
6
ByLayer
370
18
48
1
60
0
100
AcDbEllipse
10
44.162449
20
5.001358
30
0
11
-2.85639432029069E-16
21
-1.555
31
0
210
0
220
0
230
1
40
0.989133
41
0.230710559154718
42
1.57079605696975
0
ELLIPSE
5
F0
100
AcDbEntity
8
1
62
256
6
ByLayer
370
18
48
1
60
0
100
AcDbEllipse
10
44.162449
20
5.001358
30
0
11
-2.85639432029069E-16
21
-1.555
31
0
210
0
220
0
230
1
40
0.989133
41
1.57079605696975
42
3.00434401875696
0
ELLIPSE
5
F1
100
AcDbEntity
8
1
62
256
6
ByLayer
370
18
48
1
60
0
100
AcDbEllipse
10
44.309473
20
5.001358
30
0
11
9.52131440096898E-17
21
1.555
31
0
210
0
220
0
230
1
40
0.989133
41
-0.179897025353598
42
4.7593558000439E-06
0
ELLIPSE
5
F2
100
AcDbEntity
8
1
62
256
6
ByLayer
370
18
48
1
60
0
100
AcDbEllipse
10
44.309473
20
5.001358
30
0
11
9.52131440096898E-17
21
1.555
31
0
210
0
220
0
230
1
40
0.989133
41
-2.95969497490713
42
-2.71734953295698
0
ELLIPSE
5
F3
100
AcDbEntity
8
1
62
256
6
ByLayer
370
18
48
1
60
0
100
AcDbEllipse
10
17.874835
20
0
30
0
11
2.90517755958674E-16
21
4.74467170698368
31
0
210
0
220
0
230
1
40
0.224951
41
-1.44399919324022
42
-1.39462474248336
0
ELLIPSE
5
F4
100
AcDbEntity
8
1
62
256
6
ByLayer
370
18
48
1
60
0
100
AcDbEllipse
10
17.874835
20
0
30
0
11
2.90517755958674E-16
21
4.74467170698368
31
0
210
0
220
0
230
1
40
0.224951
41
-1.74696791110643
42
-1.69759346034957
0
ELLIPSE
5
F5
100
AcDbEntity
8
1
62
256
6
ByLayer
370
18
48
1
60
0
100
AcDbEllipse
10
18.707054
20
0
30
0
11
-3.37126925640514E-16
21
-1.83529411764706
31
0
210
0
220
0
230
1
40
0.224951
41
0.559007302510379
42
2.58268370108738
0
ELLIPSE
5
F6
100
AcDbEntity
8
1
62
256
6
ByLayer
370
18
48
1
60
0
100
AcDbEllipse
10
19.045289
20
0
30
0
11
-3.1842710054132E-16
21
-1.73349364905389
31
0
210
0
220
0
230
1
40
0.224951
41
0
42
-3.00797736027899
0
ELLIPSE
5
F7
100
AcDbEntity
8
1
62
256
6
ByLayer
370
18
48
1
60
0
100
AcDbEllipse
10
19.045289
20
0
30
0
11
-3.1842710054132E-16
21
-1.73349364905389
31
0
210
0
220
0
230
1
40
0.224951
41
-0.133713532289933
42
-1.08877609241335E-15
0
ELLIPSE
5
F8
100
AcDbEntity
8
1
62
256
6
ByLayer
370
18
48
1
60
0
100
AcDbEllipse
10
19.495061
20
0
30
0
11
1.22460635382238E-16
21
2
31
0
210
0
220
0
230
1
40
0.224951
41
3.00797747076639
42
-1.08877609241335E-15
0
ELLIPSE
5
F9
100
AcDbEntity
8
1
62
256
6
ByLayer
370
18
48
1
60
0
100
AcDbEllipse
10
19.495061
20
0
30
0
11
1.22460635382238E-16
21
2
31
0
210
0
220
0
230
1
40
0.224951
41
0
42
0.13371400321277
0
ELLIPSE
5
FA
100
AcDbEntity
8
1
62
256
6
ByLayer
370
18
48
1
60
0
100
AcDbEllipse
10
22.321958
20
0
30
0
11
-3.67381906146713E-16
21
-2
31
0
210
0
220
0
230
1
40
0.224951
41
0
42
3.14159190894909
0
ELLIPSE
5
FB
100
AcDbEntity
8
1
62
256
6
ByLayer
370
18
48
1
60
0
100
AcDbEllipse
10
22.516832
20
0
30
0
11
1.10214571844014E-16
21
1.8
31
0
210
0
220
0
230
1
40
0.224951
41
-2.90862318725882
42
-0.233066200182579
0
ELLIPSE
5
FC
100
AcDbEntity
8
1
62
256
6
ByLayer
370
18
48
1
60
0
100
AcDbEllipse
10
54.897026
20
0
30
0
11
1.69914131592855E-16
21
2.775
31
0
210
0
220
0
230
1
40
0.989133
41
-2.72664584597322
42
-2.42037301173163
0
ELLIPSE
5
FD
100
AcDbEntity
8
1
62
256
6
ByLayer
370
18
48
1
60
0
100
AcDbEllipse
10
54.897026
20
0
30
0
11
1.69914131592855E-16
21
2.775
31
0
210
0
220
0
230
1
40
0.989133
41
-0.777519421864075
42
-0.414983617931421
0
ELLIPSE
5
FE
100
AcDbEntity
8
1
62
256
6
ByLayer
370
18
48
1
60
0
100
AcDbEllipse
10
47.970007
20
0
30
0
11
-1.45804694001977E-16
21
-0.79375
31
0
210
0
220
0
230
1
40
0.989133
41
-1.22558885273175
42
-0.785398163397449
0
ELLIPSE
5
FF
100
AcDbEntity
8
1
62
256
6
ByLayer
370
18
48
1
60
0
100
AcDbEllipse
10
55.74234
20
0
30
0
11
1.57851759007704E-16
21
2.578
31
0
210
0
220
0
230
1
40
0.989133
41
-3.00385332324586
42
-2.39772232307802
0
ELLIPSE
5
100
100
AcDbEntity
8
1
62
256
6
ByLayer
370
18
48
1
60
0
100
AcDbEllipse
10
55.74234
20
0
30
0
11
1.57851759007704E-16
21
2.578
31
0
210
0
220
0
230
1
40
0.989133
41
-1.08149311697747
42
-0.137739084452439
0
ELLIPSE
5
101
100
AcDbEntity
8
1
62
256
6
ByLayer
370
18
48
1
60
0
100
AcDbEllipse
10
55.74234
20
7.857724
30
0
11
-1.45804694001977E-16
21
-0.79375
31
0
210
0
220
0
230
1
40
0.989133
41
3.14159224159743
42
-2.95650924612679
0
ELLIPSE
5
102
100
AcDbEntity
8
1
62
256
6
ByLayer
370
18
48
1
60
0
100
AcDbEllipse
10
55.74234
20
-7.857724
30
0
11
-1.45804694001977E-16
21
-0.79375
31
0
210
0
220
0
230
1
40
0.989133
41
-0.185084231139623
42
-4.11992360947088E-07
0
ELLIPSE
5
103
100
AcDbEntity
8
1
62
256
6
ByLayer
370
18
48
1
60
0
100
AcDbEllipse
10
56.136321
20
-0.506278
30
0
11
1.2858366715135E-16
21
2.1
31
0
210
0
220
0
230
1
40
0.989133
41
-1.37971611822319
42
0.5768646623058
0
ELLIPSE
5
104
100
AcDbEntity
8
1
62
256
6
ByLayer
370
18
48
1
60
0
100
AcDbEllipse
10
56.487943
20
0.506278
30
0
11
-4.77596477990727E-16
21
-2.6
31
0
210
0
220
0
230
1
40
0.989133
41
-1.40361175448941
42
0.60076029857202
0
ELLIPSE
5
105
100
AcDbEntity
8
1
62
256
6
ByLayer
370
18
48
1
60
0
100
AcDbEllipse
10
56.062809
20
-0.506278
30
0
11
-4.77596477990727E-16
21
-2.6
31
0
210
0
220
0
230
1
40
0.989133
41
1.73798089910038
42
-2.54083235501778
0
ELLIPSE
5
106
100
AcDbEntity
8
1
62
256
6
ByLayer
370
18
48
1
60
0
100
AcDbEllipse
10
56.275376
20
0
30
0
11
-4.31673739722388E-16
21
-2.35
31
0
210
0
220
0
230
1
40
0.989133
41
0.799277608687816
42
1.53946358898458
0
ELLIPSE
5
107
100
AcDbEntity
8
1
62
256
6
ByLayer
370
18
48
1
60
0
100
AcDbEllipse
10
56.275376
20
0
30
0
11
-4.31673739722388E-16
21
-2.35
31
0
210
0
220
0
230
1
40
0.989133
41
-2.34231504490198
42
-1.60212906460521
0
ELLIPSE
5
108
100
AcDbEntity
8
1
62
256
6
ByLayer
370
18
48
1
60
0
100
AcDbEllipse
10
56.561455
20
0.506278
30
0
11
1.2858366715135E-16
21
2.1
31
0
210
0
220
0
230
1
40
0.989133
41
1.7618765353666
42
-2.56472799128399
0
ELLIPSE
5
109
100
AcDbEntity
8
1
62
256
6
ByLayer
370
18
48
1
60
0
100
AcDbEllipse
10
56.348888
20
0
30
0
11
1.1327608772857E-16
21
1.85
31
0
210
0
220
0
230
1
40
0.989133
41
-2.31553583439554
42
-1.62890827511165
0
ELLIPSE
5
10A
100
AcDbEntity
8
1
62
256
6
ByLayer
370
18
48
1
60
0
100
AcDbEllipse
10
56.348888
20
0
30
0
11
1.1327608772857E-16
21
1.85
31
0
210
0
220
0
230
1
40
0.989133
41
0.826056819194255
42
1.51268437847815
0
ELLIPSE
5
10B
100
AcDbEntity
8
1
62
256
6
ByLayer
370
18
48
1
60
0
100
AcDbEllipse
10
44.865958
20
5.001358
30
0
11
9.52131440096898E-17
21
1.555
31
0
210
0
220
0
230
1
40
0.989133
41
-0.622954430563814
42
-0.179897025353594
0
ELLIPSE
5
10C
100
AcDbEntity
8
1
62
256
6
ByLayer
370
18
48
1
60
0
100
AcDbEllipse
10
44.865958
20
5.001358
30
0
11
9.52131440096898E-17
21
1.555
31
0
210
0
220
0
230
1
40
0.989133
41
-2.71734953295698
42
-2.2742921277468
0
ELLIPSE
5
10D
100
AcDbEntity
8
1
62
256
6
ByLayer
370
18
48
1
60
0
100
AcDbEllipse
10
44.865958
20
5.001358
30
0
11
9.52131440096898E-17
21
1.555
31
0
210
0
220
0
230
1
40
0.989133
41
1.47144067182941
42
1.91449807703959
0
ELLIPSE
5
10E
100
AcDbEntity
8
1
62
256
6
ByLayer
370
18
48
1
60
0
100
AcDbEllipse
10
44.897569
20
5.001358
30
0
11
-3.54044275706038E-16
21
-1.92739092362731
31
0
210
0
220
0
230
1
40
0.989133
41
0
42
6.28318530717959
0
ELLIPSE
5
10F
100
AcDbEntity
8
1
62
256
6
ByLayer
370
18
48
1
60
0
100
AcDbEllipse
10
44.865958
20
5.001358
30
0
11
9.52131440096898E-17
21
1.555
31
0
210
0
220
0
230
1
40
0.989133
41
2.518638223026
42
2.96169562823619
0
ELLIPSE
5
110
100
AcDbEntity
8
1
62
256
6
ByLayer
370
18
48
1
60
0
100
AcDbEllipse
10
44.309473
20
5.001358
30
0
11
9.52131440096898E-17
21
1.555
31
0
210
0
220
0
230
1
40
0.989133
41
-2.2742921277468
42
-1.67015198176039
0
ELLIPSE
5
111
100
AcDbEntity
8
1
62
256
6
ByLayer
370
18
48
1
60
0
100
AcDbEllipse
10
44.865958
20
5.001358
30
0
11
9.52131440096898E-17
21
1.555
31
0
210
0
220
0
230
1
40
0.989133
41
0.424243120632803
42
0.867300525842995
0
ELLIPSE
5
112
100
AcDbEntity
8
1
62
256
6
ByLayer
370
18
48
1
60
0
100
AcDbEllipse
10
44.897569
20
5.001358
30
0
11
-5.94240233192309E-16
21
-3.235
31
0
210
0
220
0
230
1
40
0.989133
41
0
42
6.28318530717959
0
ELLIPSE
5
113
100
AcDbEntity
8
1
62
256
6
ByLayer
370
18
48
1
60
0
100
AcDbEllipse
10
44.865958
20
5.001358
30
0
11
9.52131440096898E-17
21
1.555
31
0
210
0
220
0
230
1
40
0.989133
41
-1.67015198176039
42
-1.2270945765502
0
ELLIPSE
5
114
100
AcDbEntity
8
1
62
256
6
ByLayer
370
18
48
1
60
0
100
AcDbEllipse
10
44.785095
20
5.001358
30
0
11
-7.34763812293426E-16
21
-4
31
0
210
0
220
0
230
1
40
0.989133
41
0
42
6.28318530717959
0
ELLIPSE
5
115
100
AcDbEntity
8
1
62
256
6
ByLayer
370
18
48
1
60
0
100
AcDbEllipse
10
44.309473
20
5.001358
30
0
11
9.52131440096898E-17
21
1.555
31
0
210
0
220
0
230
1
40
0.989133
41
-1.22709457655019
42
-0.622954430563809
0
ELLIPSE
5
116
100
AcDbEntity
8
1
62
256
6
ByLayer
370
18
48
1
60
0
100
AcDbEllipse
10
56.442542
20
-7.857724
30
0
11
4.86015646673256E-17
21
0.79375
31
0
210
0
220
0
230
1
40
0.989133
41
2.35619449019234
42
-2.35619449019234
0
ELLIPSE
5
117
100
AcDbEntity
8
1
62
256
6
ByLayer
370
18
48
1
60
0
100
AcDbEllipse
10
64.214876
20
0
30
0
11
4.86015646673256E-17
21
0.79375
31
0
210
0
220
0
230
1
40
0.989133
41
-2.35619449019234
42
-0.78539816339746
0
ELLIPSE
5
118
100
AcDbEntity
8
1
62
256
6
ByLayer
370
18
48
1
60
0
100
AcDbEllipse
10
56.442542
20
7.857724
30
0
11
4.86015646673256E-17
21
0.79375
31
0
210
0
220
0
230
1
40
0.989133
41
-0.785398163397449
42
0.785398163397449
0
ELLIPSE
5
119
100
AcDbEntity
8
1
62
256
6
ByLayer
370
18
48
1
60
0
100
AcDbEllipse
10
48.670208
20
0
30
0
11
4.86015646673256E-17
21
0.79375
31
0
210
0
220
0
230
1
40
0.989133
41
0.785398163397449
42
2.35619449019234
0
ELLIPSE
5
11A
100
AcDbEntity
8
1
62
256
6
ByLayer
370
18
48
1
60
0
100
AcDbEllipse
10
56.442542
20
0
30
0
11
1.57851759007704E-16
21
2.578
31
0
210
0
220
0
230
1
40
0.989133
41
0
42
6.28318530717959
0
POINT
5
6C
100
AcDbEntity
8
80
62
256
6
ByLayer
370
18
48
1
60
0
100
AcDbPoint
10
0
20
0
30
0
39
0
210
0
220
0
230
1
50
360
0
POINT
5
6E
100
AcDbEntity
8
81
62
256
6
ByLayer
370
18
48
1
60
0
100
AcDbPoint
10
65
20
0.3288
30
0
39
0
210
0
220
0
230
1
50
360
0
POINT
5
70
100
AcDbEntity
8
1
62
256
6
ByLayer
370
18
48
1
60
0
100
AcDbPoint
10
0
20
0
30
0
39
0
210
0
220
0
230
1
50
360
0
SPLINE
5
11B
100
AcDbEntity
8
1
62
256
6
ByLayer
370
18
48
1
60
0
100
AcDbSpline
70
4
71
1
72
4
73
2
40
0
40
0
40
1
40
1
41
1
10
55.8533955396218
20
2.20200890862506
30
0
41
1
10
56.0533085541629
20
2.20080241117429
30
0
0
SPLINE
5
11C
100
AcDbEntity
8
SK1
62
256
6
ByLayer
370
18
48
1
60
0
100
AcDbSpline
70
4
71
3
72
13
73
9
40
0
40
0
40
0
40
0
40
0.239456135763084
40
0.368359721933099
40
0.499998984020653
40
0.631638415283416
40
0.760542467777941
40
1
40
1
40
1
40
1
41
1
10
-2.19999999999999
20
-22.0200986606755
30
0
41
1
10
-2.19909198642273
20
-21.9940411845604
30
0
41
1
10
-2.19103284106944
20
-21.9566686002239
30
0
41
1
10
-2.16563592203346
20
-21.910449426386
30
0
41
1
10
-2.13886378679271
20
-21.8791678725254
30
0
41
1
10
-2.10627712749877
20
-21.854000502323
30
0
41
1
10
-2.05884064234084
20
-21.8309566998545
30
0
41
1
10
-2.02111030873027
20
-21.8247844448325
30
0
41
1
10
-1.99503997793928
20
-21.825186084775
30
0
0
SPLINE
5
11D
100
AcDbEntity
8
SK1
62
256
6
ByLayer
370
18
48
1
60
0
100
AcDbSpline
70
4
71
3
72
13
73
9
40
0
40
0
40
0
40
0
40
0.239457532153218
40
0.3683615846235
40
0.500001015876608
40
0.631640277971773
40
0.760543864164932
40
1
40
1
40
1
40
1
41
1
10
-1.99503997793928
20
21.8251861015554
30
0
41
1
10
-2.02111030873169
20
21.8247844616134
30
0
41
1
10
-2.05884064234348
20
21.8309567166393
30
0
41
1
10
-2.10627712750087
20
21.854000519123
30
0
41
1
10
-2.13886378679467
20
21.8791678893423
30
0
41
1
10
-2.16563592203497
20
21.9104494432233
30
0
41
1
10
-2.19103284107058
20
21.956668617092
30
0
41
1
10
-2.19909198642387
20
21.994041201451
30
0
41
1
10
-2.19999999999999
20
22.0200986775813
30
0
0
SPLINE
5
11E
100
AcDbEntity
8
SK1
62
256
6
ByLayer
370
18
48
1
60
0
100
AcDbSpline
70
4
71
2
72
6
73
3
40
0
40
0
40
0
40
1
40
1
40
1
41
1
10
-36.5
20
-21.1521177089669
30
0
41
1
10
-19.34999999997
20
-21.5828554470541
30
0
41
1
10
-2.19999999999999
20
-22.0135928951589
30
0
0
SPLINE
5
11F
100
AcDbEntity
8
SK1
62
256
6
ByLayer
370
18
48
1
60
0
100
AcDbSpline
70
4
71
2
72
6
73
3
40
0
40
0
40
0
40
1
40
1
40
1
41
1
10
-2.19999999999999
20
22.0135927638551
30
0
41
1
10
-19.3499999999869
20
21.5828539542124
30
0
41
1
10
-36.5
20
21.1521149580209
30
0
0
SPLINE
5
120
100
AcDbEntity
8
SK1
62
256
6
ByLayer
370
18
48
1
60
0
100
AcDbSpline
70
4
71
2
72
6
73
3
40
0
40
0
40
0
40
1
40
1
40
1
41
1
10
-1.99503997793928
20
-21.8251812553753
30
0
41
1
10
-1.19500843340728
20
-21.8452807024746
30
0
41
1
10
-0.394976888875277
20
-21.8653801495793
30
0
0
SPLINE
5
121
100
AcDbEntity
8
SK1
62
256
6
ByLayer
370
18
48
1
60
0
100
AcDbSpline
70
4
71
2
72
6
73
3
40
0
40
0
40
0
40
1
40
1
40
1
41
1
10
-0.394976888875277
20
21.8653802062992
30
0
41
1
10
-1.19500843340728
20
21.8452807593862
30
0
41
1
10
-1.99503997793928
20
21.8251813124779
30
0
0
SPLINE
5
122
100
AcDbEntity
8
SK1
62
256
6
ByLayer
370
18
48
1
60
0
100
AcDbSpline
70
4
71
2
72
6
73
3
40
0
40
0
40
0
40
1
40
1
40
1
41
1
10
-38
20
-20.2894052255531
30
0
41
1
10
-37.2500000000012
20
-20.7223540793632
30
0
41
1
10
-36.5
20
-21.1553029418638
30
0
0
SPLINE
5
123
100
AcDbEntity
8
SK1
62
256
6
ByLayer
370
18
48
1
60
0
100
AcDbSpline
70
4
71
2
72
6
73
3
40
0
40
0
40
0
40
1
40
1
40
1
41
1
10
-36.5
20
21.155302724897
30
0
41
1
10
-37.2500000000012
20
20.7223538609616
30
0
41
1
10
-38
20
20.2894050057151
30
0
0
SPLINE
5
124
100
AcDbEntity
8
SK1
62
256
6
ByLayer
370
18
48
1
60
0
100
AcDbSpline
70
4
71
2
72
6
73
3
40
0
40
0
40
0
40
1
40
1
40
1
41
1
10
-0.394976888875277
20
-21.8653849865467
30
0
41
1
10
-0.265172990617032
20
-21.868901290676
30
0
41
1
10
-0.240502439654307
20
-21.9465691723769
30
0
0
SPLINE
5
125
100
AcDbEntity
8
SK1
62
256
6
ByLayer
370
18
48
1
60
0
100
AcDbSpline
70
4
71
2
72
6
73
3
40
0
40
0
40
0
40
1
40
1
40
1
41
1
10
-0.239684768755779
20
21.9481214799356
30
0
41
1
10
-0.264174311740391
20
21.8692639605625
30
0
41
1
10
-0.394976888875277
20
21.865385003355
30
0
0
SPLINE
5
126
100
AcDbEntity
8
1
62
256
6
ByLayer
370
18
48
1
60
0
100
AcDbSpline
70
4
71
3
72
8
73
4
40
0
40
0
40
0
40
0
40
1
40
1
40
1
40
1
41
1
10
18.9858207588811
20
1.7174996827581
30
0
41
1
10
18.9642231364492
20
1.70684685555472
30
0
41
1
10
18.9471794016962
20
1.69802784463152
30
0
41
1
10
18.9239688304453
20
1.6996056695844
30
0
0
SPLINE
5
127
100
AcDbEntity
8
1
62
256
6
ByLayer
370
18
48
1
60
0
100
AcDbSpline
70
4
71
2
72
6
73
3
40
0
40
0
40
0
40
1
40
1
40
1
41
1
10
18.9234929360551
20
-1.70000000000019
30
0
41
1
10
18.9859340511865
20
-1.71275040758565
30
0
41
1
10
18.9879387653837
20
-1.71501894682814
30
0
0
SPLINE
5
128
100
AcDbEntity
8
SK1
62
256
6
ByLayer
370
18
48
1
60
0
100
AcDbSpline
70
4
71
3
72
26
73
22
40
0
40
0
40
0
40
0
40
0.25
40
0.25
40
0.5
40
0.5
40
0.625
40
0.625
40
0.75
40
0.75
40
0.8125
40
0.8125
40
0.875
40
0.875
40
0.90625
40
0.90625
40
0.9375
40
0.9375
40
0.96875
40
0.96875
40
1
40
1
40
1
40
1
41
1
10
-0.200000000000017
20
-7.05951749342083
30
0
41
1
10
-0.200000000000017
20
-6.99088366827036
30
0
41
1
10
-0.201319609066871
20
-6.92203745653026
30
0
41
1
10
-0.207680242986754
20
-6.78384770613772
30
0
41
1
10
-0.212644818423314
20
-6.71441370073745
30
0
41
1
10
-0.225032362287777
20
-6.610101532507
30
0
41
1
10
-0.22998853610892
20
-6.57535167439425
30
0
41
1
10
-0.242605757740421
20
-6.50597096289755
30
0
41
1
10
-0.250188173910743
20
-6.47131022305021
30
0
41
1
10
-0.265534367861704
20
-6.4203844584319
30
0
41
1
10
-0.27131598361575
20
-6.40356588205816
30
0
41
1
10
-0.285411407521394
20
-6.37054221190877
30
0
41
1
10
-0.293612475506308
20
-6.3542515820991
30
0
41
1
10
-0.310070058832991
20
-6.33235891704217
30
0
41
1
10
-0.31618897533005
20
-6.32559855176615
30
0
41
1
10
-0.330728129253003
20
-6.31447788013506
30
0
41
1
10
-0.339136190980326
20
-6.31039609843523
30
0
41
1
10
-0.356576769858549
20
-6.30785340244549
30
0
41
1
10
-0.365590532907476
20
-6.30947164062368
30
0
41
1
10
-0.381451989855123
20
-6.31627189389673
30
0
41
1
10
-0.388510166361158
20
-6.32124816508073
30
0
41
1
10
-0.394976888875306
20
-6.32694279392757
30
0
0
SPLINE
5
129
100
AcDbEntity
8
SK1
62
256
6
ByLayer
370
18
48
1
60
0
100
AcDbSpline
70
4
71
3
72
111
73
107
40
0
40
0
40
0
40
0
40
0.0065522657343662
40
0.0150965447870599
40
0.0236408238397535
40
0.0321851028924472
40
0.0407293819451408
40
0.0492736609978345
40
0.0578179400505281
40
0.0663622191032218
40
0.0749064981559154
40
0.083450777208609
40
0.0919950562613027
40
0.100539335313996
40
0.117627893419384
40
0.126172172472077
40
0.134716451524771
40
0.143260730577465
40
0.151805009630158
40
0.168893567735546
40
0.177437846788239
40
0.185982125840933
40
0.194526404893626
40
0.20307068394632
40
0.211614962999014
40
0.220159242051708
40
0.237247800157095
40
0.245792079209788
40
0.254336358262482
40
0.262880637315176
40
0.271424916367869
40
0.279969195420563
40
0.288513474473257
40
0.29705775352595
40
0.305602032578644
40
0.314146311631337
40
0.322690590684031
40
0.331234869736725
40
0.339779148789419
40
0.348323427842112
40
0.356867706894806
40
0.373956265000193
40
0.382500544052887
40
0.39104482310558
40
0.399589102158274
40
0.408133381210968
40
0.425221939316355
40
0.433766218369049
40
0.442310497421742
40
0.450854776474436
40
0.45939905552713
40
0.476487613632517
40
0.485031892685211
40
0.493576171737904
40
0.502120450790598
40
0.510664729843291
40
0.527753287948679
40
0.536297567001372
40
0.544841846054066
40
0.55338612510676
40
0.561930404159454
40
0.579018962264841
40
0.587563241317534
40
0.596107520370228
40
0.604651799422922
40
0.613196078475615
40
0.630284636581003
40
0.638828915633696
40
0.64737319468639
40
0.664461752791777
40
0.673006031844471
40
0.681550310897164
40
0.690094589949858
40
0.698638869002552
40
0.707183148055245
40
0.715727427107939
40
0.724271706160633
40
0.732815985213326
40
0.74136026426602
40
0.749904543318714
40
0.758448822371407
40
0.766993101424101
40
0.784081659529488
40
0.792625938582182
40
0.801170217634876
40
0.809714496687569
40
0.818258775740263
40
0.826803054792957
40
0.83534733384565
40
0.843891612898344
40
0.852435891951037
40
0.869524450056425
40
0.886613008161812
40
0.903701566267199
40
0.912245845319893
40
0.920790124372587
40
0.92933440342528
40
0.937878682477974
40
0.946422961530668
40
0.954967240583361
40
0.963511519636055
40
0.972055798688749
40
0.980600077741442
40
0.989144356794136
40
0.99768863584683
40
1
40
1
40
1
40
1
41
1
10
-0.394976888875277
20
-21.8653787939273
30
0
41
1
10
-0.394976888875277
20
-21.8653271909616
30
0
41
1
10
-0.394976888875277
20
-21.8644655189101
30
0
41
1
10
-0.394976888875277
20
-21.8604739519412
30
0
41
1
10
-0.394976888875277
20
-21.8529599173647
30
0
41
1
10
-0.394976888875277
20
-21.8423149132633
30
0
41
1
10
-0.394976888875277
20
-21.8285907189997
30
0
41
1
10
-0.394976888875277
20
-21.8118377637545
30
0
41
1
10
-0.394976888875277
20
-21.7921034780961
30
0
41
1
10
-0.394976888875306
20
-21.7694337460976
30
0
41
1
10
-0.394976888875277
20
-21.7438726893518
30
0
41
1
10
-0.394976888875277
20
-21.7154617242468
30
0
41
1
10
-0.394976888875277
20
-21.6842420425293
30
0
41
1
10
-0.394976888875277
20
-21.6389063892513
30
0
41
1
10
-0.394976888875277
20
-21.5881524005931
30
0
41
1
10
-0.394976888875277
20
-21.5320229383892
30
0
41
1
10
-0.394976888875277
20
-21.4873093096751
30
0
41
1
10
-0.394976888875277
20
-21.4399968999807
30
0
41
1
10
-0.394976888875277
20
-21.3734709318986
30
0
41
1
10
-0.394976888875277
20
-21.301932078811
30
0
41
1
10
-0.394976888875277
20
-21.2253665102307
30
0
41
1
10
-0.394976888875277
20
-21.1655031751743
30
0
41
1
10
-0.394976888875306
20
-21.1032108820957
30
0
41
1
10
-0.394976888875277
20
-21.0385142950144
30
0
41
1
10
-0.394976888875277
20
-20.9714365096391
30
0
41
1
10
-0.394976888875277
20
-20.8788308931333
30
0
41
1
10
-0.394976888875277
20
-20.781635486227
30
0
41
1
10
-0.394976888875277
20
-20.6797749513881
30
0
41
1
10
-0.394976888875306
20
-20.6011280559991
30
0
41
1
10
-0.394976888875306
20
-20.5202292348052
30
0
41
1
10
-0.394976888875306
20
-20.437098129367
30
0
41
1
10
-0.394976888875277
20
-20.3517517880635
30
0
41
1
10
-0.394976888875277
20
-20.264209431984
30
0
41
1
10
-0.394976888875277
20
-20.1744885559187
30
0
41
1
10
-0.394976888875277
20
-20.082604778142
30
0
41
1
10
-0.394976888875306
20
-19.988575861591
30
0
41
1
10
-0.394976888875277
20
-19.8924174211231
30
0
41
1
10
-0.394976888875306
20
-19.7941438028822
30
0
41
1
10
-0.394976888875277
20
-19.6937719762305
30
0
41
1
10
-0.394976888875277
20
-19.5913159811741
30
0
41
1
10
-0.394976888875306
20
-19.4519098709686
30
0
41
1
10
-0.394976888875306
20
-19.3085018143331
30
0
41
1
10
-0.394976888875306
20
-19.1609196079758
30
0
41
1
10
-0.394976888875277
20
-19.048244884465
30
0
41
1
10
-0.394976888875306
20
-18.933565131357
30
0
41
1
10
-0.394976888875306
20
-18.7779598884918
30
0
41
1
10
-0.394976888875306
20
-18.6185132745736
30
0
41
1
10
-0.394976888875306
20
-18.4550234389153
30
0
41
1
10
-0.394976888875306
20
-18.3304892054167
30
0
41
1
10
-0.394976888875306
20
-18.2040166330947
30
0
41
1
10
-0.394976888875306
20
-18.0327708145484
30
0
41
1
10
-0.394976888875306
20
-17.8578220601067
30
0
41
1
10
-0.394976888875306
20
-17.6789377757623
30
0
41
1
10
-0.394976888875306
20
-17.5429190217058
30
0
41
1
10
-0.394976888875306
20
-17.4050188999402
30
0
41
1
10
-0.394976888875306
20
-17.2186059445175
30
0
41
1
10
-0.394976888875306
20
-17.0286080073569
30
0
41
1
10
-0.394976888875306
20
-16.8347642769002
30
0
41
1
10
-0.394976888875306
20
-16.6875782011067
30
0
41
1
10
-0.394976888875306
20
-16.5385587125243
30
0
41
1
10
-0.394976888875306
20
-16.3373780173449
30
0
41
1
10
-0.394976888875306
20
-16.1327154012234
30
0
41
1
10
-0.394976888875306
20
-15.9242799594928
30
0
41
1
10
-0.394976888875306
20
-15.7661946363952
30
0
41
1
10
-0.394976888875306
20
-15.6063159613101
30
0
41
1
10
-0.394976888875306
20
-15.3907043201103
30
0
41
1
10
-0.394976888875306
20
-15.171701411915
30
0
41
1
10
-0.394976888875306
20
-14.9489833053404
30
0
41
1
10
-0.394976888875306
20
-14.7239127068147
30
0
41
1
10
-0.394976888875306
20
-14.4955025482493
30
0
41
1
10
-0.394976888875306
20
-14.2634098807097
30
0
41
1
10
-0.394976888875306
20
-14.0876421688895
30
0
41
1
10
-0.394976888875306
20
-13.910133867705
30
0
41
1
10
-0.394976888875306
20
-13.7308904478326
30
0
41
1
10
-0.394976888875306
20
-13.5499151547097
30
0
41
1
10
-0.394976888875306
20
-13.3672125455487
30
0
41
1
10
-0.394976888875306
20
-13.182787448996
30
0
41
1
10
-0.394976888875306
20
-12.9966426041155
30
0
41
1
10
-0.394976888875306
20
-12.8087826250924
30
0
41
1
10
-0.394976888875306
20
-12.6192114874981
30
0
41
1
10
-0.394976888875306
20
-12.4279318067111
30
0
41
1
10
-0.394976888875306
20
-12.1705475695385
30
0
41
1
10
-0.394976888875306
20
-11.9099848253352
30
0
41
1
10
-0.394976888875306
20
-11.6458042976885
30
0
41
1
10
-0.394976888875306
20
-11.4460361162834
30
0
41
1
10
-0.394976888875306
20
-11.2445799004538
30
0
41
1
10
-0.394976888875306
20
-11.0414388905992
30
0
41
1
10
-0.394976888875306
20
-10.8366153667066
30
0
41
1
10
-0.394976888875306
20
-10.6301131683678
30
0
41
1
10
-0.394976888875306
20
-10.4219344727077
30
0
41
1
10
-0.394976888875306
20
-10.142045462177
30
0
41
1
10
-0.394976888875306
20
-9.78821091217483
30
0
41
1
10
-0.394976888875306
20
-9.35683912175983
30
0
41
1
10
-0.394976888875306
20
-8.99192948127941
30
0
41
1
10
-0.394976888875306
20
-8.69651811258549
30
0
41
1
10
-0.394976888875306
20
-8.47338951886385
30
0
41
1
10
-0.394976888875306
20
-8.24861635560848
30
0
41
1
10
-0.394976888875306
20
-8.02220293401996
30
0
41
1
10
-0.394976888875306
20
-7.79415340272945
30
0
41
1
10
-0.394976888875306
20
-7.56447269448574
30
0
41
1
10
-0.394976888875306
20
-7.33316546385933
30
0
41
1
10
-0.394976888875306
20
-7.10023740586411
30
0
41
1
10
-0.394976888875306
20
-6.8656950488801
30
0
41
1
10
-0.394976888875306
20
-6.62954555948866
30
0
41
1
10
-0.394976888875306
20
-6.44960775400912
30
0
41
1
10
-0.394976888875306
20
-6.3484916311391
30
0
41
1
10
-0.394976888875306
20
-6.32694279392976
30
0
0
SPLINE
5
12A
100
AcDbEntity
8
SK1
62
256
6
ByLayer
370
18
48
1
60
0
100
AcDbSpline
70
4
71
3
72
30
73
26
40
0
40
0
40
0
40
0
40
0.0312499999999997
40
0.0312499999999997
40
0.0624999999999994
40
0.0624999999999994
40
0.0937499999999991
40
0.0937499999999991
40
0.124999999999999
40
0.124999999999999
40
0.156249999999999
40
0.156249999999999
40
0.187499999999998
40
0.187499999999998
40
0.249999999999998
40
0.249999999999998
40
0.312499999999997
40
0.312499999999997
40
0.374999999999997
40
0.374999999999997
40
0.499999999999997
40
0.499999999999997
40
0.749999999999999
40
0.749999999999999
40
1
40
1
40
1
40
1
41
1
10
-0.394976888875306
20
-6.32694279392757
30
0
41
1
10
-0.411238696721767
20
-6.34126302490415
30
0
41
1
10
-0.428507485946426
20
-6.35445833731507
30
0
41
1
10
-0.466057816276191
20
-6.37750355983715
30
0
41
1
10
-0.486259278880027
20
-6.38723211102035
30
0
41
1
10
-0.528928737140944
20
-6.40070980810012
30
0
41
1
10
-0.552005370573397
20
-6.40446654618015
30
0
41
1
10
-0.597682826800508
20
-6.40404538429894
30
0
41
1
10
-0.620747969171447
20
-6.39988942772294
30
0
41
1
10
-0.663841284887212
20
-6.38551624086298
30
0
41
1
10
-0.684254761753124
20
-6.37530734814354
30
0
41
1
10
-0.721714491331937
20
-6.35175818060949
30
0
41
1
10
-0.739184552681508
20
-6.33820913265023
30
0
41
1
10
-0.788162075932121
20
-6.29461172820723
30
0
41
1
10
-0.815964113388617
20
-6.26223556861279
30
0
41
1
10
-0.866810585477197
20
-6.19416487342829
30
0
41
1
10
-0.889725334639564
20
-6.15831922452327
30
0
41
1
10
-0.931663440024465
20
-6.0857602140492
30
0
41
1
10
-0.950810679353594
20
-6.04882063700347
30
0
41
1
10
-1.00456810808544
20
-5.93660131926185
30
0
41
1
10
-1.03556300059236
20
-5.8599435845837
30
0
41
1
10
-1.12018816360205
20
-5.62641894994653
30
0
41
1
10
-1.16556178401137
20
-5.46581692848358
30
0
41
1
10
-1.24442385148592
20
-5.14144332217063
30
0
41
1
10
-1.2777459036995
20
-4.97713666802878
30
0
41
1
10
-1.30710678118658
20
-4.81101321788441
30
0
0
SPLINE
5
12B
100
AcDbEntity
8
SK1
62
256
6
ByLayer
370
18
48
1
60
0
100
AcDbSpline
70
4
71
3
72
295
73
291
40
0
40
0
40
0
40
0
40
0.0029467557133866
40
0.0065226806013567
40
0.0100986054893268
40
0.0136745303772969
40
0.017250455265267
40
0.0208263801532371
40
0.0244023050412072
40
0.0279782299291773
40
0.0315541548171474
40
0.0351300797051175
40
0.0422819294810577
40
0.0458578543690278
40
0.0494337792569979
40
0.053009704144968
40
0.0565856290329381
40
0.0637374788088783
40
0.0673134036968484
40
0.0708893285848185
40
0.0744652534727886
40
0.0780411783607587
40
0.0816171032487288
40
0.0851930281366989
40
0.0923448779126391
40
0.0959208028006092
40
0.0994967276885793
40
0.103072652576549
40
0.10664857746452
40
0.11022450235249
40
0.11380042724046
40
0.11737635212843
40
0.1209522770164
40
0.12452820190437
40
0.12810412679234
40
0.13168005168031
40
0.13525597656828
40
0.13883190145625
40
0.142407826344221
40
0.149559676120161
40
0.153135601008131
40
0.156711525896101
40
0.160287450784071
40
0.163863375672041
40
0.171015225447981
40
0.174591150335951
40
0.178167075223922
40
0.181743000111892
40
0.185318924999862
40
0.192470774775802
40
0.196046699663772
40
0.199622624551742
40
0.203198549439712
40
0.206774474327682
40
0.213926324103623
40
0.217502248991593
40
0.221078173879563
40
0.224654098767533
40
0.228230023655503
40
0.235381873431443
40
0.238957798319413
40
0.242533723207384
40
0.246109648095353
40
0.249685572983324
40
0.256837422759264
40
0.260413347647234
40
0.263989272535204
40
0.271141122311144
40
0.274717047199114
40
0.278292972087084
40
0.281868896975055
40
0.285444821863025
40
0.289020746750995
40
0.292596671638965
40
0.296172596526935
40
0.299748521414905
40
0.303324446302875
40
0.306900371190845
40
0.310476296078815
40
0.314052220966785
40
0.321204070742726
40
0.324779995630696
40
0.328355920518666
40
0.331931845406636
40
0.335507770294606
40
0.339083695182576
40
0.342659620070546
40
0.346235544958516
40
0.349811469846486
40
0.356963319622427
40
0.364115169398367
40
0.371267019174307
40
0.374842944062277
40
0.378418868950247
40
0.381994793838217
40
0.385570718726188
40
0.389146643614158
40
0.392722568502128
40
0.396298493390098
40
0.399874418278068
40
0.403450343166038
40
0.407026268054008
40
0.410602192941978
40
0.414178117829948
40
0.417754042717918
40
0.421329967605889
40
0.424905892493859
40
0.428481817381829
40
0.432057742269799
40
0.433845704713784
40
0.435633667157769
40
0.437421629601754
40
0.439209592045739
40
0.442785516933709
40
0.446361441821679
40
0.448149404265664
40
0.44993736670965
40
0.451725329153635
40
0.453513291597619
40
0.45708921648559
40
0.458877178929575
40
0.46066514137356
40
0.462453103817545
40
0.46424106626153
40
0.466029028705515
40
0.4678169911495
40
0.469604953593485
40
0.47139291603747
40
0.473180878481455
40
0.47496884092544
40
0.476756803369425
40
0.47854476581341
40
0.480332728257395
40
0.48212069070138
40
0.483908653145365
40
0.48569661558935
40
0.487484578033336
40
0.48927254047732
40
0.491060502921306
40
0.492848465365291
40
0.494636427809276
40
0.496424390253261
40
0.498212352697246
40
0.500000315141231
40
0.501788277585216
40
0.503576240029201
40
0.505364202473186
40
0.507152164917171
40
0.508940127361156
40
0.510728089805141
40
0.512516052249126
40
0.514304014693111
40
0.516091977137096
40
0.517879939581081
40
0.519667902025066
40
0.521455864469051
40
0.523243826913037
40
0.525031789357022
40
0.526819751801007
40
0.528607714244992
40
0.530395676688977
40
0.532183639132962
40
0.533971601576947
40
0.535759564020932
40
0.537547526464917
40
0.539335488908902
40
0.541123451352887
40
0.542911413796872
40
0.546487338684842
40
0.548275301128827
40
0.550063263572812
40
0.551851226016797
40
0.553639188460782
40
0.557215113348753
40
0.560791038236723
40
0.562579000680708
40
0.564366963124693
40
0.566154925568678
40
0.567942888012663
40
0.571518812900633
40
0.575094737788603
40
0.578670662676573
40
0.582246587564543
40
0.585822512452513
40
0.589398437340483
40
0.592974362228454
40
0.596550287116424
40
0.600126212004394
40
0.603702136892364
40
0.607278061780334
40
0.610853986668304
40
0.614429911556274
40
0.618005836444244
40
0.621581761332214
40
0.625157686220184
40
0.628733611108155
40
0.635885460884095
40
0.643037310660035
40
0.650189160435975
40
0.653765085323945
40
0.657341010211915
40
0.660916935099886
40
0.664492859987856
40
0.668068784875826
40
0.671644709763796
40
0.675220634651766
40
0.678796559539736
40
0.685948409315676
40
0.689524334203646
40
0.693100259091616
40
0.696676183979587
40
0.700252108867557
40
0.703828033755527
40
0.707403958643497
40
0.710979883531467
40
0.714555808419437
40
0.718131733307407
40
0.721707658195377
40
0.725283583083347
40
0.728859507971317
40
0.732435432859288
40
0.736011357747258
40
0.739587282635228
40
0.741375245079213
40
0.743163207523198
40
0.746739132411168
40
0.750315057299138
40
0.753890982187108
40
0.755678944631093
40
0.757466907075078
40
0.761042831963048
40
0.764618756851018
40
0.771770606626959
40
0.775346531514929
40
0.778922456402899
40
0.782498381290869
40
0.786074306178839
40
0.793226155954779
40
0.796802080842749
40
0.798590043286734
40
0.80037800573072
40
0.80395393061869
40
0.80752985550666
40
0.8146817052826
40
0.81825763017057
40
0.82183355505854
40
0.82540947994651
40
0.82898540483448
40
0.836137254610421
40
0.839713179498391
40
0.841501141942376
40
0.843289104386361
40
0.846865029274331
40
0.850440954162301
40
0.857592803938241
40
0.861168728826211
40
0.864744653714181
40
0.868320578602151
40
0.871896503490122
40
0.875472428378092
40
0.879048353266062
40
0.882624278154032
40
0.886200203042002
40
0.889776127929972
40
0.893352052817942
40
0.896927977705912
40
0.900503902593882
40
0.904079827481853
40
0.907655752369823
40
0.914807602145763
40
0.918383527033733
40
0.921959451921703
40
0.925535376809673
40
0.929111301697643
40
0.932687226585613
40
0.936263151473583
40
0.943415001249524
40
0.946990926137494
40
0.950566851025464
40
0.954142775913434
40
0.957718700801404
40
0.964870550577344
40
0.972022400353285
40
0.979174250129225
40
0.982750175017195
40
0.986326099905165
40
0.989902024793135
40
0.993477949681105
40
0.997053874569075
40
1
40
1
40
1
40
1
41
1
10
-2.19999999999999
20
-22.0135206542275
30
0
41
1
10
-2.20000000000002
20
-22.0117283832691
30
0
41
1
10
-2.19999999999999
20
-22.006960173325
30
0
41
1
10
-2.19999999999999
20
-21.9968726399857
30
0
41
1
10
-2.19999999999999
20
-21.9830583809744
30
0
41
1
10
-2.19999999999999
20
-21.9661972037607
30
0
41
1
10
-2.19999999999999
20
-21.9463373508774
30
0
41
1
10
-2.19999999999999
20
-21.9235254752891
30
0
41
1
10
-2.19999999999999
20
-21.8978063777089
30
0
41
1
10
-2.19999999999999
20
-21.8692221254414
30
0
41
1
10
-2.19999999999999
20
-21.8378144981283
30
0
41
1
10
-2.19999999999999
20
-21.7922265879071
30
0
41
1
10
-2.20000000000002
20
-21.7411389990572
30
0
41
1
10
-2.19999999999999
20
-21.6847072964973
30
0
41
1
10
-2.19999999999999
20
-21.6397397916631
30
0
41
1
10
-2.19999999999999
20
-21.5921615531195
30
0
41
1
10
-2.19999999999999
20
-21.5252891448141
30
0
41
1
10
-2.19999999999999
20
-21.4533087676779
30
0
41
1
10
-2.19999999999999
20
-21.3763547664481
30
0
41
1
10
-2.20000000000002
20
-21.3161704250344
30
0
41
1
10
-2.19999999999999
20
-21.2535469320083
30
0
41
1
10
-2.19999999999999
20
-21.1885090211437
30
0
41
1
10
-2.19999999999999
20
-21.1210800961781
30
0
41
1
10
-2.19999999999999
20
-21.0280237880878
30
0
41
1
10
-2.20000000000002
20
-20.9302657657864
30
0
41
1
10
-2.19999999999999
20
-20.82791883753
30
0
41
1
10
-2.19999999999999
20
-20.7488739108727
30
0
41
1
10
-2.19999999999999
20
-20.6675682022903
30
0
41
1
10
-2.19999999999999
20
-20.5840212474559
30
0
41
1
10
-2.20000000000002
20
-20.4982502752196
30
0
41
1
10
-2.20000000000002
20
-20.4102747220553
30
0
41
1
10
-2.20000000000002
20
-20.3201119082527
30
0
41
1
10
-2.19999999999999
20
-20.2277776697998
30
0
41
1
10
-2.20000000000002
20
-20.133289903145
30
0
41
1
10
-2.19999999999999
20
-20.0366640227898
30
0
41
1
10
-2.19999999999999
20
-19.9379146863563
30
0
41
1
10
-2.19999999999999
20
-19.8370589164793
30
0
41
1
10
-2.19999999999999
20
-19.7341104289282
30
0
41
1
10
-2.20000000000002
20
-19.5940785255289
30
0
41
1
10
-2.19999999999999
20
-19.4499005391959
30
0
41
1
10
-2.20000000000002
20
-19.3016611759423
30
0
41
1
10
-2.19999999999999
20
-19.1884526890887
30
0
41
1
10
-2.20000000000002
20
-19.0732305996174
30
0
41
1
10
-2.19999999999999
20
-18.9169371900015
30
0
41
1
10
-2.19999999999999
20
-18.7566457425986
30
0
41
1
10
-2.19999999999999
20
-18.5924361073221
30
0
41
1
10
-2.19999999999999
20
-18.4673177032107
30
0
41
1
10
-2.20000000000002
20
-18.3402522143585
30
0
41
1
10
-2.20000000000002
20
-18.1682547291306
30
0
41
1
10
-2.20000000000002
20
-17.9923842415008
30
0
41
1
10
-2.20000000000002
20
-17.8127154575359
30
0
41
1
10
-2.19999999999999
20
-17.676060438985
30
0
41
1
10
-2.20000000000002
20
-17.5375147595292
30
0
41
1
10
-2.20000000000002
20
-17.3502835148979
30
0
41
1
10
-2.20000000000002
20
-17.1592828976246
30
0
41
1
10
-2.19999999999999
20
-16.9645862898264
30
0
41
1
10
-2.20000000000002
20
-16.8167085043733
30
0
41
1
10
-2.20000000000002
20
-16.666987304737
30
0
41
1
10
-2.20000000000002
20
-16.4649171124643
30
0
41
1
10
-2.20000000000002
20
-16.2591647559547
30
0
41
1
10
-2.20000000000002
20
-16.0498023362736
30
0
41
1
10
-2.20000000000002
20
-15.8909649274654
30
0
41
1
10
-2.20000000000002
20
-15.7303232767805
30
0
41
1
10
-2.20000000000002
20
-15.513744330902
30
0
41
1
10
-2.20000000000002
20
-15.2935559429894
30
0
41
1
10
-2.20000000000002
20
-15.069828938707
30
0
41
1
10
-2.20000000000002
20
-14.8437340716545
30
0
41
1
10
-2.20000000000002
20
-14.61406817927
30
0
41
1
10
-2.20000000000002
20
-14.3809064511142
30
0
41
1
10
-2.20000000000002
20
-14.2042701267483
30
0
41
1
10
-2.20000000000002
20
-14.0258803815961
30
0
41
1
10
-2.20000000000002
20
-13.845742035678
30
0
41
1
10
-2.20000000000002
20
-13.6638579908946
30
0
41
1
10
-2.20000000000002
20
-13.4802328404438
30
0
41
1
10
-2.20000000000002
20
-13.2948705838035
30
0
41
1
10
-2.20000000000002
20
-13.1077737445537
30
0
41
1
10
-2.20000000000002
20
-12.9189467887917
30
0
41
1
10
-2.20000000000002
20
-12.7283927892775
30
0
41
1
10
-2.20000000000002
20
-12.5361142561418
30
0
41
1
10
-2.20000000000002
20
-12.277459839655
30
0
41
1
10
-2.20000000000002
20
-12.015335258712
30
0
41
1
10
-2.20000000000002
20
-11.7498207382014
30
0
41
1
10
-2.20000000000002
20
-11.5489655840494
30
0
41
1
10
-2.20000000000002
20
-11.3464032666245
30
0
41
1
10
-2.20000000000002
20
-11.1421359694817
30
0
41
1
10
-2.20000000000002
20
-10.9361655882296
30
0
41
1
10
-2.20000000000002
20
-10.7284951094206
30
0
41
1
10
-2.20000000000002
20
-10.5191258633122
30
0
41
1
10
-2.20000000000002
20
-10.2377183913447
30
0
41
1
10
-2.20000000000002
20
-9.88169305528194
30
0
41
1
10
-2.20000000000002
20
-9.44771866001565
30
0
41
1
10
-2.20000000000002
20
-9.08043846702645
30
0
41
1
10
-2.20000000000002
20
-8.78327691067398
30
0
41
1
10
-2.20000000000002
20
-8.55871423477029
30
0
41
1
10
-2.20000000000002
20
-8.33247384441506
30
0
41
1
10
-2.20000000000002
20
-8.10455846042146
30
0
41
1
10
-2.20000000000002
20
-7.87497052861914
30
0
41
1
10
-2.20000000000002
20
-7.64371312168015
30
0
41
1
10
-2.20000000000002
20
-7.41078904293681
30
0
41
1
10
-2.20000000000002
20
-7.17620223308296
30
0
41
1
10
-2.20000000000002
20
-6.93995689241021
30
0
41
1
10
-2.20000000000002
20
-6.70205756880287
30
0
41
1
10
-2.20000000000002
20
-6.46250917346813
30
0
41
1
10
-2.20000000000002
20
-6.22131783489101
30
0
41
1
10
-2.20000000000002
20
-5.97849051253721
30
0
41
1
10
-2.20000000000002
20
-5.73403522651989
30
0
41
1
10
-2.20000000000002
20
-5.48796106514416
30
0
41
1
10
-2.20000000000002
20
-5.24027911954084
30
0
41
1
10
-2.20000000000002
20
-5.03253662624778
30
0
41
1
10
-2.20000000000002
20
-4.86557359653659
30
0
41
1
10
-2.20000000000002
20
-4.73994907984499
30
0
41
1
10
-2.20000000000002
20
-4.61393371339872
30
0
41
1
10
-2.20000000000002
20
-4.44540775759583
30
0
41
1
10
-2.20000000000002
20
-4.23375654375474
30
0
41
1
10
-2.20000000000002
20
-4.020839617489
30
0
41
1
10
-2.20000000000002
20
-3.84978439330678
30
0
41
1
10
-2.20000000000002
20
-3.72111343644576
30
0
41
1
10
-2.20000000000002
20
-3.59207750684843
30
0
41
1
10
-2.20000000000002
20
-3.41956370437865
30
0
41
1
10
-2.20000000000002
20
-3.24629481975686
30
0
41
1
10
-2.20000000000002
20
-3.072383622975
30
0
41
1
10
-2.20000000000002
20
-2.94160047796311
30
0
41
1
10
-2.20000000000002
20
-2.81048648769612
30
0
41
1
10
-2.20000000000002
20
-2.67904893291683
30
0
41
1
10
-2.20000000000002
20
-2.54729563151926
30
0
41
1
10
-2.20000000000002
20
-2.41523552035437
30
0
41
1
10
-2.20000000000002
20
-2.28287741514001
30
0
41
1
10
-2.20000000000002
20
-2.15023167925048
30
0
41
1
10
-2.20000000000002
20
-2.01730874020455
30
0
41
1
10
-2.20000000000002
20
-1.88412021847037
30
0
41
1
10
-2.20000000000002
20
-1.75067843002711
30
0
41
1
10
-2.20000000000002
20
-1.61699635855226
30
0
41
1
10
-2.20000000000002
20
-1.48308822685564
30
0
41
1
10
-2.20000000000002
20
-1.34896860046499
30
0
41
1
10
-2.20000000000002
20
-1.21465351395383
30
0
41
1
10
-2.20000000000002
20
-1.08015922751395
30
0
41
1
10
-2.20000000000002
20
-0.945503451789534
30
0
41
1
10
-2.20000000000002
20
-0.810704122044939
30
0
41
1
10
-2.20000000000002
20
-0.675780432522174
30
0
41
1
10
-2.20000000000002
20
-0.540751798686529
30
0
41
1
10
-2.20000000000002
20
-0.405638608907907
30
0
41
1
10
-2.20000000000002
20
-0.270461437853925
30
0
41
1
10
-2.20000000000002
20
-0.135241472589996
30
0
41
1
10
-2.20000000000002
20
-5.3654787E-09
30
0
41
1
10
-2.20000000000002
20
0.135241462279822
30
0
41
1
10
-2.20000000000002
20
0.270461428271432
30
0
41
1
10
-2.20000000000002
20
0.405638599098921
30
0
41
1
10
-2.20000000000002
20
0.540751787789588
30
0
41
1
10
-2.20000000000002
20
0.675780421912322
30
0
41
1
10
-2.20000000000002
20
0.810704113119073
30
0
41
1
10
-2.20000000000002
20
0.945503442662783
30
0
41
1
10
-2.20000000000002
20
1.0801592162689
30
0
41
1
10
-2.20000000000002
20
1.21465350310541
30
0
41
1
10
-2.20000000000002
20
1.34896859254377
30
0
41
1
10
-2.20000000000002
20
1.48308821885627
30
0
41
1
10
-2.20000000000002
20
1.61699634722072
30
0
41
1
10
-2.20000000000002
20
1.75067841854351
30
0
41
1
10
-2.20000000000002
20
1.88412021099791
30
0
41
1
10
-2.20000000000002
20
2.01730873413072
30
0
41
1
10
-2.20000000000002
20
2.15023166945255
30
0
41
1
10
-2.20000000000002
20
2.28287740252156
30
0
41
1
10
-2.20000000000002
20
2.41523551097489
30
0
41
1
10
-2.20000000000002
20
2.54729562722176
30
0
41
1
10
-2.20000000000002
20
2.67904892732182
30
0
41
1
10
-2.20000000000002
20
2.81048647644627
30
0
41
1
10
-2.20000000000002
20
2.94160046512801
30
0
41
1
10
-2.20000000000002
20
3.0723836150739
30
0
41
1
10
-2.20000000000002
20
3.24629481959221
30
0
41
1
10
-2.20000000000002
20
3.41956369464535
30
0
41
1
10
-2.20000000000002
20
3.59207749308624
30
0
41
1
10
-2.20000000000002
20
3.72111342731068
30
0
41
1
10
-2.20000000000002
20
3.84978439152417
30
0
41
1
10
-2.20000000000002
20
4.02083961713782
30
0
41
1
10
-2.20000000000002
20
4.23375652596863
30
0
41
1
10
-2.20000000000002
20
4.44540774959788
30
0
41
1
10
-2.20000000000002
20
4.61393371339017
30
0
41
1
10
-2.20000000000002
20
4.73994908127321
30
0
41
1
10
-2.20000000000002
20
4.86557359122418
30
0
41
1
10
-2.20000000000002
20
5.03253661023487
30
0
41
1
10
-2.20000000000002
20
5.24027911118978
30
0
41
1
10
-2.20000000000002
20
5.48796107357256
30
0
41
1
10
-2.20000000000002
20
5.73403521575827
30
0
41
1
10
-2.20000000000002
20
5.97849049576266
30
0
41
1
10
-2.20000000000002
20
6.2213178400012
30
0
41
1
10
-2.20000000000002
20
6.46250918569618
30
0
41
1
10
-2.20000000000002
20
6.70205758660663
30
0
41
1
10
-2.20000000000002
20
6.93995692090419
30
0
41
1
10
-2.20000000000002
20
7.17620220160032
30
0
41
1
10
-2.20000000000002
20
7.41078884464241
30
0
41
1
10
-2.20000000000002
20
7.6437128367312
30
0
41
1
10
-2.20000000000002
20
7.87497060194644
30
0
41
1
10
-2.20000000000002
20
8.10455852701506
30
0
41
1
10
-2.20000000000002
20
8.33247380011301
30
0
41
1
10
-2.20000000000002
20
8.55871419535617
30
0
41
1
10
-2.20000000000002
20
8.78327689677775
30
0
41
1
10
-2.20000000000002
20
9.08043848955603
30
0
41
1
10
-2.20000000000002
20
9.44771865839311
30
0
41
1
10
-2.20000000000002
20
9.88169304970987
30
0
41
1
10
-2.20000000000002
20
10.2377184130835
30
0
41
1
10
-2.20000000000002
20
10.5191258614377
30
0
41
1
10
-2.20000000000002
20
10.7284950970913
30
0
41
1
10
-2.20000000000002
20
10.9361655879759
30
0
41
1
10
-2.20000000000002
20
11.1421359853758
30
0
41
1
10
-2.20000000000002
20
11.3464032807099
30
0
41
1
10
-2.20000000000002
20
11.5489655826483
30
0
41
1
10
-2.20000000000002
20
11.7498207258852
30
0
41
1
10
-2.20000000000002
20
12.0153352592314
30
0
41
1
10
-2.20000000000002
20
12.2774598592137
30
0
41
1
10
-2.20000000000002
20
12.5361142588231
30
0
41
1
10
-2.20000000000002
20
12.728392778749
30
0
41
1
10
-2.20000000000002
20
12.9189467805057
30
0
41
1
10
-2.20000000000002
20
13.1077737485311
30
0
41
1
10
-2.20000000000002
20
13.2948705974071
30
0
41
1
10
-2.20000000000002
20
13.4802328481714
30
0
41
1
10
-2.20000000000002
20
13.6638579861817
30
0
41
1
10
-2.20000000000002
20
13.8457420253844
30
0
41
1
10
-2.20000000000002
20
14.0258803741545
30
0
41
1
10
-2.20000000000002
20
14.2042700822292
30
0
41
1
10
-2.20000000000002
20
14.3809062427341
30
0
41
1
10
-2.20000000000002
20
14.5557843226631
30
0
41
1
10
-2.20000000000002
20
14.7289012367181
30
0
41
1
10
-2.20000000000002
20
14.90025131083
30
0
41
1
10
-2.20000000000002
20
15.0415708470876
30
0
41
1
10
-2.20000000000002
20
15.1537302031574
30
0
41
1
10
-2.20000000000002
20
15.2652965264295
30
0
41
1
10
-2.20000000000002
20
15.4036502143979
30
0
41
1
10
-2.19999999999999
20
15.567882396309
30
0
41
1
10
-2.20000000000002
20
15.7032538676567
30
0
41
1
10
-2.20000000000002
20
15.8106442286412
30
0
41
1
10
-2.20000000000002
20
15.9174340084588
30
0
41
1
10
-2.20000000000002
20
16.049802831716
30
0
41
1
10
-2.20000000000002
20
16.2591646002876
30
0
41
1
10
-2.20000000000002
20
16.4649164953067
30
0
41
1
10
-2.20000000000002
20
16.6669871400996
30
0
41
1
10
-2.20000000000002
20
16.8167088060477
30
0
41
1
10
-2.20000000000002
20
16.9645867974536
30
0
41
1
10
-2.20000000000002
20
17.1592829447589
30
0
41
1
10
-2.20000000000002
20
17.3502824417036
30
0
41
1
10
-2.20000000000002
20
17.5141131161323
30
0
41
1
10
-2.20000000000002
20
17.606787767091
30
0
41
1
10
-2.19999999999999
20
17.6988333809735
30
0
41
1
10
-2.20000000000002
20
17.8127164551587
30
0
41
1
10
-2.19999999999999
20
17.9923842356821
30
0
41
1
10
-2.20000000000002
20
18.1682545122203
30
0
41
1
10
-2.20000000000002
20
18.3402521463352
30
0
41
1
10
-2.20000000000002
20
18.4673177976698
30
0
41
1
10
-2.19999999999999
20
18.5924362845557
30
0
41
1
10
-2.20000000000002
20
18.756645794641
30
0
41
1
10
-2.19999999999999
20
18.9169360704622
30
0
41
1
10
-2.19999999999999
20
19.0536957086557
30
0
41
1
10
-2.20000000000002
20
19.1308417758755
30
0
41
1
10
-2.19999999999999
20
19.2073184270571
30
0
41
1
10
-2.19999999999999
20
19.3016622310533
30
0
41
1
10
-2.20000000000002
20
19.4499005336558
30
0
41
1
10
-2.19999999999999
20
19.5940778412012
30
0
41
1
10
-2.20000000000002
20
19.7341102362335
30
0
41
1
10
-2.19999999999999
20
19.8370591957147
30
0
41
1
10
-2.19999999999999
20
19.9379151599299
30
0
41
1
10
-2.19999999999999
20
20.0366642357895
30
0
41
1
10
-2.19999999999999
20
20.1332899477274
30
0
41
1
10
-2.19999999999999
20
20.2277776663919
30
0
41
1
10
-2.19999999999999
20
20.3201119071544
30
0
41
1
10
-2.19999999999999
20
20.4102747128949
30
0
41
1
10
-2.19999999999999
20
20.4982502525025
30
0
41
1
10
-2.19999999999999
20
20.5840212184218
30
0
41
1
10
-2.19999999999999
20
20.6675681841826
30
0
41
1
10
-2.19999999999999
20
20.7488739070252
30
0
41
1
10
-2.19999999999999
20
20.8279188369072
30
0
41
1
10
-2.19999999999999
20
20.9302657445266
30
0
41
1
10
-2.19999999999999
20
21.0280237507364
30
0
41
1
10
-2.19999999999999
20
21.121080083473
30
0
41
1
10
-2.19999999999999
20
21.1885090229233
30
0
41
1
10
-2.19999999999999
20
21.2535469243879
30
0
41
1
10
-2.19999999999999
20
21.3161703964091
30
0
41
1
10
-2.20000000000002
20
21.3763547276269
30
0
41
1
10
-2.19999999999999
20
21.453308753177
30
0
41
1
10
-2.19999999999999
20
21.5252891523049
30
0
41
1
10
-2.19999999999999
20
21.5921615264852
30
0
41
1
10
-2.19999999999999
20
21.6397397481888
30
0
41
1
10
-2.19999999999999
20
21.6847072709128
30
0
41
1
10
-2.19999999999999
20
21.7411390111089
30
0
41
1
10
-2.19999999999999
20
21.8049949078793
30
0
41
1
10
-2.19999999999999
20
21.870633664349
30
0
41
1
10
-2.19999999999999
20
21.9159230944434
30
0
41
1
10
-2.19999999999999
20
21.9463373083127
30
0
41
1
10
-2.19999999999999
20
21.9661971621578
30
0
41
1
10
-2.19999999999999
20
21.9830583750197
30
0
41
1
10
-2.19999999999999
20
21.9968726461305
30
0
41
1
10
-2.19999999999999
20
22.0069595079354
30
0
41
1
10
-2.20000000000002
20
22.0117273423835
30
0
41
1
10
-2.20000000000002
20
22.0135193429611
30
0
0
SPLINE
5
12C
100
AcDbEntity
8
SK1
62
256
6
ByLayer
370
18
48
1
60
0
100
AcDbSpline
70
4
71
3
72
26
73
22
40
0
40
0
40
0
40
0
40
0.25
40
0.25
40
0.500000000000001
40
0.500000000000001
40
0.625000000000002
40
0.625000000000002
40
0.687500000000001
40
0.687500000000001
40
0.750000000000001
40
0.750000000000001
40
0.812500000000001
40
0.812500000000001
40
0.875000000000001
40
0.875000000000001
40
0.906250000000001
40
0.906250000000001
40
0.937500000000001
40
0.937500000000001
40
1
40
1
40
1
40
1
41
1
10
-1.30710678118658
20
4.81101329740289
30
0
41
1
10
-1.27777674809067
20
4.97696208805669
30
0
41
1
10
-1.2444918437221
20
5.14110933888219
30
0
41
1
10
-1.1657240381229
20
5.46520409815253
30
0
41
1
10
-1.1204198695232
20
5.62560509654318
30
0
41
1
10
-1.03604034231245
20
5.85871268051361
30
0
41
1
10
-1.00514324915821
20
5.93523451486101
30
0
41
1
10
-0.951595196520515
20
6.04726373371713
30
0
41
1
10
-0.932528346395429
20
6.0841422654172
30
0
41
1
10
-0.890792591053497
20
6.15658914480713
30
0
41
1
10
-0.868002365538018
20
6.19240090738069
30
0
41
1
10
-0.817160575690593
20
6.26079505981269
30
0
41
1
10
-0.789433163823588
20
6.29319778625549
30
0
41
1
10
-0.724969179209751
20
6.35113158829387
30
0
41
1
10
-0.687361729545614
20
6.37733024516984
30
0
41
1
10
-0.622158748113947
20
6.39958064489679
30
0
41
1
10
-0.599752058371365
20
6.40383193252995
30
0
41
1
10
-0.553302263741188
20
6.40463597982043
30
0
41
1
10
-0.530550758270607
20
6.40110290558204
30
0
41
1
10
-0.464963827942853
20
6.38073633145459
30
0
41
1
10
-0.427743955231904
20
6.35579794481987
30
0
41
1
10
-0.394976888874766
20
6.32694309068151
30
0
0
SPLINE
5
12D
100
AcDbEntity
8
SK1
62
256
6
ByLayer
370
18
48
1
60
0
100
AcDbSpline
70
4
71
3
72
299
73
295
40
0
40
0
40
0
40
0
40
0.0033212361597933
40
0.0068437600227253
40
0.0103662838856573
40
0.0138888077485893
40
0.0174113316115213
40
0.0209338554744533
40
0.0244563793373853
40
0.0279789032003173
40
0.0315014270632493
40
0.0350239509261813
40
0.0385464747891133
40
0.0420689986520453
40
0.0491140463779093
40
0.0526365702408413
40
0.0561590941037734
40
0.0596816179667054
40
0.0632041418296374
40
0.0702491895555014
40
0.0737717134184334
40
0.0772942372813654
40
0.0808167611442974
40
0.0843392850072294
40
0.0878618088701614
40
0.0913843327330934
40
0.0984293804589574
40
0.101951904321889
40
0.105474428184821
40
0.108996952047753
40
0.112519475910685
40
0.116041999773617
40
0.119564523636549
40
0.123087047499481
40
0.126609571362413
40
0.130132095225345
40
0.133654619088277
40
0.137177142951209
40
0.140699666814141
40
0.144222190677073
40
0.147744714540005
40
0.154789762265869
40
0.158312286128801
40
0.161834809991733
40
0.165357333854665
40
0.168879857717597
40
0.175924905443462
40
0.179447429306394
40
0.182969953169325
40
0.186492477032257
40
0.190015000895189
40
0.197060048621054
40
0.200582572483986
40
0.204105096346918
40
0.20762762020985
40
0.211150144072781
40
0.218195191798645
40
0.221717715661577
40
0.22524023952451
40
0.228762763387442
40
0.232285287250374
40
0.239330334976238
40
0.242852858839169
40
0.246375382702101
40
0.249897906565033
40
0.253420430427966
40
0.260465478153829
40
0.263988002016761
40
0.267510525879693
40
0.274555573605557
40
0.278078097468489
40
0.281600621331422
40
0.285123145194354
40
0.288645669057286
40
0.292168192920218
40
0.29569071678315
40
0.299213240646082
40
0.302735764509014
40
0.306258288371946
40
0.309780812234878
40
0.31330333609781
40
0.316825859960742
40
0.323870907686606
40
0.327393431549538
40
0.33091595541247
40
0.334438479275402
40
0.337961003138334
40
0.341483527001266
40
0.345006050864198
40
0.34852857472713
40
0.352051098590062
40
0.359096146315926
40
0.36614119404179
40
0.373186241767654
40
0.376708765630586
40
0.380231289493518
40
0.38375381335645
40
0.387276337219382
40
0.390798861082314
40
0.394321384945246
40
0.397843908808178
40
0.40136643267111
40
0.404888956534042
40
0.408411480396974
40
0.411934004259906
40
0.415456528122838
40
0.41897905198577
40
0.422501575848702
40
0.426024099711634
40
0.429546623574566
40
0.433069147437498
40
0.434830409368964
40
0.43659167130043
40
0.438352933231896
40
0.440114195163362
40
0.443636719026294
40
0.447159242889226
40
0.448920504820692
40
0.450681766752158
40
0.452443028683624
40
0.45420429061509
40
0.457726814478022
40
0.459488076409488
40
0.461249338340954
40
0.46301060027242
40
0.464771862203886
40
0.466533124135352
40
0.468294386066818
40
0.470055647998284
40
0.47181690992975
40
0.473578171861216
40
0.475339433792682
40
0.477100695724148
40
0.478861957655614
40
0.48062321958708
40
0.482384481518546
40
0.484145743450012
40
0.485907005381478
40
0.487668267312944
40
0.48942952924441
40
0.491190791175876
40
0.492952053107342
40
0.494713315038808
40
0.496474576970274
40
0.49823583890174
40
0.499997100833206
40
0.501758362764672
40
0.503519624696138
40
0.505280886627604
40
0.50704214855907
40
0.508803410490536
40
0.510564672422002
40
0.512325934353468
40
0.514087196284934
40
0.5158484582164
40
0.517609720147866
40
0.519370982079332
40
0.521132244010798
40
0.522893505942264
40
0.52465476787373
40
0.526416029805196
40
0.528177291736662
40
0.529938553668128
40
0.531699815599594
40
0.53346107753106
40
0.535222339462526
40
0.536983601393992
40
0.538744863325458
40
0.540506125256924
40
0.54226738718839
40
0.545789911051322
40
0.547551172982788
40
0.549312434914254
40
0.55107369684572
40
0.552834958777186
40
0.556357482640118
40
0.55988000650305
40
0.561641268434516
40
0.563402530365982
40
0.565163792297448
40
0.566925054228914
40
0.570447578091846
40
0.573970101954778
40
0.57749262581771
40
0.581015149680642
40
0.584537673543574
40
0.588060197406506
40
0.591582721269438
40
0.59510524513237
40
0.598627768995302
40
0.602150292858234
40
0.605672816721166
40
0.609195340584098
40
0.61271786444703
40
0.616240388309962
40
0.619762912172894
40
0.623285436035826
40
0.626807959898758
40
0.633853007624622
40
0.640898055350486
40
0.64794310307635
40
0.651465626939282
40
0.654988150802214
40
0.658510674665146
40
0.662033198528078
40
0.66555572239101
40
0.669078246253942
40
0.672600770116874
40
0.676123293979806
40
0.68316834170567
40
0.686690865568602
40
0.690213389431534
40
0.693735913294466
40
0.697258437157398
40
0.70078096102033
40
0.704303484883262
40
0.707826008746194
40
0.711348532609126
40
0.714871056472058
40
0.71839358033499
40
0.721916104197922
40
0.725438628060854
40
0.728961151923786
40
0.732483675786718
40
0.73600619964965
40
0.737767461581116
40
0.739528723512582
40
0.743051247375514
40
0.746573771238446
40
0.750096295101378
40
0.751857557032844
40
0.75361881896431
40
0.757141342827242
40
0.760663866690174
40
0.767708914416038
40
0.77123143827897
40
0.774753962141902
40
0.778276486004834
40
0.781799009867766
40
0.78884405759363
40
0.792366581456562
40
0.794127843388028
40
0.795889105319494
40
0.799411629182426
40
0.802934153045358
40
0.809979200771222
40
0.813501724634154
40
0.817024248497086
40
0.820546772360018
40
0.82406929622295
40
0.831114343948814
40
0.834636867811746
40
0.836398129743212
40
0.838159391674678
40
0.84168191553761
40
0.845204439400542
40
0.852249487126406
40
0.855772010989338
40
0.85929453485227
40
0.862817058715202
40
0.866339582578134
40
0.869862106441066
40
0.873384630303998
40
0.87690715416693
40
0.880429678029862
40
0.883952201892794
40
0.887474725755726
40
0.890997249618658
40
0.89451977348159
40
0.898042297344522
40
0.901564821207454
40
0.908609868933318
40
0.91213239279625
40
0.915654916659182
40
0.919177440522114
40
0.922699964385046
40
0.926222488247978
40
0.92974501211091
40
0.936790059836774
40
0.940312583699706
40
0.943835107562638
40
0.94735763142557
40
0.950880155288502
40
0.957925203014366
40
0.96497025074023
40
0.972015298466094
40
0.975537822329026
40
0.979060346191958
40
0.98258287005489
40
0.986105393917822
40
0.989627917780754
40
0.993150441643686
40
0.996672965506618
40
1
40
1
40
1
40
1
41
1
10
-1.99503997793928
20
-21.8251644680762
30
0
41
1
10
-1.99503997793931
20
-21.825283025522
30
0
41
1
10
-1.99503997793931
20
-21.8245217226249
30
0
41
1
10
-1.99503997793928
20
-21.8202838734724
30
0
41
1
10
-1.99503997793928
20
-21.8127830851058
30
0
41
1
10
-1.99503997793931
20
-21.8021565310045
30
0
41
1
10
-1.99503997793928
20
-21.7884557380592
30
0
41
1
10
-1.99503997793928
20
-21.7717309018817
30
0
41
1
10
-1.99503997793928
20
-21.7520292420694
30
0
41
1
10
-1.99503997793928
20
-21.7293964429163
30
0
41
1
10
-1.99503997793928
20
-21.7038764495607
30
0
41
1
10
-1.99503997793931
20
-21.6755105092645
30
0
41
1
10
-1.99503997793928
20
-21.6443396610233
30
0
41
1
10
-1.99503997793928
20
-21.5990695510926
30
0
41
1
10
-1.99503997793928
20
-21.5484022410126
30
0
41
1
10
-1.99503997793928
20
-21.4923513092323
30
0
41
1
10
-1.99503997793928
20
-21.4477036445725
30
0
41
1
10
-1.99503997793931
20
-21.4004603045828
30
0
41
1
10
-1.99503997793931
20
-21.3340243512753
30
0
41
1
10
-1.99503997793928
20
-21.262600218376
30
0
41
1
10
-1.99503997793931
20
-21.1861355753666
30
0
41
1
10
-1.99503997793928
20
-21.1263556466612
30
0
41
1
10
-1.99503997793931
20
-21.064149408511
30
0
41
1
10
-1.99503997793931
20
-20.9995415068112
30
0
41
1
10
-1.99503997793928
20
-20.9325549572362
30
0
41
1
10
-1.99503997793928
20
-20.8400664428987
30
0
41
1
10
-1.99503997793931
20
-20.7430172190697
30
0
41
1
10
-1.99503997793931
20
-20.6412830627252
30
0
41
1
10
-1.99503997793931
20
-20.5627395868944
30
0
41
1
10
-1.99503997793931
20
-20.4819464863244
30
0
41
1
10
-1.99503997793931
20
-20.398923430088
30
0
41
1
10
-1.99503997793931
20
-20.3136874196731
30
0
41
1
10
-1.99503997793931
20
-20.2262576202058
30
0
41
1
10
-1.99503997793928
20
-20.1366515718167
30
0
41
1
10
-1.99503997793931
20
-20.0448848362119
30
0
41
1
10
-1.99503997793931
20
-19.9509751416388
30
0
41
1
10
-1.99503997793931
20
-19.8549381550126
30
0
41
1
10
-1.99503997793928
20
-19.7567881415466
30
0
41
1
10
-1.99503997793931
20
-19.6565420567613
30
0
41
1
10
-1.99503997793931
20
-19.5542140249085
30
0
41
1
10
-1.99503997793931
20
-19.414970513124
30
0
41
1
10
-1.99503997793931
20
-19.2717625055688
30
0
41
1
10
-1.99503997793931
20
-19.1243510467918
30
0
41
1
10
-1.99503997793931
20
-19.0118150097952
30
0
41
1
10
-1.99503997793931
20
-18.8972761707097
30
0
41
1
10
-1.99503997793931
20
-18.7418497326446
30
0
41
1
10
-1.99503997793931
20
-18.5826226298873
30
0
41
1
10
-1.99503997793931
20
-18.4193198181252
30
0
41
1
10
-1.99503997793931
20
-18.2949373683468
30
0
41
1
10
-1.99503997793931
20
-18.1686188521771
30
0
41
1
10
-1.99503997793931
20
-17.9975683374733
30
0
41
1
10
-1.99503997793931
20
-17.8228590748675
30
0
41
1
10
-1.99503997793931
20
-17.6441786252734
30
0
41
1
10
-1.99503997793931
20
-17.5083251903719
30
0
41
1
10
-1.99503997793931
20
-17.3705928023913
30
0
41
1
10
-1.99503997793931
20
-17.1843924611907
30
0
41
1
10
-1.99503997793931
20
-16.9946550481209
30
0
41
1
10
-1.99503997793931
20
-16.8010329188422
30
0
41
1
10
-1.99503997793931
20
-16.6540265683948
30
0
41
1
10
-1.99503997793931
20
-16.5051894037979
30
0
41
1
10
-1.99503997793931
20
-16.3042398246232
30
0
41
1
10
-1.99503997793931
20
-16.0998603532658
30
0
41
1
10
-1.99503997793931
20
-15.8916657661057
30
0
41
1
10
-1.99503997793931
20
-15.733775855726
30
0
41
1
10
-1.99503997793931
20
-15.574095422854
30
0
41
1
10
-1.99503997793931
20
-15.3587351142266
30
0
41
1
10
-1.99503997793931
20
-15.1400402265273
30
0
41
1
10
-1.99503997793931
20
-14.9175842595472
30
0
41
1
10
-1.99503997793931
20
-14.6927797943809
30
0
41
1
10
-1.99503997793931
20
-14.4646959102749
30
0
41
1
10
-1.99503997793931
20
-14.2328810143213
30
0
41
1
10
-1.99503997793931
20
-14.0573389921213
30
0
41
1
10
-1.99503997793931
20
-13.8800597145162
30
0
41
1
10
-1.99503997793931
20
-13.7010488212408
30
0
41
1
10
-1.99503997793931
20
-13.520309646993
30
0
41
1
10
-1.99503997793931
20
-13.3378467396349
30
0
41
1
10
-1.99503997793931
20
-13.1536651432542
30
0
41
1
10
-1.99503997793931
20
-12.9677676529033
30
0
41
1
10
-1.99503997793931
20
-12.7801589212449
30
0
41
1
10
-1.99503997793931
20
-12.5908431584255
30
0
41
1
10
-1.99503997793931
20
-12.3998230071702
30
0
41
1
10
-1.99503997793931
20
-12.1427687977971
30
0
41
1
10
-1.99503997793931
20
-11.8826118620781
30
0
41
1
10
-1.99503997793931
20
-11.6187779427602
30
0
41
1
10
-1.99503997793931
20
-11.4192921870092
30
0
41
1
10
-1.99503997793931
20
-11.2181233670389
30
0
41
1
10
-1.99503997793931
20
-11.0152749978462
30
0
41
1
10
-1.99503997793931
20
-10.8107494592904
30
0
41
1
10
-1.99503997793931
20
-10.6045508126063
30
0
41
1
10
-1.99503997793931
20
-10.3966814549587
30
0
41
1
10
-1.99503997793931
20
-10.1171869828061
30
0
41
1
10
-1.99503997793931
20
-9.76392165975841
30
0
41
1
10
-1.99503997793931
20
-9.33322609823665
30
0
41
1
10
-1.99503997793931
20
-8.96893239301764
30
0
41
1
10
-1.99503997793931
20
-8.67397577159846
30
0
41
1
10
-1.99503997793931
20
-8.4512197921853
30
0
41
1
10
-1.99503997793931
20
-8.22682785520686
30
0
41
1
10
-1.99503997793931
20
-8.00080468509063
30
0
41
1
10
-1.99503997793931
20
-7.77315487290267
30
0
41
1
10
-1.99503997793931
20
-7.54388383469134
30
0
41
1
10
-1.99503997793931
20
-7.31299670603016
30
0
41
1
10
-1.99503997793931
20
-7.08049963775395
30
0
41
1
10
-1.99503997793931
20
-6.84639976314463
30
0
41
1
10
-1.99503997793931
20
-6.61070492919379
30
0
41
1
10
-1.99503997793931
20
-6.37342317953835
30
0
41
1
10
-1.99503997793931
20
-6.13456381441384
30
0
41
1
10
-1.99503997793931
20
-5.89413750153935
30
0
41
1
10
-1.99503997793931
20
-5.65215640891225
30
0
41
1
10
-1.99503997793931
20
-5.40863364784667
30
0
41
1
10
-1.99503997793931
20
-5.16358497720142
30
0
41
1
10
-1.99503997793931
20
-4.95821801342223
30
0
41
1
10
-1.99503997793931
20
-4.79299519854527
30
0
41
1
10
-1.99503997793931
20
-4.66878844332788
30
0
41
1
10
-1.99503997793931
20
-4.54421502107886
30
0
41
1
10
-1.99503997793931
20
-4.37752560184694
30
0
41
1
10
-1.99503997793931
20
-4.16851549788919
30
0
41
1
10
-1.99503997793931
20
-3.95832365779984
30
0
41
1
10
-1.99503997793931
20
-3.78926935085312
30
0
41
1
10
-1.99503997793931
20
-3.66223140396673
30
0
41
1
10
-1.99503997793931
20
-3.53485872835634
30
0
41
1
10
-1.99503997793931
20
-3.36446606295527
30
0
41
1
10
-1.99503997793931
20
-3.19381066067948
30
0
41
1
10
-1.99503997793931
20
-3.02213556164864
30
0
41
1
10
-1.99503997793931
20
-2.89317847799558
30
0
41
1
10
-1.99503997793931
20
-2.76392444618182
30
0
41
1
10
-1.99503997793931
20
-2.63438254221708
30
0
41
1
10
-1.99503997793931
20
-2.50455989433328
30
0
41
1
10
-1.99503997793931
20
-2.37446635053539
30
0
41
1
10
-1.99503997793931
20
-2.24411116714702
30
0
41
1
10
-1.99503997793931
20
-2.11350400419804
30
0
41
1
10
-1.99503997793931
20
-1.98265628188182
30
0
41
1
10
-1.99503997793931
20
-1.85157817419835
30
0
41
1
10
-1.99503997793931
20
-1.72028261530932
30
0
41
1
10
-1.99503997793931
20
-1.58878099035152
30
0
41
1
10
-1.99503997793931
20
-1.45708720896539
30
0
41
1
10
-1.99503997793931
20
-1.32521410103647
30
0
41
1
10
-1.99503997793931
20
-1.1931764657121
30
0
41
1
10
-1.99503997793931
20
-1.06098853158755
30
0
41
1
10
-1.99503997793931
20
-0.92866594303203
30
0
41
1
10
-1.99503997793931
20
-0.796224050825089
30
0
41
1
10
-1.99503997793931
20
-0.663679323049081
30
0
41
1
10
-1.99503997793931
20
-0.531048037421954
30
0
41
1
10
-1.99503997793931
20
-0.398347307093388
30
0
41
1
10
-1.99503997793931
20
-0.265594069601519
30
0
41
1
10
-1.99503997793931
20
-0.132805835966792
30
0
41
1
10
-1.99503997793931
20
-2.0604887E-09
30
0
41
1
10
-1.99503997793931
20
0.132805828560237
30
0
41
1
10
-1.99503997793931
20
0.265594055935196
30
0
41
1
10
-1.99503997793931
20
0.398347293868937
30
0
41
1
10
-1.99503997793931
20
0.531048033506266
30
0
41
1
10
-1.99503997793931
20
0.663679321648374
30
0
41
1
10
-1.99503997793931
20
0.796224037396229
30
0
41
1
10
-1.99503997793931
20
0.928665923975672
30
0
41
1
10
-1.99503997793931
20
1.06098852682439
30
0
41
1
10
-1.99503997793931
20
1.19317647053177
30
0
41
1
10
-1.99503997793931
20
1.32521409071333
30
0
41
1
10
-1.99503997793931
20
1.45708718468359
30
0
41
1
10
-1.99503997793931
20
1.58878098022359
30
0
41
1
10
-1.99503997793931
20
1.72028262405345
30
0
41
1
10
-1.99503997793931
20
1.85157817347522
30
0
41
1
10
-1.99503997793931
20
1.98265625862297
30
0
41
1
10
-1.99503997793931
20
2.11350398186613
30
0
41
1
10
-1.99503997793931
20
2.24411116870439
30
0
41
1
10
-1.99503997793931
20
2.37446636334928
30
0
41
1
10
-1.99503997793931
20
2.50455988721876
30
0
41
1
10
-1.99503997793931
20
2.63438251344519
30
0
41
1
10
-1.99503997793931
20
2.76392442628162
30
0
41
1
10
-1.99503997793931
20
2.8931784837302
30
0
41
1
10
-1.99503997793931
20
3.02213557666008
30
0
41
1
10
-1.99503997793931
20
3.19381064862623
30
0
41
1
10
-1.99503997793931
20
3.36446603264318
30
0
41
1
10
-1.99503997793931
20
3.53485872774326
30
0
41
1
10
-1.99503997793931
20
3.66223142121836
30
0
41
1
10
-1.99503997793931
20
3.78926935835412
30
0
41
1
10
-1.99503997793931
20
3.95832363498766
30
0
41
1
10
-1.99503997793931
20
4.16851547631595
30
0
41
1
10
-1.99503997793931
20
4.37752561794156
30
0
41
1
10
-1.99503997793931
20
4.5442150281373
30
0
41
1
10
-1.99503997793931
20
4.66878842905288
30
0
41
1
10
-1.99503997793931
20
4.79299516838267
30
0
41
1
10
-1.99503997793931
20
4.95821799704331
30
0
41
1
10
-1.99503997793931
20
5.16358499073451
30
0
41
1
10
-1.99503997793931
20
5.4086336510897
30
0
41
1
10
-1.99503997793931
20
5.65215638001948
30
0
41
1
10
-1.99503997793931
20
5.89413749968631
30
0
41
1
10
-1.99503997793931
20
6.13456384015993
30
0
41
1
10
-1.99503997793931
20
6.37342319970753
30
0
41
1
10
-1.99503997793931
20
6.61070495432838
30
0
41
1
10
-1.99503997793931
20
6.8463997482805
30
0
41
1
10
-1.99503997793931
20
7.08049945458953
30
0
41
1
10
-1.99503997793931
20
7.31299637479285
30
0
41
1
10
-1.99503997793931
20
7.54388372935193
30
0
41
1
10
-1.99503997793931
20
7.77315513008728
30
0
41
1
10
-1.99503997793931
20
8.00080467620242
30
0
41
1
10
-1.99503997793931
20
8.22682776167497
30
0
41
1
10
-1.99503997793931
20
8.45121977200662
30
0
41
1
10
-1.99503997793931
20
8.67397578579323
30
0
41
1
10
-1.99503997793931
20
8.96893242084855
30
0
41
1
10
-1.99503997793931
20
9.33322608836653
30
0
41
1
10
-1.99503997793931
20
9.76392166117952
30
0
41
1
10
-1.99503997793931
20
10.1171870033238
30
0
41
1
10
-1.99503997793931
20
10.3966814407573
30
0
41
1
10
-1.99503997793931
20
10.6045508021232
30
0
41
1
10
-1.99503997793931
20
10.8107494713072
30
0
41
1
10
-1.99503997793931
20
11.0152750188843
30
0
41
1
10
-1.99503997793931
20
11.2181233733031
30
0
41
1
10
-1.99503997793931
20
11.4192921752591
30
0
41
1
10
-1.99503997793931
20
11.6187779306707
30
0
41
1
10
-1.99503997793931
20
11.8826118718573
30
0
41
1
10
-1.99503997793931
20
12.1427688173785
30
0
41
1
10
-1.99503997793931
20
12.3998230002593
30
0
41
1
10
-1.99503997793931
20
12.5908431445087
30
0
41
1
10
-1.99503997793931
20
12.7801589185361
30
0
41
1
10
-1.99503997793931
20
12.967767664355
30
0
41
1
10
-1.99503997793931
20
13.1536651576331
30
0
41
1
10
-1.99503997793931
20
13.3378467409434
30
0
41
1
10
-1.99503997793931
20
13.5203096364964
30
0
41
1
10
-1.99503997793931
20
13.7010488098078
30
0
41
1
10
-1.99503997793931
20
13.8800596938692
30
0
41
1
10
-1.99503997793931
20
14.0573388809364
30
0
41
1
10
-1.99503997793931
20
14.2328806917249
30
0
41
1
10
-1.99503997793931
20
14.4066808882548
30
0
41
1
10
-1.99503997793931
20
14.578735707937
30
0
41
1
10
-1.99503997793931
20
14.7490386600655
30
0
41
1
10
-1.99503997793931
20
14.8894548819647
30
0
41
1
10
-1.99503997793931
20
15.0009760777421
30
0
41
1
10
-1.99503997793931
20
15.1119089381336
30
0
41
1
10
-1.99503997793931
20
15.2493853238091
30
0
41
1
10
-1.99503997793931
20
15.4126292313156
30
0
41
1
10
-1.99503997793931
20
15.5471478788445
30
0
41
1
10
-1.99503997793931
20
15.6539352235828
30
0
41
1
10
-1.99503997793931
20
15.7601264684356
30
0
41
1
10
-1.99503997793931
20
15.8916662065006
30
0
41
1
10
-1.99503997793931
20
16.0998599858609
30
0
41
1
10
-1.99503997793931
20
16.3042392155796
30
0
41
1
10
-1.99503997793931
20
16.5051894370887
30
0
41
1
10
-1.99503997793931
20
16.654027023888
30
0
41
1
10
-1.99503997793931
20
16.8010333841432
30
0
41
1
10
-1.99503997793931
20
16.9946548235122
30
0
41
1
10
-1.99503997793931
20
17.1843913435575
30
0
41
1
10
-1.99503997793931
20
17.3472945498449
30
0
41
1
10
-1.99503997793931
20
17.4394590341184
30
0
41
1
10
-1.99503997793931
20
17.5309981410348
30
0
41
1
10
-1.99503997793931
20
17.6441795672679
30
0
41
1
10
-1.99503997793931
20
17.8228588844704
30
0
41
1
10
-1.99503997793931
20
17.9975681157064
30
0
41
1
10
-1.99503997793931
20
18.1686188381619
30
0
41
1
10
-1.99503997793931
20
18.2949375082747
30
0
41
1
10
-1.99503997793931
20
18.4193199892891
30
0
41
1
10
-1.99503997793931
20
18.5826225030747
30
0
41
1
10
-1.99503997793931
20
18.7418485706132
30
0
41
1
10
-1.99503997793931
20
18.877828345234
30
0
41
1
10
-1.99503997793931
20
18.9545457436666
30
0
41
1
10
-1.99503997793931
20
19.0305969699326
30
0
41
1
10
-1.99503997793931
20
19.1243520606764
30
0
41
1
10
-1.99503997793928
20
19.2717622924356
30
0
41
1
10
-1.99503997793931
20
19.4149698127943
30
0
41
1
10
-1.99503997793931
20
19.5542139601407
30
0
41
1
10
-1.99503997793931
20
19.6565424313982
30
0
41
1
10
-1.99503997793931
20
19.7567886026657
30
0
41
1
10
-1.99503997793931
20
19.8549383078336
30
0
41
1
10
-1.99503997793931
20
19.9509751576252
30
0
41
1
10
-1.99503997793928
20
20.0448848271876
30
0
41
1
10
-1.99503997793928
20
20.136651569995
30
0
41
1
10
-1.99503997793931
20
20.2262576082901
30
0
41
1
10
-1.99503997793931
20
20.3136873945745
30
0
41
1
10
-1.99503997793928
20
20.3989234016943
30
0
41
1
10
-1.99503997793931
20
20.4819464711493
30
0
41
1
10
-1.99503997793931
20
20.5627395849404
30
0
41
1
10
-1.99503997793931
20
20.6412830606924
30
0
41
1
10
-1.99503997793931
20
20.7430171949632
30
0
41
1
10
-1.99503997793931
20
20.8400664063016
30
0
41
1
10
-1.99503997793931
20
20.9325549476398
30
0
41
1
10
-1.99503997793931
20
20.9995415089612
30
0
41
1
10
-1.99503997793928
20
21.0641493981766
30
0
41
1
10
-1.99503997793931
20
21.126355615456
30
0
41
1
10
-1.99503997793931
20
21.1861355372814
30
0
41
1
10
-1.99503997793931
20
21.2626002065084
30
0
41
1
10
-1.99503997793928
20
21.3340243579833
30
0
41
1
10
-1.99503997793931
20
21.4004602751572
30
0
41
1
10
-1.99503997793928
20
21.4477036012609
30
0
41
1
10
-1.99503997793931
20
21.4923512863894
30
0
41
1
10
-1.99503997793928
20
21.5484022523455
30
0
41
1
10
-1.99503997793931
20
21.6117670092986
30
0
41
1
10
-1.99503997793928
20
21.6769140218914
30
0
41
1
10
-1.99503997793931
20
21.7218385059106
30
0
41
1
10
-1.99503997793928
20
21.7520291985819
30
0
41
1
10
-1.99503997793931
20
21.7717308612526
30
0
41
1
10
-1.99503997793928
20
21.7884557330328
30
0
41
1
10
-1.99503997793928
20
21.8021565364934
30
0
41
1
10
-1.99503997793928
20
21.812783044142
30
0
41
1
10
-1.99503997793928
20
21.8202836860757
30
0
41
1
10
-1.99503997793928
20
21.8245237455768
30
0
41
1
10
-1.99503997793928
20
21.8252842516603
30
0
41
1
10
-1.99503997793931
20
21.8251639063822
30
0
0
SPLINE
5
12E
100
AcDbEntity
8
SK1
62
256
6
ByLayer
370
18
48
1
60
0
100
AcDbSpline
70
4
71
3
72
26
73
22
40
0
40
0
40
0
40
0
40
0.125
40
0.125
40
0.25
40
0.25
40
0.3125
40
0.3125
40
0.375
40
0.375
40
0.5
40
0.5
40
0.625
40
0.625
40
0.6875
40
0.6875
40
0.75
40
0.75
40
0.875
40
0.875
40
1
40
1
40
1
40
1
41
1
10
-1.30710678118658
20
4.81101329740289
30
0
41
1
10
-1.37461329628556
20
4.42906267002715
30
0
41
1
10
-1.43842288357251
20
4.04270825974379
30
0
41
1
10
-1.5548276754584
20
3.25964078646075
30
0
41
1
10
-1.60743482920455
20
2.86293463703905
30
0
41
1
10
-1.67407835953031
20
2.25842147165613
30
0
41
1
10
-1.69423470862273
20
2.05533443764034
30
0
41
1
10
-1.72965556309052
20
1.64563836285319
30
0
41
1
10
-1.74484710329563
20
1.43963199934166
30
0
41
1
10
-1.78162975563032
20
0.822757523243041
30
0
41
1
10
-1.79445291889317
20
0.411207816053661
30
0
41
1
10
-1.79442593338334
20
-0.412525631248002
30
0
41
1
10
-1.78157312882857
20
-0.824709416072238
30
0
41
1
10
-1.74458984279462
20
-1.44343920897944
30
0
41
1
10
-1.72930597743911
20
-1.65005948504421
30
0
41
1
10
-1.6939077740922
20
-2.05873054114898
30
0
41
1
10
-1.67377216548036
20
-2.26136839295086
30
0
41
1
10
-1.60720273884689
20
-2.8646969904417
30
0
41
1
10
-1.55465955887382
20
-3.26082920006925
30
0
41
1
10
-1.43835988164525
20
-4.04307426593769
30
0
41
1
10
-1.37459233181624
20
-4.42918087958253
30
0
41
1
10
-1.30710678118666
20
-4.81101321788435
30
0
0
SPLINE
5
12F
100
AcDbEntity
8
SK1
62
256
6
ByLayer
370
18
48
1
60
0
100
AcDbSpline
70
4
71
3
72
24
73
20
40
0
40
0
40
0
40
0
40
0.0312499999999997
40
0.0312499999999997
40
0.0624999999999993
40
0.0624999999999993
40
0.093749999999999
40
0.093749999999999
40
0.124999999999999
40
0.124999999999999
40
0.187499999999998
40
0.187499999999998
40
0.249999999999998
40
0.249999999999998
40
0.374999999999997
40
0.374999999999997
40
0.499999999999995
40
0.499999999999995
40
1
40
1
40
1
40
1
41
1
10
-0.394976888875306
20
6.326943090669
30
0
41
1
10
-0.388478791141239
20
6.32122083099978
30
0
41
1
10
-0.381313154819566
20
6.31618565872657
30
0
41
1
10
-0.365409710573573
20
6.30942196278457
30
0
41
1
10
-0.356491145072283
20
6.30782589043295
30
0
41
1
10
-0.338830866580111
20
6.31048209062155
30
0
41
1
10
-0.330289930609865
20
6.31473882346546
30
0
41
1
10
-0.31585834204995
20
6.32593033296195
30
0
41
1
10
-0.309649778597247
20
6.33285276949908
30
0
41
1
10
-0.293313689377129
20
6.35478748070287
30
0
41
1
10
-0.285093867610613
20
6.37118996774478
30
0
41
1
10
-0.271027300228298
20
6.40434328922584
30
0
41
1
10
-0.265260102162813
20
6.42121101452722
30
0
41
1
10
-0.249955006097849
20
6.47225869816407
30
0
41
1
10
-0.242396853957018
20
6.50696236445458
30
0
41
1
10
-0.229806665913145
20
6.57651474417162
30
0
41
1
10
-0.224881575141893
20
6.6112317240092
30
0
41
1
10
-0.204383593087527
20
6.78454973877444
30
0
41
1
10
-0.200000000000983
20
6.92236219959716
30
0
41
1
10
-0.200000000000983
20
7.05951756777668
30
0
0
SPLINE
5
130
100
AcDbEntity
8
SK1
62
256
6
ByLayer
370
18
48
1
60
0
100
AcDbSpline
70
4
71
3
72
299
73
295
40
0
40
0
40
0
40
0
40
0.0029489749615886
40
0.0064744945681522
40
0.0100000141747157
40
0.0135255337812793
40
0.0170510533878428
40
0.0205765729944064
40
0.0241020926009699
40
0.0276276122075335
40
0.0346786514206606
40
0.0417296906337877
40
0.0487807298469148
40
0.0523062494534783
40
0.0558317690600419
40
0.0593572886666054
40
0.062882808273169
40
0.0699338474862961
40
0.0734593670928597
40
0.0769848866994231
40
0.0805104063059867
40
0.0840359259125503
40
0.0875614455191139
40
0.0910869651256774
40
0.0981380043388045
40
0.101663523945368
40
0.105189043551932
40
0.108714563158495
40
0.112240082765059
40
0.115765602371622
40
0.119291121978186
40
0.122816641584749
40
0.126342161191313
40
0.129867680797876
40
0.13339320040444
40
0.136918720011003
40
0.140444239617567
40
0.143969759224131
40
0.147495278830694
40
0.154546318043821
40
0.158071837650385
40
0.161597357256948
40
0.16336011706023
40
0.165122876863512
40
0.168648396470076
40
0.175699435683203
40
0.179224955289766
40
0.18275047489633
40
0.186275994502893
40
0.189801514109457
40
0.196852553322584
40
0.200378072929147
40
0.203903592535711
40
0.205666352338993
40
0.207429112142275
40
0.210954631748838
40
0.218005670961965
40
0.221531190568529
40
0.225056710175092
40
0.228582229781656
40
0.232107749388219
40
0.239158788601347
40
0.24268430820791
40
0.246209827814474
40
0.247972587617756
40
0.249735347421037
40
0.253260867027601
40
0.256786386634164
40
0.260311906240728
40
0.26207466604401
40
0.263837425847291
40
0.267362945453855
40
0.270888465060419
40
0.274413984666982
40
0.277939504273546
40
0.281465023880109
40
0.284990543486673
40
0.288516063093236
40
0.2920415826998
40
0.295567102306363
40
0.299092621912927
40
0.302618141519491
40
0.306143661126054
40
0.309669180732618
40
0.313194700339181
40
0.316720219945745
40
0.323771259158872
40
0.327296778765435
40
0.330822298371999
40
0.334347817978562
40
0.337873337585126
40
0.34139885719169
40
0.344924376798253
40
0.348449896404817
40
0.35197541601138
40
0.359026455224507
40
0.366077494437634
40
0.373128533650761
40
0.376654053257325
40
0.380179572863888
40
0.383705092470452
40
0.387230612077016
40
0.390756131683579
40
0.394281651290143
40
0.397807170896706
40
0.40133269050327
40
0.404858210109834
40
0.408383729716397
40
0.411909249322961
40
0.415434768929524
40
0.418960288536088
40
0.422485808142651
40
0.426011327749215
40
0.429536847355778
40
0.433062366962342
40
0.434825126765624
40
0.436587886568905
40
0.438350646372187
40
0.440113406175469
40
0.443638925782033
40
0.447164445388596
40
0.448927205191878
40
0.45068996499516
40
0.452452724798441
40
0.454215484601723
40
0.457741004208287
40
0.459503764011569
40
0.46126652381485
40
0.463029283618132
40
0.464792043421414
40
0.466554803224696
40
0.468317563027977
40
0.470080322831259
40
0.471843082634541
40
0.473605842437823
40
0.475368602241105
40
0.477131362044386
40
0.478894121847668
40
0.48065688165095
40
0.482419641454232
40
0.484182401257513
40
0.485945161060795
40
0.487707920864077
40
0.489470680667359
40
0.49123344047064
40
0.492996200273922
40
0.494758960077204
40
0.496521719880486
40
0.498284479683768
40
0.500047239487049
40
0.501809999290331
40
0.503572759093613
40
0.505335518896895
40
0.507098278700176
40
0.508861038503458
40
0.51062379830674
40
0.512386558110022
40
0.514149317913304
40
0.515912077716585
40
0.517674837519867
40
0.519437597323149
40
0.521200357126431
40
0.522963116929712
40
0.524725876732994
40
0.526488636536276
40
0.528251396339558
40
0.53001415614284
40
0.531776915946121
40
0.533539675749403
40
0.535302435552685
40
0.537065195355967
40
0.538827955159248
40
0.54059071496253
40
0.542353474765812
40
0.545878994372375
40
0.547641754175657
40
0.549404513978939
40
0.551167273782221
40
0.552930033585503
40
0.556455553192066
40
0.55998107279863
40
0.561743832601912
40
0.563506592405193
40
0.565269352208475
40
0.567032112011757
40
0.57055763161832
40
0.574083151224884
40
0.577608670831448
40
0.581134190438011
40
0.584659710044575
40
0.588185229651138
40
0.591710749257702
40
0.595236268864265
40
0.598761788470829
40
0.602287308077392
40
0.605812827683956
40
0.609338347290519
40
0.612863866897083
40
0.616389386503647
40
0.61991490611021
40
0.623440425716774
40
0.626965945323337
40
0.634016984536464
40
0.641068023749591
40
0.648119062962718
40
0.651644582569282
40
0.655170102175845
40
0.658695621782409
40
0.662221141388973
40
0.665746660995536
40
0.6692721806021
40
0.672797700208663
40
0.676323219815227
40
0.683374259028354
40
0.686899778634917
40
0.690425298241481
40
0.693950817848045
40
0.697476337454608
40
0.701001857061172
40
0.704527376667735
40
0.708052896274299
40
0.711578415880862
40
0.715103935487426
40
0.718629455093989
40
0.722154974700553
40
0.725680494307116
40
0.732731533520244
40
0.736257053126807
40
0.739782572733371
40
0.746833611946498
40
0.750359131553062
40
0.753884651159625
40
0.757410170766189
40
0.760935690372752
40
0.767986729585879
40
0.771512249192443
40
0.775037768799006
40
0.77856328840557
40
0.782088808012134
40
0.789139847225261
40
0.792665366831824
40
0.796190886438388
40
0.799716406044951
40
0.803241925651515
40
0.810292964864642
40
0.813818484471205
40
0.817344004077769
40
0.820869523684333
40
0.824395043290896
40
0.831446082504023
40
0.834971602110587
40
0.83849712171715
40
0.842022641323714
40
0.845548160930278
40
0.852599200143404
40
0.856124719749968
40
0.859650239356532
40
0.863175758963095
40
0.866701278569659
40
0.870226798176222
40
0.873752317782786
40
0.877277837389349
40
0.880803356995913
40
0.884328876602476
40
0.88785439620904
40
0.891379915815604
40
0.894905435422167
40
0.898430955028731
40
0.901956474635294
40
0.909007513848421
40
0.912533033454985
40
0.916058553061548
40
0.919584072668112
40
0.923109592274675
40
0.926635111881239
40
0.930160631487802
40
0.93721167070093
40
0.940737190307493
40
0.944262709914057
40
0.94778822952062
40
0.951313749127184
40
0.958364788340311
40
0.961890307946874
40
0.965415827553438
40
0.968941347160002
40
0.972466866766565
40
0.975992386373129
40
0.979517905979692
40
0.983043425586256
40
0.986568945192819
40
0.990094464799383
40
0.993619984405946
40
0.99714550401251
40
1
40
1
40
1
40
1
41
1
10
-38
20
20.2923486413798
30
0
41
1
10
-38
20
20.29235526264
30
0
41
1
10
-38
20
20.2915873157084
30
0
41
1
10
-38
20
20.2877827415225
30
0
41
1
10
-38
20
20.2807871950942
30
0
41
1
10
-38
20
20.270864225278
30
0
41
1
10
-38
20
20.2580557575388
30
0
41
1
10
-38
20
20.2424031034125
30
0
41
1
10
-38
20
20.2239454925533
30
0
41
1
10
-38
20
20.19551262204
30
0
41
1
10
-38
20
20.153458157969
30
0
41
1
10
-38
20
20.0921783324266
30
0
41
1
10
-38
20
20.0326760120608
30
0
41
1
10
-38
20
19.9796195423852
30
0
41
1
10
-38
20
19.9374871337363
30
0
41
1
10
-38
20
19.8928775037255
30
0
41
1
10
-38
20
19.8298739849263
30
0
41
1
10
-38
20
19.7628242930463
30
0
41
1
10
-38
20
19.6902080345968
30
0
41
1
10
-38
20
19.6336084813315
30
0
41
1
10
-38
20
19.5746836513967
30
0
41
1
10
-38
20
19.5134574775013
30
0
41
1
10
-38
20
19.4499498796239
30
0
41
1
10
-38
20
19.361926580552
30
0
41
1
10
-38
20
19.2704514952516
30
0
41
1
10
-38
20
19.1735363516591
30
0
41
1
10
-38
20
19.0989364266239
30
0
41
1
10
-38
20
19.0221745884206
30
0
41
1
10
-38
20
18.9432715601189
30
0
41
1
10
-38
20
18.8622425921487
30
0
41
1
10
-38
20
18.7791047356355
30
0
41
1
10
-38
20
18.6938772447032
30
0
41
1
10
-38
20
18.6065734364562
30
0
41
1
10
-38
20
18.5172096781029
30
0
41
1
10
-38
20
18.4258037757915
30
0
41
1
10
-38
20
18.3323676597213
30
0
41
1
10
-38
20
18.236917040573
30
0
41
1
10
-38
20
18.1394682315479
30
0
41
1
10
-38
20
18.006423045464
30
0
41
1
10
-38
20
17.870842154793
30
0
41
1
10
-38
20
17.7299440627733
30
0
41
1
10
-38
20
17.6408187485726
30
0
41
1
10
-38
20
17.5681131617785
30
0
41
1
10
-38
20
17.4947669133713
30
0
41
1
10
-38
20
17.3649201654158
30
0
41
1
10
-38
20
17.2140632768009
30
0
41
1
10
-38
20
17.0578935907134
30
0
41
1
10
-38
20
16.9392992293059
30
0
41
1
10
-38
20
16.8188549914818
30
0
41
1
10
-38
20
16.6552510003021
30
0
41
1
10
-38
20
16.489672496603
30
0
41
1
10
-38
20
16.3187666825072
30
0
41
1
10
-38
20
16.2111031772939
30
0
41
1
10
-38
20
16.1235473577608
30
0
41
1
10
-38
20
16.0353949417433
30
0
41
1
10
-38
20
15.8797855584285
30
0
41
1
10
-38
20
15.6999813794666
30
0
41
1
10
-38
20
15.5148116907138
30
0
41
1
10
-38
20
15.3746600384839
30
0
41
1
10
-38
20
15.2327750536327
30
0
41
1
10
-38
20
15.0406360987563
30
0
41
1
10
-38
20
14.8470518249568
30
0
41
1
10
-38
20
14.6480433816337
30
0
41
1
10
-38
20
14.5230237603812
30
0
41
1
10
-38
20
14.4215395322791
30
0
41
1
10
-38
20
14.319494446119
30
0
41
1
10
-38
20
14.1916826014269
30
0
41
1
10
-38
20
14.0362107113462
30
0
41
1
10
-38
20
13.905633632864
30
0
41
1
10
-38
20
13.7996824703933
30
0
41
1
10
-38
20
13.6931799140641
30
0
41
1
10
-38
20
13.5598675642285
30
0
41
1
10
-38
20
13.3977994204325
30
0
41
1
10
-38
20
13.2340971553998
30
0
41
1
10
-38
20
13.0687736820565
30
0
41
1
10
-38
20
12.9018380893652
30
0
41
1
10
-38
20
12.7332922951509
30
0
41
1
10
-38
20
12.5631480531082
30
0
41
1
10
-38
20
12.3914123687224
30
0
41
1
10
-38
20
12.2180896154105
30
0
41
1
10
-38
20
12.0431930727568
30
0
41
1
10
-38
20
11.8667275879997
30
0
41
1
10
-38
20
11.6886992220563
30
0
41
1
10
-38
20
11.5091211559413
30
0
41
1
10
-38
20
11.3279971676986
30
0
41
1
10
-38
20
11.0835274575533
30
0
41
1
10
-38
20
10.8388445996823
30
0
41
1
10
-38
20
10.5882272221232
30
0
41
1
10
-38
20
10.3995106478125
30
0
41
1
10
-38
20
10.2093006505112
30
0
41
1
10
-38
20
10.0176111741013
30
0
41
1
10
-38
20
9.82444825814403
30
0
41
1
10
-38
20
9.62982433363783
30
0
41
1
10
-38
20
9.43375032895256
30
0
41
1
10
-38
20
9.16930024978845
30
0
41
1
10
-38
20
8.83774034996793
30
0
41
1
10
-38
20
8.43283016067576
30
0
41
1
10
-38
20
8.09202302704495
30
0
41
1
10
-38
20
7.81440668711983
30
0
41
1
10
-38
20
7.60585888080689
30
0
41
1
10
-38
20
7.39600299493051
30
0
41
1
10
-38
20
7.18486050853949
30
0
41
1
10
-38
20
6.972454820743
30
0
41
1
10
-38
20
6.75880464755275
30
0
41
1
10
-38
20
6.54393387937549
30
0
41
1
10
-38
20
6.32787102064523
30
0
41
1
10
-38
20
6.11064460524281
30
0
41
1
10
-38
20
5.89228682406826
30
0
41
1
10
-38
20
5.67283049766698
30
0
41
1
10
-38
20
5.45231041402207
30
0
41
1
10
-38
20
5.2307661198837
30
0
41
1
10
-38
20
5.00824236668089
30
0
41
1
10
-38
20
4.78478453894905
30
0
41
1
10
-38
20
4.56044477194348
30
0
41
1
10
-38
20
4.3737593142329
30
0
41
1
10
-38
20
4.22222174308928
30
0
41
1
10
-38
20
4.10916467830538
30
0
41
1
10
-38
20
3.99593123757285
30
0
41
1
10
-38
20
3.84368490764803
30
0
41
1
10
-38
20
3.65544484289478
30
0
41
1
10
-38
20
3.46668355973628
30
0
41
1
10
-38
20
3.31336520651504
30
0
41
1
10
-38
20
3.19916977025284
30
0
41
1
10
-38
20
3.0848771849204
30
0
41
1
10
-38
20
2.93116533478539
30
0
41
1
10
-38
20
2.7810630459212
30
0
41
1
10
-38
20
2.62697343511894
30
0
41
1
10
-38
20
2.51237687493429
30
0
41
1
10
-38
20
2.39774974487253
30
0
41
1
10
-38
20
2.28311555219403
30
0
41
1
10
-38
20
2.16847618976473
30
0
41
1
10
-38
20
2.05384840107453
30
0
41
1
10
-38
20
1.93924458170406
30
0
41
1
10
-38
20
1.82466899171223
30
0
41
1
10
-38
20
1.71014121398446
30
0
41
1
10
-38
20
1.59566009898879
30
0
41
1
10
-38
20
1.48124309885608
30
0
41
1
10
-38
20
1.36688883878045
30
0
41
1
10
-38
20
1.25260906632701
30
0
41
1
10
-38
20
1.13840321986405
30
0
41
1
10
-38
20
1.02427614220741
30
0
41
1
10
-38
20
0.910225811803912
30
0
41
1
10
-38
20
0.796251800903974
30
0
41
1
10
-38
20
0.682349388495624
30
0
41
1
10
-38
20
0.568513483413511
30
0
41
1
10
-38
20
0.454735475948979
30
0
41
1
10
-38
20
0.341006791030111
30
0
41
1
10
-38
20
0.227315919379521
30
0
41
1
10
-38
20
0.113651444289076
30
0
41
1
10
-38
20
2.39306814E-08
30
0
41
1
10
-38
20
-0.113651428861147
30
0
41
1
10
-38
20
-0.227315965161807
30
0
41
1
10
-38
20
-0.341006831114754
30
0
41
1
10
-38
20
-0.454735424962735
30
0
41
1
10
-38
20
-0.568513412391525
30
0
41
1
10
-38
20
-0.682349437337052
30
0
41
1
10
-38
20
-0.796251898049235
30
0
41
1
10
-38
20
-0.910225765592202
30
0
41
1
10
-38
20
-1.02427601417025
30
0
41
1
10
-38
20
-1.13840324907633
30
0
41
1
10
-38
20
-1.25260921865757
30
0
41
1
10
-38
20
-1.36688883944316
30
0
41
1
10
-38
20
-1.48124293103632
30
0
41
1
10
-38
20
-1.59566004663384
30
0
41
1
10
-38
20
-1.71014137238996
30
0
41
1
10
-38
20
-1.82466911261432
30
0
41
1
10
-38
20
-1.93924446866484
30
0
41
1
10
-38
20
-2.05384821372689
30
0
41
1
10
-38
20
-2.1684762190329
30
0
41
1
10
-38
20
-2.28311576323418
30
0
41
1
10
-38
20
-2.39774983280105
30
0
41
1
10
-38
20
-2.51237672316307
30
0
41
1
10
-38
20
-2.62697323991799
30
0
41
1
10
-38
20
-2.78106315146928
30
0
41
1
10
-38
20
-2.93116552693385
30
0
41
1
10
-38
20
-3.08487708212581
30
0
41
1
10
-38
20
-3.19916954549007
30
0
41
1
10
-38
20
-3.31336512600546
30
0
41
1
10
-38
20
-3.46668375918677
30
0
41
1
10
-38
20
-3.65544489425088
30
0
41
1
10
-38
20
-3.84368470208372
30
0
41
1
10
-38
20
-3.99593117493791
30
0
41
1
10
-38
20
-4.10916481607396
30
0
41
1
10
-38
20
-4.22222196867938
30
0
41
1
10
-38
20
-4.37375933349006
30
0
41
1
10
-38
20
-4.56044458630845
30
0
41
1
10
-38
20
-4.78478457648492
30
0
41
1
10
-38
20
-5.00824253816086
30
0
41
1
10
-38
20
-5.23076600439052
30
0
41
1
10
-38
20
-5.45231022599046
30
0
41
1
10
-38
20
-5.67283041504652
30
0
41
1
10
-38
20
-5.89228674128222
30
0
41
1
10
-38
20
-6.11064496108523
30
0
41
1
10
-38
20
-6.32787239667013
30
0
41
1
10
-38
20
-6.54393525610644
30
0
41
1
10
-38
20
-6.75880334040127
30
0
41
1
10
-38
20
-6.97245311766207
30
0
41
1
10
-38
20
-7.18486111103374
30
0
41
1
10
-38
20
-7.39600347561742
30
0
41
1
10
-38
20
-7.60585874971361
30
0
41
1
10
-38
20
-7.8144064520111
30
0
41
1
10
-38
20
-8.09202295752311
30
0
41
1
10
-38
20
-8.43283023540656
30
0
41
1
10
-38
20
-8.83774029355055
30
0
41
1
10
-38
20
-9.16930023887323
30
0
41
1
10
-38
20
-9.43375044009511
30
0
41
1
10
-38
20
-9.62982432960192
30
0
41
1
10
-38
20
-9.82444814962994
30
0
41
1
10
-38
20
-10.0176111126089
30
0
41
1
10
-38
20
-10.2093007057547
30
0
41
1
10
-38
20
-10.3995107409486
30
0
41
1
10
-38
20
-10.5882272324294
30
0
41
1
10
-38
20
-10.8388445170812
30
0
41
1
10
-38
20
-11.0835274377931
30
0
41
1
10
-38
20
-11.327997250045
30
0
41
1
10
-38
20
-11.5091211965041
30
0
41
1
10
-38
20
-11.6886991809046
30
0
41
1
10
-38
20
-11.8667275177687
30
0
41
1
10
-38
20
-12.0431930522803
30
0
41
1
10
-38
20
-12.2180896645831
30
0
41
1
10
-38
20
-12.3914124247035
30
0
41
1
10
-38
20
-12.5631480735019
30
0
41
1
10
-38
20
-12.7332924196477
30
0
41
1
10
-38
20
-12.9018387248249
30
0
41
1
10
-38
20
-13.068774902876
30
0
41
1
10
-38
20
-13.2899980003418
30
0
41
1
10
-38
20
-13.5056406071554
30
0
41
1
10
-38
20
-13.7202970548285
30
0
41
1
10
-38
20
-13.9327572918622
30
0
41
1
10
-38
20
-14.1397069500695
30
0
41
1
10
-38
20
-14.3454836148157
30
0
41
1
10
-38
20
-14.4976048095277
30
0
41
1
10
-38
20
-14.6480433741443
30
0
41
1
10
-38
20
-14.8470538575164
30
0
41
1
10
-38
20
-15.0406366439893
30
0
41
1
10
-38
20
-15.2327734637881
30
0
41
1
10
-38
20
-15.3746583733236
30
0
41
1
10
-38
20
-15.5148115582755
30
0
41
1
10
-38
20
-15.6999837411247
30
0
41
1
10
-38
20
-15.8797870255403
30
0
41
1
10
-38
20
-16.0578801048401
30
0
41
1
10
-38
20
-16.189216581434
30
0
41
1
10
-38
20
-16.3187661779867
30
0
41
1
10
-38
20
-16.4896741385663
30
0
41
1
10
-38
20
-16.6552512602625
30
0
41
1
10
-38
20
-16.8188545807649
30
0
41
1
10
-38
20
-16.9392987318018
30
0
41
1
10
-38
20
-17.0578934672827
30
0
41
1
10
-38
20
-17.2140648101705
30
0
41
1
10
-38
20
-17.3649216616153
30
0
41
1
10
-38
20
-17.513530035822
30
0
41
1
10
-38
20
-17.6226956365842
30
0
41
1
10
-38
20
-17.7299433731025
30
0
41
1
10
-38
20
-17.8708440004863
30
0
41
1
10
-38
20
-18.0064238716364
30
0
41
1
10
-38
20
-18.1394672902698
30
0
41
1
10
-38
20
-18.236915915677
30
0
41
1
10
-38
20
-18.3323672965474
30
0
41
1
10
-38
20
-18.4258040962282
30
0
41
1
10
-38
20
-18.517209887002
30
0
41
1
10
-38
20
-18.6065734896479
30
0
41
1
10
-38
20
-18.6938772522127
30
0
41
1
10
-38
20
-18.7791047692188
30
0
41
1
10
-38
20
-18.8622426359768
30
0
41
1
10
-38
20
-18.9432715834756
30
0
41
1
10
-38
20
-19.0221745805325
30
0
41
1
10
-38
20
-19.0989364136873
30
0
41
1
10
-38
20
-19.1735363647814
30
0
41
1
10
-38
20
-19.2704515417461
30
0
41
1
10
-38
20
-19.3619266112172
30
0
41
1
10
-38
20
-19.4499498647732
30
0
41
1
10
-38
20
-19.5134574724377
30
0
41
1
10
-38
20
-19.5746836830748
30
0
41
1
10
-38
20
-19.6336085328263
30
0
41
1
10
-38
20
-19.6902080668946
30
0
41
1
10
-38
20
-19.7628242842049
30
0
41
1
10
-38
20
-19.829873984374
30
0
41
1
10
-38
20
-19.8928775551026
30
0
41
1
10
-38
20
-19.9374871757691
30
0
41
1
10
-38
20
-19.9796195436673
30
0
41
1
10
-38
20
-20.0326760063813
30
0
41
1
10
-38
20
-20.0800381474625
30
0
41
1
10
-38
20
-20.1228090027496
30
0
41
1
10
-38
20
-20.1521177658612
30
0
41
1
10
-38
20
-20.1787668505585
30
0
41
1
10
-38
20
-20.2027210424566
30
0
41
1
10
-38
20
-20.2239455432986
30
0
41
1
10
-38
20
-20.2424031363825
30
0
41
1
10
-38
20
-20.2580557552655
30
0
41
1
10
-38
20
-20.2708642249464
30
0
41
1
10
-38
20
-20.2807872561095
30
0
41
1
10
-38
20
-20.2877829489451
30
0
41
1
10
-38
20
-20.2915516940232
30
0
41
1
10
-38
20
-20.2923325845437
30
0
41
1
10
-38
20
-20.2923481719701
30
0
0
SPLINE
5
131
100
AcDbEntity
8
SK1
62
256
6
ByLayer
370
18
48
1
60
0
100
AcDbSpline
70
4
71
3
72
303
73
299
40
0
40
0
40
0
40
0
40
0.0004865403787054
40
0.003979638150076
40
0.0074727359214467
40
0.0109658336928174
40
0.0144589314641881
40
0.0179520292355588
40
0.0214451270069294
40
0.0249382247783001
40
0.0284313225496708
40
0.0319244203210414
40
0.0354175180924121
40
0.0389106158637828
40
0.0424037136351534
40
0.0458968114065241
40
0.0528830069492655
40
0.0563761047206361
40
0.0598692024920068
40
0.0633623002633775
40
0.0668553980347482
40
0.0738415935774895
40
0.0773346913488601
40
0.0808277891202308
40
0.0843208868916015
40
0.0878139846629722
40
0.0913070824343428
40
0.0948001802057135
40
0.101786375748455
40
0.105279473519826
40
0.108772571291196
40
0.112265669062567
40
0.115758766833938
40
0.119251864605308
40
0.122744962376679
40
0.12623806014805
40
0.12973115791942
40
0.133224255690791
40
0.136717353462161
40
0.140210451233532
40
0.143703549004903
40
0.147196646776274
40
0.150689744547644
40
0.157675940090386
40
0.161169037861756
40
0.164662135633127
40
0.168155233404498
40
0.171648331175868
40
0.17863452671861
40
0.18212762448998
40
0.185620722261351
40
0.189113820032722
40
0.192606917804092
40
0.199593113346834
40
0.203086211118204
40
0.206579308889575
40
0.210072406660946
40
0.213565504432316
40
0.220551699975058
40
0.224044797746428
40
0.227537895517799
40
0.23103099328917
40
0.23452409106054
40
0.241510286603282
40
0.245003384374652
40
0.248496482146023
40
0.251989579917394
40
0.255482677688764
40
0.262468873231506
40
0.265961971002876
40
0.269455068774247
40
0.276441264316988
40
0.279934362088359
40
0.28342745985973
40
0.2869205576311
40
0.290413655402471
40
0.293906753173842
40
0.297399850945212
40
0.300892948716583
40
0.304386046487954
40
0.307879144259324
40
0.311372242030695
40
0.314865339802066
40
0.318358437573436
40
0.325344633116178
40
0.328837730887548
40
0.332330828658919
40
0.33582392643029
40
0.33931702420166
40
0.342810121973031
40
0.346303219744402
40
0.349796317515773
40
0.353289415287143
40
0.360275610829884
40
0.367261806372626
40
0.374248001915367
40
0.377741099686738
40
0.381234197458108
40
0.384727295229479
40
0.38822039300085
40
0.391713490772221
40
0.395206588543591
40
0.398699686314962
40
0.402192784086333
40
0.405685881857703
40
0.409178979629074
40
0.412672077400444
40
0.416165175171815
40
0.419658272943186
40
0.423151370714557
40
0.426644468485927
40
0.430137566257298
40
0.433630664028669
40
0.435377212914354
40
0.437123761800039
40
0.438870310685725
40
0.44061685957141
40
0.444109957342781
40
0.447603055114151
40
0.449349603999836
40
0.451096152885522
40
0.452842701771207
40
0.454589250656892
40
0.458082348428263
40
0.459828897313949
40
0.461575446199634
40
0.463321995085319
40
0.465068543971005
40
0.46681509285669
40
0.468561641742375
40
0.470308190628061
40
0.472054739513746
40
0.473801288399431
40
0.475547837285117
40
0.477294386170802
40
0.479040935056487
40
0.480787483942173
40
0.482534032827858
40
0.484280581713543
40
0.486027130599229
40
0.487773679484914
40
0.489520228370599
40
0.491266777256285
40
0.49301332614197
40
0.494759875027655
40
0.49650642391334
40
0.498252972799026
40
0.499999521684711
40
0.501746070570397
40
0.503492619456082
40
0.505239168341767
40
0.506985717227453
40
0.508732266113138
40
0.510478814998823
40
0.512225363884509
40
0.513971912770194
40
0.515718461655879
40
0.517465010541565
40
0.51921155942725
40
0.520958108312935
40
0.522704657198621
40
0.524451206084306
40
0.526197754969991
40
0.527944303855677
40
0.529690852741362
40
0.531437401627047
40
0.533183950512732
40
0.534930499398418
40
0.536677048284104
40
0.538423597169789
40
0.540170146055474
40
0.541916694941159
40
0.54540979271253
40
0.547156341598215
40
0.548902890483901
40
0.550649439369586
40
0.552395988255271
40
0.555889086026642
40
0.559382183798013
40
0.561128732683698
40
0.562875281569383
40
0.564621830455069
40
0.566368379340754
40
0.569861477112125
40
0.573354574883496
40
0.576847672654866
40
0.580340770426237
40
0.583833868197607
40
0.587326965968978
40
0.590820063740349
40
0.594313161511719
40
0.59780625928309
40
0.601299357054461
40
0.604792454825832
40
0.608285552597202
40
0.611778650368573
40
0.615271748139943
40
0.618764845911314
40
0.622257943682685
40
0.625751041454055
40
0.632737236996797
40
0.639723432539538
40
0.646709628082279
40
0.65020272585365
40
0.653695823625021
40
0.657188921396392
40
0.660682019167762
40
0.664175116939133
40
0.667668214710503
40
0.671161312481874
40
0.674654410253245
40
0.681640605795986
40
0.685133703567357
40
0.688626801338728
40
0.692119899110098
40
0.695612996881469
40
0.699106094652839
40
0.70259919242421
40
0.706092290195581
40
0.709585387966951
40
0.713078485738322
40
0.716571583509693
40
0.720064681281064
40
0.723557779052434
40
0.727050876823805
40
0.730543974595175
40
0.734037072366546
40
0.735783621252232
40
0.737530170137917
40
0.741023267909288
40
0.744516365680658
40
0.748009463452029
40
0.749756012337714
40
0.7515025612234
40
0.75499565899477
40
0.758488756766141
40
0.765474952308882
40
0.768968050080253
40
0.772461147851623
40
0.775954245622994
40
0.779447343394365
40
0.786433538937106
40
0.789926636708477
40
0.791673185594162
40
0.793419734479848
40
0.796912832251218
40
0.800405930022589
40
0.80739212556533
40
0.810885223336701
40
0.814378321108072
40
0.817871418879442
40
0.821364516650813
40
0.828350712193554
40
0.831843809964925
40
0.83359035885061
40
0.835336907736296
40
0.838830005507666
40
0.842323103279037
40
0.849309298821778
40
0.852802396593149
40
0.85629549436452
40
0.85978859213589
40
0.863281689907261
40
0.866774787678632
40
0.870267885450002
40
0.873760983221373
40
0.877254080992744
40
0.880747178764114
40
0.884240276535485
40
0.887733374306856
40
0.891226472078226
40
0.894719569849597
40
0.898212667620968
40
0.905198863163709
40
0.90869196093508
40
0.912185058706451
40
0.915678156477821
40
0.919171254249192
40
0.922664352020562
40
0.926157449791933
40
0.933143645334674
40
0.936636743106045
40
0.940129840877416
40
0.943622938648787
40
0.947116036420157
40
0.954102231962898
40
0.96108842750564
40
0.968074623048381
40
0.971567720819752
40
0.975060818591123
40
0.978553916362493
40
0.982047014133864
40
0.985540111905234
40
0.989033209676605
40
0.992526307447976
40
0.996019405219346
40
0.999512502990717
40
1
40
1
40
1
40
1
41
1
10
-36.5
20
-21.1556097681681
30
0
41
1
10
-36.5
20
-21.1558059418252
30
0
41
1
10
-36.5
20
-21.1573243062158
30
0
41
1
10
-36.5
20
-21.1588543296933
30
0
41
1
10
-36.5
20
-21.1578041644649
30
0
41
1
10
-36.5
20
-21.1536128319466
30
0
41
1
10
-36.5
20
-21.1463317710584
30
0
41
1
10
-36.5
20
-21.1360112646484
30
0
41
1
10
-36.5
20
-21.1226986516191
30
0
41
1
10
-36.5
20
-21.1064402531507
30
0
41
1
10
-36.5
20
-21.0872797892674
30
0
41
1
10
-36.5
20
-21.0652596303332
30
0
41
1
10
-36.5
20
-21.0404207944711
30
0
41
1
10
-36.5
20
-21.0128017234864
30
0
41
1
10
-36.5
20
-20.9824409225429
30
0
41
1
10
-36.5
20
-20.9382580424269
30
0
41
1
10
-36.5
20
-20.8890285523336
30
0
41
1
10
-36.5
20
-20.8342802793506
30
0
41
1
10
-36.5
20
-20.7907268231739
30
0
41
1
10
-36.5
20
-20.7446292080422
30
0
41
1
10
-36.5
20
-20.6796864153796
30
0
41
1
10
-36.5
20
-20.6101652553123
30
0
41
1
10
-36.5
20
-20.5353747607017
30
0
41
1
10
-36.5
20
-20.4769783724375
30
0
41
1
10
-36.5
20
-20.4161996091986
30
0
41
1
10
-36.5
20
-20.353062816238
30
0
41
1
10
-36.5
20
-20.287589681624
30
0
41
1
10
-36.5
20
-20.1970436522849
30
0
41
1
10
-36.5
20
-20.1024193061391
30
0
41
1
10
-36.5
20
-20.0027815100322
30
0
41
1
10
-36.5
20
-19.9259535527381
30
0
41
1
10
-36.5
20
-19.8469141406672
30
0
41
1
10
-36.5
20
-19.7656833992675
30
0
41
1
10
-36.5
20
-19.6822775521962
30
0
41
1
10
-36.5
20
-19.5967148362678
30
0
41
1
10
-36.5
20
-19.5090135437133
30
0
41
1
10
-36.5
20
-19.4191882978898
30
0
41
1
10
-36.5
20
-19.3272562516113
30
0
41
1
10
-36.5
20
-19.2332339353276
30
0
41
1
10
-36.5
20
-19.1371342717784
30
0
41
1
10
-36.5
20
-19.0389739868785
30
0
41
1
10
-36.5
20
-18.9387686023437
30
0
41
1
10
-36.5
20
-18.8022222651529
30
0
41
1
10
-36.5
20
-18.6623326618876
30
0
41
1
10
-36.5
20
-18.5177535555592
30
0
41
1
10
-36.5
20
-18.4075180436267
30
0
41
1
10
-36.5
20
-18.2953166794047
30
0
41
1
10
-36.5
20
-18.1428562465544
30
0
41
1
10
-36.5
20
-17.9872703841193
30
0
41
1
10
-36.5
20
-17.827069915531
30
0
41
1
10
-36.5
20
-17.7052052466277
30
0
41
1
10
-36.5
20
-17.5814422063202
30
0
41
1
10
-36.5
20
-17.4136313821348
30
0
41
1
10
-36.5
20
-17.2428947983014
30
0
41
1
10
-36.5
20
-17.0675955495038
30
0
41
1
10
-36.5
20
-16.9344844206004
30
0
41
1
10
-36.5
20
-16.7995343923805
30
0
41
1
10
-36.5
20
-16.6168608854212
30
0
41
1
10
-36.5
20
-16.4314450331352
30
0
41
1
10
-36.5
20
-16.241498813278
30
0
41
1
10
-36.5
20
-16.0974737380165
30
0
41
1
10
-36.5
20
-15.9516609547094
30
0
41
1
10
-36.5
20
-15.7545451164335
30
0
41
1
10
-36.5
20
-15.5548624364723
30
0
41
1
10
-36.5
20
-15.3506631330603
30
0
41
1
10
-36.5
20
-15.1960147192182
30
0
41
1
10
-36.5
20
-15.0396227184095
30
0
41
1
10
-36.5
20
-14.8284315021107
30
0
41
1
10
-36.5
20
-14.6148460432235
30
0
41
1
10
-36.5
20
-14.3967384349213
30
0
41
1
10
-36.5
20
-14.176348576809
30
0
41
1
10
-36.5
20
-13.9536769173599
30
0
41
1
10
-36.5
20
-13.7264696827894
30
0
41
1
10
-36.5
20
-13.5546713888901
30
0
41
1
10
-36.5
20
-13.3811911431361
30
0
41
1
10
-36.5
20
-13.2060373895955
30
0
41
1
10
-36.5
20
-13.0292149436137
30
0
41
1
10
-36.5
20
-12.8507281979538
30
0
41
1
10
-36.5
20
-12.6705857704289
30
0
41
1
10
-36.5
20
-12.4887913848281
30
0
41
1
10
-36.5
20
-12.3053503320752
30
0
41
1
10
-36.5
20
-12.1202707134412
30
0
41
1
10
-36.5
20
-11.9335556252714
30
0
41
1
10
-36.5
20
-11.6819759007756
30
0
41
1
10
-36.5
20
-11.4285504962004
30
0
41
1
10
-36.5
20
-11.1704660987636
30
0
41
1
10
-36.5
20
-10.9756652058486
30
0
41
1
10
-36.5
20
-10.7792636942327
30
0
41
1
10
-36.5
20
-10.5812696339219
30
0
41
1
10
-36.5
20
-10.3816870614505
30
0
41
1
10
-36.5
20
-10.18052371466
30
0
41
1
10
-36.5
20
-9.97778564072317
30
0
41
1
10
-36.5
20
-9.70483575174822
30
0
41
1
10
-36.5
20
-9.36101273737586
30
0
41
1
10
-36.5
20
-8.94153442741853
30
0
41
1
10
-36.5
20
-8.58745782596952
30
0
41
1
10
-36.5
20
-8.3000445299389
30
0
41
1
10
-36.5
20
-8.08346945831602
30
0
41
1
10
-36.5
20
-7.86540128403743
30
0
41
1
10
-36.5
20
-7.64585158611581
30
0
41
1
10
-36.5
20
-7.42483229470756
30
0
41
1
10
-36.5
20
-7.20235684280954
30
0
41
1
10
-36.5
20
-6.97843834484934
30
0
41
1
10
-36.5
20
-6.75309051279777
30
0
41
1
10
-36.5
20
-6.52633051401983
30
0
41
1
10
-36.5
20
-6.29817748211653
30
0
41
1
10
-36.5
20
-6.06865017711209
30
0
41
1
10
-36.5
20
-5.83776875015039
30
0
41
1
10
-36.5
20
-5.6055565552935
30
0
41
1
10
-36.5
20
-5.37203995090806
30
0
41
1
10
-36.5
20
-5.1372458114655
30
0
41
1
10
-36.5
20
-4.90120586463618
30
0
41
1
10
-36.5
20
-4.70396584910503
30
0
41
1
10
-36.5
20
-4.54469650094606
30
0
41
1
10
-36.5
20
-4.42534006396792
30
0
41
1
10
-36.5
20
-4.30569969171862
30
0
41
1
10
-36.5
20
-4.14529326648051
30
0
41
1
10
-36.5
20
-3.94531869048151
30
0
41
1
10
-36.5
20
-3.74444967050349
30
0
41
1
10
-36.5
20
-3.58224072191865
30
0
41
1
10
-36.5
20
-3.46078948211164
30
0
41
1
10
-36.5
20
-3.33910698167958
30
0
41
1
10
-36.5
20
-3.17597095993784
30
0
41
1
10
-36.5
20
-3.01425656877106
30
0
41
1
10
-36.5
20
-2.8502314065623
30
0
41
1
10
-36.5
20
-2.72752148004804
30
0
41
1
10
-36.5
20
-2.60463057106841
30
0
41
1
10
-36.5
20
-2.48157389743918
30
0
41
1
10
-36.5
20
-2.3583562279822
30
0
41
1
10
-36.5
20
-2.2349905278607
30
0
41
1
10
-36.5
20
-2.11148756075909
30
0
41
1
10
-36.5
20
-1.98785458048855
30
0
41
1
10
-36.5
20
-1.86410640329151
30
0
41
1
10
-36.5
20
-1.7402482546413
30
0
41
1
10
-36.5
20
-1.61629518356963
30
0
41
1
10
-36.5
20
-1.49225310642996
30
0
41
1
10
-36.5
20
-1.36813486147517
30
0
41
1
10
-36.5
20
-1.24394734076813
30
0
41
1
10
-36.5
20
-1.11970111692671
30
0
41
1
10
-36.5
20
-0.995403468230791
30
0
41
1
10
-36.5
20
-0.871062970095124
30
0
41
1
10
-36.5
20
-0.746686131491799
30
0
41
1
10
-36.5
20
-0.622280094010847
30
0
41
1
10
-36.5
20
-0.497850400790554
30
0
41
1
10
-36.5
20
-0.373402960091397
30
0
41
1
10
-36.5
20
-0.248942266430618
30
0
41
1
10
-36.5
20
-0.124473254673973
30
0
41
1
10
-36.5
20
9.2462358E-09
30
0
41
1
10
-36.5
20
0.124473257200918
30
0
41
1
10
-36.5
20
0.248942238793148
30
0
41
1
10
-36.5
20
0.373402935182185
30
0
41
1
10
-36.5
20
0.497850420758397
30
0
41
1
10
-36.5
20
0.622280124115576
30
0
41
1
10
-36.5
20
0.746686102657719
30
0
41
1
10
-36.5
20
0.8710629170684
30
0
41
1
10
-36.5
20
0.995403485642782
30
0
41
1
10
-36.5
20
1.11970117534864
30
0
41
1
10
-36.5
20
1.2439473222278
30
0
41
1
10
-36.5
20
1.3681347814894
30
0
41
1
10
-36.5
20
1.49225310041959
30
0
41
1
10
-36.5
20
1.61629526151512
30
0
41
1
10
-36.5
20
1.74024827700825
30
0
41
1
10
-36.5
20
1.86410632124094
30
0
41
1
10
-36.5
20
1.9878545152765
30
0
41
1
10
-36.5
20
2.11148761081347
30
0
41
1
10
-36.5
20
2.23499061660055
30
0
41
1
10
-36.5
20
2.35835621123036
30
0
41
1
10
-36.5
20
2.48157378937663
30
0
41
1
10
-36.5
20
2.60463052157442
30
0
41
1
10
-36.5
20
2.72752154931175
30
0
41
1
10
-36.5
20
2.85023149996007
30
0
41
1
10
-36.5
20
3.01425651604552
30
0
41
1
10
-36.5
20
3.17597085922341
30
0
41
1
10
-36.5
20
3.33910702605107
30
0
41
1
10
-36.5
20
3.46078958963511
30
0
41
1
10
-36.5
20
3.58224076117995
30
0
41
1
10
-36.5
20
3.74444957084984
30
0
41
1
10
-36.5
20
3.94531865595207
30
0
41
1
10
-36.5
20
4.14529336499854
30
0
41
1
10
-36.5
20
4.30569972295402
30
0
41
1
10
-36.5
20
4.42533999597057
30
0
41
1
10
-36.5
20
4.54469638576828
30
0
41
1
10
-36.5
20
4.70396583147402
30
0
41
1
10
-36.5
20
4.90120595303733
30
0
41
1
10
-36.5
20
5.13724579696881
30
0
41
1
10
-36.5
20
5.37203985998678
30
0
41
1
10
-36.5
20
5.60555660448861
30
0
41
1
10
-36.5
20
5.83776884649418
30
0
41
1
10
-36.5
20
6.06865022444896
30
0
41
1
10
-36.5
20
6.29817753233076
30
0
41
1
10
-36.5
20
6.52633035082275
30
0
41
1
10
-36.5
20
6.75308981071325
30
0
41
1
10
-36.5
20
6.97843755879967
30
0
41
1
10
-36.5
20
7.20235735193418
30
0
41
1
10
-36.5
20
7.42483318088833
30
0
41
1
10
-36.5
20
7.64585131899614
30
0
41
1
10
-36.5
20
7.86540102208471
30
0
41
1
10
-36.5
20
8.08346950394392
30
0
41
1
10
-36.5
20
8.30004464023602
30
0
41
1
10
-36.5
20
8.58745787193689
30
0
41
1
10
-36.5
20
8.94153438933262
30
0
41
1
10
-36.5
20
9.36101276272154
30
0
41
1
10
-36.5
20
9.70483576808863
30
0
41
1
10
-36.5
20
9.9777855843503
30
0
41
1
10
-36.5
20
10.180523710493
30
0
41
1
10
-36.5
20
10.3816871154457
30
0
41
1
10
-36.5
20
10.5812696725585
30
0
41
1
10
-36.5
20
10.7792636737398
30
0
41
1
10
-36.5
20
10.9756651586938
30
0
41
1
10
-36.5
20
11.1704660874499
30
0
41
1
10
-36.5
20
11.4285505376587
30
0
41
1
10
-36.5
20
11.6819759204348
30
0
41
1
10
-36.5
20
11.9335555855444
30
0
41
1
10
-36.5
20
12.1202706879328
30
0
41
1
10
-36.5
20
12.3053503484466
30
0
41
1
10
-36.5
20
12.4887914218501
30
0
41
1
10
-36.5
20
12.6705857874604
30
0
41
1
10
-36.5
20
12.850728177302
30
0
41
1
10
-36.5
20
13.0292149133303
30
0
41
1
10
-36.5
20
13.2060373742643
30
0
41
1
10
-36.5
20
13.3811910773122
30
0
41
1
10
-36.5
20
13.5546710496343
30
0
41
1
10
-36.5
20
13.7264689694465
30
0
41
1
10
-36.5
20
13.8965816080865
30
0
41
1
10
-36.5
20
14.0650028858775
30
0
41
1
10
-36.5
20
14.2317235183089
30
0
41
1
10
-36.5
20
14.3690494022437
30
0
41
1
10
-36.5
20
14.4783873813363
30
0
41
1
10
-36.5
20
14.5871530954062
30
0
41
1
10
-36.5
20
14.7216281332594
30
0
41
1
10
-36.5
20
14.8814910451208
30
0
41
1
10
-36.5
20
15.0130920883853
30
0
41
1
10
-36.5
20
15.1178164480938
30
0
41
1
10
-36.5
20
15.2219600388738
30
0
41
1
10
-36.5
20
15.350663385132
30
0
41
1
10
-36.5
20
15.5548613446891
30
0
41
1
10
-36.5
20
15.7545445351489
30
0
41
1
10
-36.5
20
15.9516616651348
30
0
41
1
10
-36.5
20
16.097474719741
30
0
41
1
10
-36.5
20
16.2414991337765
30
0
41
1
10
-36.5
20
16.4314438788638
30
0
41
1
10
-36.5
20
16.6168596157572
30
0
41
1
10
-36.5
20
16.7765898513273
30
0
41
1
10
-36.5
20
16.867008999151
30
0
41
1
10
-36.5
20
16.9568152899196
30
0
41
1
10
-36.5
20
17.0675963011875
30
0
41
1
10
-36.5
20
17.2428939764416
30
0
41
1
10
-36.5
20
17.4136311437529
30
0
41
1
10
-36.5
20
17.5814423770725
30
0
41
1
10
-36.5
20
17.705205542109
30
0
41
1
10
-36.5
20
17.8270700659299
30
0
41
1
10
-36.5
20
17.987269645424
30
0
41
1
10
-36.5
20
18.1428549391526
30
0
41
1
10
-36.5
20
18.2761667145511
30
0
41
1
10
-36.5
20
18.3514175898237
30
0
41
1
10
-36.5
20
18.4260133905722
30
0
41
1
10
-36.5
20
18.5177544284038
30
0
41
1
10
-36.5
20
18.6623317385554
30
0
41
1
10
-36.5
20
18.8022215100789
30
0
41
1
10
-36.5
20
18.9387689752275
30
0
41
1
10
-36.5
20
19.0389746878943
30
0
41
1
10
-36.5
20
19.1371346902892
30
0
41
1
10
-36.5
20
19.2332338822713
30
0
41
1
10
-36.5
20
19.3272561697677
30
0
41
1
10
-36.5
20
19.4191882696517
30
0
41
1
10
-36.5
20
19.5090135394173
30
0
41
1
10
-36.5
20
19.5967148149262
30
0
41
1
10
-36.5
20
19.6822775189499
30
0
41
1
10
-36.5
20
19.7656833730651
30
0
41
1
10
-36.5
20
19.8469141355251
30
0
41
1
10
-36.5
20
19.9259535572617
30
0
41
1
10
-36.5
20
20.0027815031752
30
0
41
1
10
-36.5
20
20.1024192722933
30
0
41
1
10
-36.5
20
20.1970436182683
30
0
41
1
10
-36.5
20
20.2875896826626
30
0
41
1
10
-36.5
20
20.3530628196555
30
0
41
1
10
-36.5
20
20.4161995895792
30
0
41
1
10
-36.5
20
20.4769783324059
30
0
41
1
10
-36.5
20
20.5353747251341
30
0
41
1
10
-36.5
20
20.6101652524536
30
0
41
1
10
-36.5
20
20.6796864194097
30
0
41
1
10
-36.5
20
20.7446291690672
30
0
41
1
10
-36.5
20
20.7907267804185
30
0
41
1
10
-36.5
20
20.8342802658871
30
0
41
1
10
-36.5
20
20.8890285612071
30
0
41
1
10
-36.5
20
20.950713074722
30
0
41
1
10
-36.5
20
21.0141777773224
30
0
41
1
10
-36.5
20
21.0578537406018
30
0
41
1
10
-36.5
20
21.0872797426226
30
0
41
1
10
-36.5
20
21.1064402158535
30
0
41
1
10
-36.5
20
21.1226986497682
30
0
41
1
10
-36.5
20
21.1360112678938
30
0
41
1
10
-36.5
20
21.1463317213717
30
0
41
1
10
-36.5
20
21.1536126358382
30
0
41
1
10
-36.5
20
21.1578038223016
30
0
41
1
10
-36.5
20
21.1588544331657
30
0
41
1
10
-36.5
20
21.1573244476808
30
0
41
1
10
-36.5
20
21.1558055950077
30
0
41
1
10
-36.5
20
21.1556089984682
30
0
0
SPLINE
5
132
100
AcDbEntity
8
SK1
62
256
6
ByLayer
370
18
48
1
60
0
100
AcDbSpline
70
4
71
3
72
115
73
111
40
0
40
0
40
0
40
0
40
0.0023113241540008
40
0.0108554919527155
40
0.0193996597514302
40
0.0279438275501449
40
0.0364879953488596
40
0.0450321631475743
40
0.053576330946289
40
0.0621204987450037
40
0.0706646665437184
40
0.0792088343424331
40
0.0877530021411478
40
0.0962971699398625
40
0.113385505537292
40
0.130473841134721
40
0.147562176732151
40
0.156106344530865
40
0.16465051232958
40
0.173194680128295
40
0.181738847927009
40
0.190283015725724
40
0.198827183524439
40
0.207371351323154
40
0.215915519121868
40
0.233003854719298
40
0.241548022518012
40
0.250092190316727
40
0.258636358115442
40
0.267180525914156
40
0.275724693712871
40
0.284268861511586
40
0.292813029310301
40
0.301357197109015
40
0.30990136490773
40
0.318445532706444
40
0.326989700505159
40
0.335533868303874
40
0.344078036102589
40
0.352622203901303
40
0.361166371700018
40
0.365438455599375
40
0.369710539498733
40
0.378254707297447
40
0.386798875096162
40
0.395343042894877
40
0.399615126794234
40
0.403887210693592
40
0.412431378492306
40
0.420975546291021
40
0.43806388188845
40
0.446608049687165
40
0.45515221748588
40
0.463696385284594
40
0.472240553083309
40
0.489328888680738
40
0.497873056479453
40
0.50214514037881
40
0.506417224278168
40
0.514961392076883
40
0.523505559875597
40
0.540593895473027
40
0.549138063271741
40
0.557682231070456
40
0.566226398869171
40
0.574770566667885
40
0.591858902265315
40
0.600403070064029
40
0.604675153963387
40
0.608947237862744
40
0.617491405661459
40
0.626035573460173
40
0.643123909057603
40
0.651668076856318
40
0.660212244655032
40
0.668756412453747
40
0.677300580252462
40
0.685844748051176
40
0.694388915849891
40
0.702933083648606
40
0.711477251447321
40
0.720021419246035
40
0.72856558704475
40
0.737109754843465
40
0.745653922642179
40
0.754198090440894
40
0.762742258239609
40
0.779830593837038
40
0.788374761635753
40
0.796918929434467
40
0.805463097233182
40
0.814007265031897
40
0.822551432830611
40
0.831095600629326
40
0.848183936226756
40
0.85672810402547
40
0.865272271824185
40
0.8738164396229
40
0.882360607421614
40
0.899448943019044
40
0.916537278616473
40
0.933625614213902
40
0.942169782012617
40
0.950713949811332
40
0.959258117610047
40
0.967802285408761
40
0.976346453207476
40
0.984890621006191
40
0.993434788804905
40
1
40
1
40
1
40
1
41
1
10
-0.394976888875306
20
6.32694309067119
30
0
41
1
10
-0.394976888875306
20
6.34849183540922
30
0
41
1
10
-0.394976888875306
20
6.44960786563362
30
0
41
1
10
-0.394976888875306
20
6.62954558311137
30
0
41
1
10
-0.394976888875306
20
6.86569504295815
30
0
41
1
10
-0.394976888875306
20
7.10023725398264
30
0
41
1
10
-0.394976888875306
20
7.33316516004027
30
0
41
1
10
-0.394976888875306
20
7.56447255210352
30
0
41
1
10
-0.394976888875306
20
7.79415362199521
30
0
41
1
10
-0.394976888875306
20
8.0222029406992
30
0
41
1
10
-0.394976888875306
20
8.24861627222975
30
0
41
1
10
-0.394976888875306
20
8.47338949471808
30
0
41
1
10
-0.394976888875306
20
8.69651812098675
30
0
41
1
10
-0.394976888875306
20
8.99192950801697
30
0
41
1
10
-0.394976888875306
20
9.3568391135907
30
0
41
1
10
-0.394976888875306
20
9.78821091215369
30
0
41
1
10
-0.394976888875306
20
10.1420454829465
30
0
41
1
10
-0.394976888875306
20
10.4219344610486
30
0
41
1
10
-0.394976888875306
20
10.630113157504
30
0
41
1
10
-0.394976888875306
20
10.8366153761928
30
0
41
1
10
-0.394976888875306
20
11.0414389105764
30
0
41
1
10
-0.394976888875306
20
11.2445799083311
30
0
41
1
10
-0.394976888875306
20
11.4460361066677
30
0
41
1
10
-0.394976888875306
20
11.6458042855523
30
0
41
1
10
-0.394976888875306
20
11.9099848332047
30
0
41
1
10
-0.394976888875306
20
12.1705475891153
30
0
41
1
10
-0.394976888875306
20
12.4279318017785
30
0
41
1
10
-0.394976888875306
20
12.6192114742801
30
0
41
1
10
-0.394976888875306
20
12.8087826212334
30
0
41
1
10
-0.394976888875306
20
12.9966426140257
30
0
41
1
10
-0.394976888875306
20
13.182787463215
30
0
41
1
10
-0.394976888875306
20
13.3672125481811
30
0
41
1
10
-0.394976888875306
20
13.549915145406
30
0
41
1
10
-0.394976888875306
20
13.7308904366346
30
0
41
1
10
-0.394976888875306
20
13.9101338497815
30
0
41
1
10
-0.394976888875306
20
14.0876420714538
30
0
41
1
10
-0.394976888875306
20
14.2634095816694
30
0
41
1
10
-0.394976888875306
20
14.4374320816019
30
0
41
1
10
-0.394976888875306
20
14.6097059483473
30
0
41
1
10
-0.394976888875306
20
14.7802248596231
30
0
41
1
10
-0.394976888875306
20
14.9208273816877
30
0
41
1
10
-0.394976888875306
20
15.0324801920763
30
0
41
1
10
-0.394976888875306
20
15.1435436982815
30
0
41
1
10
-0.394976888875306
20
15.2812010193763
30
0
41
1
10
-0.394976888875306
20
15.4446487492657
30
0
41
1
10
-0.394976888875306
20
15.5793432837569
30
0
41
1
10
-0.394976888875306
20
15.6862549949744
30
0
41
1
10
-0.394976888875306
20
15.7925696820839
30
0
41
1
10
-0.394976888875306
20
15.9242804112408
30
0
41
1
10
-0.394976888875306
20
16.1327150774874
30
0
41
1
10
-0.394976888875306
20
16.3373774066279
30
0
41
1
10
-0.394976888875306
20
16.5385587049942
30
0
41
1
10
-0.394976888875306
20
16.6875786248762
30
0
41
1
10
-0.394976888875306
20
16.8347647509306
30
0
41
1
10
-0.394976888875306
20
17.0286078387926
30
0
41
1
10
-0.394976888875306
20
17.2186048360495
30
0
41
1
10
-0.394976888875306
20
17.3816993239948
30
0
41
1
10
-0.394976888875277
20
17.4739690253912
30
0
41
1
10
-0.394976888875306
20
17.5656125946474
30
0
41
1
10
-0.394976888875306
20
17.6789387292296
30
0
41
1
10
-0.394976888875306
20
17.8578219077773
30
0
41
1
10
-0.394976888875306
20
18.0327705937831
30
0
41
1
10
-0.394976888875306
20
18.2040166079408
30
0
41
1
10
-0.394976888875306
20
18.330489335967
30
0
41
1
10
-0.394976888875306
20
18.4550236113311
30
0
41
1
10
-0.394976888875306
20
18.6185131846482
30
0
41
1
10
-0.394976888875277
20
18.777958735224
30
0
41
1
10
-0.394976888875306
20
18.9140993494365
30
0
41
1
10
-0.394976888875277
20
18.9909051568102
30
0
41
1
10
-0.394976888875306
20
19.0670441229991
30
0
41
1
10
-0.394976888875306
20
19.160920630363
30
0
41
1
10
-0.394976888875306
20
19.308501644014
30
0
41
1
10
-0.394976888875306
20
19.4519091739392
30
0
41
1
10
-0.394976888875277
20
19.5913158900225
30
0
41
1
10
-0.394976888875306
20
19.6937723311917
30
0
41
1
10
-0.394976888875277
20
19.79414426657
30
0
41
1
10
-0.394976888875306
20
19.8924175863555
30
0
41
1
10
-0.394976888875277
20
19.9885758834751
30
0
41
1
10
-0.394976888875277
20
20.082604770276
30
0
41
1
10
-0.394976888875306
20
20.1744885542463
30
0
41
1
10
-0.394976888875277
20
20.2642094206366
30
0
41
1
10
-0.394976888875306
20
20.3517517634561
30
0
41
1
10
-0.394976888875306
20
20.4370981008412
30
0
41
1
10
-0.394976888875277
20
20.5202292190253
30
0
41
1
10
-0.394976888875306
20
20.6011280536546
30
0
41
1
10
-0.394976888875277
20
20.6797749496461
30
0
41
1
10
-0.394976888875277
20
20.7816354627076
30
0
41
1
10
-0.394976888875277
20
20.8788308563806
30
0
41
1
10
-0.394976888875306
20
20.9714364994015
30
0
41
1
10
-0.394976888875277
20
21.038514297088
30
0
41
1
10
-0.394976888875277
20
21.1032108723211
30
0
41
1
10
-0.394976888875277
20
21.1655031445011
30
0
41
1
10
-0.394976888875277
20
21.2253664719936
30
0
41
1
10
-0.394976888875277
20
21.3019320664004
30
0
41
1
10
-0.394976888875277
20
21.3734709387681
30
0
41
1
10
-0.394976888875277
20
21.4399968711307
30
0
41
1
10
-0.394976888875277
20
21.4873092663299
30
0
41
1
10
-0.394976888875277
20
21.5320229149808
30
0
41
1
10
-0.394976888875277
20
21.5881524120742
30
0
41
1
10
-0.394976888875277
20
21.651618462036
30
0
41
1
10
-0.394976888875277
20
21.7168668922192
30
0
41
1
10
-0.394976888875277
20
21.7618666429643
30
0
41
1
10
-0.394976888875277
20
21.7921034347989
30
0
41
1
10
-0.394976888875277
20
21.8118377229246
30
0
41
1
10
-0.394976888875277
20
21.8285907137819
30
0
41
1
10
-0.394976888875277
20
21.8423149188875
30
0
41
1
10
-0.394976888875277
20
21.8529598769268
30
0
41
1
10
-0.394976888875277
20
21.8604737650697
30
0
41
1
10
-0.394976888875277
20
21.864467380765
30
0
41
1
10
-0.39497688887522
20
21.8653285662663
30
0
41
1
10
-0.39497688887522
20
21.8653790905271
30
0
0
SPLINE
5
133
100
AcDbEntity
8
1
62
256
6
ByLayer
370
18
48
1
60
0
100
AcDbSpline
70
4
71
3
72
8
73
4
40
0
40
0
40
0
40
0
40
1
40
1
40
1
40
1
41
1
10
23.5296308154319
20
31.1294209147088
30
0
41
1
10
23.8196760414545
20
31.1590470572681
30
0
41
1
10
24.1242324673054
20
31.180508563644
30
0
41
1
10
24.4426268973693
20
31.195451858178
30
0
0
SPLINE
5
134
100
AcDbEntity
8
1
62
256
6
ByLayer
370
18
48
1
60
0
100
AcDbSpline
70
4
71
3
72
16
73
12
40
0
40
0
40
0
40
0
40
0.125000000000001
40
0.125000000000001
40
0.250000000000003
40
0.250000000000003
40
0.500000000000002
40
0.500000000000002
40
0.750000000000001
40
0.750000000000001
40
1
40
1
40
1
40
1
41
1
10
13.4613248654051
20
9.3492213145251
30
0
41
1
10
13.4928040273173
20
9.3492213145251
30
0
41
1
10
13.5234304266402
20
9.35536120669457
30
0
41
1
10
13.5815263070002
20
9.37748487924964
30
0
41
1
10
13.6079581046675
20
9.39290424748307
30
0
41
1
10
13.6817632688741
20
9.44829073160849
30
0
41
1
10
13.7208296342407
20
9.4946722005341
30
0
41
1
10
13.7874862877331
20
9.594536803469
30
0
41
1
10
13.8142652669256
20
9.64728479257934
30
0
41
1
10
13.8599440812239
20
9.75611455014877
30
0
41
1
10
13.8787443055274
20
9.81241059371428
30
0
41
1
10
13.8943375672974
20
9.86941261896621
30
0
0
SPLINE
5
135
100
AcDbEntity
8
1
62
256
6
ByLayer
370
18
48
1
60
0
100
AcDbSpline
70
4
71
3
72
16
73
12
40
0
40
0
40
0
40
0
40
0.124999999999995
40
0.124999999999995
40
0.249999999999991
40
0.249999999999991
40
0.499999999999994
40
0.499999999999994
40
0.749999999999997
40
0.749999999999997
40
1
40
1
40
1
40
1
41
1
10
10.5386751345948
20
30.0805927603169
30
0
41
1
10
10.5071959726827
20
30.0805927603169
30
0
41
1
10
10.4765695733597
20
30.078685990659
30
0
41
1
10
10.4184736929998
20
30.0717959485601
30
0
41
1
10
10.3920418953324
20
30.0669872793661
30
0
41
1
10
10.3182367311259
20
30.049647240705
30
0
41
1
10
10.2791703657593
20
30.0350452819075
30
0
41
1
10
10.2125137122668
20
30.0032932993814
30
0
41
1
10
10.1857347330744
20
29.9863830332716
30
0
41
1
10
10.1400559187761
20
29.9511519005795
30
0
41
1
10
10.1212556944726
20
29.9327613369587
30
0
41
1
10
10.1056624327025
20
29.9139548464691
30
0
0
SPLINE
5
136
100
AcDbEntity
8
1
62
256
6
ByLayer
370
18
48
1
60
0
100
AcDbSpline
70
4
71
3
72
14
73
10
40
0
40
0
40
0
40
0
40
0.25
40
0.25
40
0.5
40
0.5
40
0.75
40
0.75
40
1
40
1
40
1
40
1
41
1
10
22.7241065253425
20
-31.102537381529
30
0
41
1
10
22.6865896771739
20
-31.0655733077159
30
0
41
1
10
22.6465597927904
20
-31.0325934865229
30
0
41
1
10
22.5622212398951
20
-30.9742363426417
30
0
41
1
10
22.5175784443768
20
-30.9486946998561
30
0
41
1
10
22.4253857509853
20
-30.9058575847831
30
0
41
1
10
22.3784711657182
20
-30.8887884983139
30
0
41
1
10
22.2832443229697
20
-30.8628324152788
30
0
41
1
10
22.2345418396492
20
-30.8539194502299
30
0
41
1
10
22.1861384096169
20
-30.8492969840993
30
0
0
SPLINE
5
137
100
AcDbEntity
8
1
62
256
6
ByLayer
370
18
48
1
60
0
100
AcDbSpline
70
4
71
3
72
8
73
4
40
0
40
0
40
0
40
0
40
1
40
1
40
1
40
1
41
1
10
24.4426268973692
20
-31.195451858178
30
0
41
1
10
24.1242324673054
20
-31.180508563644
30
0
41
1
10
23.8196760414545
20
-31.1590470572681
30
0
41
1
10
23.529630815432
20
-31.1294209147088
30
0
0
SPLINE
5
138
100
AcDbEntity
8
1
62
256
6
ByLayer
370
18
48
1
60
0
100
AcDbSpline
70
4
71
3
72
16
73
12
40
0
40
0
40
0
40
0
40
0.25
40
0.25
40
0.5
40
0.5
40
0.75
40
0.75
40
0.875
40
0.875
40
1
40
1
40
1
40
1
41
1
10
10.1056624327026
20
9.86941261896621
30
0
41
1
10
10.1212498345487
20
9.81243201498808
30
0
41
1
10
10.1399018475135
20
9.75655023082973
30
0
41
1
10
10.1854864096889
20
9.64780841973396
30
0
41
1
10
10.2124982207834
20
9.59456078532611
30
0
41
1
10
10.279179996877
20
9.49465699870632
30
0
41
1
10
10.3189381439131
20
9.44778039735212
30
0
41
1
10
10.3915918423741
20
9.39323398486459
30
0
41
1
10
10.4185844965196
20
9.37745951316347
30
0
41
1
10
10.4761894743047
20
9.35548920253854
30
0
41
1
10
10.5072412025891
20
9.34922131452504
30
0
41
1
10
10.5386751345948
20
9.34922131452504
30
0
0
SPLINE
5
139
100
AcDbEntity
8
1
62
256
6
ByLayer
370
18
48
1
60
0
100
AcDbSpline
70
4
71
3
72
16
73
12
40
0
40
0
40
0
40
0
40
0.125000000000001
40
0.125000000000001
40
0.250000000000002
40
0.250000000000002
40
0.500000000000001
40
0.500000000000001
40
0.750000000000001
40
0.750000000000001
40
1
40
1
40
1
40
1
41
1
10
10.5386751345948
20
-9.34922131452512
30
0
41
1
10
10.5071959726827
20
-9.34922131452512
30
0
41
1
10
10.4765695733597
20
-9.35536120669457
30
0
41
1
10
10.4184736929997
20
-9.37748487924966
30
0
41
1
10
10.3920418953324
20
-9.39290424748307
30
0
41
1
10
10.3182367311259
20
-9.44829073160849
30
0
41
1
10
10.2791703657593
20
-9.49467220053413
30
0
41
1
10
10.2125137122668
20
-9.594536803469
30
0
41
1
10
10.1857347330743
20
-9.64728479257934
30
0
41
1
10
10.1400559187761
20
-9.75611455014877
30
0
41
1
10
10.1212556944726
20
-9.81241059371428
30
0
41
1
10
10.1056624327025
20
-9.86941261896618
30
0
0
SPLINE
5
13A
100
AcDbEntity
8
1
62
256
6
ByLayer
370
18
48
1
60
0
100
AcDbSpline
70
4
71
3
72
16
73
12
40
0
40
0
40
0
40
0
40
0.25
40
0.25
40
0.5
40
0.5
40
0.75
40
0.75
40
0.875
40
0.875
40
1
40
1
40
1
40
1
41
1
10
13.8943375672974
20
-9.86941261896621
30
0
41
1
10
13.8787501654512
20
-9.81243201498805
30
0
41
1
10
13.8600981524864
20
-9.7565502308297
30
0
41
1
10
13.814513590311
20
-9.64780841973393
30
0
41
1
10
13.7875017792165
20
-9.59456078532611
30
0
41
1
10
13.720820003123
20
-9.49465699870629
30
0
41
1
10
13.6810618560869
20
-9.44778039735209
30
0
41
1
10
13.6084081576259
20
-9.39323398486457
30
0
41
1
10
13.5814155034803
20
-9.37745951316342
30
0
41
1
10
13.5238105256953
20
-9.35548920253851
30
0
41
1
10
13.4927587974109
20
-9.34922131452501
30
0
41
1
10
13.4613248654052
20
-9.34922131452501
30
0
0
SPLINE
5
13B
100
AcDbEntity
8
1
62
256
6
ByLayer
370
18
48
1
60
0
100
AcDbSpline
70
4
71
3
72
14
73
10
40
0
40
0
40
0
40
0
40
0.25
40
0.25
40
0.5
40
0.5
40
0.75
40
0.75
40
1
40
1
40
1
40
1
41
1
10
22.1861384096169
20
30.8492969840993
30
0
41
1
10
22.2342423243001
20
30.8538908468942
30
0
41
1
10
22.2823092130685
20
30.8626122232328
30
0
41
1
10
22.3782735376857
20
30.8887003458822
30
0
41
1
10
22.4259481112616
20
30.9061084849727
30
0
41
1
10
22.5173208723495
20
30.9485854535439
30
0
41
1
10
22.5614755444322
20
30.9737600835903
30
0
41
1
10
22.6463708578113
20
31.0324234731617
30
0
41
1
10
22.6870328305491
20
31.0660099316569
30
0
41
1
10
22.7241065253348
20
31.1025373815214
30
0
0
SPLINE
5
13C
100
AcDbEntity
8
1
62
256
6
ByLayer
370
18
48
1
60
0
100
AcDbSpline
70
4
71
3
72
14
73
10
40
0
40
0
40
0
40
0
40
0.210597484536856
40
0.210597484536856
40
0.407948113402642
40
0.407948113402642
40
0.605298742268428
40
0.605298742268428
40
1
40
1
40
1
40
1
41
1
10
22.652643231693
20
31.6500086984037
30
0
41
1
10
22.6526990912499
20
31.649242865203
30
0
41
1
10
22.6539038732394
20
31.6405770591515
30
0
41
1
10
22.6585784185027
20
31.6084924237992
30
0
41
1
10
22.6618338335249
20
31.5860049021911
30
0
41
1
10
22.6701655071807
20
31.5269763602725
30
0
41
1
10
22.6752455516339
20
31.4903973177932
30
0
41
1
10
22.692777285018
20
31.3598706137055
30
0
41
1
10
22.7075289901432
20
31.2450978535448
30
0
41
1
10
22.7241065253348
20
31.1025373815214
30
0
0
SPLINE
5
13D
100
AcDbEntity
8
1
62
256
6
ByLayer
370
18
48
1
60
0
100
AcDbSpline
70
4
71
3
72
22
73
18
40
0
40
0
40
0
40
0
40
0.250000000000002
40
0.250000000000002
40
0.312500000000003
40
0.312500000000003
40
0.375000000000004
40
0.375000000000004
40
0.500000000000004
40
0.500000000000004
40
0.625000000000005
40
0.625000000000005
40
0.687500000000005
40
0.687500000000005
40
0.750000000000004
40
0.750000000000004
40
1
40
1
40
1
40
1
41
1
10
19.8805459037026
20
29.9850116132029
30
0
41
1
10
19.9105671689421
20
30.0954607356012
30
0
41
1
10
19.9837889807292
20
30.19664247449
30
0
41
1
10
20.1298818030594
20
30.3128088070581
30
0
41
1
10
20.1618690127445
20
30.3355233372456
30
0
41
1
10
20.2315654242975
20
30.3799347239518
30
0
41
1
10
20.2692469173455
20
30.4015930693559
30
0
41
1
10
20.3892626600103
20
30.4641612517418
30
0
41
1
10
20.4790294546591
20
30.502998579841
30
0
41
1
10
20.6779371451878
20
30.5755002217927
30
0
41
1
10
20.7870750525454
20
30.6091636146663
30
0
41
1
10
20.9659298049445
20
30.6560647705262
30
0
41
1
10
21.028326873569
20
30.6711474392303
30
0
41
1
10
21.1564743695222
20
30.6997363296123
30
0
41
1
10
21.2223439224707
20
30.7132833649601
30
0
41
1
10
21.5604964702935
20
30.7775442048416
30
0
41
1
10
21.8587282294849
20
30.8180297274719
30
0
41
1
10
22.1861384096169
20
30.8492969840993
30
0
0
SPLINE
5
13E
100
AcDbEntity
8
1
62
256
6
ByLayer
370
18
48
1
60
0
100
AcDbSpline
70
4
71
3
72
8
73
4
40
0
40
0
40
0
40
0
40
1
40
1
40
1
40
1
41
1
10
23.5296308154319
20
-31.1294209147088
30
0
41
1
10
23.2538642951609
20
-31.1253698304724
30
0
41
1
10
22.9854571798864
20
-31.1164615358344
30
0
41
1
10
22.724106525351
20
-31.1025373815222
30
0
0
SPLINE
5
13F
100
AcDbEntity
8
1
62
256
6
ByLayer
370
18
48
1
60
0
100
AcDbSpline
70
4
71
3
72
16
73
12
40
0
40
0
40
0
40
0
40
0.124999999999999
40
0.124999999999999
40
0.249999999999998
40
0.249999999999998
40
0.499999999999999
40
0.499999999999999
40
0.749999999999999
40
0.749999999999999
40
1
40
1
40
1
40
1
41
1
10
13.4613248654052
20
-30.0805927603169
30
0
41
1
10
13.4928040273173
20
-30.0805927603169
30
0
41
1
10
13.5234304266402
20
-30.078685990659
30
0
41
1
10
13.5815263070002
20
-30.0717959485601
30
0
41
1
10
13.6079581046676
20
-30.0669872793662
30
0
41
1
10
13.6817632688741
20
-30.049647240705
30
0
41
1
10
13.7208296342407
20
-30.0350452819075
30
0
41
1
10
13.7874862877332
20
-30.0032932993815
30
0
41
1
10
13.8142652669256
20
-29.9863830332716
30
0
41
1
10
13.8599440812239
20
-29.9511519005795
30
0
41
1
10
13.8787443055274
20
-29.9327613369587
30
0
41
1
10
13.8943375672974
20
-29.9139548464691
30
0
0
SPLINE
5
140
100
AcDbEntity
8
1
62
256
6
ByLayer
370
18
48
1
60
0
100
AcDbSpline
70
4
71
3
72
16
73
12
40
0
40
0
40
0
40
0
40
0.250000000000002
40
0.250000000000002
40
0.500000000000005
40
0.500000000000005
40
0.750000000000007
40
0.750000000000007
40
0.875000000000004
40
0.875000000000004
40
1
40
1
40
1
40
1
41
1
10
13.8943375672974
20
29.9139548464691
30
0
41
1
10
13.8787501654512
20
29.9327542695084
30
0
41
1
10
13.8600981524864
20
29.9510098933136
30
0
41
1
10
13.8145135903111
20
29.9862144781928
30
0
41
1
10
13.7875017792166
20
30.0032856662985
30
0
41
1
10
13.720820003123
20
30.0350501233767
30
0
41
1
10
13.6810618560869
20
30.0498069467437
30
0
41
1
10
13.6084081576259
20
30.0668840803113
30
0
41
1
10
13.5814155034803
20
30.0718038277879
30
0
41
1
10
13.5238105256953
20
30.0786461490401
30
0
41
1
10
13.4927587974109
20
30.0805927603169
30
0
41
1
10
13.4613248654052
20
30.0805927603169
30
0
0
SPLINE
5
141
100
AcDbEntity
8
1
62
256
6
ByLayer
370
18
48
1
60
0
100
AcDbSpline
70
4
71
3
72
20
73
16
40
0
40
0
40
0
40
0
40
0.25
40
0.25
40
0.374999999999999
40
0.374999999999999
40
0.499999999999999
40
0.499999999999999
40
0.624999999999999
40
0.624999999999999
40
0.75
40
0.75
40
0.875
40
0.875
40
1
40
1
40
1
40
1
41
1
10
22.1861384096169
20
-30.8492969840993
30
0
41
1
10
21.8592688804593
20
-30.8180813589538
30
0
41
1
10
21.5608231666033
20
-30.777617741946
30
0
41
1
10
21.1541281873153
20
-30.7003142480126
30
0
41
1
10
21.0248700123375
20
-30.6715241836478
30
0
41
1
10
20.7875047015267
20
-30.609272779929
30
0
41
1
10
20.6785273409656
20
-30.5756941029765
30
0
41
1
10
20.4794686497435
20
-30.5031798009355
30
0
41
1
10
20.3893878979807
20
-30.4642456350143
30
0
41
1
10
20.2285450965117
20
-30.3803547013359
30
0
41
1
10
20.1594663009165
20
-30.3362681020982
30
0
41
1
10
20.0429053570502
20
-30.2437134788923
30
0
41
1
10
19.9953960460481
20
-30.1952287838355
30
0
41
1
10
19.921711998365
20
-30.0935516788776
30
0
41
1
10
19.8955342153815
20
-30.0401540550008
30
0
41
1
10
19.8805459037026
20
-29.9850116132029
30
0
0
SPLINE
5
142
100
AcDbEntity
8
1
62
256
6
ByLayer
370
18
48
1
60
0
100
AcDbSpline
70
4
71
3
72
16
73
12
40
0
40
0
40
0
40
0
40
0.25
40
0.25
40
0.5
40
0.5
40
0.75
40
0.75
40
0.875
40
0.875
40
1
40
1
40
1
40
1
41
1
10
10.1056624327026
20
-29.9139548464691
30
0
41
1
10
10.1212498345487
20
-29.9327542695084
30
0
41
1
10
10.1399018475135
20
-29.9510098933136
30
0
41
1
10
10.1854864096889
20
-29.9862144781928
30
0
41
1
10
10.2124982207834
20
-30.0032856662985
30
0
41
1
10
10.279179996877
20
-30.0350501233766
30
0
41
1
10
10.3189381439131
20
-30.0498069467437
30
0
41
1
10
10.3915918423741
20
-30.0668840803113
30
0
41
1
10
10.4185844965196
20
-30.0718038277879
30
0
41
1
10
10.4761894743047
20
-30.0786461490401
30
0
41
1
10
10.5072412025891
20
-30.0805927603169
30
0
41
1
10
10.5386751345948
20
-30.0805927603169
30
0
0
SPLINE
5
143
100
AcDbEntity
8
1
62
256
6
ByLayer
370
18
48
1
60
0
100
AcDbSpline
70
4
71
3
72
14
73
10
40
0
40
0
40
0
40
0
40
0.394404567335741
40
0.394404567335741
40
0.591606851003611
40
0.591606851003611
40
0.788809134671481
40
0.788809134671481
40
1
40
1
40
1
40
1
41
1
10
22.7241065253347
20
-31.1025373815222
30
0
41
1
10
22.7075504071215
20
-31.2449136757093
30
0
41
1
10
22.6927964108328
20
-31.3597206654062
30
0
41
1
10
22.6752754435561
20
-31.4901785313571
30
0
41
1
10
22.6701999311387
20
-31.5267291861761
30
0
41
1
10
22.6618670362361
20
-31.5857729260472
30
0
41
1
10
22.6586075039847
20
-31.6082916013862
30
0
41
1
10
22.6539121995197
20
-31.6405211705518
30
0
41
1
10
22.6526995696415
20
-31.6492458553652
30
0
41
1
10
22.6526444604467
20
-31.6500098796898
30
0
0
SPLINE
5
144
100
AcDbEntity
8
1
62
256
6
ByLayer
370
18
48
1
60
0
100
AcDbSpline
70
4
71
3
72
10
73
6
40
0
40
0
40
0
40
0
40
0.5
40
0.5
40
1
40
1
40
1
40
1
41
1
10
22.7241065253348
20
31.1025373815214
30
0
41
1
10
22.8543198737719
20
31.1094748455212
30
0
41
1
10
22.9865736741416
20
31.1151662322563
30
0
41
1
10
23.2552340965752
20
31.1241273005851
30
0
41
1
10
23.3921027026305
20
31.1274005898003
30
0
41
1
10
23.5296308154319
20
31.1294209147088
30
0
0
SPLINE
5
145
100
AcDbEntity
8
1
62
256
6
ByLayer
370
18
48
1
60
0
100
AcDbSpline
70
4
71
3
72
18
73
14
40
0
40
0
40
0
40
0
40
0.194552483985883
40
0.194552483985883
40
0.389104967971766
40
0.389104967971766
40
0.583657451957649
40
0.583657451957649
40
0.778209935943531
40
0.778209935943531
40
0.972762419929414
40
0.972762419929414
40
1
40
1
40
1
40
1
41
1
10
55.3064970199149
20
2.08318181724604
30
0
41
1
10
55.3164030255272
20
2.08318181724604
30
0
41
1
10
55.3121113378978
20
2.0820068312772
30
0
41
1
10
55.2812075981739
20
2.07675979500641
30
0
41
1
10
55.2556365476678
20
2.07277247362575
30
0
41
1
10
55.1925611875407
20
2.06129396923148
30
0
41
1
10
55.1549594185093
20
2.05376796647562
30
0
41
1
10
55.0745203081161
20
2.03505309061663
30
0
41
1
10
55.0313002816477
20
2.02381237579962
30
0
41
1
10
54.9410798734233
20
1.99712449806279
30
0
41
1
10
54.8938463300171
20
1.98159285543846
30
0
41
1
10
54.8394454683022
20
1.96160451348354
30
0
41
1
10
54.8327527456299
20
1.95911025350958
30
0
41
1
10
54.8260492239081
20
1.95657630179031
30
0
0
SPLINE
5
146
100
AcDbEntity
8
1
62
256
6
ByLayer
370
18
48
1
60
0
100
AcDbSpline
70
4
71
3
72
10
73
6
40
0
40
0
40
0
40
0
40
0.268069678835896
40
0.268069678835896
40
1
40
1
40
1
40
1
41
1
10
56.7936893034584
20
1.96876061436149
30
0
41
1
10
56.7755317345352
20
1.98065450924338
30
0
41
1
10
56.7571957251995
20
1.99230989817937
30
0
41
1
10
56.6881248290424
20
2.03489286801769
30
0
41
1
10
56.6359942765431
20
2.06438532906341
30
0
41
1
10
56.5831466951433
20
2.09168471067568
30
0
0
SPLINE
5
147
100
AcDbEntity
8
1
62
256
6
ByLayer
370
18
48
1
60
0
100
AcDbSpline
70
4
71
3
72
18
73
14
40
0
40
0
40
0
40
0
40
0.0640907157861194
40
0.0640907157861194
40
0.324526521058229
40
0.324526521058229
40
0.454744423694283
40
0.454744423694283
40
0.584962326330337
40
0.584962326330337
40
0.845398131602445
40
0.845398131602445
40
1
40
1
40
1
40
1
41
1
10
55.3816681443412
20
-2.34538349103721
30
0
41
1
10
55.4107989575822
20
-2.34721429091874
30
0
41
1
10
55.4399321383922
20
-2.34849828858617
30
0
41
1
10
55.5873646119383
20
-2.35224988357456
30
0
41
1
10
55.7058188861109
20
-2.34636529553396
30
0
41
1
10
55.8837707323187
20
-2.32401991524571
30
0
41
1
10
55.9433396386336
20
-2.31425257406516
30
0
41
1
10
56.0605948042054
20
-2.29051521604589
30
0
41
1
10
56.1184796505138
20
-2.27653570762789
30
0
41
1
10
56.2899647348634
20
-2.22849740801752
30
0
41
1
10
56.4014053113808
20
-2.18835332504926
30
0
41
1
10
56.5744442530545
20
-2.11199697267983
30
0
41
1
10
56.6380324568028
20
-2.08066234447267
30
0
41
1
10
56.699956847845
20
-2.04707869522153
30
0
0
SPLINE
5
148
100
AcDbEntity
8
1
62
256
6
ByLayer
370
18
48
1
60
0
100
AcDbSpline
70
4
71
3
72
8
73
4
40
0
40
0
40
0
40
0
40
1
40
1
40
1
40
1
41
1
10
56.0234693042942
20
2.27375297979893
30
0
41
1
10
55.9030224457059
20
2.31678964708212
30
0
41
1
10
55.7780158583009
20
2.36211866014702
30
0
41
1
10
55.6499573570944
20
2.40898198413473
30
0
0
SPLINE
5
149
100
AcDbEntity
8
1
62
256
6
ByLayer
370
18
48
1
60
0
100
AcDbSpline
70
4
71
3
72
8
73
4
40
0
40
0
40
0
40
0
40
1
40
1
40
1
40
1
41
1
10
56.1669378190451
20
2.19175905563841
30
0
41
1
10
56.3072507268384
20
2.17182955116238
30
0
41
1
10
56.4462525547892
20
2.13867805958407
30
0
41
1
10
56.5831466951433
20
2.09168471067559
30
0
0
SPLINE
5
14A
100
AcDbEntity
8
1
62
256
6
ByLayer
370
18
48
1
60
0
100
AcDbSpline
70
4
71
3
72
8
73
4
40
0
40
0
40
0
40
0
40
1
40
1
40
1
40
1
41
1
10
54.6090788916414
20
1.63847813740668
30
0
41
1
10
54.7403967464926
20
1.51029462000417
30
0
41
1
10
54.8718134029254
20
1.38210255300382
30
0
41
1
10
55.0034303187919
20
1.25389355989165
30
0
0
SPLINE
5
14B
100
AcDbEntity
8
1
62
256
6
ByLayer
370
18
48
1
60
0
100
AcDbSpline
70
4
71
3
72
8
73
4
40
0
40
0
40
0
40
0
40
1
40
1
40
1
40
1
41
1
10
58.5986972889089
20
-0.0736198865375002
30
0
41
1
10
58.457823021427
20
-0.0849953415201128
30
0
41
1
10
58.3168544558306
20
-0.0962964796268011
30
0
41
1
10
58.1756948124178
20
-0.107446606046295
30
0
0
SPLINE
5
14C
100
AcDbEntity
8
1
62
256
6
ByLayer
370
18
48
1
60
0
100
AcDbSpline
70
4
71
3
72
8
73
4
40
0
40
0
40
0
40
0
40
1
40
1
40
1
40
1
41
1
10
57.6943452797798
20
-1.25389355989162
30
0
41
1
10
57.7769933219097
20
-1.38210255300379
30
0
41
1
10
57.8593939887828
20
-1.51029462000415
30
0
41
1
10
57.9416727443593
20
-1.63847813740665
30
0
0
SPLINE
5
14D
100
AcDbEntity
8
1
62
256
6
ByLayer
370
18
48
1
60
0
100
AcDbSpline
70
4
71
3
72
22
73
18
40
0
40
0
40
0
40
0
40
0.062499999999999
40
0.062499999999999
40
0.124999999999998
40
0.124999999999998
40
0.187499999999997
40
0.187499999999997
40
0.249999999999996
40
0.249999999999996
40
0.374999999999997
40
0.374999999999997
40
0.499999999999998
40
0.499999999999998
40
0.749999999999999
40
0.749999999999999
40
1
40
1
40
1
40
1
41
1
10
55.1845658161509
20
2.08318181724604
30
0
41
1
10
55.1803573153977
20
2.08318181724604
30
0
41
1
10
55.1810075591749
20
2.08484911815887
30
0
41
1
10
55.1904612338838
20
2.09081308495402
30
0
41
1
10
55.1992216592881
20
2.09504968672792
30
0
41
1
10
55.2218777854029
20
2.10467403376086
30
0
41
1
10
55.2360070862391
20
2.11015765126498
30
0
41
1
10
55.2673291251209
20
2.12136011766418
30
0
41
1
10
55.2845620856995
20
2.12710388791305
30
0
41
1
10
55.3397120364131
20
2.14417552124718
30
0
41
1
10
55.3812985359513
20
2.15536517425991
30
0
41
1
10
55.4680986804701
20
2.17505406431835
30
0
41
1
10
55.51359659045
20
2.18366846181496
30
0
41
1
10
55.6545199353363
20
2.20490032235415
30
0
41
1
10
55.7549663979563
20
2.21284687361094
30
0
41
1
10
55.9586013124946
20
2.21361163213894
30
0
41
1
10
56.0622455704236
20
2.20662913901367
30
0
41
1
10
56.1669378190451
20
2.19175905563841
30
0
0
SPLINE
5
14E
100
AcDbEntity
8
1
62
256
6
ByLayer
370
18
48
1
60
0
100
AcDbSpline
70
4
71
3
72
14
73
10
40
0
40
0
40
0
40
0
40
0.25
40
0.25
40
0.5
40
0.5
40
0.75
40
0.75
40
1
40
1
40
1
40
1
41
1
10
56.5831466951434
20
2.09168471067565
30
0
41
1
10
56.5635813612104
20
2.0967695528546
30
0
41
1
10
56.5311390291123
20
2.10863804805993
30
0
41
1
10
56.4528256917531
20
2.13804522237325
30
0
41
1
10
56.4061365214247
20
2.15577814566603
30
0
41
1
10
56.3066735536354
20
2.19122370298905
30
0
41
1
10
56.2534181926221
20
2.20915464330079
30
0
41
1
10
56.1415736942467
20
2.24325678569627
30
0
41
1
10
56.0829925429338
20
2.25941140058592
30
0
41
1
10
56.0234693042942
20
2.27375297979893
30
0
0
SPLINE
5
14F
100
AcDbEntity
8
1
62
256
6
ByLayer
370
18
48
1
60
0
100
AcDbSpline
70
4
71
3
72
8
73
4
40
0
40
0
40
0
40
0
40
1
40
1
40
1
40
1
41
1
10
54.522080786154
20
0.107446606046324
30
0
41
1
10
54.3319522690045
20
0.0962964796268295
30
0
41
1
10
54.1419677138484
20
0.0849953415201412
30
0
41
1
10
53.9520543470918
20
0.0736198865375286
30
0
0
SPLINE
5
150
100
AcDbEntity
8
1
62
256
6
ByLayer
370
18
48
1
60
0
100
AcDbSpline
70
4
71
3
72
8
73
4
40
0
40
0
40
0
40
0
40
1
40
1
40
1
40
1
41
1
10
46.3141022188863
20
5.52535401236278
30
0
41
1
10
46.295515438374
20
5.70640707350373
30
0
41
1
10
46.2800235720791
20
5.88248316200892
30
0
41
1
10
46.2664053516343
20
6.05554621575135
30
0
0
SPLINE
5
151
100
AcDbEntity
8
1
62
256
6
ByLayer
370
18
48
1
60
0
100
AcDbSpline
70
4
71
3
72
10
73
6
40
0
40
0
40
0
40
0
40
0.5
40
0.5
40
1
40
1
40
1
40
1
41
1
10
44.6714971454153
20
6.73998239894877
30
0
41
1
10
44.5985132135756
20
6.68721583529017
30
0
41
1
10
44.5248738164417
20
6.63367033238899
30
0
41
1
10
44.3783479115353
20
6.52634474414404
30
0
41
1
10
44.3054006707172
20
6.47252167860231
30
0
41
1
10
44.2328278298173
20
6.41850854845862
30
0
0
SPLINE
5
152
100
AcDbEntity
8
1
62
256
6
ByLayer
370
18
48
1
60
0
100
AcDbSpline
70
4
71
3
72
10
73
6
40
0
40
0
40
0
40
0
40
0.5
40
0.5
40
1
40
1
40
1
40
1
41
1
10
46.2664053516343
20
6.05554621575135
30
0
41
1
10
46.1832223726556
20
6.08965334607407
30
0
41
1
10
46.0995902186973
20
6.12411404864596
30
0
41
1
10
45.9311384682887
20
6.19397016015506
30
0
41
1
10
45.8468529213121
20
6.22914707156875
30
0
41
1
10
45.7633440590293
20
6.26426456864974
30
0
0
SPLINE
5
153
100
AcDbEntity
8
1
62
256
6
ByLayer
370
18
48
1
60
0
100
AcDbSpline
70
4
71
3
72
10
73
6
40
0
40
0
40
0
40
0
40
0.5
40
0.5
40
1
40
1
40
1
40
1
41
1
10
45.0938097821263
20
3.26273449037663
30
0
41
1
10
45.0106268031476
20
3.29684162069938
30
0
41
1
10
44.9269946491892
20
3.33130232327127
30
0
41
1
10
44.7585428987806
20
3.40115843478037
30
0
41
1
10
44.6742573518041
20
3.43633534619406
30
0
41
1
10
44.5907484895212
20
3.47145284327505
30
0
0
SPLINE
5
154
100
AcDbEntity
8
1
62
256
6
ByLayer
370
18
48
1
60
0
100
AcDbSpline
70
4
71
3
72
10
73
6
40
0
40
0
40
0
40
0
40
0.5
40
0.5
40
1
40
1
40
1
40
1
41
1
10
43.9685726490023
20
3.73845232067566
30
0
41
1
10
43.8879122315929
20
3.77379067186533
30
0
41
1
10
43.8076879511755
20
3.80922176036253
30
0
41
1
10
43.6511794990715
20
3.87881225267355
30
0
41
1
10
43.5744585178399
20
3.91316096669669
30
0
41
1
10
43.4989015759073
20
3.94717067357408
30
0
0
SPLINE
5
155
100
AcDbEntity
8
1
62
256
6
ByLayer
370
18
48
1
60
0
100
AcDbSpline
70
4
71
3
72
10
73
6
40
0
40
0
40
0
40
0
40
0.5
40
0.5
40
1
40
1
40
1
40
1
41
1
10
46.4775616699899
20
4.31692226146529
30
0
41
1
10
46.4632711137148
20
4.40394775547898
30
0
41
1
10
46.4491915228992
20
4.4922579185652
30
0
41
1
10
46.4220461616893
20
4.66926513089302
30
0
41
1
10
46.4089674660416
20
4.75803306542076
30
0
41
1
10
46.3964745832277
20
4.84711446485386
30
0
0
SPLINE
5
156
100
AcDbEntity
8
1
62
256
6
ByLayer
370
18
48
1
60
0
100
AcDbSpline
70
4
71
3
72
10
73
6
40
0
40
0
40
0
40
0
40
0.5
40
0.5
40
1
40
1
40
1
40
1
41
1
10
43.2877452575518
20
5.68579462786013
30
0
41
1
10
43.2945932377311
20
5.59876913384642
30
0
41
1
10
43.3019642301363
20
5.51045897076023
30
0
41
1
10
43.317814010211
20
5.33345175843237
30
0
41
1
10
43.3262970906986
20
5.24468382390464
30
0
41
1
10
43.3354421248038
20
5.15560242447157
30
0
0
SPLINE
5
157
100
AcDbEntity
8
1
62
256
6
ByLayer
370
18
48
1
60
0
100
AcDbSpline
70
4
71
3
72
10
73
6
40
0
40
0
40
0
40
0
40
0.5
40
0.5
40
1
40
1
40
1
40
1
41
1
10
45.1411682185103
20
6.53126404605035
30
0
41
1
10
45.0605078011008
20
6.56660239724005
30
0
41
1
10
44.9802835206835
20
6.60203348573725
30
0
41
1
10
44.8237750685795
20
6.67162397804825
30
0
41
1
10
44.7470540873479
20
6.70597269207138
30
0
41
1
10
44.6714971454153
20
6.73998239894877
30
0
0
SPLINE
5
158
100
AcDbEntity
8
1
62
256
6
ByLayer
370
18
48
1
60
0
100
AcDbSpline
70
4
71
3
72
8
73
4
40
0
40
0
40
0
40
0
40
1
40
1
40
1
40
1
41
1
10
46.0388923543918
20
3.99544841097511
30
0
41
1
10
46.1863926752696
20
4.10522713713522
30
0
41
1
10
46.3324223374131
20
4.21198815283717
30
0
41
1
10
46.4775616699899
20
4.31692226146529
30
0
0
SPLINE
5
159
100
AcDbEntity
8
1
62
256
6
ByLayer
370
18
48
1
60
0
100
AcDbSpline
70
4
71
3
72
8
73
4
40
0
40
0
40
0
40
0
40
1
40
1
40
1
40
1
41
1
10
43.4178144891452
20
4.47736287696264
30
0
41
1
10
43.4432055886377
20
4.2963098158217
30
0
41
1
10
43.4704826931803
20
4.12023372731647
30
0
41
1
10
43.4989015759073
20
3.94717067357405
30
0
0
SPLINE
5
15A
100
AcDbEntity
8
1
62
256
6
ByLayer
370
18
48
1
60
0
100
AcDbSpline
70
4
71
3
72
8
73
4
40
0
40
0
40
0
40
0
40
1
40
1
40
1
40
1
41
1
10
43.6930243536397
20
6.00726847835028
30
0
41
1
10
43.5523283517421
20
5.89748975219021
30
0
41
1
10
43.4180839278464
20
5.79072873648826
30
0
41
1
10
43.2877452575518
20
5.68579462786013
30
0
0
SPLINE
5
15B
100
AcDbEntity
8
1
62
256
6
ByLayer
370
18
48
1
60
0
100
AcDbSpline
70
4
71
3
72
10
73
6
40
0
40
0
40
0
40
0
40
0.5
40
0.5
40
1
40
1
40
1
40
1
41
1
10
45.0938097821263
20
3.26273449037663
30
0
41
1
10
45.1593511378704
20
3.31550105403525
30
0
41
1
10
45.2262819365938
20
3.36904655693644
30
0
41
1
10
45.361512260365
20
3.47637214518139
30
0
41
1
10
45.429863886023
20
3.53019521072309
30
0
41
1
10
45.4990888782143
20
3.58420834086681
30
0
0
INSERT
5
16E
100
AcDbEntity
8
2
62
256
6
ByLayer
370
25
48
1
60
0
100
AcDbBlockReference
2
DimnDraft3D11
10
0
20
0
30
0
41
1
42
1
43
1
50
0
210
0
220
0
230
1
0
LINE
5
72
100
AcDbEntity
8
1
62
256
6
ByLayer
370
18
48
1
60
0
100
AcDbLine
10
44.785095
20
9.001358
30
0
11
44.723852
21
9.001358
31
0
39
0
210
0
220
0
230
1
0
LINE
5
73
100
AcDbEntity
8
1
62
256
6
ByLayer
370
18
48
1
60
0
100
AcDbLine
10
55.394056
20
-2.35
30
0
11
55.530023
21
-2.35
31
0
39
0
210
0
220
0
230
1
0
LINE
5
74
100
AcDbEntity
8
1
62
256
6
ByLayer
370
18
48
1
60
0
100
AcDbLine
10
55.865708
20
2.213244
30
0
11
55.853337
21
2.213244
31
0
39
0
210
0
220
0
230
1
0
LINE
5
75
100
AcDbEntity
8
1
62
256
6
ByLayer
370
18
48
1
60
0
100
AcDbLine
10
19.435093
20
1.982154
30
0
11
18.993312
21
1.718025
31
0
39
0
210
0
220
0
230
1
0
LINE
5
76
100
AcDbEntity
8
1
62
256
6
ByLayer
370
18
48
1
60
0
100
AcDbLine
10
44.723852
20
1.001358
30
0
11
44.785095
21
1.001358
31
0
39
0
210
0
220
0
230
1
0
LINE
5
77
100
AcDbEntity
8
1
62
256
6
ByLayer
370
18
48
1
60
0
100
AcDbLine
10
56.062809
20
2.093722
30
0
11
55.415904
21
2.093722
31
0
39
0
210
0
220
0
230
1
0
LINE
5
78
100
AcDbEntity
8
1
62
256
6
ByLayer
370
18
48
1
60
0
100
AcDbLine
10
55.841037
20
-2.093722
30
0
11
56.487943
21
-2.093722
31
0
39
0
210
0
220
0
230
1
0
LINE
5
79
100
AcDbEntity
8
1
62
256
6
ByLayer
370
18
48
1
60
0
100
AcDbLine
10
22.610313
20
1.751373
30
0
11
22.425826
21
1.94597
31
0
39
0
210
0
220
0
230
1
0
LINE
5
7A
100
AcDbEntity
8
1
62
256
6
ByLayer
370
18
48
1
60
0
100
AcDbLine
10
22.425826
20
-1.94597
30
0
11
22.610313
21
-1.751373
31
0
39
0
210
0
220
0
230
1
0
LINE
5
7B
100
AcDbEntity
8
1
62
256
6
ByLayer
370
18
48
1
60
0
100
AcDbLine
10
18.993312
20
-1.718025
30
0
11
19.435093
21
-1.982154
31
0
39
0
210
0
220
0
230
1
0
LINE
5
7C
100
AcDbEntity
8
1
62
256
6
ByLayer
370
18
48
1
60
0
100
AcDbLine
10
56.442542
20
8.651474
30
0
11
55.74234
21
8.651474
31
0
39
0
210
0
220
0
230
1
0
LINE
5
7D
100
AcDbEntity
8
1
62
256
6
ByLayer
370
18
48
1
60
0
100
AcDbLine
10
55.74234
20
-8.651474
30
0
11
56.442542
21
-8.651474
31
0
39
0
210
0
220
0
230
1
0
LINE
5
7E
100
AcDbEntity
8
1
62
256
6
ByLayer
370
18
48
1
60
0
100
AcDbLine
10
0.3
20
-31.5
30
0
11
22.186138
21
-31.5
31
0
39
0
210
0
220
0
230
1
0
LINE
5
7F
100
AcDbEntity
8
1
62
256
6
ByLayer
370
18
48
1
60
0
100
AcDbLine
10
22.186138
20
31.5
30
0
11
0.3
21
31.5
31
0
39
0
210
0
220
0
230
1
0
LINE
5
80
100
AcDbEntity
8
1
62
256
6
ByLayer
370
18
48
1
60
0
100
AcDbLine
10
0.3
20
31.5
30
0
11
0
21
31.2
31
0
39
0
210
0
220
0
230
1
0
LINE
5
81
100
AcDbEntity
8
1
62
256
6
ByLayer
370
18
48
1
60
0
100
AcDbLine
10
0
20
-31.2
30
0
11
0.3
21
-31.5
31
0
39
0
210
0
220
0
230
1
0
LINE
5
82
100
AcDbEntity
8
1
62
256
6
ByLayer
370
18
48
1
60
0
100
AcDbLine
10
22.653646
20
-31.65
30
0
11
22.939628
21
-31.65
31
0
39
0
210
0
220
0
230
1
0
LINE
5
83
100
AcDbEntity
8
1
62
256
6
ByLayer
370
18
48
1
60
0
100
AcDbLine
10
22.939628
20
31.65
30
0
11
22.653737
21
31.65
31
0
39
0
210
0
220
0
230
1
0
LINE
5
84
100
AcDbEntity
8
1
62
256
6
ByLayer
370
18
48
1
60
0
100
AcDbLine
10
22.321958
20
2
30
0
11
19.495061
21
2
31
0
39
0
210
0
220
0
230
1
0
LINE
5
85
100
AcDbEntity
8
1
62
256
6
ByLayer
370
18
48
1
60
0
100
AcDbLine
10
19.495061
20
-2
30
0
11
22.321958
21
-2
31
0
39
0
210
0
220
0
230
1
0
LINE
5
86
100
AcDbEntity
8
SK1
62
256
6
ByLayer
370
18
48
1
60
0
100
AcDbLine
10
-0.2
20
7.059518
30
0
11
-0.2
21
22.533485
31
0
39
0
210
0
220
0
230
1
0
LINE
5
88
100
AcDbEntity
8
SK1
62
256
6
ByLayer
370
18
48
1
60
0
100
AcDbLine
10
-0.2
20
-22.533485
30
0
11
-0.2
21
-7.059517
31
0
39
0
210
0
220
0
230
1
0
LINE
5
89
100
AcDbEntity
8
SK1
62
256
6
ByLayer
370
18
48
1
60
0
100
AcDbLine
10
-1.307107
20
-4.811013
30
0
11
-1.307107
21
4.811013
31
0
39
0
210
0
220
0
230
1
0
LINE
5
8A
100
AcDbEntity
8
1
62
256
6
ByLayer
370
18
48
1
60
0
100
AcDbLine
10
10.538675
20
-30.080593
30
0
11
13.461325
21
-30.080593
31
0
39
0
210
0
220
0
230
1
0
LINE
5
8B
100
AcDbEntity
8
1
62
256
6
ByLayer
370
18
48
1
60
0
100
AcDbLine
10
23.529631
20
-31.129421
30
0
11
23.529631
21
31.129421
31
0
39
0
210
0
220
0
230
1
0
LINE
5
8C
100
AcDbEntity
8
1
62
256
6
ByLayer
370
18
48
1
60
0
100
AcDbLine
10
24.962843
20
30.82963
30
0
11
24.962843
21
-30.82963
31
0
39
0
210
0
220
0
230
1
0
LINE
5
8D
100
AcDbEntity
8
1
62
256
6
ByLayer
370
18
48
1
60
0
100
AcDbLine
10
0
20
-31.2
30
0
11
0
21
31.2
31
0
39
0
210
0
220
0
230
1
0
LINE
5
8E
100
AcDbEntity
8
1
62
256
6
ByLayer
370
18
48
1
60
0
100
AcDbLine
10
52.857865
20
11.407989
30
0
11
24.962843
21
30.82963
31
0
39
0
210
0
220
0
230
1
0
LINE
5
8F
100
AcDbEntity
8
1
62
256
6
ByLayer
370
18
48
1
60
0
100
AcDbLine
10
55.818755
20
8.414571
30
0
11
53.370775
21
5.939697
31
0
39
0
210
0
220
0
230
1
0
LINE
5
90
100
AcDbEntity
8
1
62
256
6
ByLayer
370
18
48
1
60
0
100
AcDbLine
10
10.538675
20
9.349221
30
0
11
13.461325
21
9.349221
31
0
39
0
210
0
220
0
230
1
0
LINE
5
91
100
AcDbEntity
8
1
62
256
6
ByLayer
370
18
48
1
60
0
100
AcDbLine
10
19.880546
20
-29.985012
30
0
11
19.880546
21
-1.999625
31
0
39
0
210
0
220
0
230
1
0
LINE
5
92
100
AcDbEntity
8
1
62
256
6
ByLayer
370
18
48
1
60
0
100
AcDbLine
10
19.880546
20
1.999625
30
0
11
19.880546
21
29.985012
31
0
39
0
210
0
220
0
230
1
0
LINE
5
93
100
AcDbEntity
8
1
62
256
6
ByLayer
370
18
48
1
60
0
100
AcDbLine
10
47.208966
20
-0.291093
30
0
11
47.231217
21
-0.268598
31
0
39
0
210
0
220
0
230
1
0
LINE
5
94
100
AcDbEntity
8
1
62
256
6
ByLayer
370
18
48
1
60
0
100
AcDbLine
10
50.223374
20
2.757716
30
0
11
47.250828
21
-0.247487
31
0
39
0
210
0
220
0
230
1
0
LINE
5
95
100
AcDbEntity
8
1
62
256
6
ByLayer
370
18
48
1
60
0
100
AcDbLine
10
52.669299
20
5.442646
30
0
11
50.715023
21
3.466899
31
0
39
0
210
0
220
0
230
1
0
LINE
5
96
100
AcDbEntity
8
1
62
256
6
ByLayer
370
18
48
1
60
0
100
AcDbLine
10
13.894338
20
29.913955
30
0
11
13.894338
21
9.869413
31
0
39
0
210
0
220
0
230
1
0
LINE
5
97
100
AcDbEntity
8
1
62
256
6
ByLayer
370
18
48
1
60
0
100
AcDbLine
10
10.105662
20
-9.869413
30
0
11
10.105662
21
-29.913955
31
0
39
0
210
0
220
0
230
1
0
LINE
5
98
100
AcDbEntity
8
1
62
256
6
ByLayer
370
18
48
1
60
0
100
AcDbLine
10
13.461325
20
30.080593
30
0
11
10.538675
21
30.080593
31
0
39
0
210
0
220
0
230
1
0
LINE
5
99
100
AcDbEntity
8
1
62
256
6
ByLayer
370
18
48
1
60
0
100
AcDbLine
10
18.925987
20
-0.852888
30
0
11
18.925987
21
-2.900848
31
0
39
0
210
0
220
0
230
1
0
LINE
5
9A
100
AcDbEntity
8
1
62
256
6
ByLayer
370
18
48
1
60
0
100
AcDbLine
10
13.461325
20
30.080593
30
0
11
13.461325
21
9.349221
31
0
39
0
210
0
220
0
230
1
0
LINE
5
9B
100
AcDbEntity
8
1
62
256
6
ByLayer
370
18
48
1
60
0
100
AcDbLine
10
10.538675
20
-9.349221
30
0
11
10.538675
21
-30.080593
31
0
39
0
210
0
220
0
230
1
0
LINE
5
9C
100
AcDbEntity
8
1
62
256
6
ByLayer
370
18
48
1
60
0
100
AcDbLine
10
50.73124
20
-3.281839
30
0
11
50.281895
21
-3.73612
31
0
39
0
210
0
220
0
230
1
0
LINE
5
9D
100
AcDbEntity
8
1
62
256
6
ByLayer
370
18
48
1
60
0
100
AcDbLine
10
18.925987
20
2.900848
30
0
11
18.925987
21
0.852888
31
0
39
0
210
0
220
0
230
1
0
LINE
5
9E
100
AcDbEntity
8
1
62
256
6
ByLayer
370
18
48
1
60
0
100
AcDbLine
10
49.134116
20
-3.690525
30
0
11
49.822095
21
-2.994988
31
0
39
0
210
0
220
0
230
1
0
LINE
5
9F
100
AcDbEntity
8
1
62
256
6
ByLayer
370
18
48
1
60
0
100
AcDbLine
10
0.3
20
-31.5
30
0
11
0.3
21
31.5
31
0
39
0
210
0
220
0
230
1
0
LINE
5
A0
100
AcDbEntity
8
1
62
256
6
ByLayer
370
18
48
1
60
0
100
AcDbLine
10
49.99955
20
-3.268127
30
0
11
50.085295
21
-3.354061
31
0
39
0
210
0
220
0
230
1
0
LINE
5
A1
100
AcDbEntity
8
1
62
256
6
ByLayer
370
18
48
1
60
0
100
AcDbLine
10
49.938162
20
-3.112319
30
0
11
49.261333
21
-3.796584
31
0
39
0
210
0
220
0
230
1
0
LINE
5
A2
100
AcDbEntity
8
1
62
256
6
ByLayer
370
18
48
1
60
0
100
AcDbLine
10
13.461325
20
-9.349221
30
0
11
13.461325
21
-30.080593
31
0
39
0
210
0
220
0
230
1
0
LINE
5
A3
100
AcDbEntity
8
1
62
256
6
ByLayer
370
18
48
1
60
0
100
AcDbLine
10
49.261333
20
-3.796584
30
0
11
50.281895
21
-3.73612
31
0
39
0
210
0
220
0
230
1
0
LINE
5
A4
100
AcDbEntity
8
1
62
256
6
ByLayer
370
18
48
1
60
0
100
AcDbLine
10
10.538675
20
30.080593
30
0
11
10.538675
21
9.349221
31
0
39
0
210
0
220
0
230
1
0
LINE
5
A5
100
AcDbEntity
8
1
62
256
6
ByLayer
370
18
48
1
60
0
100
AcDbLine
10
50.045921
20
-3.221246
30
0
11
49.99955
21
-3.268127
31
0
39
0
210
0
220
0
230
1
0
LINE
5
A6
100
AcDbEntity
8
1
62
256
6
ByLayer
370
18
48
1
60
0
100
AcDbLine
10
13.461325
20
-9.349221
30
0
11
10.538675
21
-9.349221
31
0
39
0
210
0
220
0
230
1
0
LINE
5
A7
100
AcDbEntity
8
1
62
256
6
ByLayer
370
18
48
1
60
0
100
AcDbLine
10
13.894338
20
-9.869413
30
0
11
13.894338
21
-29.913955
31
0
39
0
210
0
220
0
230
1
0
LINE
5
A8
100
AcDbEntity
8
1
62
256
6
ByLayer
370
18
48
1
60
0
100
AcDbLine
10
10.105662
20
29.913955
30
0
11
10.105662
21
9.869413
31
0
39
0
210
0
220
0
230
1
0
LINE
5
A9
100
AcDbEntity
8
1
62
256
6
ByLayer
370
18
48
1
60
0
100
AcDbLine
10
49.915712
20
-3.372943
30
0
11
50.73124
21
-3.281839
31
0
39
0
210
0
220
0
230
1
0
LINE
5
AA
100
AcDbEntity
8
1
62
256
6
ByLayer
370
18
48
1
60
0
100
AcDbLine
10
52.857865
20
-11.407989
30
0
11
55.818714
21
-8.414612
31
0
39
0
210
0
220
0
230
1
0
LINE
5
AB
100
AcDbEntity
8
1
62
256
6
ByLayer
370
18
48
1
60
0
100
AcDbLine
10
52.857865
20
-11.407989
30
0
11
24.962843
21
-30.82963
31
0
39
0
210
0
220
0
230
1
0
LINE
5
AC
100
AcDbEntity
8
1
62
256
6
ByLayer
370
18
48
1
60
0
100
AcDbLine
10
55.818755
20
8.414571
30
0
11
52.857865
21
11.407989
31
0
39
0
210
0
220
0
230
1
0
LINE
5
AD
100
AcDbEntity
8
1
62
256
6
ByLayer
370
18
48
1
60
0
100
AcDbLine
10
50.73124
20
-3.281839
30
0
11
51.946727
21
-4.500003
31
0
39
0
210
0
220
0
230
1
0
LINE
5
AE
100
AcDbEntity
8
1
62
256
6
ByLayer
370
18
48
1
60
0
100
AcDbLine
10
22.186138
20
-30.849297
30
0
11
22.186138
21
-31.5
31
0
39
0
210
0
220
0
230
1
0
LINE
5
AF
100
AcDbEntity
8
1
62
256
6
ByLayer
370
18
48
1
60
0
100
AcDbLine
10
22.186138
20
31.5
30
0
11
22.186138
21
30.849297
31
0
39
0
210
0
220
0
230
1
0
LINE
5
B0
100
AcDbEntity
8
1
62
256
6
ByLayer
370
18
48
1
60
0
100
AcDbLine
10
53.893596
20
0.07362
30
0
11
53.952054
21
0.07362
31
0
39
0
210
0
220
0
230
1
0
LINE
5
B1
100
AcDbEntity
8
1
62
256
6
ByLayer
370
18
48
1
60
0
100
AcDbLine
10
54.609079
20
1.638478
30
0
11
54.473828
21
1.638478
31
0
39
0
210
0
220
0
230
1
0
LINE
5
B2
100
AcDbEntity
8
1
62
256
6
ByLayer
370
18
48
1
60
0
100
AcDbLine
10
44.4592
20
6.585113
30
0
11
44.584683
21
6.531264
31
0
39
0
210
0
220
0
230
1
0
LINE
5
B3
100
AcDbEntity
8
1
62
256
6
ByLayer
370
18
48
1
60
0
100
AcDbLine
10
44.942603
20
3.584208
30
0
11
44.722392
21
3.416444
31
0
39
0
210
0
220
0
230
1
0
LINE
5
B4
100
AcDbEntity
8
1
62
256
6
ByLayer
370
18
48
1
60
0
100
AcDbLine
10
18.922399
20
0.6
30
0
11
18.933586
21
0.6
31
0
39
0
210
0
220
0
230
1
0
LINE
5
B5
100
AcDbEntity
8
1
62
256
6
ByLayer
370
18
48
1
60
0
100
AcDbLine
10
18.933586
20
-0.6
30
0
11
18.922399
21
-0.6
31
0
39
0
210
0
220
0
230
1
0
LINE
5
B6
100
AcDbEntity
8
1
62
256
6
ByLayer
370
18
48
1
60
0
100
AcDbLine
10
48.050787
20
0.561266
30
0
11
48.115042
21
0.561266
31
0
39
0
210
0
220
0
230
1
0
LINE
5
B7
100
AcDbEntity
8
1
62
256
6
ByLayer
370
18
48
1
60
0
100
AcDbLine
10
55.814379
20
-8.41899
30
0
11
55.887375
21
-8.41899
31
0
39
0
210
0
220
0
230
1
0
LINE
5
B8
100
AcDbEntity
8
1
62
256
6
ByLayer
370
18
48
1
60
0
100
AcDbLine
10
50.168189
20
-3.344865
30
0
11
47.41484
21
-0.561266
31
0
39
0
210
0
220
0
230
1
0
LINE
5
B9
100
AcDbEntity
8
1
62
256
6
ByLayer
370
18
48
1
60
0
100
AcDbLine
10
55.887375
20
8.41899
30
0
11
55.814379
21
8.41899
31
0
39
0
210
0
220
0
230
1
0
LINE
5
BA
100
AcDbEntity
8
80
62
256
6
ByLayer
370
18
48
1
60
0
100
AcDbLine
10
0
20
0
30
0
11
-5
21
0
31
0
39
0
210
0
220
0
230
1
0
LINE
5
BB
100
AcDbEntity
8
4
62
256
6
ByLayer
370
18
48
0.05
60
0
100
AcDbLine
10
0
20
0
30
0
11
65
21
0
31
0
39
0
210
0
220
0
230
1
0
LINE
5
BD
100
AcDbEntity
8
81
62
256
6
ByLayer
370
18
48
1
60
0
100
AcDbLine
10
65
20
0.3288
30
0
11
75
21
0.3288
31
0
39
0
210
0
220
0
230
1
0
LINE
5
BE
100
AcDbEntity
8
SK4
62
256
6
ByLayer
370
18
48
0.05
60
0
100
AcDbLine
10
-43
20
0
30
0
11
65
21
0
31
0
39
0
210
0
220
0
230
1
0
LINE
5
C0
100
AcDbEntity
8
1
62
256
6
ByLayer
370
18
48
1
60
0
100
AcDbLine
10
55.184566
20
2.083182
30
0
11
55.306497
21
2.083182
31
0
39
0
210
0
220
0
230
1
0
LINE
5
C1
100
AcDbEntity
8
1
62
256
6
ByLayer
370
18
48
1
60
0
100
AcDbLine
10
45.206858
20
6.264265
30
0
11
45.763344
21
6.264265
31
0
39
0
210
0
220
0
230
1
0
LINE
5
C2
100
AcDbEntity
8
1
62
256
6
ByLayer
370
18
48
1
60
0
100
AcDbLine
10
46.314102
20
5.525354
30
0
11
45.757617
21
5.525354
31
0
39
0
210
0
220
0
230
1
0
LINE
5
C3
100
AcDbEntity
8
1
62
256
6
ByLayer
370
18
48
1
60
0
100
AcDbLine
10
45.839989
20
4.847114
30
0
11
45.904381
21
4.316922
31
0
39
0
210
0
220
0
230
1
0
LINE
5
C4
100
AcDbEntity
8
1
62
256
6
ByLayer
370
18
48
1
60
0
100
AcDbLine
10
45.206858
20
6.264265
30
0
11
45.693225
21
6.055546
31
0
39
0
210
0
220
0
230
1
0
LINE
5
C5
100
AcDbEntity
8
1
62
256
6
ByLayer
370
18
48
1
60
0
100
AcDbLine
10
45.141168
20
6.531264
30
0
11
44.584683
21
6.531264
31
0
39
0
210
0
220
0
230
1
0
LINE
5
C6
100
AcDbEntity
8
1
62
256
6
ByLayer
370
18
48
1
60
0
100
AcDbLine
10
45.839989
20
4.847114
30
0
11
46.396475
21
4.847114
31
0
39
0
210
0
220
0
230
1
0
LINE
5
C7
100
AcDbEntity
8
1
62
256
6
ByLayer
370
18
48
1
60
0
100
AcDbLine
10
44.942603
20
3.584208
30
0
11
45.499089
21
3.584208
31
0
39
0
210
0
220
0
230
1
0
LINE
5
C8
100
AcDbEntity
8
1
62
256
6
ByLayer
370
18
48
1
60
0
100
AcDbLine
10
46.477562
20
4.316922
30
0
11
45.904381
21
4.316922
31
0
39
0
210
0
220
0
230
1
0
LINE
5
C9
100
AcDbEntity
8
1
62
256
6
ByLayer
370
18
48
1
60
0
100
AcDbLine
10
45.693225
20
6.055546
30
0
11
45.757617
21
5.525354
31
0
39
0
210
0
220
0
230
1
0
LINE
5
CA
100
AcDbEntity
8
1
62
256
6
ByLayer
370
18
48
1
60
0
100
AcDbLine
10
46.038892
20
3.995448
30
0
11
45.482407
21
3.995448
31
0
39
0
210
0
220
0
230
1
0
LINE
5
CB
100
AcDbEntity
8
1
62
256
6
ByLayer
370
18
48
1
60
0
100
AcDbLine
10
45.904381
20
4.316922
30
0
11
45.482407
21
3.995448
31
0
39
0
210
0
220
0
230
1
0
LINE
5
CC
100
AcDbEntity
8
1
62
256
6
ByLayer
370
18
48
1
60
0
100
AcDbLine
10
46.266405
20
6.055546
30
0
11
45.693225
21
6.055546
31
0
39
0
210
0
220
0
230
1
0
LINE
5
CD
100
AcDbEntity
8
1
62
256
6
ByLayer
370
18
48
1
60
0
100
AcDbLine
10
56.997709
20
8.41899
30
0
11
64.770042
21
0.561266
31
0
39
0
210
0
220
0
230
1
0
LINE
5
CE
100
AcDbEntity
8
1
62
256
6
ByLayer
370
18
48
1
60
0
100
AcDbLine
10
48.115042
20
0.561266
30
0
11
55.887375
21
8.41899
31
0
39
0
210
0
220
0
230
1
0
LINE
5
CF
100
AcDbEntity
8
1
62
256
6
ByLayer
370
18
48
1
60
0
100
AcDbLine
10
48.115042
20
-0.561266
30
0
11
47.41484
21
-0.561266
31
0
39
0
210
0
220
0
230
1
0
LINE
5
D0
100
AcDbEntity
8
1
62
256
6
ByLayer
370
18
48
1
60
0
100
AcDbLine
10
55.887375
20
-8.41899
30
0
11
48.115042
21
-0.561266
31
0
39
0
210
0
220
0
230
1
0
LINE
5
D1
100
AcDbEntity
8
1
62
256
6
ByLayer
370
18
48
1
60
0
100
AcDbLine
10
64.770042
20
-0.561266
30
0
11
56.997709
21
-8.41899
31
0
39
0
210
0
220
0
230
1
0
MTEXT
5
15C
100
AcDbEntity
8
SK6
62
256
6
ByLayer
370
13
48
1
60
0
100
AcDbMText
10
-4.859793
20
-46.797905
30
0
210
0
220
0
230
1
1
\W0.7351;C6-PSDNN-00065-12
40
3.5
41
0
44
1.084337
50
0
71
7
72
5
7
iso_b_vert
0
DIMENSION
5
17D
100
AcDbEntity
8
SK2
62
256
6
ByLayer
370
13
48
1
60
0
100
AcDbDimension
2
DimnDraft3D2
10
-47.75
20
-31.5
30
0
11
-47.75
21
0
31
0
70
32
71
5
72
1
41
1
210
0
220
0
230
1
3
Standard
100
AcDbAlignedDimension
13
-1.5875
23
31.5
33
0
14
-1.5875
24
-31.5
34
0
50
90
100
AcDbRotatedDimension
1001
ACAD
1000
DSTYLE
1002
{
1070
    74
1070
     0
1070
   279
1070
     0
1070
   172
1070
     1
1070
   173
1070
     1
1070
   340
1005
15D
1070
   271
1070
     1
1070
   272
1070
     2
1070
    77
1070
     1
1070
    73
1070
     0
1070
   171
1070
     3
1070
   274
1070
     4
1070
   177
1070
   150
1070
   176
1070
     9
1070
   178
1070
    43
1070
    78
1070
     8
1070
    48
1040
-0.005
1070
    41
1041
3.175
1070
   147
1041
2.25
1070
    42
1041
1.5875
1070
    44
1041
3.175
1070
   140
1041
4.5
1070
   343
1005
17E
1070
   344
1005
17E
1002
}
0
DIMENSION
5
192
100
AcDbEntity
8
2
62
256
6
ByLayer
370
13
48
1
60
0
100
AcDbDimension
2
DimnDraft3D3
10
0
20
49
30
0
11
32.5
21
49
31
0
70
32
71
5
72
1
41
1
210
0
220
0
230
1
3
Standard
100
AcDbAlignedDimension
13
65
23
1.9163
33
0
14
0
24
33.0875
34
0
50
0
100
AcDbRotatedDimension
1001
ACAD
1000
DSTYLE
1002
{
1070
   279
1070
     0
1070
   172
1070
     1
1070
   173
1070
     1
1070
   340
1005
15D
1070
   271
1070
     1
1070
   272
1070
     2
1070
    77
1070
     1
1070
    73
1070
     0
1070
   171
1070
     3
1070
   274
1070
     4
1070
   177
1070
   150
1070
   176
1070
     9
1070
   178
1070
    43
1070
    78
1070
     8
1070
    48
1040
-0.005
1070
    41
1041
3.175
1070
   147
1041
2.25
1070
    42
1041
1.5875
1070
    44
1041
3.175
1070
   140
1041
4.5
1070
   343
1005
17E
1070
   344
1005
17E
1002
}
0
DIMENSION
5
1A0
100
AcDbEntity
8
2
62
256
6
ByLayer
370
13
48
1
60
0
100
AcDbDimension
2
DimnDraft3D4
10
56.282235
20
8.581597
30
0
11
50.979945
21
33.711238
31
0
70
34
71
5
72
1
41
1
210
0
220
0
230
1
3
Standard
100
AcDb2LineAngularDimension
13
65
23
0.3288
33
0
14
65
24
-1.2587
34
0
15
64.767516
25
0.096316
35
0
16
52.702021
26
29.55378
36
0
40
0
0
ENDSEC
0
SECTION
2
OBJECTS
0
DICTIONARY
5
20b
330
0
100
AcDbDictionary
280
0
281
1
3
ACAD_GROUP
350
20c
3
ACAD_MLINESTYLE
350
20d
0
DICTIONARY
5
20c
330
0
100
AcDbDictionary
280
0
281
1
0
DICTIONARY
5
20d
330
0
100
AcDbDictionary
280
0
281
1
3
Standard
350
18
0
MLINESTYLE
5
18
330
20d
100
AcDbMlineStyle
2
Standard
70
0
3

62
256
51
90
52
90
71
2
49
-0.5
62
256
6
ByLayer
49
0.5
62
256
6
ByLayer
0
RASTERVARIABLES
5
1f9
330

100
AcDbRasterVariables
90
0
70
1
71
1
72
1
0
ENDSEC
0
EOF
