0
SECTION
2
HEADER
9
$ACADVER
1
AC1015
9
$DWGCODEPAGE
3
ANSI_1252
9
$HANDSEED
5
21d
9
$ANGBASE
50
0
9
$ANGDIR
70
0
9
$ATTMODE
70
1
9
$AUNITS
70
0
9
$AUPREC
70
0
9
$CECOLOR
62
256
9
$CELTSCALE
40
1
9
$CELTYPE
6
ByLayer
9
$CELWEIGHT
370
18
9
$CLAYER
8
0
9
$CMLJUST
70
0
9
$CMLSCALE
40
1
9
$CMLSTYLE
2
Standard
9
$DIMSTYLE
2
Standard
9
$TEXTSIZE
40
0.2
9
$TEXTSTYLE
7
Standard
9
$LUNITS
70
2
9
$LUPREC
70
4
9
$EXTNAMES
290
1
9
$INSUNITS
70
4
9
$LTSCALE
40
1
9
$LWDISPLAY
290
1
9
$PDMODE
70
0
9
$PDSIZE
40
0
9
$PLINEGEN
70
0
0
ENDSEC
0
SECTION
2
CLASSES
0
CLASS
1
RASTERVARIABLES
2
AcDbRasterVariables
3
ISM
90
0
280
0
281
0
0
ENDSEC
0
SECTION
2
TABLES
0
TABLE
2
VPORT
5
213
100
AcDbSymbolTable
0
VPORT
5
1
100
AcDbSymbolTableRecord
100
AcDbViewportTableRecord
2
*Active
70
0
10
0
20
0
11
1
21
1
12
-1
22
1
13
0
23
0
14
0.5
24
0.5
15
10
25
10
16
0
26
0
36
1
17
0
27
0
37
0
0
ENDTAB
0
TABLE
2
LTYPE
5
214
100
AcDbSymbolTable
0
LTYPE
5
14
100
AcDbSymbolTableRecord
100
AcDbLinetypeTableRecord
70
0
2
ByBlock
3

72
65
73
0
40
0
0
LTYPE
5
15
100
AcDbSymbolTableRecord
100
AcDbLinetypeTableRecord
70
0
2
ByLayer
3

72
65
73
0
40
0
0
LTYPE
5
16
100
AcDbSymbolTableRecord
100
AcDbLinetypeTableRecord
70
0
2
CONTINUOUS
3
Solid line
72
65
73
0
40
0
0
LTYPE
5
6A
100
AcDbSymbolTableRecord
100
AcDbLinetypeTableRecord
70
0
2
CENTER
3
____ _ ____ _ ____ _ ____
72
65
73
4
40
47.5
49
22
74
0
49
-8.5
74
0
49
8.5
74
0
49
-8.5
74
0
0
LTYPE
5
6B
100
AcDbSymbolTableRecord
100
AcDbLinetypeTableRecord
70
0
2
DASHED
3
__ __ __ __ __ __ __ __ __
72
65
73
2
40
25.72
49
12.86
74
0
49
-12.86
74
0
0
ENDTAB
0
TABLE
2
LAYER
5
215
100
AcDbSymbolTable
0
LAYER
5
10
100
AcDbSymbolTableRecord
100
AcDbLayerTableRecord
2
0
70
0
62
7
6
CONTINUOUS
290
1
370
-3
390
0
0
LAYER
5
6D
100
AcDbSymbolTableRecord
100
AcDbLayerTableRecord
2
81
70
0
62
-3
6
CONTINUOUS
290
1
370
-3
390
0
0
LAYER
5
6F
100
AcDbSymbolTableRecord
100
AcDbLayerTableRecord
2
80
70
0
62
-6
6
CONTINUOUS
290
1
370
-3
390
0
0
LAYER
5
71
100
AcDbSymbolTableRecord
100
AcDbLayerTableRecord
2
1
70
0
62
4
6
CONTINUOUS
290
1
370
-3
390
0
0
LAYER
5
DE
100
AcDbSymbolTableRecord
100
AcDbLayerTableRecord
2
4
70
0
62
-2
6
CENTER
290
1
370
-3
390
0
0
LAYER
5
178
100
AcDbSymbolTableRecord
100
AcDbLayerTableRecord
2
2
70
0
62
7
6
CONTINUOUS
290
1
370
-3
390
0
0
LAYER
5
1ff
100
AcDbSymbolTableRecord
100
AcDbLayerTableRecord
2
SK1
70
0
62
4
6
CONTINUOUS
290
1
370
-3
390
0
0
LAYER
5
200
100
AcDbSymbolTableRecord
100
AcDbLayerTableRecord
2
SK4
70
0
62
2
6
CENTER
290
1
370
-3
390
0
0
LAYER
5
201
100
AcDbSymbolTableRecord
100
AcDbLayerTableRecord
2
SK6
70
0
62
5
6
CONTINUOUS
290
1
370
-3
390
0
0
LAYER
5
202
100
AcDbSymbolTableRecord
100
AcDbLayerTableRecord
2
SK2
70
0
62
7
6
CONTINUOUS
290
1
370
-3
390
0
0
ENDTAB
0
TABLE
2
STYLE
5
216
100
AcDbSymbolTable
0
STYLE
5
11
100
AcDbSymbolTableRecord
100
AcDbTextStyleTableRecord
2
Standard
3
txt
70
0
71
0
40
0
41
1
42
0
50
0
0
STYLE
5
161
100
AcDbSymbolTableRecord
100
AcDbTextStyleTableRecord
2
iso_b_vert
3
simplex.shx
70
0
71
0
40
0
41
1
42
0
50
0
0
STYLE
5
162
100
AcDbSymbolTableRecord
100
AcDbTextStyleTableRecord
2
DWGDirectTextStyle
3
simplex
70
0
71
0
40
0
41
1
42
0
50
0
0
ENDTAB
0
TABLE
2
DIMSTYLE
5
217
100
AcDbSymbolTable
100
AcDbDimStyleTable
0
DIMSTYLE
105
27
100
AcDbSymbolTableRecord
100
AcDbDimStyleTableRecord
2
Standard
70
0
3
<>
41
0.18
42
0.0625
44
0.18
140
0.18
147
0.09
73
0
74
0
77
1
271
2
275
0
278
52
280
0
340
11
0
ENDTAB
0
TABLE
2
VIEW
5
218
100
AcDbSymbolTable
0
ENDTAB
0
TABLE
2
UCS
5
219
100
AcDbSymbolTable
0
ENDTAB
0
TABLE
2
APPID
5
21a
100
AcDbSymbolTable
0
APPID
5
12
100
AcDbSymbolTableRecord
100
AcDbRegAppTableRecord
2
ACAD
70
0
0
ENDTAB
0
TABLE
2
BLOCK_RECORD
5
21b
100
AcDbSymbolTable
0
BLOCK_RECORD
5
1F
100
AcDbSymbolTableRecord
100
AcDbBlockTableRecord
2
*Model_Space
340
0
70
0
0
BLOCK_RECORD
5
1B
100
AcDbSymbolTableRecord
100
AcDbBlockTableRecord
2
*Paper_Space
340
0
70
0
0
BLOCK_RECORD
5
23
100
AcDbSymbolTableRecord
100
AcDbBlockTableRecord
2
*Paper_Space0
340
0
70
0
0
BLOCK_RECORD
5
164
100
AcDbSymbolTableRecord
100
AcDbBlockTableRecord
2
DimnDraft3D1
340
0
70
0
0
BLOCK_RECORD
5
174
100
AcDbSymbolTableRecord
100
AcDbBlockTableRecord
2
DimnDraft3D22
340
0
70
0
0
BLOCK_RECORD
5
183
100
AcDbSymbolTableRecord
100
AcDbBlockTableRecord
2
DimnDraft3D33
340
0
70
0
0
BLOCK_RECORD
5
191
100
AcDbSymbolTableRecord
100
AcDbBlockTableRecord
2
DimnDraft3D4
340
0
70
0
0
BLOCK_RECORD
5
19F
100
AcDbSymbolTableRecord
100
AcDbBlockTableRecord
2
_CLOSED
340
0
70
0
0
ENDTAB
0
ENDSEC
0
SECTION
2
BLOCKS
0
BLOCK
5
20
100
AcDbEntity
8
0
100
AcDbBlockBegin
2
*Model_Space
70
0
10
0
20
0
30
0
3
*Model_Space
0
ENDBLK
5
21
100
AcDbEntity
8
0
100
AcDbBlockEnd
0
BLOCK
5
1C
100
AcDbEntity
8
0
100
AcDbBlockBegin
2
*Paper_Space
70
0
10
0
20
0
30
0
3
*Paper_Space
0
ENDBLK
5
1D
100
AcDbEntity
8
0
100
AcDbBlockEnd
0
BLOCK
5
24
100
AcDbEntity
8
0
100
AcDbBlockBegin
2
*Paper_Space0
70
0
10
0
20
0
30
0
3
*Paper_Space0
0
ENDBLK
5
25
100
AcDbEntity
8
0
100
AcDbBlockEnd
0
BLOCK
5
171
100
AcDbEntity
8
0
100
AcDbBlockBegin
2
DimnDraft3D1
70
0
10
0
20
0
30
0
3
DimnDraft3D1
0
MTEXT
5
165
100
AcDbEntity
8
SK2
62
256
6
ByLayer
370
18
48
1
60
0
100
AcDbMText
10
-56.062431
20
4.080403
30
0
210
0
220
0
230
1
1
\W0.6562;63
40
3.50012
41
0
44
1.084337
50
90
71
7
72
5
7
iso_b_vert
0
MTEXT
5
167
100
AcDbEntity
8
SK2
62
256
6
ByLayer
370
18
48
1
60
0
100
AcDbMText
10
-56.062431
20
-4.642552
30
0
210
0
220
0
230
1
1
%%c
40
3.50012
41
0
44
1.084337
50
90
71
7
72
5
7
iso_b_vert
0
LINE
5
168
100
AcDbEntity
8
SK2
62
256
6
ByLayer
370
13
48
1
60
0
100
AcDbLine
10
-1.2875
20
-31.5
30
0
11
-57.487371
21
-31.5
31
0
39
0
210
0
220
0
230
1
0
LINE
5
169
100
AcDbEntity
8
SK2
62
256
6
ByLayer
370
13
48
1
60
0
100
AcDbLine
10
-1.2875
20
31.5
30
0
11
-57.487371
21
31.5
31
0
39
0
210
0
220
0
230
1
0
LINE
5
16A
100
AcDbEntity
8
SK2
62
256
6
ByLayer
370
13
48
1
60
0
100
AcDbLine
10
-54.312371
20
-31.5
30
0
11
-54.312371
21
31.5
31
0
39
0
210
0
220
0
230
1
0
LINE
5
16B
100
AcDbEntity
8
SK2
62
256
6
ByLayer
370
13
48
1
60
0
100
AcDbLine
10
-54.312371
20
-31.5
30
0
11
-54.730367
21
-28.325002
31
0
39
0
210
0
220
0
230
1
0
LINE
5
16C
100
AcDbEntity
8
SK2
62
256
6
ByLayer
370
13
48
1
60
0
100
AcDbLine
10
-54.312371
20
-31.5
30
0
11
-53.894374
21
-28.324998
31
0
39
0
210
0
220
0
230
1
0
LINE
5
16D
100
AcDbEntity
8
SK2
62
256
6
ByLayer
370
13
48
1
60
0
100
AcDbLine
10
-54.730367
20
-28.325002
30
0
11
-53.894374
21
-28.324998
31
0
39
0
210
0
220
0
230
1
0
LINE
5
16E
100
AcDbEntity
8
SK2
62
256
6
ByLayer
370
13
48
1
60
0
100
AcDbLine
10
-54.312371
20
31.5
30
0
11
-53.894374
21
28.325002
31
0
39
0
210
0
220
0
230
1
0
LINE
5
16F
100
AcDbEntity
8
SK2
62
256
6
ByLayer
370
13
48
1
60
0
100
AcDbLine
10
-54.312371
20
31.5
30
0
11
-54.730367
21
28.324998
31
0
39
0
210
0
220
0
230
1
0
LINE
5
170
100
AcDbEntity
8
SK2
62
256
6
ByLayer
370
13
48
1
60
0
100
AcDbLine
10
-53.894374
20
28.325002
30
0
11
-54.730367
21
28.324998
31
0
39
0
210
0
220
0
230
1
0
ENDBLK
5
172
100
AcDbEntity
8
0
100
AcDbBlockEnd
0
BLOCK
5
175
100
AcDbEntity
8
0
100
AcDbBlockBegin
2
DimnDraft3D22
70
0
10
0
20
0
30
0
3
DimnDraft3D22
0
LINE
5
177
100
AcDbEntity
8
2
62
256
6
ByLayer
370
25
48
1
60
0
100
AcDbLine
10
115
20
-1.587372
30
0
11
115
21
-54.402375
31
0
39
0
210
0
220
0
230
1
0
LINE
5
179
100
AcDbEntity
8
2
62
256
6
ByLayer
370
25
48
1
60
0
100
AcDbLine
10
0
20
-32.7875
30
0
11
0
21
-54.402375
31
0
39
0
210
0
220
0
230
1
0
LINE
5
17A
100
AcDbEntity
8
2
62
256
6
ByLayer
370
25
48
1
60
0
100
AcDbLine
10
115
20
-51.227375
30
0
11
0
21
-51.227375
31
0
39
0
210
0
220
0
230
1
0
LINE
5
17B
100
AcDbEntity
8
2
62
256
6
ByLayer
370
25
48
1
60
0
100
AcDbLine
10
115
20
-51.227375
30
0
11
111.825002
21
-51.645372
31
0
39
0
210
0
220
0
230
1
0
LINE
5
17C
100
AcDbEntity
8
2
62
256
6
ByLayer
370
25
48
1
60
0
100
AcDbLine
10
115
20
-51.227375
30
0
11
111.824998
21
-50.809378
31
0
39
0
210
0
220
0
230
1
0
LINE
5
17D
100
AcDbEntity
8
2
62
256
6
ByLayer
370
25
48
1
60
0
100
AcDbLine
10
111.825002
20
-51.645372
30
0
11
111.824998
21
-50.809378
31
0
39
0
210
0
220
0
230
1
0
LINE
5
17E
100
AcDbEntity
8
2
62
256
6
ByLayer
370
25
48
1
60
0
100
AcDbLine
10
0
20
-51.227375
30
0
11
3.174998
21
-50.809378
31
0
39
0
210
0
220
0
230
1
0
LINE
5
17F
100
AcDbEntity
8
2
62
256
6
ByLayer
370
25
48
1
60
0
100
AcDbLine
10
0
20
-51.227375
30
0
11
3.175002
21
-51.645372
31
0
39
0
210
0
220
0
230
1
0
LINE
5
180
100
AcDbEntity
8
2
62
256
6
ByLayer
370
25
48
1
60
0
100
AcDbLine
10
3.174998
20
-50.809378
30
0
11
3.175002
21
-51.645372
31
0
39
0
210
0
220
0
230
1
0
MTEXT
5
181
100
AcDbEntity
8
2
62
256
6
ByLayer
370
18
48
1
60
0
100
AcDbMText
10
55.920341
20
-50.352345
30
0
210
0
220
0
230
1
1
\W0.5123;115
40
3.50012
41
0
44
1.084337
50
0
71
7
72
5
7
iso_b_vert
0
ENDBLK
5
176
100
AcDbEntity
8
0
100
AcDbBlockEnd
0
BLOCK
5
184
100
AcDbEntity
8
0
100
AcDbBlockBegin
2
DimnDraft3D33
70
0
10
0
20
0
30
0
3
DimnDraft3D33
0
LINE
5
186
100
AcDbEntity
8
2
62
256
6
ByLayer
370
25
48
1
60
0
100
AcDbLine
10
121.5875
20
0
30
0
11
137.390937
21
0
31
0
39
0
210
0
220
0
230
1
0
LINE
5
187
100
AcDbEntity
8
2
62
256
6
ByLayer
370
25
48
1
60
0
100
AcDbLine
10
126.56008
20
-0.37
30
0
11
137.390937
21
-0.37
31
0
39
0
210
0
220
0
230
1
0
LINE
5
188
100
AcDbEntity
8
2
62
256
6
ByLayer
370
25
48
1
60
0
100
AcDbLine
10
134.215937
20
-19.402728
30
0
11
134.215937
21
8.7503
31
0
39
0
210
0
220
0
230
1
0
LINE
5
189
100
AcDbEntity
8
2
62
256
6
ByLayer
370
25
48
1
60
0
100
AcDbLine
10
134.215937
20
0
30
0
11
133.79794
21
3.174998
31
0
39
0
210
0
220
0
230
1
0
LINE
5
18A
100
AcDbEntity
8
2
62
256
6
ByLayer
370
25
48
1
60
0
100
AcDbLine
10
134.215937
20
0
30
0
11
134.633933
21
3.175002
31
0
39
0
210
0
220
0
230
1
0
LINE
5
18B
100
AcDbEntity
8
2
62
256
6
ByLayer
370
25
48
1
60
0
100
AcDbLine
10
133.79794
20
3.174998
30
0
11
134.633933
21
3.175002
31
0
39
0
210
0
220
0
230
1
0
LINE
5
18C
100
AcDbEntity
8
2
62
256
6
ByLayer
370
25
48
1
60
0
100
AcDbLine
10
134.215937
20
-0.37
30
0
11
134.633933
21
-3.544998
31
0
39
0
210
0
220
0
230
1
0
LINE
5
18D
100
AcDbEntity
8
2
62
256
6
ByLayer
370
25
48
1
60
0
100
AcDbLine
10
134.215937
20
-0.37
30
0
11
133.79794
21
-3.545002
31
0
39
0
210
0
220
0
230
1
0
LINE
5
18E
100
AcDbEntity
8
2
62
256
6
ByLayer
370
25
48
1
60
0
100
AcDbLine
10
134.633933
20
-3.544998
30
0
11
133.79794
21
-3.545002
31
0
39
0
210
0
220
0
230
1
0
MTEXT
5
18F
100
AcDbEntity
8
2
62
256
6
ByLayer
370
18
48
1
60
0
100
AcDbMText
10
133.340907
20
-18.527698
30
0
210
0
220
0
230
1
1
\W0.7150;0.37
40
3.50012
41
0
44
1.084337
50
90
71
7
72
5
7
iso_b_vert
0
ENDBLK
5
185
100
AcDbEntity
8
0
100
AcDbBlockEnd
0
BLOCK
5
19C
100
AcDbEntity
8
0
100
AcDbBlockBegin
2
DimnDraft3D4
70
0
10
0
20
0
30
0
3
DimnDraft3D4
0
MTEXT
5
192
100
AcDbEntity
8
2
62
256
6
ByLayer
370
18
48
1
60
0
100
AcDbMText
10
93.985413
20
-32.958336
30
0
210
0
220
0
230
1
1
\W0.7959;49%%d41'
40
3.50012
41
0
44
1.084337
50
335.1545
71
7
72
5
7
iso_b_vert
0
LINE
5
193
100
AcDbEntity
8
2
62
256
6
ByLayer
370
13
48
1
60
0
100
AcDbLine
10
104.708628
20
-9.100498
30
0
11
82.627608
21
-27.832528
31
0
39
0
210
0
220
0
230
1
0
LINE
5
194
100
AcDbEntity
8
2
62
256
6
ByLayer
370
13
48
1
60
0
100
AcDbLine
10
115
20
-1.587372
30
0
11
115
21
-42.821881
31
0
39
0
210
0
220
0
230
1
0
ARC
5
195
100
AcDbEntity
8
2
62
256
6
ByLayer
370
13
48
1
60
0
100
AcDbCircle
39
0
10
115
20
-0.37
30
0
40
39.2768813520562
210
0
220
0
230
1
100
AcDbArc
50
220.309
51
270
0
LINE
5
196
100
AcDbEntity
8
2
62
256
6
ByLayer
370
13
48
1
60
0
100
AcDbLine
10
85.048757
20
-25.77859
30
0
11
87.464399
21
-27.880973
31
0
39
0
210
0
220
0
230
1
0
LINE
5
197
100
AcDbEntity
8
2
62
256
6
ByLayer
370
13
48
1
60
0
100
AcDbLine
10
85.048757
20
-25.77859
30
0
11
86.837953
21
-28.434553
31
0
39
0
210
0
220
0
230
1
0
LINE
5
198
100
AcDbEntity
8
2
62
256
6
ByLayer
370
13
48
1
60
0
100
AcDbLine
10
87.464399
20
-27.880973
30
0
11
86.837953
21
-28.434553
31
0
39
0
210
0
220
0
230
1
0
LINE
5
199
100
AcDbEntity
8
2
62
256
6
ByLayer
370
13
48
1
60
0
100
AcDbLine
10
115
20
-39.646881
30
0
11
111.817207
21
-40.000668
31
0
39
0
210
0
220
0
230
1
0
LINE
5
19A
100
AcDbEntity
8
2
62
256
6
ByLayer
370
13
48
1
60
0
100
AcDbLine
10
115
20
-39.646881
30
0
11
111.834088
21
-39.164845
31
0
39
0
210
0
220
0
230
1
0
LINE
5
19B
100
AcDbEntity
8
2
62
256
6
ByLayer
370
13
48
1
60
0
100
AcDbLine
10
111.817207
20
-40.000668
30
0
11
111.834088
21
-39.164845
31
0
39
0
210
0
220
0
230
1
0
ENDBLK
5
19D
100
AcDbEntity
8
0
100
AcDbBlockEnd
0
BLOCK
5
1A0
100
AcDbEntity
8
0
100
AcDbBlockBegin
2
_CLOSED
70
0
10
0
20
0
30
0
3
_CLOSED
0
LINE
5
1A2
100
AcDbEntity
8
0
62
256
6
ByLayer
370
-2
48
1
60
0
100
AcDbLine
10
-1
20
0.166667
30
0
11
0
21
0
31
0
39
0
210
0
220
0
230
1
0
LINE
5
1A3
100
AcDbEntity
8
0
62
256
6
ByLayer
370
-2
48
1
60
0
100
AcDbLine
10
0
20
0
30
0
11
-1
21
-0.166667
31
0
39
0
210
0
220
0
230
1
0
LINE
5
1A4
100
AcDbEntity
8
0
62
256
6
ByLayer
370
-2
48
1
60
0
100
AcDbLine
10
-1
20
0.166667
30
0
11
-1
21
-0.166667
31
0
39
0
210
0
220
0
230
1
0
LINE
5
1A5
100
AcDbEntity
8
0
62
256
6
ByLayer
370
-2
48
1
60
0
100
AcDbLine
10
0
20
0
30
0
11
-1
21
0
31
0
39
0
210
0
220
0
230
1
0
ENDBLK
5
1A1
100
AcDbEntity
8
0
100
AcDbBlockEnd
0
ENDSEC
0
SECTION
2
ENTITIES
0
ARC
5
E1
100
AcDbEntity
8
SK1
62
256
6
ByLayer
370
18
48
1
60
0
100
AcDbCircle
39
0
10
0.6
20
-23.45
30
0
40
1
210
0
220
0
230
-1
100
AcDbArc
50
113.578178
51
126.870857
0
ARC
5
E2
100
AcDbEntity
8
SK1
62
256
6
ByLayer
370
18
48
1
60
0
100
AcDbCircle
39
0
10
0.6
20
23.45
30
0
40
1
210
0
220
0
230
-1
100
AcDbArc
50
233.129143
51
246.421822
0
ARC
5
E3
100
AcDbEntity
8
1
62
256
6
ByLayer
370
18
48
1
60
0
100
AcDbCircle
39
0
10
103.791746
20
6E-05
30
0
40
3.1
210
0
220
0
230
1
100
AcDbArc
50
308.310276
51
321.928336
0
ARC
5
E4
100
AcDbEntity
8
1
62
256
6
ByLayer
370
18
48
1
60
0
100
AcDbCircle
39
0
10
103.791746
20
6E-05
30
0
40
3.1
210
0
220
0
230
1
100
AcDbArc
50
42.013031
51
53.36924
0
ELLIPSE
5
E5
100
AcDbEntity
8
1
62
256
6
ByLayer
370
18
48
1
60
0
100
AcDbEllipse
10
101.417397
20
0
30
0
11
22.3043014355519
21
2.25415981270984E-14
31
0
210
0
220
0
230
-1
40
0.993274
41
2.38249320247383
42
2.54229671328934
0
ELLIPSE
5
E6
100
AcDbEntity
8
1
62
256
6
ByLayer
370
18
48
1
60
0
100
AcDbEllipse
10
132.353869
20
0
30
0
11
75.0905769199889
21
7.58894697040071E-14
31
0
210
0
220
0
230
-1
40
0.22081
41
2.28797083664175
42
-2.28797083664174
0
ELLIPSE
5
E7
100
AcDbEntity
8
1
62
256
6
ByLayer
370
18
48
1
60
0
100
AcDbEllipse
10
77.146872
20
-13.325209
30
0
11
0.93284657219966
21
1.17464772282389
31
0
210
0
220
0
230
1
40
0.680826
41
1.04326905645881
42
0
0
ELLIPSE
5
E8
100
AcDbEntity
8
1
62
256
6
ByLayer
370
18
48
1
60
0
100
AcDbEllipse
10
77.146872
20
-13.325209
30
0
11
0.93284657219966
21
1.17464772282389
31
0
210
0
220
0
230
1
40
0.680826
41
0
42
0.20446421197751
0
ELLIPSE
5
E9
100
AcDbEntity
8
1
62
256
6
ByLayer
370
18
48
1
60
0
100
AcDbEllipse
10
-2.347154
20
0
30
0
11
14.7536831606577
21
31.0932549155828
31
0
210
0
220
0
230
-1
40
0.341999
41
0.157806186645428
42
1.09123958575278
0
ELLIPSE
5
EA
100
AcDbEntity
8
1
62
256
6
ByLayer
370
18
48
1
60
0
100
AcDbEllipse
10
26.347154
20
0
30
0
11
14.7536831606557
21
-31.0932549155804
31
0
210
0
220
0
230
-1
40
0.341999
41
2.05035306783695
42
2.98378646694436
0
ELLIPSE
5
EB
100
AcDbEntity
8
1
62
256
6
ByLayer
370
18
48
1
60
0
100
AcDbEllipse
10
-2.347154
20
0
30
0
11
14.7536831606564
21
-31.0932549155814
31
0
210
0
220
0
230
-1
40
0.341999
41
-1.09123958575282
42
-0.15780618664543
0
ELLIPSE
5
EC
100
AcDbEntity
8
1
62
256
6
ByLayer
370
18
48
1
60
0
100
AcDbEllipse
10
26.347154
20
0
30
0
11
14.7536831606559
21
31.0932549155806
31
0
210
0
220
0
230
-1
40
0.341999
41
-2.98378646694436
42
-2.05035306783696
0
ELLIPSE
5
ED
100
AcDbEntity
8
1
62
256
6
ByLayer
370
18
48
1
60
0
100
AcDbEllipse
10
101.417397
20
0
30
0
11
22.3043014350374
21
2.25415981265784E-14
31
0
210
0
220
0
230
-1
40
0.993274
41
-2.54229671328829
42
-2.38249320246962
0
ELLIPSE
5
EE
100
AcDbEntity
8
1
62
256
6
ByLayer
370
18
48
1
60
0
100
AcDbEllipse
10
78.284289
20
-0.003024
30
0
11
2.33848634111635
21
-0.00129955816847
31
0
210
0
220
0
230
-1
40
0.962161
41
0
42
6.28318530717959
0
ELLIPSE
5
EF
100
AcDbEntity
8
1
62
256
6
ByLayer
370
18
48
1
60
0
100
AcDbEllipse
10
77.748902
20
-0.00292
30
0
11
-4.13304644415052E-16
21
-2.25
31
0
210
0
220
0
230
1
40
0.819152
41
0.128245064292397
42
3.01311092689788
0
ELLIPSE
5
F0
100
AcDbEntity
8
1
62
256
6
ByLayer
370
18
48
1
60
0
100
AcDbEllipse
10
77.748902
20
-0.00292
30
0
11
-3.03090072571035E-16
21
-1.64999999999998
31
0
210
0
220
0
230
1
40
0.819152
41
0
42
6.28318530717959
0
ELLIPSE
5
F1
100
AcDbEntity
8
1
62
256
6
ByLayer
370
18
48
1
60
0
100
AcDbEllipse
10
77.146872
20
13.325209
30
0
11
-4.13304644415052E-16
21
-2.25
31
0
210
0
220
0
230
1
40
0.764773
41
1.05111647040621
42
-2.41733530526325
0
ELLIPSE
5
F2
100
AcDbEntity
8
1
62
256
6
ByLayer
370
18
48
1
60
0
100
AcDbEllipse
10
77.146872
20
-13.325209
30
0
11
1.37768214805017E-16
21
2.25
31
0
210
0
220
0
230
1
40
0.764773
41
2.40936624726093
42
-1.05365237953107
0
ELLIPSE
5
F3
100
AcDbEntity
8
1
62
256
6
ByLayer
370
18
48
1
60
0
100
AcDbEllipse
10
77.146872
20
13.325209
30
0
11
-3.03090072571038E-16
21
-1.65
31
0
210
0
220
0
230
1
40
0.764773
41
0.774292923220796
42
-1.57078952202436
0
ELLIPSE
5
F4
100
AcDbEntity
8
1
62
256
6
ByLayer
370
18
48
1
60
0
100
AcDbEllipse
10
77.146872
20
13.325209
30
0
11
-3.03090072571038E-16
21
-1.65
31
0
210
0
220
0
230
1
40
0.764773
41
-1.57078952202436
42
-0.853279076255172
0
ELLIPSE
5
F5
100
AcDbEntity
8
1
62
256
6
ByLayer
370
18
48
1
60
0
100
AcDbEllipse
10
77.146872
20
-13.325209
30
0
11
1.01030024190346E-16
21
1.65
31
0
210
0
220
0
230
1
40
0.764773
41
1.57078946837929
42
-0.774292983659317
0
ELLIPSE
5
F6
100
AcDbEntity
8
1
62
256
6
ByLayer
370
18
48
1
60
0
100
AcDbEllipse
10
77.146872
20
-13.325209
30
0
11
1.01030024190346E-16
21
1.65
31
0
210
0
220
0
230
1
40
0.764773
41
0.884657934590404
42
1.57079007443989
0
ELLIPSE
5
F7
100
AcDbEntity
8
1
62
256
6
ByLayer
370
18
48
1
60
0
100
AcDbEllipse
10
81.823231
20
8
30
0
11
-6.12303176911016E-16
21
9.99999999999718
31
0
210
0
220
0
230
-1
40
0.880161
41
0.836925178905121
42
1.5707963267949
0
ELLIPSE
5
F8
100
AcDbEntity
8
1
62
256
6
ByLayer
370
18
48
1
60
0
100
AcDbEllipse
10
81.823231
20
-8
30
0
11
-6.12303176911028E-16
21
9.99999999999737
31
0
210
0
220
0
230
-1
40
0.880161
41
1.5707963267949
42
2.30466747468466
0
ELLIPSE
5
F9
100
AcDbEntity
8
1
62
256
6
ByLayer
370
18
48
1
60
0
100
AcDbEllipse
10
97.850329
20
2.462246
30
0
11
-4.43196599545277E-16
21
-2.41272959898187
31
0
210
0
220
0
230
1
40
0.989133
41
2.44346095279206
42
-3.04694898559347
0
ELLIPSE
5
FA
100
AcDbEntity
8
1
62
256
6
ByLayer
370
18
48
1
60
0
100
AcDbEllipse
10
97.034337
20
2.436486
30
0
11
-4.5922738268341E-16
21
-2.5000000000001
31
0
210
0
220
0
230
1
40
0.989133
41
2.90048411772719
42
-0.876960755119715
0
ELLIPSE
5
FB
100
AcDbEntity
8
1
62
256
6
ByLayer
370
18
48
1
60
0
100
AcDbEllipse
10
97.273918
20
1.950858
30
0
11
1.49014662499475E-16
21
2.43367449522622
31
0
210
0
220
0
230
1
40
0.989133
41
2.04583486086105
42
2.44346095279206
0
ELLIPSE
5
FC
100
AcDbEntity
8
1
62
256
6
ByLayer
370
18
48
1
60
0
100
AcDbEllipse
10
100.969762
20
-1.293573
30
0
11
1.53075794227797E-16
21
2.5
31
0
210
0
220
0
230
1
40
0.989133
41
2.09529493151911
42
2.44346095279206
0
ELLIPSE
5
FD
100
AcDbEntity
8
1
62
256
6
ByLayer
370
18
48
1
60
0
100
AcDbEllipse
10
103.139544
20
-3.134209
30
0
11
1.53075794227797E-16
21
2.5
31
0
210
0
220
0
230
1
40
0.989133
41
2.44346095279206
42
2.79162697406503
0
ELLIPSE
5
FE
100
AcDbEntity
8
1
62
256
6
ByLayer
370
18
48
1
60
0
100
AcDbEllipse
10
95.931665
20
2.436486
30
0
11
1.53075794227803E-16
21
2.5000000000001
31
0
210
0
220
0
230
1
40
0.989133
41
-1.46066509607266
42
-0.224868932613777
0
ELLIPSE
5
FF
100
AcDbEntity
8
1
62
256
6
ByLayer
370
18
48
1
60
0
100
AcDbEllipse
10
95.858153
20
2.436486
30
0
11
-4.5922738268341E-16
21
-2.5000000000001
31
0
210
0
220
0
230
1
40
0.989133
41
1.65788526062353
42
2.90156309030248
0
ELLIPSE
5
100
100
AcDbEntity
8
1
62
256
6
ByLayer
370
18
48
1
60
0
100
AcDbEllipse
10
96.747657
20
2.462246
30
0
11
-4.59227382683391E-16
21
-2.5
31
0
210
0
220
0
230
1
40
0.989133
41
2.44346879924316
42
2.92055223783331
0
ELLIPSE
5
101
100
AcDbEntity
8
1
62
256
6
ByLayer
370
18
48
1
60
0
100
AcDbEllipse
10
77.089515
20
13.279658
30
0
11
-0.932846572199657
21
1.17464772282389
31
0
210
0
220
0
230
1
40
0.680826
41
0.708718019142119
42
1.87748879193743
0
ELLIPSE
5
102
100
AcDbEntity
8
1
62
256
6
ByLayer
370
18
48
1
60
0
100
AcDbEllipse
10
77.089515
20
13.279658
30
0
11
-0.932846572199657
21
1.17464772282389
31
0
210
0
220
0
230
1
40
0.680826
41
2.8866273231968
42
0
0
ELLIPSE
5
103
100
AcDbEntity
8
1
62
256
6
ByLayer
370
18
48
1
60
0
100
AcDbEllipse
10
77.089515
20
13.279658
30
0
11
-0.932846572199657
21
1.17464772282389
31
0
210
0
220
0
230
1
40
0.680826
41
0
42
0.708717671766121
0
ELLIPSE
5
104
100
AcDbEntity
8
1
62
256
6
ByLayer
370
18
48
1
60
0
100
AcDbEllipse
10
77.691544
20
-0.002909
30
0
11
9.18454765366783E-17
21
1.5
31
0
210
0
220
0
230
1
40
0.819152
41
0
42
6.28318530717959
0
ELLIPSE
5
105
100
AcDbEntity
8
1
62
256
6
ByLayer
370
18
48
1
60
0
100
AcDbEllipse
10
105.664879
20
-7.767113
30
0
11
-7.3476381229345E-17
21
-0.400000000000013
31
0
210
0
220
0
230
1
40
0.989133
41
-0.698131700797729
42
0.698131700797722
0
ELLIPSE
5
106
100
AcDbEntity
8
1
62
256
6
ByLayer
370
18
48
1
60
0
100
AcDbEllipse
10
97.114762
20
-8E-06
30
0
11
-1.45804694001977E-16
21
-0.79375
31
0
210
0
220
0
230
1
40
0.989133
41
-2.44346095279206
42
-0.69813170079774
0
ELLIPSE
5
107
100
AcDbEntity
8
1
62
256
6
ByLayer
370
18
48
1
60
0
100
AcDbEllipse
10
105.664758
20
7.767233
30
0
11
-7.3476381229345E-17
21
-0.400000000000013
31
0
210
0
220
0
230
1
40
0.989133
41
2.44346095279206
42
-2.44346095279208
0
ELLIPSE
5
108
100
AcDbEntity
8
1
62
256
6
ByLayer
370
18
48
1
60
0
100
AcDbEllipse
10
114.214876
20
0.000128
30
0
11
-1.45804694001977E-16
21
-0.79375
31
0
210
0
220
0
230
1
40
0.989133
41
0.698131700797717
42
2.44346095279207
0
ELLIPSE
5
109
100
AcDbEntity
8
1
62
256
6
ByLayer
370
18
48
1
60
0
100
AcDbEllipse
10
105.664819
20
6E-05
30
0
11
-4.7392265892926E-16
21
-2.58
31
0
210
0
220
0
230
1
40
0.989133
41
0
42
6.28318530717959
0
ELLIPSE
5
10A
100
AcDbEntity
8
1
62
256
6
ByLayer
370
18
48
1
60
0
100
AcDbEllipse
10
96.414932
20
-8E-06
30
0
11
-1.45804694001977E-16
21
-0.79375
31
0
210
0
220
0
230
1
40
0.989133
41
-2.44346095279206
42
-1.77175407272784
0
ELLIPSE
5
10B
100
AcDbEntity
8
1
62
256
6
ByLayer
370
18
48
1
60
0
100
AcDbEllipse
10
104.964989
20
6E-05
30
0
11
-4.7392265892926E-16
21
-2.58
31
0
210
0
220
0
230
1
40
0.989133
41
2.41078768716208
42
3.00405801591568
0
ELLIPSE
5
10C
100
AcDbEntity
8
1
62
256
6
ByLayer
370
18
48
1
60
0
100
AcDbEllipse
10
104.964989
20
6E-05
30
0
11
-4.7392265892926E-16
21
-2.58
31
0
210
0
220
0
230
1
40
0.989133
41
0.137550655741626
42
1.09976148926851
0
ELLIPSE
5
10D
100
AcDbEntity
8
1
62
256
6
ByLayer
370
18
48
1
60
0
100
AcDbEllipse
10
104.964929
20
7.767233
30
0
11
-7.3476381229345E-17
21
-0.400000000000013
31
0
210
0
220
0
230
1
40
0.989133
41
-3.14158504238178
42
-2.44346095279208
0
ELLIPSE
5
10E
100
AcDbEntity
8
1
62
256
6
ByLayer
370
18
48
1
60
0
100
AcDbEllipse
10
104.96505
20
-7.767113
30
0
11
-7.3476381229345E-17
21
-0.400000000000013
31
0
210
0
220
0
230
1
40
0.989133
41
-0.698131700797729
42
-2.88106855554044E-08
0
ELLIPSE
5
10F
100
AcDbEntity
8
1
62
256
6
ByLayer
370
18
48
1
60
0
100
AcDbEllipse
10
105.497212
20
6E-05
30
0
11
-4.31673739722388E-16
21
-2.35
31
0
210
0
220
0
230
1
40
0.989133
41
-1.5045491574936
42
-0.764363177196833
0
ELLIPSE
5
110
100
AcDbEntity
8
1
62
256
6
ByLayer
370
18
48
1
60
0
100
AcDbEllipse
10
105.570724
20
6E-05
30
0
11
1.1327608772857E-16
21
1.85
31
0
210
0
220
0
230
1
40
0.989133
41
1.66382270660264
42
2.35045026588653
0
ELLIPSE
5
111
100
AcDbEntity
8
1
62
256
6
ByLayer
370
18
48
1
60
0
100
AcDbEllipse
10
105.727131
20
-0.498407
30
0
11
-4.77596477990727E-16
21
-2.6
31
0
210
0
220
0
230
1
40
0.989133
41
2.57574678650877
42
-1.70306646760939
0
ELLIPSE
5
112
100
AcDbEntity
8
1
62
256
6
ByLayer
370
18
48
1
60
0
100
AcDbEllipse
10
105.800642
20
-0.498407
30
0
11
1.2858366715135E-16
21
2.1
31
0
210
0
220
0
230
1
40
0.989133
41
-0.541950230814821
42
1.41463054971418
0
ELLIPSE
5
113
100
AcDbEntity
8
1
62
256
6
ByLayer
370
18
48
1
60
0
100
AcDbEllipse
10
105.570724
20
6E-05
30
0
11
1.1327608772857E-16
21
1.85
31
0
210
0
220
0
230
1
40
0.989133
41
-1.47776994698716
42
-0.79114238770327
0
ELLIPSE
5
114
100
AcDbEntity
8
1
62
256
6
ByLayer
370
18
48
1
60
0
100
AcDbEllipse
10
105.340806
20
0.498528
30
0
11
1.2858366715135E-16
21
2.1
31
0
210
0
220
0
230
1
40
0.989133
41
2.59964242277499
42
-1.72696210387561
0
ELLIPSE
5
115
100
AcDbEntity
8
1
62
256
6
ByLayer
370
18
48
1
60
0
100
AcDbEllipse
10
105.267294
20
0.498528
30
0
11
-4.77596477990727E-16
21
-2.6
31
0
210
0
220
0
230
1
40
0.989133
41
-0.565845867081035
42
1.43852618598039
0
ELLIPSE
5
116
100
AcDbEntity
8
1
62
256
6
ByLayer
370
18
48
1
60
0
100
AcDbEllipse
10
105.080229
20
-0.498407
30
0
11
1.59198825996909E-16
21
2.6
31
0
210
0
220
0
230
1
40
0.989133
41
4.81295689529142E-06
42
0.525292419010897
0
ELLIPSE
5
117
100
AcDbEntity
8
1
62
256
6
ByLayer
370
18
48
1
60
0
100
AcDbEllipse
10
105.497212
20
6E-05
30
0
11
-4.31673739722388E-16
21
-2.35
31
0
210
0
220
0
230
1
40
0.989133
41
1.63704349609619
42
2.37722947639297
0
ELLIPSE
5
118
100
AcDbEntity
8
1
62
256
6
ByLayer
370
18
48
1
60
0
100
AcDbEllipse
10
105.070263
20
0.147979
30
0
11
-4.31673739722388E-16
21
-2.35
31
0
210
0
220
0
230
1
40
0.989133
41
-0.502290034269959
42
-2.27534441976835E-05
0
ELLIPSE
5
119
100
AcDbEntity
8
1
62
256
6
ByLayer
370
18
48
1
60
0
100
AcDbEllipse
10
103.850555
20
6E-05
30
0
11
-5.23519216259066E-16
21
-2.85
31
0
210
0
220
0
230
1
40
0.989133
41
2.41908010984253
42
2.66127472295403
0
ELLIPSE
5
11A
100
AcDbEntity
8
1
62
256
6
ByLayer
370
18
48
1
60
0
100
AcDbEllipse
10
103.850555
20
6E-05
30
0
11
-5.23519216259066E-16
21
-2.85
31
0
210
0
220
0
230
1
40
0.989133
41
0.480299202190203
42
0.750758818982526
0
ELLIPSE
5
11B
100
AcDbEntity
8
1
62
256
6
ByLayer
370
18
48
1
60
0
100
AcDbEllipse
10
103.850555
20
6E-05
30
0
11
-5.64681645688464E-16
21
-3.07408522978788
31
0
210
0
220
0
230
1
40
0.989133
41
2.31170699248283
42
2.51478251504597
0
ELLIPSE
5
11C
100
AcDbEntity
8
1
62
256
6
ByLayer
370
18
48
1
60
0
100
AcDbEllipse
10
103.850555
20
6E-05
30
0
11
-5.64681645688464E-16
21
-3.07408522978788
31
0
210
0
220
0
230
1
40
0.989133
41
0.644213743025695
42
0.899633980524385
0
ELLIPSE
5
11D
100
AcDbEntity
8
1
62
256
6
ByLayer
370
18
48
1
60
0
100
AcDbEllipse
10
105.049149
20
-2.726019
30
0
11
-0.681044325953577
21
-0.314131542648041
31
0
210
0
220
0
230
1
40
0.062136
41
2.71296179533287
42
2.88925247265036
0
ELLIPSE
5
11E
100
AcDbEntity
8
1
62
256
6
ByLayer
370
18
48
1
60
0
100
AcDbEllipse
10
94.299191
20
-5.409545
30
0
11
-5.82759548625224E-16
21
-3.1725
31
0
210
0
220
0
230
1
40
0.989133
41
0
42
6.28318530717959
0
ELLIPSE
5
11F
100
AcDbEntity
8
1
62
256
6
ByLayer
370
18
48
1
60
0
100
AcDbEllipse
10
94.299191
20
-5.409545
30
0
11
-3.18162063613803E-16
21
-1.73205080756887
31
0
210
0
220
0
230
1
40
0.989133
41
2.00713648624457
42
3.05433403744117
0
ELLIPSE
5
120
100
AcDbEntity
8
1
62
256
6
ByLayer
370
18
48
1
60
0
100
AcDbEllipse
10
94.299191
20
-5.409545
30
0
11
-3.18162063613803E-16
21
-1.73205080756887
31
0
210
0
220
0
230
1
40
0.989133
41
3.05433403744117
42
-2.18165371854182
0
ELLIPSE
5
121
100
AcDbEntity
8
1
62
256
6
ByLayer
370
18
48
1
60
0
100
AcDbEllipse
10
94.299191
20
-5.409545
30
0
11
-3.18162063613803E-16
21
-1.73205080756887
31
0
210
0
220
0
230
1
40
0.989133
41
-2.18165371854182
42
-1.13445616734522
0
ELLIPSE
5
122
100
AcDbEntity
8
1
62
256
6
ByLayer
370
18
48
1
60
0
100
AcDbEllipse
10
94.299191
20
-5.409545
30
0
11
-3.18162063613803E-16
21
-1.73205080756887
31
0
210
0
220
0
230
1
40
0.989133
41
-1.13445616734522
42
-0.087258616148627
0
ELLIPSE
5
123
100
AcDbEntity
8
1
62
256
6
ByLayer
370
18
48
1
60
0
100
AcDbEllipse
10
94.299191
20
-5.409545
30
0
11
-3.18162063613803E-16
21
-1.73205080756887
31
0
210
0
220
0
230
1
40
0.989133
41
-0.087258616148627
42
0.959938935047977
0
ELLIPSE
5
124
100
AcDbEntity
8
1
62
256
6
ByLayer
370
18
48
1
60
0
100
AcDbEllipse
10
94.299191
20
-5.409545
30
0
11
-3.18162063613803E-16
21
-1.73205080756887
31
0
210
0
220
0
230
1
40
0.989133
41
0.959938935047977
42
2.00713648624457
0
ELLIPSE
5
125
100
AcDbEntity
8
1
62
256
6
ByLayer
370
18
48
1
60
0
100
AcDbEllipse
10
94.205837
20
-5.409545
30
0
11
-7.34763812293426E-16
21
-4
31
0
210
0
220
0
230
1
40
0.989133
41
-1.13445618888871
42
-2.24484073350127E-16
0
ELLIPSE
5
126
100
AcDbEntity
8
1
62
256
6
ByLayer
370
18
48
1
60
0
100
AcDbEllipse
10
94.205837
20
-5.409545
30
0
11
-7.34763812293426E-16
21
-4
31
0
210
0
220
0
230
1
40
0.989133
41
0
42
-2.00988053681667
0
ELLIPSE
5
127
100
AcDbEntity
8
1
62
256
6
ByLayer
370
18
48
1
60
0
100
AcDbEllipse
10
93.564076
20
-5.409545
30
0
11
-2.75536429610035E-16
21
-1.5
31
0
210
0
220
0
230
1
40
0.989133
41
0.134747220405864
42
2.95462139330241
0
ELLIPSE
5
128
100
AcDbEntity
8
1
62
256
6
ByLayer
370
18
48
1
60
0
100
AcDbEllipse
10
93.711099
20
-5.409545
30
0
11
9.18454765366783E-17
21
1.5
31
0
210
0
220
0
230
1
40
0.989133
41
-0.610857391746914
42
-0.11854361553897
0
ELLIPSE
5
129
100
AcDbEntity
8
1
62
256
6
ByLayer
370
18
48
1
60
0
100
AcDbEllipse
10
93.711099
20
-5.409545
30
0
11
9.18454765366783E-17
21
1.5
31
0
210
0
220
0
230
1
40
0.989133
41
-1.65805494294351
42
-0.610857391746914
0
ELLIPSE
5
12A
100
AcDbEntity
8
1
62
256
6
ByLayer
370
18
48
1
60
0
100
AcDbEllipse
10
93.711099
20
-5.409545
30
0
11
9.18454765366783E-17
21
1.5
31
0
210
0
220
0
230
1
40
0.989133
41
-2.70525249414011
42
-1.65805494294351
0
ELLIPSE
5
12B
100
AcDbEntity
8
1
62
256
6
ByLayer
370
18
48
1
60
0
100
AcDbEllipse
10
93.711099
20
-5.409545
30
0
11
9.18454765366783E-17
21
1.5
31
0
210
0
220
0
230
1
40
0.989133
41
3.1415787427296
42
-2.70525249414011
0
ELLIPSE
5
12C
100
AcDbEntity
8
1
62
256
6
ByLayer
370
18
48
1
60
0
100
AcDbEllipse
10
79.250618
20
8
30
0
11
-7.34763812293426E-16
21
12
31
0
210
0
220
0
230
-1
40
0.989133
41
0.993413279252339
42
1.56985340508864
0
ELLIPSE
5
12D
100
AcDbEntity
8
1
62
256
6
ByLayer
370
18
48
1
60
0
100
AcDbEllipse
10
79.250618
20
-8
30
0
11
-2.20429143688028E-15
21
-12
31
0
210
0
220
0
230
1
40
0.989133
41
0.993413279252339
42
1.57805766634957
0
POINT
5
6C
100
AcDbEntity
8
81
62
256
6
ByLayer
370
18
48
1
60
0
100
AcDbPoint
10
115
20
-0.37
30
0
39
0
210
0
220
0
230
1
50
360
0
POINT
5
6E
100
AcDbEntity
8
80
62
256
6
ByLayer
370
18
48
1
60
0
100
AcDbPoint
10
0
20
0
30
0
39
0
210
0
220
0
230
1
50
360
0
SPLINE
5
12E
100
AcDbEntity
8
1
62
256
6
ByLayer
370
18
48
1
60
0
100
AcDbSpline
70
2053
71
3
72
87
73
83
40
0
40
0
40
0
40
0
40
0.0312499999999978
40
0.0312499999999978
40
0.0468749999999968
40
0.0468749999999968
40
0.0624999999999958
40
0.0624999999999958
40
0.0937499999999953
40
0.0937499999999953
40
0.109374999999995
40
0.109374999999995
40
0.124999999999995
40
0.124999999999995
40
0.156249999999994
40
0.156249999999994
40
0.187499999999994
40
0.187499999999994
40
0.218749999999993
40
0.218749999999993
40
0.249999999999993
40
0.249999999999993
40
0.281249999999992
40
0.281249999999992
40
0.312499999999992
40
0.312499999999992
40
0.343749999999992
40
0.343749999999992
40
0.359374999999991
40
0.359374999999991
40
0.374999999999991
40
0.374999999999991
40
0.406249999999993
40
0.406249999999993
40
0.437499999999996
40
0.437499999999996
40
0.453124999999997
40
0.453124999999997
40
0.468749999999998
40
0.468749999999998
40
0.499999999999998
40
0.499999999999998
40
0.531249999999998
40
0.531249999999998
40
0.562499999999998
40
0.562499999999998
40
0.593749999999998
40
0.593749999999998
40
0.624999999999998
40
0.624999999999998
40
0.640624999999998
40
0.640624999999998
40
0.656249999999999
40
0.671874999999999
40
0.671874999999999
40
0.687499999999999
40
0.687499999999999
40
0.718749999999999
40
0.718749999999999
40
0.734374999999999
40
0.734374999999999
40
0.749999999999999
40
0.749999999999999
40
0.765624999999999
40
0.765624999999999
40
0.781249999999999
40
0.781249999999999
40
0.812499999999999
40
0.812499999999999
40
0.828124999999999
40
0.828124999999999
40
0.843749999999998
40
0.843749999999998
40
0.874999999999998
40
0.874999999999998
40
0.906249999999998
40
0.906249999999998
40
0.937499999999999
40
0.937499999999999
40
0.968749999999999
40
0.968749999999999
40
1
40
1
40
1
40
1
41
1
10
76.637342304094
20
-15.6013267151783
30
0
41
1
10
76.4960436869184
20
-15.5560640165478
30
0
41
1
10
76.3632746401583
20
-15.5005898354408
30
0
41
1
10
76.1771366390478
20
-15.4014062493944
30
0
41
1
10
76.1172733514561
20
-15.3656660051822
30
0
41
1
10
76.002135321095
20
-15.2884788640257
30
0
41
1
10
75.946768293468
20
-15.2468922605997
30
0
41
1
10
75.7916757927224
20
-15.1161166319385
30
0
41
1
10
75.7014710745686
20
-15.0201573873369
30
0
41
1
10
75.5866913206735
20
-14.8621705961834
30
0
41
1
10
75.5517201729391
20
-14.8068509436496
30
0
41
1
10
75.4898834746973
20
-14.6925142004053
30
0
41
1
10
75.4632342996671
20
-14.6339995525734
30
0
41
1
10
75.3958278748493
20
-14.454439609439
30
0
41
1
10
75.3674604745412
20
-14.329421363445
30
0
41
1
10
75.3459145381767
20
-14.0679162601862
30
0
41
1
10
75.3531807925106
20
-13.9366534673554
30
0
41
1
10
75.4022830608816
20
-13.6734557142867
30
0
41
1
10
75.4450028100935
20
-13.5402839529653
30
0
41
1
10
75.5613715731636
20
-13.2857465391598
30
0
41
1
10
75.6351752049365
20
-13.1627568040812
30
0
41
1
10
75.812911279922
20
-12.9271875840417
30
0
41
1
10
75.9140960414227
20
-12.8181415784966
30
0
41
1
10
76.1392278163207
20
-12.6165247935682
30
0
41
1
10
76.2643213992452
20
-12.5235107403158
30
0
41
1
10
76.5272582003838
20
-12.3606835065379
30
0
41
1
10
76.6659300173326
20
-12.289898296321
30
0
41
1
10
76.8843771056066
20
-12.199269544413
30
0
41
1
10
76.958771162174
20
-12.1717736427136
30
0
41
1
10
77.1083404574656
20
-12.1228463776755
30
0
41
1
10
77.1838329296071
20
-12.1012787394133
30
0
41
1
10
77.4123655324576
20
-12.0449849846655
30
0
41
1
10
77.568005879697
20
-12.0185528423262
30
0
41
1
10
77.8823818927571
20
-11.9883540149053
30
0
41
1
10
78.0382500936908
20
-11.9847732998216
30
0
41
1
10
78.2701639144516
20
-11.995828968648
30
0
41
1
10
78.3471514665025
20
-12.0022695279203
30
0
41
1
10
78.5004803130701
20
-12.0207261862548
30
0
41
1
10
78.5771173161108
20
-12.03280295944
30
0
41
1
10
78.8038416209266
20
-12.0772685877924
30
0
41
1
10
78.9495425267634
20
-12.1174762987572
30
0
41
1
10
79.2299908976952
20
-12.2187951534917
30
0
41
1
10
79.3648789944561
20
-12.2799565917828
30
0
41
1
10
79.6217986671971
20
-12.4250749127186
30
0
41
1
10
79.7397437508797
20
-12.5067105453245
30
0
41
1
10
79.9537851813835
20
-12.6884006110023
30
0
41
1
10
80.0499522535203
20
-12.7884559963245
30
0
41
1
10
80.2165048726852
20
-13.0096104569222
30
0
41
1
10
80.2835311121703
20
-13.126303883432
30
0
41
1
10
80.3583408684359
20
-13.3107707178457
30
0
41
1
10
80.379028634988
20
-13.374146062269
30
0
41
1
10
80.4107585532689
20
-13.5029236366199
30
0
41
1
10
80.4325745564927
20
-13.6322529428829
30
0
41
1
10
80.4349691506746
20
-13.7626337898483
30
0
41
1
10
80.4275480233796
20
-13.893544544427
30
0
41
1
10
80.418825591837
20
-13.9597076668539
30
0
41
1
10
80.3780951096521
20
-14.155595052899
30
0
41
1
10
80.3322201292144
20
-14.2817082669372
30
0
41
1
10
80.2373551285059
20
-14.4648131849317
30
0
41
1
10
80.2011696637532
20
-14.5250213888355
30
0
41
1
10
80.12194561294
20
-14.6408162213827
30
0
41
1
10
80.0787677485698
20
-14.6967369833338
30
0
41
1
10
79.9857118433311
20
-14.8049084686089
30
0
41
1
10
79.9358322928493
20
-14.8571582891551
30
0
41
1
10
79.8295703329815
20
-14.9581435229536
30
0
41
1
10
79.7732694785821
20
-15.0067483508484
30
0
41
1
10
79.5982482080177
20
-15.1448855142825
30
0
41
1
10
79.4724760902099
20
-15.2277956956795
30
0
41
1
10
79.2712056187897
20
-15.3396718866701
30
0
41
1
10
79.2018230819461
20
-15.374919847269
30
0
41
1
10
79.0612213646201
20
-15.4402053106101
30
0
41
1
10
78.98974282877
20
-15.4704017776649
30
0
41
1
10
78.7719223150104
20
-15.5539973347331
30
0
41
1
10
78.6222253886661
20
-15.6004662161607
30
0
41
1
10
78.3138703352927
20
-15.6750441892913
30
0
41
1
10
78.1584613648198
20
-15.7023217626476
30
0
41
1
10
77.8473198236132
20
-15.7372995972889
30
0
41
1
10
77.691249754896
20
-15.7450830961522
30
0
41
1
10
77.3780425957871
20
-15.7399834298552
30
0
41
1
10
77.223989236482
20
-15.7270606317173
30
0
41
1
10
76.9247533990405
20
-15.6804078128295
30
0
41
1
10
76.7786409212696
20
-15.6465894138087
30
0
41
1
10
76.637342304094
20
-15.6013267151783
30
0
0
SPLINE
5
12F
100
AcDbEntity
8
1
62
256
6
ByLayer
370
18
48
1
60
0
100
AcDbSpline
70
2053
71
3
72
94
73
90
40
0
40
0
40
0
40
0
40
0.0312499999999992
40
0.0312499999999992
40
0.0468749999999994
40
0.0468749999999994
40
0.0624999999999997
40
0.0624999999999997
40
0.0937500000000003
40
0.0937500000000003
40
0.109375
40
0.109375
40
0.125
40
0.140625
40
0.140625
40
0.15625
40
0.15625
40
0.187499999999999
40
0.187499999999999
40
0.203125
40
0.203125
40
0.21875
40
0.21875
40
0.234375
40
0.234375
40
0.25
40
0.25
40
0.281249999999999
40
0.281249999999999
40
0.296875
40
0.296875
40
0.312500000000001
40
0.312500000000001
40
0.343749999999999
40
0.343749999999999
40
0.374999999999998
40
0.374999999999998
40
0.390624999999999
40
0.390624999999999
40
0.406249999999999
40
0.406249999999999
40
0.437500000000001
40
0.437500000000001
40
0.468750000000002
40
0.468750000000002
40
0.500000000000004
40
0.500000000000004
40
0.531250000000005
40
0.531250000000005
40
0.562500000000007
40
0.562500000000007
40
0.578125000000007
40
0.578125000000007
40
0.593750000000007
40
0.593750000000007
40
0.625000000000007
40
0.625000000000007
40
0.640625000000006
40
0.640625000000006
40
0.656250000000006
40
0.671875000000006
40
0.671875000000006
40
0.687500000000006
40
0.687500000000006
40
0.703125000000005
40
0.703125000000005
40
0.718750000000005
40
0.718750000000005
40
0.750000000000007
40
0.750000000000007
40
0.765625000000008
40
0.765625000000008
40
0.781250000000009
40
0.781250000000009
40
0.812500000000008
40
0.812500000000008
40
0.843750000000008
40
0.843750000000008
40
0.875000000000007
40
0.875000000000007
40
0.906250000000007
40
0.906250000000007
40
0.937500000000006
40
0.937500000000006
40
0.953125000000005
40
0.953125000000005
40
0.968750000000003
40
0.968750000000003
40
1
40
1
40
1
40
1
41
1
10
76.266966764655
20
12.5269805358495
30
0
41
1
10
76.1398377870573
20
12.6160422243406
30
0
41
1
10
76.02376315441
20
12.7136977462781
30
0
41
1
10
75.8665060096174
20
12.8730366686911
30
0
41
1
10
75.8169146175064
20
12.9283064307676
30
0
41
1
10
75.7236919444275
20
13.0433493372028
30
0
41
1
10
75.6803042931409
20
13.1029024453889
30
0
41
1
10
75.5623844514207
20
13.2840507041126
30
0
41
1
10
75.4988802639903
20
13.4093889932533
30
0
41
1
10
75.427287171147
20
13.6043257567475
30
0
41
1
10
75.4073711173503
20
13.6707924603448
30
0
41
1
10
75.3767147908125
20
13.8026847515734
30
0
41
1
10
75.3548900402476
20
13.934249205888
30
0
41
1
10
75.3504767758518
20
14.0651349663584
30
0
41
1
10
75.3549472845733
20
14.1956711226871
30
0
41
1
10
75.3617252042489
20
14.2611309844737
30
0
41
1
10
75.3951125163049
20
14.4523675538506
30
0
41
1
10
75.4344603802386
20
14.5741422903125
30
0
41
1
10
75.5185574890164
20
14.7486037450618
30
0
41
1
10
75.5510030875179
20
14.8056063657134
30
0
41
1
10
75.622833020148
20
14.9143278901503
30
0
41
1
10
75.6623197787208
20
14.9663455437946
30
0
41
1
10
75.7481800366987
20
15.0659221870212
30
0
41
1
10
75.7945544845484
20
15.1134804690347
30
0
41
1
10
75.894155446588
20
15.2042253822136
30
0
41
1
10
75.9476069438399
20
15.2475310883235
30
0
41
1
10
76.1147853294748
20
15.3684097994759
30
0
41
1
10
76.2361231955006
20
15.4379498826945
30
0
41
1
10
76.4321404688254
20
15.5270170423119
30
0
41
1
10
76.5001661698384
20
15.5542473543764
30
0
41
1
10
76.6386795926931
20
15.6028413998298
30
0
41
1
10
76.7092651875819
20
15.62428708255
30
0
41
1
10
76.9248300698762
20
15.6805466173107
30
0
41
1
10
77.0735878533756
20
15.7073504985784
30
0
41
1
10
77.38104722798
20
15.7402466213165
30
0
41
1
10
77.5357760052857
20
15.7459150169798
30
0
41
1
10
77.7690794411535
20
15.7395039889449
30
0
41
1
10
77.8470616193787
20
15.7348635416376
30
0
41
1
10
78.0034551355659
20
15.7205767516053
30
0
41
1
10
78.0821744706301
20
15.7108794771155
30
0
41
1
10
78.3166599495854
20
15.6744548413921
30
0
41
1
10
78.4698005426053
20
15.6407054091767
30
0
41
1
10
78.7698467352859
20
15.5545928424501
30
0
41
1
10
78.9173043032692
20
15.5020006630672
30
0
41
1
10
79.2030732826935
20
15.3773454282999
30
0
41
1
10
79.3383449350943
20
15.3066924171624
30
0
41
1
10
79.5932829476916
20
15.148020671325
30
0
41
1
10
79.7129751583077
20
15.0600333938771
30
0
41
1
10
79.9343536300064
20
14.8636583503779
30
0
41
1
10
80.0322949155697
20
14.7585289127631
30
0
41
1
10
80.1584460587047
20
14.5897775416319
30
0
41
1
10
80.197031823168
20
14.5316534148494
30
0
41
1
10
80.2666912512527
20
14.4112981653068
30
0
41
1
10
80.2973773012841
20
14.3496394494039
30
0
41
1
10
80.3754560002484
20
14.1630204069603
30
0
41
1
10
80.4097058380767
20
14.0352919247172
30
0
41
1
10
80.4322965124031
20
13.8382017224241
30
0
41
1
10
80.4348803689541
20
13.7716898123533
30
0
41
1
10
80.4301140250849
20
13.6408461172721
30
0
41
1
10
80.4155684299556
20
13.5111651931855
30
0
41
1
10
80.3818538658196
20
13.3837828405858
30
0
41
1
10
80.3384462117773
20
13.2575855399258
30
0
41
1
10
80.3121502212285
20
13.1959110370361
30
0
41
1
10
80.2514744249736
20
13.0764968062199
30
0
41
1
10
80.2170216562214
20
13.0185481818818
30
0
41
1
10
80.1402320436536
20
12.906062074464
30
0
41
1
10
80.0976869366403
20
12.8512951599842
30
0
41
1
10
79.9598407175131
20
12.6937821005341
30
0
41
1
10
79.8556260453687
20
12.5988376761425
30
0
41
1
10
79.6828989584808
20
12.4701397071379
30
0
41
1
10
79.6222928941377
20
12.4293909627327
30
0
41
1
10
79.4970115460629
20
12.3533222613858
30
0
41
1
10
79.4325315968918
20
12.3180798742504
30
0
41
1
10
79.2339133018914
20
12.2202963540199
30
0
41
1
10
79.0946427348
20
12.1656300432735
30
0
41
1
10
78.8028824760499
20
12.0769652420828
30
0
41
1
10
78.6531177132806
20
12.0438724619598
30
0
41
1
10
78.3490478109901
20
11.9996544012288
30
0
41
1
10
78.1942677126147
20
11.9883981740041
30
0
41
1
10
77.8791846467946
20
11.9885196178322
30
0
41
1
10
77.7230454132831
20
11.9998965291037
30
0
41
1
10
77.4135148575579
20
12.0448375695227
30
0
41
1
10
77.2601225512765
20
12.0783930285493
30
0
41
1
10
77.0322467627679
20
12.1466837304467
30
0
41
1
10
76.9572023863652
20
12.1723226841546
30
0
41
1
10
76.8107262567547
20
12.2287302200726
30
0
41
1
10
76.7390175835666
20
12.2595795655521
30
0
41
1
10
76.5285330985475
20
12.360127393526
30
0
41
1
10
76.3940957422527
20
12.4379188473583
30
0
41
1
10
76.266966764655
20
12.5269805358495
30
0
0
SPLINE
5
130
100
AcDbEntity
8
1
62
256
6
ByLayer
370
18
48
1
60
0
100
AcDbSpline
70
4
71
3
72
16
73
12
40
0
40
0
40
0
40
0
40
0.25
40
0.25
40
0.500000000000001
40
0.500000000000001
40
0.750000000000001
40
0.750000000000001
40
0.875
40
0.875
40
1
40
1
40
1
40
1
41
1
10
10.1056624327026
20
9.86941261896624
30
0
41
1
10
10.1212498345487
20
9.81243201498808
30
0
41
1
10
10.1399018475136
20
9.75655023082976
30
0
41
1
10
10.185486409689
20
9.64780841973399
30
0
41
1
10
10.2124982207835
20
9.59456078532617
30
0
41
1
10
10.2791799968771
20
9.49465699870635
30
0
41
1
10
10.3189381439131
20
9.44778039735218
30
0
41
1
10
10.3915918423741
20
9.39323398486465
30
0
41
1
10
10.4185844965197
20
9.37745951316353
30
0
41
1
10
10.4761894743047
20
9.35548920253862
30
0
41
1
10
10.5072412025891
20
9.3492213145251
30
0
41
1
10
10.5386751345948
20
9.34922131452507
30
0
0
SPLINE
5
131
100
AcDbEntity
8
1
62
256
6
ByLayer
370
18
48
1
60
0
100
AcDbSpline
70
4
71
3
72
16
73
12
40
0
40
0
40
0
40
0
40
0.124999999999999
40
0.124999999999999
40
0.249999999999998
40
0.249999999999998
40
0.499999999999999
40
0.499999999999999
40
0.749999999999999
40
0.749999999999999
40
1
40
1
40
1
40
1
41
1
10
13.4613248654052
20
9.34922131452512
30
0
41
1
10
13.4928040273173
20
9.34922131452512
30
0
41
1
10
13.5234304266402
20
9.35536120669465
30
0
41
1
10
13.5815263070002
20
9.37748487924972
30
0
41
1
10
13.6079581046675
20
9.39290424748316
30
0
41
1
10
13.6817632688741
20
9.44829073160858
30
0
41
1
10
13.7208296342407
20
9.49467220053418
30
0
41
1
10
13.7874862877331
20
9.59453680346905
30
0
41
1
10
13.8142652669256
20
9.64728479257937
30
0
41
1
10
13.8599440812239
20
9.75611455014879
30
0
41
1
10
13.8787443055274
20
9.81241059371433
30
0
41
1
10
13.8943375672975
20
9.86941261896624
30
0
0
SPLINE
5
132
100
AcDbEntity
8
1
62
256
6
ByLayer
370
18
48
1
60
0
100
AcDbSpline
70
4
71
3
72
16
73
12
40
0
40
0
40
0
40
0
40
0.249999999999998
40
0.249999999999998
40
0.499999999999997
40
0.499999999999997
40
0.749999999999995
40
0.749999999999995
40
0.874999999999997
40
0.874999999999997
40
1
40
1
40
1
40
1
41
1
10
13.8943375672974
20
29.9139548464691
30
0
41
1
10
13.8787501654513
20
29.9327542695085
30
0
41
1
10
13.8600981524864
20
29.9510098933135
30
0
41
1
10
13.8145135903111
20
29.9862144781928
30
0
41
1
10
13.7875017792165
20
30.0032856662985
30
0
41
1
10
13.720820003123
20
30.0350501233767
30
0
41
1
10
13.6810618560869
20
30.0498069467437
30
0
41
1
10
13.6084081576259
20
30.0668840803113
30
0
41
1
10
13.5814155034803
20
30.0718038277879
30
0
41
1
10
13.5238105256953
20
30.0786461490401
30
0
41
1
10
13.4927587974109
20
30.080592760317
30
0
41
1
10
13.4613248654052
20
30.080592760317
30
0
0
SPLINE
5
133
100
AcDbEntity
8
1
62
256
6
ByLayer
370
18
48
1
60
0
100
AcDbSpline
70
4
71
3
72
16
73
12
40
0
40
0
40
0
40
0
40
0.124999999999999
40
0.124999999999999
40
0.249999999999998
40
0.249999999999998
40
0.499999999999999
40
0.499999999999999
40
0.749999999999999
40
0.749999999999999
40
1
40
1
40
1
40
1
41
1
10
10.5386751345949
20
30.0805927603169
30
0
41
1
10
10.5071959726828
20
30.0805927603169
30
0
41
1
10
10.4765695733598
20
30.078685990659
30
0
41
1
10
10.4184736929998
20
30.0717959485601
30
0
41
1
10
10.3920418953325
20
30.0669872793661
30
0
41
1
10
10.318236731126
20
30.049647240705
30
0
41
1
10
10.2791703657593
20
30.0350452819075
30
0
41
1
10
10.2125137122669
20
30.0032932993815
30
0
41
1
10
10.1857347330744
20
29.9863830332716
30
0
41
1
10
10.1400559187761
20
29.9511519005795
30
0
41
1
10
10.1212556944726
20
29.9327613369588
30
0
41
1
10
10.1056624327025
20
29.9139548464691
30
0
0
SPLINE
5
134
100
AcDbEntity
8
1
62
256
6
ByLayer
370
18
48
1
60
0
100
AcDbSpline
70
4
71
3
72
16
73
12
40
0
40
0
40
0
40
0
40
0.25
40
0.25
40
0.5
40
0.5
40
0.75
40
0.75
40
0.875
40
0.875
40
1
40
1
40
1
40
1
41
1
10
10.1056624327026
20
-29.9139548464691
30
0
41
1
10
10.1212498345487
20
-29.9327542695084
30
0
41
1
10
10.1399018475135
20
-29.9510098933135
30
0
41
1
10
10.1854864096889
20
-29.9862144781928
30
0
41
1
10
10.2124982207834
20
-30.0032856662985
30
0
41
1
10
10.279179996877
20
-30.0350501233766
30
0
41
1
10
10.318938143913
20
-30.0498069467437
30
0
41
1
10
10.391591842374
20
-30.0668840803112
30
0
41
1
10
10.4185844965196
20
-30.0718038277879
30
0
41
1
10
10.4761894743047
20
-30.0786461490401
30
0
41
1
10
10.5072412025891
20
-30.0805927603169
30
0
41
1
10
10.5386751345948
20
-30.0805927603169
30
0
0
SPLINE
5
135
100
AcDbEntity
8
1
62
256
6
ByLayer
370
18
48
1
60
0
100
AcDbSpline
70
4
71
3
72
16
73
12
40
0
40
0
40
0
40
0
40
0.124999999999999
40
0.124999999999999
40
0.249999999999999
40
0.249999999999999
40
0.499999999999999
40
0.499999999999999
40
0.75
40
0.75
40
1
40
1
40
1
40
1
41
1
10
13.4613248654052
20
-30.0805927603169
30
0
41
1
10
13.4928040273173
20
-30.0805927603169
30
0
41
1
10
13.5234304266402
20
-30.078685990659
30
0
41
1
10
13.5815263070002
20
-30.0717959485601
30
0
41
1
10
13.6079581046676
20
-30.0669872793661
30
0
41
1
10
13.6817632688741
20
-30.0496472407049
30
0
41
1
10
13.7208296342407
20
-30.0350452819075
30
0
41
1
10
13.7874862877331
20
-30.0032932993814
30
0
41
1
10
13.8142652669256
20
-29.9863830332716
30
0
41
1
10
13.8599440812239
20
-29.9511519005795
30
0
41
1
10
13.8787443055274
20
-29.9327613369588
30
0
41
1
10
13.8943375672975
20
-29.9139548464691
30
0
0
SPLINE
5
136
100
AcDbEntity
8
1
62
256
6
ByLayer
370
18
48
1
60
0
100
AcDbSpline
70
4
71
3
72
16
73
12
40
0
40
0
40
0
40
0
40
0.249999999999998
40
0.249999999999998
40
0.499999999999995
40
0.499999999999995
40
0.749999999999993
40
0.749999999999993
40
0.874999999999996
40
0.874999999999996
40
1
40
1
40
1
40
1
41
1
10
13.8943375672974
20
-9.86941261896618
30
0
41
1
10
13.8787501654513
20
-9.81243201498805
30
0
41
1
10
13.8600981524864
20
-9.75655023082967
30
0
41
1
10
13.814513590311
20
-9.64780841973391
30
0
41
1
10
13.7875017792165
20
-9.59456078532608
30
0
41
1
10
13.7208200031229
20
-9.49465699870626
30
0
41
1
10
13.6810618560868
20
-9.44778039735206
30
0
41
1
10
13.6084081576258
20
-9.39323398486457
30
0
41
1
10
13.5814155034803
20
-9.37745951316344
30
0
41
1
10
13.5238105256952
20
-9.35548920253854
30
0
41
1
10
13.4927587974108
20
-9.34922131452498
30
0
41
1
10
13.4613248654051
20
-9.34922131452501
30
0
0
SPLINE
5
137
100
AcDbEntity
8
1
62
256
6
ByLayer
370
18
48
1
60
0
100
AcDbSpline
70
4
71
3
72
16
73
12
40
0
40
0
40
0
40
0
40
0.125000000000005
40
0.125000000000005
40
0.250000000000009
40
0.250000000000009
40
0.500000000000006
40
0.500000000000006
40
0.750000000000003
40
0.750000000000003
40
1
40
1
40
1
40
1
41
1
10
10.5386751345948
20
-9.3492213145251
30
0
41
1
10
10.5071959726827
20
-9.3492213145251
30
0
41
1
10
10.4765695733598
20
-9.35536120669457
30
0
41
1
10
10.4184736929998
20
-9.37748487924964
30
0
41
1
10
10.3920418953324
20
-9.39290424748307
30
0
41
1
10
10.3182367311259
20
-9.44829073160847
30
0
41
1
10
10.2791703657593
20
-9.49467220053407
30
0
41
1
10
10.2125137122668
20
-9.59453680346897
30
0
41
1
10
10.1857347330743
20
-9.64728479257931
30
0
41
1
10
10.1400559187761
20
-9.75611455014874
30
0
41
1
10
10.1212556944726
20
-9.81241059371425
30
0
41
1
10
10.1056624327025
20
-9.86941261896618
30
0
0
SPLINE
5
138
100
AcDbEntity
8
1
62
256
6
ByLayer
370
18
48
1
60
0
100
AcDbSpline
70
4
71
3
72
46
73
42
40
0
40
0
40
0
40
0
40
0.125000000000001
40
0.125000000000001
40
0.250000000000003
40
0.250000000000003
40
0.375000000000004
40
0.375000000000004
40
0.437500000000005
40
0.437500000000005
40
0.468750000000005
40
0.468750000000005
40
0.500000000000005
40
0.500000000000005
40
0.562500000000005
40
0.562500000000005
40
0.593750000000005
40
0.593750000000005
40
0.625000000000005
40
0.625000000000005
40
0.687500000000004
40
0.687500000000004
40
0.750000000000003
40
0.750000000000003
40
0.765625000000003
40
0.765625000000003
40
0.781250000000003
40
0.781250000000003
40
0.812500000000003
40
0.812500000000003
40
0.875000000000002
40
0.875000000000002
40
0.906250000000002
40
0.906250000000002
40
0.937500000000001
40
0.937500000000001
40
0.953125000000001
40
0.953125000000001
40
0.968750000000001
40
0.968750000000001
40
1
40
1
40
1
40
1
41
1
10
57.6515163036182
20
-20.1120849783915
30
0
41
1
10
55.7800827113471
20
-20.442069213313
30
0
41
1
10
53.9246501545331
20
-20.8086851854757
30
0
41
1
10
50.2472744489059
20
-21.6126234617479
30
0
41
1
10
48.4253160894302
20
-22.0499591208439
30
0
41
1
10
44.8176334797052
20
-22.9924932368586
30
0
41
1
10
43.0318704215829
20
-23.4977177386759
30
0
41
1
10
40.3839664188982
20
-24.3036784068698
30
0
41
1
10
39.5064737081047
20
-24.5803439502457
30
0
41
1
10
38.1986512243471
20
-25.0068799533934
30
0
41
1
10
37.7635587968773
20
-25.1511696475701
30
0
41
1
10
36.8994620472692
20
-25.4424337669716
30
0
41
1
10
36.4705874173058
20
-25.5893570473044
30
0
41
1
10
35.1939666462448
20
-26.0335865611125
30
0
41
1
10
34.3561840447098
20
-26.3343753897276
30
0
41
1
10
33.1219699970502
20
-26.7905158668203
30
0
41
1
10
32.7143174563741
20
-26.9433837589294
30
0
41
1
10
31.9070748117108
20
-27.2503488171332
30
0
41
1
10
31.5068483007679
20
-27.4046960742881
30
0
41
1
10
30.3240918941871
20
-27.866969779785
30
0
41
1
10
29.5614602680807
20
-28.1733428609438
30
0
41
1
10
28.0960315306474
20
-28.7761272981196
30
0
41
1
10
27.3931190266411
20
-29.0725983328493
30
0
41
1
10
26.5599896678916
20
-29.4313420007014
30
0
41
1
10
26.3956575105659
20
-29.5024888208792
30
0
41
1
10
26.0718737026738
20
-29.6433905589561
30
0
41
1
10
25.9121583858441
20
-29.713261592119
30
0
41
1
10
25.4427874483102
20
-29.9196118784244
30
0
41
1
10
25.1439582969838
20
-30.0523610379636
30
0
41
1
10
24.2934300519869
20
-30.4334334467048
30
0
41
1
10
23.7869686553296
20
-30.6649242700086
30
0
41
1
10
23.1423840753795
20
-30.9629447219178
30
0
41
1
10
22.9502580628574
20
-31.0524336798445
30
0
41
1
10
22.6154496112411
20
-31.2090813094975
30
0
41
1
10
22.4725248320103
20
-31.2763515070703
30
0
41
1
10
22.2978492343598
20
-31.3587987719823
30
0
41
1
10
22.2462548745039
20
-31.3832002649397
30
0
41
1
10
22.157003676117
20
-31.4254608484974
30
0
41
1
10
22.1193588597314
20
-31.4433142745693
30
0
41
1
10
22.0296686598523
20
-31.4858805405529
30
0
41
1
10
21.9999900664398
20
-31.5000047274295
30
0
41
1
10
22.0000042894914
20
-31.49999795861
30
0
0
SPLINE
5
139
100
AcDbEntity
8
1
62
256
6
ByLayer
370
18
48
1
60
0
100
AcDbSpline
70
4
71
3
72
54
73
50
40
0
40
0
40
0
40
0
40
0.03125
40
0.03125
40
0.0390625
40
0.0390625
40
0.046875
40
0.046875
40
0.0624999999999999
40
0.0624999999999999
40
0.0937499999999998
40
0.0937499999999998
40
0.109375
40
0.109375
40
0.125
40
0.125
40
0.1875
40
0.1875
40
0.21875
40
0.21875
40
0.234375
40
0.234375
40
0.25
40
0.25
40
0.3125
40
0.3125
40
0.375000000000001
40
0.375000000000001
40
0.390625000000001
40
0.390625000000001
40
0.406250000000001
40
0.406250000000001
40
0.437500000000001
40
0.437500000000001
40
0.500000000000002
40
0.500000000000002
40
0.562500000000002
40
0.562500000000002
40
0.625000000000002
40
0.625000000000002
40
0.687500000000002
40
0.687500000000002
40
0.718750000000002
40
0.718750000000002
40
0.750000000000001
40
0.750000000000001
40
0.875000000000001
40
0.875000000000001
40
1
40
1
40
1
40
1
41
1
10
21.9999954847406
20
31.5000021488198
30
0
41
1
10
22.0000045152607
20
31.4999978511801
30
0
41
1
10
22.0296897286018
20
31.4858706078749
30
0
41
1
10
22.1042623934614
20
31.4504789226375
30
0
41
1
10
22.1210535487788
20
31.4425131462275
30
0
41
1
10
22.1584123683204
20
31.4248012096724
30
0
41
1
10
22.1790252208826
20
31.4150336659009
30
0
41
1
10
22.2461003105857
20
31.3832733447405
30
0
41
1
10
22.2978261356695
20
31.3588095905811
30
0
41
1
10
22.473016662651
20
31.2761195303197
30
0
41
1
10
22.6164451718258
20
31.2086128310303
30
0
41
1
10
22.868551103795
20
31.0906634714447
30
0
41
1
10
22.95876023668
20
31.0485604534113
30
0
41
1
10
23.1511662596435
20
30.959043647922
30
0
41
1
10
23.2536944302691
20
30.911477097517
30
0
41
1
10
23.7904285728512
20
30.6633402973931
30
0
41
1
10
24.2960974558141
20
30.4322304551557
30
0
41
1
10
25.1448414087494
20
30.0519693234803
30
0
41
1
10
25.4429756234795
20
29.9195309138004
30
0
41
1
10
25.911159025687
20
29.7137000633963
30
0
41
1
10
26.0710495605271
20
29.6437499463751
30
0
41
1
10
26.3954979132406
20
29.5025575318616
30
0
41
1
10
26.5601078109846
20
29.4312906044431
30
0
41
1
10
27.3943445717064
20
29.0720727149242
30
0
41
1
10
28.0972367373751
20
28.7756299841774
30
0
41
1
10
29.560727788279
20
28.173645725519
30
0
41
1
10
30.3214457003323
20
27.8680425884108
30
0
41
1
10
31.3034983564556
20
27.484164787823
30
0
41
1
10
31.501475161595
20
27.4072908434025
30
0
41
1
10
31.9004650676146
20
27.253426678765
30
0
41
1
10
32.1016805971657
20
27.1763601026142
30
0
41
1
10
32.7074573420021
20
26.9459674786704
30
0
41
1
10
33.1145725433049
20
26.7932810544712
30
0
41
1
10
34.3449673363487
20
26.3384593602729
30
0
41
1
10
35.1772641284548
20
26.0395800987824
30
0
41
1
10
36.862991148817
20
25.4526349328026
30
0
41
1
10
37.7164358154935
20
25.1645608671788
30
0
41
1
10
39.4424337817872
20
24.6008453129479
30
0
41
1
10
40.3149948189347
20
24.325199260562
30
0
41
1
10
42.0777444246576
20
23.7876445237532
30
0
41
1
10
42.9679374363244
20
23.5257330672999
30
0
41
1
10
44.3156157406794
20
23.1439898313244
30
0
41
1
10
44.7672579692697
20
23.0185004429198
30
0
41
1
10
45.6727351396866
20
22.7718449789574
30
0
41
1
10
46.1263808499428
20
22.6507257438165
30
0
41
1
10
48.3990349949336
20
22.0562475781728
30
0
41
1
10
50.2312752553353
20
21.6162540226217
30
0
41
1
10
53.9219819515746
20
20.8091363123904
30
0
41
1
10
55.780460182514
20
20.4420026549623
30
0
41
1
10
57.6515163036184
20
20.1120849783918
30
0
0
SPLINE
5
13A
100
AcDbEntity
8
SK1
62
256
6
ByLayer
370
18
48
1
60
0
100
AcDbSpline
70
4
71
3
72
26
73
22
40
0
40
0
40
0
40
0
40
0.249999999999999
40
0.249999999999999
40
0.499999999999998
40
0.499999999999998
40
0.624999999999998
40
0.624999999999998
40
0.687499999999998
40
0.687499999999998
40
0.749999999999998
40
0.749999999999998
40
0.812499999999998
40
0.812499999999998
40
0.874999999999998
40
0.874999999999998
40
0.906249999999999
40
0.906249999999999
40
0.9375
40
0.9375
40
1
40
1
40
1
40
1
41
1
10
-1.30710678118655
20
4.81101329740292
30
0
41
1
10
-1.27777674809065
20
4.97696208805672
30
0
41
1
10
-1.2444918437221
20
5.14110933888222
30
0
41
1
10
-1.16572403812293
20
5.46520409815255
30
0
41
1
10
-1.1204198695232
20
5.62560509654321
30
0
41
1
10
-1.03604034231248
20
5.85871268051363
30
0
41
1
10
-1.00514324915824
20
5.93523451486104
30
0
41
1
10
-0.951595196520543
20
6.04726373371716
30
0
41
1
10
-0.932528346395458
20
6.08414226541723
30
0
41
1
10
-0.890792591053525
20
6.15658914480716
30
0
41
1
10
-0.868002365538018
20
6.19240090738072
30
0
41
1
10
-0.817160575690622
20
6.26079505981272
30
0
41
1
10
-0.789433163823588
20
6.29319778625552
30
0
41
1
10
-0.724969179209751
20
6.3511315882939
30
0
41
1
10
-0.687361729545614
20
6.3773302451699
30
0
41
1
10
-0.622158748113947
20
6.39958064489684
30
0
41
1
10
-0.599752058371394
20
6.40383193253004
30
0
41
1
10
-0.553302263741188
20
6.40463597982054
30
0
41
1
10
-0.530550758270607
20
6.40110290558209
30
0
41
1
10
-0.464963827942824
20
6.38073633145464
30
0
41
1
10
-0.427743955231904
20
6.3557979448199
30
0
41
1
10
-0.394976888874766
20
6.32694309068154
30
0
0
SPLINE
5
13B
100
AcDbEntity
8
SK1
62
256
6
ByLayer
370
18
48
1
60
0
100
AcDbSpline
70
4
71
3
72
24
73
20
40
0
40
0
40
0
40
0
40
0.0312500000000004
40
0.0312500000000004
40
0.0625000000000009
40
0.0625000000000009
40
0.0937500000000013
40
0.0937500000000013
40
0.125000000000002
40
0.125000000000002
40
0.187500000000003
40
0.187500000000003
40
0.250000000000003
40
0.250000000000003
40
0.375000000000002
40
0.375000000000002
40
0.500000000000001
40
0.500000000000001
40
1
40
1
40
1
40
1
41
1
10
-0.394976888875192
20
6.32694309066903
30
0
41
1
10
-0.388478791141125
20
6.32122083099983
30
0
41
1
10
-0.381313154819424
20
6.31618565872657
30
0
41
1
10
-0.365409710573488
20
6.3094219627846
30
0
41
1
10
-0.356491145072198
20
6.30782589043301
30
0
41
1
10
-0.338830866580025
20
6.31048209062163
30
0
41
1
10
-0.330289930609808
20
6.31473882346552
30
0
41
1
10
-0.315858342049893
20
6.325930332962
30
0
41
1
10
-0.309649778597219
20
6.33285276949917
30
0
41
1
10
-0.293313689377101
20
6.35478748070295
30
0
41
1
10
-0.285093867610641
20
6.37118996774487
30
0
41
1
10
-0.271027300228298
20
6.40434328922592
30
0
41
1
10
-0.265260102162785
20
6.4212110145273
30
0
41
1
10
-0.249955006097849
20
6.47225869816413
30
0
41
1
10
-0.242396853957018
20
6.50696236445464
30
0
41
1
10
-0.229806665913145
20
6.5765147441717
30
0
41
1
10
-0.22488157514158
20
6.61123172400949
30
0
41
1
10
-0.204383593087385
20
6.7845497387747
30
0
41
1
10
-0.200000000000955
20
6.92236219959722
30
0
41
1
10
-0.200000000000955
20
7.05951756777671
30
0
0
SPLINE
5
13C
100
AcDbEntity
8
SK1
62
256
6
ByLayer
370
18
48
1
60
0
100
AcDbSpline
70
4
71
3
72
24
73
20
40
0
40
0
40
0
40
0
40
0.180560443925774
40
0.180560443925774
40
0.385420332944328
40
0.385420332944328
40
0.590280221962883
40
0.590280221962883
40
0.692710166472162
40
0.692710166472162
40
0.795140110981441
40
0.795140110981441
40
0.846355083236081
40
0.846355083236081
40
0.897570055490721
40
0.897570055490721
40
0.94878502774536
40
0.94878502774536
40
1
40
1
40
1
40
1
41
1
10
-0.211774796395048
20
21.9858303382684
30
0
41
1
10
-0.214263998376197
20
21.9778869919918
30
0
41
1
10
-0.217263684578285
20
21.9696911870881
30
0
41
1
10
-0.225032192728634
20
21.9515892743038
30
0
41
1
10
-0.229988326543179
20
21.9416123435507
30
0
41
1
10
-0.242605492613819
20
21.920701966028
30
0
41
1
10
-0.250187890171901
20
21.9097768088572
30
0
41
1
10
-0.265534058490943
20
21.8924690412287
30
0
41
1
10
-0.271315664905643
20
21.886540084086
30
0
41
1
10
-0.285411067143627
20
21.8741692869325
30
0
41
1
10
-0.293612120911348
20
21.8677270131829
30
0
41
1
10
-0.31006969233448
20
21.8577563969492
30
0
41
1
10
-0.316188605996956
20
21.8544274429473
30
0
41
1
10
-0.330727773059493
20
21.8479117690461
30
0
41
1
10
-0.339135854376366
20
21.8448075063515
30
0
41
1
10
-0.356576517802751
20
21.8400796301785
30
0
41
1
10
-0.365590347620014
20
21.8384851949985
30
0
41
1
10
-0.381451910103465
20
21.8368338440472
30
0
41
1
10
-0.38851013218229
20
21.8366679278901
30
0
41
1
10
-0.394976888875334
20
21.8368455663701
30
0
0
SPLINE
5
13D
100
AcDbEntity
8
SK1
62
256
6
ByLayer
370
18
48
1
60
0
100
AcDbSpline
70
4
71
3
72
24
73
20
40
0
40
0
40
0
40
0
40
0.0590630534206579
40
0.0590630534206579
40
0.118126106841316
40
0.118126106841316
40
0.177189160261974
40
0.177189160261974
40
0.236252213682632
40
0.236252213682632
40
0.354378320523952
40
0.354378320523952
40
0.472504427365272
40
0.472504427365272
40
0.708756641047905
40
0.708756641047905
40
0.945008854730538
40
0.945008854730538
40
1
40
1
40
1
40
1
41
1
10
-0.394976888874965
20
-21.8368457077637
30
0
41
1
10
-0.388478784839918
20
-21.8366672028084
30
0
41
1
10
-0.381313136145366
20
-21.8368405532067
30
0
41
1
10
-0.365409654484637
20
-21.8385121586143
30
0
41
1
10
-0.356491056758045
20
-21.8400912859542
30
0
41
1
10
-0.338830724010535
20
-21.844902234036
30
0
41
1
10
-0.330289777700358
20
-21.8480871395628
30
0
41
1
10
-0.315858195764804
20
-21.8545978371135
30
0
41
1
10
-0.309649635830738
20
-21.8579930086273
30
0
41
1
10
-0.293313577746687
20
-21.8679460109409
30
0
41
1
10
-0.285093768392187
20
-21.8744226794139
30
0
41
1
10
-0.271027231501904
20
-21.8868197672956
30
0
41
1
10
-0.265260039644204
20
-21.892757209636
30
0
41
1
10
-0.249954949824655
20
-21.9100834965611
30
0
41
1
10
-0.242396787586216
20
-21.9210108778574
30
0
41
1
10
-0.229806603943132
20
-21.9419519763543
30
0
41
1
10
-0.22488152138061
20
-21.9519088703319
30
0
41
1
10
-0.219827694911317
20
-21.9637245784535
30
0
41
1
10
-0.218914140654562
20
-21.9659364400945
30
0
41
1
10
-0.218039767209262
20
-21.9681296418646
30
0
0
SPLINE
5
13E
100
AcDbEntity
8
SK1
62
256
6
ByLayer
370
18
48
1
60
0
100
AcDbSpline
70
4
71
3
72
26
73
22
40
0
40
0
40
0
40
0
40
0.250000000000001
40
0.250000000000001
40
0.500000000000002
40
0.500000000000002
40
0.625000000000003
40
0.625000000000003
40
0.750000000000003
40
0.750000000000003
40
0.812500000000002
40
0.812500000000002
40
0.875000000000002
40
0.875000000000002
40
0.906250000000001
40
0.906250000000001
40
0.937500000000001
40
0.937500000000001
40
0.96875
40
0.96875
40
1
40
1
40
1
40
1
41
1
10
-0.200000000000046
20
-7.0595174934208
30
0
41
1
10
-0.200000000000017
20
-6.99088366827033
30
0
41
1
10
-0.201319609066815
20
-6.92203745653023
30
0
41
1
10
-0.207680242986697
20
-6.78384770613769
30
0
41
1
10
-0.212644818423257
20
-6.71441370073742
30
0
41
1
10
-0.22503236228772
20
-6.61010153250697
30
0
41
1
10
-0.229988536108891
20
-6.57535167439423
30
0
41
1
10
-0.242605757740364
20
-6.50597096289752
30
0
41
1
10
-0.250188173910715
20
-6.47131022305018
30
0
41
1
10
-0.265534367861676
20
-6.42038445843187
30
0
41
1
10
-0.271315983615722
20
-6.4035658820581
30
0
41
1
10
-0.285411407521366
20
-6.37054221190874
30
0
41
1
10
-0.293612475506251
20
-6.35425158209907
30
0
41
1
10
-0.310070058832906
20
-6.33235891704214
30
0
41
1
10
-0.316188975329993
20
-6.32559855176615
30
0
41
1
10
-0.330728129252947
20
-6.31447788013506
30
0
41
1
10
-0.339136190980298
20
-6.31039609843523
30
0
41
1
10
-0.356576769858492
20
-6.30785340244552
30
0
41
1
10
-0.365590532907419
20
-6.30947164062371
30
0
41
1
10
-0.381451989855066
20
-6.31627189389673
30
0
41
1
10
-0.388510166361186
20
-6.3212481650807
30
0
41
1
10
-0.394976888875362
20
-6.32694279392754
30
0
0
SPLINE
5
13F
100
AcDbEntity
8
SK1
62
256
6
ByLayer
370
18
48
1
60
0
100
AcDbSpline
70
4
71
3
72
30
73
26
40
0
40
0
40
0
40
0
40
0.031250000000001
40
0.031250000000001
40
0.0625000000000019
40
0.0625000000000019
40
0.0937500000000028
40
0.0937500000000028
40
0.125000000000004
40
0.125000000000004
40
0.156250000000005
40
0.156250000000005
40
0.187500000000005
40
0.187500000000005
40
0.250000000000006
40
0.250000000000006
40
0.312500000000006
40
0.312500000000006
40
0.375000000000006
40
0.375000000000006
40
0.500000000000005
40
0.500000000000005
40
0.750000000000002
40
0.750000000000002
40
1
40
1
40
1
40
1
41
1
10
-0.394976888875362
20
-6.32694279392754
30
0
41
1
10
-0.411238696721796
20
-6.34126302490415
30
0
41
1
10
-0.428507485946341
20
-6.35445833731507
30
0
41
1
10
-0.466057816276105
20
-6.37750355983715
30
0
41
1
10
-0.486259278879913
20
-6.38723211102038
30
0
41
1
10
-0.528928737140831
20
-6.40070980810017
30
0
41
1
10
-0.552005370573312
20
-6.4044665461802
30
0
41
1
10
-0.597682826800423
20
-6.40404538429902
30
0
41
1
10
-0.62074796917139
20
-6.39988942772297
30
0
41
1
10
-0.663841284887127
20
-6.38551624086304
30
0
41
1
10
-0.684254761753067
20
-6.37530734814362
30
0
41
1
10
-0.721714491331909
20
-6.35175818060958
30
0
41
1
10
-0.739184552681451
20
-6.33820913265029
30
0
41
1
10
-0.788162075932064
20
-6.29461172820729
30
0
41
1
10
-0.815964113388588
20
-6.26223556861288
30
0
41
1
10
-0.86681058547714
20
-6.19416487342838
30
0
41
1
10
-0.889725334639508
20
-6.15831922452332
30
0
41
1
10
-0.931663440024437
20
-6.08576021404923
30
0
41
1
10
-0.950810679353566
20
-6.04882063700353
30
0
41
1
10
-1.00456810808541
20
-5.93660131926191
30
0
41
1
10
-1.03556300059233
20
-5.85994358458373
30
0
41
1
10
-1.12018816360205
20
-5.62641894994655
30
0
41
1
10
-1.16556178401135
20
-5.4658169284836
30
0
41
1
10
-1.24442385148595
20
-5.14144332217066
30
0
41
1
10
-1.27774590369936
20
-4.97713666802875
30
0
41
1
10
-1.30710678118643
20
-4.81101321788438
30
0
0
SPLINE
5
140
100
AcDbEntity
8
SK1
62
256
6
ByLayer
370
18
48
1
60
0
100
AcDbSpline
70
4
71
3
72
295
73
291
40
0
40
0
40
0
40
0
40
0.0029752386937545
40
0.0065509574103559
40
0.0101266761269573
40
0.0137023948435588
40
0.0172781135601602
40
0.0208538322767616
40
0.0280052697099645
40
0.0351567071431673
40
0.0423081445763702
40
0.0458838632929716
40
0.0494595820095731
40
0.0530353007261745
40
0.0566110194427759
40
0.0637624568759788
40
0.0673381755925802
40
0.0709138943091816
40
0.0744896130257831
40
0.0780653317423845
40
0.0816410504589859
40
0.0852167691755873
40
0.0923682066087902
40
0.0959439253253916
40
0.0995196440419931
40
0.103095362758595
40
0.106671081475196
40
0.110246800191797
40
0.113822518908399
40
0.117398237625
40
0.120973956341602
40
0.124549675058203
40
0.128125393774805
40
0.131701112491406
40
0.135276831208007
40
0.138852549924609
40
0.14242826864121
40
0.149579706074413
40
0.153155424791014
40
0.156731143507616
40
0.158519002865917
40
0.160306862224217
40
0.163882580940819
40
0.171034018374022
40
0.174609737090623
40
0.178185455807225
40
0.181761174523826
40
0.185336893240427
40
0.19248833067363
40
0.196064049390232
40
0.199639768106833
40
0.201427627465134
40
0.203215486823434
40
0.206791205540036
40
0.213942642973239
40
0.21751836168984
40
0.221094080406442
40
0.224669799123043
40
0.228245517839645
40
0.235396955272847
40
0.238972673989449
40
0.24254839270605
40
0.244336252064351
40
0.246124111422652
40
0.249699830139253
40
0.253275548855855
40
0.256851267572456
40
0.258639126930757
40
0.260426986289057
40
0.264002705005659
40
0.26757842372226
40
0.271154142438862
40
0.274729861155463
40
0.278305579872065
40
0.281881298588666
40
0.285457017305267
40
0.289032736021869
40
0.29260845473847
40
0.296184173455072
40
0.299759892171673
40
0.303335610888274
40
0.306911329604876
40
0.310487048321477
40
0.314062767038079
40
0.321214204471282
40
0.324789923187883
40
0.328365641904484
40
0.331941360621086
40
0.335517079337687
40
0.339092798054289
40
0.34266851677089
40
0.346244235487492
40
0.349819954204093
40
0.356971391637296
40
0.364122829070499
40
0.371274266503702
40
0.374849985220303
40
0.378425703936905
40
0.382001422653506
40
0.385577141370107
40
0.389152860086709
40
0.39272857880331
40
0.396304297519912
40
0.399880016236513
40
0.403455734953114
40
0.407031453669716
40
0.410607172386317
40
0.414182891102919
40
0.41775860981952
40
0.421334328536122
40
0.424910047252723
40
0.428485765969324
40
0.432061484685926
40
0.433849344044227
40
0.435637203402527
40
0.437425062760828
40
0.439212922119129
40
0.44278864083573
40
0.446364359552332
40
0.448152218910632
40
0.449940078268933
40
0.451727937627234
40
0.453515796985535
40
0.457091515702136
40
0.458879375060437
40
0.460667234418737
40
0.462455093777038
40
0.464242953135339
40
0.46603081249364
40
0.46781867185194
40
0.469606531210241
40
0.471394390568542
40
0.473182249926842
40
0.474970109285143
40
0.476757968643444
40
0.478545828001745
40
0.480333687360045
40
0.482121546718346
40
0.483909406076647
40
0.485697265434947
40
0.487485124793248
40
0.489272984151549
40
0.49106084350985
40
0.49284870286815
40
0.494636562226451
40
0.496424421584752
40
0.498212280943052
40
0.500000140301353
40
0.501787999659654
40
0.503575859017955
40
0.505363718376255
40
0.507151577734556
40
0.508939437092857
40
0.510727296451157
40
0.512515155809458
40
0.514303015167759
40
0.51609087452606
40
0.51787873388436
40
0.519666593242661
40
0.521454452600962
40
0.523242311959262
40
0.525030171317563
40
0.526818030675864
40
0.528605890034165
40
0.530393749392465
40
0.532181608750766
40
0.533969468109067
40
0.535757327467367
40
0.537545186825668
40
0.539333046183969
40
0.54112090554227
40
0.54290876490057
40
0.546484483617172
40
0.548272342975472
40
0.550060202333773
40
0.551848061692074
40
0.553635921050375
40
0.557211639766976
40
0.560787358483577
40
0.562575217841878
40
0.564363077200179
40
0.56615093655848
40
0.56793879591678
40
0.571514514633382
40
0.575090233349983
40
0.578665952066585
40
0.582241670783186
40
0.585817389499787
40
0.589393108216389
40
0.59296882693299
40
0.596544545649592
40
0.600120264366193
40
0.603695983082795
40
0.607271701799396
40
0.610847420515997
40
0.614423139232599
40
0.6179988579492
40
0.621574576665802
40
0.625150295382403
40
0.628726014099005
40
0.635877451532207
40
0.64302888896541
40
0.650180326398613
40
0.653756045115215
40
0.657331763831816
40
0.660907482548417
40
0.664483201265019
40
0.66805891998162
40
0.671634638698222
40
0.675210357414823
40
0.678786076131425
40
0.685937513564627
40
0.689513232281229
40
0.69308895099783
40
0.696664669714432
40
0.700240388431033
40
0.703816107147635
40
0.707391825864236
40
0.710967544580837
40
0.714543263297439
40
0.71811898201404
40
0.721694700730642
40
0.725270419447243
40
0.728846138163845
40
0.735997575597047
40
0.739573294313649
40
0.74314901303025
40
0.750300450463453
40
0.753876169180055
40
0.757451887896656
40
0.761027606613257
40
0.764603325329859
40
0.771754762763062
40
0.775330481479663
40
0.778906200196265
40
0.782481918912866
40
0.786057637629467
40
0.79320907506267
40
0.796784793779272
40
0.800360512495873
40
0.803936231212475
40
0.807511949929076
40
0.814663387362279
40
0.81823910607888
40
0.821814824795482
40
0.825390543512083
40
0.828966262228685
40
0.836117699661887
40
0.839693418378489
40
0.84326913709509
40
0.846844855811692
40
0.850420574528293
40
0.857572011961496
40
0.861147730678097
40
0.864723449394699
40
0.8682991681113
40
0.871874886827902
40
0.875450605544503
40
0.879026324261105
40
0.882602042977706
40
0.886177761694308
40
0.889753480410909
40
0.89332919912751
40
0.896904917844112
40
0.900480636560713
40
0.904056355277315
40
0.907632073993916
40
0.914783511427119
40
0.91835923014372
40
0.921934948860322
40
0.925510667576923
40
0.929086386293525
40
0.932662105010126
40
0.936237823726727
40
0.94338926115993
40
0.946964979876532
40
0.950540698593133
40
0.954116417309735
40
0.957692136026336
40
0.964843573459539
40
0.96841929217614
40
0.971995010892742
40
0.975570729609343
40
0.979146448325945
40
0.982722167042546
40
0.986297885759147
40
0.989873604475749
40
0.99344932319235
40
0.997025041908952
40
1
40
1
40
1
40
1
41
1
10
-2.1999999999999
20
22.0135726737869
30
0
41
1
10
-2.1999999999999
20
22.011770123492
30
0
41
1
10
-2.19999999999987
20
22.0069887605172
30
0
41
1
10
-2.19999999999996
20
21.9968726461305
30
0
41
1
10
-2.19999999999987
20
21.9830583750198
30
0
41
1
10
-2.19999999999985
20
21.9661971621578
30
0
41
1
10
-2.20000000000002
20
21.9463373083127
30
0
41
1
10
-2.19999999999996
20
21.9159230944434
30
0
41
1
10
-2.19999999999987
20
21.870633664349
30
0
41
1
10
-2.1999999999999
20
21.8049949078794
30
0
41
1
10
-2.19999999999999
20
21.7411390111089
30
0
41
1
10
-2.19999999999993
20
21.6847072709129
30
0
41
1
10
-2.20000000000002
20
21.6397397481889
30
0
41
1
10
-2.20000000000002
20
21.5921615264853
30
0
41
1
10
-2.19999999999999
20
21.5252891523049
30
0
41
1
10
-2.19999999999999
20
21.4533087531771
30
0
41
1
10
-2.20000000000002
20
21.376354727627
30
0
41
1
10
-2.19999999999985
20
21.3161703964092
30
0
41
1
10
-2.20000000000002
20
21.2535469243879
30
0
41
1
10
-2.19999999999996
20
21.1885090229233
30
0
41
1
10
-2.2000000000001
20
21.1210800834731
30
0
41
1
10
-2.19999999999987
20
21.0280237507365
30
0
41
1
10
-2.19999999999987
20
20.9302657445267
30
0
41
1
10
-2.20000000000007
20
20.8279188369073
30
0
41
1
10
-2.19999999999987
20
20.7488739070253
30
0
41
1
10
-2.19999999999987
20
20.6675681841826
30
0
41
1
10
-2.19999999999993
20
20.5840212184218
30
0
41
1
10
-2.19999999999985
20
20.4982502525026
30
0
41
1
10
-2.19999999999993
20
20.4102747128949
30
0
41
1
10
-2.20000000000002
20
20.3201119071544
30
0
41
1
10
-2.19999999999993
20
20.2277776663919
30
0
41
1
10
-2.19999999999987
20
20.1332899477275
30
0
41
1
10
-2.19999999999999
20
20.0366642357895
30
0
41
1
10
-2.20000000000002
20
19.93791515993
30
0
41
1
10
-2.20000000000002
20
19.8370591957147
30
0
41
1
10
-2.19999999999985
20
19.7341102362336
30
0
41
1
10
-2.19999999999999
20
19.5940778412012
30
0
41
1
10
-2.20000000000005
20
19.4499005336558
30
0
41
1
10
-2.19999999999985
20
19.3016622310534
30
0
41
1
10
-2.19999999999999
20
19.2073184270572
30
0
41
1
10
-2.19999999999999
20
19.1308417758755
30
0
41
1
10
-2.19999999999999
20
19.0536957086557
30
0
41
1
10
-2.2000000000001
20
18.9169360704623
30
0
41
1
10
-2.19999999999993
20
18.7566457946411
30
0
41
1
10
-2.19999999999985
20
18.5924362845557
30
0
41
1
10
-2.20000000000007
20
18.4673177976699
30
0
41
1
10
-2.19999999999993
20
18.3402521463352
30
0
41
1
10
-2.20000000000002
20
18.1682545122203
30
0
41
1
10
-2.20000000000002
20
17.9923842356822
30
0
41
1
10
-2.20000000000002
20
17.8127164551588
30
0
41
1
10
-2.20000000000002
20
17.6988333809735
30
0
41
1
10
-2.20000000000002
20
17.606787767091
30
0
41
1
10
-2.20000000000002
20
17.5141131161323
30
0
41
1
10
-2.19999999999987
20
17.3502824417037
30
0
41
1
10
-2.20000000000005
20
17.1592829447589
30
0
41
1
10
-2.19999999999996
20
16.9645867974537
30
0
41
1
10
-2.19999999999993
20
16.8167088060477
30
0
41
1
10
-2.19999999999999
20
16.6669871400996
30
0
41
1
10
-2.1999999999999
20
16.4649164953067
30
0
41
1
10
-2.19999999999999
20
16.2591646002877
30
0
41
1
10
-2.20000000000007
20
16.049802831716
30
0
41
1
10
-2.20000000000005
20
15.9174340084589
30
0
41
1
10
-2.19999999999987
20
15.8106442286412
30
0
41
1
10
-2.19999999999993
20
15.7032538676567
30
0
41
1
10
-2.20000000000002
20
15.5678823963091
30
0
41
1
10
-2.19999999999996
20
15.403650214398
30
0
41
1
10
-2.20000000000013
20
15.2652965264295
30
0
41
1
10
-2.19999999999987
20
15.1537302031574
30
0
41
1
10
-2.19999999999999
20
15.0415708470877
30
0
41
1
10
-2.19999999999993
20
14.90025131083
30
0
41
1
10
-2.19999999999987
20
14.7289012367182
30
0
41
1
10
-2.20000000000002
20
14.5557843226632
30
0
41
1
10
-2.19999999999993
20
14.3809062427341
30
0
41
1
10
-2.19999999999987
20
14.2042700822292
30
0
41
1
10
-2.19999999999987
20
14.0258803741545
30
0
41
1
10
-2.1999999999999
20
13.8457420253845
30
0
41
1
10
-2.19999999999987
20
13.6638579861817
30
0
41
1
10
-2.20000000000002
20
13.4802328481715
30
0
41
1
10
-2.2000000000001
20
13.2948705974071
30
0
41
1
10
-2.20000000000005
20
13.1077737485312
30
0
41
1
10
-2.19999999999996
20
12.9189467805058
30
0
41
1
10
-2.19999999999996
20
12.728392778749
30
0
41
1
10
-2.19999999999987
20
12.5361142588231
30
0
41
1
10
-2.20000000000013
20
12.2774598592137
30
0
41
1
10
-2.20000000000002
20
12.0153352592314
30
0
41
1
10
-2.19999999999996
20
11.7498207258852
30
0
41
1
10
-2.20000000000002
20
11.5489655826483
30
0
41
1
10
-2.19999999999999
20
11.3464032807099
30
0
41
1
10
-2.1999999999999
20
11.1421359853758
30
0
41
1
10
-2.20000000000002
20
10.936165587976
30
0
41
1
10
-2.19999999999996
20
10.7284950970914
30
0
41
1
10
-2.19999999999993
20
10.5191258614377
30
0
41
1
10
-2.19999999999996
20
10.2377184130835
30
0
41
1
10
-2.1999999999999
20
9.8816930497099
30
0
41
1
10
-2.20000000000005
20
9.44771865839314
30
0
41
1
10
-2.19999999999996
20
9.08043848955606
30
0
41
1
10
-2.19999999999999
20
8.78327689677778
30
0
41
1
10
-2.19999999999987
20
8.55871419535623
30
0
41
1
10
-2.20000000000005
20
8.33247380011304
30
0
41
1
10
-2.20000000000002
20
8.10455852701509
30
0
41
1
10
-2.19999999999996
20
7.87497060194647
30
0
41
1
10
-2.19999999999985
20
7.64371283673122
30
0
41
1
10
-2.19999999999996
20
7.41078884464244
30
0
41
1
10
-2.20000000000005
20
7.17620220160035
30
0
41
1
10
-2.20000000000002
20
6.93995692090425
30
0
41
1
10
-2.19999999999987
20
6.70205758660666
30
0
41
1
10
-2.20000000000005
20
6.46250918569621
30
0
41
1
10
-2.19999999999987
20
6.22131784000123
30
0
41
1
10
-2.19999999999999
20
5.97849049576269
30
0
41
1
10
-2.20000000000002
20
5.7340352157583
30
0
41
1
10
-2.20000000000002
20
5.48796107357259
30
0
41
1
10
-2.20000000000005
20
5.24027911118981
30
0
41
1
10
-2.19999999999993
20
5.0325366102349
30
0
41
1
10
-2.19999999999999
20
4.86557359122423
30
0
41
1
10
-2.20000000000007
20
4.73994908127324
30
0
41
1
10
-2.20000000000005
20
4.6139337133902
30
0
41
1
10
-2.19999999999999
20
4.44540774959791
30
0
41
1
10
-2.1999999999999
20
4.23375652596866
30
0
41
1
10
-2.19999999999993
20
4.02083961713785
30
0
41
1
10
-2.1999999999999
20
3.8497843915242
30
0
41
1
10
-2.1999999999999
20
3.72111342731071
30
0
41
1
10
-2.20000000000002
20
3.59207749308626
30
0
41
1
10
-2.20000000000013
20
3.41956369464538
30
0
41
1
10
-2.20000000000002
20
3.24629481959224
30
0
41
1
10
-2.20000000000005
20
3.07238361507393
30
0
41
1
10
-2.19999999999987
20
2.94160046512803
30
0
41
1
10
-2.19999999999993
20
2.8104864764463
30
0
41
1
10
-2.1999999999999
20
2.67904892732184
30
0
41
1
10
-2.20000000000002
20
2.54729562722179
30
0
41
1
10
-2.2000000000001
20
2.41523551097492
30
0
41
1
10
-2.19999999999985
20
2.28287740252159
30
0
41
1
10
-2.2000000000001
20
2.15023166945258
30
0
41
1
10
-2.19999999999996
20
2.01730873413075
30
0
41
1
10
-2.20000000000005
20
1.88412021099793
30
0
41
1
10
-2.1999999999999
20
1.75067841854354
30
0
41
1
10
-2.20000000000002
20
1.61699634722075
30
0
41
1
10
-2.19999999999996
20
1.4830882188563
30
0
41
1
10
-2.19999999999999
20
1.3489685925438
30
0
41
1
10
-2.20000000000013
20
1.21465350310544
30
0
41
1
10
-2.19999999999999
20
1.08015921626893
30
0
41
1
10
-2.19999999999999
20
0.945503442662812
30
0
41
1
10
-2.20000000000013
20
0.810704113119101
30
0
41
1
10
-2.20000000000005
20
0.675780421912378
30
0
41
1
10
-2.19999999999996
20
0.540751787789617
30
0
41
1
10
-2.19999999999996
20
0.40563859909895
30
0
41
1
10
-2.20000000000002
20
0.27046142827146
30
0
41
1
10
-2.20000000000002
20
0.135241462279851
30
0
41
1
10
-2.19999999999999
20
-5.3654503E-09
30
0
41
1
10
-2.20000000000002
20
-0.135241472589968
30
0
41
1
10
-2.1999999999999
20
-0.270461437853896
30
0
41
1
10
-2.20000000000002
20
-0.405638608907879
30
0
41
1
10
-2.20000000000002
20
-0.5407517986865
30
0
41
1
10
-2.20000000000005
20
-0.675780432522146
30
0
41
1
10
-2.19999999999985
20
-0.81070412204491
30
0
41
1
10
-2.20000000000005
20
-0.945503451789506
30
0
41
1
10
-2.19999999999999
20
-1.08015922751392
30
0
41
1
10
-2.1999999999999
20
-1.21465351395381
30
0
41
1
10
-2.20000000000002
20
-1.34896860046496
30
0
41
1
10
-2.20000000000002
20
-1.48308822685561
30
0
41
1
10
-2.20000000000002
20
-1.61699635855223
30
0
41
1
10
-2.19999999999987
20
-1.75067843002708
30
0
41
1
10
-2.19999999999999
20
-1.88412021847034
30
0
41
1
10
-2.1999999999999
20
-2.01730874020453
30
0
41
1
10
-2.19999999999996
20
-2.15023167925045
30
0
41
1
10
-2.1999999999999
20
-2.28287741513998
30
0
41
1
10
-2.1999999999999
20
-2.41523552035434
30
0
41
1
10
-2.20000000000002
20
-2.54729563151923
30
0
41
1
10
-2.2000000000001
20
-2.6790489329168
30
0
41
1
10
-2.20000000000005
20
-2.8104864876961
30
0
41
1
10
-2.19999999999987
20
-2.94160047796308
30
0
41
1
10
-2.20000000000002
20
-3.07238362297497
30
0
41
1
10
-2.20000000000002
20
-3.24629481975683
30
0
41
1
10
-2.19999999999999
20
-3.41956370437862
30
0
41
1
10
-2.19999999999993
20
-3.5920775068484
30
0
41
1
10
-2.19999999999996
20
-3.72111343644573
30
0
41
1
10
-2.19999999999987
20
-3.84978439330675
30
0
41
1
10
-2.20000000000002
20
-4.02083961748897
30
0
41
1
10
-2.20000000000005
20
-4.23375654375474
30
0
41
1
10
-2.20000000000002
20
-4.4454077575958
30
0
41
1
10
-2.19999999999987
20
-4.61393371339869
30
0
41
1
10
-2.20000000000002
20
-4.73994907984496
30
0
41
1
10
-2.20000000000002
20
-4.86557359653659
30
0
41
1
10
-2.20000000000002
20
-5.03253662624775
30
0
41
1
10
-2.19999999999993
20
-5.24027911954082
30
0
41
1
10
-2.2000000000001
20
-5.48796106514416
30
0
41
1
10
-2.20000000000002
20
-5.73403522651989
30
0
41
1
10
-2.20000000000002
20
-5.97849051253718
30
0
41
1
10
-2.19999999999993
20
-6.22131783489098
30
0
41
1
10
-2.1999999999999
20
-6.46250917346813
30
0
41
1
10
-2.20000000000005
20
-6.70205756880284
30
0
41
1
10
-2.19999999999993
20
-6.93995689241021
30
0
41
1
10
-2.1999999999999
20
-7.17620223308293
30
0
41
1
10
-2.19999999999999
20
-7.41078904293678
30
0
41
1
10
-2.20000000000002
20
-7.64371312168012
30
0
41
1
10
-2.20000000000007
20
-7.87497052861912
30
0
41
1
10
-2.1999999999999
20
-8.10455846042143
30
0
41
1
10
-2.1999999999999
20
-8.33247384441503
30
0
41
1
10
-2.20000000000005
20
-8.55871423477026
30
0
41
1
10
-2.20000000000005
20
-8.78327691067395
30
0
41
1
10
-2.19999999999996
20
-9.08043846702643
30
0
41
1
10
-2.19999999999996
20
-9.44771866001562
30
0
41
1
10
-2.19999999999999
20
-9.88169305528191
30
0
41
1
10
-2.20000000000005
20
-10.2377183913447
30
0
41
1
10
-2.1999999999999
20
-10.5191258633122
30
0
41
1
10
-2.19999999999996
20
-10.7284951094205
30
0
41
1
10
-2.19999999999993
20
-10.9361655882295
30
0
41
1
10
-2.19999999999993
20
-11.1421359694817
30
0
41
1
10
-2.1999999999999
20
-11.3464032666245
30
0
41
1
10
-2.19999999999999
20
-11.5489655840494
30
0
41
1
10
-2.19999999999999
20
-11.7498207382014
30
0
41
1
10
-2.20000000000005
20
-12.015335258712
30
0
41
1
10
-2.1999999999999
20
-12.277459839655
30
0
41
1
10
-2.20000000000002
20
-12.5361142561417
30
0
41
1
10
-2.20000000000013
20
-12.7283927892775
30
0
41
1
10
-2.19999999999993
20
-12.9189467887917
30
0
41
1
10
-2.20000000000002
20
-13.1077737445537
30
0
41
1
10
-2.1999999999999
20
-13.2948705838035
30
0
41
1
10
-2.20000000000005
20
-13.4802328404438
30
0
41
1
10
-2.19999999999999
20
-13.6638579908945
30
0
41
1
10
-2.19999999999999
20
-13.845742035678
30
0
41
1
10
-2.1999999999999
20
-14.0258803815961
30
0
41
1
10
-2.20000000000005
20
-14.2042701267483
30
0
41
1
10
-2.20000000000013
20
-14.3809064511142
30
0
41
1
10
-2.19999999999999
20
-14.6140681792699
30
0
41
1
10
-2.19999999999993
20
-14.8437340716545
30
0
41
1
10
-2.20000000000002
20
-15.069828938707
30
0
41
1
10
-2.20000000000002
20
-15.2935559429894
30
0
41
1
10
-2.1999999999999
20
-15.513744330902
30
0
41
1
10
-2.19999999999996
20
-15.7303232767805
30
0
41
1
10
-2.19999999999993
20
-15.8909649274654
30
0
41
1
10
-2.19999999999996
20
-16.0498023362736
30
0
41
1
10
-2.1999999999999
20
-16.2591647559547
30
0
41
1
10
-2.20000000000002
20
-16.4649171124643
30
0
41
1
10
-2.20000000000005
20
-16.666987304737
30
0
41
1
10
-2.20000000000002
20
-16.8167085043733
30
0
41
1
10
-2.20000000000016
20
-16.9645862898264
30
0
41
1
10
-2.20000000000002
20
-17.1592828976246
30
0
41
1
10
-2.2000000000001
20
-17.3502835148979
30
0
41
1
10
-2.19999999999999
20
-17.5375147595291
30
0
41
1
10
-2.20000000000005
20
-17.676060438985
30
0
41
1
10
-2.19999999999993
20
-17.8127154575359
30
0
41
1
10
-2.19999999999999
20
-17.9923842415009
30
0
41
1
10
-2.20000000000002
20
-18.1682547291306
30
0
41
1
10
-2.19999999999999
20
-18.3402522143585
30
0
41
1
10
-2.19999999999999
20
-18.4673177032106
30
0
41
1
10
-2.1999999999999
20
-18.5924361073221
30
0
41
1
10
-2.20000000000002
20
-18.7566457425986
30
0
41
1
10
-2.20000000000005
20
-18.9169371900015
30
0
41
1
10
-2.20000000000002
20
-19.0732305996174
30
0
41
1
10
-2.20000000000005
20
-19.1884526890887
30
0
41
1
10
-2.20000000000013
20
-19.3016611759423
30
0
41
1
10
-2.19999999999993
20
-19.4499005391959
30
0
41
1
10
-2.20000000000002
20
-19.5940785255289
30
0
41
1
10
-2.19999999999996
20
-19.7341104289282
30
0
41
1
10
-2.20000000000002
20
-19.8370589164793
30
0
41
1
10
-2.19999999999999
20
-19.9379146863563
30
0
41
1
10
-2.19999999999993
20
-20.0366640227898
30
0
41
1
10
-2.19999999999999
20
-20.133289903145
30
0
41
1
10
-2.20000000000002
20
-20.2277776697998
30
0
41
1
10
-2.19999999999999
20
-20.3201119082527
30
0
41
1
10
-2.20000000000002
20
-20.4102747220553
30
0
41
1
10
-2.19999999999996
20
-20.4982502752196
30
0
41
1
10
-2.19999999999993
20
-20.5840212474559
30
0
41
1
10
-2.20000000000002
20
-20.6675682022903
30
0
41
1
10
-2.2000000000001
20
-20.7488739108727
30
0
41
1
10
-2.1999999999999
20
-20.82791883753
30
0
41
1
10
-2.20000000000005
20
-20.9302657657864
30
0
41
1
10
-2.20000000000002
20
-21.0280237880878
30
0
41
1
10
-2.20000000000002
20
-21.1210800961781
30
0
41
1
10
-2.20000000000002
20
-21.1885090211437
30
0
41
1
10
-2.20000000000005
20
-21.2535469320083
30
0
41
1
10
-2.19999999999987
20
-21.3161704250344
30
0
41
1
10
-2.19999999999993
20
-21.3763547664481
30
0
41
1
10
-2.19999999999993
20
-21.4533087676779
30
0
41
1
10
-2.19999999999993
20
-21.5252891448141
30
0
41
1
10
-2.19999999999996
20
-21.5921615531195
30
0
41
1
10
-2.20000000000002
20
-21.6397397916631
30
0
41
1
10
-2.20000000000002
20
-21.6847072964973
30
0
41
1
10
-2.2000000000001
20
-21.7411389990572
30
0
41
1
10
-2.19999999999987
20
-21.7922265879071
30
0
41
1
10
-2.1999999999999
20
-21.8378144981283
30
0
41
1
10
-2.1999999999999
20
-21.8692221254414
30
0
41
1
10
-2.19999999999999
20
-21.8978063777089
30
0
41
1
10
-2.20000000000002
20
-21.9235254752891
30
0
41
1
10
-2.20000000000002
20
-21.9463373508773
30
0
41
1
10
-2.20000000000002
20
-21.9661972037607
30
0
41
1
10
-2.19999999999999
20
-21.9830583809744
30
0
41
1
10
-2.19999999999987
20
-21.9968726399857
30
0
41
1
10
-2.19999999999996
20
-22.0069885161257
30
0
41
1
10
-2.19999999999999
20
-22.0117698339959
30
0
41
1
10
-2.19999999999996
20
-22.0135723261713
30
0
0
SPLINE
5
141
100
AcDbEntity
8
SK1
62
256
6
ByLayer
370
18
48
1
60
0
100
AcDbSpline
70
4
71
2
72
6
73
3
40
0
40
0
40
0
40
1
40
1
40
1
41
1
10
-36.5000000000001
20
-21.1521177089669
30
0
41
1
10
-19.3499999999701
20
-21.5828554470541
30
0
41
1
10
-2.19999999999993
20
-22.0135928951589
30
0
0
SPLINE
5
142
100
AcDbEntity
8
SK1
62
256
6
ByLayer
370
18
48
1
60
0
100
AcDbSpline
70
4
71
2
72
6
73
3
40
0
40
0
40
0
40
1
40
1
40
1
41
1
10
-2.19999999999987
20
22.0135927638552
30
0
41
1
10
-19.3499999999868
20
21.5828539542124
30
0
41
1
10
-36.4999999999999
20
21.152114958021
30
0
0
SPLINE
5
143
100
AcDbEntity
8
SK1
62
256
6
ByLayer
370
18
48
1
60
0
100
AcDbSpline
70
4
71
3
72
295
73
291
40
0
40
0
40
0
40
0
40
0.0029677987346302
40
0.0065435694489548
40
0.0101193401632794
40
0.013695110877604
40
0.0172708815919286
40
0.0208466523062531
40
0.0279981937349024
40
0.0351497351635516
40
0.0423012765922007
40
0.0458770473065254
40
0.0494528180208499
40
0.0530285887351745
40
0.0566043594494991
40
0.0637559008781483
40
0.0673316715924729
40
0.0709074423067975
40
0.0744832130211221
40
0.0780589837354467
40
0.0816347544497713
40
0.0852105251640958
40
0.092362066592745
40
0.0959378373070696
40
0.0995136080213943
40
0.103089378735719
40
0.106665149450043
40
0.110240920164368
40
0.113816690878693
40
0.117392461593017
40
0.120968232307342
40
0.124544003021666
40
0.128119773735991
40
0.131695544450316
40
0.13527131516464
40
0.138847085878965
40
0.142422856593289
40
0.149574398021939
40
0.153150168736263
40
0.156725939450588
40
0.15851382480775
40
0.160301710164912
40
0.163877480879237
40
0.171029022307886
40
0.174604793022211
40
0.178180563736535
40
0.18175633445086
40
0.185332105165185
40
0.192483646593834
40
0.196059417308158
40
0.199635188022483
40
0.201423073379645
40
0.203210958736808
40
0.206786729451132
40
0.213938270879781
40
0.217514041594106
40
0.22108981230843
40
0.224665583022755
40
0.22824135373708
40
0.235392895165729
40
0.238968665880053
40
0.242544436594378
40
0.24433232195154
40
0.246120207308703
40
0.249695978023027
40
0.253271748737352
40
0.256847519451676
40
0.258635404808839
40
0.260423290166001
40
0.263999060880326
40
0.26757483159465
40
0.271150602308975
40
0.274726373023299
40
0.278302143737624
40
0.281877914451948
40
0.285453685166273
40
0.289029455880598
40
0.292605226594922
40
0.296180997309247
40
0.299756768023571
40
0.303332538737896
40
0.306908309452221
40
0.310484080166545
40
0.31405985088087
40
0.321211392309519
40
0.324787163023844
40
0.328362933738168
40
0.331938704452493
40
0.335514475166817
40
0.339090245881142
40
0.342666016595467
40
0.346241787309791
40
0.349817558024116
40
0.356969099452765
40
0.364120640881414
40
0.371272182310063
40
0.374847953024388
40
0.378423723738713
40
0.381999494453037
40
0.385575265167362
40
0.389151035881686
40
0.392726806596011
40
0.396302577310336
40
0.39987834802466
40
0.403454118738985
40
0.407029889453309
40
0.410605660167634
40
0.414181430881958
40
0.417757201596283
40
0.421332972310608
40
0.424908743024932
40
0.428484513739257
40
0.432060284453582
40
0.433848169810744
40
0.435636055167906
40
0.437423940525068
40
0.439211825882231
40
0.442787596596555
40
0.44636336731088
40
0.448151252668042
40
0.449939138025204
40
0.451727023382367
40
0.453514908739529
40
0.457090679453854
40
0.458878564811016
40
0.460666450168178
40
0.46245433552534
40
0.464242220882503
40
0.466030106239665
40
0.467817991596827
40
0.46960587695399
40
0.471393762311152
40
0.473181647668314
40
0.474969533025477
40
0.476757418382639
40
0.478545303739801
40
0.480333189096963
40
0.482121074454126
40
0.483908959811288
40
0.48569684516845
40
0.487484730525613
40
0.489272615882775
40
0.491060501239937
40
0.4928483865971
40
0.494636271954262
40
0.496424157311424
40
0.498212042668586
40
0.499999928025749
40
0.501787813382911
40
0.503575698740073
40
0.505363584097236
40
0.507151469454398
40
0.50893935481156
40
0.510727240168723
40
0.512515125525885
40
0.514303010883047
40
0.516090896240209
40
0.517878781597372
40
0.519666666954534
40
0.521454552311696
40
0.523242437668859
40
0.525030323026021
40
0.526818208383183
40
0.528606093740345
40
0.530393979097508
40
0.53218186445467
40
0.533969749811832
40
0.535757635168995
40
0.537545520526157
40
0.539333405883319
40
0.541121291240481
40
0.542909176597644
40
0.546484947311968
40
0.548272832669131
40
0.550060718026293
40
0.551848603383455
40
0.553636488740618
40
0.557212259454942
40
0.560788030169267
40
0.562575915526429
40
0.564363800883591
40
0.566151686240754
40
0.567939571597916
40
0.571515342312241
40
0.575091113026565
40
0.57866688374089
40
0.582242654455215
40
0.585818425169539
40
0.589394195883863
40
0.592969966598188
40
0.596545737312513
40
0.600121508026837
40
0.603697278741162
40
0.607273049455487
40
0.610848820169811
40
0.614424590884136
40
0.61800036159846
40
0.621576132312785
40
0.62515190302711
40
0.628727673741434
40
0.635879215170083
40
0.643030756598732
40
0.650182298027381
40
0.653758068741706
40
0.657333839456031
40
0.660909610170355
40
0.66448538088468
40
0.668061151599004
40
0.671636922313329
40
0.675212693027654
40
0.678788463741978
40
0.685940005170627
40
0.689515775884952
40
0.693091546599277
40
0.696667317313601
40
0.700243088027926
40
0.703818858742251
40
0.707394629456575
40
0.7109704001709
40
0.714546170885224
40
0.718121941599549
40
0.721697712313873
40
0.725273483028198
40
0.728849253742523
40
0.736000795171172
40
0.739576565885496
40
0.743152336599821
40
0.75030387802847
40
0.753879648742795
40
0.757455419457119
40
0.761031190171444
40
0.764606960885769
40
0.771758502314418
40
0.775334273028742
40
0.778910043743067
40
0.782485814457391
40
0.786061585171716
40
0.793213126600365
40
0.79678889731469
40
0.800364668029015
40
0.803940438743339
40
0.807516209457663
40
0.814667750886313
40
0.818243521600637
40
0.821819292314962
40
0.825395063029287
40
0.828970833743611
40
0.836122375172261
40
0.839698145886585
40
0.84327391660091
40
0.846849687315234
40
0.850425458029559
40
0.857576999458208
40
0.861152770172533
40
0.864728540886857
40
0.868304311601182
40
0.871880082315506
40
0.875455853029831
40
0.879031623744155
40
0.88260739445848
40
0.886183165172805
40
0.889758935887129
40
0.893334706601454
40
0.896910477315778
40
0.900486248030103
40
0.904062018744428
40
0.907637789458752
40
0.914789330887401
40
0.918365101601726
40
0.921940872316051
40
0.925516643030375
40
0.9290924137447
40
0.932668184459025
40
0.936243955173349
40
0.943395496601998
40
0.946971267316323
40
0.950547038030647
40
0.954122808744972
40
0.957698579459297
40
0.964850120887946
40
0.96842589160227
40
0.972001662316595
40
0.975577433030919
40
0.979153203745244
40
0.982728974459569
40
0.986304745173893
40
0.989880515888218
40
0.993456286602543
40
0.997032057316867
40
1
40
1
40
1
40
1
41
1
10
-36.4999999999999
20
21.1520777878651
30
0
41
1
10
-36.4999999999999
20
21.1503457257437
30
0
41
1
10
-36.5
20
21.1457468081663
30
0
41
1
10
-36.4999999999999
20
21.1360112678939
30
0
41
1
10
-36.5000000000001
20
21.1226986497682
30
0
41
1
10
-36.4999999999999
20
21.1064402158535
30
0
41
1
10
-36.5000000000001
20
21.0872797426226
30
0
41
1
10
-36.5
20
21.0578537406019
30
0
41
1
10
-36.5
20
21.0141777773225
30
0
41
1
10
-36.4999999999999
20
20.950713074722
30
0
41
1
10
-36.5
20
20.8890285612071
30
0
41
1
10
-36.4999999999999
20
20.8342802658872
30
0
41
1
10
-36.4999999999999
20
20.7907267804185
30
0
41
1
10
-36.5000000000001
20
20.7446291690672
30
0
41
1
10
-36.4999999999999
20
20.6796864194098
30
0
41
1
10
-36.4999999999999
20
20.6101652524536
30
0
41
1
10
-36.4999999999999
20
20.5353747251342
30
0
41
1
10
-36.4999999999999
20
20.4769783324059
30
0
41
1
10
-36.4999999999999
20
20.4161995895793
30
0
41
1
10
-36.4999999999999
20
20.3530628196556
30
0
41
1
10
-36.4999999999999
20
20.2875896826626
30
0
41
1
10
-36.5000000000001
20
20.1970436182683
30
0
41
1
10
-36.4999999999999
20
20.1024192722933
30
0
41
1
10
-36.4999999999999
20
20.0027815031752
30
0
41
1
10
-36.4999999999999
20
19.9259535572618
30
0
41
1
10
-36.5
20
19.8469141355252
30
0
41
1
10
-36.5
20
19.7656833730651
30
0
41
1
10
-36.5
20
19.6822775189499
30
0
41
1
10
-36.5000000000001
20
19.5967148149263
30
0
41
1
10
-36.5
20
19.5090135394173
30
0
41
1
10
-36.5
20
19.4191882696518
30
0
41
1
10
-36.5000000000001
20
19.3272561697677
30
0
41
1
10
-36.5
20
19.2332338822714
30
0
41
1
10
-36.5
20
19.1371346902893
30
0
41
1
10
-36.4999999999999
20
19.0389746878944
30
0
41
1
10
-36.5
20
18.9387689752276
30
0
41
1
10
-36.5
20
18.802221510079
30
0
41
1
10
-36.5
20
18.6623317385555
30
0
41
1
10
-36.5
20
18.5177544284038
30
0
41
1
10
-36.5
20
18.4260133905722
30
0
41
1
10
-36.4999999999999
20
18.3514175898238
30
0
41
1
10
-36.5
20
18.2761667145512
30
0
41
1
10
-36.4999999999999
20
18.1428549391526
30
0
41
1
10
-36.5
20
17.9872696454241
30
0
41
1
10
-36.4999999999999
20
17.82707006593
30
0
41
1
10
-36.5
20
17.705205542109
30
0
41
1
10
-36.5000000000001
20
17.5814423770726
30
0
41
1
10
-36.5
20
17.4136311437529
30
0
41
1
10
-36.5
20
17.2428939764417
30
0
41
1
10
-36.5
20
17.0675963011876
30
0
41
1
10
-36.4999999999999
20
16.9568152899197
30
0
41
1
10
-36.5
20
16.8670089991511
30
0
41
1
10
-36.5
20
16.7765898513273
30
0
41
1
10
-36.4999999999999
20
16.6168596157573
30
0
41
1
10
-36.5
20
16.4314438788638
30
0
41
1
10
-36.5
20
16.2414991337766
30
0
41
1
10
-36.5
20
16.0974747197411
30
0
41
1
10
-36.5
20
15.9516616651348
30
0
41
1
10
-36.5000000000002
20
15.7545445351489
30
0
41
1
10
-36.5000000000001
20
15.5548613446891
30
0
41
1
10
-36.5
20
15.350663385132
30
0
41
1
10
-36.5000000000001
20
15.2219600388738
30
0
41
1
10
-36.4999999999999
20
15.1178164480939
30
0
41
1
10
-36.5000000000001
20
15.0130920883854
30
0
41
1
10
-36.4999999999999
20
14.8814910451208
30
0
41
1
10
-36.5000000000001
20
14.7216281332595
30
0
41
1
10
-36.5000000000001
20
14.5871530954062
30
0
41
1
10
-36.4999999999999
20
14.4783873813363
30
0
41
1
10
-36.4999999999999
20
14.3690494022437
30
0
41
1
10
-36.5
20
14.2317235183089
30
0
41
1
10
-36.5
20
14.0650028858776
30
0
41
1
10
-36.5000000000001
20
13.8965816080866
30
0
41
1
10
-36.5
20
13.7264689694466
30
0
41
1
10
-36.5
20
13.5546710496343
30
0
41
1
10
-36.5000000000001
20
13.3811910773122
30
0
41
1
10
-36.5000000000001
20
13.2060373742644
30
0
41
1
10
-36.5
20
13.0292149133303
30
0
41
1
10
-36.5000000000002
20
12.850728177302
30
0
41
1
10
-36.4999999999999
20
12.6705857874604
30
0
41
1
10
-36.5
20
12.4887914218501
30
0
41
1
10
-36.4999999999999
20
12.3053503484467
30
0
41
1
10
-36.4999999999999
20
12.1202706879329
30
0
41
1
10
-36.5
20
11.9335555855445
30
0
41
1
10
-36.5
20
11.6819759204349
30
0
41
1
10
-36.5000000000001
20
11.4285505376588
30
0
41
1
10
-36.4999999999999
20
11.1704660874499
30
0
41
1
10
-36.5
20
10.9756651586939
30
0
41
1
10
-36.4999999999999
20
10.7792636737398
30
0
41
1
10
-36.5
20
10.5812696725585
30
0
41
1
10
-36.5000000000001
20
10.3816871154457
30
0
41
1
10
-36.5000000000001
20
10.1805237104931
30
0
41
1
10
-36.5
20
9.97778558435033
30
0
41
1
10
-36.5
20
9.70483576808869
30
0
41
1
10
-36.5
20
9.3610127627216
30
0
41
1
10
-36.4999999999999
20
8.94153438933265
30
0
41
1
10
-36.5
20
8.58745787193692
30
0
41
1
10
-36.5
20
8.30004464023608
30
0
41
1
10
-36.4999999999999
20
8.08346950394395
30
0
41
1
10
-36.5000000000001
20
7.86540102208477
30
0
41
1
10
-36.5
20
7.64585131899617
30
0
41
1
10
-36.4999999999999
20
7.42483318088836
30
0
41
1
10
-36.5
20
7.20235735193424
30
0
41
1
10
-36.5
20
6.97843755879973
30
0
41
1
10
-36.5
20
6.75308981071328
30
0
41
1
10
-36.5000000000001
20
6.5263303508228
30
0
41
1
10
-36.5000000000001
20
6.29817753233081
30
0
41
1
10
-36.5
20
6.06865022444899
30
0
41
1
10
-36.5
20
5.83776884649421
30
0
41
1
10
-36.5
20
5.60555660448864
30
0
41
1
10
-36.4999999999999
20
5.37203985998684
30
0
41
1
10
-36.5000000000001
20
5.13724579696887
30
0
41
1
10
-36.4999999999999
20
4.90120595303739
30
0
41
1
10
-36.5000000000001
20
4.70396583147408
30
0
41
1
10
-36.5
20
4.54469638576833
30
0
41
1
10
-36.5
20
4.4253399959706
30
0
41
1
10
-36.5000000000001
20
4.30569972295407
30
0
41
1
10
-36.5
20
4.14529336499859
30
0
41
1
10
-36.5
20
3.94531865595212
30
0
41
1
10
-36.5
20
3.74444957084987
30
0
41
1
10
-36.5000000000001
20
3.58224076118
30
0
41
1
10
-36.5
20
3.46078958963514
30
0
41
1
10
-36.5
20
3.3391070260511
30
0
41
1
10
-36.5000000000001
20
3.17597085922347
30
0
41
1
10
-36.4999999999999
20
3.01425651604558
30
0
41
1
10
-36.4999999999999
20
2.85023149996013
30
0
41
1
10
-36.5
20
2.72752154931177
30
0
41
1
10
-36.4999999999999
20
2.60463052157445
30
0
41
1
10
-36.4999999999999
20
2.48157378937668
30
0
41
1
10
-36.4999999999999
20
2.35835621123042
30
0
41
1
10
-36.4999999999999
20
2.23499061660058
30
0
41
1
10
-36.5000000000001
20
2.11148761081353
30
0
41
1
10
-36.5
20
1.98785451527655
30
0
41
1
10
-36.5
20
1.864106321241
30
0
41
1
10
-36.5000000000001
20
1.7402482770083
30
0
41
1
10
-36.4999999999999
20
1.61629526151518
30
0
41
1
10
-36.4999999999999
20
1.49225310041965
30
0
41
1
10
-36.4999999999999
20
1.36813478148943
30
0
41
1
10
-36.4999999999999
20
1.24394732222783
30
0
41
1
10
-36.5
20
1.11970117534869
30
0
41
1
10
-36.4999999999999
20
0.995403485642839
30
0
41
1
10
-36.5
20
0.871062917068457
30
0
41
1
10
-36.5000000000001
20
0.746686102657776
30
0
41
1
10
-36.5000000000001
20
0.622280124115633
30
0
41
1
10
-36.5
20
0.497850420758425
30
0
41
1
10
-36.5000000000001
20
0.373402935182241
30
0
41
1
10
-36.4999999999999
20
0.248942238793205
30
0
41
1
10
-36.5
20
0.124473257200975
30
0
41
1
10
-36.5
20
9.2462642E-09
30
0
41
1
10
-36.5
20
-0.124473254673944
30
0
41
1
10
-36.5
20
-0.248942266430561
30
0
41
1
10
-36.5
20
-0.373402960091369
30
0
41
1
10
-36.4999999999999
20
-0.497850400790526
30
0
41
1
10
-36.4999999999999
20
-0.62228009401079
30
0
41
1
10
-36.5000000000001
20
-0.746686131491771
30
0
41
1
10
-36.4999999999999
20
-0.871062970095096
30
0
41
1
10
-36.4999999999999
20
-0.995403468230734
30
0
41
1
10
-36.5
20
-1.11970111692668
30
0
41
1
10
-36.5000000000001
20
-1.24394734076807
30
0
41
1
10
-36.5
20
-1.36813486147514
30
0
41
1
10
-36.4999999999999
20
-1.4922531064299
30
0
41
1
10
-36.5
20
-1.61629518356958
30
0
41
1
10
-36.5
20
-1.74024825464124
30
0
41
1
10
-36.5
20
-1.86410640329146
30
0
41
1
10
-36.4999999999999
20
-1.98785458048852
30
0
41
1
10
-36.4999999999999
20
-2.11148756075906
30
0
41
1
10
-36.5
20
-2.23499052786067
30
0
41
1
10
-36.5000000000001
20
-2.35835622798214
30
0
41
1
10
-36.4999999999999
20
-2.48157389743912
30
0
41
1
10
-36.5
20
-2.60463057106836
30
0
41
1
10
-36.5
20
-2.72752148004798
30
0
41
1
10
-36.4999999999999
20
-2.85023140656224
30
0
41
1
10
-36.5000000000001
20
-3.014256568771
30
0
41
1
10
-36.5
20
-3.17597095993779
30
0
41
1
10
-36.5000000000002
20
-3.33910698167952
30
0
41
1
10
-36.5000000000001
20
-3.46078948211158
30
0
41
1
10
-36.5
20
-3.5822407219186
30
0
41
1
10
-36.5
20
-3.74444967050343
30
0
41
1
10
-36.5
20
-3.94531869048146
30
0
41
1
10
-36.5
20
-4.14529326648045
30
0
41
1
10
-36.5
20
-4.30569969171856
30
0
41
1
10
-36.5
20
-4.42534006396789
30
0
41
1
10
-36.5
20
-4.54469650094603
30
0
41
1
10
-36.4999999999999
20
-4.703965849105
30
0
41
1
10
-36.5
20
-4.90120586463615
30
0
41
1
10
-36.5
20
-5.13724581146545
30
0
41
1
10
-36.5
20
-5.37203995090803
30
0
41
1
10
-36.4999999999999
20
-5.60555655529348
30
0
41
1
10
-36.5
20
-5.83776875015033
30
0
41
1
10
-36.4999999999999
20
-6.06865017711206
30
0
41
1
10
-36.4999999999999
20
-6.2981774821165
30
0
41
1
10
-36.5
20
-6.52633051401978
30
0
41
1
10
-36.5
20
-6.75309051279774
30
0
41
1
10
-36.5
20
-6.97843834484928
30
0
41
1
10
-36.5
20
-7.20235684280948
30
0
41
1
10
-36.4999999999999
20
-7.4248322947075
30
0
41
1
10
-36.5
20
-7.64585158611575
30
0
41
1
10
-36.5000000000001
20
-7.8654012840374
30
0
41
1
10
-36.5
20
-8.08346945831596
30
0
41
1
10
-36.4999999999999
20
-8.30004452993887
30
0
41
1
10
-36.5
20
-8.58745782596949
30
0
41
1
10
-36.5
20
-8.9415344274185
30
0
41
1
10
-36.5000000000001
20
-9.36101273737583
30
0
41
1
10
-36.4999999999999
20
-9.70483575174819
30
0
41
1
10
-36.5
20
-9.97778564072311
30
0
41
1
10
-36.4999999999999
20
-10.18052371466
30
0
41
1
10
-36.5000000000001
20
-10.3816870614504
30
0
41
1
10
-36.5
20
-10.5812696339218
30
0
41
1
10
-36.5
20
-10.7792636942327
30
0
41
1
10
-36.5000000000001
20
-10.9756652058485
30
0
41
1
10
-36.5
20
-11.1704660987635
30
0
41
1
10
-36.5
20
-11.4285504962004
30
0
41
1
10
-36.5
20
-11.6819759007756
30
0
41
1
10
-36.5000000000001
20
-11.9335556252714
30
0
41
1
10
-36.5000000000001
20
-12.1202707134412
30
0
41
1
10
-36.5000000000001
20
-12.3053503320751
30
0
41
1
10
-36.5
20
-12.4887913848281
30
0
41
1
10
-36.5000000000002
20
-12.6705857704288
30
0
41
1
10
-36.5000000000001
20
-12.8507281979538
30
0
41
1
10
-36.5
20
-13.0292149436136
30
0
41
1
10
-36.5000000000001
20
-13.2060373895954
30
0
41
1
10
-36.5
20
-13.381191143136
30
0
41
1
10
-36.4999999999999
20
-13.55467138889
30
0
41
1
10
-36.5000000000001
20
-13.7264696827893
30
0
41
1
10
-36.4999999999999
20
-13.9536769173599
30
0
41
1
10
-36.4999999999999
20
-14.1763485768089
30
0
41
1
10
-36.5000000000001
20
-14.3967384349213
30
0
41
1
10
-36.5
20
-14.6148460432234
30
0
41
1
10
-36.5000000000001
20
-14.8284315021106
30
0
41
1
10
-36.5
20
-15.0396227184095
30
0
41
1
10
-36.5
20
-15.1960147192182
30
0
41
1
10
-36.5000000000001
20
-15.3506631330603
30
0
41
1
10
-36.4999999999999
20
-15.5548624364722
30
0
41
1
10
-36.5
20
-15.7545451164335
30
0
41
1
10
-36.4999999999999
20
-15.9516609547094
30
0
41
1
10
-36.4999999999999
20
-16.0974737380165
30
0
41
1
10
-36.4999999999999
20
-16.2414988132779
30
0
41
1
10
-36.5000000000001
20
-16.4314450331352
30
0
41
1
10
-36.5
20
-16.6168608854212
30
0
41
1
10
-36.5
20
-16.7995343923805
30
0
41
1
10
-36.4999999999999
20
-16.9344844206004
30
0
41
1
10
-36.5
20
-17.0675955495037
30
0
41
1
10
-36.5000000000001
20
-17.2428947983013
30
0
41
1
10
-36.5000000000001
20
-17.4136313821347
30
0
41
1
10
-36.4999999999999
20
-17.5814422063201
30
0
41
1
10
-36.4999999999999
20
-17.7052052466277
30
0
41
1
10
-36.5
20
-17.8270699155309
30
0
41
1
10
-36.4999999999999
20
-17.9872703841193
30
0
41
1
10
-36.4999999999999
20
-18.1428562465544
30
0
41
1
10
-36.5000000000001
20
-18.2953166794047
30
0
41
1
10
-36.5000000000001
20
-18.4075180436267
30
0
41
1
10
-36.5000000000002
20
-18.5177535555592
30
0
41
1
10
-36.5
20
-18.6623326618875
30
0
41
1
10
-36.4999999999999
20
-18.8022222651529
30
0
41
1
10
-36.5
20
-18.9387686023437
30
0
41
1
10
-36.5
20
-19.0389739868785
30
0
41
1
10
-36.4999999999999
20
-19.1371342717784
30
0
41
1
10
-36.5
20
-19.2332339353276
30
0
41
1
10
-36.5
20
-19.3272562516113
30
0
41
1
10
-36.4999999999999
20
-19.4191882978897
30
0
41
1
10
-36.5000000000001
20
-19.5090135437133
30
0
41
1
10
-36.5
20
-19.5967148362678
30
0
41
1
10
-36.4999999999999
20
-19.6822775521962
30
0
41
1
10
-36.5
20
-19.7656833992675
30
0
41
1
10
-36.5
20
-19.8469141406672
30
0
41
1
10
-36.4999999999999
20
-19.925953552738
30
0
41
1
10
-36.5000000000001
20
-20.0027815100321
30
0
41
1
10
-36.5
20
-20.1024193061391
30
0
41
1
10
-36.5
20
-20.1970436522849
30
0
41
1
10
-36.5000000000001
20
-20.287589681624
30
0
41
1
10
-36.5
20
-20.353062816238
30
0
41
1
10
-36.5000000000001
20
-20.4161996091986
30
0
41
1
10
-36.5
20
-20.4769783724374
30
0
41
1
10
-36.5
20
-20.5353747607017
30
0
41
1
10
-36.5
20
-20.6101652553123
30
0
41
1
10
-36.4999999999999
20
-20.6796864153796
30
0
41
1
10
-36.5
20
-20.7446292080422
30
0
41
1
10
-36.5
20
-20.7907268231738
30
0
41
1
10
-36.5
20
-20.8342802793506
30
0
41
1
10
-36.5
20
-20.8890285523336
30
0
41
1
10
-36.4999999999999
20
-20.9382580424269
30
0
41
1
10
-36.5
20
-20.9824409225429
30
0
41
1
10
-36.5
20
-21.0128017234864
30
0
41
1
10
-36.5
20
-21.040420794471
30
0
41
1
10
-36.4999999999999
20
-21.0652596303332
30
0
41
1
10
-36.5000000000001
20
-21.0872797892674
30
0
41
1
10
-36.5
20
-21.1064402531507
30
0
41
1
10
-36.5000000000001
20
-21.122698651619
30
0
41
1
10
-36.5000000000001
20
-21.1360112646484
30
0
41
1
10
-36.5000000000001
20
-21.1457469933426
30
0
41
1
10
-36.5000000000001
20
-21.1503460592395
30
0
41
1
10
-36.5000000000001
20
-21.152078211156
30
0
0
SPLINE
5
144
100
AcDbEntity
8
SK1
62
256
6
ByLayer
370
18
48
1
60
0
100
AcDbSpline
70
4
71
3
72
299
73
295
40
0
40
0
40
0
40
0
40
0.0028841444004531
40
0.0064096972869172
40
0.0099352501733813
40
0.0134608030598454
40
0.0169863559463095
40
0.0205119088327737
40
0.0240374617192378
40
0.0275630146057019
40
0.0346141203786301
40
0.0416652261515583
40
0.0487163319244865
40
0.0522418848109506
40
0.0557674376974148
40
0.0592929905838789
40
0.062818543470343
40
0.0698696492432712
40
0.0733952021297353
40
0.0769207550161994
40
0.0804463079026635
40
0.0839718607891276
40
0.0874974136755917
40
0.0910229665620559
40
0.0980740723349841
40
0.101599625221448
40
0.105125178107912
40
0.108650730994376
40
0.11217628388084
40
0.115701836767305
40
0.119227389653769
40
0.122752942540233
40
0.126278495426697
40
0.129804048313161
40
0.133329601199625
40
0.136855154086089
40
0.140380706972553
40
0.143906259859018
40
0.147431812745482
40
0.15448291851841
40
0.158008471404874
40
0.161534024291338
40
0.16329680073457
40
0.165059577177802
40
0.168585130064266
40
0.175636235837195
40
0.179161788723659
40
0.182687341610123
40
0.186212894496587
40
0.189738447383051
40
0.196789553155979
40
0.200315106042443
40
0.203840658928907
40
0.205603435372139
40
0.207366211815371
40
0.210891764701836
40
0.217942870474764
40
0.221468423361228
40
0.224993976247692
40
0.228519529134156
40
0.23204508202062
40
0.239096187793548
40
0.242621740680013
40
0.246147293566477
40
0.247910070009709
40
0.249672846452941
40
0.253198399339405
40
0.256723952225869
40
0.260249505112333
40
0.262012281555565
40
0.263775057998797
40
0.267300610885261
40
0.270826163771726
40
0.27435171665819
40
0.277877269544654
40
0.281402822431118
40
0.284928375317582
40
0.288453928204046
40
0.29197948109051
40
0.295505033976974
40
0.299030586863438
40
0.302556139749902
40
0.306081692636367
40
0.309607245522831
40
0.313132798409295
40
0.316658351295759
40
0.323709457068687
40
0.327235009955151
40
0.330760562841615
40
0.334286115728079
40
0.337811668614543
40
0.341337221501008
40
0.344862774387472
40
0.348388327273936
40
0.3519138801604
40
0.358964985933328
40
0.366016091706256
40
0.373067197479185
40
0.376592750365649
40
0.380118303252113
40
0.383643856138577
40
0.387169409025041
40
0.390694961911505
40
0.394220514797969
40
0.397746067684433
40
0.401271620570897
40
0.404797173457362
40
0.408322726343826
40
0.41184827923029
40
0.415373832116754
40
0.418899385003218
40
0.422424937889682
40
0.425950490776146
40
0.42947604366261
40
0.433001596549075
40
0.434764372992307
40
0.436527149435539
40
0.438289925878771
40
0.440052702322003
40
0.443578255208467
40
0.447103808094931
40
0.448866584538163
40
0.450629360981395
40
0.452392137424627
40
0.454154913867859
40
0.457680466754323
40
0.459443243197555
40
0.461206019640787
40
0.462968796084019
40
0.464731572527252
40
0.466494348970483
40
0.468257125413716
40
0.470019901856948
40
0.47178267830018
40
0.473545454743412
40
0.475308231186644
40
0.477071007629876
40
0.478833784073108
40
0.48059656051634
40
0.482359336959572
40
0.484122113402804
40
0.485884889846036
40
0.487647666289268
40
0.4894104427325
40
0.491173219175732
40
0.492935995618964
40
0.494698772062196
40
0.496461548505429
40
0.498224324948661
40
0.499987101391893
40
0.501749877835125
40
0.503512654278357
40
0.505275430721589
40
0.507038207164821
40
0.508800983608053
40
0.510563760051285
40
0.512326536494517
40
0.514089312937749
40
0.515852089380981
40
0.517614865824213
40
0.519377642267445
40
0.521140418710677
40
0.522903195153909
40
0.524665971597141
40
0.526428748040373
40
0.528191524483606
40
0.529954300926837
40
0.53171707737007
40
0.533479853813302
40
0.535242630256534
40
0.537005406699766
40
0.538768183142998
40
0.54053095958623
40
0.542293736029462
40
0.545819288915926
40
0.547582065359158
40
0.54934484180239
40
0.551107618245622
40
0.552870394688854
40
0.556395947575318
40
0.559921500461782
40
0.561684276905015
40
0.563447053348247
40
0.565209829791479
40
0.566972606234711
40
0.570498159121175
40
0.574023712007639
40
0.577549264894103
40
0.581074817780567
40
0.584600370667031
40
0.588125923553495
40
0.591651476439959
40
0.595177029326424
40
0.598702582212888
40
0.602228135099352
40
0.605753687985816
40
0.60927924087228
40
0.612804793758744
40
0.616330346645208
40
0.619855899531672
40
0.623381452418136
40
0.626907005304601
40
0.633958111077529
40
0.641009216850457
40
0.648060322623385
40
0.651585875509849
40
0.655111428396313
40
0.658636981282778
40
0.662162534169242
40
0.665688087055706
40
0.66921363994217
40
0.672739192828634
40
0.676264745715098
40
0.683315851488026
40
0.68684140437449
40
0.690366957260955
40
0.693892510147419
40
0.697418063033883
40
0.700943615920347
40
0.704469168806811
40
0.707994721693275
40
0.711520274579739
40
0.715045827466203
40
0.718571380352667
40
0.722096933239131
40
0.725622486125596
40
0.732673591898524
40
0.736199144784988
40
0.739724697671452
40
0.74677580344438
40
0.750301356330844
40
0.753826909217309
40
0.757352462103773
40
0.760878014990237
40
0.767929120763165
40
0.771454673649629
40
0.774980226536093
40
0.778505779422557
40
0.782031332309021
40
0.78908243808195
40
0.792607990968414
40
0.796133543854878
40
0.799659096741342
40
0.803184649627806
40
0.810235755400734
40
0.813761308287198
40
0.817286861173663
40
0.820812414060127
40
0.824337966946591
40
0.831389072719519
40
0.834914625605983
40
0.838440178492447
40
0.841965731378911
40
0.845491284265375
40
0.852542390038304
40
0.856067942924768
40
0.859593495811232
40
0.863119048697696
40
0.86664460158416
40
0.870170154470624
40
0.873695707357088
40
0.877221260243552
40
0.880746813130016
40
0.884272366016481
40
0.887797918902945
40
0.891323471789409
40
0.894849024675873
40
0.898374577562337
40
0.901900130448801
40
0.908951236221729
40
0.912476789108194
40
0.916002341994658
40
0.919527894881122
40
0.923053447767586
40
0.92657900065405
40
0.930104553540514
40
0.937155659313442
40
0.940681212199906
40
0.944206765086371
40
0.947732317972835
40
0.951257870859299
40
0.958308976632227
40
0.961834529518691
40
0.965360082405155
40
0.968885635291619
40
0.972411188178083
40
0.975936741064547
40
0.979462293951012
40
0.982987846837476
40
0.98651339972394
40
0.990038952610404
40
0.993564505496868
40
0.997090058383332
40
1
40
1
40
1
40
1
41
1
10
-1.99503997793931
20
21.8251859285012
30
0
41
1
10
-1.99503997793931
20
21.825176730452
30
0
41
1
10
-1.99503997793928
20
21.8243416811698
30
0
41
1
10
-1.99503997793928
20
21.8202836860758
30
0
41
1
10
-1.99503997793923
20
21.8127830441421
30
0
41
1
10
-1.99503997793914
20
21.8021565364935
30
0
41
1
10
-1.99503997793923
20
21.7884557330328
30
0
41
1
10
-1.99503997793928
20
21.7717308612527
30
0
41
1
10
-1.99503997793923
20
21.7520291985819
30
0
41
1
10
-1.99503997793931
20
21.7218385059107
30
0
41
1
10
-1.99503997793923
20
21.6769140218915
30
0
41
1
10
-1.99503997793923
20
21.6117670092986
30
0
41
1
10
-1.99503997793928
20
21.5484022523455
30
0
41
1
10
-1.99503997793934
20
21.4923512863895
30
0
41
1
10
-1.99503997793914
20
21.4477036012609
30
0
41
1
10
-1.99503997793926
20
21.4004602751572
30
0
41
1
10
-1.99503997793926
20
21.3340243579834
30
0
41
1
10
-1.99503997793923
20
21.2626002065085
30
0
41
1
10
-1.99503997793923
20
21.1861355372814
30
0
41
1
10
-1.9950399779392
20
21.126355615456
30
0
41
1
10
-1.99503997793931
20
21.0641493981766
30
0
41
1
10
-1.99503997793928
20
20.9995415089613
30
0
41
1
10
-1.99503997793923
20
20.9325549476399
30
0
41
1
10
-1.99503997793928
20
20.8400664063016
30
0
41
1
10
-1.99503997793923
20
20.7430171949632
30
0
41
1
10
-1.99503997793923
20
20.6412830606924
30
0
41
1
10
-1.99503997793934
20
20.5627395849404
30
0
41
1
10
-1.99503997793926
20
20.4819464711493
30
0
41
1
10
-1.9950399779394
20
20.3989234016943
30
0
41
1
10
-1.99503997793931
20
20.3136873945745
30
0
41
1
10
-1.99503997793943
20
20.2262576082902
30
0
41
1
10
-1.99503997793914
20
20.1366515699951
30
0
41
1
10
-1.99503997793931
20
20.0448848271876
30
0
41
1
10
-1.9950399779392
20
19.9509751576252
30
0
41
1
10
-1.99503997793923
20
19.8549383078337
30
0
41
1
10
-1.99503997793923
20
19.7567886026657
30
0
41
1
10
-1.9950399779392
20
19.6565424313982
30
0
41
1
10
-1.99503997793923
20
19.5542139601407
30
0
41
1
10
-1.99503997793923
20
19.4149698127943
30
0
41
1
10
-1.99503997793923
20
19.2717622924357
30
0
41
1
10
-1.99503997793923
20
19.1243520606764
30
0
41
1
10
-1.99503997793934
20
19.0305969699327
30
0
41
1
10
-1.99503997793928
20
18.9545457436666
30
0
41
1
10
-1.99503997793937
20
18.8778283452341
30
0
41
1
10
-1.99503997793923
20
18.7418485706133
30
0
41
1
10
-1.9950399779392
20
18.5826225030747
30
0
41
1
10
-1.9950399779392
20
18.4193199892891
30
0
41
1
10
-1.99503997793923
20
18.2949375082747
30
0
41
1
10
-1.99503997793926
20
18.1686188381619
30
0
41
1
10
-1.99503997793931
20
17.9975681157064
30
0
41
1
10
-1.99503997793923
20
17.8228588844705
30
0
41
1
10
-1.99503997793923
20
17.6441795672679
30
0
41
1
10
-1.99503997793934
20
17.5309981410348
30
0
41
1
10
-1.99503997793926
20
17.4394590341185
30
0
41
1
10
-1.99503997793923
20
17.347294549845
30
0
41
1
10
-1.9950399779394
20
17.1843913435575
30
0
41
1
10
-1.99503997793923
20
16.9946548235122
30
0
41
1
10
-1.99503997793934
20
16.8010333841432
30
0
41
1
10
-1.99503997793943
20
16.654027023888
30
0
41
1
10
-1.9950399779394
20
16.5051894370888
30
0
41
1
10
-1.99503997793923
20
16.3042392155797
30
0
41
1
10
-1.99503997793931
20
16.0998599858609
30
0
41
1
10
-1.99503997793923
20
15.8916662065006
30
0
41
1
10
-1.99503997793923
20
15.7601264684356
30
0
41
1
10
-1.99503997793931
20
15.6539352235829
30
0
41
1
10
-1.9950399779394
20
15.5471478788445
30
0
41
1
10
-1.99503997793917
20
15.4126292313156
30
0
41
1
10
-1.99503997793923
20
15.2493853238091
30
0
41
1
10
-1.99503997793928
20
15.1119089381337
30
0
41
1
10
-1.99503997793928
20
15.0009760777422
30
0
41
1
10
-1.99503997793926
20
14.8894548819648
30
0
41
1
10
-1.99503997793934
20
14.7490386600655
30
0
41
1
10
-1.99503997793931
20
14.5787357079371
30
0
41
1
10
-1.99503997793928
20
14.4066808882549
30
0
41
1
10
-1.99503997793934
20
14.2328806917249
30
0
41
1
10
-1.99503997793914
20
14.0573388809364
30
0
41
1
10
-1.9950399779392
20
13.8800596938692
30
0
41
1
10
-1.9950399779392
20
13.7010488098078
30
0
41
1
10
-1.99503997793914
20
13.5203096364964
30
0
41
1
10
-1.9950399779392
20
13.3378467409435
30
0
41
1
10
-1.99503997793931
20
13.1536651576332
30
0
41
1
10
-1.99503997793937
20
12.967767664355
30
0
41
1
10
-1.99503997793926
20
12.7801589185361
30
0
41
1
10
-1.9950399779392
20
12.5908431445087
30
0
41
1
10
-1.99503997793928
20
12.3998230002593
30
0
41
1
10
-1.99503997793928
20
12.1427688173786
30
0
41
1
10
-1.9950399779392
20
11.8826118718573
30
0
41
1
10
-1.99503997793934
20
11.6187779306708
30
0
41
1
10
-1.99503997793928
20
11.4192921752591
30
0
41
1
10
-1.99503997793931
20
11.2181233733031
30
0
41
1
10
-1.99503997793931
20
11.0152750188843
30
0
41
1
10
-1.99503997793928
20
10.8107494713072
30
0
41
1
10
-1.99503997793917
20
10.6045508021232
30
0
41
1
10
-1.99503997793928
20
10.3966814407574
30
0
41
1
10
-1.99503997793931
20
10.1171870033239
30
0
41
1
10
-1.9950399779392
20
9.76392166117955
30
0
41
1
10
-1.99503997793928
20
9.33322608836659
30
0
41
1
10
-1.99503997793934
20
8.9689324208486
30
0
41
1
10
-1.9950399779392
20
8.67397578579326
30
0
41
1
10
-1.99503997793923
20
8.45121977200665
30
0
41
1
10
-1.99503997793926
20
8.226827761675
30
0
41
1
10
-1.99503997793943
20
8.00080467620248
30
0
41
1
10
-1.99503997793926
20
7.7731551300873
30
0
41
1
10
-1.99503997793931
20
7.54388372935196
30
0
41
1
10
-1.99503997793914
20
7.31299637479287
30
0
41
1
10
-1.9950399779394
20
7.08049945458956
30
0
41
1
10
-1.99503997793928
20
6.84639974828053
30
0
41
1
10
-1.99503997793931
20
6.61070495432841
30
0
41
1
10
-1.99503997793934
20
6.37342319970756
30
0
41
1
10
-1.99503997793934
20
6.13456384015998
30
0
41
1
10
-1.99503997793931
20
5.89413749968631
30
0
41
1
10
-1.99503997793926
20
5.65215638001951
30
0
41
1
10
-1.99503997793946
20
5.40863365108973
30
0
41
1
10
-1.99503997793943
20
5.16358499073453
30
0
41
1
10
-1.99503997793917
20
4.95821799704333
30
0
41
1
10
-1.99503997793917
20
4.7929951683827
30
0
41
1
10
-1.99503997793917
20
4.66878842905291
30
0
41
1
10
-1.99503997793923
20
4.54421502813733
30
0
41
1
10
-1.9950399779392
20
4.37752561794159
30
0
41
1
10
-1.99503997793928
20
4.16851547631597
30
0
41
1
10
-1.9950399779392
20
3.95832363498769
30
0
41
1
10
-1.99503997793931
20
3.78926935835415
30
0
41
1
10
-1.99503997793934
20
3.66223142121839
30
0
41
1
10
-1.99503997793923
20
3.53485872774328
30
0
41
1
10
-1.99503997793926
20
3.36446603264321
30
0
41
1
10
-1.99503997793917
20
3.19381064862625
30
0
41
1
10
-1.99503997793917
20
3.02213557666011
30
0
41
1
10
-1.99503997793923
20
2.89317848373023
30
0
41
1
10
-1.99503997793928
20
2.76392442628165
30
0
41
1
10
-1.99503997793923
20
2.63438251344522
30
0
41
1
10
-1.99503997793923
20
2.50455988721879
30
0
41
1
10
-1.99503997793934
20
2.37446636334931
30
0
41
1
10
-1.99503997793917
20
2.24411116870442
30
0
41
1
10
-1.99503997793926
20
2.11350398186616
30
0
41
1
10
-1.99503997793928
20
1.98265625862299
30
0
41
1
10
-1.99503997793943
20
1.85157817347525
30
0
41
1
10
-1.9950399779392
20
1.72028262405348
30
0
41
1
10
-1.99503997793934
20
1.58878098022362
30
0
41
1
10
-1.99503997793923
20
1.45708718468362
30
0
41
1
10
-1.99503997793923
20
1.32521409071336
30
0
41
1
10
-1.99503997793928
20
1.1931764705318
30
0
41
1
10
-1.9950399779392
20
1.06098852682442
30
0
41
1
10
-1.9950399779392
20
0.9286659239757
30
0
41
1
10
-1.99503997793917
20
0.796224037396257
30
0
41
1
10
-1.99503997793926
20
0.663679321648402
30
0
41
1
10
-1.99503997793923
20
0.531048033506295
30
0
41
1
10
-1.99503997793926
20
0.398347293868966
30
0
41
1
10
-1.99503997793928
20
0.265594055935225
30
0
41
1
10
-1.99503997793923
20
0.132805828560265
30
0
41
1
10
-1.99503997793934
20
-2.0604602E-09
30
0
41
1
10
-1.99503997793928
20
-0.132805835966764
30
0
41
1
10
-1.99503997793934
20
-0.265594069601491
30
0
41
1
10
-1.99503997793928
20
-0.39834730709336
30
0
41
1
10
-1.99503997793917
20
-0.531048037421925
30
0
41
1
10
-1.99503997793943
20
-0.663679323049053
30
0
41
1
10
-1.99503997793926
20
-0.79622405082506
30
0
41
1
10
-1.99503997793931
20
-0.928665943032001
30
0
41
1
10
-1.99503997793931
20
-1.06098853158753
30
0
41
1
10
-1.99503997793917
20
-1.19317646571207
30
0
41
1
10
-1.99503997793928
20
-1.32521410103644
30
0
41
1
10
-1.99503997793931
20
-1.45708720896536
30
0
41
1
10
-1.99503997793931
20
-1.58878099035149
30
0
41
1
10
-1.99503997793926
20
-1.72028261530929
30
0
41
1
10
-1.9950399779392
20
-1.85157817419835
30
0
41
1
10
-1.99503997793926
20
-1.98265628188179
30
0
41
1
10
-1.99503997793926
20
-2.11350400419801
30
0
41
1
10
-1.99503997793917
20
-2.244111167147
30
0
41
1
10
-1.99503997793917
20
-2.37446635053539
30
0
41
1
10
-1.99503997793931
20
-2.50455989433326
30
0
41
1
10
-1.99503997793926
20
-2.63438254221705
30
0
41
1
10
-1.99503997793928
20
-2.76392444618179
30
0
41
1
10
-1.99503997793937
20
-2.89317847799555
30
0
41
1
10
-1.99503997793931
20
-3.02213556164861
30
0
41
1
10
-1.9950399779392
20
-3.19381066067945
30
0
41
1
10
-1.99503997793917
20
-3.36446606295525
30
0
41
1
10
-1.99503997793917
20
-3.53485872835631
30
0
41
1
10
-1.99503997793934
20
-3.6622314039667
30
0
41
1
10
-1.99503997793923
20
-3.78926935085309
30
0
41
1
10
-1.9950399779394
20
-3.95832365779981
30
0
41
1
10
-1.99503997793928
20
-4.16851549788916
30
0
41
1
10
-1.99503997793923
20
-4.37752560184691
30
0
41
1
10
-1.99503997793928
20
-4.54421502107883
30
0
41
1
10
-1.99503997793937
20
-4.66878844332785
30
0
41
1
10
-1.99503997793926
20
-4.79299519854527
30
0
41
1
10
-1.99503997793934
20
-4.9582180134222
30
0
41
1
10
-1.99503997793923
20
-5.1635849772014
30
0
41
1
10
-1.99503997793917
20
-5.40863364784667
30
0
41
1
10
-1.9950399779392
20
-5.65215640891222
30
0
41
1
10
-1.99503997793926
20
-5.89413750153932
30
0
41
1
10
-1.99503997793934
20
-6.13456381441381
30
0
41
1
10
-1.99503997793934
20
-6.37342317953832
30
0
41
1
10
-1.99503997793923
20
-6.61070492919376
30
0
41
1
10
-1.99503997793928
20
-6.84639976314463
30
0
41
1
10
-1.99503997793923
20
-7.08049963775392
30
0
41
1
10
-1.9950399779392
20
-7.31299670603013
30
0
41
1
10
-1.99503997793946
20
-7.54388383469131
30
0
41
1
10
-1.99503997793926
20
-7.77315487290264
30
0
41
1
10
-1.99503997793926
20
-8.0008046850906
30
0
41
1
10
-1.99503997793937
20
-8.22682785520684
30
0
41
1
10
-1.99503997793923
20
-8.45121979218527
30
0
41
1
10
-1.99503997793923
20
-8.67397577159844
30
0
41
1
10
-1.99503997793928
20
-8.96893239301761
30
0
41
1
10
-1.99503997793926
20
-9.33322609823662
30
0
41
1
10
-1.9950399779392
20
-9.76392165975838
30
0
41
1
10
-1.99503997793917
20
-10.1171869828061
30
0
41
1
10
-1.99503997793931
20
-10.3966814549586
30
0
41
1
10
-1.99503997793923
20
-10.6045508126062
30
0
41
1
10
-1.99503997793943
20
-10.8107494592903
30
0
41
1
10
-1.99503997793928
20
-11.0152749978462
30
0
41
1
10
-1.99503997793931
20
-11.2181233670389
30
0
41
1
10
-1.99503997793937
20
-11.4192921870092
30
0
41
1
10
-1.9950399779392
20
-11.6187779427602
30
0
41
1
10
-1.9950399779394
20
-11.8826118620781
30
0
41
1
10
-1.99503997793931
20
-12.1427687977971
30
0
41
1
10
-1.99503997793923
20
-12.3998230071701
30
0
41
1
10
-1.99503997793923
20
-12.5908431584254
30
0
41
1
10
-1.99503997793928
20
-12.7801589212448
30
0
41
1
10
-1.99503997793917
20
-12.9677676529032
30
0
41
1
10
-1.99503997793917
20
-13.1536651432542
30
0
41
1
10
-1.99503997793928
20
-13.3378467396349
30
0
41
1
10
-1.9950399779392
20
-13.5203096469929
30
0
41
1
10
-1.99503997793926
20
-13.7010488212408
30
0
41
1
10
-1.99503997793923
20
-13.8800597145162
30
0
41
1
10
-1.99503997793917
20
-14.0573389921213
30
0
41
1
10
-1.99503997793931
20
-14.2328810143212
30
0
41
1
10
-1.99503997793926
20
-14.4646959102749
30
0
41
1
10
-1.9950399779392
20
-14.6927797943809
30
0
41
1
10
-1.99503997793917
20
-14.9175842595471
30
0
41
1
10
-1.99503997793926
20
-15.1400402265273
30
0
41
1
10
-1.99503997793931
20
-15.3587351142266
30
0
41
1
10
-1.99503997793923
20
-15.574095422854
30
0
41
1
10
-1.99503997793914
20
-15.733775855726
30
0
41
1
10
-1.99503997793931
20
-15.8916657661056
30
0
41
1
10
-1.99503997793931
20
-16.0998603532658
30
0
41
1
10
-1.9950399779392
20
-16.3042398246232
30
0
41
1
10
-1.99503997793937
20
-16.5051894037979
30
0
41
1
10
-1.99503997793926
20
-16.6540265683948
30
0
41
1
10
-1.99503997793934
20
-16.8010329188421
30
0
41
1
10
-1.99503997793934
20
-16.9946550481209
30
0
41
1
10
-1.99503997793928
20
-17.1843924611907
30
0
41
1
10
-1.99503997793923
20
-17.3705928023912
30
0
41
1
10
-1.99503997793923
20
-17.5083251903718
30
0
41
1
10
-1.99503997793934
20
-17.6441786252734
30
0
41
1
10
-1.9950399779392
20
-17.8228590748674
30
0
41
1
10
-1.99503997793931
20
-17.9975683374734
30
0
41
1
10
-1.99503997793923
20
-18.1686188521771
30
0
41
1
10
-1.99503997793923
20
-18.2949373683468
30
0
41
1
10
-1.99503997793926
20
-18.4193198181252
30
0
41
1
10
-1.9950399779392
20
-18.5826226298873
30
0
41
1
10
-1.99503997793928
20
-18.7418497326446
30
0
41
1
10
-1.99503997793934
20
-18.8972761707097
30
0
41
1
10
-1.9950399779392
20
-19.0118150097952
30
0
41
1
10
-1.99503997793928
20
-19.1243510467918
30
0
41
1
10
-1.99503997793923
20
-19.2717625055689
30
0
41
1
10
-1.99503997793923
20
-19.4149705131239
30
0
41
1
10
-1.99503997793931
20
-19.5542140249085
30
0
41
1
10
-1.99503997793926
20
-19.6565420567613
30
0
41
1
10
-1.99503997793923
20
-19.7567881415466
30
0
41
1
10
-1.99503997793928
20
-19.8549381550126
30
0
41
1
10
-1.99503997793926
20
-19.9509751416388
30
0
41
1
10
-1.9950399779392
20
-20.0448848362119
30
0
41
1
10
-1.99503997793926
20
-20.1366515718167
30
0
41
1
10
-1.99503997793923
20
-20.2262576202058
30
0
41
1
10
-1.9950399779392
20
-20.3136874196731
30
0
41
1
10
-1.99503997793923
20
-20.3989234300879
30
0
41
1
10
-1.99503997793934
20
-20.4819464863244
30
0
41
1
10
-1.99503997793926
20
-20.5627395868944
30
0
41
1
10
-1.99503997793934
20
-20.6412830627252
30
0
41
1
10
-1.99503997793931
20
-20.7430172190698
30
0
41
1
10
-1.9950399779392
20
-20.8400664428987
30
0
41
1
10
-1.99503997793923
20
-20.9325549572362
30
0
41
1
10
-1.99503997793926
20
-20.9995415068112
30
0
41
1
10
-1.99503997793928
20
-21.064149408511
30
0
41
1
10
-1.99503997793923
20
-21.1263556466612
30
0
41
1
10
-1.99503997793926
20
-21.1861355753666
30
0
41
1
10
-1.99503997793934
20
-21.262600218376
30
0
41
1
10
-1.9950399779392
20
-21.3340243512753
30
0
41
1
10
-1.99503997793931
20
-21.4004603045829
30
0
41
1
10
-1.99503997793923
20
-21.4477036445725
30
0
41
1
10
-1.99503997793923
20
-21.4923513092323
30
0
41
1
10
-1.99503997793917
20
-21.5484022410126
30
0
41
1
10
-1.99503997793926
20
-21.5990695510925
30
0
41
1
10
-1.99503997793934
20
-21.6443396610233
30
0
41
1
10
-1.99503997793928
20
-21.6755105092645
30
0
41
1
10
-1.99503997793928
20
-21.7038764495607
30
0
41
1
10
-1.99503997793923
20
-21.7293964429163
30
0
41
1
10
-1.99503997793937
20
-21.7520292420694
30
0
41
1
10
-1.99503997793926
20
-21.7717309018817
30
0
41
1
10
-1.99503997793931
20
-21.7884557380592
30
0
41
1
10
-1.99503997793926
20
-21.8021565310045
30
0
41
1
10
-1.99503997793937
20
-21.8127830851058
30
0
41
1
10
-1.99503997793917
20
-21.8202838734724
30
0
41
1
10
-1.9950399779392
20
-21.8243525588866
30
0
41
1
10
-1.99503997793928
20
-21.8251835191203
30
0
41
1
10
-1.99503997793928
20
-21.8251860717241
30
0
0
SPLINE
5
145
100
AcDbEntity
8
SK1
62
256
6
ByLayer
370
18
48
1
60
0
100
AcDbSpline
70
4
71
3
72
13
73
9
40
0
40
0
40
0
40
0
40
0.239456135763527
40
0.368359721933441
40
0.49999898402092
40
0.631638415283561
40
0.760542467778017
40
1
40
1
40
1
40
1
41
1
10
-2.19999999999993
20
-22.0200986606755
30
0
41
1
10
-2.19909198642267
20
-21.9940411845603
30
0
41
1
10
-2.19103284106939
20
-21.9566686002238
30
0
41
1
10
-2.16563592203337
20
-21.9104494263859
30
0
41
1
10
-2.1388637867926
20
-21.8791678725253
30
0
41
1
10
-2.10627712749871
20
-21.8540005023229
30
0
41
1
10
-2.05884064234078
20
-21.8309566998545
30
0
41
1
10
-2.02111030873024
20
-21.8247844448324
30
0
41
1
10
-1.99503997793926
20
-21.825186084775
30
0
0
SPLINE
5
146
100
AcDbEntity
8
SK1
62
256
6
ByLayer
370
18
48
1
60
0
100
AcDbSpline
70
4
71
3
72
13
73
9
40
0
40
0
40
0
40
0
40
0.239457532153133
40
0.368361584623344
40
0.500001015876358
40
0.631640277971437
40
0.76054386416453
40
1
40
1
40
1
40
1
41
1
10
-1.99503997793931
20
21.8251861015555
30
0
41
1
10
-2.02111030873169
20
21.8247844616135
30
0
41
1
10
-2.05884064234348
20
21.8309567166393
30
0
41
1
10
-2.10627712750082
20
21.8540005191231
30
0
41
1
10
-2.13886378679462
20
21.8791678893422
30
0
41
1
10
-2.16563592203491
20
21.9104494432232
30
0
41
1
10
-2.19103284107058
20
21.956668617092
30
0
41
1
10
-2.19909198642387
20
21.994041201451
30
0
41
1
10
-2.20000000000002
20
22.0200986775813
30
0
0
SPLINE
5
147
100
AcDbEntity
8
SK1
62
256
6
ByLayer
370
18
48
1
60
0
100
AcDbSpline
70
4
71
3
72
26
73
22
40
0
40
0
40
0
40
0
40
0.125
40
0.125
40
0.25
40
0.25
40
0.3125
40
0.3125
40
0.375
40
0.375
40
0.5
40
0.5
40
0.625
40
0.625
40
0.6875
40
0.6875
40
0.75
40
0.75
40
0.875
40
0.875
40
1
40
1
40
1
40
1
41
1
10
-1.30710678118655
20
4.81101329740292
30
0
41
1
10
-1.37461329628553
20
4.42906267002718
30
0
41
1
10
-1.43842288357254
20
4.04270825974385
30
0
41
1
10
-1.55482767545837
20
3.25964078646078
30
0
41
1
10
-1.60743482920455
20
2.86293463703913
30
0
41
1
10
-1.67407835953031
20
2.25842147165622
30
0
41
1
10
-1.69423470862276
20
2.05533443764043
30
0
41
1
10
-1.72965556309055
20
1.6456383628533
30
0
41
1
10
-1.74484710329563
20
1.43963199934174
30
0
41
1
10
-1.78162975563032
20
0.822757523243155
30
0
41
1
10
-1.79445291889317
20
0.411207816053775
30
0
41
1
10
-1.79442593338334
20
-0.412525631247888
30
0
41
1
10
-1.78157312882854
20
-0.824709416072125
30
0
41
1
10
-1.74458984279465
20
-1.4434392089793
30
0
41
1
10
-1.72930597743914
20
-1.6500594850441
30
0
41
1
10
-1.6939077740922
20
-2.05873054114886
30
0
41
1
10
-1.67377216548036
20
-2.26136839295077
30
0
41
1
10
-1.60720273884698
20
-2.86469699044164
30
0
41
1
10
-1.55465955887391
20
-3.26082920006922
30
0
41
1
10
-1.4383598816452
20
-4.04307426593763
30
0
41
1
10
-1.37459233181624
20
-4.4291808795825
30
0
41
1
10
-1.30710678118663
20
-4.81101321788432
30
0
0
SPLINE
5
148
100
AcDbEntity
8
SK1
62
256
6
ByLayer
370
18
48
1
60
0
100
AcDbSpline
70
4
71
2
72
6
73
3
40
0
40
0
40
0
40
1
40
1
40
1
41
1
10
-1.99503997793926
20
-21.8251812553753
30
0
41
1
10
-1.19500843340725
20
-21.8452807024746
30
0
41
1
10
-0.394976888875249
20
-21.8653801495793
30
0
0
SPLINE
5
149
100
AcDbEntity
8
SK1
62
256
6
ByLayer
370
18
48
1
60
0
100
AcDbSpline
70
4
71
2
72
6
73
3
40
0
40
0
40
0
40
1
40
1
40
1
41
1
10
-0.394976888875277
20
21.8653802062992
30
0
41
1
10
-1.19500843340728
20
21.8452807593863
30
0
41
1
10
-1.99503997793931
20
21.8251813124779
30
0
0
SPLINE
5
14A
100
AcDbEntity
8
SK1
62
256
6
ByLayer
370
18
48
1
60
0
100
AcDbSpline
70
4
71
3
72
111
73
107
40
0
40
0
40
0
40
0
40
0.0023103668589011
40
0.0108509592746255
40
0.0193915516903498
40
0.0279321441060742
40
0.0364727365217986
40
0.0450133289375229
40
0.0535539213532473
40
0.0620945137689716
40
0.070635106184696
40
0.0791756986004203
40
0.0877162910161447
40
0.0962568834318691
40
0.113338068263318
40
0.130419253094767
40
0.147500437926215
40
0.15604103034194
40
0.164581622757664
40
0.173122215173388
40
0.181662807589113
40
0.190203400004837
40
0.198743992420561
40
0.207284584836286
40
0.21582517725201
40
0.232906362083459
40
0.241446954499183
40
0.249987546914907
40
0.258528139330632
40
0.267068731746356
40
0.275609324162081
40
0.284149916577805
40
0.292690508993529
40
0.301231101409254
40
0.309771693824978
40
0.318312286240702
40
0.326852878656427
40
0.335393471072151
40
0.3524746559036
40
0.361015248319324
40
0.369555840735048
40
0.386637025566497
40
0.395177617982222
40
0.403718210397946
40
0.41225880281367
40
0.420799395229395
40
0.437880580060843
40
0.446421172476568
40
0.454961764892292
40
0.463502357308016
40
0.472042949723741
40
0.489124134555189
40
0.497664726970914
40
0.506205319386638
40
0.514745911802363
40
0.523286504218087
40
0.540367689049536
40
0.54890828146526
40
0.557448873880984
40
0.565989466296709
40
0.574530058712433
40
0.591611243543882
40
0.600151835959606
40
0.60869242837533
40
0.617233020791055
40
0.625773613206779
40
0.642854798038228
40
0.651395390453952
40
0.659935982869677
40
0.668476575285401
40
0.677017167701125
40
0.68555776011685
40
0.694098352532574
40
0.702638944948298
40
0.711179537364023
40
0.719720129779747
40
0.728260722195472
40
0.736801314611196
40
0.74534190702692
40
0.753882499442645
40
0.762423091858369
40
0.779504276689818
40
0.788044869105542
40
0.796585461521266
40
0.805126053936991
40
0.813666646352715
40
0.822207238768439
40
0.830747831184164
40
0.847829016015612
40
0.856369608431337
40
0.864910200847061
40
0.873450793262786
40
0.88199138567851
40
0.899072570509959
40
0.907613162925683
40
0.916153755341407
40
0.924694347757132
40
0.933234940172856
40
0.94177553258858
40
0.950316125004305
40
0.958856717420029
40
0.967397309835753
40
0.975937902251478
40
0.984478494667202
40
0.993019087082927
40
1
40
1
40
1
40
1
41
1
10
-0.394976888875277
20
-6.32694279392973
30
0
41
1
10
-0.394976888875277
20
-6.3484916311391
30
0
41
1
10
-0.394976888875306
20
-6.44960775400912
30
0
41
1
10
-0.394976888875391
20
-6.62954555948866
30
0
41
1
10
-0.394976888875391
20
-6.86569504888007
30
0
41
1
10
-0.39497688887522
20
-7.10023740586411
30
0
41
1
10
-0.394976888875192
20
-7.33316546385933
30
0
41
1
10
-0.394976888875419
20
-7.56447269448571
30
0
41
1
10
-0.394976888875249
20
-7.79415340272942
30
0
41
1
10
-0.394976888875249
20
-8.02220293401993
30
0
41
1
10
-0.39497688887522
20
-8.24861635560845
30
0
41
1
10
-0.394976888875362
20
-8.47338951886385
30
0
41
1
10
-0.394976888875362
20
-8.69651811258547
30
0
41
1
10
-0.394976888875277
20
-8.99192948127939
30
0
41
1
10
-0.394976888875192
20
-9.3568391217598
30
0
41
1
10
-0.394976888875192
20
-9.7882109121748
30
0
41
1
10
-0.394976888875306
20
-10.142045462177
30
0
41
1
10
-0.394976888875249
20
-10.4219344727077
30
0
41
1
10
-0.394976888875249
20
-10.6301131683677
30
0
41
1
10
-0.394976888875334
20
-10.8366153667066
30
0
41
1
10
-0.394976888875249
20
-11.0414388905992
30
0
41
1
10
-0.39497688887522
20
-11.2445799004538
30
0
41
1
10
-0.394976888875419
20
-11.4460361162834
30
0
41
1
10
-0.39497688887522
20
-11.6458042976885
30
0
41
1
10
-0.394976888875192
20
-11.9099848253352
30
0
41
1
10
-0.394976888875306
20
-12.1705475695385
30
0
41
1
10
-0.394976888875362
20
-12.427931806711
30
0
41
1
10
-0.39497688887522
20
-12.619211487498
30
0
41
1
10
-0.394976888875334
20
-12.8087826250924
30
0
41
1
10
-0.39497688887522
20
-12.9966426041154
30
0
41
1
10
-0.394976888875306
20
-13.1827874489959
30
0
41
1
10
-0.394976888875334
20
-13.3672125455487
30
0
41
1
10
-0.394976888875334
20
-13.5499151547097
30
0
41
1
10
-0.394976888875192
20
-13.7308904478326
30
0
41
1
10
-0.394976888875334
20
-13.910133867705
30
0
41
1
10
-0.394976888875362
20
-14.0876421688895
30
0
41
1
10
-0.394976888875164
20
-14.2634098807097
30
0
41
1
10
-0.394976888875306
20
-14.4955025482493
30
0
41
1
10
-0.39497688887522
20
-14.7239127068146
30
0
41
1
10
-0.394976888875277
20
-14.9489833053404
30
0
41
1
10
-0.394976888875362
20
-15.1717014119149
30
0
41
1
10
-0.394976888875334
20
-15.3907043201103
30
0
41
1
10
-0.394976888875306
20
-15.6063159613101
30
0
41
1
10
-0.394976888875192
20
-15.7661946363951
30
0
41
1
10
-0.394976888875164
20
-15.9242799594928
30
0
41
1
10
-0.394976888875306
20
-16.1327154012234
30
0
41
1
10
-0.394976888875362
20
-16.3373780173449
30
0
41
1
10
-0.394976888875306
20
-16.5385587125242
30
0
41
1
10
-0.394976888875306
20
-16.6875782011067
30
0
41
1
10
-0.39497688887522
20
-16.8347642769001
30
0
41
1
10
-0.394976888875306
20
-17.0286080073569
30
0
41
1
10
-0.394976888875249
20
-17.2186059445175
30
0
41
1
10
-0.39497688887522
20
-17.4050188999402
30
0
41
1
10
-0.394976888875306
20
-17.5429190217057
30
0
41
1
10
-0.394976888875164
20
-17.6789377757623
30
0
41
1
10
-0.394976888875391
20
-17.8578220601067
30
0
41
1
10
-0.394976888875164
20
-18.0327708145484
30
0
41
1
10
-0.394976888875306
20
-18.2040166330947
30
0
41
1
10
-0.394976888875192
20
-18.3304892054167
30
0
41
1
10
-0.394976888875164
20
-18.4550234389153
30
0
41
1
10
-0.394976888875277
20
-18.6185132745736
30
0
41
1
10
-0.394976888875362
20
-18.7779598884918
30
0
41
1
10
-0.39497688887522
20
-18.933565131357
30
0
41
1
10
-0.394976888875362
20
-19.048244884465
30
0
41
1
10
-0.394976888875277
20
-19.1609196079758
30
0
41
1
10
-0.394976888875306
20
-19.3085018143331
30
0
41
1
10
-0.394976888875277
20
-19.4519098709686
30
0
41
1
10
-0.394976888875164
20
-19.591315981174
30
0
41
1
10
-0.394976888875277
20
-19.6937719762305
30
0
41
1
10
-0.394976888875334
20
-19.7941438028822
30
0
41
1
10
-0.394976888875277
20
-19.8924174211231
30
0
41
1
10
-0.394976888875164
20
-19.988575861591
30
0
41
1
10
-0.394976888875164
20
-20.082604778142
30
0
41
1
10
-0.394976888875192
20
-20.1744885559187
30
0
41
1
10
-0.394976888875334
20
-20.264209431984
30
0
41
1
10
-0.39497688887522
20
-20.3517517880635
30
0
41
1
10
-0.394976888875249
20
-20.437098129367
30
0
41
1
10
-0.394976888875391
20
-20.5202292348052
30
0
41
1
10
-0.394976888875306
20
-20.6011280559991
30
0
41
1
10
-0.394976888875306
20
-20.6797749513881
30
0
41
1
10
-0.394976888875164
20
-20.781635486227
30
0
41
1
10
-0.394976888875192
20
-20.8788308931332
30
0
41
1
10
-0.394976888875334
20
-20.971436509639
30
0
41
1
10
-0.394976888875249
20
-21.0385142950144
30
0
41
1
10
-0.394976888875306
20
-21.1032108820957
30
0
41
1
10
-0.394976888875334
20
-21.1655031751743
30
0
41
1
10
-0.394976888875277
20
-21.2253665102307
30
0
41
1
10
-0.394976888875277
20
-21.301932078811
30
0
41
1
10
-0.394976888875164
20
-21.3734709318986
30
0
41
1
10
-0.394976888875334
20
-21.4399968999807
30
0
41
1
10
-0.394976888875362
20
-21.4873093096751
30
0
41
1
10
-0.394976888875192
20
-21.5320229383891
30
0
41
1
10
-0.394976888875192
20
-21.5881524005931
30
0
41
1
10
-0.394976888875164
20
-21.6389063892513
30
0
41
1
10
-0.394976888875192
20
-21.6842420425293
30
0
41
1
10
-0.394976888875192
20
-21.7154617242468
30
0
41
1
10
-0.394976888875164
20
-21.7438726893518
30
0
41
1
10
-0.394976888875249
20
-21.7694337460976
30
0
41
1
10
-0.394976888875249
20
-21.792103478096
30
0
41
1
10
-0.394976888875277
20
-21.8118377637545
30
0
41
1
10
-0.394976888875164
20
-21.8285907189997
30
0
41
1
10
-0.394976888875306
20
-21.8423149132633
30
0
41
1
10
-0.394976888875277
20
-21.8529599173647
30
0
41
1
10
-0.394976888875249
20
-21.8604739519412
30
0
41
1
10
-0.394976888875249
20
-21.8645384013982
30
0
41
1
10
-0.394976888875249
20
-21.8653750876489
30
0
41
1
10
-0.394976888875277
20
-21.8653847938249
30
0
0
SPLINE
5
14B
100
AcDbEntity
8
SK1
62
256
6
ByLayer
370
18
48
1
60
0
100
AcDbSpline
70
4
71
3
72
297
73
293
40
0
40
0
40
0
40
0
40
0.0015364480445545
40
0.0050969016307715
40
0.0086573552169885
40
0.0122178088032055
40
0.0157782623894226
40
0.0193387159756396
40
0.0228991695618566
40
0.0300200767342907
40
0.0371409839067247
40
0.0442618910791588
40
0.0478223446653758
40
0.0513827982515929
40
0.0549432518378099
40
0.0585037054240269
40
0.0656246125964609
40
0.069185066182678
40
0.0727455197688949
40
0.076305973355112
40
0.079866426941329
40
0.0834268805275461
40
0.0869873341137631
40
0.0941082412861971
40
0.0976686948724142
40
0.101229148458631
40
0.104789602044848
40
0.108350055631065
40
0.111910509217282
40
0.115470962803499
40
0.119031416389716
40
0.122591869975933
40
0.12615232356215
40
0.129712777148367
40
0.133273230734584
40
0.136833684320802
40
0.140394137907018
40
0.143954591493236
40
0.151075498665669
40
0.154635952251887
40
0.158196405838103
40
0.159976632631212
40
0.161756859424321
40
0.165317313010538
40
0.172438220182972
40
0.175998673769189
40
0.179559127355406
40
0.183119580941623
40
0.18668003452784
40
0.193800941700274
40
0.197361395286491
40
0.200921848872708
40
0.202702075665816
40
0.204482302458925
40
0.208042756045142
40
0.215163663217576
40
0.218724116803793
40
0.22228457039001
40
0.225845023976227
40
0.229405477562444
40
0.236526384734878
40
0.240086838321095
40
0.243647291907312
40
0.245427518700421
40
0.247207745493529
40
0.250768199079746
40
0.254328652665963
40
0.25788910625218
40
0.259669333045289
40
0.261449559838397
40
0.265010013424614
40
0.268570467010831
40
0.272130920597049
40
0.275691374183266
40
0.279251827769482
40
0.2828122813557
40
0.286372734941917
40
0.289933188528134
40
0.293493642114351
40
0.297054095700568
40
0.300614549286785
40
0.304175002873002
40
0.307735456459219
40
0.311295910045436
40
0.314856363631653
40
0.321977270804087
40
0.325537724390304
40
0.329098177976521
40
0.332658631562738
40
0.336219085148955
40
0.339779538735172
40
0.343339992321389
40
0.346900445907606
40
0.350460899493823
40
0.357581806666257
40
0.364702713838691
40
0.371823621011125
40
0.375384074597342
40
0.378944528183559
40
0.382504981769776
40
0.386065435355993
40
0.38962588894221
40
0.393186342528427
40
0.396746796114644
40
0.400307249700862
40
0.403867703287078
40
0.407428156873296
40
0.410988610459513
40
0.41454906404573
40
0.418109517631947
40
0.421669971218164
40
0.425230424804381
40
0.428790878390598
40
0.432351331976815
40
0.434131558769923
40
0.435911785563032
40
0.43769201235614
40
0.439472239149249
40
0.443032692735466
40
0.446593146321683
40
0.448373373114791
40
0.4501535999079
40
0.451933826701008
40
0.453714053494117
40
0.457274507080334
40
0.459054733873442
40
0.460834960666551
40
0.46261518745966
40
0.464395414252768
40
0.466175641045877
40
0.467955867838985
40
0.469736094632093
40
0.471516321425202
40
0.473296548218311
40
0.475076775011419
40
0.476857001804528
40
0.478637228597636
40
0.480417455390745
40
0.482197682183853
40
0.483977908976962
40
0.48575813577007
40
0.487538362563179
40
0.489318589356287
40
0.491098816149396
40
0.492879042942504
40
0.494659269735613
40
0.496439496528721
40
0.49821972332183
40
0.499999950114938
40
0.501780176908047
40
0.503560403701155
40
0.505340630494264
40
0.507120857287372
40
0.508901084080481
40
0.510681310873589
40
0.512461537666698
40
0.514241764459806
40
0.516021991252915
40
0.517802218046023
40
0.519582444839132
40
0.52136267163224
40
0.523142898425349
40
0.524923125218457
40
0.526703352011566
40
0.528483578804674
40
0.530263805597783
40
0.532044032390891
40
0.533824259184
40
0.535604485977108
40
0.537384712770217
40
0.539164939563325
40
0.540945166356434
40
0.542725393149542
40
0.54628584673576
40
0.548066073528868
40
0.549846300321977
40
0.551626527115085
40
0.553406753908194
40
0.556967207494411
40
0.560527661080628
40
0.562307887873736
40
0.564088114666845
40
0.565868341459953
40
0.567648568253062
40
0.571209021839279
40
0.574769475425496
40
0.578329929011713
40
0.58189038259793
40
0.585450836184147
40
0.589011289770364
40
0.592571743356581
40
0.596132196942798
40
0.599692650529015
40
0.603253104115232
40
0.606813557701449
40
0.610374011287666
40
0.613934464873883
40
0.6174949184601
40
0.621055372046317
40
0.624615825632534
40
0.628176279218751
40
0.635297186391185
40
0.642418093563619
40
0.649539000736053
40
0.65309945432227
40
0.656659907908487
40
0.660220361494704
40
0.663780815080921
40
0.667341268667139
40
0.670901722253355
40
0.674462175839572
40
0.67802262942579
40
0.685143536598224
40
0.688703990184441
40
0.692264443770658
40
0.695824897356875
40
0.699385350943092
40
0.702945804529309
40
0.706506258115526
40
0.710066711701743
40
0.71362716528796
40
0.717187618874177
40
0.720748072460394
40
0.724308526046611
40
0.727868979632828
40
0.734989886805262
40
0.738550340391479
40
0.742110793977696
40
0.74923170115013
40
0.752792154736347
40
0.756352608322564
40
0.759913061908781
40
0.763473515494998
40
0.770594422667432
40
0.774154876253649
40
0.777715329839866
40
0.781275783426083
40
0.7848362370123
40
0.791957144184734
40
0.795517597770952
40
0.799078051357168
40
0.802638504943386
40
0.806198958529603
40
0.813319865702037
40
0.816880319288254
40
0.820440772874471
40
0.824001226460688
40
0.827561680046905
40
0.834682587219339
40
0.838243040805556
40
0.841803494391773
40
0.84536394797799
40
0.848924401564207
40
0.856045308736641
40
0.859605762322858
40
0.863166215909075
40
0.866726669495292
40
0.870287123081509
40
0.873847576667726
40
0.877408030253943
40
0.88096848384016
40
0.884528937426377
40
0.888089391012594
40
0.891649844598811
40
0.895210298185028
40
0.898770751771245
40
0.902331205357462
40
0.905891658943679
40
0.913012566116113
40
0.91657301970233
40
0.920133473288547
40
0.923693926874764
40
0.927254380460981
40
0.930814834047199
40
0.934375287633415
40
0.94149619480585
40
0.945056648392066
40
0.948617101978284
40
0.952177555564501
40
0.955738009150718
40
0.962858916323152
40
0.966419369909369
40
0.969979823495586
40
0.973540277081803
40
0.97710073066802
40
0.980661184254237
40
0.984221637840454
40
0.987782091426671
40
0.991342545012888
40
0.994902998599105
40
0.998463452185322
40
1
40
1
40
1
40
1
41
1
10
-38.0000000000001
20
20.289387814045
30
0
41
1
10
-38.0000000000001
20
20.2887803253554
30
0
41
1
10
-38
20
20.2864571590375
30
0
41
1
10
-37.9999999999999
20
20.2807871950942
30
0
41
1
10
-38
20
20.2708642252781
30
0
41
1
10
-37.9999999999999
20
20.2580557575389
30
0
41
1
10
-38
20
20.2424031034126
30
0
41
1
10
-38
20
20.2239454925534
30
0
41
1
10
-38.0000000000001
20
20.1955126220401
30
0
41
1
10
-38
20
20.1534581579691
30
0
41
1
10
-37.9999999999999
20
20.0921783324267
30
0
41
1
10
-38
20
20.0326760120609
30
0
41
1
10
-38.0000000000001
20
19.9796195423853
30
0
41
1
10
-38
20
19.9374871337363
30
0
41
1
10
-38
20
19.8928775037256
30
0
41
1
10
-38.0000000000001
20
19.8298739849263
30
0
41
1
10
-37.9999999999999
20
19.7628242930464
30
0
41
1
10
-38
20
19.6902080345968
30
0
41
1
10
-38
20
19.6336084813316
30
0
41
1
10
-38
20
19.5746836513967
30
0
41
1
10
-38
20
19.5134574775014
30
0
41
1
10
-38
20
19.4499498796239
30
0
41
1
10
-38
20
19.361926580552
30
0
41
1
10
-37.9999999999999
20
19.2704514952516
30
0
41
1
10
-37.9999999999999
20
19.1735363516592
30
0
41
1
10
-38
20
19.0989364266239
30
0
41
1
10
-38
20
19.0221745884207
30
0
41
1
10
-37.9999999999999
20
18.9432715601189
30
0
41
1
10
-38
20
18.8622425921488
30
0
41
1
10
-38
20
18.7791047356356
30
0
41
1
10
-38
20
18.6938772447033
30
0
41
1
10
-38
20
18.6065734364563
30
0
41
1
10
-38.0000000000001
20
18.5172096781029
30
0
41
1
10
-37.9999999999999
20
18.4258037757915
30
0
41
1
10
-38
20
18.3323676597213
30
0
41
1
10
-37.9999999999999
20
18.2369170405731
30
0
41
1
10
-38
20
18.1394682315479
30
0
41
1
10
-37.9999999999999
20
18.0064230454641
30
0
41
1
10
-37.9999999999999
20
17.870842154793
30
0
41
1
10
-38
20
17.7299440627733
30
0
41
1
10
-38
20
17.6408187485726
30
0
41
1
10
-38.0000000000001
20
17.5681131617786
30
0
41
1
10
-38
20
17.4947669133713
30
0
41
1
10
-38.0000000000001
20
17.3649201654158
30
0
41
1
10
-38
20
17.214063276801
30
0
41
1
10
-38
20
17.0578935907135
30
0
41
1
10
-38
20
16.939299229306
30
0
41
1
10
-38
20
16.8188549914818
30
0
41
1
10
-38
20
16.6552510003022
30
0
41
1
10
-38
20
16.4896724966031
30
0
41
1
10
-38
20
16.3187666825072
30
0
41
1
10
-38
20
16.211103177294
30
0
41
1
10
-37.9999999999999
20
16.1235473577608
30
0
41
1
10
-38
20
16.0353949417433
30
0
41
1
10
-38
20
15.8797855584286
30
0
41
1
10
-37.9999999999999
20
15.6999813794667
30
0
41
1
10
-37.9999999999999
20
15.5148116907139
30
0
41
1
10
-37.9999999999999
20
15.374660038484
30
0
41
1
10
-38
20
15.2327750536328
30
0
41
1
10
-37.9999999999999
20
15.0406360987563
30
0
41
1
10
-38.0000000000001
20
14.8470518249569
30
0
41
1
10
-38.0000000000001
20
14.6480433816337
30
0
41
1
10
-38
20
14.5230237603812
30
0
41
1
10
-37.9999999999999
20
14.4215395322792
30
0
41
1
10
-38
20
14.319494446119
30
0
41
1
10
-38
20
14.1916826014269
30
0
41
1
10
-37.9999999999999
20
14.0362107113462
30
0
41
1
10
-38
20
13.9056336328641
30
0
41
1
10
-38
20
13.7996824703933
30
0
41
1
10
-38
20
13.6931799140641
30
0
41
1
10
-38
20
13.5598675642286
30
0
41
1
10
-37.9999999999999
20
13.3977994204325
30
0
41
1
10
-38.0000000000001
20
13.2340971553998
30
0
41
1
10
-38.0000000000001
20
13.0687736820566
30
0
41
1
10
-38.0000000000001
20
12.9018380893652
30
0
41
1
10
-38
20
12.733292295151
30
0
41
1
10
-38
20
12.5631480531083
30
0
41
1
10
-38
20
12.3914123687225
30
0
41
1
10
-38
20
12.2180896154105
30
0
41
1
10
-37.9999999999999
20
12.0431930727568
30
0
41
1
10
-37.9999999999999
20
11.8667275879998
30
0
41
1
10
-37.9999999999999
20
11.6886992220564
30
0
41
1
10
-38.0000000000001
20
11.5091211559414
30
0
41
1
10
-37.9999999999999
20
11.3279971676986
30
0
41
1
10
-38
20
11.0835274575534
30
0
41
1
10
-37.9999999999999
20
10.8388445996823
30
0
41
1
10
-38
20
10.5882272221232
30
0
41
1
10
-38
20
10.3995106478125
30
0
41
1
10
-38.0000000000001
20
10.2093006505112
30
0
41
1
10
-38
20
10.0176111741014
30
0
41
1
10
-37.9999999999999
20
9.82444825814409
30
0
41
1
10
-38
20
9.62982433363788
30
0
41
1
10
-38
20
9.43375032895261
30
0
41
1
10
-37.9999999999999
20
9.16930024978851
30
0
41
1
10
-37.9999999999999
20
8.83774034996799
30
0
41
1
10
-38.0000000000001
20
8.43283016067582
30
0
41
1
10
-37.9999999999999
20
8.092023027045
30
0
41
1
10
-38
20
7.81440668711986
30
0
41
1
10
-37.9999999999999
20
7.60585888080692
30
0
41
1
10
-38
20
7.39600299493057
30
0
41
1
10
-38
20
7.18486050853954
30
0
41
1
10
-38.0000000000001
20
6.97245482074305
30
0
41
1
10
-37.9999999999999
20
6.75880464755281
30
0
41
1
10
-38
20
6.54393387937552
30
0
41
1
10
-38
20
6.32787102064526
30
0
41
1
10
-37.9999999999999
20
6.11064460524284
30
0
41
1
10
-38
20
5.89228682406832
30
0
41
1
10
-38
20
5.67283049766704
30
0
41
1
10
-38
20
5.45231041402212
30
0
41
1
10
-38
20
5.23076611988375
30
0
41
1
10
-38
20
5.00824236668095
30
0
41
1
10
-38.0000000000001
20
4.78478453894911
30
0
41
1
10
-38
20
4.56044477194354
30
0
41
1
10
-37.9999999999999
20
4.37375931423296
30
0
41
1
10
-38
20
4.22222174308934
30
0
41
1
10
-38.0000000000002
20
4.10916467830543
30
0
41
1
10
-37.9999999999999
20
3.9959312375729
30
0
41
1
10
-38
20
3.84368490764805
30
0
41
1
10
-37.9999999999999
20
3.65544484289481
30
0
41
1
10
-38
20
3.46668355973634
30
0
41
1
10
-38
20
3.31336520651507
30
0
41
1
10
-38
20
3.19916977025287
30
0
41
1
10
-37.9999999999999
20
3.08487718492046
30
0
41
1
10
-38.0000000000001
20
2.93116533478545
30
0
41
1
10
-38
20
2.78106304592126
30
0
41
1
10
-37.9999999999999
20
2.626973435119
30
0
41
1
10
-37.9999999999999
20
2.51237687493435
30
0
41
1
10
-38.0000000000001
20
2.39774974487258
30
0
41
1
10
-38
20
2.28311555219409
30
0
41
1
10
-38
20
2.16847618976479
30
0
41
1
10
-38.0000000000001
20
2.05384840107456
30
0
41
1
10
-38
20
1.93924458170409
30
0
41
1
10
-38
20
1.82466899171229
30
0
41
1
10
-38
20
1.71014121398448
30
0
41
1
10
-38.0000000000001
20
1.59566009898884
30
0
41
1
10
-38
20
1.48124309885611
30
0
41
1
10
-37.9999999999999
20
1.36688883878048
30
0
41
1
10
-38
20
1.25260906632707
30
0
41
1
10
-38
20
1.13840321986407
30
0
41
1
10
-38
20
1.02427614220744
30
0
41
1
10
-38
20
0.91022581180394
30
0
41
1
10
-38
20
0.796251800904002
30
0
41
1
10
-38
20
0.682349388495652
30
0
41
1
10
-38
20
0.568513483413568
30
0
41
1
10
-38.0000000000001
20
0.454735475949008
30
0
41
1
10
-38.0000000000001
20
0.341006791030139
30
0
41
1
10
-37.9999999999999
20
0.227315919379578
30
0
41
1
10
-38
20
0.113651444289133
30
0
41
1
10
-38
20
2.39307383E-08
30
0
41
1
10
-37.9999999999999
20
-0.11365142886109
30
0
41
1
10
-38.0000000000001
20
-0.227315965161779
30
0
41
1
10
-38
20
-0.341006831114697
30
0
41
1
10
-37.9999999999999
20
-0.454735424962678
30
0
41
1
10
-38
20
-0.568513412391496
30
0
41
1
10
-38
20
-0.682349437337024
30
0
41
1
10
-37.9999999999999
20
-0.796251898049178
30
0
41
1
10
-38
20
-0.910225765592173
30
0
41
1
10
-38
20
-1.02427601417023
30
0
41
1
10
-38
20
-1.13840324907628
30
0
41
1
10
-37.9999999999999
20
-1.25260921865751
30
0
41
1
10
-38.0000000000001
20
-1.36688883944311
30
0
41
1
10
-37.9999999999999
20
-1.48124293103626
30
0
41
1
10
-38
20
-1.59566004663378
30
0
41
1
10
-38
20
-1.71014137238993
30
0
41
1
10
-38
20
-1.82466911261426
30
0
41
1
10
-38
20
-1.93924446866478
30
0
41
1
10
-38
20
-2.05384821372687
30
0
41
1
10
-38
20
-2.16847621903284
30
0
41
1
10
-37.9999999999999
20
-2.28311576323415
30
0
41
1
10
-38.0000000000001
20
-2.397749832801
30
0
41
1
10
-38
20
-2.51237672316302
30
0
41
1
10
-38
20
-2.62697323991796
30
0
41
1
10
-37.9999999999999
20
-2.78106315146926
30
0
41
1
10
-38
20
-2.9311655269338
30
0
41
1
10
-38
20
-3.08487708212579
30
0
41
1
10
-38
20
-3.19916954549001
30
0
41
1
10
-38
20
-3.31336512600544
30
0
41
1
10
-38
20
-3.46668375918674
30
0
41
1
10
-37.9999999999999
20
-3.65544489425082
30
0
41
1
10
-38.0000000000001
20
-3.84368470208369
30
0
41
1
10
-38
20
-3.99593117493788
30
0
41
1
10
-37.9999999999999
20
-4.1091648160739
30
0
41
1
10
-38
20
-4.22222196867935
30
0
41
1
10
-38
20
-4.37375933349
30
0
41
1
10
-37.9999999999999
20
-4.56044458630842
30
0
41
1
10
-37.9999999999999
20
-4.7847845764849
30
0
41
1
10
-37.9999999999999
20
-5.00824253816083
30
0
41
1
10
-37.9999999999999
20
-5.23076600439049
30
0
41
1
10
-38
20
-5.45231022599043
30
0
41
1
10
-38
20
-5.67283041504646
30
0
41
1
10
-38
20
-5.89228674128219
30
0
41
1
10
-37.9999999999999
20
-6.11064496108517
30
0
41
1
10
-38.0000000000001
20
-6.3278723966701
30
0
41
1
10
-38.0000000000001
20
-6.54393525610641
30
0
41
1
10
-38
20
-6.75880334040124
30
0
41
1
10
-37.9999999999999
20
-6.97245311766204
30
0
41
1
10
-38
20
-7.18486111103371
30
0
41
1
10
-37.9999999999999
20
-7.39600347561736
30
0
41
1
10
-38
20
-7.60585874971358
30
0
41
1
10
-38
20
-7.81440645201104
30
0
41
1
10
-38
20
-8.09202295752306
30
0
41
1
10
-37.9999999999999
20
-8.43283023540653
30
0
41
1
10
-38
20
-8.83774029355052
30
0
41
1
10
-38.0000000000001
20
-9.16930023887321
30
0
41
1
10
-37.9999999999999
20
-9.43375044009508
30
0
41
1
10
-38
20
-9.62982432960186
30
0
41
1
10
-38
20
-9.82444814962992
30
0
41
1
10
-38
20
-10.0176111126088
30
0
41
1
10
-38
20
-10.2093007057546
30
0
41
1
10
-37.9999999999999
20
-10.3995107409485
30
0
41
1
10
-37.9999999999999
20
-10.5882272324294
30
0
41
1
10
-38
20
-10.8388445170811
30
0
41
1
10
-37.9999999999999
20
-11.083527437793
30
0
41
1
10
-38
20
-11.3279972500449
30
0
41
1
10
-38
20
-11.5091211965041
30
0
41
1
10
-38.0000000000001
20
-11.6886991809046
30
0
41
1
10
-37.9999999999999
20
-11.8667275177687
30
0
41
1
10
-38
20
-12.0431930522803
30
0
41
1
10
-37.9999999999999
20
-12.218089664583
30
0
41
1
10
-38
20
-12.3914124247035
30
0
41
1
10
-38
20
-12.5631480735018
30
0
41
1
10
-38
20
-12.7332924196476
30
0
41
1
10
-38
20
-12.9018387248248
30
0
41
1
10
-38
20
-13.0687749028759
30
0
41
1
10
-37.9999999999999
20
-13.2899980003418
30
0
41
1
10
-38
20
-13.5056406071553
30
0
41
1
10
-37.9999999999999
20
-13.7202970548285
30
0
41
1
10
-38
20
-13.9327572918622
30
0
41
1
10
-38
20
-14.1397069500695
30
0
41
1
10
-38
20
-14.3454836148157
30
0
41
1
10
-37.9999999999999
20
-14.4976048095277
30
0
41
1
10
-38
20
-14.6480433741443
30
0
41
1
10
-37.9999999999999
20
-14.8470538575164
30
0
41
1
10
-38.0000000000001
20
-15.0406366439893
30
0
41
1
10
-38
20
-15.2327734637881
30
0
41
1
10
-37.9999999999999
20
-15.3746583733236
30
0
41
1
10
-37.9999999999999
20
-15.5148115582754
30
0
41
1
10
-37.9999999999999
20
-15.6999837411246
30
0
41
1
10
-38
20
-15.8797870255403
30
0
41
1
10
-38
20
-16.0578801048401
30
0
41
1
10
-37.9999999999999
20
-16.1892165814339
30
0
41
1
10
-38
20
-16.3187661779867
30
0
41
1
10
-38.0000000000001
20
-16.4896741385663
30
0
41
1
10
-38
20
-16.6552512602624
30
0
41
1
10
-37.9999999999999
20
-16.8188545807649
30
0
41
1
10
-37.9999999999999
20
-16.9392987318018
30
0
41
1
10
-38
20
-17.0578934672826
30
0
41
1
10
-38.0000000000001
20
-17.2140648101705
30
0
41
1
10
-37.9999999999999
20
-17.3649216616153
30
0
41
1
10
-38
20
-17.5135300358219
30
0
41
1
10
-38
20
-17.6226956365842
30
0
41
1
10
-38.0000000000001
20
-17.7299433731025
30
0
41
1
10
-38
20
-17.8708440004862
30
0
41
1
10
-37.9999999999999
20
-18.0064238716364
30
0
41
1
10
-37.9999999999999
20
-18.1394672902698
30
0
41
1
10
-38
20
-18.2369159156769
30
0
41
1
10
-38
20
-18.3323672965473
30
0
41
1
10
-37.9999999999999
20
-18.4258040962282
30
0
41
1
10
-38
20
-18.5172098870019
30
0
41
1
10
-38
20
-18.6065734896478
30
0
41
1
10
-38
20
-18.6938772522127
30
0
41
1
10
-38
20
-18.7791047692188
30
0
41
1
10
-38
20
-18.8622426359768
30
0
41
1
10
-38.0000000000001
20
-18.9432715834756
30
0
41
1
10
-38
20
-19.0221745805325
30
0
41
1
10
-38
20
-19.0989364136873
30
0
41
1
10
-38
20
-19.1735363647814
30
0
41
1
10
-38
20
-19.2704515417461
30
0
41
1
10
-37.9999999999999
20
-19.3619266112172
30
0
41
1
10
-38.0000000000001
20
-19.4499498647731
30
0
41
1
10
-37.9999999999999
20
-19.5134574724377
30
0
41
1
10
-38
20
-19.5746836830747
30
0
41
1
10
-38
20
-19.6336085328262
30
0
41
1
10
-38
20
-19.6902080668946
30
0
41
1
10
-38
20
-19.7628242842049
30
0
41
1
10
-38
20
-19.829873984374
30
0
41
1
10
-38
20
-19.8928775551025
30
0
41
1
10
-38
20
-19.9374871757691
30
0
41
1
10
-38
20
-19.9796195436673
30
0
41
1
10
-38
20
-20.0326760063813
30
0
41
1
10
-38.0000000000001
20
-20.0800381474625
30
0
41
1
10
-38
20
-20.1228090027496
30
0
41
1
10
-38
20
-20.1521177658612
30
0
41
1
10
-38
20
-20.1787668505584
30
0
41
1
10
-38
20
-20.2027210424565
30
0
41
1
10
-37.9999999999999
20
-20.2239455432986
30
0
41
1
10
-38.0000000000001
20
-20.2424031363825
30
0
41
1
10
-38
20
-20.2580557552654
30
0
41
1
10
-38.0000000000001
20
-20.2708642249463
30
0
41
1
10
-38.0000000000001
20
-20.2807872561094
30
0
41
1
10
-38
20
-20.2864574040613
30
0
41
1
10
-38
20
-20.2887806581731
30
0
41
1
10
-38
20
-20.2893881851722
30
0
0
SPLINE
5
14C
100
AcDbEntity
8
SK1
62
256
6
ByLayer
370
18
48
1
60
0
100
AcDbSpline
70
4
71
2
72
6
73
3
40
0
40
0
40
0
40
1
40
1
40
1
41
1
10
-38
20
-20.289405225553
30
0
41
1
10
-37.2500000000012
20
-20.7223540793631
30
0
41
1
10
-36.5000000000001
20
-21.1553029418636
30
0
0
SPLINE
5
14D
100
AcDbEntity
8
SK1
62
256
6
ByLayer
370
18
48
1
60
0
100
AcDbSpline
70
4
71
2
72
6
73
3
40
0
40
0
40
0
40
1
40
1
40
1
41
1
10
-36.4999999999999
20
21.155302724897
30
0
41
1
10
-37.2500000000012
20
20.7223538609617
30
0
41
1
10
-38.0000000000001
20
20.2894050057152
30
0
0
SPLINE
5
14E
100
AcDbEntity
8
1
62
256
6
ByLayer
370
18
48
1
60
0
100
AcDbSpline
70
4
71
3
72
8
73
4
40
0
40
0
40
0
40
0
40
1
40
1
40
1
40
1
41
1
10
89.1961324093043
20
-14.5499180628685
30
0
41
1
10
88.9190124719595
20
-14.5987817847146
30
0
41
1
10
88.6516493493979
20
-14.6459251168687
30
0
41
1
10
88.3932856152006
20
-14.6914816140442
30
0
0
SPLINE
5
14F
100
AcDbEntity
8
1
62
256
6
ByLayer
370
18
48
1
60
0
100
AcDbSpline
70
4
71
3
72
8
73
4
40
0
40
0
40
0
40
0
40
1
40
1
40
1
40
1
41
1
10
97.6247796437171
20
4.86417547268942
30
0
41
1
10
97.2973655171039
20
4.87943391448047
30
0
41
1
10
96.9692272383501
20
4.89235587605222
30
0
41
1
10
96.6403678279445
20
4.90287643338101
30
0
0
SPLINE
5
150
100
AcDbEntity
8
1
62
256
6
ByLayer
370
18
48
1
60
0
100
AcDbSpline
70
4
71
3
72
8
73
4
40
0
40
0
40
0
40
0
40
1
40
1
40
1
40
1
41
1
10
103.177848581908
20
-0.155506912585366
30
0
41
1
10
103.368053842981
20
-0.161038548699651
30
0
41
1
10
103.558327470522
20
-0.166492987286233
30
0
41
1
10
103.748739982838
20
-0.171790601017108
30
0
0
SPLINE
5
151
100
AcDbEntity
8
1
62
256
6
ByLayer
370
18
48
1
60
0
100
AcDbSpline
70
4
71
3
72
8
73
4
40
0
40
0
40
0
40
0
40
1
40
1
40
1
40
1
41
1
10
104.269380751577
20
-1.30055162393407
30
0
41
1
10
104.142256011486
20
-1.43246333917588
30
0
41
1
10
104.015330969586
20
-1.56435007443099
30
0
41
1
10
103.888504229749
20
-1.69622451320925
30
0
0
SPLINE
5
152
100
AcDbEntity
8
1
62
256
6
ByLayer
370
18
48
1
60
0
100
AcDbSpline
70
4
71
3
72
8
73
4
40
0
40
0
40
0
40
0
40
1
40
1
40
1
40
1
41
1
10
107.105920767962
20
1.69634468886389
30
0
41
1
10
107.02813282231
20
1.56447025008563
30
0
41
1
10
106.950223412087
20
1.4325835148305
30
0
41
1
10
106.872067249615
20
1.30067179958871
30
0
0
SPLINE
5
153
100
AcDbEntity
8
1
62
256
6
ByLayer
370
18
48
1
60
0
100
AcDbSpline
70
4
71
3
72
8
73
4
40
0
40
0
40
0
40
0
40
1
40
1
40
1
40
1
41
1
10
107.392708018354
20
0.171910776671751
30
0
41
1
10
107.534151953051
20
0.166613162940848
30
0
41
1
10
107.675409948915
20
0.161158724354266
30
0
41
1
10
107.816576415803
20
0.155627088239982
30
0
0
SPLINE
5
154
100
AcDbEntity
8
1
62
256
6
ByLayer
370
18
48
1
60
0
100
AcDbSpline
70
4
71
3
72
18
73
14
40
0
40
0
40
0
40
0
40
0.246757850497741
40
0.246757850497741
40
0.435068387873308
40
0.435068387873308
40
0.623378925248875
40
0.623378925248875
40
0.811689462624442
40
0.811689462624442
40
0.905844731312221
40
0.905844731312221
40
1
40
1
40
1
40
1
41
1
10
104.090502274649
20
-1.98314165930219
30
0
41
1
10
104.154664279015
20
-2.00542864459231
30
0
41
1
10
104.217716749141
20
-2.02418594443739
30
0
41
1
10
104.323109725882
20
-2.05091694804929
30
0
41
1
10
104.36719394457
20
-2.06052626241609
30
0
41
1
10
104.448633976604
20
-2.07598925536217
30
0
41
1
10
104.485850724047
20
-2.08182101562039
30
0
41
1
10
104.54909029417
20
-2.09049805822073
30
0
41
1
10
104.575222840013
20
-2.09334094250372
30
0
41
1
10
104.598257777718
20
-2.0959422074898
30
0
41
1
10
104.603332170117
20
-2.09655161138571
30
0
41
1
10
104.606879683221
20
-2.09733767141481
30
0
41
1
10
104.605391872668
20
-2.09751790872053
30
0
41
1
10
104.600535705455
20
-2.09751790872053
30
0
0
SPLINE
5
155
100
AcDbEntity
8
1
62
256
6
ByLayer
370
18
48
1
60
0
100
AcDbSpline
70
4
71
3
72
18
73
14
40
0
40
0
40
0
40
0
40
0.197395117381767
40
0.197395117381767
40
0.351549633311014
40
0.351549633311014
40
0.505704149240261
40
0.505704149240261
40
0.814013181098791
40
0.814013181098791
40
0.968167697028055
40
0.968167697028055
40
1
40
1
40
1
40
1
41
1
10
105.865636121102
20
2.07855124945263
30
0
41
1
10
105.798497260277
20
2.11262903708263
30
0
41
1
10
105.729754108251
20
2.14393577451844
30
0
41
1
10
105.604518969962
20
2.19430097062471
30
0
41
1
10
105.548636784817
20
2.21454984775022
30
0
41
1
10
105.434909489855
20
2.25116356136147
30
0
41
1
10
105.37689218189
20
2.26755616642291
30
0
41
1
10
105.202580137413
20
2.30995261285736
30
0
41
1
10
105.085275638443
20
2.32950282675739
30
0
41
1
10
104.907634800914
20
2.34566482070633
30
0
41
1
10
104.848139713821
20
2.34885066830537
30
0
41
1
10
104.776008628616
20
2.34996782617173
30
0
41
1
10
104.76364767888
20
2.35006156484607
30
0
41
1
10
104.751280593629
20
2.35005811911992
30
0
0
SPLINE
5
156
100
AcDbEntity
8
1
62
256
6
ByLayer
370
18
48
1
60
0
100
AcDbSpline
70
4
71
3
72
14
73
10
40
0
40
0
40
0
40
0
40
0.317467028184917
40
0.317467028184917
40
0.634934056369834
40
0.634934056369834
40
0.952401084554751
40
0.952401084554751
40
1
40
1
40
1
40
1
41
1
10
105.323461762709
20
-2.25158068352653
30
0
41
1
10
105.382512397277
20
-2.2353153828121
30
0
41
1
10
105.439888287289
20
-2.21749599742918
30
0
41
1
10
105.550556302732
20
-2.17989377270507
30
0
41
1
10
105.603836346406
20
-2.16007689637004
30
0
41
1
10
105.702117947787
20
-2.12160022905567
30
0
41
1
10
105.748012890777
20
-2.10256887080706
30
0
41
1
10
105.792444155512
20
-2.08442355851088
30
0
41
1
10
105.798073547115
20
-2.08213224518465
30
0
41
1
10
105.803527865028
20
-2.07992649423787
30
0
0
SPLINE
5
157
100
AcDbEntity
8
1
62
256
6
ByLayer
370
18
48
1
60
0
100
AcDbSpline
70
4
71
3
72
18
73
14
40
0
40
0
40
0
40
0
40
0.250000000000012
40
0.250000000000012
40
0.500000000000025
40
0.500000000000025
40
0.625000000000019
40
0.625000000000019
40
0.750000000000013
40
0.750000000000013
40
0.875000000000006
40
0.875000000000006
40
1
40
1
40
1
40
1
41
1
10
105.464071147193
20
-2.16804964639704
30
0
41
1
10
105.361361725484
20
-2.18647122305802
30
0
41
1
10
105.258397115218
20
-2.19738123168534
30
0
41
1
10
105.053498179606
20
-2.20427703210649
30
0
41
1
10
104.95386871567
20
-2.20014161761446
30
0
41
1
10
104.811632569962
20
-2.18423766925562
30
0
41
1
10
104.765230038302
20
-2.17727419478899
30
0
41
1
10
104.677502920731
20
-2.16088599955134
30
0
41
1
10
104.636004609166
20
-2.15143580200919
30
0
41
1
10
104.561175048281
20
-2.13149534782531
30
0
41
1
10
104.528264070268
20
-2.12108354382806
30
0
41
1
10
104.482035422033
20
-2.10382471341305
30
0
41
1
10
104.470216717845
20
-2.09751790872053
30
0
41
1
10
104.478605297092
20
-2.09751790872053
30
0
0
SPLINE
5
158
100
AcDbEntity
8
1
62
256
6
ByLayer
370
18
48
1
60
0
100
AcDbSpline
70
4
71
3
72
8
73
4
40
0
40
0
40
0
40
0
40
1
40
1
40
1
40
1
41
1
10
105.876564415322
20
-2.05295897485556
30
0
41
1
10
105.741525017618
20
-2.10480358867201
30
0
41
1
10
105.603758482315
20
-2.14299584987359
30
0
41
1
10
105.464071147192
20
-2.16804964639684
30
0
0
SPLINE
5
159
100
AcDbEntity
8
1
62
256
6
ByLayer
370
18
48
1
60
0
100
AcDbSpline
70
4
71
3
72
8
73
4
40
0
40
0
40
0
40
0
40
1
40
1
40
1
40
1
41
1
10
104.917487935882
20
-2.41283151187869
30
0
41
1
10
105.056806891227
20
-2.35685417112111
30
0
41
1
10
105.192775636898
20
-2.30274475386088
30
0
41
1
10
105.32346176271
20
-2.25158068352658
30
0
0
SPLINE
5
15A
100
AcDbEntity
8
1
62
256
6
ByLayer
370
18
48
1
60
0
100
AcDbSpline
70
4
71
3
72
14
73
10
40
0
40
0
40
0
40
0
40
0.500000000000011
40
0.500000000000011
40
0.625000000000013
40
0.625000000000013
40
0.750000000000016
40
0.750000000000016
40
1
40
1
40
1
40
1
41
1
10
92.7464845076406
20
-6.14155330557472
30
0
41
1
10
92.9636296536957
20
-6.30376461514507
30
0
41
1
10
93.1885452325666
20
-6.46840695376
30
0
41
1
10
93.4868013469855
20
-6.6795633620718
30
0
41
1
10
93.5471994667675
20
-6.72199256366611
30
0
41
1
10
93.6675581023849
20
-6.80592213918257
30
0
41
1
10
93.7277753527301
20
-6.8476055388918
30
0
41
1
10
93.9085271459
20
-6.97191361361533
30
0
41
1
10
94.0291613410367
20
-7.0537990559734
30
0
41
1
10
94.1498870412704
20
-7.13500570268226
30
0
0
SPLINE
5
15B
100
AcDbEntity
8
1
62
256
6
ByLayer
370
18
48
1
60
0
100
AcDbSpline
70
4
71
3
72
14
73
10
40
0
40
0
40
0
40
0
40
0.499999999999999
40
0.499999999999999
40
0.625
40
0.625
40
0.75
40
0.75
40
1
40
1
40
1
40
1
41
1
10
92.8957888391978
20
-4.41609228981614
30
0
41
1
10
92.8594073797364
20
-4.69782626297251
30
0
41
1
10
92.8269967996368
20
-4.98378252786304
30
0
41
1
10
92.7952280374048
20
-5.3505259690491
30
0
41
1
10
92.7893118448034
20
-5.42421841117709
30
0
41
1
10
92.7784935579272
20
-5.56999007677928
30
0
41
1
10
92.7735621397692
20
-5.64238718550033
30
0
41
1
10
92.7600278236265
20
-5.85828956542713
30
0
41
1
10
92.752679954521
20
-6.00051091288012
30
0
41
1
10
92.7464845076411
20
-6.14155330557511
30
0
0
SPLINE
5
15C
100
AcDbEntity
8
1
62
256
6
ByLayer
370
18
48
1
60
0
100
AcDbSpline
70
4
71
3
72
14
73
10
40
0
40
0
40
0
40
0
40
0.25
40
0.25
40
0.5
40
0.5
40
0.75
40
0.75
40
1
40
1
40
1
40
1
41
1
10
92.895788839198
20
-4.41609228981648
30
0
41
1
10
93.0161141443208
20
-4.35654697040277
30
0
41
1
10
93.1404608459484
20
-4.29556057192121
30
0
41
1
10
93.3929136705009
20
-4.17331188406612
30
0
41
1
10
93.5214456736366
20
-4.11184529109315
30
0
41
1
10
93.7839118515783
20
-3.98811019005893
30
0
41
1
10
93.9188268763205
20
-3.9254023113229
30
0
41
1
10
94.1849707923738
20
-3.80318607026115
30
0
41
1
10
94.3170595163938
20
-3.74324695720861
30
0
41
1
10
94.448495704384
20
-3.68408367116521
30
0
0
SPLINE
5
15D
100
AcDbEntity
8
1
62
256
6
ByLayer
370
18
48
1
60
0
100
AcDbSpline
70
4
71
3
72
14
73
10
40
0
40
0
40
0
40
0
40
0.25
40
0.25
40
0.5
40
0.5
40
0.75
40
0.75
40
1
40
1
40
1
40
1
41
1
10
94.1498870412704
20
-7.13500570268215
30
0
41
1
10
94.270212346393
20
-7.07546038326845
30
0
41
1
10
94.3945590480207
20
-7.01447398478689
30
0
41
1
10
94.6470118725732
20
-6.8922252969318
30
0
41
1
10
94.7755438757089
20
-6.83075870395882
30
0
41
1
10
95.0380100536506
20
-6.70702360292464
30
0
41
1
10
95.1729250783928
20
-6.64431572418857
30
0
41
1
10
95.4390689944462
20
-6.52209948312685
30
0
41
1
10
95.5711577184661
20
-6.46216037007432
30
0
41
1
10
95.7025939064564
20
-6.40299708403089
30
0
0
SPLINE
5
15E
100
AcDbEntity
8
1
62
256
6
ByLayer
370
18
48
1
60
0
100
AcDbSpline
70
4
71
3
72
14
73
10
40
0
40
0
40
0
40
0
40
0.499999999999999
40
0.499999999999999
40
0.624999999999999
40
0.624999999999999
40
0.749999999999999
40
0.749999999999999
40
1
40
1
40
1
40
1
41
1
10
95.8518982380131
20
-4.67753606827262
30
0
41
1
10
95.6107471164317
20
-4.51532475870229
30
0
41
1
10
95.3704980314946
20
-4.35068242008737
30
0
41
1
10
95.0721730932537
20
-4.13952601177556
30
0
41
1
10
95.0126958185212
20
-4.09709681018126
30
0
41
1
10
94.8959278856806
20
-4.01316723466479
30
0
41
1
10
94.8383768585873
20
-3.97148383495556
30
0
41
1
10
94.6679205465163
20
-3.84717576023203
30
0
41
1
10
94.5572034708578
20
-3.76529031787396
30
0
41
1
10
94.4484957043836
20
-3.6840836711651
30
0
0
SPLINE
5
15F
100
AcDbEntity
8
1
62
256
6
ByLayer
370
18
48
1
60
0
100
AcDbSpline
70
4
71
3
72
14
73
10
40
0
40
0
40
0
40
0
40
0.500000000000003
40
0.500000000000003
40
0.625000000000003
40
0.625000000000003
40
0.750000000000002
40
0.750000000000002
40
1
40
1
40
1
40
1
41
1
10
95.702593906456
20
-6.40299708403123
30
0
41
1
10
95.714969390391
20
-6.12126311087485
30
0
41
1
10
95.7320464644244
20
-5.83530684598432
30
0
41
1
10
95.7637464028342
20
-5.46856340479826
30
0
41
1
10
95.7705834404852
20
-5.39487096267027
30
0
41
1
10
95.7849924301384
20
-5.24909929706809
30
0
41
1
10
95.7925900715482
20
-5.17670218834704
30
0
41
1
10
95.8164198687898
20
-4.96079980842023
30
0
41
1
10
95.8336848573735
20
-4.81857846096725
30
0
41
1
10
95.851898238013
20
-4.67753606827225
30
0
0
INSERT
5
182
100
AcDbEntity
8
2
62
256
6
ByLayer
370
25
48
1
60
0
100
AcDbBlockReference
2
DimnDraft3D22
10
0
20
0
30
0
41
1
42
1
43
1
50
0
210
0
220
0
230
1
0
INSERT
5
190
100
AcDbEntity
8
2
62
256
6
ByLayer
370
25
48
1
60
0
100
AcDbBlockReference
2
DimnDraft3D33
10
0
20
0
30
0
41
1
42
1
43
1
50
0
210
0
220
0
230
1
0
LINE
5
70
100
AcDbEntity
8
1
62
256
6
ByLayer
370
18
48
1
60
0
100
AcDbLine
10
13.894338
20
9.869413
30
0
11
13.894338
21
29.913955
31
0
39
0
210
0
220
0
230
1
0
LINE
5
72
100
AcDbEntity
8
1
62
256
6
ByLayer
370
18
48
1
60
0
100
AcDbLine
10
13.894338
20
-29.913955
30
0
11
13.894338
21
-9.869413
31
0
39
0
210
0
220
0
230
1
0
LINE
5
73
100
AcDbEntity
8
1
62
256
6
ByLayer
370
18
48
1
60
0
100
AcDbLine
10
10.538675
20
9.349221
30
0
11
10.538675
21
30.080593
31
0
39
0
210
0
220
0
230
1
0
LINE
5
74
100
AcDbEntity
8
1
62
256
6
ByLayer
370
18
48
1
60
0
100
AcDbLine
10
13.461325
20
-30.080593
30
0
11
13.461325
21
-9.349221
31
0
39
0
210
0
220
0
230
1
0
LINE
5
75
100
AcDbEntity
8
1
62
256
6
ByLayer
370
18
48
1
60
0
100
AcDbLine
10
10.105662
20
9.869413
30
0
11
10.105662
21
29.913955
31
0
39
0
210
0
220
0
230
1
0
LINE
5
76
100
AcDbEntity
8
1
62
256
6
ByLayer
370
18
48
1
60
0
100
AcDbLine
10
13.461325
20
9.349221
30
0
11
13.461325
21
30.080593
31
0
39
0
210
0
220
0
230
1
0
LINE
5
77
100
AcDbEntity
8
1
62
256
6
ByLayer
370
18
48
1
60
0
100
AcDbLine
10
77.273255
20
-12.324892
30
0
11
78.021871
21
-12.620014
31
0
39
0
210
0
220
0
230
1
0
LINE
5
78
100
AcDbEntity
8
1
62
256
6
ByLayer
370
18
48
1
60
0
100
AcDbLine
10
78.021871
20
-12.620014
30
0
11
77.895488
21
-13.62033
31
0
39
0
210
0
220
0
230
1
0
LINE
5
79
100
AcDbEntity
8
1
62
256
6
ByLayer
370
18
48
1
60
0
100
AcDbLine
10
77.895488
20
-13.62033
30
0
11
77.02049
21
-14.325525
31
0
39
0
210
0
220
0
230
1
0
LINE
5
7A
100
AcDbEntity
8
1
62
256
6
ByLayer
370
18
48
1
60
0
100
AcDbLine
10
77.02049
20
-14.325525
30
0
11
76.271874
21
-14.030403
31
0
39
0
210
0
220
0
230
1
0
LINE
5
7B
100
AcDbEntity
8
1
62
256
6
ByLayer
370
18
48
1
60
0
100
AcDbLine
10
76.398257
20
-13.030087
30
0
11
77.273255
21
-12.324892
31
0
39
0
210
0
220
0
230
1
0
LINE
5
7C
100
AcDbEntity
8
1
62
256
6
ByLayer
370
18
48
1
60
0
100
AcDbLine
10
76.271874
20
-14.030403
30
0
11
76.398257
21
-13.030087
31
0
39
0
210
0
220
0
230
1
0
LINE
5
7D
100
AcDbEntity
8
1
62
256
6
ByLayer
370
18
48
1
60
0
100
AcDbLine
10
76.306252
20
-13.758313
30
0
11
77.02049
21
-14.325525
31
0
39
0
210
0
220
0
230
1
0
LINE
5
7E
100
AcDbEntity
8
1
62
256
6
ByLayer
370
18
48
1
60
0
100
AcDbLine
10
77.094241
20
-12.469158
30
0
11
77.035123
21
-12.937071
31
0
39
0
210
0
220
0
230
1
0
LINE
5
7F
100
AcDbEntity
8
1
62
256
6
ByLayer
370
18
48
1
60
0
100
AcDbLine
10
77.035123
20
-12.937071
30
0
11
76.339144
21
-13.497988
31
0
39
0
210
0
220
0
230
1
0
LINE
5
80
100
AcDbEntity
8
1
62
256
6
ByLayer
370
18
48
1
60
0
100
AcDbLine
10
77.035123
20
-12.937071
30
0
11
77.895488
21
-13.62033
31
0
39
0
210
0
220
0
230
1
0
LINE
5
81
100
AcDbEntity
8
1
62
256
6
ByLayer
370
18
48
1
60
0
100
AcDbLine
10
0.3
20
31.5
30
0
11
0
21
31.2
31
0
39
0
210
0
220
0
230
1
0
LINE
5
82
100
AcDbEntity
8
1
62
256
6
ByLayer
370
18
48
1
60
0
100
AcDbLine
10
0.3
20
-31.5
30
0
11
0.3
21
31.5
31
0
39
0
210
0
220
0
230
1
0
LINE
5
83
100
AcDbEntity
8
1
62
256
6
ByLayer
370
18
48
1
60
0
100
AcDbLine
10
0
20
-31.2
30
0
11
0.3
21
-31.5
31
0
39
0
210
0
220
0
230
1
0
LINE
5
84
100
AcDbEntity
8
1
62
256
6
ByLayer
370
18
48
1
60
0
100
AcDbLine
10
0
20
-31.2
30
0
11
0
21
31.2
31
0
39
0
210
0
220
0
230
1
0
LINE
5
85
100
AcDbEntity
8
1
62
256
6
ByLayer
370
18
48
1
60
0
100
AcDbLine
10
0.3
20
-31.5
30
0
11
22
21
-31.5
31
0
39
0
210
0
220
0
230
1
0
LINE
5
86
100
AcDbEntity
8
1
62
256
6
ByLayer
370
18
48
1
60
0
100
AcDbLine
10
22
20
31.5
30
0
11
0.3
21
31.5
31
0
39
0
210
0
220
0
230
1
0
LINE
5
87
100
AcDbEntity
8
1
62
256
6
ByLayer
370
18
48
1
60
0
100
AcDbLine
10
10.538675
20
9.349221
30
0
11
13.461325
21
9.349221
31
0
39
0
210
0
220
0
230
1
0
LINE
5
88
100
AcDbEntity
8
1
62
256
6
ByLayer
370
18
48
1
60
0
100
AcDbLine
10
13.461325
20
30.080593
30
0
11
10.538675
21
30.080593
31
0
39
0
210
0
220
0
230
1
0
LINE
5
89
100
AcDbEntity
8
1
62
256
6
ByLayer
370
18
48
1
60
0
100
AcDbLine
10
22
20
31.5
30
0
11
22
21
-31.5
31
0
39
0
210
0
220
0
230
1
0
LINE
5
8A
100
AcDbEntity
8
1
62
256
6
ByLayer
370
18
48
1
60
0
100
AcDbLine
10
10.538675
20
-30.080593
30
0
11
13.461325
21
-30.080593
31
0
39
0
210
0
220
0
230
1
0
LINE
5
8B
100
AcDbEntity
8
1
62
256
6
ByLayer
370
18
48
1
60
0
100
AcDbLine
10
13.461325
20
-9.349221
30
0
11
10.538675
21
-9.349221
31
0
39
0
210
0
220
0
230
1
0
LINE
5
8C
100
AcDbEntity
8
1
62
256
6
ByLayer
370
18
48
1
60
0
100
AcDbLine
10
85.236605
20
-15.24809
30
0
11
57.651516
21
-20.112085
31
0
39
0
210
0
220
0
230
1
0
LINE
5
8D
100
AcDbEntity
8
1
62
256
6
ByLayer
370
18
48
1
60
0
100
AcDbLine
10
57.651516
20
20.112085
30
0
11
85.236605
21
15.24809
31
0
39
0
210
0
220
0
230
1
0
LINE
5
8E
100
AcDbEntity
8
1
62
256
6
ByLayer
370
18
48
1
60
0
100
AcDbLine
10
10.105662
20
-29.913955
30
0
11
10.105662
21
-9.869413
31
0
39
0
210
0
220
0
230
1
0
LINE
5
8F
100
AcDbEntity
8
1
62
256
6
ByLayer
370
18
48
1
60
0
100
AcDbLine
10
10.538675
20
-30.080593
30
0
11
10.538675
21
-9.349221
31
0
39
0
210
0
220
0
230
1
0
LINE
5
90
100
AcDbEntity
8
1
62
256
6
ByLayer
370
18
48
1
60
0
100
AcDbLine
10
83
20
-12.49637
30
0
11
83
21
12.49637
31
0
39
0
210
0
220
0
230
1
0
LINE
5
91
100
AcDbEntity
8
SK1
62
256
6
ByLayer
370
18
48
1
60
0
100
AcDbLine
10
-1.307107
20
-4.811013
30
0
11
-1.307107
21
4.811013
31
0
39
0
210
0
220
0
230
1
0
LINE
5
93
100
AcDbEntity
8
SK1
62
256
6
ByLayer
370
18
48
1
60
0
100
AcDbLine
10
-0.2
20
7.059518
30
0
11
-0.2
21
22.533485
31
0
39
0
210
0
220
0
230
1
0
LINE
5
94
100
AcDbEntity
8
SK1
62
256
6
ByLayer
370
18
48
1
60
0
100
AcDbLine
10
-0.2
20
-22.533485
30
0
11
-0.2
21
-7.059517
31
0
39
0
210
0
220
0
230
1
0
LINE
5
95
100
AcDbEntity
8
SK1
62
256
6
ByLayer
370
18
48
1
60
0
100
AcDbLine
10
-0.394977
20
21.865385
30
0
11
-0.394977
21
6.326943
31
0
39
0
210
0
220
0
230
1
0
LINE
5
96
100
AcDbEntity
8
1
62
256
6
ByLayer
370
18
48
1
60
0
100
AcDbLine
10
85.236605
20
15.24809
30
0
11
88.359193
21
14.697493
31
0
39
0
210
0
220
0
230
1
0
LINE
5
97
100
AcDbEntity
8
1
62
256
6
ByLayer
370
18
48
1
60
0
100
AcDbLine
10
90.624839
20
-8
30
0
11
90.624839
21
8
31
0
39
0
210
0
220
0
230
1
0
LINE
5
98
100
AcDbEntity
8
1
62
256
6
ByLayer
370
18
48
1
60
0
100
AcDbLine
10
88.359193
20
-14.697493
30
0
11
85.236605
21
-15.24809
31
0
39
0
210
0
220
0
230
1
0
LINE
5
99
100
AcDbEntity
8
1
62
256
6
ByLayer
370
18
48
1
60
0
100
AcDbLine
10
98.043061
20
12.989966
30
0
11
104.605531
21
7.422991
31
0
39
0
210
0
220
0
230
1
0
LINE
5
9A
100
AcDbEntity
8
1
62
256
6
ByLayer
370
18
48
1
60
0
100
AcDbLine
10
104.605531
20
7.422991
30
0
11
100.140767
21
3.66883
31
0
39
0
210
0
220
0
230
1
0
LINE
5
9B
100
AcDbEntity
8
1
62
256
6
ByLayer
370
18
48
1
60
0
100
AcDbLine
10
99.384334
20
4.310516
30
0
11
100.140767
21
3.66883
31
0
39
0
210
0
220
0
230
1
0
LINE
5
9C
100
AcDbEntity
8
1
62
256
6
ByLayer
370
18
48
1
60
0
100
AcDbLine
10
95.726596
20
0.086543
30
0
11
98.82935
21
-2.545538
31
0
39
0
210
0
220
0
230
1
0
LINE
5
9D
100
AcDbEntity
8
1
62
256
6
ByLayer
370
18
48
1
60
0
100
AcDbLine
10
99.380271
20
-3.208697
30
0
11
101.550052
21
-5.049333
31
0
39
0
210
0
220
0
230
1
0
LINE
5
9E
100
AcDbEntity
8
1
62
256
6
ByLayer
370
18
48
1
60
0
100
AcDbLine
10
102.291713
20
-5.482677
30
0
11
104.592261
21
-7.434242
31
0
39
0
210
0
220
0
230
1
0
LINE
5
9F
100
AcDbEntity
8
1
62
256
6
ByLayer
370
18
48
1
60
0
100
AcDbLine
10
104.592261
20
-7.434242
30
0
11
98.043315
21
-12.989921
31
0
39
0
210
0
220
0
230
1
0
LINE
5
A0
100
AcDbEntity
8
1
62
256
6
ByLayer
370
18
48
1
60
0
100
AcDbLine
10
98.043315
20
-12.989921
30
0
11
89.196132
21
-14.549918
31
0
39
0
210
0
220
0
230
1
0
LINE
5
A1
100
AcDbEntity
8
1
62
256
6
ByLayer
370
18
48
1
60
0
100
AcDbLine
10
99.384334
20
4.310516
30
0
11
98.337148
21
4.377369
31
0
39
0
210
0
220
0
230
1
0
LINE
5
A2
100
AcDbEntity
8
1
62
256
6
ByLayer
370
18
48
1
60
0
100
AcDbLine
10
99.302922
20
3.755254
30
0
11
100.140767
21
3.66883
31
0
39
0
210
0
220
0
230
1
0
LINE
5
A3
100
AcDbEntity
8
1
62
256
6
ByLayer
370
18
48
1
60
0
100
AcDbLine
10
99.461544
20
3.620694
30
0
11
99.302922
21
3.755254
31
0
39
0
210
0
220
0
230
1
0
LINE
5
A4
100
AcDbEntity
8
1
62
256
6
ByLayer
370
18
48
1
60
0
100
AcDbLine
10
98.337148
20
4.377369
30
0
11
99.345334
21
3.52212
31
0
39
0
210
0
220
0
230
1
0
LINE
5
A5
100
AcDbEntity
8
1
62
256
6
ByLayer
370
18
48
1
60
0
100
AcDbLine
10
77.908667
20
13.440566
30
0
11
77.908667
21
12.480853
31
0
39
0
210
0
220
0
230
1
0
LINE
5
A6
100
AcDbEntity
8
1
62
256
6
ByLayer
370
18
48
1
60
0
100
AcDbLine
10
77.089515
20
14.239371
30
0
11
77.908667
21
13.440566
31
0
39
0
210
0
220
0
230
1
0
LINE
5
A7
100
AcDbEntity
8
1
62
256
6
ByLayer
370
18
48
1
60
0
100
AcDbLine
10
76.270363
20
14.078463
30
0
11
77.089515
21
14.239371
31
0
39
0
210
0
220
0
230
1
0
LINE
5
A8
100
AcDbEntity
8
1
62
256
6
ByLayer
370
18
48
1
60
0
100
AcDbLine
10
76.270363
20
13.11875
30
0
11
76.270363
21
14.078463
31
0
39
0
210
0
220
0
230
1
0
LINE
5
A9
100
AcDbEntity
8
1
62
256
6
ByLayer
370
18
48
1
60
0
100
AcDbLine
10
77.089515
20
12.319945
30
0
11
76.270363
21
13.11875
31
0
39
0
210
0
220
0
230
1
0
LINE
5
AA
100
AcDbEntity
8
1
62
256
6
ByLayer
370
18
48
1
60
0
100
AcDbLine
10
77.908667
20
12.480853
30
0
11
77.089515
21
12.319945
31
0
39
0
210
0
220
0
230
1
0
LINE
5
AB
100
AcDbEntity
8
1
62
256
6
ByLayer
370
18
48
1
60
0
100
AcDbLine
10
76.270367
20
13.588844
30
0
11
77.089515
21
14.239371
31
0
39
0
210
0
220
0
230
1
0
LINE
5
AC
100
AcDbEntity
8
1
62
256
6
ByLayer
370
18
48
1
60
0
100
AcDbLine
10
77.048302
20
12.757307
30
0
11
77.048302
21
12.360121
31
0
39
0
210
0
220
0
230
1
0
LINE
5
AD
100
AcDbEntity
8
1
62
256
6
ByLayer
370
18
48
1
60
0
100
AcDbLine
10
77.048302
20
12.757307
30
0
11
77.908667
21
13.440566
31
0
39
0
210
0
220
0
230
1
0
LINE
5
AE
100
AcDbEntity
8
1
62
256
6
ByLayer
370
18
48
1
60
0
100
AcDbLine
10
76.270364
20
13.515922
30
0
11
77.048302
21
12.757307
31
0
39
0
210
0
220
0
230
1
0
LINE
5
AF
100
AcDbEntity
8
1
62
256
6
ByLayer
370
18
48
1
60
0
100
AcDbLine
10
78.510696
20
0.57452
30
0
11
78.510696
21
-0.580181
31
0
39
0
210
0
220
0
230
1
0
LINE
5
B0
100
AcDbEntity
8
1
62
256
6
ByLayer
370
18
48
1
60
0
100
AcDbLine
10
77.691544
20
1.151792
30
0
11
78.510696
21
0.57452
31
0
39
0
210
0
220
0
230
1
0
LINE
5
B1
100
AcDbEntity
8
1
62
256
6
ByLayer
370
18
48
1
60
0
100
AcDbLine
10
76.872392
20
0.574363
30
0
11
77.691544
21
1.151792
31
0
39
0
210
0
220
0
230
1
0
LINE
5
B2
100
AcDbEntity
8
1
62
256
6
ByLayer
370
18
48
1
60
0
100
AcDbLine
10
76.872392
20
-0.580337
30
0
11
76.872392
21
0.574363
31
0
39
0
210
0
220
0
230
1
0
LINE
5
B3
100
AcDbEntity
8
1
62
256
6
ByLayer
370
18
48
1
60
0
100
AcDbLine
10
77.691544
20
-1.157609
30
0
11
76.872392
21
-0.580337
31
0
39
0
210
0
220
0
230
1
0
LINE
5
B4
100
AcDbEntity
8
1
62
256
6
ByLayer
370
18
48
1
60
0
100
AcDbLine
10
78.510696
20
-0.580181
30
0
11
77.691544
21
-1.157609
31
0
39
0
210
0
220
0
230
1
0
LINE
5
B5
100
AcDbEntity
8
1
62
256
6
ByLayer
370
18
48
1
60
0
100
AcDbLine
10
77.650331
20
0.574687
30
0
11
78.510696
21
0.57452
31
0
39
0
210
0
220
0
230
1
0
LINE
5
B6
100
AcDbEntity
8
1
62
256
6
ByLayer
370
18
48
1
60
0
100
AcDbLine
10
77.261529
20
0.848684
30
0
11
77.650331
21
0.574687
31
0
39
0
210
0
220
0
230
1
0
LINE
5
B7
100
AcDbEntity
8
1
62
256
6
ByLayer
370
18
48
1
60
0
100
AcDbLine
10
77.650331
20
-0.580013
30
0
11
77.261183
21
-0.854328
31
0
39
0
210
0
220
0
230
1
0
LINE
5
B8
100
AcDbEntity
8
1
62
256
6
ByLayer
370
18
48
1
60
0
100
AcDbLine
10
77.650331
20
-0.580013
30
0
11
78.510696
21
-0.580181
31
0
39
0
210
0
220
0
230
1
0
LINE
5
B9
100
AcDbEntity
8
1
62
256
6
ByLayer
370
18
48
1
60
0
100
AcDbLine
10
77.650331
20
0.574687
30
0
11
77.650331
21
-0.580013
31
0
39
0
210
0
220
0
230
1
0
LINE
5
BA
100
AcDbEntity
8
1
62
256
6
ByLayer
370
18
48
1
60
0
100
AcDbLine
10
114.719549
20
-0.607916
30
0
11
105.919202
21
-8.073529
31
0
39
0
210
0
220
0
230
1
0
LINE
5
BB
100
AcDbEntity
8
1
62
256
6
ByLayer
370
18
48
1
60
0
100
AcDbLine
10
105.41056
20
-8.073533
30
0
11
96.610098
21
-0.60806
31
0
39
0
210
0
220
0
230
1
0
LINE
5
BC
100
AcDbEntity
8
1
62
256
6
ByLayer
370
18
48
1
60
0
100
AcDbLine
10
96.610089
20
0.608036
30
0
11
105.410435
21
8.073649
31
0
39
0
210
0
220
0
230
1
0
LINE
5
BD
100
AcDbEntity
8
1
62
256
6
ByLayer
370
18
48
1
60
0
100
AcDbLine
10
105.919077
20
8.073653
30
0
11
114.719539
21
0.60818
31
0
39
0
210
0
220
0
230
1
0
LINE
5
BE
100
AcDbEntity
8
1
62
256
6
ByLayer
370
18
48
1
60
0
100
AcDbLine
10
96.545408
20
-0.60806
30
0
11
96.610098
21
-0.60806
31
0
39
0
210
0
220
0
230
1
0
LINE
5
BF
100
AcDbEntity
8
1
62
256
6
ByLayer
370
18
48
1
60
0
100
AcDbLine
10
95.910259
20
0.608036
30
0
11
96.610089
21
0.608036
31
0
39
0
210
0
220
0
230
1
0
LINE
5
C0
100
AcDbEntity
8
1
62
256
6
ByLayer
370
18
48
1
60
0
100
AcDbLine
10
104.710606
20
8.073649
30
0
11
105.410435
21
8.073649
31
0
39
0
210
0
220
0
230
1
0
LINE
5
C1
100
AcDbEntity
8
1
62
256
6
ByLayer
370
18
48
1
60
0
100
AcDbLine
10
95.910259
20
0.608036
30
0
11
99.585779
21
3.726096
31
0
39
0
210
0
220
0
230
1
0
LINE
5
C2
100
AcDbEntity
8
1
62
256
6
ByLayer
370
18
48
1
60
0
100
AcDbLine
10
104.274438
20
7.703635
30
0
11
104.710606
21
8.073649
31
0
39
0
210
0
220
0
230
1
0
LINE
5
C3
100
AcDbEntity
8
1
62
256
6
ByLayer
370
18
48
1
60
0
100
AcDbLine
10
104.710731
20
-8.073533
30
0
11
105.41056
21
-8.073533
31
0
39
0
210
0
220
0
230
1
0
LINE
5
C4
100
AcDbEntity
8
1
62
256
6
ByLayer
370
18
48
1
60
0
100
AcDbLine
10
104.710731
20
-8.073533
30
0
11
104.274695
21
-7.703642
31
0
39
0
210
0
220
0
230
1
0
LINE
5
C5
100
AcDbEntity
8
1
62
256
6
ByLayer
370
18
48
1
60
0
100
AcDbLine
10
105.664758
20
8.167233
30
0
11
104.964929
21
8.167233
31
0
39
0
210
0
220
0
230
1
0
LINE
5
C6
100
AcDbEntity
8
1
62
256
6
ByLayer
370
18
48
1
60
0
100
AcDbLine
10
104.96505
20
-8.167113
30
0
11
105.664879
21
-8.167113
31
0
39
0
210
0
220
0
230
1
0
LINE
5
C7
100
AcDbEntity
8
1
62
256
6
ByLayer
370
18
48
1
60
0
100
AcDbLine
10
103.177849
20
-0.155507
30
0
11
103.117498
21
-0.155507
31
0
39
0
210
0
220
0
230
1
0
LINE
5
C8
100
AcDbEntity
8
1
62
256
6
ByLayer
370
18
48
1
60
0
100
AcDbLine
10
103.741975
20
-1.696225
30
0
11
103.888504
21
-1.696225
31
0
39
0
210
0
220
0
230
1
0
LINE
5
C9
100
AcDbEntity
8
1
62
256
6
ByLayer
370
18
48
1
60
0
100
AcDbLine
10
105.727131
20
2.101593
30
0
11
105.080229
21
2.101593
31
0
39
0
210
0
220
0
230
1
0
LINE
5
CA
100
AcDbEntity
8
1
62
256
6
ByLayer
370
18
48
1
60
0
100
AcDbLine
10
104.600536
20
-2.097518
30
0
11
104.478605
21
-2.097518
31
0
39
0
210
0
220
0
230
1
0
LINE
5
CB
100
AcDbEntity
8
1
62
256
6
ByLayer
370
18
48
1
60
0
100
AcDbLine
10
104.620393
20
-2.101472
30
0
11
105.267294
21
-2.101472
31
0
39
0
210
0
220
0
230
1
0
LINE
5
CC
100
AcDbEntity
8
1
62
256
6
ByLayer
370
18
48
1
60
0
100
AcDbLine
10
104.75195
20
2.35006
30
0
11
104.611533
21
2.35006
31
0
39
0
210
0
220
0
230
1
0
LINE
5
CD
100
AcDbEntity
8
1
62
256
6
ByLayer
370
18
48
1
60
0
100
AcDbLine
10
105.070263
20
-2.202021
30
0
11
105.086075
21
-2.202021
31
0
39
0
210
0
220
0
230
1
0
LINE
5
CE
100
AcDbEntity
8
1
62
256
6
ByLayer
370
18
48
1
60
0
100
AcDbLine
10
105.578091
20
-2.504379
30
0
11
105.676696
21
-2.457893
31
0
39
0
210
0
220
0
230
1
0
LINE
5
CF
100
AcDbEntity
8
1
62
256
6
ByLayer
370
18
48
1
60
0
100
AcDbLine
10
94.338148
20
-6.769001
30
0
11
95.114502
21
-6.402997
31
0
39
0
210
0
220
0
230
1
0
LINE
5
D0
100
AcDbEntity
8
1
62
256
6
ByLayer
370
18
48
1
60
0
100
AcDbLine
10
95.114502
20
-6.402997
30
0
11
95.702594
21
-6.402997
31
0
39
0
210
0
220
0
230
1
0
LINE
5
D1
100
AcDbEntity
8
1
62
256
6
ByLayer
370
18
48
1
60
0
100
AcDbLine
10
93.910608
20
-6.970561
30
0
11
94.338148
21
-6.769001
31
0
39
0
210
0
220
0
230
1
0
LINE
5
D2
100
AcDbEntity
8
1
62
256
6
ByLayer
370
18
48
1
60
0
100
AcDbLine
10
94.562105
20
-4.18081
30
0
11
94.091055
21
-3.847359
31
0
39
0
210
0
220
0
230
1
0
LINE
5
D3
100
AcDbEntity
8
1
62
256
6
ByLayer
370
18
48
1
60
0
100
AcDbLine
10
95.263806
20
-4.677536
30
0
11
95.851898
21
-4.677536
31
0
39
0
210
0
220
0
230
1
0
LINE
5
D4
100
AcDbEntity
8
1
62
256
6
ByLayer
370
18
48
1
60
0
100
AcDbLine
10
95.263806
20
-4.677536
30
0
11
94.562105
21
-4.18081
31
0
39
0
210
0
220
0
230
1
0
LINE
5
D5
100
AcDbEntity
8
1
62
256
6
ByLayer
370
18
48
1
60
0
100
AcDbLine
10
94.125481
20
-9.409545
30
0
11
94.205837
21
-9.409545
31
0
39
0
210
0
220
0
230
1
0
LINE
5
D6
100
AcDbEntity
8
1
62
256
6
ByLayer
370
18
48
1
60
0
100
AcDbLine
10
95.189154
20
-5.540267
30
0
11
95.263806
21
-4.677536
31
0
39
0
210
0
220
0
230
1
0
LINE
5
D7
100
AcDbEntity
8
1
62
256
6
ByLayer
370
18
48
1
60
0
100
AcDbLine
10
94.205837
20
-1.409545
30
0
11
94.125481
21
-1.409545
31
0
39
0
210
0
220
0
230
1
0
LINE
5
D8
100
AcDbEntity
8
1
62
256
6
ByLayer
370
18
48
1
60
0
100
AcDbLine
10
95.114502
20
-6.402997
30
0
11
95.189154
21
-5.540267
31
0
39
0
210
0
220
0
230
1
0
LINE
5
D9
100
AcDbEntity
8
1
62
256
6
ByLayer
370
18
48
1
60
0
100
AcDbLine
10
91.12021
20
8.011315
30
0
11
91.120214
21
-2.905833
31
0
39
0
210
0
220
0
230
1
0
LINE
5
DA
100
AcDbEntity
8
1
62
256
6
ByLayer
370
18
48
1
60
0
100
AcDbLine
10
98.043315
20
12.989921
30
0
11
88.359193
21
14.697493
31
0
39
0
210
0
220
0
230
1
0
LINE
5
DB
100
AcDbEntity
8
80
62
256
6
ByLayer
370
18
48
1
60
0
100
AcDbLine
10
0
20
0
30
0
11
-9.97258
21
0
31
0
39
0
210
0
220
0
230
1
0
LINE
5
DC
100
AcDbEntity
8
81
62
256
6
ByLayer
370
18
48
1
60
0
100
AcDbLine
10
124.97258
20
-0.37
30
0
11
115
21
-0.37
31
0
39
0
210
0
220
0
230
1
0
LINE
5
DD
100
AcDbEntity
8
4
62
256
6
ByLayer
370
18
48
0.05
60
0
100
AcDbLine
10
0
20
0
30
0
11
120
21
0
31
0
39
0
210
0
220
0
230
1
0
LINE
5
DF
100
AcDbEntity
8
SK4
62
256
6
ByLayer
370
18
48
0.05
60
0
100
AcDbLine
10
-45
20
0
30
0
11
120
21
0
31
0
39
0
210
0
220
0
230
1
0
MTEXT
5
160
100
AcDbEntity
8
SK6
62
256
6
ByLayer
370
18
48
1
60
0
100
AcDbMText
10
25.939692
20
-75.913739
30
0
210
0
220
0
230
1
1
\W0.7004;C6-PCMNN-00115-12HP
40
3.175
41
0
44
1.084337
50
0
71
7
72
5
7
iso_b_vert
0
DIMENSION
5
173
100
AcDbEntity
8
SK2
62
256
6
ByLayer
370
13
48
1
60
0
100
AcDbDimension
2
DimnDraft3D1
10
-57.487371
20
31.5
30
0
11
-56.937461
21
3.205373
31
0
70
33
71
5
72
1
41
1
210
0
220
0
230
1
3
Standard
100
AcDbAlignedDimension
13
-1.2875
23
-31.5
33
0
14
-1.2875
24
31.5
34
0
1001
ACAD
1000
DSTYLE
1002
{
1070
   279
1070
     0
1070
    74
1070
     0
1070
   173
1070
     1
1070
   340
1005
161
1070
   271
1070
     1
1070
   272
1070
     2
1070
    77
1070
     1
1070
    73
1070
     0
1070
   171
1070
     3
1070
   274
1070
     4
1070
   177
1070
     7
1070
   176
1070
     7
1070
   178
1070
     7
1070
    78
1070
     8
1070
    48
1040
-0.005
1070
    41
1041
3.175
1070
   147
1041
1.75006
1070
    42
1041
1.5875
1070
    44
1041
3.175
1070
   140
1041
3.50012
1070
   343
1005
0
1070
   344
1005
0
1002
}
0
DIMENSION
5
19E
100
AcDbEntity
8
2
62
256
6
ByLayer
370
13
48
1
60
0
100
AcDbDimension
2
DimnDraft3D4
10
115
20
-0.999872
30
0
11
99.967577
21
-32.835411
31
0
70
34
71
5
72
1
41
1
210
0
220
0
230
1
3
Standard
100
AcDb2LineAngularDimension
13
114.719549
23
-0.607916
33
0
14
105.919202
24
-8.073529
34
0
15
115
25
0.000128
35
0
16
98.496921
26
-36.011574
36
0
40
0
0
ENDSEC
0
SECTION
2
OBJECTS
0
DICTIONARY
5
210
330
0
100
AcDbDictionary
280
0
281
1
3
ACAD_GROUP
350
211
3
ACAD_MLINESTYLE
350
212
0
DICTIONARY
5
211
330
0
100
AcDbDictionary
280
0
281
1
0
DICTIONARY
5
212
330
0
100
AcDbDictionary
280
0
281
1
3
Standard
350
18
0
MLINESTYLE
5
18
330
212
100
AcDbMlineStyle
2
Standard
70
0
3

62
256
51
90
52
90
71
2
49
-0.5
62
256
6
ByLayer
49
0.5
62
256
6
ByLayer
0
RASTERVARIABLES
5
1fe
330

100
AcDbRasterVariables
90
0
70
1
71
1
72
1
0
ENDSEC
0
EOF
