0
SECTION
2
HEADER
9
$ACADVER
1
AC1015
9
$DWGCODEPAGE
3
ANSI_1252
9
$HANDSEED
5
231
9
$ANGBASE
50
0
9
$ANGDIR
70
0
9
$ATTMODE
70
1
9
$AUNITS
70
0
9
$AUPREC
70
0
9
$CECOLOR
62
256
9
$CELTSCALE
40
1
9
$CELTYPE
6
ByLayer
9
$CELWEIGHT
370
18
9
$CLAYER
8
0
9
$CMLJUST
70
0
9
$CMLSCALE
40
1
9
$CMLSTYLE
2
Standard
9
$DIMSTYLE
2
Standard
9
$TEXTSIZE
40
0.2
9
$TEXTSTYLE
7
Standard
9
$LUNITS
70
2
9
$LUPREC
70
4
9
$EXTNAMES
290
1
9
$INSUNITS
70
4
9
$LTSCALE
40
1
9
$LWDISPLAY
290
1
9
$PDMODE
70
0
9
$PDSIZE
40
0
9
$PLINEGEN
70
0
0
ENDSEC
0
SECTION
2
CLASSES
0
CLASS
1
RASTERVARIABLES
2
AcDbRasterVariables
3
ISM
90
0
280
0
281
0
0
ENDSEC
0
SECTION
2
TABLES
0
TABLE
2
VPORT
5
227
100
AcDbSymbolTable
0
VPORT
5
1
100
AcDbSymbolTableRecord
100
AcDbViewportTableRecord
2
*Active
70
0
10
0
20
0
11
1
21
1
12
-1
22
1
13
0
23
0
14
0.5
24
0.5
15
10
25
10
16
0
26
0
36
1
17
0
27
0
37
0
0
ENDTAB
0
TABLE
2
LTYPE
5
228
100
AcDbSymbolTable
0
LTYPE
5
14
100
AcDbSymbolTableRecord
100
AcDbLinetypeTableRecord
70
0
2
ByBlock
3

72
65
73
0
40
0
0
LTYPE
5
15
100
AcDbSymbolTableRecord
100
AcDbLinetypeTableRecord
70
0
2
ByLayer
3

72
65
73
0
40
0
0
LTYPE
5
16
100
AcDbSymbolTableRecord
100
AcDbLinetypeTableRecord
70
0
2
CONTINUOUS
3
Solid line
72
65
73
0
40
0
0
LTYPE
5
6A
100
AcDbSymbolTableRecord
100
AcDbLinetypeTableRecord
70
0
2
CENTER
3
____ _ ____ _ ____ _ ____
72
65
73
4
40
47.5
49
22
74
0
49
-8.5
74
0
49
8.5
74
0
49
-8.5
74
0
0
LTYPE
5
6B
100
AcDbSymbolTableRecord
100
AcDbLinetypeTableRecord
70
0
2
DASHED
3
__ __ __ __ __ __ __ __ __
72
65
73
2
40
25.72
49
12.86
74
0
49
-12.86
74
0
0
ENDTAB
0
TABLE
2
LAYER
5
229
100
AcDbSymbolTable
0
LAYER
5
10
100
AcDbSymbolTableRecord
100
AcDbLayerTableRecord
2
0
70
0
62
7
6
CONTINUOUS
290
1
370
-3
390
0
0
LAYER
5
6D
100
AcDbSymbolTableRecord
100
AcDbLayerTableRecord
2
80
70
0
62
-6
6
CONTINUOUS
290
1
370
-3
390
0
0
LAYER
5
6F
100
AcDbSymbolTableRecord
100
AcDbLayerTableRecord
2
81
70
0
62
-3
6
CONTINUOUS
290
1
370
-3
390
0
0
LAYER
5
71
100
AcDbSymbolTableRecord
100
AcDbLayerTableRecord
2
1
70
0
62
4
6
CONTINUOUS
290
1
370
-3
390
0
0
LAYER
5
185
100
AcDbSymbolTableRecord
100
AcDbLayerTableRecord
2
2
70
0
62
7
6
CONTINUOUS
290
1
370
-3
390
0
0
LAYER
5
213
100
AcDbSymbolTableRecord
100
AcDbLayerTableRecord
2
SK1
70
0
62
4
6
CONTINUOUS
290
1
370
-3
390
0
0
LAYER
5
214
100
AcDbSymbolTableRecord
100
AcDbLayerTableRecord
2
SK4
70
0
62
2
6
CENTER
290
1
370
-3
390
0
0
LAYER
5
215
100
AcDbSymbolTableRecord
100
AcDbLayerTableRecord
2
SK6
70
0
62
5
6
CONTINUOUS
290
1
370
-3
390
0
0
LAYER
5
216
100
AcDbSymbolTableRecord
100
AcDbLayerTableRecord
2
SK2
70
0
62
7
6
CONTINUOUS
290
1
370
-3
390
0
0
ENDTAB
0
TABLE
2
STYLE
5
22a
100
AcDbSymbolTable
0
STYLE
5
11
100
AcDbSymbolTableRecord
100
AcDbTextStyleTableRecord
2
Standard
3
txt
70
0
71
0
40
0
41
1
42
0
50
0
0
STYLE
5
17E
100
AcDbSymbolTableRecord
100
AcDbTextStyleTableRecord
2
iso_b_vert
3
simplex.shx
70
0
71
0
40
0
41
1
42
0
50
0
0
STYLE
5
17F
100
AcDbSymbolTableRecord
100
AcDbTextStyleTableRecord
2
DWGDirectTextStyle
3
simplex
70
0
71
0
40
0
41
1
42
0
50
0
0
ENDTAB
0
TABLE
2
DIMSTYLE
5
22b
100
AcDbSymbolTable
100
AcDbDimStyleTable
0
DIMSTYLE
105
27
100
AcDbSymbolTableRecord
100
AcDbDimStyleTableRecord
2
Standard
70
0
3
<>
41
0.18
42
0.0625
44
0.18
140
0.18
147
0.09
73
0
74
0
77
1
271
2
275
0
278
52
280
0
340
11
0
ENDTAB
0
TABLE
2
VIEW
5
22c
100
AcDbSymbolTable
0
ENDTAB
0
TABLE
2
UCS
5
22d
100
AcDbSymbolTable
0
ENDTAB
0
TABLE
2
APPID
5
22e
100
AcDbSymbolTable
0
APPID
5
12
100
AcDbSymbolTableRecord
100
AcDbRegAppTableRecord
2
ACAD
70
0
0
ENDTAB
0
TABLE
2
BLOCK_RECORD
5
22f
100
AcDbSymbolTable
0
BLOCK_RECORD
5
1F
100
AcDbSymbolTableRecord
100
AcDbBlockTableRecord
2
*Model_Space
340
0
70
0
0
BLOCK_RECORD
5
1B
100
AcDbSymbolTableRecord
100
AcDbBlockTableRecord
2
*Paper_Space
340
0
70
0
0
BLOCK_RECORD
5
23
100
AcDbSymbolTableRecord
100
AcDbBlockTableRecord
2
*Paper_Space0
340
0
70
0
0
BLOCK_RECORD
5
181
100
AcDbSymbolTableRecord
100
AcDbBlockTableRecord
2
DimnDraft3D11
340
0
70
0
0
BLOCK_RECORD
5
18E
100
AcDbSymbolTableRecord
100
AcDbBlockTableRecord
2
DimnDraft3D2
340
0
70
0
0
BLOCK_RECORD
5
19C
100
AcDbSymbolTableRecord
100
AcDbBlockTableRecord
2
_OPEN
340
0
70
0
0
BLOCK_RECORD
5
1A2
100
AcDbSymbolTableRecord
100
AcDbBlockTableRecord
2
DimnDraft3D3
340
0
70
0
0
BLOCK_RECORD
5
1AE
100
AcDbSymbolTableRecord
100
AcDbBlockTableRecord
2
DimnDraft3D4
340
0
70
0
0
ENDTAB
0
ENDSEC
0
SECTION
2
BLOCKS
0
BLOCK
5
20
100
AcDbEntity
8
0
100
AcDbBlockBegin
2
*Model_Space
70
0
10
0
20
0
30
0
3
*Model_Space
0
ENDBLK
5
21
100
AcDbEntity
8
0
100
AcDbBlockEnd
0
BLOCK
5
1C
100
AcDbEntity
8
0
100
AcDbBlockBegin
2
*Paper_Space
70
0
10
0
20
0
30
0
3
*Paper_Space
0
ENDBLK
5
1D
100
AcDbEntity
8
0
100
AcDbBlockEnd
0
BLOCK
5
24
100
AcDbEntity
8
0
100
AcDbBlockBegin
2
*Paper_Space0
70
0
10
0
20
0
30
0
3
*Paper_Space0
0
ENDBLK
5
25
100
AcDbEntity
8
0
100
AcDbBlockEnd
0
BLOCK
5
182
100
AcDbEntity
8
0
100
AcDbBlockBegin
2
DimnDraft3D11
70
0
10
0
20
0
30
0
3
DimnDraft3D11
0
LINE
5
184
100
AcDbEntity
8
2
62
256
6
ByLayer
370
25
48
1
60
0
100
AcDbLine
10
166.58486
20
45.067928
30
0
11
180.129987
21
45.067928
31
0
39
0
210
0
220
0
230
1
0
LINE
5
186
100
AcDbEntity
8
2
62
256
6
ByLayer
370
25
48
1
60
0
100
AcDbLine
10
162.8875
20
0
30
0
11
180.129987
21
0
31
0
39
0
210
0
220
0
230
1
0
LINE
5
187
100
AcDbEntity
8
2
62
256
6
ByLayer
370
25
48
1
60
0
100
AcDbLine
10
176.954987
20
45.067928
30
0
11
176.954987
21
0
31
0
39
0
210
0
220
0
230
1
0
LINE
5
188
100
AcDbEntity
8
2
62
256
6
ByLayer
370
25
48
1
60
0
100
AcDbLine
10
176.954987
20
45.067928
30
0
11
177.372984
21
41.89293
31
0
39
0
210
0
220
0
230
1
0
LINE
5
189
100
AcDbEntity
8
2
62
256
6
ByLayer
370
25
48
1
60
0
100
AcDbLine
10
176.954987
20
45.067928
30
0
11
176.536991
21
41.892927
31
0
39
0
210
0
220
0
230
1
0
LINE
5
18A
100
AcDbEntity
8
2
62
256
6
ByLayer
370
25
48
1
60
0
100
AcDbLine
10
176.954987
20
0
30
0
11
176.536991
21
3.174998
31
0
39
0
210
0
220
0
230
1
0
LINE
5
18B
100
AcDbEntity
8
2
62
256
6
ByLayer
370
25
48
1
60
0
100
AcDbLine
10
176.954987
20
0
30
0
11
177.372984
21
3.175002
31
0
39
0
210
0
220
0
230
1
0
MTEXT
5
18C
100
AcDbEntity
8
2
62
256
6
ByLayer
370
18
48
1
60
0
100
AcDbMText
10
176.079957
20
22.806857
30
0
210
0
220
0
230
1
1
\W0.7183;45
40
3.50012
41
0
44
1.084337
50
90
71
7
72
5
7
iso_b_vert
0
ENDBLK
5
183
100
AcDbEntity
8
0
100
AcDbBlockEnd
0
BLOCK
5
199
100
AcDbEntity
8
0
100
AcDbBlockBegin
2
DimnDraft3D2
70
0
10
0
20
0
30
0
3
DimnDraft3D2
0
MTEXT
5
18F
100
AcDbEntity
8
SK2
62
256
6
ByLayer
370
18
48
1
60
0
100
AcDbMText
10
-51.360104
20
-1.631191
30
0
210
0
220
0
230
1
1
%%c
40
3.175
41
0
44
1.084337
50
90
71
7
72
5
7
iso_b_vert
0
MTEXT
5
191
100
AcDbEntity
8
SK2
62
256
6
ByLayer
370
18
48
1
60
0
100
AcDbMText
10
-51.278824
20
6.362785
30
0
210
0
220
0
230
1
1
\W0.6563;63
40
3.50012
41
0
44
1.084337
50
90
71
7
72
5
7
iso_b_vert
0
LINE
5
192
100
AcDbEntity
8
SK2
62
256
6
ByLayer
370
13
48
1
60
0
100
AcDbLine
10
-1.2875
20
-31.5
30
0
11
-52.785044
21
-31.5
31
0
39
0
210
0
220
0
230
1
0
LINE
5
193
100
AcDbEntity
8
SK2
62
256
6
ByLayer
370
13
48
1
60
0
100
AcDbLine
10
-1.2875
20
31.5
30
0
11
-52.785044
21
31.5
31
0
39
0
210
0
220
0
230
1
0
LINE
5
194
100
AcDbEntity
8
SK2
62
256
6
ByLayer
370
13
48
1
60
0
100
AcDbLine
10
-49.610044
20
-31.5
30
0
11
-49.610044
21
31.5
31
0
39
0
210
0
220
0
230
1
0
LINE
5
195
100
AcDbEntity
8
SK2
62
256
6
ByLayer
370
13
48
1
60
0
100
AcDbLine
10
-49.610044
20
-31.5
30
0
11
-50.028041
21
-28.325002
31
0
39
0
210
0
220
0
230
1
0
LINE
5
196
100
AcDbEntity
8
SK2
62
256
6
ByLayer
370
13
48
1
60
0
100
AcDbLine
10
-49.610044
20
-31.5
30
0
11
-49.192048
21
-28.324998
31
0
39
0
210
0
220
0
230
1
0
LINE
5
197
100
AcDbEntity
8
SK2
62
256
6
ByLayer
370
13
48
1
60
0
100
AcDbLine
10
-49.610044
20
31.5
30
0
11
-49.192048
21
28.325002
31
0
39
0
210
0
220
0
230
1
0
LINE
5
198
100
AcDbEntity
8
SK2
62
256
6
ByLayer
370
13
48
1
60
0
100
AcDbLine
10
-49.610044
20
31.5
30
0
11
-50.028041
21
28.324998
31
0
39
0
210
0
220
0
230
1
0
ENDBLK
5
19A
100
AcDbEntity
8
0
100
AcDbBlockEnd
0
BLOCK
5
19D
100
AcDbEntity
8
0
100
AcDbBlockBegin
2
_OPEN
70
0
10
0
20
0
30
0
3
_OPEN
0
LINE
5
19F
100
AcDbEntity
8
0
62
256
6
ByLayer
370
-2
48
1
60
0
100
AcDbLine
10
-1
20
0.166667
30
0
11
0
21
0
31
0
39
0
210
0
220
0
230
1
0
LINE
5
1A0
100
AcDbEntity
8
0
62
256
6
ByLayer
370
-2
48
1
60
0
100
AcDbLine
10
-1
20
-0.166667
30
0
11
0
21
0
31
0
39
0
210
0
220
0
230
1
0
LINE
5
1A1
100
AcDbEntity
8
0
62
256
6
ByLayer
370
-2
48
1
60
0
100
AcDbLine
10
0
20
0
30
0
11
-1
21
0
31
0
39
0
210
0
220
0
230
1
0
ENDBLK
5
19E
100
AcDbEntity
8
0
100
AcDbBlockEnd
0
BLOCK
5
1AB
100
AcDbEntity
8
0
100
AcDbBlockBegin
2
DimnDraft3D3
70
0
10
0
20
0
30
0
3
DimnDraft3D3
0
MTEXT
5
1A3
100
AcDbEntity
8
2
62
256
6
ByLayer
370
18
48
1
60
0
100
AcDbMText
10
80.481506
20
70.129556
30
0
210
0
220
0
230
1
1
\W0.6044;165
40
3.50012
41
0
44
1.084337
50
0
71
7
72
5
7
iso_b_vert
0
LINE
5
1A4
100
AcDbEntity
8
2
62
256
6
ByLayer
370
13
48
1
60
0
100
AcDbLine
10
164.99736
20
46.655428
30
0
11
164.99736
21
72.429526
31
0
39
0
210
0
220
0
230
1
0
LINE
5
1A5
100
AcDbEntity
8
2
62
256
6
ByLayer
370
13
48
1
60
0
100
AcDbLine
10
0
20
32.7875
30
0
11
0
21
72.429526
31
0
39
0
210
0
220
0
230
1
0
LINE
5
1A6
100
AcDbEntity
8
2
62
256
6
ByLayer
370
13
48
1
60
0
100
AcDbLine
10
164.99736
20
69.254526
30
0
11
0
21
69.254526
31
0
39
0
210
0
220
0
230
1
0
LINE
5
1A7
100
AcDbEntity
8
2
62
256
6
ByLayer
370
13
48
1
60
0
100
AcDbLine
10
164.99736
20
69.254526
30
0
11
161.822362
21
68.83653
31
0
39
0
210
0
220
0
230
1
0
LINE
5
1A8
100
AcDbEntity
8
2
62
256
6
ByLayer
370
13
48
1
60
0
100
AcDbLine
10
164.99736
20
69.254526
30
0
11
161.822359
21
69.672523
31
0
39
0
210
0
220
0
230
1
0
LINE
5
1A9
100
AcDbEntity
8
2
62
256
6
ByLayer
370
13
48
1
60
0
100
AcDbLine
10
0
20
69.254526
30
0
11
3.174998
21
69.672523
31
0
39
0
210
0
220
0
230
1
0
LINE
5
1AA
100
AcDbEntity
8
2
62
256
6
ByLayer
370
13
48
1
60
0
100
AcDbLine
10
0
20
69.254526
30
0
11
3.175002
21
68.83653
31
0
39
0
210
0
220
0
230
1
0
ENDBLK
5
1AC
100
AcDbEntity
8
0
100
AcDbBlockEnd
0
BLOCK
5
1B7
100
AcDbEntity
8
0
100
AcDbBlockBegin
2
DimnDraft3D4
70
0
10
0
20
0
30
0
3
DimnDraft3D4
0
MTEXT
5
1AF
100
AcDbEntity
8
2
62
256
6
ByLayer
370
18
48
1
60
0
100
AcDbMText
10
152.344226
20
53.622402
30
0
210
0
220
0
230
1
1
\W0.8385;95%%d
40
3.50012
41
0
44
1.084337
50
47.3457251980925
71
7
72
5
7
iso_b_vert
0
LINE
5
1B0
100
AcDbEntity
8
2
62
256
6
ByLayer
370
13
48
1
60
0
100
AcDbLine
10
164.99736
20
46.655428
30
0
11
164.99736
21
62.469996
31
0
39
0
210
0
220
0
230
1
0
LINE
5
1B1
100
AcDbEntity
8
2
62
256
6
ByLayer
370
13
48
1
60
0
100
AcDbLine
10
151.053508
20
43.92363
30
0
11
147.653596
21
43.644617
31
0
39
0
210
0
220
0
230
1
0
ARC
5
1B2
100
AcDbEntity
8
2
62
256
6
ByLayer
370
13
48
1
60
0
100
AcDbCircle
39
0
10
164.99736
20
45.067928
30
0
40
14.2270676560991
210
0
220
0
230
1
100
AcDbArc
50
90
51
184.69145
0
LINE
5
1B3
100
AcDbEntity
8
2
62
256
6
ByLayer
370
13
48
1
60
0
100
AcDbLine
10
164.99736
20
59.294996
30
0
11
161.850474
21
58.701327
31
0
39
0
210
0
220
0
230
1
0
LINE
5
1B4
100
AcDbEntity
8
2
62
256
6
ByLayer
370
13
48
1
60
0
100
AcDbLine
10
164.99736
20
59.294996
30
0
11
161.804045
21
59.53603
31
0
39
0
210
0
220
0
230
1
0
LINE
5
1B5
100
AcDbEntity
8
2
62
256
6
ByLayer
370
13
48
1
60
0
100
AcDbLine
10
150.817959
20
43.904299
30
0
11
150.316552
21
47.067198
31
0
39
0
210
0
220
0
230
1
0
LINE
5
1B6
100
AcDbEntity
8
2
62
256
6
ByLayer
370
13
48
1
60
0
100
AcDbLine
10
150.817959
20
43.904299
30
0
11
151.152256
21
47.089202
31
0
39
0
210
0
220
0
230
1
0
ENDBLK
5
1B8
100
AcDbEntity
8
0
100
AcDbBlockEnd
0
ENDSEC
0
SECTION
2
ENTITIES
0
ARC
5
E3
100
AcDbEntity
8
1
62
256
6
ByLayer
370
18
48
1
60
0
100
AcDbCircle
39
0
10
124.8
20
43.5
30
0
40
12
210
0
220
0
230
1
100
AcDbArc
50
270
51
319.994799
0
ARC
5
E4
100
AcDbEntity
8
SK1
62
256
6
ByLayer
370
18
48
1
60
0
100
AcDbCircle
39
0
10
-0.6
20
23.45
30
0
40
1
210
0
220
0
230
1
100
AcDbArc
50
293.578178
51
306.870857
0
ARC
5
E5
100
AcDbEntity
8
SK1
62
256
6
ByLayer
370
18
48
1
60
0
100
AcDbCircle
39
0
10
-0.6
20
-23.45
30
0
40
1
210
0
220
0
230
1
100
AcDbArc
50
53.129143
51
66.421822
0
ARC
5
E6
100
AcDbEntity
8
1
62
256
6
ByLayer
370
18
48
1
60
0
100
AcDbCircle
39
0
10
-156.971416
20
16.5
30
0
40
30
210
0
220
0
230
-1
100
AcDbArc
50
40.005201
51
56.309432
0
ELLIPSE
5
E7
100
AcDbEntity
8
1
62
256
6
ByLayer
370
18
48
1
60
0
100
AcDbEllipse
10
26.347154
20
0
30
0
11
14.7536831606554
21
31.0932549155801
31
0
210
0
220
0
230
1
40
0.341999
41
2.05035306783694
42
2.98378646694436
0
ELLIPSE
5
E8
100
AcDbEntity
8
1
62
256
6
ByLayer
370
18
48
1
60
0
100
AcDbEllipse
10
-2.347154
20
0
30
0
11
14.7536831606544
21
31.0932549155789
31
0
210
0
220
0
230
1
40
0.341999
41
-1.09123958575288
42
-0.157806186645435
0
ELLIPSE
5
E9
100
AcDbEntity
8
1
62
256
6
ByLayer
370
18
48
1
60
0
100
AcDbEllipse
10
157.072118
20
37.072118
30
0
11
-1.96222131779267
21
1.96222131779267
31
0
210
0
220
0
230
-1
40
0.989133
41
2.42587724597508
42
2.72794753335673
0
ELLIPSE
5
EA
100
AcDbEntity
8
1
62
256
6
ByLayer
370
18
48
1
60
0
100
AcDbEllipse
10
157.072118
20
37.072118
30
0
11
-1.96222131779267
21
1.96222131779267
31
0
210
0
220
0
230
-1
40
0.989133
41
0.413662273804607
42
0.710118221700225
0
ELLIPSE
5
EB
100
AcDbEntity
8
1
62
256
6
ByLayer
370
18
48
1
60
0
100
AcDbEllipse
10
239.569021
20
0
30
0
11
148.195848448574
21
-1.67920670005218E-13
31
0
210
0
220
0
230
1
40
0.212557
41
2.45662820396991
42
-2.46229511616734
0
ELLIPSE
5
EC
100
AcDbEntity
8
1
62
256
6
ByLayer
370
18
48
1
60
0
100
AcDbEllipse
10
-2.347154
20
0
30
0
11
14.7536831606562
21
-31.0932549155809
31
0
210
0
220
0
230
1
40
0.341999
41
0.157806186645433
42
1.09123958575283
0
ELLIPSE
5
ED
100
AcDbEntity
8
1
62
256
6
ByLayer
370
18
48
1
60
0
100
AcDbEllipse
10
26.347154
20
0
30
0
11
14.7536831606563
21
-31.093254915581
31
0
210
0
220
0
230
1
40
0.341999
41
-2.98378646694436
42
-2.05035306783697
0
ELLIPSE
5
EE
100
AcDbEntity
8
1
62
256
6
ByLayer
370
18
48
1
60
0
100
AcDbEllipse
10
139.331598
20
30.600792
30
0
11
1.90098122498335
21
-1.24562276649338
31
0
210
0
220
0
230
1
40
0.665167
41
0
42
6.28318530717959
0
ELLIPSE
5
EF
100
AcDbEntity
8
1
62
256
6
ByLayer
370
18
48
1
60
0
100
AcDbEllipse
10
153.320109
20
21.817198
30
0
11
1.84794523555373
21
-1.29671716602419
31
0
210
0
220
0
230
1
40
0.651222
41
0
42
6.28318530717959
0
ELLIPSE
5
F0
100
AcDbEntity
8
1
62
256
6
ByLayer
370
18
48
1
60
0
100
AcDbEllipse
10
145.990082
20
26.496604
30
0
11
1.87535694628901
21
-1.27006862039988
31
0
210
0
220
0
230
1
40
0.659431
41
0
42
6.28318530717959
0
ELLIPSE
5
F1
100
AcDbEntity
8
1
62
256
6
ByLayer
370
18
48
1
60
0
100
AcDbEllipse
10
153.103182
20
24.248957
30
0
11
3.45890152221634
21
-2.88602170155168
31
0
210
0
220
0
230
1
40
0.858615
41
0.62076251502981
42
1.75522652882671
0
ELLIPSE
5
F2
100
AcDbEntity
8
1
62
256
6
ByLayer
370
18
48
1
60
0
100
AcDbEllipse
10
152.689318
20
24.495089
30
0
11
3.45890152224317
21
-2.88602170147241
31
0
210
0
220
0
230
1
40
0.858615
41
1.75522652880725
42
2.27882530440876
0
ELLIPSE
5
F3
100
AcDbEntity
8
1
62
256
6
ByLayer
370
18
48
1
60
0
100
AcDbEllipse
10
150.287365
20
37.887365
30
0
11
7.68644782715987
21
-6.41338155899342
31
0
210
0
220
0
230
1
40
0.858615
41
-1.7354319751639
42
-0.862767349166539
0
ELLIPSE
5
F4
100
AcDbEntity
8
1
62
256
6
ByLayer
370
18
48
1
60
0
100
AcDbEllipse
10
140.171443
20
30.428925
30
0
11
3.45890152224971
21
-2.88602170163139
31
0
210
0
220
0
230
1
40
0.858615
41
1.40616067844082
42
1.8864116231469
0
ELLIPSE
5
F5
100
AcDbEntity
8
1
62
256
6
ByLayer
370
18
48
1
60
0
100
AcDbEllipse
10
138.745349
20
29.996373
30
0
11
-1.61508181395395
21
1.56652824239949
31
0
210
0
220
0
230
-1
40
0.384238
41
0.25905662531211
42
2.68475845210405
0
ELLIPSE
5
F6
100
AcDbEntity
8
1
62
256
6
ByLayer
370
18
48
1
60
0
100
AcDbEllipse
10
140.639085
20
30.896567
30
0
11
4.50434763904666
21
-1.49543769781234
31
0
210
0
220
0
230
1
40
0.705215
41
1.6238427202188
42
1.84172347626254
0
ELLIPSE
5
F7
100
AcDbEntity
8
1
62
256
6
ByLayer
370
18
48
1
60
0
100
AcDbEllipse
10
138.745349
20
29.996373
30
0
11
-1.1843933302329
21
1.14878737775962
31
0
210
0
220
0
230
-1
40
0.384238
41
-1.83147728798032
42
-1.5649325062529
0
ELLIPSE
5
F8
100
AcDbEntity
8
1
62
256
6
ByLayer
370
18
48
1
60
0
100
AcDbEllipse
10
138.745349
20
29.996373
30
0
11
-1.1843933302329
21
1.14878737775962
31
0
210
0
220
0
230
-1
40
0.384238
41
-1.56493250625288
42
0
0
ELLIPSE
5
F9
100
AcDbEntity
8
1
62
256
6
ByLayer
370
18
48
1
60
0
100
AcDbEllipse
10
138.745349
20
29.996373
30
0
11
-1.1843933302329
21
1.14878737775962
31
0
210
0
220
0
230
-1
40
0.384238
41
0
42
-3.10549158787694
0
ELLIPSE
5
FA
100
AcDbEntity
8
1
62
256
6
ByLayer
370
18
48
1
60
0
100
AcDbEllipse
10
145.369912
20
25.82891
30
0
11
-1.64857790419622
21
1.53123835303196
31
0
210
0
220
0
230
-1
40
0.42615
41
0.29915516021015
42
2.68499823622049
0
ELLIPSE
5
FB
100
AcDbEntity
8
1
62
256
6
ByLayer
370
18
48
1
60
0
100
AcDbEllipse
10
145.369912
20
25.82891
30
0
11
-1.20895712974389
21
1.12290812555677
31
0
210
0
220
0
230
-1
40
0.42615
41
-0.634487683997917
42
0
0
ELLIPSE
5
FC
100
AcDbEntity
8
1
62
256
6
ByLayer
370
18
48
1
60
0
100
AcDbEllipse
10
145.369912
20
25.82891
30
0
11
-1.20895712974389
21
1.12290812555677
31
0
210
0
220
0
230
-1
40
0.42615
41
0
42
3.09841198357733
0
ELLIPSE
5
FD
100
AcDbEntity
8
1
62
256
6
ByLayer
370
18
48
1
60
0
100
AcDbEllipse
10
152.985418
20
21.43522
30
0
11
-1.6922844504619
21
1.48279241255304
31
0
210
0
220
0
230
-1
40
0.492435
41
0.143809473147619
42
2.89024845304098
0
ELLIPSE
5
FE
100
AcDbEntity
8
1
62
256
6
ByLayer
370
18
48
1
60
0
100
AcDbEllipse
10
152.985418
20
21.43522
30
0
11
-1.24100859700539
21
1.0873811025389
31
0
210
0
220
0
230
-1
40
0.492435
41
0
42
6.28318530717959
0
ELLIPSE
5
FF
100
AcDbEntity
8
1
62
256
6
ByLayer
370
18
48
1
60
0
100
AcDbEllipse
10
140.066244
20
35.596264
30
0
11
0.357384179635432
21
1.96781008945129
31
0
210
0
220
0
230
-1
40
0.084329
41
-2.20742405826333
42
-1.69195726657791
0
ELLIPSE
5
100
100
AcDbEntity
8
1
62
256
6
ByLayer
370
18
48
1
60
0
100
AcDbEllipse
10
146.18008
20
33.830288
30
0
11
-2.8284271247462
21
2.82842712474618
31
0
210
0
220
0
230
-1
40
0.989133
41
-0.815623072087676
42
-0.636256587552894
0
ELLIPSE
5
101
100
AcDbEntity
8
1
62
256
6
ByLayer
370
18
48
1
60
0
100
AcDbEllipse
10
142.45067
20
34.65083
30
0
11
1.08717062587524
21
1.6787078454079
31
0
210
0
220
0
230
-1
40
0.031071
41
-2.04427238176241
42
-1.71506798643779
0
ELLIPSE
5
102
100
AcDbEntity
8
1
62
256
6
ByLayer
370
18
48
1
60
0
100
AcDbEllipse
10
158.59917
20
22.703167
30
0
11
1.99329920496605
21
-0.163579581493869
31
0
210
0
220
0
230
-1
40
0.112626
41
1.66605001191963
42
2.23421204036028
0
ELLIPSE
5
103
100
AcDbEntity
8
1
62
256
6
ByLayer
370
18
48
1
60
0
100
AcDbEllipse
10
158.387222
20
20.120476
30
0
11
2.26895570307132
21
3.20805934905672
31
0
210
0
220
0
230
1
40
0.018997
41
1.63391292719713
42
2.18283259069903
0
ELLIPSE
5
104
100
AcDbEntity
8
1
62
256
6
ByLayer
370
18
48
1
60
0
100
AcDbEllipse
10
138.770523
20
29.028005
30
0
11
-4.59619407771257
21
4.59619407771255
31
0
210
0
220
0
230
-1
40
0.989133
41
0.959931088596889
42
1.35785512566182
0
ELLIPSE
5
105
100
AcDbEntity
8
1
62
256
6
ByLayer
370
18
48
1
60
0
100
AcDbEllipse
10
154.923369
20
29.108305
30
0
11
0.909964031918193
21
1.78100125227783
31
0
210
0
220
0
230
-1
40
0.320152
41
1.89823987054265
42
2.25004940209455
0
ELLIPSE
5
106
100
AcDbEntity
8
1
62
256
6
ByLayer
370
18
48
1
60
0
100
AcDbEllipse
10
153.784951
20
30.339228
30
0
11
1.76776695296645
21
-1.76776695296642
31
0
210
0
220
0
230
-1
40
0.989133
41
0.199756485703037
42
0.50472992733562
0
ELLIPSE
5
107
100
AcDbEntity
8
1
62
256
6
ByLayer
370
18
48
1
60
0
100
AcDbEllipse
10
153.784951
20
30.339228
30
0
11
1.76776695296645
21
-1.76776695296642
31
0
210
0
220
0
230
-1
40
0.989133
41
1.60331788969109
42
2.12046986247723
0
ELLIPSE
5
108
100
AcDbEntity
8
1
62
256
6
ByLayer
370
18
48
1
60
0
100
AcDbEllipse
10
151.702797
20
30.008569
30
0
11
0.0242498728289922
21
1.99985298051326
31
0
210
0
220
0
230
-1
40
0.165924
41
-2.29782045908569
42
-1.69151011478106
0
ELLIPSE
5
109
100
AcDbEntity
8
1
62
256
6
ByLayer
370
18
48
1
60
0
100
AcDbEllipse
10
151.57121
20
30.009725
30
0
11
0.0109261313973371
21
1.99997015469049
31
0
210
0
220
0
230
-1
40
0.103961
41
-2.29583213503885
42
-1.67551496950069
0
ELLIPSE
5
10A
100
AcDbEntity
8
1
62
256
6
ByLayer
370
18
48
1
60
0
100
AcDbEllipse
10
151.948088
20
23.093863
30
0
11
-4.59619407771257
21
4.59619407771255
31
0
210
0
220
0
230
-1
40
0.989133
41
1.36507824636574
42
2.44346095279207
0
ELLIPSE
5
10B
100
AcDbEntity
8
1
62
256
6
ByLayer
370
18
48
1
60
0
100
AcDbEllipse
10
155.667532
20
28.691038
30
0
11
1.09914767321884
21
1.6708902993487
31
0
210
0
220
0
230
-1
40
0.030032
41
-2.24415423648523
42
-1.71528647262872
0
ELLIPSE
5
10C
100
AcDbEntity
8
1
62
256
6
ByLayer
370
18
48
1
60
0
100
AcDbEllipse
10
153.784951
20
30.339228
30
0
11
1.76776695296645
21
-1.76776695296642
31
0
210
0
220
0
230
-1
40
0.989133
41
2.12046986247723
42
2.13287090560585
0
ELLIPSE
5
10D
100
AcDbEntity
8
1
62
256
6
ByLayer
370
18
48
1
60
0
100
AcDbEllipse
10
153.784951
20
30.339228
30
0
11
1.76776695296645
21
-1.76776695296642
31
0
210
0
220
0
230
-1
40
0.989133
41
0.0519095607717048
42
0.0996390205975378
0
ELLIPSE
5
10E
100
AcDbEntity
8
1
62
256
6
ByLayer
370
18
48
1
60
0
100
AcDbEllipse
10
155.354607
20
28.879547
30
0
11
0.964134028239091
21
1.75226869389128
31
0
210
0
220
0
230
-1
40
0.123404
41
1.77583384735709
42
2.24776789865614
0
ELLIPSE
5
10F
100
AcDbEntity
8
1
62
256
6
ByLayer
370
18
48
1
60
0
100
AcDbEllipse
10
153.784951
20
30.339228
30
0
11
1.76776695296645
21
-1.76776695296642
31
0
210
0
220
0
230
-1
40
0.989133
41
0.0996390205975378
42
0.199756485703037
0
ELLIPSE
5
110
100
AcDbEntity
8
1
62
256
6
ByLayer
370
18
48
1
60
0
100
AcDbEllipse
10
153.610965
20
30.852027
30
0
11
-1.72086773877521
21
1.7208677387752
31
0
210
0
220
0
230
-1
40
0.989133
41
-1.09575779272873
42
-0.698131700797728
0
ELLIPSE
5
111
100
AcDbEntity
8
1
62
256
6
ByLayer
370
18
48
1
60
0
100
AcDbEllipse
10
153.930124
20
35.759545
30
0
11
-1.76776695296637
21
1.76776695296637
31
0
210
0
220
0
230
-1
40
0.989133
41
-1.04629772207069
42
-0.698131700797726
0
ELLIPSE
5
112
100
AcDbEntity
8
1
62
256
6
ByLayer
370
18
48
1
60
0
100
AcDbEllipse
10
154.162842
20
38.59534
30
0
11
-1.76776695296637
21
1.76776695296637
31
0
210
0
220
0
230
-1
40
0.989133
41
-0.698131700797724
42
-0.349965679524774
0
ELLIPSE
5
113
100
AcDbEntity
8
1
62
256
6
ByLayer
370
18
48
1
60
0
100
AcDbEllipse
10
146.18008
20
33.830288
30
0
11
-2.8284271247462
21
2.82842712474618
31
0
210
0
220
0
230
-1
40
0.989133
41
-0.636256587552894
42
4.96046881486705E-05
0
ELLIPSE
5
114
100
AcDbEntity
8
1
62
256
6
ByLayer
370
18
48
1
60
0
100
AcDbEllipse
10
153.784951
20
30.339228
30
0
11
1.76776695296645
21
-1.76776695296642
31
0
210
0
220
0
230
-1
40
0.989133
41
2.13287090560585
42
2.26463189847007
0
ELLIPSE
5
115
100
AcDbEntity
8
1
62
256
6
ByLayer
370
18
48
1
60
0
100
AcDbEllipse
10
154.380154
20
30.898011
30
0
11
1.70605746060959
21
-1.70605746060957
31
0
210
0
220
0
230
-1
40
0.989133
41
-0.698131700797739
42
0.0946436679963118
0
ELLIPSE
5
116
100
AcDbEntity
8
1
62
256
6
ByLayer
370
18
48
1
60
0
100
AcDbEllipse
10
153.784951
20
30.339228
30
0
11
1.76776695296645
21
-1.76776695296642
31
0
210
0
220
0
230
-1
40
0.989133
41
-0.24110853586259
42
0.0519095607717048
0
ELLIPSE
5
117
100
AcDbEntity
8
1
62
256
6
ByLayer
370
18
48
1
60
0
100
AcDbEllipse
10
152.953263
20
29.50754
30
0
11
-1.76776695296644
21
1.76776695296643
31
0
210
0
220
0
230
-1
40
0.989133
41
1.65777925196588
42
2.90155541159907
0
ELLIPSE
5
118
100
AcDbEntity
8
1
62
256
6
ByLayer
370
18
48
1
60
0
100
AcDbEllipse
10
153.005243
20
29.559521
30
0
11
1.76776695296645
21
-1.76776695296642
31
0
210
0
220
0
230
-1
40
0.989133
41
-1.46067309711726
42
-0.224877016065647
0
ELLIPSE
5
119
100
AcDbEntity
8
1
62
256
6
ByLayer
370
18
48
1
60
0
100
AcDbEllipse
10
153.600447
20
30.118304
30
0
11
-1.76776695296637
21
1.76776695296637
31
0
210
0
220
0
230
-1
40
0.989133
41
2.44346095279207
42
2.92248847429197
0
ELLIPSE
5
11A
100
AcDbEntity
8
1
62
256
6
ByLayer
370
18
48
1
60
0
100
AcDbEllipse
10
157.856335
20
38.561277
30
0
11
-1.83847763108503
21
1.83847763108502
31
0
210
0
220
0
230
-1
40
0.989133
41
2.57573894005766
42
-1.70307431406049
0
ELLIPSE
5
11B
100
AcDbEntity
8
1
62
256
6
ByLayer
370
18
48
1
60
0
100
AcDbEllipse
10
157.908316
20
38.613258
30
0
11
1.48492424049176
21
-1.48492424049174
31
0
210
0
220
0
230
-1
40
0.989133
41
-0.541958077265922
42
1.41462270326309
0
ELLIPSE
5
11C
100
AcDbEntity
8
1
62
256
6
ByLayer
370
18
48
1
60
0
100
AcDbEllipse
10
158.098213
20
38.098213
30
0
11
1.30814754519512
21
-1.3081475451951
31
0
210
0
220
0
230
-1
40
0.989133
41
1.66381486015152
42
2.35044241943541
0
ELLIPSE
5
11D
100
AcDbEntity
8
1
62
256
6
ByLayer
370
18
48
1
60
0
100
AcDbEllipse
10
158.098213
20
38.098213
30
0
11
1.30814754519512
21
-1.3081475451951
31
0
210
0
220
0
230
-1
40
0.989133
41
-1.47777779343824
42
-0.791150234154361
0
ELLIPSE
5
11E
100
AcDbEntity
8
1
62
256
6
ByLayer
370
18
48
1
60
0
100
AcDbEllipse
10
158.28811
20
37.583168
30
0
11
1.48492424049176
21
-1.48492424049174
31
0
210
0
220
0
230
-1
40
0.989133
41
2.59963457632386
42
-1.72696995032672
0
ELLIPSE
5
11F
100
AcDbEntity
8
1
62
256
6
ByLayer
370
18
48
1
60
0
100
AcDbEllipse
10
158.046232
20
38.046232
30
0
11
-1.66170093578839
21
1.66170093578838
31
0
210
0
220
0
230
-1
40
0.989133
41
-1.50455700394469
42
-0.764371023647918
0
ELLIPSE
5
120
100
AcDbEntity
8
1
62
256
6
ByLayer
370
18
48
1
60
0
100
AcDbEllipse
10
158.236129
20
37.531187
30
0
11
-1.83847763108503
21
1.83847763108502
31
0
210
0
220
0
230
-1
40
0.989133
41
-0.565853713532133
42
1.4385183395293
0
ELLIPSE
5
121
100
AcDbEntity
8
1
62
256
6
ByLayer
370
18
48
1
60
0
100
AcDbEllipse
10
157.398907
20
38.103849
30
0
11
1.83847763108504
21
-1.83847763108501
31
0
210
0
220
0
230
-1
40
0.989133
41
2.02416358111426E-05
42
0.52528453909529
0
ELLIPSE
5
122
100
AcDbEntity
8
1
62
256
6
ByLayer
370
18
48
1
60
0
100
AcDbEllipse
10
158.046232
20
38.046232
30
0
11
-1.66170093578839
21
1.66170093578838
31
0
210
0
220
0
230
-1
40
0.989133
41
1.63703564964509
42
2.37722162994186
0
ELLIPSE
5
123
100
AcDbEntity
8
1
62
256
6
ByLayer
370
18
48
1
60
0
100
AcDbEllipse
10
157.848927
20
37.639741
30
0
11
-1.66170093578839
21
1.66170093578838
31
0
210
0
220
0
230
-1
40
0.989133
41
-0.502297863188727
42
0.0239839285460494
0
ELLIPSE
5
124
100
AcDbEntity
8
1
62
256
6
ByLayer
370
18
48
1
60
0
100
AcDbEllipse
10
156.88187
20
36.88187
30
0
11
-2.01525432638166
21
2.01525432638166
31
0
210
0
220
0
230
-1
40
0.989133
41
2.41114107468332
42
2.66131995465337
0
ELLIPSE
5
125
100
AcDbEntity
8
1
62
256
6
ByLayer
370
18
48
1
60
0
100
AcDbEllipse
10
156.88187
20
36.88187
30
0
11
-2.01525432638166
21
2.01525432638166
31
0
210
0
220
0
230
-1
40
0.989133
41
0.480291349124134
42
0.713809530977391
0
ELLIPSE
5
126
100
AcDbEntity
8
1
62
256
6
ByLayer
370
18
48
1
60
0
100
AcDbEllipse
10
152.92806
20
21.369759
30
0
11
0.72290092008018
21
-1.31431132527542
31
0
210
0
220
0
230
-1
40
0.601152
41
1.9572878284956
42
0
0
ELLIPSE
5
127
100
AcDbEntity
8
1
62
256
6
ByLayer
370
18
48
1
60
0
100
AcDbEllipse
10
152.92806
20
21.369759
30
0
11
0.72290092008018
21
-1.31431132527542
31
0
210
0
220
0
230
-1
40
0.601152
41
0
42
0.653194543164885
0
ELLIPSE
5
128
100
AcDbEntity
8
1
62
256
6
ByLayer
370
18
48
1
60
0
100
AcDbEllipse
10
145.308346
20
25.762626
30
0
11
1.09905193613081
21
-1.02082556868797
31
0
210
0
220
0
230
-1
40
0.42615
41
-1.9476932499977
42
-0.0164978434167029
0
ELLIPSE
5
129
100
AcDbEntity
8
1
62
256
6
ByLayer
370
18
48
1
60
0
100
AcDbEllipse
10
145.308346
20
25.762626
30
0
11
1.09905193613081
21
-1.02082556868797
31
0
210
0
220
0
230
-1
40
0.42615
41
2.54282118413178
42
-1.9476925429938
0
ELLIPSE
5
12A
100
AcDbEntity
8
1
62
256
6
ByLayer
370
18
48
1
60
0
100
AcDbEllipse
10
146.236891
20
33.887098
30
0
11
-2.8284271247462
21
2.82842712474618
31
0
210
0
220
0
230
-1
40
0.989133
41
-0.840332362684581
42
0
0
ELLIPSE
5
12B
100
AcDbEntity
8
1
62
256
6
ByLayer
370
18
48
1
60
0
100
AcDbEllipse
10
146.236891
20
33.887098
30
0
11
-2.8284271247462
21
2.82842712474618
31
0
210
0
220
0
230
-1
40
0.989133
41
0
42
-2.48937406839592
0
ELLIPSE
5
12C
100
AcDbEntity
8
1
62
256
6
ByLayer
370
18
48
1
60
0
100
AcDbEllipse
10
146.302902
20
33.95311
30
0
11
-2.24329626331433
21
2.24329626331432
31
0
210
0
220
0
230
-1
40
0.989133
41
-1.25777147978612
42
-1.13446411101264
0
ELLIPSE
5
12D
100
AcDbEntity
8
1
62
256
6
ByLayer
370
18
48
1
60
0
100
AcDbEllipse
10
146.302902
20
33.95311
30
0
11
-2.24329626331433
21
2.24329626331432
31
0
210
0
220
0
230
-1
40
0.989133
41
-1.13446411101264
42
0
0
ELLIPSE
5
12E
100
AcDbEntity
8
1
62
256
6
ByLayer
370
18
48
1
60
0
100
AcDbEllipse
10
146.302902
20
33.95311
30
0
11
-2.24329626331433
21
2.24329626331432
31
0
210
0
220
0
230
-1
40
0.989133
41
0
42
-1.94096960193388
0
ELLIPSE
5
12F
100
AcDbEntity
8
1
62
256
6
ByLayer
370
18
48
1
60
0
100
AcDbEllipse
10
146.302902
20
33.95311
30
0
11
-1.22474487139159
21
1.22474487139158
31
0
210
0
220
0
230
-1
40
0.989133
41
2.00712863979348
42
3.05432619099005
0
ELLIPSE
5
130
100
AcDbEntity
8
1
62
256
6
ByLayer
370
18
48
1
60
0
100
AcDbEllipse
10
146.302902
20
33.95311
30
0
11
-1.22474487139159
21
1.22474487139158
31
0
210
0
220
0
230
-1
40
0.989133
41
3.05432619099005
42
-2.18166156499293
0
ELLIPSE
5
131
100
AcDbEntity
8
1
62
256
6
ByLayer
370
18
48
1
60
0
100
AcDbEllipse
10
146.302902
20
33.95311
30
0
11
-1.22474487139159
21
1.22474487139158
31
0
210
0
220
0
230
-1
40
0.989133
41
-2.18166156499293
42
-1.13446401379632
0
ELLIPSE
5
132
100
AcDbEntity
8
1
62
256
6
ByLayer
370
18
48
1
60
0
100
AcDbEllipse
10
146.302902
20
33.95311
30
0
11
-1.22474487139159
21
1.22474487139158
31
0
210
0
220
0
230
-1
40
0.989133
41
-1.13446401379632
42
-0.0872664625997093
0
ELLIPSE
5
133
100
AcDbEntity
8
1
62
256
6
ByLayer
370
18
48
1
60
0
100
AcDbEllipse
10
146.302902
20
33.95311
30
0
11
-1.22474487139159
21
1.22474487139158
31
0
210
0
220
0
230
-1
40
0.989133
41
-0.0872664625997093
42
0.95993108859687
0
ELLIPSE
5
134
100
AcDbEntity
8
1
62
256
6
ByLayer
370
18
48
1
60
0
100
AcDbEllipse
10
146.302902
20
33.95311
30
0
11
-1.22474487139159
21
1.22474487139158
31
0
210
0
220
0
230
-1
40
0.989133
41
0.95993108859687
42
2.00712863979346
0
ELLIPSE
5
135
100
AcDbEntity
8
1
62
256
6
ByLayer
370
18
48
1
60
0
100
AcDbEllipse
10
145.783097
20
33.433305
30
0
11
-1.06066017177982
21
1.06066017177982
31
0
210
0
220
0
230
-1
40
0.989133
41
0.134739134127185
42
2.95461330849735
0
ELLIPSE
5
136
100
AcDbEntity
8
1
62
256
6
ByLayer
370
18
48
1
60
0
100
AcDbEllipse
10
145.887058
20
33.537266
30
0
11
1.06066017177983
21
-1.06066017177981
31
0
210
0
220
0
230
-1
40
0.989133
41
-0.61086523819801
42
-0.118551489237475
0
ELLIPSE
5
137
100
AcDbEntity
8
1
62
256
6
ByLayer
370
18
48
1
60
0
100
AcDbEllipse
10
145.887058
20
33.537266
30
0
11
1.06066017177983
21
-1.06066017177981
31
0
210
0
220
0
230
-1
40
0.989133
41
-1.65806278939461
42
-0.61086523819801
0
ELLIPSE
5
138
100
AcDbEntity
8
1
62
256
6
ByLayer
370
18
48
1
60
0
100
AcDbEllipse
10
145.887058
20
33.537266
30
0
11
1.06066017177983
21
-1.06066017177981
31
0
210
0
220
0
230
-1
40
0.989133
41
-2.7052603405912
42
-1.65806278939461
0
ELLIPSE
5
139
100
AcDbEntity
8
1
62
256
6
ByLayer
370
18
48
1
60
0
100
AcDbEllipse
10
145.887058
20
33.537266
30
0
11
1.06066017177983
21
-1.06066017177981
31
0
210
0
220
0
230
-1
40
0.989133
41
-3.09553807364159
42
-2.7052603405912
0
ELLIPSE
5
13A
100
AcDbEntity
8
1
62
256
6
ByLayer
370
18
48
1
60
0
100
AcDbEllipse
10
152.672527
20
43.656969
30
0
11
-0.282842712474629
21
0.282842712474628
31
0
210
0
220
0
230
-1
40
0.989133
41
-0.698131700797765
42
0.698131700797678
0
ELLIPSE
5
13B
100
AcDbEntity
8
1
62
256
6
ByLayer
370
18
48
1
60
0
100
AcDbEllipse
10
152.118945
20
32.118945
30
0
11
-0.561266007566823
21
0.561266007566821
31
0
210
0
220
0
230
-1
40
0.989133
41
-2.44346095279202
42
-0.698131700797721
0
ELLIPSE
5
13C
100
AcDbEntity
8
1
62
256
6
ByLayer
370
18
48
1
60
0
100
AcDbEllipse
10
163.656969
20
32.672527
30
0
11
-0.282842712474629
21
0.282842712474628
31
0
210
0
220
0
230
-1
40
0.989133
41
2.44346095279203
42
-2.44346095279211
0
ELLIPSE
5
13D
100
AcDbEntity
8
1
62
256
6
ByLayer
370
18
48
1
60
0
100
AcDbEllipse
10
164.210551
20
44.210551
30
0
11
-0.561266007566823
21
0.561266007566821
31
0
210
0
220
0
230
-1
40
0.989133
41
0.698131700797771
42
2.44346095279203
0
ELLIPSE
5
13E
100
AcDbEntity
8
1
62
256
6
ByLayer
370
18
48
1
60
0
100
AcDbEllipse
10
158.164748
20
38.164748
30
0
11
-1.8243354954613
21
1.82433549546129
31
0
210
0
220
0
230
-1
40
0.989133
41
0
42
6.28318530717959
0
ELLIPSE
5
13F
100
AcDbEntity
8
1
62
256
6
ByLayer
370
18
48
1
60
0
100
AcDbEllipse
10
151.62409
20
31.62409
30
0
11
-0.561266007566823
21
0.561266007566821
31
0
210
0
220
0
230
-1
40
0.989133
41
-2.44346095279207
42
-1.77175407272784
0
ELLIPSE
5
140
100
AcDbEntity
8
1
62
256
6
ByLayer
370
18
48
1
60
0
100
AcDbEllipse
10
157.669894
20
37.669894
30
0
11
-1.8243354954613
21
1.82433549546129
31
0
210
0
220
0
230
-1
40
0.989133
41
2.4108777635271
42
3.00414773213261
0
ELLIPSE
5
141
100
AcDbEntity
8
1
62
256
6
ByLayer
370
18
48
1
60
0
100
AcDbEllipse
10
157.669894
20
37.669894
30
0
11
-1.8243354954613
21
1.82433549546129
31
0
210
0
220
0
230
-1
40
0.989133
41
0.137542820265515
42
1.09985200099588
0
ELLIPSE
5
142
100
AcDbEntity
8
1
62
256
6
ByLayer
370
18
48
1
60
0
100
AcDbEllipse
10
152.177673
20
43.162115
30
0
11
-0.282842712474629
21
0.282842712474628
31
0
210
0
220
0
230
-1
40
0.989133
41
-0.698131700797678
42
-2.88106631069981E-08
0
ELLIPSE
5
143
100
AcDbEntity
8
1
62
256
6
ByLayer
370
18
48
1
60
0
100
AcDbEllipse
10
163.162115
20
32.177673
30
0
11
-0.282842712474629
21
0.282842712474628
31
0
210
0
220
0
230
-1
40
0.989133
41
-3.14159262477911
42
-2.44346095279203
0
ELLIPSE
5
144
100
AcDbEntity
8
1
62
256
6
ByLayer
370
18
48
1
60
0
100
AcDbEllipse
10
138.681071
20
29.930102
30
0
11
1.07672120930263
21
-1.04435216159966
31
0
210
0
220
0
230
-1
40
0.384238
41
2.5285168727323
42
0
0
ELLIPSE
5
145
100
AcDbEntity
8
1
62
256
6
ByLayer
370
18
48
1
60
0
100
AcDbEllipse
10
138.681071
20
29.930102
30
0
11
1.07672120930263
21
-1.04435216159966
31
0
210
0
220
0
230
-1
40
0.384238
41
0
42
0.0858305260510254
0
POINT
5
6C
100
AcDbEntity
8
80
62
256
6
ByLayer
370
18
48
1
60
0
100
AcDbPoint
10
0
20
0
30
0
39
0
210
0
220
0
230
1
50
360
0
POINT
5
6E
100
AcDbEntity
8
81
62
256
6
ByLayer
370
18
48
1
60
0
100
AcDbPoint
10
164.99736
20
45.067928
30
0
39
0
210
0
220
0
230
1
50
360
0
SPLINE
5
146
100
AcDbEntity
8
1
62
256
6
ByLayer
370
18
48
1
60
0
100
AcDbSpline
70
4
71
3
72
32
73
28
40
0
40
0
40
0
40
0
40
0.250000000000011
40
0.250000000000011
40
0.375000000000012
40
0.375000000000012
40
0.437500000000016
40
0.437500000000016
40
0.50000000000002
40
0.50000000000002
40
0.625000000000022
40
0.625000000000022
40
0.687500000000023
40
0.687500000000023
40
0.750000000000024
40
0.750000000000024
40
0.812500000000025
40
0.812500000000025
40
0.843750000000023
40
0.843750000000023
40
0.875000000000021
40
0.875000000000021
40
0.937500000000011
40
0.937500000000011
40
0.968750000000006
40
0.968750000000006
40
1
40
1
40
1
40
1
41
1
10
10.1056624327025
20
29.9139548464692
30
0
41
1
10
10.1212498345487
20
29.9327542695086
30
0
41
1
10
10.1399018475135
20
29.9510098933134
30
0
41
1
10
10.1740902691451
20
29.9774133319729
30
0
41
1
10
10.1865318440057
20
29.9860499646857
30
0
41
1
10
10.207158418293
20
29.99871540223
30
0
41
1
10
10.2143631613259
20
30.0028887514665
30
0
41
1
10
10.2295303543197
20
30.0111275878528
30
0
41
1
10
10.2375038868186
20
30.0151973377026
30
0
41
1
10
10.2625095528537
20
30.0271090091069
30
0
41
1
10
10.2806617049328
20
30.0346937657147
30
0
41
1
10
10.3109602056391
20
30.0453642012993
30
0
41
1
10
10.3215875864294
20
30.0488020840794
30
0
41
1
10
10.343722024187
20
30.0552856889208
30
0
41
1
10
10.3552649931436
20
30.0583455135273
30
0
41
1
10
10.3794828926306
20
30.0640378913831
30
0
41
1
10
10.3921560258321
20
30.0666711051736
30
0
41
1
10
10.4122177999419
20
30.0702282001222
30
0
41
1
10
10.4191127836332
20
30.0713523776806
30
0
41
1
10
10.4330939182297
20
30.0734220792401
30
0
41
1
10
10.440186363189
20
30.0743696982573
30
0
41
1
10
10.4617882298584
20
30.0769355687268
30
0
41
1
10
10.4766203225409
20
30.0782784555612
30
0
41
1
10
10.4996178076424
20
30.0796561130284
30
0
41
1
10
10.5074080928858
20
30.0800074516349
30
0
41
1
10
10.5229918398928
20
30.0804746871258
30
0
41
1
10
10.5308166515932
20
30.080592760317
30
0
41
1
10
10.5386751345946
20
30.080592760317
30
0
0
SPLINE
5
147
100
AcDbEntity
8
1
62
256
6
ByLayer
370
18
48
1
60
0
100
AcDbSpline
70
4
71
3
72
30
73
26
40
0
40
0
40
0
40
0
40
0.0625000000000061
40
0.0625000000000061
40
0.0937500000000057
40
0.0937500000000057
40
0.125000000000005
40
0.125000000000005
40
0.250000000000009
40
0.250000000000009
40
0.312500000000008
40
0.312500000000008
40
0.375000000000008
40
0.375000000000008
40
0.437500000000007
40
0.437500000000007
40
0.500000000000006
40
0.500000000000006
40
0.625000000000005
40
0.625000000000005
40
0.750000000000003
40
0.750000000000003
40
0.875000000000002
40
0.875000000000002
40
1
40
1
40
1
40
1
41
1
10
10.538675134595
20
-30.0805927603168
30
0
41
1
10
10.522935553639
20
-30.0805927603168
30
0
41
1
10
10.5074817098166
20
-30.0801205034911
30
0
41
1
10
10.4846917876899
20
-30.0787652114229
30
0
41
1
10
10.477160469917
20
-30.078205309348
30
0
41
1
10
10.4622240762521
20
-30.0768761478224
30
0
41
1
10
10.4547836182248
20
-30.0761022248722
30
0
41
1
10
10.4184736929998
20
-30.0717959485604
30
0
41
1
10
10.3920418953325
20
-30.0669872793664
30
0
41
1
10
10.3551393132292
20
-30.0583172600358
30
0
41
1
10
10.3434986504132
20
-30.0552244086804
30
0
41
1
10
10.3213802035127
20
-30.0487371057381
30
0
41
1
10
10.3108832461792
20
-30.0453372280744
30
0
41
1
10
10.2908250578406
20
-30.0382729348067
30
0
41
1
10
10.2812647717657
20
-30.0346082702026
30
0
41
1
10
10.2629502341259
20
-30.0270468182508
30
0
41
1
10
10.2541741206995
20
-30.0231382884604
30
0
41
1
10
10.2291778756399
20
-30.0112312950132
30
0
41
1
10
10.2141982927472
20
-30.0030284643034
30
0
41
1
10
10.1867623667102
20
-29.9862010424073
30
0
41
1
10
10.1743150294997
20
-29.9775752500988
30
0
41
1
10
10.1514756223506
20
-29.9599596837527
30
0
41
1
10
10.1410872044275
20
-29.9509694256369
30
0
41
1
10
10.1220682130168
20
-29.9326601869322
30
0
41
1
10
10.1134590635876
20
-29.923358091714
30
0
41
1
10
10.1056624327026
20
-29.9139548464691
30
0
0
SPLINE
5
148
100
AcDbEntity
8
1
62
256
6
ByLayer
370
18
48
1
60
0
100
AcDbSpline
70
4
71
3
72
30
73
26
40
0
40
0
40
0
40
0
40
0.0624999999999918
40
0.0624999999999918
40
0.0937499999999917
40
0.0937499999999917
40
0.124999999999992
40
0.124999999999992
40
0.249999999999993
40
0.249999999999993
40
0.312499999999992
40
0.312499999999992
40
0.37499999999999
40
0.37499999999999
40
0.437499999999989
40
0.437499999999989
40
0.499999999999988
40
0.499999999999988
40
0.624999999999991
40
0.624999999999991
40
0.749999999999994
40
0.749999999999994
40
0.874999999999997
40
0.874999999999997
40
1
40
1
40
1
40
1
41
1
10
13.461324865405
20
30.080592760317
30
0
41
1
10
13.4770644463611
20
30.080592760317
30
0
41
1
10
13.4925182901834
20
30.0801205034906
30
0
41
1
10
13.5153082123101
20
30.0787652114224
30
0
41
1
10
13.5228395300831
20
30.0782053093475
30
0
41
1
10
13.5377759237479
20
30.0768761478219
30
0
41
1
10
13.545216381775
20
30.0761022248717
30
0
41
1
10
13.581526307
20
30.0717959485599
30
0
41
1
10
13.6079581046674
20
30.066987279366
30
0
41
1
10
13.6448606867706
20
30.0583172600354
30
0
41
1
10
13.6565013495865
20
30.05522440868
30
0
41
1
10
13.678619796487
20
30.0487371057377
30
0
41
1
10
13.6891167538206
20
30.045337228074
30
0
41
1
10
13.7091749421592
20
30.0382729348063
30
0
41
1
10
13.7187352282341
20
30.0346082702023
30
0
41
1
10
13.7370497658739
20
30.0270468182505
30
0
41
1
10
13.7458258793002
20
30.0231382884601
30
0
41
1
10
13.7708221243598
20
30.0112312950128
30
0
41
1
10
13.7858017072525
20
30.0030284643031
30
0
41
1
10
13.8132376332896
20
29.986201042407
30
0
41
1
10
13.8256849705001
20
29.9775752500984
30
0
41
1
10
13.8485243776492
20
29.9599596837524
30
0
41
1
10
13.8589127955723
20
29.9509694256366
30
0
41
1
10
13.877931786983
20
29.9326601869319
30
0
41
1
10
13.8865409364122
20
29.9233580917139
30
0
41
1
10
13.8943375672972
20
29.9139548464691
30
0
0
SPLINE
5
149
100
AcDbEntity
8
1
62
256
6
ByLayer
370
18
48
1
60
0
100
AcDbSpline
70
4
71
3
72
32
73
28
40
0
40
0
40
0
40
0
40
0.25
40
0.25
40
0.374999999999995
40
0.374999999999995
40
0.437499999999996
40
0.437499999999996
40
0.499999999999997
40
0.499999999999997
40
0.625000000000003
40
0.625000000000003
40
0.687500000000004
40
0.687500000000004
40
0.750000000000006
40
0.750000000000006
40
0.812500000000007
40
0.812500000000007
40
0.843750000000005
40
0.843750000000005
40
0.875000000000003
40
0.875000000000003
40
0.937500000000002
40
0.937500000000002
40
0.968750000000001
40
0.968750000000001
40
1
40
1
40
1
40
1
41
1
10
13.8943375672973
20
9.86941261896621
30
0
41
1
10
13.8787501654511
20
9.81243201498808
30
0
41
1
10
13.8600981524865
20
9.7565502308297
30
0
41
1
10
13.825909730855
20
9.67499387250788
30
0
41
1
10
13.8134681559943
20
9.64819007031201
30
0
41
1
10
13.7928415817071
20
9.60870778228673
30
0
41
1
10
13.7856368386741
20
9.59566828989804
30
0
41
1
10
13.7704696456804
20
9.56986960560326
30
0
41
1
10
13.7624961131815
20
9.55709686534368
30
0
41
1
10
13.7374904471464
20
9.51963294536125
30
0
41
1
10
13.7193382950673
20
9.49566900868388
30
0
41
1
10
13.689039794361
20
9.46183015552268
30
0
41
1
10
13.6784124135706
20
9.45090526429325
30
0
41
1
10
13.6562779758131
20
9.43026612350758
30
0
41
1
10
13.6447350068564
20
9.42050719110836
30
0
41
1
10
13.6205171073694
20
9.40232505361251
30
0
41
1
10
13.607843974168
20
9.39389972204378
30
0
41
1
10
13.5877822000581
20
9.38250456041433
30
0
41
1
10
13.5808872163667
20
9.37890069603387
30
0
41
1
10
13.5669060817703
20
9.37226208194016
30
0
41
1
10
13.559813636811
20
9.36922064667911
30
0
41
1
10
13.5382117701416
20
9.36098178019478
30
0
41
1
10
13.5233796774591
20
9.35666472180202
30
0
41
1
10
13.5003821923576
20
9.35223451981219
30
0
41
1
10
13.4925919071141
20
9.35110433740221
30
0
41
1
10
13.4770081601071
20
9.3496012330248
30
0
41
1
10
13.4691833484066
20
9.34922131452518
30
0
41
1
10
13.4613248654051
20
9.34922131452518
30
0
0
SPLINE
5
14A
100
AcDbEntity
8
1
62
256
6
ByLayer
370
18
48
1
60
0
100
AcDbSpline
70
4
71
3
72
32
73
28
40
0
40
0
40
0
40
0
40
0.250000000000008
40
0.250000000000008
40
0.37500000000001
40
0.37500000000001
40
0.437500000000005
40
0.437500000000005
40
0.499999999999999
40
0.499999999999999
40
0.62499999999999
40
0.62499999999999
40
0.687499999999989
40
0.687499999999989
40
0.749999999999989
40
0.749999999999989
40
0.812499999999988
40
0.812499999999988
40
0.843749999999988
40
0.843749999999988
40
0.874999999999988
40
0.874999999999988
40
0.93749999999999
40
0.93749999999999
40
0.968749999999995
40
0.968749999999995
40
1
40
1
40
1
40
1
41
1
10
10.1056624327026
20
-9.86941261896615
30
0
41
1
10
10.1212498345488
20
-9.81243201498802
30
0
41
1
10
10.1399018475135
20
-9.75655023082967
30
0
41
1
10
10.174090269145
20
-9.67499387250786
30
0
41
1
10
10.1865318440057
20
-9.64819007031196
30
0
41
1
10
10.2071584182929
20
-9.60870778228667
30
0
41
1
10
10.2143631613258
20
-9.59566828989799
30
0
41
1
10
10.2295303543196
20
-9.56986960560323
30
0
41
1
10
10.2375038868184
20
-9.55709686534362
30
0
41
1
10
10.2625095528535
20
-9.5196329453612
30
0
41
1
10
10.2806617049327
20
-9.49566900868382
30
0
41
1
10
10.3109602056389
20
-9.46183015552262
30
0
41
1
10
10.3215875864293
20
-9.4509052642932
30
0
41
1
10
10.3437220241868
20
-9.43026612350752
30
0
41
1
10
10.3552649931435
20
-9.42050719110827
30
0
41
1
10
10.3794828926305
20
-9.40232505361243
30
0
41
1
10
10.3921560258319
20
-9.3938997220437
30
0
41
1
10
10.4122177999418
20
-9.38250456041422
30
0
41
1
10
10.4191127836332
20
-9.37890069603375
30
0
41
1
10
10.4330939182296
20
-9.37226208194002
30
0
41
1
10
10.440186363189
20
-9.369220646679
30
0
41
1
10
10.4617882298583
20
-9.36098178019463
30
0
41
1
10
10.4766203225408
20
-9.35666472180188
30
0
41
1
10
10.4996178076424
20
-9.35223451981201
30
0
41
1
10
10.5074080928859
20
-9.35110433740206
30
0
41
1
10
10.5229918398928
20
-9.34960123302463
30
0
41
1
10
10.5308166515933
20
-9.34922131452507
30
0
41
1
10
10.5386751345948
20
-9.34922131452507
30
0
0
SPLINE
5
14B
100
AcDbEntity
8
1
62
256
6
ByLayer
370
18
48
1
60
0
100
AcDbSpline
70
4
71
3
72
30
73
26
40
0
40
0
40
0
40
0
40
0.0625000000000001
40
0.0625000000000001
40
0.0937500000000008
40
0.0937500000000008
40
0.125000000000001
40
0.125000000000001
40
0.250000000000012
40
0.250000000000012
40
0.312500000000012
40
0.312500000000012
40
0.375000000000012
40
0.375000000000012
40
0.437500000000012
40
0.437500000000012
40
0.500000000000013
40
0.500000000000013
40
0.62500000000001
40
0.62500000000001
40
0.750000000000006
40
0.750000000000006
40
0.875000000000003
40
0.875000000000003
40
1
40
1
40
1
40
1
41
1
10
13.4613248654051
20
-9.3492213145251
30
0
41
1
10
13.4770644463612
20
-9.3492213145251
30
0
41
1
10
13.4925182901836
20
-9.35074113394256
30
0
41
1
10
13.5153082123103
20
-9.35509944739999
30
0
41
1
10
13.5228395300832
20
-9.35689961322635
30
0
41
1
10
13.537775923748
20
-9.3611711976568
30
0
41
1
10
13.5452163817754
20
-9.36365758390244
30
0
41
1
10
13.5815263070004
20
-9.37748487924938
30
0
41
1
10
13.6079581046677
20
-9.39290424748282
30
0
41
1
10
13.644860686771
20
-9.42059748954551
30
0
41
1
10
13.656501349587
20
-9.43046143490403
30
0
41
1
10
13.6786197964874
20
-9.45111186483311
30
0
41
1
10
13.689116753821
20
-9.46191570446769
30
0
41
1
10
13.7091749421596
20
-9.48431848058792
30
0
41
1
10
13.7187352282345
20
-9.49591822570943
30
0
41
1
10
13.7370497658743
20
-9.51980127252963
30
0
41
1
10
13.7458258793006
20
-9.53212142663457
30
0
41
1
10
13.7708221243603
20
-9.56957065273517
30
0
41
1
10
13.7858017072529
20
-9.59526142127658
30
0
41
1
10
13.81323763329
20
-9.64772023935035
30
0
41
1
10
13.8256849705004
20
-9.67449223197158
30
0
41
1
10
13.8485243776495
20
-9.72890711075632
30
0
41
1
10
13.8589127955726
20
-9.75655159685448
30
0
41
1
10
13.8779317869833
20
-9.81257982037158
30
0
41
1
10
13.8865409364125
20
-9.8409116063402
30
0
41
1
10
13.8943375672975
20
-9.86941261896615
30
0
0
SPLINE
5
14C
100
AcDbEntity
8
1
62
256
6
ByLayer
370
18
48
1
60
0
100
AcDbSpline
70
4
71
3
72
32
73
28
40
0
40
0
40
0
40
0
40
0.250000000000004
40
0.250000000000004
40
0.375000000000008
40
0.375000000000008
40
0.437500000000007
40
0.437500000000007
40
0.500000000000006
40
0.500000000000006
40
0.625000000000009
40
0.625000000000009
40
0.687500000000011
40
0.687500000000011
40
0.750000000000013
40
0.750000000000013
40
0.812500000000015
40
0.812500000000015
40
0.843750000000013
40
0.843750000000013
40
0.875000000000011
40
0.875000000000011
40
0.937500000000005
40
0.937500000000005
40
0.968750000000003
40
0.968750000000003
40
1
40
1
40
1
40
1
41
1
10
13.8943375672975
20
-29.9139548464691
30
0
41
1
10
13.8787501654514
20
-29.9327542695084
30
0
41
1
10
13.8600981524868
20
-29.9510098933137
30
0
41
1
10
13.8259097308553
20
-29.9774133319732
30
0
41
1
10
13.8134681559946
20
-29.986049964686
30
0
41
1
10
13.7928415817074
20
-29.9987154022303
30
0
41
1
10
13.7856368386745
20
-30.0028887514668
30
0
41
1
10
13.7704696456808
20
-30.0111275878531
30
0
41
1
10
13.7624961131818
20
-30.015197337703
30
0
41
1
10
13.7374904471468
20
-30.0271090091073
30
0
41
1
10
13.7193382950676
20
-30.034693765715
30
0
41
1
10
13.6890397943614
20
-30.0453642012997
30
0
41
1
10
13.6784124135709
20
-30.0488020840798
30
0
41
1
10
13.6562779758135
20
-30.0552856889212
30
0
41
1
10
13.6447350068568
20
-30.0583455135278
30
0
41
1
10
13.6205171073698
20
-30.0640378913836
30
0
41
1
10
13.6078439741684
20
-30.0666711051741
30
0
41
1
10
13.5877822000585
20
-30.0702282001227
30
0
41
1
10
13.580887216367
20
-30.0713523776811
30
0
41
1
10
13.5669060817706
20
-30.0734220792407
30
0
41
1
10
13.5598136368112
20
-30.0743696982578
30
0
41
1
10
13.5382117701418
20
-30.0769355687274
30
0
41
1
10
13.5233796774594
20
-30.0782784555617
30
0
41
1
10
13.5003821923578
20
-30.0796561130289
30
0
41
1
10
13.4925919071142
20
-30.0800074516355
30
0
41
1
10
13.4770081601072
20
-30.0804746871264
30
0
41
1
10
13.4691833484067
20
-30.080592760317
30
0
41
1
10
13.4613248654053
20
-30.0805927603169
30
0
0
SPLINE
5
14D
100
AcDbEntity
8
1
62
256
6
ByLayer
370
18
48
1
60
0
100
AcDbSpline
70
4
71
3
72
30
73
26
40
0
40
0
40
0
40
0
40
0.0624999999999962
40
0.0624999999999962
40
0.0937499999999937
40
0.0937499999999937
40
0.124999999999991
40
0.124999999999991
40
0.249999999999991
40
0.249999999999991
40
0.312499999999991
40
0.312499999999991
40
0.37499999999999
40
0.37499999999999
40
0.43749999999999
40
0.43749999999999
40
0.499999999999989
40
0.499999999999989
40
0.624999999999992
40
0.624999999999992
40
0.749999999999995
40
0.749999999999995
40
0.874999999999997
40
0.874999999999997
40
1
40
1
40
1
40
1
41
1
10
10.5386751345948
20
9.34922131452527
30
0
41
1
10
10.5229355536388
20
9.34922131452527
30
0
41
1
10
10.5074817098164
20
9.35074113394296
30
0
41
1
10
10.4846917876898
20
9.35509944740039
30
0
41
1
10
10.4771604699168
20
9.35689961322677
30
0
41
1
10
10.462224076252
20
9.36117119765723
30
0
41
1
10
10.4547836182248
20
9.36365758390281
30
0
41
1
10
10.4184736929998
20
9.37748487924972
30
0
41
1
10
10.3920418953324
20
9.39290424748316
30
0
41
1
10
10.3551393132291
20
9.42059748954586
30
0
41
1
10
10.3434986504132
20
9.43046143490429
30
0
41
1
10
10.3213802035128
20
9.45111186483334
30
0
41
1
10
10.3108832461792
20
9.46191570446791
30
0
41
1
10
10.2908250578406
20
9.48431848058814
30
0
41
1
10
10.2812647717657
20
9.49591822570969
30
0
41
1
10
10.2629502341259
20
9.51980127252986
30
0
41
1
10
10.2541741206996
20
9.53212142663477
30
0
41
1
10
10.2291778756399
20
9.56957065273537
30
0
41
1
10
10.2141982927472
20
9.59526142127675
30
0
41
1
10
10.1867623667102
20
9.64772023935052
30
0
41
1
10
10.1743150294997
20
9.67449223197178
30
0
41
1
10
10.1514756223506
20
9.7289071107565
30
0
41
1
10
10.1410872044275
20
9.75655159685465
30
0
41
1
10
10.1220682130168
20
9.81257982037175
30
0
41
1
10
10.1134590635875
20
9.84091160634026
30
0
41
1
10
10.1056624327025
20
9.86941261896621
30
0
0
SPLINE
5
14E
100
AcDbEntity
8
1
62
256
6
ByLayer
370
18
48
1
60
0
100
AcDbSpline
70
4
71
3
72
36
73
32
40
0
40
0
40
0
40
0
40
0.0625
40
0.0625
40
0.125
40
0.125
40
0.1875
40
0.1875
40
0.25
40
0.25
40
0.3125
40
0.3125
40
0.375
40
0.375
40
0.4375
40
0.4375
40
0.5
40
0.5
40
0.5625
40
0.5625
40
0.578125
40
0.578125
40
0.59375
40
0.59375
40
0.624999999999998
40
0.624999999999998
40
0.749999999999999
40
0.749999999999999
40
0.874999999999999
40
0.874999999999999
40
1
40
1
40
1
40
1
41
1
10
124.8
20
19.9283326270916
30
0
41
1
10
125.049567283657
20
19.9932693544708
30
0
41
1
10
125.295588762405
20
20.0690358432899
30
0
41
1
10
125.781263979417
20
20.2400174685826
30
0
41
1
10
126.020916504994
20
20.335236308902
30
0
41
1
10
126.494420621646
20
20.5433914721419
30
0
41
1
10
126.728271384293
20
20.6563303252869
30
0
41
1
10
127.190615205679
20
20.8985717787792
30
0
41
1
10
127.416727121386
20
21.0266151466097
30
0
41
1
10
127.85999105346
20
21.294915013172
30
0
41
1
10
128.077144222881
20
21.4351780582807
30
0
41
1
10
128.503379342514
20
21.7267205597883
30
0
41
1
10
128.712459227441
20
21.8780028350966
30
0
41
1
10
129.123207633437
20
22.1906831600917
30
0
41
1
10
129.324874761207
20
22.3520831114925
30
0
41
1
10
129.721287763298
20
22.6843298367236
30
0
41
1
10
129.916032682976
20
22.8551779135454
30
0
41
1
10
130.298956047995
20
23.2058366514226
30
0
41
1
10
130.487133839056
20
23.385648205504
30
0
41
1
10
130.718403969592
20
23.6158068827649
30
0
41
1
10
130.764460141421
20
23.662108669624
30
0
41
1
10
130.856179629544
20
23.7552484520663
30
0
41
1
10
130.901860564911
20
23.802105072972
30
0
41
1
10
131.038049851883
20
23.9431943073086
30
0
41
1
10
131.127779117175
20
24.0380198723145
30
0
41
1
10
131.571258292946
20
24.5158694484617
30
0
41
1
10
131.909583183722
20
24.9100036609049
30
0
41
1
10
132.555830289637
20
25.7201702650439
30
0
41
1
10
132.863734319555
20
26.136215755035
30
0
41
1
10
133.450017127247
20
26.9895729311802
30
0
41
1
10
133.728388447529
20
27.4268899887524
30
0
41
1
10
133.991833109797
20
27.8749582919295
30
0
0
SPLINE
5
14F
100
AcDbEntity
8
1
62
256
6
ByLayer
370
18
48
1
60
0
100
AcDbSpline
70
4
71
3
72
8
73
4
40
0
40
0
40
0
40
0
40
1
40
1
40
1
40
1
41
1
10
134.80702064716
20
29.1942393769104
30
0
41
1
10
134.526198467144
20
28.7615084597558
30
0
41
1
10
134.254508327154
20
28.3217179184651
30
0
41
1
10
133.991833109797
20
27.8749582919295
30
0
0
SPLINE
5
150
100
AcDbEntity
8
1
62
256
6
ByLayer
370
18
48
1
60
0
100
AcDbSpline
70
4
71
3
72
8
73
4
40
0
40
0
40
0
40
0
40
1
40
1
40
1
40
1
41
1
10
133.53483521224
20
34.764652039999
30
0
41
1
10
133.682565819925
20
34.8164390380722
30
0
41
1
10
133.835948663738
20
34.8671318144962
30
0
41
1
10
133.991833109797
20
34.9173403034144
30
0
0
SPLINE
5
151
100
AcDbEntity
8
1
62
256
6
ByLayer
370
18
48
1
60
0
100
AcDbSpline
70
4
71
3
72
22
73
18
40
0
40
0
40
0
40
0
40
0.191557282914469
40
0.191557282914469
40
0.383114565828938
40
0.383114565828938
40
0.478893207286169
40
0.478893207286169
40
0.526782528014784
40
0.526782528014784
40
0.574671848743399
40
0.574671848743399
40
0.766229131657864
40
0.766229131657864
40
0.957786414572329
40
0.957786414572329
40
1
40
1
40
1
40
1
41
1
10
133.991833109797
20
35.5580111622703
30
0
41
1
10
133.943375389652
20
35.4940260950896
30
0
41
1
10
133.897129939211
20
35.4331740552342
30
0
41
1
10
133.809564855545
20
35.3174695772398
30
0
41
1
10
133.768241820069
20
35.2626160856463
30
0
41
1
10
133.710592278947
20
35.1849067134897
30
0
41
1
10
133.69210132617
20
35.1597682787432
30
0
41
1
10
133.665568309209
20
35.1232470408915
30
0
41
1
10
133.656940575942
20
35.1112925572286
30
0
41
1
10
133.640240850855
20
35.0879751664843
30
0
41
1
10
133.632152328301
20
35.0765895558278
30
0
41
1
10
133.593038563071
20
35.0210191582659
30
0
41
1
10
133.565982145302
20
34.9808846071302
30
0
41
1
10
133.521179456171
20
34.9094196254165
30
0
41
1
10
133.5034269645
20
34.8780832718827
30
0
41
1
10
133.488278905595
20
34.8457068598103
30
0
41
1
10
133.48580050355
20
34.8400848790712
30
0
41
1
10
133.483607129785
20
34.8347437946394
30
0
0
SPLINE
5
152
100
AcDbEntity
8
1
62
256
6
ByLayer
370
18
48
1
60
0
100
AcDbSpline
70
4
71
3
72
12
73
8
40
0
40
0
40
0
40
0
40
0.109403020951366
40
0.109403020951366
40
0.406268680634245
40
0.406268680634245
40
1
40
1
40
1
40
1
41
1
10
133.49103829883
20
34.7577047655828
30
0
41
1
10
133.492193661512
20
34.7575007754147
30
0
41
1
10
133.493399075966
20
34.7573464366277
30
0
41
1
10
133.498061921821
20
34.7569588713626
30
0
41
1
10
133.501843327378
20
34.7570453392407
30
0
41
1
10
133.514215159519
20
34.7584149386701
30
0
41
1
10
133.523852759409
20
34.7608021386646
30
0
41
1
10
133.534835212241
20
34.7646520399989
30
0
0
SPLINE
5
153
100
AcDbEntity
8
SK1
62
256
6
ByLayer
370
18
48
1
60
0
100
AcDbSpline
70
4
71
3
72
51
73
47
40
0
40
0
40
0
40
0
40
0.124999999999999
40
0.124999999999999
40
0.249999999999999
40
0.249999999999999
40
0.374999999999998
40
0.374999999999998
40
0.499999999999998
40
0.499999999999998
40
0.562499999999998
40
0.562499999999998
40
0.624999999999999
40
0.624999999999999
40
0.6875
40
0.6875
40
0.71875
40
0.71875
40
0.749999999999999
40
0.749999999999999
40
0.781249999999999
40
0.781249999999999
40
0.812499999999999
40
0.812499999999999
40
0.828124999999999
40
0.828124999999999
40
0.843749999999999
40
0.843749999999999
40
0.859374999999999
40
0.859374999999999
40
0.874999999999999
40
0.874999999999999
40
0.906249999999999
40
0.906249999999999
40
0.914062499999999
40
0.914062499999999
40
0.921874999999999
40
0.937499999999999
40
0.937499999999999
40
0.953124999999999
40
0.953124999999999
40
0.96875
40
0.96875
40
0.984375
40
0.984375
40
1
40
1
40
1
40
1
41
1
10
-1.30710678118649
20
-4.81101329740284
30
0
41
1
10
-1.29244176463851
20
-4.89398769272972
30
0
41
1
10
-1.27676215781616
20
-4.97650730648715
30
0
41
1
10
-1.2429391090547
20
-5.1405796237085
30
0
41
1
10
-1.22479989232232
20
-5.22213302869974
30
0
41
1
10
-1.18541598952268
20
-5.38418040833488
30
0
41
1
10
-1.16417036536927
20
-5.46471422466459
30
0
41
1
10
-1.11756232853276
20
-5.62439574156326
30
0
41
1
10
-1.09229336045291
20
-5.70330762453324
30
0
41
1
10
-1.05010359684758
20
-5.81986141651848
30
0
41
1
10
-1.03531850251795
20
-5.85840789068209
30
0
41
1
10
-1.00391088700417
20
-5.93476506270241
30
0
41
1
10
-0.987293898279006
20
-5.97257758781302
30
0
41
1
10
-0.951595196520543
20
-6.0472637337171
30
0
41
1
10
-0.932528346395458
20
-6.08414226541717
30
0
41
1
10
-0.901226529888987
20
-6.1384774249596
30
0
41
1
10
-0.890337486882061
20
-6.1564237739797
30
0
41
1
10
-0.867394264014649
20
-6.19190207919007
30
0
41
1
10
-0.855291918076176
20
-6.20949944548866
30
0
41
1
10
-0.829871023152464
20
-6.24369652170466
30
0
41
1
10
-0.816547704376887
20
-6.26031927551793
30
0
41
1
10
-0.788266799301653
20
-6.29230864344504
30
0
41
1
10
-0.773317167670115
20
-6.30768123676506
30
0
41
1
10
-0.749143173439933
20
-6.32940641252944
30
0
41
1
10
-0.740790749867045
20
-6.33642372474341
30
0
41
1
10
-0.723348711229221
20
-6.349898402848
30
0
41
1
10
-0.714202961865965
20
-6.35639098127996
30
0
41
1
10
-0.695295302950541
20
-6.36844133558418
30
0
41
1
10
-0.685541105622633
20
-6.37400249775203
30
0
41
1
10
-0.665302713720763
20
-6.38399905762665
30
0
41
1
10
-0.654760238829766
20
-6.38845544503326
30
0
41
1
10
-0.622158748113918
20
-6.39958064489673
30
0
41
1
10
-0.599752058371308
20
-6.40383193252987
30
0
41
1
10
-0.57072093672744
20
-6.40433446208641
30
0
41
1
10
-0.564886021711771
20
-6.40418931749653
30
0
41
1
10
-0.553383150331257
20
-6.4034260800816
30
0
41
1
10
-0.536282472568871
20
-6.40157448566885
30
0
41
1
10
-0.519619603215915
20
-6.39770847656069
30
0
41
1
10
-0.497757293106673
20
-6.39091961851821
30
0
41
1
10
-0.487232732039615
20
-6.38677901662751
30
0
41
1
10
-0.466996761053366
20
-6.37736239462922
30
0
41
1
10
-0.457254953119474
20
-6.3720751738598
30
0
41
1
10
-0.438389199975262
20
-6.36054798675281
30
0
41
1
10
-0.429239914302798
20
-6.35428620030461
30
0
41
1
10
-0.411635429450627
20
-6.3410921939701
30
0
41
1
10
-0.403168655463958
20
-6.33415680421609
30
0
41
1
10
-0.394976888874652
20
-6.32694309068151
30
0
0
SPLINE
5
154
100
AcDbEntity
8
SK1
62
256
6
ByLayer
370
18
48
1
60
0
100
AcDbSpline
70
4
71
3
72
38
73
34
40
0
40
0
40
0
40
0
40
0.0156250000000002
40
0.0156250000000002
40
0.0312500000000003
40
0.0312500000000003
40
0.0468750000000005
40
0.0468750000000005
40
0.0625000000000007
40
0.0625000000000007
40
0.0781250000000008
40
0.0781250000000008
40
0.093750000000001
40
0.093750000000001
40
0.125000000000002
40
0.125000000000002
40
0.156250000000003
40
0.156250000000003
40
0.187500000000004
40
0.187500000000004
40
0.250000000000004
40
0.250000000000004
40
0.312500000000004
40
0.312500000000004
40
0.375000000000003
40
0.375000000000003
40
0.500000000000003
40
0.500000000000003
40
0.625000000000002
40
0.625000000000002
40
0.750000000000001
40
0.750000000000001
40
1
40
1
40
1
40
1
41
1
10
-0.394976888875249
20
-6.32694309066892
30
0
41
1
10
-0.391727840008201
20
-6.32408196083429
30
0
41
1
10
-0.388335470376234
20
-6.32141928943929
30
0
41
1
10
-0.381160699955814
20
-6.31663456223501
30
0
41
1
10
-0.377337293757989
20
-6.31449473474095
30
0
41
1
10
-0.369385571635007
20
-6.31111288676991
30
0
41
1
10
-0.365259213138359
20
-6.30985987304734
30
0
41
1
10
-0.356602053761946
20
-6.30852971537203
30
0
41
1
10
-0.352076075449077
20
-6.30848994047992
30
0
41
1
10
-0.343245936202948
20
-6.30981804057424
30
0
41
1
10
-0.338839896562007
20
-6.31120032557598
30
0
41
1
10
-0.330609830662496
20
-6.31504343200615
30
0
41
1
10
-0.326682033469552
20
-6.3175367008395
30
0
41
1
10
-0.315858342049609
20
-6.32593033296189
30
0
41
1
10
-0.309649778596878
20
-6.33285276949917
30
0
41
1
10
-0.29875905245018
20
-6.34747591030168
30
0
41
1
10
-0.294039768289053
20
-6.35522287409998
30
0
41
1
10
-0.285441114396349
20
-6.37121915611456
30
0
41
1
10
-0.281577225764721
20
-6.3794782981152
30
0
41
1
10
-0.271027300228013
20
-6.40434328922601
30
0
41
1
10
-0.265260102162529
20
-6.42121101452736
30
0
41
1
10
-0.255056704785915
20
-6.4552428036186
30
0
41
1
10
-0.250650675190457
20
-6.47241406830693
30
0
41
1
10
-0.242745882078623
20
-6.50695257177006
30
0
41
1
10
-0.239249306945823
20
-6.52435045938401
30
0
41
1
10
-0.229806665912946
20
-6.57651474417179
30
0
41
1
10
-0.224881575141694
20
-6.61123172400934
30
0
41
1
10
-0.216682382319988
20
-6.68055892991541
30
0
41
1
10
-0.213429522966038
20
-6.71516905756206
30
0
41
1
10
-0.208119529771068
20
-6.78429037229347
30
0
41
1
10
-0.206068462856138
20
-6.81880152454448
30
0
41
1
10
-0.201318249455085
20
-6.92219574622328
30
0
41
1
10
-0.200000000000983
20
-6.99093988368693
30
0
41
1
10
-0.200000000000983
20
-7.05951756777665
30
0
0
SPLINE
5
155
100
AcDbEntity
8
SK1
62
256
6
ByLayer
370
18
48
1
60
0
100
AcDbSpline
70
4
71
3
72
32
73
28
40
0
40
0
40
0
40
0
40
0.180517693650355
40
0.180517693650355
40
0.385388270237779
40
0.385388270237779
40
0.487823558531488
40
0.487823558531488
40
0.590258846825197
40
0.590258846825197
40
0.692694135118906
40
0.692694135118906
40
0.743911779265755
40
0.743911779265755
40
0.795129423412605
40
0.795129423412605
40
0.846347067559454
40
0.846347067559454
40
0.871955889632879
40
0.871955889632879
40
0.897564711706303
40
0.897564711706303
40
0.923173533779728
40
0.923173533779728
40
0.948782355853153
40
0.948782355853153
40
1
40
1
40
1
40
1
41
1
10
-0.211801331608143
20
-21.9858252695608
30
0
41
1
10
-0.214285701451757
20
-21.9778848089911
30
0
41
1
10
-0.21726473606148
20
-21.9696887369578
30
0
41
1
10
-0.225032192728605
20
-21.9515892743038
30
0
41
1
10
-0.229988326543122
20
-21.9416123435507
30
0
41
1
10
-0.239451201096074
20
-21.9259295604087
30
0
41
1
10
-0.242954639607262
20
-21.920573220714
30
0
41
1
10
-0.250884191768137
20
-21.9096123694387
30
0
41
1
10
-0.255303279611496
20
-21.9040075529811
30
0
41
1
10
-0.265534058490829
20
-21.8924690412287
30
0
41
1
10
-0.271315664905529
20
-21.8865400840861
30
0
41
1
10
-0.281887216584039
20
-21.877261986221
30
0
41
1
10
-0.285754236703042
20
-21.8740892419227
30
0
41
1
10
-0.29436523044464
20
-21.8676615192305
30
0
41
1
10
-0.299097978052316
20
-21.8644034744384
30
0
41
1
10
-0.310069692334423
20
-21.8577563969492
30
0
41
1
10
-0.316188605996814
20
-21.8544274429474
30
0
41
1
10
-0.327092981293731
20
-21.8495406875215
30
0
41
1
10
-0.330930389921775
20
-21.8479731855644
30
0
41
1
10
-0.339145076217278
20
-21.8450063177225
30
0
41
1
10
-0.34349602023272
20
-21.8436255373084
30
0
41
1
10
-0.352216351945913
20
-21.8412615992219
30
0
41
1
10
-0.356719380663776
20
-21.8402448422724
30
0
41
1
10
-0.365343328287963
20
-21.8386616016613
30
0
41
1
10
-0.369555738240365
20
-21.8380723572608
30
0
41
1
10
-0.381451910103039
20
-21.8368338440474
30
0
41
1
10
-0.388510132182233
20
-21.8366679278901
30
0
41
1
10
-0.394976888875306
20
-21.83684556637
30
0
0
SPLINE
5
156
100
AcDbEntity
8
SK1
62
256
6
ByLayer
370
18
48
1
60
0
100
AcDbSpline
70
4
71
3
72
34
73
30
40
0
40
0
40
0
40
0
40
0.0287101255613187
40
0.0287101255613187
40
0.0574202511226374
40
0.0574202511226374
40
0.0861303766839562
40
0.0861303766839562
40
0.114840502245275
40
0.114840502245275
40
0.143550627806594
40
0.143550627806594
40
0.172260753367912
40
0.172260753367912
40
0.229681004490555
40
0.229681004490555
40
0.287101255613198
40
0.287101255613198
40
0.34452150673584
40
0.34452150673584
40
0.459362008981123
40
0.459362008981123
40
0.574202511226406
40
0.574202511226406
40
0.689043013471689
40
0.689043013471689
40
0.918724017962242
40
0.918724017962242
40
1
40
1
40
1
40
1
41
1
10
-0.39497688887505
20
21.8368457077638
30
0
41
1
10
-0.391727836857513
20
21.8367564552862
30
0
41
1
10
-0.388335462947481
20
21.8367575102277
30
0
41
1
10
-0.381160680164186
20
21.8370063953435
30
0
41
1
10
-0.377337265730262
20
21.8372584545586
30
0
41
1
10
-0.369385524899883
20
21.8380942572624
30
0
41
1
10
-0.365259154640825
20
21.8386743817226
30
0
41
1
10
-0.356601963799648
20
21.8402693810172
30
0
41
1
10
-0.352075973571147
20
21.8412940229747
30
0
41
1
10
-0.343245807197377
20
21.8436994970156
30
0
41
1
10
-0.338839759286117
20
21.8451077061706
30
0
41
1
10
-0.330609681601089
20
21.8480988532096
30
0
41
1
10
-0.326681882216292
20
21.8497148139506
30
0
41
1
10
-0.315858195764633
20
21.8545978371135
30
0
41
1
10
-0.309649635830567
20
21.8579930086275
30
0
41
1
10
-0.29875893044121
20
21.8646283435031
30
0
41
1
10
-0.294039653953405
20
21.8678908734006
30
0
41
1
10
-0.285441012915243
20
21.8743381084956
30
0
41
1
10
-0.281577134169481
20
21.8775219513844
30
0
41
1
10
-0.27102723150179
20
21.8868197672957
30
0
41
1
10
-0.26526003964409
20
21.8927572096362
30
0
41
1
10
-0.255056646431086
20
21.9043080675862
30
0
41
1
10
-0.250650615364492
20
21.9099166220701
30
0
41
1
10
-0.242745818948606
20
21.9208819372236
30
0
41
1
10
-0.239249241675395
20
21.9262461524817
30
0
41
1
10
-0.229806603943075
20
21.9419519763544
30
0
41
1
10
-0.224881521380581
20
21.951908870332
30
0
41
1
10
-0.219331234630403
20
21.9648852890179
30
0
41
1
10
-0.217986563657519
20
21.9682297468547
30
0
41
1
10
-0.216736893024461
20
21.9715300432593
30
0
0
SPLINE
5
157
100
AcDbEntity
8
SK1
62
256
6
ByLayer
370
18
48
1
60
0
100
AcDbSpline
70
4
71
3
72
36
73
32
40
0
40
0
40
0
40
0
40
0.249999999999997
40
0.249999999999997
40
0.374999999999996
40
0.374999999999996
40
0.499999999999994
40
0.499999999999994
40
0.624999999999993
40
0.624999999999993
40
0.687499999999992
40
0.687499999999992
40
0.749999999999991
40
0.749999999999991
40
0.81249999999999
40
0.81249999999999
40
0.843749999999991
40
0.843749999999991
40
0.874999999999991
40
0.874999999999991
40
0.906249999999992
40
0.906249999999992
40
0.921874999999993
40
0.921874999999993
40
0.937499999999994
40
0.937499999999994
40
0.953124999999995
40
0.953124999999995
40
0.968749999999996
40
0.968749999999996
40
1
40
1
40
1
40
1
41
1
10
-0.200000000000131
20
7.05951749342086
30
0
41
1
10
-0.200000000000131
20
6.99088366827039
30
0
41
1
10
-0.2013196090669
20
6.92203745653023
30
0
41
1
10
-0.206090084506826
20
6.81839514373587
30
0
41
1
10
-0.2081510349837
20
6.78378529321037
30
0
41
1
10
-0.213493984947206
20
6.71442586061204
30
0
41
1
10
-0.216773999711478
20
6.67964297799401
30
0
41
1
10
-0.225032362287777
20
6.61010153250706
30
0
41
1
10
-0.22998853610892
20
6.57535167439434
30
0
41
1
10
-0.239451452332531
20
6.52331614077181
30
0
41
1
10
-0.242954902554658
20
6.50596118190688
30
0
41
1
10
-0.250884475472418
20
6.47147444885817
30
0
41
1
10
-0.255303571894331
20
6.45433496817751
30
0
41
1
10
-0.265534367861619
20
6.42038445843195
30
0
41
1
10
-0.271315983615665
20
6.40356588205825
30
0
41
1
10
-0.281887551544884
20
6.37879812944621
30
0
41
1
10
-0.285754577758382
20
6.37058402265529
30
0
41
1
10
-0.294365583617235
20
6.35467212439306
30
0
41
1
10
-0.299098336615089
20
6.34695402708016
30
0
41
1
10
-0.310070058832849
20
6.3323589170422
30
0
41
1
10
-0.316188975329965
20
6.32559855176612
30
0
41
1
10
-0.327093340772194
20
6.31725804804279
30
0
41
1
10
-0.330930743377223
20
6.31486185527035
30
0
41
1
10
-0.339145408375998
20
6.31109129764326
30
0
41
1
10
-0.343496335699882
20
6.30976042443768
30
0
41
1
10
-0.352216625138965
20
6.30848907644281
30
0
41
1
10
-0.356719625966889
20
6.30853790053868
30
0
41
1
10
-0.365343516832553
20
6.30988235079047
30
0
41
1
10
-0.369555897144522
20
6.31117170394188
30
0
41
1
10
-0.381451989855236
20
6.31627189389667
30
0
41
1
10
-0.388510166361215
20
6.32124816508079
30
0
41
1
10
-0.394976888875391
20
6.32694279392763
30
0
0
SPLINE
5
158
100
AcDbEntity
8
SK1
62
256
6
ByLayer
370
18
48
1
60
0
100
AcDbSpline
70
4
71
3
72
51
73
47
40
0
40
0
40
0
40
0
40
0.0312499999999995
40
0.0312499999999995
40
0.0468749999999995
40
0.0468749999999995
40
0.0624999999999995
40
0.0624999999999995
40
0.0781249999999995
40
0.0781249999999995
40
0.0937499999999995
40
0.1015625
40
0.1015625
40
0.109375
40
0.109375
40
0.125
40
0.125
40
0.140625
40
0.140625
40
0.15625
40
0.15625
40
0.171875
40
0.171875
40
0.187499999999999
40
0.187499999999999
40
0.218749999999999
40
0.218749999999999
40
0.249999999999998
40
0.249999999999998
40
0.281249999999998
40
0.281249999999998
40
0.312499999999997
40
0.312499999999997
40
0.374999999999998
40
0.374999999999998
40
0.437499999999998
40
0.437499999999998
40
0.499999999999999
40
0.499999999999999
40
0.624999999999999
40
0.624999999999999
40
0.749999999999999
40
0.749999999999999
40
0.875
40
0.875
40
1
40
1
40
1
40
1
41
1
10
-0.394976888875391
20
6.32694279392763
30
0
41
1
10
-0.411238696721853
20
6.34126302490421
30
0
41
1
10
-0.42850748594654
20
6.35445833731504
30
0
41
1
10
-0.45667023369387
20
6.37174225420662
30
0
41
1
10
-0.466483664298266
20
6.37709385022478
30
0
41
1
10
-0.48659149418981
20
6.38650813483483
30
0
41
1
10
-0.496926643445391
20
6.39060153529027
30
0
41
1
10
-0.518261372575836
20
6.39734038383014
30
0
41
1
10
-0.529288688452965
20
6.39999137034908
30
0
41
1
10
-0.552029863844837
20
6.40352645544718
30
0
41
1
10
-0.569122170023036
20
6.40477865584108
30
0
41
1
10
-0.586269587269925
20
6.40391558402297
30
0
41
1
10
-0.59771351678117
20
6.40286726137305
30
0
41
1
10
-0.603469210371259
20
6.40210091700698
30
0
41
1
10
-0.62048445367256
20
6.39914057465737
30
0
41
1
10
-0.631521298100495
20
6.39629613100789
30
0
41
1
10
-0.653067955958392
20
6.38910953757792
30
0
41
1
10
-0.663647019327499
20
6.38472913070873
30
0
41
1
10
-0.683914090581851
20
6.37488016361098
30
0
41
1
10
-0.693619694147969
20
6.36942005626
30
0
41
1
10
-0.712349558937376
20
6.35764547249298
30
0
41
1
10
-0.721372912538442
20
6.35132986237954
30
0
41
1
10
-0.738857672965167
20
6.33799239464963
30
0
41
1
10
-0.747347473223414
20
6.33094289857635
30
0
41
1
10
-0.771836234848706
20
6.30914419635485
30
0
41
1
10
-0.786901848847805
20
6.29375180625587
30
0
41
1
10
-0.815326569021551
20
6.26179199946705
30
0
41
1
10
-0.828675731410868
20
6.24521789481665
30
0
41
1
10
-0.854098967455144
20
6.21118254722438
30
0
41
1
10
-0.86619382170943
20
6.19368034373997
30
0
41
1
10
-0.88926493341873
20
6.15815258135459
30
0
41
1
10
-0.900209860985882
20
6.14017947190473
30
0
41
1
10
-0.93166344002455
20
6.08576021404917
30
0
41
1
10
-0.950810679353708
20
6.04882063700344
30
0
41
1
10
-0.986648965174936
20
5.97400775850903
30
0
41
1
10
-1.00332473325488
20
5.93612942656304
30
0
41
1
10
-1.03483667509138
20
5.85963788366215
30
0
41
1
10
-1.04966719442737
20
5.82102281214415
30
0
41
1
10
-1.09197977593223
20
5.70426049482558
30
0
41
1
10
-1.11732446718889
20
5.62516646058839
30
0
41
1
10
-1.16401678895693
20
5.46528393669763
30
0
41
1
10
-1.18527730088005
20
5.38472352690536
30
0
41
1
10
-1.22470833461733
20
5.22253672374893
30
0
41
1
10
-1.24286856219783
20
5.14090854029013
30
0
41
1
10
-1.27672968747515
20
4.97667800814674
30
0
41
1
10
-1.29242634244295
20
4.89407494295668
30
0
41
1
10
-1.30710678118649
20
4.81101321788449
30
0
0
SPLINE
5
159
100
AcDbEntity
8
SK1
62
256
6
ByLayer
370
18
48
1
60
0
100
AcDbSpline
70
4
71
3
72
295
73
291
40
0
40
0
40
0
40
0
40
0.0029752376806199
40
0.0065509563928255
40
0.0101266751050311
40
0.0137023938172367
40
0.0172781125294424
40
0.020853831241648
40
0.0280052686660592
40
0.0351567060904705
40
0.0423081435148817
40
0.0458838622270873
40
0.0494595809392929
40
0.0530352996514986
40
0.0566110183637042
40
0.0637624557881154
40
0.067338174500321
40
0.0709138932125267
40
0.0744896119247323
40
0.0780653306369379
40
0.0816410493491435
40
0.0852167680613491
40
0.0923682054857604
40
0.095943924197966
40
0.0995196429101716
40
0.103095361622377
40
0.106671080334583
40
0.110246799046788
40
0.113822517758994
40
0.1173982364712
40
0.120973955183405
40
0.124549673895611
40
0.128125392607817
40
0.131701111320022
40
0.135276830032228
40
0.138852548744434
40
0.142428267456639
40
0.14957970488105
40
0.153155423593256
40
0.156731142305462
40
0.158519001661564
40
0.160306861017667
40
0.163882579729873
40
0.171034017154284
40
0.17460973586649
40
0.178185454578695
40
0.181761173290901
40
0.185336892003106
40
0.192488329427518
40
0.196064048139723
40
0.199639766851929
40
0.201427626208032
40
0.203215485564135
40
0.20679120427634
40
0.213942641700752
40
0.217518360412957
40
0.221094079125163
40
0.224669797837368
40
0.228245516549574
40
0.235396953973985
40
0.238972672686191
40
0.242548391398396
40
0.244336250754499
40
0.246124110110602
40
0.249699828822808
40
0.253275547535013
40
0.256851266247219
40
0.258639125603322
40
0.260426984959425
40
0.26400270367163
40
0.267578422383836
40
0.271154141096041
40
0.274729859808247
40
0.278305578520453
40
0.281881297232658
40
0.285457015944864
40
0.28903273465707
40
0.292608453369275
40
0.296184172081481
40
0.299759890793686
40
0.303335609505892
40
0.306911328218098
40
0.310487046930303
40
0.314062765642509
40
0.32121420306692
40
0.324789921779126
40
0.328365640491331
40
0.331941359203537
40
0.335517077915742
40
0.339092796627948
40
0.342668515340154
40
0.346244234052359
40
0.349819952764565
40
0.356971390188976
40
0.364122827613387
40
0.371274265037799
40
0.374849983750004
40
0.37842570246221
40
0.382001421174416
40
0.385577139886621
40
0.389152858598827
40
0.392728577311032
40
0.396304296023238
40
0.399880014735444
40
0.403455733447649
40
0.407031452159855
40
0.410607170872061
40
0.414182889584266
40
0.417758608296472
40
0.421334327008677
40
0.424910045720883
40
0.428485764433089
40
0.432061483145294
40
0.433849342501397
40
0.4356372018575
40
0.437425061213603
40
0.439212920569706
40
0.442788639281911
40
0.446364357994117
40
0.448152217350219
40
0.449940076706322
40
0.451727936062425
40
0.453515795418528
40
0.457091514130734
40
0.458879373486836
40
0.460667232842939
40
0.462455092199042
40
0.464242951555145
40
0.466030810911248
40
0.467818670267351
40
0.469606529623453
40
0.471394388979556
40
0.473182248335659
40
0.474970107691762
40
0.476757967047865
40
0.478545826403967
40
0.48033368576007
40
0.482121545116173
40
0.483909404472276
40
0.485697263828379
40
0.487485123184482
40
0.489272982540584
40
0.491060841896687
40
0.49284870125279
40
0.494636560608893
40
0.496424419964995
40
0.498212279321098
40
0.500000138677201
40
0.501787998033304
40
0.503575857389407
40
0.50536371674551
40
0.507151576101612
40
0.508939435457715
40
0.510727294813818
40
0.512515154169921
40
0.514303013526024
40
0.516090872882126
40
0.517878732238229
40
0.519666591594332
40
0.521454450950435
40
0.523242310306538
40
0.52503016966264
40
0.526818029018743
40
0.528605888374846
40
0.530393747730949
40
0.532181607087052
40
0.533969466443154
40
0.535757325799257
40
0.53754518515536
40
0.539333044511463
40
0.541120903867566
40
0.542908763223668
40
0.546484481935874
40
0.548272341291977
40
0.55006020064808
40
0.551848060004183
40
0.553635919360285
40
0.557211638072491
40
0.560787356784697
40
0.562575216140799
40
0.564363075496902
40
0.566150934853005
40
0.567938794209108
40
0.571514512921314
40
0.575090231633519
40
0.578665950345725
40
0.58224166905793
40
0.585817387770136
40
0.589393106482342
40
0.592968825194547
40
0.596544543906753
40
0.600120262618958
40
0.603695981331164
40
0.60727170004337
40
0.610847418755575
40
0.614423137467781
40
0.617998856179987
40
0.621574574892192
40
0.625150293604398
40
0.628726012316603
40
0.635877449741015
40
0.643028887165426
40
0.650180324589837
40
0.653756043302043
40
0.657331762014248
40
0.660907480726454
40
0.66448319943866
40
0.668058918150865
40
0.671634636863071
40
0.675210355575276
40
0.678786074287482
40
0.685937511711893
40
0.689513230424099
40
0.693088949136304
40
0.69666466784851
40
0.700240386560716
40
0.703816105272921
40
0.707391823985127
40
0.710967542697333
40
0.714543261409538
40
0.718118980121744
40
0.721694698833949
40
0.725270417546155
40
0.728846136258361
40
0.735997573682772
40
0.739573292394978
40
0.743149011107183
40
0.750300448531595
40
0.7538761672438
40
0.757451885956006
40
0.761027604668211
40
0.764603323380417
40
0.771754760804828
40
0.775330479517034
40
0.778906198229239
40
0.782481916941445
40
0.786057635653651
40
0.793209073078062
40
0.796784791790268
40
0.800360510502473
40
0.803936229214679
40
0.807511947926884
40
0.814663385351296
40
0.818239104063501
40
0.821814822775707
40
0.825390541487913
40
0.828966260200118
40
0.836117697624529
40
0.839693416336735
40
0.843269135048941
40
0.846844853761146
40
0.850420572473352
40
0.857572009897763
40
0.861147728609969
40
0.864723447322174
40
0.86829916603438
40
0.871874884746585
40
0.875450603458791
40
0.879026322170997
40
0.882602040883202
40
0.886177759595408
40
0.889753478307614
40
0.893329197019819
40
0.896904915732025
40
0.900480634444231
40
0.904056353156436
40
0.907632071868642
40
0.914783509293053
40
0.918359228005259
40
0.921934946717464
40
0.92551066542967
40
0.929086384141876
40
0.932662102854081
40
0.936237821566287
40
0.943389258990698
40
0.946964977702904
40
0.950540696415109
40
0.954116415127315
40
0.95769213383952
40
0.964843571263932
40
0.968419289976137
40
0.971995008688343
40
0.975570727400549
40
0.979146446112754
40
0.98272216482496
40
0.986297883537166
40
0.989873602249371
40
0.993449320961577
40
0.997025039673782
40
1
40
1
40
1
40
1
41
1
10
-2.19999999999999
20
-22.0135726719521
30
0
41
1
10
-2.19999999999999
20
-22.0117701220185
30
0
41
1
10
-2.20000000000002
20
-22.0069887595088
30
0
41
1
10
-2.20000000000002
20
-21.9968726461305
30
0
41
1
10
-2.20000000000016
20
-21.9830583750199
30
0
41
1
10
-2.19999999999976
20
-21.9661971621577
30
0
41
1
10
-2.19999999999996
20
-21.9463373083127
30
0
41
1
10
-2.2000000000001
20
-21.9159230944434
30
0
41
1
10
-2.20000000000002
20
-21.870633664349
30
0
41
1
10
-2.19999999999987
20
-21.8049949078793
30
0
41
1
10
-2.1999999999999
20
-21.7411390111088
30
0
41
1
10
-2.19999999999985
20
-21.6847072709128
30
0
41
1
10
-2.19999999999976
20
-21.6397397481887
30
0
41
1
10
-2.1999999999999
20
-21.5921615264852
30
0
41
1
10
-2.19999999999982
20
-21.5252891523048
30
0
41
1
10
-2.19999999999987
20
-21.453308753177
30
0
41
1
10
-2.19999999999982
20
-21.3763547276268
30
0
41
1
10
-2.1999999999999
20
-21.3161703964091
30
0
41
1
10
-2.20000000000005
20
-21.2535469243881
30
0
41
1
10
-2.20000000000013
20
-21.1885090229235
30
0
41
1
10
-2.20000000000002
20
-21.1210800834731
30
0
41
1
10
-2.20000000000005
20
-21.0280237507365
30
0
41
1
10
-2.19999999999976
20
-20.9302657445265
30
0
41
1
10
-2.20000000000013
20
-20.8279188369074
30
0
41
1
10
-2.19999999999985
20
-20.7488739070251
30
0
41
1
10
-2.19999999999996
20
-20.6675681841826
30
0
41
1
10
-2.20000000000013
20
-20.5840212184219
30
0
41
1
10
-2.19999999999993
20
-20.4982502525025
30
0
41
1
10
-2.19999999999987
20
-20.4102747128947
30
0
41
1
10
-2.20000000000019
20
-20.3201119071545
30
0
41
1
10
-2.1999999999999
20
-20.2277776663917
30
0
41
1
10
-2.19999999999999
20
-20.1332899477275
30
0
41
1
10
-2.20000000000013
20
-20.0366642357896
30
0
41
1
10
-2.19999999999996
20
-19.9379151599299
30
0
41
1
10
-2.19999999999993
20
-19.8370591957147
30
0
41
1
10
-2.19999999999993
20
-19.7341102362335
30
0
41
1
10
-2.20000000000013
20
-19.5940778412013
30
0
41
1
10
-2.19999999999985
20
-19.4499005336556
30
0
41
1
10
-2.19999999999976
20
-19.3016622310532
30
0
41
1
10
-2.19999999999987
20
-19.207318427057
30
0
41
1
10
-2.20000000000005
20
-19.1308417758755
30
0
41
1
10
-2.2000000000001
20
-19.0536957086558
30
0
41
1
10
-2.20000000000013
20
-18.9169360704624
30
0
41
1
10
-2.20000000000005
20
-18.7566457946411
30
0
41
1
10
-2.19999999999987
20
-18.5924362845556
30
0
41
1
10
-2.19999999999985
20
-18.4673177976697
30
0
41
1
10
-2.20000000000016
20
-18.3402521463354
30
0
41
1
10
-2.19999999999993
20
-18.1682545122202
30
0
41
1
10
-2.19999999999999
20
-17.9923842356822
30
0
41
1
10
-2.20000000000002
20
-17.8127164551588
30
0
41
1
10
-2.2000000000001
20
-17.6988333809736
30
0
41
1
10
-2.2000000000001
20
-17.6067877670912
30
0
41
1
10
-2.19999999999979
20
-17.5141131161322
30
0
41
1
10
-2.19999999999999
20
-17.3502824417037
30
0
41
1
10
-2.1999999999999
20
-17.1592829447589
30
0
41
1
10
-2.2000000000001
20
-16.9645867974538
30
0
41
1
10
-2.19999999999999
20
-16.8167088060477
30
0
41
1
10
-2.19999999999999
20
-16.6669871400996
30
0
41
1
10
-2.20000000000002
20
-16.4649164953068
30
0
41
1
10
-2.20000000000019
20
-16.2591646002878
30
0
41
1
10
-2.20000000000005
20
-16.049802831716
30
0
41
1
10
-2.20000000000002
20
-15.9174340084589
30
0
41
1
10
-2.19999999999982
20
-15.810644228641
30
0
41
1
10
-2.19999999999987
20
-15.7032538676566
30
0
41
1
10
-2.19999999999982
20
-15.5678823963089
30
0
41
1
10
-2.19999999999985
20
-15.4036502143979
30
0
41
1
10
-2.19999999999999
20
-15.2652965264294
30
0
41
1
10
-2.19999999999996
20
-15.1537302031574
30
0
41
1
10
-2.20000000000013
20
-15.0415708470877
30
0
41
1
10
-2.20000000000007
20
-14.90025131083
30
0
41
1
10
-2.19999999999993
20
-14.7289012367181
30
0
41
1
10
-2.20000000000005
20
-14.5557843226632
30
0
41
1
10
-2.20000000000002
20
-14.3809062427341
30
0
41
1
10
-2.19999999999993
20
-14.2042700822291
30
0
41
1
10
-2.2000000000001
20
-14.0258803741545
30
0
41
1
10
-2.19999999999979
20
-13.8457420253843
30
0
41
1
10
-2.19999999999985
20
-13.6638579861815
30
0
41
1
10
-2.20000000000005
20
-13.4802328481714
30
0
41
1
10
-2.20000000000005
20
-13.2948705974072
30
0
41
1
10
-2.20000000000005
20
-13.1077737485312
30
0
41
1
10
-2.19999999999985
20
-12.9189467805056
30
0
41
1
10
-2.19999999999985
20
-12.7283927787489
30
0
41
1
10
-2.19999999999993
20
-12.5361142588231
30
0
41
1
10
-2.19999999999993
20
-12.2774598592136
30
0
41
1
10
-2.1999999999999
20
-12.0153352592313
30
0
41
1
10
-2.19999999999999
20
-11.7498207258851
30
0
41
1
10
-2.1999999999999
20
-11.5489655826482
30
0
41
1
10
-2.19999999999996
20
-11.3464032807098
30
0
41
1
10
-2.20000000000007
20
-11.1421359853758
30
0
41
1
10
-2.19999999999999
20
-10.9361655879759
30
0
41
1
10
-2.19999999999996
20
-10.7284950970913
30
0
41
1
10
-2.19999999999999
20
-10.5191258614378
30
0
41
1
10
-2.19999999999996
20
-10.2377184130835
30
0
41
1
10
-2.19999999999999
20
-9.88169304970984
30
0
41
1
10
-2.19999999999996
20
-9.44771865839306
30
0
41
1
10
-2.19999999999993
20
-9.08043848955597
30
0
41
1
10
-2.19999999999999
20
-8.78327689677778
30
0
41
1
10
-2.20000000000002
20
-8.5587141953562
30
0
41
1
10
-2.19999999999999
20
-8.33247380011295
30
0
41
1
10
-2.19999999999996
20
-8.10455852701506
30
0
41
1
10
-2.20000000000002
20
-7.87497060194642
30
0
41
1
10
-2.1999999999999
20
-7.64371283673114
30
0
41
1
10
-2.19999999999996
20
-7.41078884464233
30
0
41
1
10
-2.19999999999999
20
-7.17620220160029
30
0
41
1
10
-2.19999999999996
20
-6.93995692090422
30
0
41
1
10
-2.19999999999996
20
-6.70205758660663
30
0
41
1
10
-2.20000000000007
20
-6.46250918569623
30
0
41
1
10
-2.20000000000007
20
-6.22131784000129
30
0
41
1
10
-2.19999999999993
20
-5.97849049576263
30
0
41
1
10
-2.19999999999996
20
-5.73403521575821
30
0
41
1
10
-2.2000000000001
20
-5.48796107357262
30
0
41
1
10
-2.19999999999996
20
-5.24027911118978
30
0
41
1
10
-2.20000000000002
20
-5.03253661023484
30
0
41
1
10
-2.19999999999996
20
-4.86557359122415
30
0
41
1
10
-2.20000000000007
20
-4.73994908127321
30
0
41
1
10
-2.20000000000005
20
-4.6139337133902
30
0
41
1
10
-2.19999999999993
20
-4.44540774959782
30
0
41
1
10
-2.20000000000005
20
-4.23375652596866
30
0
41
1
10
-2.19999999999996
20
-4.0208396171378
30
0
41
1
10
-2.2000000000001
20
-3.84978439152417
30
0
41
1
10
-2.20000000000007
20
-3.72111342731074
30
0
41
1
10
-2.19999999999999
20
-3.59207749308615
30
0
41
1
10
-2.20000000000016
20
-3.4195636946454
30
0
41
1
10
-2.19999999999996
20
-3.24629481959215
30
0
41
1
10
-2.20000000000002
20
-3.0723836150739
30
0
41
1
10
-2.19999999999996
20
-2.94160046512795
30
0
41
1
10
-2.19999999999996
20
-2.81048647644619
30
0
41
1
10
-2.20000000000005
20
-2.67904892732184
30
0
41
1
10
-2.20000000000005
20
-2.54729562722176
30
0
41
1
10
-2.1999999999999
20
-2.41523551097481
30
0
41
1
10
-2.20000000000007
20
-2.28287740252159
30
0
41
1
10
-2.20000000000002
20
-2.15023166945244
30
0
41
1
10
-2.19999999999999
20
-2.01730873413058
30
0
41
1
10
-2.20000000000007
20
-1.88412021099791
30
0
41
1
10
-2.20000000000007
20
-1.75067841854351
30
0
41
1
10
-2.20000000000005
20
-1.61699634722066
30
0
41
1
10
-2.20000000000013
20
-1.48308821885632
30
0
41
1
10
-2.19999999999999
20
-1.34896859254368
30
0
41
1
10
-2.2000000000001
20
-1.21465350310544
30
0
41
1
10
-2.19999999999999
20
-1.08015921626893
30
0
41
1
10
-2.20000000000002
20
-0.94550344266284
30
0
41
1
10
-2.20000000000002
20
-0.810704113119044
30
0
41
1
10
-2.2000000000001
20
-0.675780421912407
30
0
41
1
10
-2.20000000000002
20
-0.540751787789645
30
0
41
1
10
-2.20000000000007
20
-0.405638599098893
30
0
41
1
10
-2.20000000000007
20
-0.27046142827146
30
0
41
1
10
-2.20000000000007
20
-0.135241462279794
30
0
41
1
10
-2.20000000000005
20
5.3655071E-09
30
0
41
1
10
-2.20000000000002
20
0.135241472590053
30
0
41
1
10
-2.20000000000005
20
0.270461437853896
30
0
41
1
10
-2.20000000000002
20
0.405638608907964
30
0
41
1
10
-2.20000000000002
20
0.540751798686557
30
0
41
1
10
-2.19999999999996
20
0.675780432522231
30
0
41
1
10
-2.20000000000005
20
0.810704122044967
30
0
41
1
10
-2.20000000000002
20
0.945503451789591
30
0
41
1
10
-2.20000000000007
20
1.08015922751397
30
0
41
1
10
-2.19999999999999
20
1.21465351395381
30
0
41
1
10
-2.20000000000005
20
1.34896860046493
30
0
41
1
10
-2.20000000000007
20
1.48308822685564
30
0
41
1
10
-2.2000000000001
20
1.61699635855226
30
0
41
1
10
-2.20000000000005
20
1.75067843002711
30
0
41
1
10
-2.20000000000002
20
1.88412021847037
30
0
41
1
10
-2.19999999999999
20
2.01730874020467
30
0
41
1
10
-2.19999999999999
20
2.15023167925057
30
0
41
1
10
-2.20000000000002
20
2.28287741513998
30
0
41
1
10
-2.19999999999996
20
2.41523552035443
30
0
41
1
10
-2.20000000000016
20
2.54729563151921
30
0
41
1
10
-2.19999999999996
20
2.67904893291694
30
0
41
1
10
-2.20000000000005
20
2.81048648769612
30
0
41
1
10
-2.20000000000005
20
2.94160047796308
30
0
41
1
10
-2.20000000000005
20
3.07238362297494
30
0
41
1
10
-2.20000000000005
20
3.24629481975691
30
0
41
1
10
-2.20000000000013
20
3.41956370437862
30
0
41
1
10
-2.19999999999996
20
3.59207750684845
30
0
41
1
10
-2.19999999999999
20
3.72111343644582
30
0
41
1
10
-2.19999999999996
20
3.84978439330686
30
0
41
1
10
-2.20000000000007
20
4.02083961748897
30
0
41
1
10
-2.20000000000002
20
4.23375654375477
30
0
41
1
10
-2.19999999999999
20
4.44540775759586
30
0
41
1
10
-2.19999999999996
20
4.61393371339884
30
0
41
1
10
-2.20000000000007
20
4.73994907984505
30
0
41
1
10
-2.20000000000013
20
4.86557359653656
30
0
41
1
10
-2.20000000000005
20
5.03253662624778
30
0
41
1
10
-2.19999999999999
20
5.2402791195409
30
0
41
1
10
-2.20000000000005
20
5.48796106514419
30
0
41
1
10
-2.2000000000001
20
5.73403522651989
30
0
41
1
10
-2.20000000000005
20
5.97849051253721
30
0
41
1
10
-2.19999999999999
20
6.22131783489112
30
0
41
1
10
-2.20000000000002
20
6.46250917346819
30
0
41
1
10
-2.20000000000007
20
6.70205756880279
30
0
41
1
10
-2.20000000000005
20
6.93995689241024
30
0
41
1
10
-2.19999999999996
20
7.17620223308302
30
0
41
1
10
-2.20000000000005
20
7.41078904293684
30
0
41
1
10
-2.20000000000002
20
7.64371312168029
30
0
41
1
10
-2.20000000000007
20
7.87497052861912
30
0
41
1
10
-2.20000000000002
20
8.10455846042149
30
0
41
1
10
-2.19999999999996
20
8.33247384441509
30
0
41
1
10
-2.19999999999999
20
8.55871423477032
30
0
41
1
10
-2.20000000000013
20
8.78327691067392
30
0
41
1
10
-2.20000000000007
20
9.08043846702648
30
0
41
1
10
-2.20000000000005
20
9.44771866001571
30
0
41
1
10
-2.19999999999999
20
9.881693055282
30
0
41
1
10
-2.20000000000013
20
10.2377183913447
30
0
41
1
10
-2.20000000000005
20
10.5191258633123
30
0
41
1
10
-2.20000000000007
20
10.7284951094206
30
0
41
1
10
-2.19999999999999
20
10.9361655882296
30
0
41
1
10
-2.20000000000002
20
11.1421359694818
30
0
41
1
10
-2.19999999999999
20
11.3464032666246
30
0
41
1
10
-2.20000000000019
20
11.5489655840494
30
0
41
1
10
-2.19999999999999
20
11.7498207382014
30
0
41
1
10
-2.20000000000005
20
12.015335258712
30
0
41
1
10
-2.2000000000001
20
12.277459839655
30
0
41
1
10
-2.20000000000007
20
12.5361142561417
30
0
41
1
10
-2.20000000000005
20
12.7283927892775
30
0
41
1
10
-2.20000000000002
20
12.9189467887917
30
0
41
1
10
-2.20000000000005
20
13.1077737445537
30
0
41
1
10
-2.20000000000005
20
13.2948705838035
30
0
41
1
10
-2.19999999999999
20
13.4802328404439
30
0
41
1
10
-2.20000000000013
20
13.6638579908946
30
0
41
1
10
-2.20000000000007
20
13.845742035678
30
0
41
1
10
-2.20000000000005
20
14.0258803815962
30
0
41
1
10
-2.2000000000001
20
14.2042701267484
30
0
41
1
10
-2.20000000000005
20
14.3809064511142
30
0
41
1
10
-2.19999999999999
20
14.61406817927
30
0
41
1
10
-2.19999999999999
20
14.8437340716546
30
0
41
1
10
-2.20000000000016
20
15.069828938707
30
0
41
1
10
-2.20000000000002
20
15.2935559429894
30
0
41
1
10
-2.20000000000007
20
15.513744330902
30
0
41
1
10
-2.20000000000005
20
15.7303232767805
30
0
41
1
10
-2.19999999999999
20
15.8909649274655
30
0
41
1
10
-2.2000000000001
20
16.0498023362736
30
0
41
1
10
-2.20000000000007
20
16.2591647559547
30
0
41
1
10
-2.20000000000016
20
16.4649171124643
30
0
41
1
10
-2.20000000000005
20
16.666987304737
30
0
41
1
10
-2.2000000000001
20
16.8167085043734
30
0
41
1
10
-2.20000000000002
20
16.9645862898265
30
0
41
1
10
-2.2000000000001
20
17.1592828976247
30
0
41
1
10
-2.20000000000016
20
17.3502835148979
30
0
41
1
10
-2.20000000000005
20
17.5375147595291
30
0
41
1
10
-2.20000000000016
20
17.676060438985
30
0
41
1
10
-2.20000000000007
20
17.8127154575359
30
0
41
1
10
-2.20000000000016
20
17.9923842415009
30
0
41
1
10
-2.20000000000016
20
18.1682547291305
30
0
41
1
10
-2.20000000000005
20
18.3402522143585
30
0
41
1
10
-2.20000000000013
20
18.4673177032106
30
0
41
1
10
-2.2000000000001
20
18.5924361073221
30
0
41
1
10
-2.20000000000016
20
18.7566457425986
30
0
41
1
10
-2.20000000000013
20
18.9169371900015
30
0
41
1
10
-2.20000000000016
20
19.0732305996173
30
0
41
1
10
-2.2000000000001
20
19.1884526890887
30
0
41
1
10
-2.20000000000002
20
19.3016611759422
30
0
41
1
10
-2.20000000000007
20
19.449900539196
30
0
41
1
10
-2.20000000000013
20
19.5940785255288
30
0
41
1
10
-2.20000000000002
20
19.7341104289281
30
0
41
1
10
-2.20000000000007
20
19.8370589164793
30
0
41
1
10
-2.2000000000001
20
19.9379146863563
30
0
41
1
10
-2.20000000000013
20
20.0366640227898
30
0
41
1
10
-2.20000000000007
20
20.1332899031449
30
0
41
1
10
-2.20000000000005
20
20.2277776697998
30
0
41
1
10
-2.20000000000007
20
20.3201119082527
30
0
41
1
10
-2.20000000000019
20
20.4102747220554
30
0
41
1
10
-2.20000000000005
20
20.4982502752196
30
0
41
1
10
-2.20000000000005
20
20.5840212474558
30
0
41
1
10
-2.20000000000013
20
20.6675682022904
30
0
41
1
10
-2.20000000000016
20
20.7488739108727
30
0
41
1
10
-2.2000000000001
20
20.8279188375298
30
0
41
1
10
-2.20000000000013
20
20.9302657657863
30
0
41
1
10
-2.20000000000005
20
21.028023788088
30
0
41
1
10
-2.20000000000022
20
21.121080096178
30
0
41
1
10
-2.20000000000002
20
21.1885090211437
30
0
41
1
10
-2.20000000000027
20
21.2535469320083
30
0
41
1
10
-2.2000000000001
20
21.3161704250344
30
0
41
1
10
-2.19999999999996
20
21.3763547664481
30
0
41
1
10
-2.19999999999999
20
21.4533087676779
30
0
41
1
10
-2.20000000000013
20
21.525289144814
30
0
41
1
10
-2.20000000000005
20
21.5921615531194
30
0
41
1
10
-2.20000000000022
20
21.6397397916631
30
0
41
1
10
-2.20000000000013
20
21.6847072964974
30
0
41
1
10
-2.20000000000013
20
21.7411389990574
30
0
41
1
10
-2.19999999999996
20
21.7922265879071
30
0
41
1
10
-2.20000000000007
20
21.8378144981283
30
0
41
1
10
-2.20000000000005
20
21.8692221254413
30
0
41
1
10
-2.20000000000013
20
21.8978063777089
30
0
41
1
10
-2.2000000000001
20
21.9235254752891
30
0
41
1
10
-2.20000000000013
20
21.9463373508773
30
0
41
1
10
-2.20000000000005
20
21.9661972037607
30
0
41
1
10
-2.20000000000005
20
21.9830583809745
30
0
41
1
10
-2.20000000000013
20
21.9968726399857
30
0
41
1
10
-2.20000000000007
20
22.0069885183622
30
0
41
1
10
-2.20000000000002
20
22.0117698372642
30
0
41
1
10
-2.20000000000002
20
22.0135723302408
30
0
0
SPLINE
5
15A
100
AcDbEntity
8
SK1
62
256
6
ByLayer
370
18
48
1
60
0
100
AcDbSpline
70
4
71
2
72
6
73
3
40
0
40
0
40
0
40
1
40
1
40
1
41
1
10
-36.5000000000001
20
21.1521177089668
30
0
41
1
10
-19.3499999999701
20
21.5828554470541
30
0
41
1
10
-2.20000000000002
20
22.0135928951589
30
0
0
SPLINE
5
15B
100
AcDbEntity
8
SK1
62
256
6
ByLayer
370
18
48
1
60
0
100
AcDbSpline
70
4
71
2
72
6
73
3
40
0
40
0
40
0
40
1
40
1
40
1
41
1
10
-2.19999999999999
20
-22.0135927638551
30
0
41
1
10
-19.3499999999869
20
-21.5828539542124
30
0
41
1
10
-36.4999999999999
20
-21.152114958021
30
0
0
SPLINE
5
15C
100
AcDbEntity
8
SK1
62
256
6
ByLayer
370
18
48
1
60
0
100
AcDbSpline
70
4
71
3
72
295
73
291
40
0
40
0
40
0
40
0
40
0.0029678153242373
40
0.006543586040152
40
0.0101193567560666
40
0.0136951274719812
40
0.0172708981878959
40
0.0208466689038105
40
0.0279982103356398
40
0.0351497517674691
40
0.0423012931992983
40
0.045877063915213
40
0.0494528346311276
40
0.0530286053470423
40
0.0566043760629569
40
0.0637559174947862
40
0.0673316882107008
40
0.0709074589266155
40
0.0744832296425302
40
0.0780590003584448
40
0.0816347710743594
40
0.085210541790274
40
0.0923620832221033
40
0.095937853938018
40
0.0995136246539326
40
0.103089395369847
40
0.106665166085762
40
0.110240936801677
40
0.113816707517591
40
0.117392478233506
40
0.12096824894942
40
0.124544019665335
40
0.12811979038125
40
0.131695561097164
40
0.135271331813079
40
0.138847102528994
40
0.142422873244908
40
0.149574414676738
40
0.153150185392652
40
0.156725956108567
40
0.158513841466524
40
0.160301726824481
40
0.163877497540396
40
0.171029038972225
40
0.17460480968814
40
0.178180580404055
40
0.181756351119969
40
0.185332121835884
40
0.192483663267713
40
0.196059433983628
40
0.199635204699542
40
0.2014230900575
40
0.203210975415457
40
0.206786746131372
40
0.213938287563201
40
0.217514058279116
40
0.22108982899503
40
0.224665599710945
40
0.22824137042686
40
0.235392911858689
40
0.238968682574604
40
0.242544453290518
40
0.244332338648476
40
0.246120224006433
40
0.249695994722347
40
0.253271765438262
40
0.256847536154177
40
0.258635421512134
40
0.260423306870091
40
0.263999077586006
40
0.267574848301921
40
0.271150619017835
40
0.27472638973375
40
0.278302160449665
40
0.281877931165579
40
0.285453701881494
40
0.289029472597409
40
0.292605243313323
40
0.296181014029238
40
0.299756784745152
40
0.303332555461067
40
0.306908326176982
40
0.310484096892896
40
0.314059867608811
40
0.32121140904064
40
0.324787179756555
40
0.32836295047247
40
0.331938721188384
40
0.335514491904299
40
0.339090262620214
40
0.342666033336128
40
0.346241804052043
40
0.349817574767958
40
0.356969116199787
40
0.364120657631616
40
0.371272199063445
40
0.37484796977936
40
0.378423740495275
40
0.381999511211189
40
0.385575281927104
40
0.389151052643019
40
0.392726823358933
40
0.396302594074848
40
0.399878364790762
40
0.403454135506677
40
0.407029906222592
40
0.410605676938506
40
0.414181447654421
40
0.417757218370336
40
0.42133298908625
40
0.424908759802165
40
0.42848453051808
40
0.432060301233994
40
0.433848186591952
40
0.435636071949909
40
0.437423957307866
40
0.439211842665823
40
0.442787613381738
40
0.446363384097653
40
0.44815126945561
40
0.449939154813567
40
0.451727040171525
40
0.453514925529482
40
0.457090696245397
40
0.458878581603354
40
0.460666466961311
40
0.462454352319269
40
0.464242237677226
40
0.466030123035183
40
0.467818008393141
40
0.469605893751098
40
0.471393779109055
40
0.473181664467013
40
0.47496954982497
40
0.476757435182927
40
0.478545320540885
40
0.480333205898842
40
0.482121091256799
40
0.483908976614757
40
0.485696861972714
40
0.487484747330671
40
0.489272632688628
40
0.491060518046586
40
0.492848403404543
40
0.4946362887625
40
0.496424174120458
40
0.498212059478415
40
0.499999944836372
40
0.50178783019433
40
0.503575715552287
40
0.505363600910244
40
0.507151486268202
40
0.508939371626159
40
0.510727256984116
40
0.512515142342074
40
0.514303027700031
40
0.516090913057988
40
0.517878798415946
40
0.519666683773903
40
0.52145456913186
40
0.523242454489818
40
0.525030339847775
40
0.526818225205732
40
0.528606110563689
40
0.530393995921647
40
0.532181881279604
40
0.533969766637561
40
0.535757651995519
40
0.537545537353476
40
0.539333422711433
40
0.541121308069391
40
0.542909193427348
40
0.546484964143263
40
0.54827284950122
40
0.550060734859178
40
0.551848620217135
40
0.553636505575092
40
0.557212276291007
40
0.560788047006921
40
0.562575932364879
40
0.564363817722836
40
0.566151703080793
40
0.567939588438751
40
0.571515359154665
40
0.57509112987058
40
0.578666900586495
40
0.582242671302409
40
0.585818442018324
40
0.589394212734238
40
0.592969983450153
40
0.596545754166068
40
0.600121524881982
40
0.603697295597897
40
0.607273066313812
40
0.610848837029726
40
0.614424607745641
40
0.618000378461556
40
0.62157614917747
40
0.625151919893385
40
0.6287276906093
40
0.635879232041129
40
0.643030773472958
40
0.650182314904788
40
0.653758085620702
40
0.657333856336617
40
0.660909627052531
40
0.664485397768446
40
0.668061168484361
40
0.671636939200275
40
0.67521270991619
40
0.678788480632105
40
0.685940022063934
40
0.689515792779848
40
0.693091563495763
40
0.696667334211678
40
0.700243104927592
40
0.703818875643507
40
0.707394646359422
40
0.710970417075336
40
0.714546187791251
40
0.718121958507166
40
0.72169772922308
40
0.725273499938995
40
0.728849270654909
40
0.736000812086739
40
0.739576582802653
40
0.743152353518568
40
0.750303894950397
40
0.753879665666312
40
0.757455436382227
40
0.761031207098141
40
0.764606977814056
40
0.771758519245885
40
0.7753342899618
40
0.778910060677714
40
0.782485831393629
40
0.786061602109544
40
0.793213143541373
40
0.796788914257288
40
0.800364684973202
40
0.803940455689117
40
0.807516226405032
40
0.814667767836861
40
0.818243538552776
40
0.82181930926869
40
0.825395079984605
40
0.828970850700519
40
0.836122392132349
40
0.839698162848263
40
0.843273933564178
40
0.846849704280093
40
0.850425474996007
40
0.857577016427836
40
0.861152787143751
40
0.864728557859666
40
0.86830432857558
40
0.871880099291495
40
0.87545587000741
40
0.879031640723324
40
0.882607411439239
40
0.886183182155154
40
0.889758952871068
40
0.893334723586983
40
0.896910494302898
40
0.900486265018812
40
0.904062035734727
40
0.907637806450642
40
0.914789347882471
40
0.918365118598386
40
0.9219408893143
40
0.925516660030215
40
0.929092430746129
40
0.932668201462044
40
0.936243972177959
40
0.943395513609788
40
0.946971284325703
40
0.950547055041617
40
0.954122825757532
40
0.957698596473446
40
0.964850137905276
40
0.96842590862119
40
0.972001679337105
40
0.97557745005302
40
0.979153220768934
40
0.982728991484849
40
0.986304762200764
40
0.989880532916678
40
0.993456303632593
40
0.997032074348507
40
1
40
1
40
1
40
1
41
1
10
-36.5
20
-21.1520778169087
30
0
41
1
10
-36.5
20
-21.1503457490607
30
0
41
1
10
-36.5000000000001
20
-21.1457468241256
30
0
41
1
10
-36.4999999999999
20
-21.1360112678939
30
0
41
1
10
-36.4999999999998
20
-21.1226986497682
30
0
41
1
10
-36.4999999999998
20
-21.1064402158535
30
0
41
1
10
-36.4999999999999
20
-21.0872797426225
30
0
41
1
10
-36.5
20
-21.0578537406021
30
0
41
1
10
-36.5
20
-21.0141777773225
30
0
41
1
10
-36.4999999999999
20
-20.9507130747221
30
0
41
1
10
-36.4999999999999
20
-20.8890285612072
30
0
41
1
10
-36.5
20
-20.8342802658873
30
0
41
1
10
-36.5
20
-20.7907267804187
30
0
41
1
10
-36.4999999999998
20
-20.7446291690672
30
0
41
1
10
-36.4999999999998
20
-20.6796864194098
30
0
41
1
10
-36.5000000000001
20
-20.6101652524538
30
0
41
1
10
-36.4999999999998
20
-20.5353747251341
30
0
41
1
10
-36.5000000000001
20
-20.4769783324061
30
0
41
1
10
-36.4999999999998
20
-20.4161995895792
30
0
41
1
10
-36.5000000000001
20
-20.3530628196558
30
0
41
1
10
-36.5000000000001
20
-20.2875896826629
30
0
41
1
10
-36.5000000000001
20
-20.1970436182685
30
0
41
1
10
-36.4999999999999
20
-20.1024192722934
30
0
41
1
10
-36.5
20
-20.0027815031753
30
0
41
1
10
-36.5
20
-19.925953557262
30
0
41
1
10
-36.5
20
-19.8469141355253
30
0
41
1
10
-36.5
20
-19.7656833730652
30
0
41
1
10
-36.4999999999998
20
-19.6822775189499
30
0
41
1
10
-36.5000000000001
20
-19.5967148149265
30
0
41
1
10
-36.4999999999998
20
-19.5090135394172
30
0
41
1
10
-36.5000000000001
20
-19.4191882696521
30
0
41
1
10
-36.5
20
-19.3272561697679
30
0
41
1
10
-36.5
20
-19.2332338822714
30
0
41
1
10
-36.5000000000001
20
-19.1371346902895
30
0
41
1
10
-36.4999999999999
20
-19.0389746878943
30
0
41
1
10
-36.4999999999998
20
-18.9387689752276
30
0
41
1
10
-36.5000000000001
20
-18.8022215100792
30
0
41
1
10
-36.4999999999999
20
-18.6623317385554
30
0
41
1
10
-36.4999999999998
20
-18.5177544284037
30
0
41
1
10
-36.4999999999999
20
-18.4260133905722
30
0
41
1
10
-36.4999999999998
20
-18.3514175898239
30
0
41
1
10
-36.4999999999999
20
-18.2761667145512
30
0
41
1
10
-36.4999999999999
20
-18.1428549391526
30
0
41
1
10
-36.4999999999999
20
-17.9872696454242
30
0
41
1
10
-36.5000000000001
20
-17.8270700659302
30
0
41
1
10
-36.4999999999999
20
-17.705205542109
30
0
41
1
10
-36.4999999999998
20
-17.5814423770725
30
0
41
1
10
-36.4999999999999
20
-17.4136311437529
30
0
41
1
10
-36.5
20
-17.2428939764418
30
0
41
1
10
-36.5000000000001
20
-17.0675963011879
30
0
41
1
10
-36.5000000000001
20
-16.9568152899199
30
0
41
1
10
-36.4999999999999
20
-16.8670089991511
30
0
41
1
10
-36.5000000000001
20
-16.7765898513275
30
0
41
1
10
-36.4999999999999
20
-16.6168596157573
30
0
41
1
10
-36.5000000000001
20
-16.4314438788641
30
0
41
1
10
-36.4999999999998
20
-16.2414991337765
30
0
41
1
10
-36.5
20
-16.0974747197412
30
0
41
1
10
-36.4999999999999
20
-15.9516616651349
30
0
41
1
10
-36.5
20
-15.754544535149
30
0
41
1
10
-36.4999999999998
20
-15.5548613446891
30
0
41
1
10
-36.4999999999999
20
-15.350663385132
30
0
41
1
10
-36.5000000000001
20
-15.221960038874
30
0
41
1
10
-36.4999999999998
20
-15.1178164480938
30
0
41
1
10
-36.5000000000001
20
-15.0130920883856
30
0
41
1
10
-36.5
20
-14.8814910451209
30
0
41
1
10
-36.4999999999999
20
-14.7216281332595
30
0
41
1
10
-36.5
20
-14.5871530954063
30
0
41
1
10
-36.5000000000001
20
-14.4783873813365
30
0
41
1
10
-36.5
20
-14.3690494022438
30
0
41
1
10
-36.5
20
-14.2317235183091
30
0
41
1
10
-36.5
20
-14.0650028858777
30
0
41
1
10
-36.5000000000002
20
-13.8965816080868
30
0
41
1
10
-36.4999999999998
20
-13.7264689694466
30
0
41
1
10
-36.5000000000001
20
-13.5546710496345
30
0
41
1
10
-36.4999999999999
20
-13.3811910773123
30
0
41
1
10
-36.4999999999998
20
-13.2060373742644
30
0
41
1
10
-36.5
20
-13.0292149133305
30
0
41
1
10
-36.5000000000001
20
-12.8507281773021
30
0
41
1
10
-36.5
20
-12.6705857874606
30
0
41
1
10
-36.4999999999999
20
-12.4887914218501
30
0
41
1
10
-36.5
20
-12.3053503484467
30
0
41
1
10
-36.5000000000001
20
-12.1202706879329
30
0
41
1
10
-36.5000000000002
20
-11.9335555855447
30
0
41
1
10
-36.4999999999999
20
-11.6819759204348
30
0
41
1
10
-36.4999999999999
20
-11.4285505376587
30
0
41
1
10
-36.4999999999999
20
-11.17046608745
30
0
41
1
10
-36.5
20
-10.9756651586941
30
0
41
1
10
-36.5
20
-10.7792636737398
30
0
41
1
10
-36.5000000000001
20
-10.5812696725589
30
0
41
1
10
-36.4999999999999
20
-10.3816871154457
30
0
41
1
10
-36.5
20
-10.1805237104931
30
0
41
1
10
-36.4999999999998
20
-9.97778558435041
30
0
41
1
10
-36.5000000000001
20
-9.70483576808877
30
0
41
1
10
-36.4999999999999
20
-9.36101276272151
30
0
41
1
10
-36.4999999999998
20
-8.94153438933256
30
0
41
1
10
-36.5000000000001
20
-8.58745787193715
30
0
41
1
10
-36.5000000000001
20
-8.30004464023605
30
0
41
1
10
-36.5
20
-8.083469503944
30
0
41
1
10
-36.5000000000001
20
-7.86540102208505
30
0
41
1
10
-36.4999999999997
20
-7.64585131899617
30
0
41
1
10
-36.5000000000001
20
-7.42483318088856
30
0
41
1
10
-36.5000000000002
20
-7.20235735193444
30
0
41
1
10
-36.5000000000001
20
-6.9784375587999
30
0
41
1
10
-36.4999999999998
20
-6.75308981071333
30
0
41
1
10
-36.5000000000001
20
-6.52633035082306
30
0
41
1
10
-36.4999999999999
20
-6.29817753233076
30
0
41
1
10
-36.5000000000002
20
-6.06865022444933
30
0
41
1
10
-36.4999999999999
20
-5.83776884649421
30
0
41
1
10
-36.5
20
-5.6055566044885
30
0
41
1
10
-36.4999999999998
20
-5.37203985998687
30
0
41
1
10
-36.4999999999999
20
-5.13724579696881
30
0
41
1
10
-36.4999999999999
20
-4.90120595303733
30
0
41
1
10
-36.5000000000001
20
-4.70396583147431
30
0
41
1
10
-36.5000000000002
20
-4.54469638576862
30
0
41
1
10
-36.5
20
-4.42533999597057
30
0
41
1
10
-36.4999999999999
20
-4.30569972295399
30
0
41
1
10
-36.5000000000001
20
-4.14529336499888
30
0
41
1
10
-36.5000000000001
20
-3.94531865595241
30
0
41
1
10
-36.5
20
-3.74444957084995
30
0
41
1
10
-36.4999999999999
20
-3.58224076117998
30
0
41
1
10
-36.5000000000002
20
-3.4607895896354
30
0
41
1
10
-36.4999999999999
20
-3.33910702605112
30
0
41
1
10
-36.5
20
-3.17597085922355
30
0
41
1
10
-36.5
20
-3.01425651604572
30
0
41
1
10
-36.4999999999999
20
-2.85023149996022
30
0
41
1
10
-36.4999999999999
20
-2.7275215493118
30
0
41
1
10
-36.5000000000001
20
-2.60463052157473
30
0
41
1
10
-36.4999999999999
20
-2.48157378937668
30
0
41
1
10
-36.5000000000001
20
-2.3583562112305
30
0
41
1
10
-36.4999999999999
20
-2.23499061660064
30
0
41
1
10
-36.4999999999999
20
-2.1114876108135
30
0
41
1
10
-36.5000000000001
20
-1.98785451527684
30
0
41
1
10
-36.5
20
-1.86410632124108
30
0
41
1
10
-36.4999999999999
20
-1.74024827700836
30
0
41
1
10
-36.5
20
-1.61629526151518
30
0
41
1
10
-36.5
20
-1.49225310041979
30
0
41
1
10
-36.4999999999999
20
-1.36813478148952
30
0
41
1
10
-36.5
20
-1.24394732222802
30
0
41
1
10
-36.5
20
-1.11970117534875
30
0
41
1
10
-36.4999999999999
20
-0.995403485642868
30
0
41
1
10
-36.5000000000001
20
-0.871062917068571
30
0
41
1
10
-36.5000000000001
20
-0.746686102657861
30
0
41
1
10
-36.5
20
-0.622280124115747
30
0
41
1
10
-36.4999999999999
20
-0.497850420758368
30
0
41
1
10
-36.4999999999998
20
-0.37340293518227
30
0
41
1
10
-36.5000000000001
20
-0.248942238793262
30
0
41
1
10
-36.5
20
-0.124473257201089
30
0
41
1
10
-36.4999999999999
20
-9.2464632E-09
30
0
41
1
10
-36.5
20
0.124473254673717
30
0
41
1
10
-36.5000000000001
20
0.248942266430333
30
0
41
1
10
-36.5000000000001
20
0.373402960091226
30
0
41
1
10
-36.5000000000001
20
0.497850400790242
30
0
41
1
10
-36.5000000000001
20
0.622280094010506
30
0
41
1
10
-36.4999999999999
20
0.746686131491856
30
0
41
1
10
-36.4999999999999
20
0.871062970095181
30
0
41
1
10
-36.5
20
0.995403468230734
30
0
41
1
10
-36.5
20
1.11970111692653
30
0
41
1
10
-36.5000000000002
20
1.24394734076793
30
0
41
1
10
-36.5
20
1.36813486147503
30
0
41
1
10
-36.4999999999998
20
1.49225310642987
30
0
41
1
10
-36.5
20
1.61629518356946
30
0
41
1
10
-36.4999999999998
20
1.74024825464124
30
0
41
1
10
-36.5
20
1.86410640329129
30
0
41
1
10
-36.4999999999999
20
1.98785458048852
30
0
41
1
10
-36.5000000000001
20
2.11148756075894
30
0
41
1
10
-36.5000000000001
20
2.23499052786048
30
0
41
1
10
-36.4999999999999
20
2.35835622798197
30
0
41
1
10
-36.5
20
2.48157389743912
30
0
41
1
10
-36.5000000000001
20
2.6046305710681
30
0
41
1
10
-36.5
20
2.72752148004807
30
0
41
1
10
-36.5000000000003
20
2.85023140656216
30
0
41
1
10
-36.5
20
3.01425656877114
30
0
41
1
10
-36.5000000000002
20
3.17597095993762
30
0
41
1
10
-36.5000000000001
20
3.33910698167944
30
0
41
1
10
-36.5
20
3.46078948211155
30
0
41
1
10
-36.4999999999999
20
3.5822407219186
30
0
41
1
10
-36.5
20
3.74444967050351
30
0
41
1
10
-36.5
20
3.9453186904812
30
0
41
1
10
-36.4999999999999
20
4.14529326648036
30
0
41
1
10
-36.5000000000001
20
4.30569969171867
30
0
41
1
10
-36.5000000000001
20
4.42534006396775
30
0
41
1
10
-36.5000000000001
20
4.54469650094595
30
0
41
1
10
-36.5
20
4.70396584910509
30
0
41
1
10
-36.5000000000001
20
4.9012058646359
30
0
41
1
10
-36.4999999999999
20
5.13724581146545
30
0
41
1
10
-36.5000000000001
20
5.37203995090795
30
0
41
1
10
-36.5000000000001
20
5.60555655529345
30
0
41
1
10
-36.5
20
5.83776875015027
30
0
41
1
10
-36.5000000000001
20
6.06865017711181
30
0
41
1
10
-36.5000000000002
20
6.2981774821163
30
0
41
1
10
-36.5000000000001
20
6.52633051401986
30
0
41
1
10
-36.4999999999999
20
6.75309051279777
30
0
41
1
10
-36.5000000000002
20
6.97843834484914
30
0
41
1
10
-36.4999999999999
20
7.20235684280959
30
0
41
1
10
-36.5000000000001
20
7.42483229470736
30
0
41
1
10
-36.5000000000001
20
7.6458515861157
30
0
41
1
10
-36.4999999999999
20
7.86540128403743
30
0
41
1
10
-36.5000000000001
20
8.08346945831582
30
0
41
1
10
-36.5000000000003
20
8.30004452993873
30
0
41
1
10
-36.5
20
8.5874578259693
30
0
41
1
10
-36.4999999999999
20
8.94153442741859
30
0
41
1
10
-36.5000000000001
20
9.36101273737583
30
0
41
1
10
-36.5000000000001
20
9.70483575174805
30
0
41
1
10
-36.5000000000003
20
9.97778564072297
30
0
41
1
10
-36.5
20
10.18052371466
30
0
41
1
10
-36.5000000000001
20
10.3816870614503
30
0
41
1
10
-36.4999999999999
20
10.5812696339219
30
0
41
1
10
-36.5000000000003
20
10.7792636942326
30
0
41
1
10
-36.5
20
10.9756652058485
30
0
41
1
10
-36.5000000000002
20
11.1704660987634
30
0
41
1
10
-36.5000000000001
20
11.4285504962003
30
0
41
1
10
-36.5000000000001
20
11.6819759007753
30
0
41
1
10
-36.5000000000002
20
11.933555625271
30
0
41
1
10
-36.5
20
12.1202707134411
30
0
41
1
10
-36.5
20
12.305350332075
30
0
41
1
10
-36.5000000000001
20
12.4887913848282
30
0
41
1
10
-36.5000000000001
20
12.670585770429
30
0
41
1
10
-36.5000000000001
20
12.8507281979535
30
0
41
1
10
-36.5
20
13.0292149436135
30
0
41
1
10
-36.5000000000001
20
13.2060373895955
30
0
41
1
10
-36.4999999999999
20
13.381191143136
30
0
41
1
10
-36.5000000000001
20
13.5546713888899
30
0
41
1
10
-36.5000000000001
20
13.7264696827891
30
0
41
1
10
-36.5
20
13.9536769173599
30
0
41
1
10
-36.4999999999999
20
14.1763485768088
30
0
41
1
10
-36.4999999999999
20
14.3967384349212
30
0
41
1
10
-36.5000000000001
20
14.6148460432232
30
0
41
1
10
-36.5000000000001
20
14.8284315021104
30
0
41
1
10
-36.4999999999999
20
15.0396227184095
30
0
41
1
10
-36.5000000000002
20
15.1960147192179
30
0
41
1
10
-36.4999999999999
20
15.3506631330602
30
0
41
1
10
-36.5000000000002
20
15.5548624364719
30
0
41
1
10
-36.5000000000001
20
15.7545451164334
30
0
41
1
10
-36.5000000000001
20
15.9516609547091
30
0
41
1
10
-36.5
20
16.0974737380165
30
0
41
1
10
-36.5000000000003
20
16.2414988132777
30
0
41
1
10
-36.5000000000002
20
16.4314450331349
30
0
41
1
10
-36.5000000000002
20
16.616860885421
30
0
41
1
10
-36.5000000000001
20
16.7995343923803
30
0
41
1
10
-36.5000000000001
20
16.9344844206002
30
0
41
1
10
-36.5
20
17.0675955495037
30
0
41
1
10
-36.5000000000002
20
17.2428947983012
30
0
41
1
10
-36.5000000000001
20
17.4136313821347
30
0
41
1
10
-36.5000000000002
20
17.5814422063201
30
0
41
1
10
-36.5000000000002
20
17.7052052466276
30
0
41
1
10
-36.5000000000002
20
17.8270699155307
30
0
41
1
10
-36.5000000000002
20
17.9872703841192
30
0
41
1
10
-36.4999999999999
20
18.1428562465543
30
0
41
1
10
-36.4999999999999
20
18.2953166794047
30
0
41
1
10
-36.5
20
18.4075180436267
30
0
41
1
10
-36.5000000000002
20
18.517753555559
30
0
41
1
10
-36.5000000000002
20
18.6623326618872
30
0
41
1
10
-36.4999999999999
20
18.8022222651528
30
0
41
1
10
-36.5000000000003
20
18.9387686023435
30
0
41
1
10
-36.5000000000002
20
19.0389739868785
30
0
41
1
10
-36.4999999999999
20
19.1371342717784
30
0
41
1
10
-36.5000000000002
20
19.2332339353274
30
0
41
1
10
-36.5
20
19.3272562516112
30
0
41
1
10
-36.5
20
19.4191882978896
30
0
41
1
10
-36.5000000000002
20
19.509013543713
30
0
41
1
10
-36.5000000000001
20
19.5967148362677
30
0
41
1
10
-36.4999999999999
20
19.6822775521961
30
0
41
1
10
-36.5
20
19.7656833992675
30
0
41
1
10
-36.5000000000001
20
19.8469141406671
30
0
41
1
10
-36.5000000000001
20
19.9259535527379
30
0
41
1
10
-36.5
20
20.0027815100321
30
0
41
1
10
-36.5000000000001
20
20.1024193061391
30
0
41
1
10
-36.5000000000001
20
20.1970436522849
30
0
41
1
10
-36.5000000000001
20
20.2875896816239
30
0
41
1
10
-36.5
20
20.3530628162378
30
0
41
1
10
-36.5
20
20.4161996091985
30
0
41
1
10
-36.5000000000001
20
20.4769783724373
30
0
41
1
10
-36.4999999999999
20
20.5353747607016
30
0
41
1
10
-36.5
20
20.6101652553121
30
0
41
1
10
-36.5
20
20.6796864153795
30
0
41
1
10
-36.5000000000001
20
20.7446292080421
30
0
41
1
10
-36.5000000000001
20
20.7907268231737
30
0
41
1
10
-36.5000000000001
20
20.8342802793505
30
0
41
1
10
-36.5000000000001
20
20.8890285523333
30
0
41
1
10
-36.5000000000001
20
20.9382580424268
30
0
41
1
10
-36.5000000000001
20
20.9824409225428
30
0
41
1
10
-36.5
20
21.0128017234863
30
0
41
1
10
-36.5000000000001
20
21.0404207944711
30
0
41
1
10
-36.5000000000001
20
21.0652596303331
30
0
41
1
10
-36.5
20
21.0872797892674
30
0
41
1
10
-36.5000000000002
20
21.1064402531505
30
0
41
1
10
-36.5000000000001
20
21.122698651619
30
0
41
1
10
-36.5000000000001
20
21.1360112646484
30
0
41
1
10
-36.5
20
21.1457469769553
30
0
41
1
10
-36.5
20
21.1503460352971
30
0
41
1
10
-36.5000000000001
20
21.1520781813335
30
0
0
SPLINE
5
15D
100
AcDbEntity
8
SK1
62
256
6
ByLayer
370
18
48
1
60
0
100
AcDbSpline
70
4
71
3
72
299
73
295
40
0
40
0
40
0
40
0
40
0.0028841367162066
40
0.0064096902921535
40
0.0099352438681005
40
0.0134607974440474
40
0.0169863510199944
40
0.0205119045959413
40
0.0240374581718883
40
0.0275630117478352
40
0.0346141188997292
40
0.0416652260516231
40
0.048716333203517
40
0.0522418867794639
40
0.0557674403554109
40
0.0592929939313578
40
0.0628185475073048
40
0.0698696546591987
40
0.0733952082351456
40
0.0769207618110926
40
0.0804463153870395
40
0.0839718689629865
40
0.0874974225389334
40
0.0910229761148804
40
0.0980740832667743
40
0.101599636842721
40
0.105125190418668
40
0.108650743994615
40
0.112176297570562
40
0.115701851146509
40
0.119227404722456
40
0.122752958298403
40
0.12627851187435
40
0.129804065450297
40
0.133329619026244
40
0.136855172602191
40
0.140380726178138
40
0.143906279754085
40
0.147431833330032
40
0.154482940481926
40
0.158008494057873
40
0.16153404763382
40
0.163296824421793
40
0.165059601209767
40
0.168585154785713
40
0.175636261937607
40
0.179161815513554
40
0.182687369089501
40
0.186212922665448
40
0.189738476241395
40
0.196789583393289
40
0.200315136969236
40
0.203840690545183
40
0.205603467333156
40
0.20736624412113
40
0.210891797697077
40
0.217942904848971
40
0.221468458424918
40
0.224994012000865
40
0.228519565576812
40
0.232045119152758
40
0.239096226304652
40
0.242621779880599
40
0.246147333456546
40
0.24791011024452
40
0.249672887032493
40
0.25319844060844
40
0.256723994184387
40
0.260249547760334
40
0.262012324548308
40
0.263775101336281
40
0.267300654912228
40
0.270826208488175
40
0.274351762064122
40
0.277877315640069
40
0.281402869216016
40
0.284928422791963
40
0.28845397636791
40
0.291979529943857
40
0.295505083519804
40
0.299030637095751
40
0.302556190671698
40
0.306081744247645
40
0.309607297823591
40
0.313132851399538
40
0.316658404975485
40
0.323709512127379
40
0.327235065703326
40
0.330760619279273
40
0.33428617285522
40
0.337811726431167
40
0.341337280007114
40
0.344862833583061
40
0.348388387159008
40
0.351913940734955
40
0.358965047886849
40
0.366016155038743
40
0.373067262190637
40
0.376592815766584
40
0.380118369342531
40
0.383643922918477
40
0.387169476494425
40
0.390695030070371
40
0.394220583646318
40
0.397746137222265
40
0.401271690798212
40
0.404797244374159
40
0.408322797950106
40
0.411848351526053
40
0.415373905102
40
0.418899458677947
40
0.422425012253894
40
0.425950565829841
40
0.429476119405788
40
0.433001672981735
40
0.434764449769708
40
0.436527226557682
40
0.438290003345655
40
0.440052780133629
40
0.443578333709576
40
0.447103887285523
40
0.448866664073496
40
0.45062944086147
40
0.452392217649443
40
0.454154994437417
40
0.457680548013364
40
0.459443324801337
40
0.461206101589311
40
0.462968878377284
40
0.464731655165258
40
0.466494431953231
40
0.468257208741205
40
0.470019985529178
40
0.471782762317151
40
0.473545539105125
40
0.475308315893098
40
0.477071092681072
40
0.478833869469045
40
0.480596646257019
40
0.482359423044992
40
0.484122199832966
40
0.485884976620939
40
0.487647753408913
40
0.489410530196886
40
0.49117330698486
40
0.492936083772833
40
0.494698860560807
40
0.49646163734878
40
0.498224414136754
40
0.499987190924727
40
0.501749967712701
40
0.503512744500674
40
0.505275521288647
40
0.507038298076621
40
0.508801074864594
40
0.510563851652568
40
0.512326628440541
40
0.514089405228515
40
0.515852182016488
40
0.517614958804462
40
0.519377735592435
40
0.521140512380409
40
0.522903289168382
40
0.524666065956356
40
0.526428842744329
40
0.528191619532303
40
0.529954396320276
40
0.53171717310825
40
0.533479949896223
40
0.535242726684197
40
0.53700550347217
40
0.538768280260144
40
0.540531057048117
40
0.54229383383609
40
0.545819387412037
40
0.547582164200011
40
0.549344940987984
40
0.551107717775958
40
0.552870494563931
40
0.556396048139878
40
0.559921601715825
40
0.561684378503799
40
0.563447155291772
40
0.565209932079746
40
0.566972708867719
40
0.570498262443666
40
0.574023816019613
40
0.57754936959556
40
0.581074923171507
40
0.584600476747454
40
0.588126030323401
40
0.591651583899348
40
0.595177137475295
40
0.598702691051242
40
0.602228244627189
40
0.605753798203136
40
0.609279351779083
40
0.61280490535503
40
0.616330458930976
40
0.619856012506923
40
0.62338156608287
40
0.626907119658817
40
0.633958226810711
40
0.641009333962605
40
0.648060441114499
40
0.651585994690446
40
0.655111548266393
40
0.65863710184234
40
0.662162655418287
40
0.665688208994234
40
0.669213762570181
40
0.672739316146128
40
0.676264869722075
40
0.683315976873969
40
0.686841530449916
40
0.690367084025863
40
0.69389263760181
40
0.697418191177757
40
0.700943744753703
40
0.70446929832965
40
0.707994851905597
40
0.711520405481544
40
0.715045959057491
40
0.718571512633438
40
0.722097066209385
40
0.725622619785332
40
0.732673726937226
40
0.736199280513173
40
0.73972483408912
40
0.746775941241014
40
0.750301494816961
40
0.753827048392908
40
0.757352601968855
40
0.760878155544802
40
0.767929262696696
40
0.771454816272642
40
0.774980369848589
40
0.778505923424536
40
0.782031477000483
40
0.789082584152377
40
0.792608137728324
40
0.796133691304271
40
0.799659244880218
40
0.803184798456165
40
0.810235905608059
40
0.813761459184006
40
0.817287012759953
40
0.8208125663359
40
0.824338119911847
40
0.831389227063741
40
0.834914780639688
40
0.838440334215635
40
0.841965887791581
40
0.845491441367529
40
0.852542548519422
40
0.856068102095369
40
0.859593655671316
40
0.863119209247263
40
0.86664476282321
40
0.870170316399157
40
0.873695869975104
40
0.877221423551051
40
0.880746977126998
40
0.884272530702945
40
0.887798084278892
40
0.891323637854839
40
0.894849191430786
40
0.898374745006733
40
0.90190029858268
40
0.908951405734574
40
0.912476959310521
40
0.916002512886468
40
0.919528066462414
40
0.923053620038362
40
0.926579173614309
40
0.930104727190255
40
0.937155834342149
40
0.940681387918096
40
0.944206941494043
40
0.94773249506999
40
0.951258048645937
40
0.958309155797831
40
0.961834709373778
40
0.965360262949725
40
0.968885816525672
40
0.972411370101619
40
0.975936923677566
40
0.979462477253513
40
0.98298803082946
40
0.986513584405407
40
0.990039137981354
40
0.993564691557301
40
0.997090245133248
40
1
40
1
40
1
40
1
41
1
10
-1.99503997793909
20
-21.8251859284221
30
0
41
1
10
-1.99503997793903
20
-21.8251767283026
30
0
41
1
10
-1.99503997793903
20
-21.8243416778007
30
0
41
1
10
-1.99503997793923
20
-21.8202836860758
30
0
41
1
10
-1.99503997793912
20
-21.8127830441419
30
0
41
1
10
-1.99503997793906
20
-21.8021565364933
30
0
41
1
10
-1.9950399779394
20
-21.7884557330329
30
0
41
1
10
-1.99503997793917
20
-21.7717308612525
30
0
41
1
10
-1.99503997793917
20
-21.7520291985819
30
0
41
1
10
-1.99503997793923
20
-21.7218385059106
30
0
41
1
10
-1.9950399779392
20
-21.6769140218913
30
0
41
1
10
-1.99503997793926
20
-21.6117670092986
30
0
41
1
10
-1.99503997793937
20
-21.5484022523456
30
0
41
1
10
-1.99503997793931
20
-21.4923512863895
30
0
41
1
10
-1.99503997793928
20
-21.447703601261
30
0
41
1
10
-1.9950399779394
20
-21.4004602751573
30
0
41
1
10
-1.99503997793943
20
-21.3340243579834
30
0
41
1
10
-1.99503997793914
20
-21.2626002065084
30
0
41
1
10
-1.99503997793934
20
-21.1861355372815
30
0
41
1
10
-1.99503997793923
20
-21.126355615456
30
0
41
1
10
-1.9950399779392
20
-21.0641493981766
30
0
41
1
10
-1.99503997793934
20
-20.9995415089613
30
0
41
1
10
-1.99503997793914
20
-20.9325549476397
30
0
41
1
10
-1.99503997793928
20
-20.8400664063017
30
0
41
1
10
-1.99503997793914
20
-20.743017194963
30
0
41
1
10
-1.99503997793923
20
-20.6412830606923
30
0
41
1
10
-1.99503997793948
20
-20.5627395849405
30
0
41
1
10
-1.99503997793931
20
-20.4819464711494
30
0
41
1
10
-1.99503997793914
20
-20.3989234016942
30
0
41
1
10
-1.99503997793931
20
-20.3136873945745
30
0
41
1
10
-1.9950399779392
20
-20.2262576082901
30
0
41
1
10
-1.99503997793914
20
-20.136651569995
30
0
41
1
10
-1.99503997793917
20
-20.0448848271875
30
0
41
1
10
-1.99503997793931
20
-19.9509751576253
30
0
41
1
10
-1.99503997793923
20
-19.8549383078337
30
0
41
1
10
-1.99503997793928
20
-19.7567886026657
30
0
41
1
10
-1.99503997793923
20
-19.6565424313982
30
0
41
1
10
-1.9950399779392
20
-19.5542139601407
30
0
41
1
10
-1.99503997793923
20
-19.4149698127943
30
0
41
1
10
-1.99503997793937
20
-19.2717622924358
30
0
41
1
10
-1.99503997793906
20
-19.1243520606763
30
0
41
1
10
-1.9950399779392
20
-19.0305969699326
30
0
41
1
10
-1.99503997793931
20
-18.9545457436667
30
0
41
1
10
-1.99503997793909
20
-18.8778283452338
30
0
41
1
10
-1.9950399779394
20
-18.7418485706133
30
0
41
1
10
-1.99503997793923
20
-18.5826225030747
30
0
41
1
10
-1.9950399779392
20
-18.4193199892891
30
0
41
1
10
-1.99503997793937
20
-18.2949375082748
30
0
41
1
10
-1.99503997793934
20
-18.1686188381619
30
0
41
1
10
-1.99503997793926
20
-17.9975681157065
30
0
41
1
10
-1.9950399779392
20
-17.8228588844704
30
0
41
1
10
-1.99503997793926
20
-17.6441795672679
30
0
41
1
10
-1.99503997793931
20
-17.5309981410348
30
0
41
1
10
-1.99503997793912
20
-17.4394590341184
30
0
41
1
10
-1.99503997793934
20
-17.347294549845
30
0
41
1
10
-1.9950399779392
20
-17.1843913435575
30
0
41
1
10
-1.99503997793928
20
-16.9946548235122
30
0
41
1
10
-1.99503997793917
20
-16.8010333841432
30
0
41
1
10
-1.99503997793926
20
-16.654027023888
30
0
41
1
10
-1.99503997793923
20
-16.5051894370887
30
0
41
1
10
-1.99503997793931
20
-16.3042392155796
30
0
41
1
10
-1.99503997793946
20
-16.099859985861
30
0
41
1
10
-1.99503997793928
20
-15.8916662065006
30
0
41
1
10
-1.99503997793934
20
-15.7601264684356
30
0
41
1
10
-1.99503997793926
20
-15.6539352235827
30
0
41
1
10
-1.9950399779394
20
-15.5471478788445
30
0
41
1
10
-1.99503997793946
20
-15.4126292313157
30
0
41
1
10
-1.99503997793926
20
-15.2493853238091
30
0
41
1
10
-1.9950399779392
20
-15.1119089381335
30
0
41
1
10
-1.99503997793926
20
-15.0009760777421
30
0
41
1
10
-1.99503997793931
20
-14.8894548819647
30
0
41
1
10
-1.99503997793943
20
-14.7490386600657
30
0
41
1
10
-1.99503997793917
20
-14.5787357079369
30
0
41
1
10
-1.99503997793914
20
-14.4066808882547
30
0
41
1
10
-1.99503997793943
20
-14.2328806917251
30
0
41
1
10
-1.9950399779394
20
-14.0573388809366
30
0
41
1
10
-1.99503997793923
20
-13.8800596938691
30
0
41
1
10
-1.99503997793931
20
-13.7010488098078
30
0
41
1
10
-1.99503997793937
20
-13.5203096364965
30
0
41
1
10
-1.99503997793934
20
-13.3378467409434
30
0
41
1
10
-1.9950399779394
20
-13.1536651576332
30
0
41
1
10
-1.99503997793928
20
-12.967767664355
30
0
41
1
10
-1.99503997793931
20
-12.7801589185361
30
0
41
1
10
-1.99503997793926
20
-12.5908431445087
30
0
41
1
10
-1.9950399779392
20
-12.3998230002592
30
0
41
1
10
-1.99503997793923
20
-12.1427688173785
30
0
41
1
10
-1.99503997793928
20
-11.8826118718573
30
0
41
1
10
-1.99503997793917
20
-11.6187779306706
30
0
41
1
10
-1.99503997793934
20
-11.4192921752591
30
0
41
1
10
-1.99503997793917
20
-11.218123373303
30
0
41
1
10
-1.99503997793928
20
-11.0152750188843
30
0
41
1
10
-1.99503997793928
20
-10.8107494713071
30
0
41
1
10
-1.9950399779392
20
-10.6045508021231
30
0
41
1
10
-1.99503997793926
20
-10.3966814407573
30
0
41
1
10
-1.99503997793934
20
-10.1171870033238
30
0
41
1
10
-1.99503997793928
20
-9.76392166117952
30
0
41
1
10
-1.99503997793928
20
-9.33322608836647
30
0
41
1
10
-1.99503997793937
20
-8.96893242084863
30
0
41
1
10
-1.99503997793934
20
-8.6739757857932
30
0
41
1
10
-1.99503997793926
20
-8.45121977200662
30
0
41
1
10
-1.99503997793937
20
-8.22682776167497
30
0
41
1
10
-1.99503997793931
20
-8.00080467620242
30
0
41
1
10
-1.99503997793923
20
-7.77315513008728
30
0
41
1
10
-1.99503997793923
20
-7.54388372935193
30
0
41
1
10
-1.99503997793923
20
-7.31299637479276
30
0
41
1
10
-1.99503997793934
20
-7.0804994545895
30
0
41
1
10
-1.99503997793926
20
-6.84639974828053
30
0
41
1
10
-1.99503997793928
20
-6.61070495432844
30
0
41
1
10
-1.99503997793934
20
-6.37342319970756
30
0
41
1
10
-1.99503997793926
20
-6.1345638401599
30
0
41
1
10
-1.99503997793926
20
-5.8941374996862
30
0
41
1
10
-1.99503997793926
20
-5.65215638001942
30
0
41
1
10
-1.99503997793928
20
-5.40863365108962
30
0
41
1
10
-1.99503997793934
20
-5.16358499073453
30
0
41
1
10
-1.9950399779392
20
-4.95821799704328
30
0
41
1
10
-1.99503997793931
20
-4.79299516838267
30
0
41
1
10
-1.99503997793931
20
-4.6687884290528
30
0
41
1
10
-1.99503997793928
20
-4.54421502813719
30
0
41
1
10
-1.99503997793934
20
-4.37752561794164
30
0
41
1
10
-1.99503997793937
20
-4.16851547631595
30
0
41
1
10
-1.99503997793928
20
-3.95832363498764
30
0
41
1
10
-1.99503997793946
20
-3.7892693583542
30
0
41
1
10
-1.9950399779394
20
-3.66223142121842
30
0
41
1
10
-1.9950399779394
20
-3.53485872774326
30
0
41
1
10
-1.99503997793928
20
-3.36446603264309
30
0
41
1
10
-1.9950399779392
20
-3.19381064862617
30
0
41
1
10
-1.99503997793926
20
-3.02213557665999
30
0
41
1
10
-1.99503997793926
20
-2.89317848373014
30
0
41
1
10
-1.99503997793943
20
-2.7639244262817
30
0
41
1
10
-1.99503997793926
20
-2.6343825134451
30
0
41
1
10
-1.99503997793926
20
-2.50455988721862
30
0
41
1
10
-1.99503997793923
20
-2.3744663633492
30
0
41
1
10
-1.99503997793926
20
-2.24411116870436
30
0
41
1
10
-1.9950399779392
20
-2.11350398186607
30
0
41
1
10
-1.9950399779392
20
-1.98265625862291
30
0
41
1
10
-1.9950399779392
20
-1.85157817347513
30
0
41
1
10
-1.99503997793926
20
-1.72028262405334
30
0
41
1
10
-1.99503997793926
20
-1.58878098022342
30
0
41
1
10
-1.99503997793928
20
-1.4570871846835
30
0
41
1
10
-1.99503997793943
20
-1.32521409071342
30
0
41
1
10
-1.99503997793923
20
-1.19317647053168
30
0
41
1
10
-1.9950399779392
20
-1.06098852682427
30
0
41
1
10
-1.99503997793931
20
-0.928665923975643
30
0
41
1
10
-1.99503997793926
20
-0.796224037396229
30
0
41
1
10
-1.99503997793934
20
-0.663679321648374
30
0
41
1
10
-1.99503997793923
20
-0.531048033506181
30
0
41
1
10
-1.99503997793928
20
-0.398347293868909
30
0
41
1
10
-1.99503997793926
20
-0.265594055935168
30
0
41
1
10
-1.99503997793926
20
-0.132805828560208
30
0
41
1
10
-1.99503997793934
20
2.0605455E-09
30
0
41
1
10
-1.99503997793926
20
0.132805835966849
30
0
41
1
10
-1.99503997793926
20
0.265594069601548
30
0
41
1
10
-1.99503997793931
20
0.398347307093417
30
0
41
1
10
-1.99503997793937
20
0.531048037421868
30
0
41
1
10
-1.99503997793926
20
0.663679323049195
30
0
41
1
10
-1.99503997793934
20
0.796224050825089
30
0
41
1
10
-1.99503997793928
20
0.928665943032058
30
0
41
1
10
-1.99503997793931
20
1.06098853158764
30
0
41
1
10
-1.99503997793934
20
1.1931764657121
30
0
41
1
10
-1.99503997793931
20
1.32521410103652
30
0
41
1
10
-1.99503997793943
20
1.45708720896536
30
0
41
1
10
-1.99503997793931
20
1.58878099035155
30
0
41
1
10
-1.99503997793934
20
1.72028261530929
30
0
41
1
10
-1.9950399779392
20
1.85157817419844
30
0
41
1
10
-1.99503997793928
20
1.98265628188187
30
0
41
1
10
-1.99503997793923
20
2.11350400419812
30
0
41
1
10
-1.99503997793931
20
2.24411116714705
30
0
41
1
10
-1.9950399779392
20
2.37446635053547
30
0
41
1
10
-1.9950399779394
20
2.50455989433326
30
0
41
1
10
-1.99503997793943
20
2.634382542217
30
0
41
1
10
-1.99503997793926
20
2.76392444618187
30
0
41
1
10
-1.99503997793928
20
2.89317847799563
30
0
41
1
10
-1.99503997793928
20
3.02213556164864
30
0
41
1
10
-1.99503997793928
20
3.1938106606795
30
0
41
1
10
-1.99503997793931
20
3.36446606295522
30
0
41
1
10
-1.99503997793931
20
3.53485872835637
30
0
41
1
10
-1.9950399779394
20
3.66223140396673
30
0
41
1
10
-1.99503997793923
20
3.78926935085318
30
0
41
1
10
-1.99503997793934
20
3.9583236577999
30
0
41
1
10
-1.99503997793934
20
4.16851549788913
30
0
41
1
10
-1.99503997793934
20
4.37752560184688
30
0
41
1
10
-1.99503997793943
20
4.5442150210788
30
0
41
1
10
-1.99503997793934
20
4.66878844332788
30
0
41
1
10
-1.99503997793926
20
4.79299519854538
30
0
41
1
10
-1.99503997793926
20
4.95821801342228
30
0
41
1
10
-1.99503997793937
20
5.16358497720145
30
0
41
1
10
-1.99503997793937
20
5.4086336478467
30
0
41
1
10
-1.99503997793937
20
5.65215640891222
30
0
41
1
10
-1.99503997793937
20
5.89413750153938
30
0
41
1
10
-1.99503997793934
20
6.13456381441387
30
0
41
1
10
-1.99503997793937
20
6.37342317953826
30
0
41
1
10
-1.9950399779394
20
6.61070492919373
30
0
41
1
10
-1.9950399779394
20
6.8463997631446
30
0
41
1
10
-1.99503997793943
20
7.08049963775395
30
0
41
1
10
-1.99503997793937
20
7.31299670603019
30
0
41
1
10
-1.9950399779394
20
7.54388383469131
30
0
41
1
10
-1.99503997793943
20
7.77315487290261
30
0
41
1
10
-1.99503997793928
20
8.00080468509063
30
0
41
1
10
-1.99503997793928
20
8.22682785520692
30
0
41
1
10
-1.99503997793923
20
8.45121979218536
30
0
41
1
10
-1.99503997793931
20
8.67397577159849
30
0
41
1
10
-1.99503997793931
20
8.96893239301767
30
0
41
1
10
-1.99503997793937
20
9.33322609823668
30
0
41
1
10
-1.99503997793937
20
9.76392165975835
30
0
41
1
10
-1.99503997793937
20
10.1171869828061
30
0
41
1
10
-1.9950399779394
20
10.3966814549587
30
0
41
1
10
-1.99503997793923
20
10.6045508126063
30
0
41
1
10
-1.99503997793943
20
10.8107494592903
30
0
41
1
10
-1.99503997793931
20
11.0152749978462
30
0
41
1
10
-1.99503997793928
20
11.2181233670389
30
0
41
1
10
-1.99503997793928
20
11.4192921870092
30
0
41
1
10
-1.9950399779394
20
11.6187779427602
30
0
41
1
10
-1.99503997793931
20
11.8826118620782
30
0
41
1
10
-1.99503997793937
20
12.1427687977971
30
0
41
1
10
-1.99503997793943
20
12.39982300717
30
0
41
1
10
-1.99503997793931
20
12.5908431584254
30
0
41
1
10
-1.99503997793931
20
12.7801589212448
30
0
41
1
10
-1.99503997793926
20
12.9677676529033
30
0
41
1
10
-1.99503997793934
20
13.1536651432542
30
0
41
1
10
-1.99503997793934
20
13.3378467396349
30
0
41
1
10
-1.99503997793948
20
13.5203096469929
30
0
41
1
10
-1.99503997793934
20
13.7010488212408
30
0
41
1
10
-1.9950399779394
20
13.8800597145162
30
0
41
1
10
-1.99503997793937
20
14.0573389921213
30
0
41
1
10
-1.9950399779394
20
14.2328810143212
30
0
41
1
10
-1.99503997793931
20
14.464695910275
30
0
41
1
10
-1.9950399779394
20
14.6927797943809
30
0
41
1
10
-1.9950399779394
20
14.9175842595471
30
0
41
1
10
-1.99503997793931
20
15.1400402265273
30
0
41
1
10
-1.99503997793928
20
15.3587351142267
30
0
41
1
10
-1.99503997793928
20
15.5740954228541
30
0
41
1
10
-1.99503997793931
20
15.7337758557261
30
0
41
1
10
-1.99503997793934
20
15.8916657661057
30
0
41
1
10
-1.99503997793943
20
16.0998603532657
30
0
41
1
10
-1.99503997793928
20
16.3042398246233
30
0
41
1
10
-1.99503997793946
20
16.5051894037978
30
0
41
1
10
-1.99503997793934
20
16.6540265683948
30
0
41
1
10
-1.99503997793937
20
16.8010329188423
30
0
41
1
10
-1.99503997793928
20
16.994655048121
30
0
41
1
10
-1.99503997793943
20
17.1843924611907
30
0
41
1
10
-1.99503997793946
20
17.3705928023911
30
0
41
1
10
-1.99503997793926
20
17.5083251903719
30
0
41
1
10
-1.99503997793928
20
17.6441786252735
30
0
41
1
10
-1.99503997793934
20
17.8228590748675
30
0
41
1
10
-1.99503997793937
20
17.9975683374733
30
0
41
1
10
-1.99503997793937
20
18.1686188521771
30
0
41
1
10
-1.99503997793946
20
18.2949373683468
30
0
41
1
10
-1.99503997793934
20
18.4193198181252
30
0
41
1
10
-1.99503997793943
20
18.5826226298873
30
0
41
1
10
-1.99503997793943
20
18.7418497326447
30
0
41
1
10
-1.99503997793946
20
18.8972761707096
30
0
41
1
10
-1.99503997793931
20
19.0118150097952
30
0
41
1
10
-1.9950399779394
20
19.1243510467918
30
0
41
1
10
-1.9950399779394
20
19.2717625055688
30
0
41
1
10
-1.9950399779394
20
19.414970513124
30
0
41
1
10
-1.99503997793948
20
19.5542140249086
30
0
41
1
10
-1.99503997793946
20
19.6565420567612
30
0
41
1
10
-1.99503997793928
20
19.7567881415465
30
0
41
1
10
-1.99503997793943
20
19.8549381550128
30
0
41
1
10
-1.99503997793943
20
19.9509751416388
30
0
41
1
10
-1.99503997793937
20
20.0448848362119
30
0
41
1
10
-1.99503997793931
20
20.1366515718167
30
0
41
1
10
-1.9950399779394
20
20.2262576202058
30
0
41
1
10
-1.99503997793926
20
20.3136874196731
30
0
41
1
10
-1.99503997793928
20
20.3989234300879
30
0
41
1
10
-1.99503997793948
20
20.4819464863244
30
0
41
1
10
-1.99503997793943
20
20.5627395868943
30
0
41
1
10
-1.99503997793931
20
20.6412830627253
30
0
41
1
10
-1.99503997793926
20
20.7430172190697
30
0
41
1
10
-1.99503997793948
20
20.8400664428988
30
0
41
1
10
-1.99503997793951
20
20.9325549572362
30
0
41
1
10
-1.99503997793931
20
20.9995415068111
30
0
41
1
10
-1.99503997793923
20
21.064149408511
30
0
41
1
10
-1.99503997793937
20
21.1263556466612
30
0
41
1
10
-1.99503997793926
20
21.1861355753667
30
0
41
1
10
-1.99503997793931
20
21.2626002183761
30
0
41
1
10
-1.99503997793926
20
21.3340243512753
30
0
41
1
10
-1.99503997793948
20
21.4004603045827
30
0
41
1
10
-1.99503997793937
20
21.4477036445725
30
0
41
1
10
-1.99503997793937
20
21.4923513092322
30
0
41
1
10
-1.99503997793943
20
21.5484022410126
30
0
41
1
10
-1.99503997793943
20
21.5990695510926
30
0
41
1
10
-1.99503997793931
20
21.6443396610232
30
0
41
1
10
-1.99503997793934
20
21.6755105092646
30
0
41
1
10
-1.99503997793943
20
21.7038764495607
30
0
41
1
10
-1.99503997793946
20
21.7293964429164
30
0
41
1
10
-1.99503997793926
20
21.7520292420693
30
0
41
1
10
-1.99503997793943
20
21.7717309018817
30
0
41
1
10
-1.99503997793946
20
21.7884557380592
30
0
41
1
10
-1.9950399779394
20
21.8021565310045
30
0
41
1
10
-1.99503997793926
20
21.8127830851058
30
0
41
1
10
-1.99503997793934
20
21.8202838734725
30
0
41
1
10
-1.99503997793926
20
21.8243524823744
30
0
41
1
10
-1.99503997793931
20
21.8251834707449
30
0
41
1
10
-1.99503997793937
20
21.8251860712264
30
0
0
SPLINE
5
15E
100
AcDbEntity
8
SK1
62
256
6
ByLayer
370
18
48
1
60
0
100
AcDbSpline
70
4
71
3
72
13
73
9
40
0
40
0
40
0
40
0
40
0.239456135763399
40
0.36835972193334
40
0.499998984020838
40
0.631638415283509
40
0.760542467777994
40
1
40
1
40
1
40
1
41
1
10
-2.20000000000007
20
22.0200986606755
30
0
41
1
10
-2.19909198642279
20
21.9940411845603
30
0
41
1
10
-2.19103284106953
20
21.9566686002239
30
0
41
1
10
-2.16563592203352
20
21.9104494263859
30
0
41
1
10
-2.13886378679274
20
21.8791678725254
30
0
41
1
10
-2.10627712749883
20
21.8540005023229
30
0
41
1
10
-2.0588406423409
20
21.8309566998544
30
0
41
1
10
-2.02111030873033
20
21.8247844448324
30
0
41
1
10
-1.99503997793934
20
21.8251860847749
30
0
0
SPLINE
5
15F
100
AcDbEntity
8
SK1
62
256
6
ByLayer
370
18
48
1
60
0
100
AcDbSpline
70
4
71
3
72
13
73
9
40
0
40
0
40
0
40
0
40
0.239457532153286
40
0.368361584623562
40
0.500001015876623
40
0.631640277971704
40
0.760543864164755
40
1
40
1
40
1
40
1
41
1
10
-1.99503997793909
20
-21.8251861015553
30
0
41
1
10
-2.02111030873147
20
-21.8247844616134
30
0
41
1
10
-2.05884064234328
20
-21.8309567166392
30
0
41
1
10
-2.1062771275007
20
-21.854000519123
30
0
41
1
10
-2.1388637867945
20
-21.8791678893421
30
0
41
1
10
-2.16563592203482
20
-21.9104494432231
30
0
41
1
10
-2.19103284107049
20
-21.9566686170919
30
0
41
1
10
-2.19909198642381
20
-21.9940412014509
30
0
41
1
10
-2.19999999999993
20
-22.0200986775812
30
0
0
SPLINE
5
160
100
AcDbEntity
8
SK1
62
256
6
ByLayer
370
18
48
1
60
0
100
AcDbSpline
70
4
71
3
72
36
73
32
40
0
40
0
40
0
40
0
40
0.125
40
0.125
40
0.250000000000001
40
0.250000000000001
40
0.312500000000001
40
0.312500000000001
40
0.328125000000001
40
0.328125000000001
40
0.343750000000001
40
0.375000000000001
40
0.375000000000001
40
0.437500000000001
40
0.437500000000001
40
0.500000000000001
40
0.562500000000001
40
0.562500000000001
40
0.625000000000001
40
0.625000000000001
40
0.640625000000001
40
0.640625000000001
40
0.656250000000001
40
0.656250000000001
40
0.687500000000001
40
0.687500000000001
40
0.750000000000001
40
0.750000000000001
40
0.875
40
0.875
40
1
40
1
40
1
40
1
41
1
10
-1.30710678118649
20
-4.81101329740284
30
0
41
1
10
-1.3746132962855
20
-4.42906267002712
30
0
41
1
10
-1.4384228835726
20
-4.04270825974376
30
0
41
1
10
-1.55482767545848
20
-3.25964078646072
30
0
41
1
10
-1.60743482920455
20
-2.86293463703899
30
0
41
1
10
-1.67407835953037
20
-2.25842147165613
30
0
41
1
10
-1.69423470862282
20
-2.05533443764031
30
0
41
1
10
-1.71637274266516
20
-1.79927439089835
30
0
41
1
10
-1.72065008204456
20
-1.74791777007005
30
0
41
1
10
-1.728871051798
20
-1.6451601396837
30
0
41
1
10
-1.74069991111563
20
-1.49101028656853
30
0
41
1
10
-1.75097754535148
20
-1.33681958665855
30
0
41
1
10
-1.76936887151882
20
-1.02838234860926
30
0
41
1
10
-1.77873517948893
20
-0.822682936651091
30
0
41
1
10
-1.79127438872618
20
-0.411128998005495
30
0
41
1
10
-1.79761805851334
20
0.0005800878333275
30
0
41
1
10
-1.79124730100838
20
0.412604451011845
30
0
41
1
10
-1.77865311310714
20
0.82478466453486
30
0
41
1
10
-1.7692453668173
20
1.03095268037464
30
0
41
1
10
-1.75383566430318
20
1.28875676075262
30
0
41
1
10
-1.75057178042732
20
1.34032227193518
30
0
41
1
10
-1.74368816007268
20
1.44346257204998
30
0
41
1
10
-1.74006528369594
20
1.49507406667274
30
0
41
1
10
-1.72869579779245
20
1.649634531169
30
0
41
1
10
-1.72045642660245
20
1.75222724907041
30
0
41
1
10
-1.69390777409225
20
2.05873054114898
30
0
41
1
10
-1.67377216548041
20
2.26136839295089
30
0
41
1
10
-1.60720273884701
20
2.86469699044176
30
0
41
1
10
-1.55465955887394
20
3.26082920006934
30
0
41
1
10
-1.43835988164523
20
4.04307426593775
30
0
41
1
10
-1.37459233181622
20
4.42918087958259
30
0
41
1
10
-1.30710678118669
20
4.81101321788444
30
0
0
SPLINE
5
161
100
AcDbEntity
8
SK1
62
256
6
ByLayer
370
18
48
1
60
0
100
AcDbSpline
70
4
71
2
72
6
73
3
40
0
40
0
40
0
40
1
40
1
40
1
41
1
10
-1.99503997793934
20
21.8251812553753
30
0
41
1
10
-1.19500843340731
20
21.8452807024746
30
0
41
1
10
-0.394976888875277
20
21.8653801495793
30
0
0
SPLINE
5
162
100
AcDbEntity
8
SK1
62
256
6
ByLayer
370
18
48
1
60
0
100
AcDbSpline
70
4
71
2
72
6
73
3
40
0
40
0
40
0
40
1
40
1
40
1
41
1
10
-0.39497688887522
20
-21.8653802062991
30
0
41
1
10
-1.19500843340714
20
-21.8452807593863
30
0
41
1
10
-1.99503997793909
20
-21.8251813124778
30
0
0
SPLINE
5
163
100
AcDbEntity
8
SK1
62
256
6
ByLayer
370
18
48
1
60
0
100
AcDbSpline
70
4
71
3
72
111
73
107
40
0
40
0
40
0
40
0
40
0.0023103666170618
40
0.010850958138788
40
0.0193915496605142
40
0.0279321411822404
40
0.0364727327039666
40
0.0450133242256928
40
0.053553915747419
40
0.0620945072691453
40
0.0706350987908715
40
0.0791756903125977
40
0.0877162818343239
40
0.0962568733560501
40
0.113338056399502
40
0.130419239442955
40
0.147500422486407
40
0.156041014008134
40
0.16458160552986
40
0.173122197051586
40
0.181662788573312
40
0.190203380095038
40
0.198743971616765
40
0.207284563138491
40
0.215825154660217
40
0.23290633770367
40
0.241446929225396
40
0.249987520747122
40
0.258528112268848
40
0.267068703790574
40
0.275609295312301
40
0.284149886834027
40
0.292690478355753
40
0.301231069877479
40
0.309771661399205
40
0.318312252920932
40
0.326852844442658
40
0.335393435964384
40
0.352474619007836
40
0.361015210529563
40
0.369555802051289
40
0.386636985094741
40
0.395177576616468
40
0.403718168138194
40
0.41225875965992
40
0.420799351181646
40
0.437880534225098
40
0.446421125746825
40
0.454961717268551
40
0.463502308790277
40
0.472042900312003
40
0.489124083355456
40
0.497664674877182
40
0.506205266398908
40
0.514745857920634
40
0.523286449442361
40
0.540367632485813
40
0.548908224007539
40
0.557448815529266
40
0.565989407050992
40
0.574529998572718
40
0.59161118161617
40
0.600151773137897
40
0.608692364659623
40
0.617232956181349
40
0.625773547703075
40
0.642854730746528
40
0.651395322268254
40
0.65993591378998
40
0.668476505311706
40
0.677017096833432
40
0.685557688355159
40
0.694098279876885
40
0.702638871398611
40
0.711179462920337
40
0.719720054442064
40
0.72826064596379
40
0.736801237485516
40
0.745341829007242
40
0.753882420528968
40
0.762423012050695
40
0.779504195094147
40
0.788044786615873
40
0.796585378137599
40
0.805125969659326
40
0.813666561181052
40
0.822207152702778
40
0.830747744224504
40
0.847828927267957
40
0.856369518789683
40
0.864910110311409
40
0.873450701833135
40
0.881991293354861
40
0.899072476398314
40
0.90761306792004
40
0.916153659441766
40
0.924694250963492
40
0.933234842485219
40
0.941775434006945
40
0.950316025528671
40
0.958856617050397
40
0.967397208572124
40
0.97593780009385
40
0.984478391615576
40
0.993018983137302
40
1
40
1
40
1
40
1
41
1
10
-0.394976888875362
20
6.32694279392973
30
0
41
1
10
-0.394976888875334
20
6.3484916311391
30
0
41
1
10
-0.394976888875334
20
6.44960775400915
30
0
41
1
10
-0.394976888875362
20
6.62954555948866
30
0
41
1
10
-0.394976888875306
20
6.86569504888013
30
0
41
1
10
-0.394976888875334
20
7.10023740586416
30
0
41
1
10
-0.394976888875249
20
7.33316546385939
30
0
41
1
10
-0.394976888875277
20
7.56447269448577
30
0
41
1
10
-0.394976888875362
20
7.79415340272945
30
0
41
1
10
-0.394976888875391
20
8.0222029340199
30
0
41
1
10
-0.394976888875306
20
8.2486163556085
30
0
41
1
10
-0.394976888875476
20
8.4733895188638
30
0
41
1
10
-0.394976888875277
20
8.69651811258552
30
0
41
1
10
-0.394976888875391
20
8.99192948127939
30
0
41
1
10
-0.394976888875334
20
9.35683912175992
30
0
41
1
10
-0.394976888875306
20
9.78821091217489
30
0
41
1
10
-0.394976888875277
20
10.1420454621771
30
0
41
1
10
-0.394976888875391
20
10.4219344727076
30
0
41
1
10
-0.394976888875391
20
10.6301131683676
30
0
41
1
10
-0.394976888875362
20
10.8366153667067
30
0
41
1
10
-0.394976888875306
20
11.0414388905993
30
0
41
1
10
-0.39497688887522
20
11.2445799004539
30
0
41
1
10
-0.394976888875362
20
11.4460361162834
30
0
41
1
10
-0.394976888875391
20
11.6458042976885
30
0
41
1
10
-0.394976888875306
20
11.9099848253353
30
0
41
1
10
-0.394976888875419
20
12.1705475695386
30
0
41
1
10
-0.394976888875362
20
12.4279318067111
30
0
41
1
10
-0.394976888875391
20
12.6192114874981
30
0
41
1
10
-0.394976888875391
20
12.8087826250924
30
0
41
1
10
-0.394976888875249
20
12.9966426041155
30
0
41
1
10
-0.394976888875391
20
13.182787448996
30
0
41
1
10
-0.394976888875277
20
13.3672125455488
30
0
41
1
10
-0.394976888875362
20
13.5499151547097
30
0
41
1
10
-0.394976888875362
20
13.7308904478326
30
0
41
1
10
-0.394976888875476
20
13.9101338677049
30
0
41
1
10
-0.394976888875334
20
14.0876421688896
30
0
41
1
10
-0.394976888875391
20
14.2634098807096
30
0
41
1
10
-0.394976888875391
20
14.4955025482493
30
0
41
1
10
-0.394976888875249
20
14.7239127068147
30
0
41
1
10
-0.394976888875306
20
14.9489833053404
30
0
41
1
10
-0.394976888875362
20
15.171701411915
30
0
41
1
10
-0.394976888875362
20
15.3907043201103
30
0
41
1
10
-0.394976888875334
20
15.6063159613101
30
0
41
1
10
-0.394976888875277
20
15.7661946363953
30
0
41
1
10
-0.394976888875476
20
15.9242799594927
30
0
41
1
10
-0.394976888875306
20
16.1327154012234
30
0
41
1
10
-0.394976888875448
20
16.3373780173448
30
0
41
1
10
-0.394976888875391
20
16.5385587125243
30
0
41
1
10
-0.394976888875448
20
16.6875782011067
30
0
41
1
10
-0.394976888875334
20
16.8347642769003
30
0
41
1
10
-0.394976888875334
20
17.028608007357
30
0
41
1
10
-0.394976888875448
20
17.2186059445175
30
0
41
1
10
-0.394976888875419
20
17.4050188999402
30
0
41
1
10
-0.394976888875334
20
17.5429190217058
30
0
41
1
10
-0.394976888875277
20
17.6789377757624
30
0
41
1
10
-0.394976888875419
20
17.8578220601067
30
0
41
1
10
-0.394976888875334
20
18.0327708145484
30
0
41
1
10
-0.394976888875391
20
18.2040166330947
30
0
41
1
10
-0.394976888875362
20
18.3304892054167
30
0
41
1
10
-0.394976888875419
20
18.4550234389153
30
0
41
1
10
-0.394976888875362
20
18.6185132745736
30
0
41
1
10
-0.394976888875419
20
18.7779598884919
30
0
41
1
10
-0.394976888875391
20
18.933565131357
30
0
41
1
10
-0.394976888875362
20
19.0482448844651
30
0
41
1
10
-0.394976888875504
20
19.1609196079757
30
0
41
1
10
-0.394976888875419
20
19.3085018143331
30
0
41
1
10
-0.394976888875362
20
19.4519098709687
30
0
41
1
10
-0.394976888875362
20
19.5913159811742
30
0
41
1
10
-0.394976888875448
20
19.6937719762305
30
0
41
1
10
-0.394976888875391
20
19.7941438028822
30
0
41
1
10
-0.394976888875306
20
19.8924174211232
30
0
41
1
10
-0.394976888875476
20
19.988575861591
30
0
41
1
10
-0.394976888875391
20
20.0826047781419
30
0
41
1
10
-0.394976888875391
20
20.1744885559187
30
0
41
1
10
-0.394976888875334
20
20.264209431984
30
0
41
1
10
-0.394976888875419
20
20.3517517880636
30
0
41
1
10
-0.394976888875362
20
20.437098129367
30
0
41
1
10
-0.394976888875306
20
20.5202292348053
30
0
41
1
10
-0.394976888875419
20
20.6011280559991
30
0
41
1
10
-0.394976888875419
20
20.6797749513882
30
0
41
1
10
-0.394976888875362
20
20.781635486227
30
0
41
1
10
-0.394976888875306
20
20.8788308931333
30
0
41
1
10
-0.394976888875334
20
20.9714365096391
30
0
41
1
10
-0.394976888875391
20
21.0385142950142
30
0
41
1
10
-0.394976888875334
20
21.1032108820956
30
0
41
1
10
-0.394976888875391
20
21.1655031751743
30
0
41
1
10
-0.394976888875362
20
21.2253665102306
30
0
41
1
10
-0.394976888875306
20
21.301932078811
30
0
41
1
10
-0.394976888875391
20
21.3734709318986
30
0
41
1
10
-0.394976888875334
20
21.4399968999807
30
0
41
1
10
-0.394976888875391
20
21.4873093096751
30
0
41
1
10
-0.394976888875334
20
21.5320229383893
30
0
41
1
10
-0.394976888875334
20
21.588152400593
30
0
41
1
10
-0.394976888875448
20
21.6389063892512
30
0
41
1
10
-0.394976888875277
20
21.6842420425294
30
0
41
1
10
-0.394976888875277
20
21.7154617242467
30
0
41
1
10
-0.394976888875362
20
21.7438726893519
30
0
41
1
10
-0.394976888875391
20
21.7694337460977
30
0
41
1
10
-0.394976888875362
20
21.7921034780961
30
0
41
1
10
-0.394976888875249
20
21.8118377637545
30
0
41
1
10
-0.394976888875533
20
21.8285907189997
30
0
41
1
10
-0.394976888875362
20
21.8423149132633
30
0
41
1
10
-0.394976888875504
20
21.8529599173647
30
0
41
1
10
-0.394976888875306
20
21.8604739519413
30
0
41
1
10
-0.394976888875362
20
21.8645384190796
30
0
41
1
10
-0.394976888875334
20
21.8653750989339
30
0
41
1
10
-0.394976888875334
20
21.8653847942613
30
0
0
SPLINE
5
164
100
AcDbEntity
8
SK1
62
256
6
ByLayer
370
18
48
1
60
0
100
AcDbSpline
70
4
71
3
72
297
73
293
40
0
40
0
40
0
40
0
40
0.0015364578889721
40
0.0050969114752827
40
0.0086573650615933
40
0.0122178186479038
40
0.0157782722342144
40
0.0193387258205249
40
0.0228991794068355
40
0.0300200865794566
40
0.0371409937520777
40
0.0442619009246988
40
0.0478223545110094
40
0.0513828080973199
40
0.0549432616836305
40
0.058503715269941
40
0.0656246224425621
40
0.0691850760288726
40
0.0727455296151832
40
0.0763059832014938
40
0.0798664367878043
40
0.0834268903741149
40
0.0869873439604254
40
0.0941082511330465
40
0.0976687047193571
40
0.101229158305668
40
0.104789611891978
40
0.108350065478289
40
0.111910519064599
40
0.11547097265091
40
0.11903142623722
40
0.122591879823531
40
0.126152333409841
40
0.129712786996152
40
0.133273240582463
40
0.136833694168773
40
0.140394147755084
40
0.143954601341394
40
0.151075508514015
40
0.154635962100326
40
0.158196415686637
40
0.159976642479792
40
0.161756869272947
40
0.165317322859258
40
0.172438230031879
40
0.175998683618189
40
0.1795591372045
40
0.18311959079081
40
0.186680044377121
40
0.193800951549742
40
0.197361405136053
40
0.200921858722363
40
0.202702085515518
40
0.204482312308674
40
0.208042765894984
40
0.215163673067605
40
0.218724126653916
40
0.222284580240226
40
0.225845033826537
40
0.229405487412848
40
0.236526394585469
40
0.240086848171779
40
0.24364730175809
40
0.245427528551245
40
0.2472077553444
40
0.250768208930711
40
0.254328662517022
40
0.257889116103332
40
0.259669342896487
40
0.261449569689643
40
0.265010023275953
40
0.268570476862264
40
0.272130930448574
40
0.275691384034885
40
0.279251837621195
40
0.282812291207506
40
0.286372744793817
40
0.289933198380127
40
0.293493651966438
40
0.297054105552748
40
0.300614559139059
40
0.304175012725369
40
0.30773546631168
40
0.31129591989799
40
0.314856373484301
40
0.321977280656922
40
0.325537734243233
40
0.329098187829543
40
0.332658641415854
40
0.336219095002164
40
0.339779548588475
40
0.343340002174785
40
0.346900455761096
40
0.350460909347406
40
0.357581816520028
40
0.364702723692649
40
0.37182363086527
40
0.37538408445158
40
0.378944538037891
40
0.382504991624201
40
0.386065445210512
40
0.389625898796823
40
0.393186352383133
40
0.396746805969444
40
0.400307259555754
40
0.403867713142065
40
0.407428166728375
40
0.410988620314686
40
0.414549073900996
40
0.418109527487307
40
0.421669981073618
40
0.425230434659928
40
0.428790888246239
40
0.432351341832549
40
0.434131568625705
40
0.43591179541886
40
0.437692022212015
40
0.43947224900517
40
0.443032702591481
40
0.446593156177791
40
0.448373382970947
40
0.450153609764102
40
0.451933836557257
40
0.453714063350412
40
0.457274516936723
40
0.459054743729878
40
0.460834970523034
40
0.462615197316189
40
0.464395424109344
40
0.4661756509025
40
0.467955877695655
40
0.46973610448881
40
0.471516331281965
40
0.473296558075121
40
0.475076784868276
40
0.476857011661431
40
0.478637238454586
40
0.480417465247742
40
0.482197692040897
40
0.483977918834052
40
0.485758145627208
40
0.487538372420363
40
0.489318599213518
40
0.491098826006673
40
0.492879052799829
40
0.494659279592984
40
0.496439506386139
40
0.498219733179294
40
0.49999995997245
40
0.501780186765605
40
0.50356041355876
40
0.505340640351916
40
0.507120867145071
40
0.508901093938226
40
0.510681320731382
40
0.512461547524537
40
0.514241774317692
40
0.516022001110847
40
0.517802227904003
40
0.519582454697158
40
0.521362681490313
40
0.523142908283468
40
0.524923135076624
40
0.526703361869779
40
0.528483588662934
40
0.530263815456089
40
0.532044042249245
40
0.5338242690424
40
0.535604495835555
40
0.537384722628711
40
0.539164949421866
40
0.540945176215021
40
0.542725403008177
40
0.546285856594487
40
0.548066083387642
40
0.549846310180798
40
0.551626536973953
40
0.553406763767108
40
0.556967217353419
40
0.560527670939729
40
0.562307897732885
40
0.56408812452604
40
0.565868351319195
40
0.56764857811235
40
0.571209031698661
40
0.574769485284971
40
0.578329938871282
40
0.581890392457592
40
0.585450846043903
40
0.589011299630214
40
0.592571753216524
40
0.596132206802835
40
0.599692660389145
40
0.603253113975456
40
0.606813567561766
40
0.610374021148077
40
0.613934474734387
40
0.617494928320698
40
0.621055381907009
40
0.624615835493319
40
0.62817628907963
40
0.635297196252251
40
0.642418103424872
40
0.649539010597493
40
0.653099464183804
40
0.656659917770114
40
0.660220371356425
40
0.663780824942735
40
0.667341278529046
40
0.670901732115356
40
0.674462185701667
40
0.678022639287978
40
0.685143546460599
40
0.688704000046909
40
0.69226445363322
40
0.69582490721953
40
0.699385360805841
40
0.702945814392151
40
0.706506267978462
40
0.710066721564773
40
0.713627175151083
40
0.717187628737394
40
0.720748082323704
40
0.724308535910015
40
0.727868989496325
40
0.734989896668947
40
0.738550350255257
40
0.742110803841567
40
0.749231711014189
40
0.752792164600499
40
0.75635261818681
40
0.75991307177312
40
0.763473525359431
40
0.770594432532052
40
0.774154886118362
40
0.777715339704673
40
0.781275793290984
40
0.784836246877294
40
0.791957154049915
40
0.795517607636226
40
0.799078061222536
40
0.802638514808847
40
0.806198968395158
40
0.813319875567778
40
0.816880329154089
40
0.8204407827404
40
0.82400123632671
40
0.827561689913021
40
0.834682597085642
40
0.838243050671952
40
0.841803504258263
40
0.845363957844574
40
0.848924411430884
40
0.856045318603505
40
0.859605772189816
40
0.863166225776126
40
0.866726679362437
40
0.870287132948748
40
0.873847586535058
40
0.877408040121369
40
0.880968493707679
40
0.88452894729399
40
0.8880894008803
40
0.891649854466611
40
0.895210308052921
40
0.898770761639232
40
0.902331215225542
40
0.905891668811853
40
0.913012575984474
40
0.916573029570785
40
0.920133483157095
40
0.923693936743406
40
0.927254390329716
40
0.930814843916027
40
0.934375297502337
40
0.941496204674959
40
0.945056658261269
40
0.94861711184758
40
0.95217756543389
40
0.955738019020201
40
0.962858926192822
40
0.966419379779133
40
0.969979833365443
40
0.973540286951753
40
0.977100740538064
40
0.980661194124375
40
0.984221647710685
40
0.987782101296996
40
0.991342554883306
40
0.994903008469617
40
0.998463462055927
40
1
40
1
40
1
40
1
41
1
10
-38
20
-20.2893878257221
30
0
41
1
10
-38
20
-20.2887803343297
30
0
41
1
10
-38.0000000000001
20
-20.2864571654851
30
0
41
1
10
-38.0000000000001
20
-20.2807871950945
30
0
41
1
10
-38.0000000000001
20
-20.2708642252782
30
0
41
1
10
-37.9999999999998
20
-20.2580557575389
30
0
41
1
10
-37.9999999999999
20
-20.2424031034126
30
0
41
1
10
-38.0000000000001
20
-20.2239454925535
30
0
41
1
10
-38.0000000000001
20
-20.1955126220403
30
0
41
1
10
-37.9999999999999
20
-20.1534581579691
30
0
41
1
10
-37.9999999999998
20
-20.0921783324266
30
0
41
1
10
-38.0000000000001
20
-20.0326760120611
30
0
41
1
10
-37.9999999999998
20
-19.9796195423852
30
0
41
1
10
-37.9999999999998
20
-19.9374871337362
30
0
41
1
10
-38.0000000000001
20
-19.8928775037257
30
0
41
1
10
-37.9999999999999
20
-19.8298739849263
30
0
41
1
10
-37.9999999999999
20
-19.7628242930464
30
0
41
1
10
-37.9999999999999
20
-19.6902080345969
30
0
41
1
10
-37.9999999999999
20
-19.6336084813316
30
0
41
1
10
-38
20
-19.5746836513968
30
0
41
1
10
-38.0000000000001
20
-19.5134574775015
30
0
41
1
10
-37.9999999999999
20
-19.449949879624
30
0
41
1
10
-38.0000000000002
20
-19.3619265805523
30
0
41
1
10
-38
20
-19.2704514952517
30
0
41
1
10
-38.0000000000001
20
-19.1735363516593
30
0
41
1
10
-38.0000000000001
20
-19.0989364266241
30
0
41
1
10
-38.0000000000001
20
-19.0221745884209
30
0
41
1
10
-38.0000000000001
20
-18.9432715601191
30
0
41
1
10
-37.9999999999998
20
-18.8622425921488
30
0
41
1
10
-37.9999999999998
20
-18.7791047356356
30
0
41
1
10
-38.0000000000002
20
-18.6938772447035
30
0
41
1
10
-37.9999999999999
20
-18.6065734364563
30
0
41
1
10
-38.0000000000001
20
-18.5172096781031
30
0
41
1
10
-38.0000000000001
20
-18.4258037757917
30
0
41
1
10
-38
20
-18.3323676597215
30
0
41
1
10
-38.0000000000001
20
-18.2369170405731
30
0
41
1
10
-38.0000000000001
20
-18.1394682315482
30
0
41
1
10
-38
20
-18.0064230454642
30
0
41
1
10
-38.0000000000001
20
-17.8708421547932
30
0
41
1
10
-37.9999999999998
20
-17.7299440627732
30
0
41
1
10
-38
20
-17.6408187485727
30
0
41
1
10
-38.0000000000001
20
-17.5681131617787
30
0
41
1
10
-37.9999999999999
20
-17.4947669133712
30
0
41
1
10
-38
20
-17.3649201654159
30
0
41
1
10
-37.9999999999999
20
-17.214063276801
30
0
41
1
10
-38.0000000000001
20
-17.0578935907137
30
0
41
1
10
-38.0000000000001
20
-16.9392992293062
30
0
41
1
10
-37.9999999999999
20
-16.8188549914817
30
0
41
1
10
-37.9999999999999
20
-16.6552510003021
30
0
41
1
10
-38
20
-16.4896724966033
30
0
41
1
10
-37.9999999999999
20
-16.3187666825074
30
0
41
1
10
-37.9999999999999
20
-16.2111031772941
30
0
41
1
10
-37.9999999999998
20
-16.1235473577609
30
0
41
1
10
-38.0000000000001
20
-16.0353949417436
30
0
41
1
10
-38.0000000000001
20
-15.8797855584288
30
0
41
1
10
-38
20
-15.6999813794669
30
0
41
1
10
-37.9999999999999
20
-15.5148116907139
30
0
41
1
10
-38.0000000000001
20
-15.3746600384841
30
0
41
1
10
-37.9999999999999
20
-15.2327750536328
30
0
41
1
10
-38.0000000000001
20
-15.0406360987564
30
0
41
1
10
-38
20
-14.8470518249569
30
0
41
1
10
-37.9999999999999
20
-14.648043381634
30
0
41
1
10
-38.0000000000001
20
-14.5230237603813
30
0
41
1
10
-38
20
-14.4215395322792
30
0
41
1
10
-38.0000000000001
20
-14.3194944461193
30
0
41
1
10
-37.9999999999999
20
-14.1916826014271
30
0
41
1
10
-37.9999999999999
20
-14.0362107113463
30
0
41
1
10
-38
20
-13.9056336328641
30
0
41
1
10
-38
20
-13.7996824703935
30
0
41
1
10
-38.0000000000001
20
-13.6931799140644
30
0
41
1
10
-37.9999999999998
20
-13.5598675642287
30
0
41
1
10
-37.9999999999999
20
-13.3977994204326
30
0
41
1
10
-38.0000000000001
20
-13.2340971553998
30
0
41
1
10
-37.9999999999999
20
-13.0687736820565
30
0
41
1
10
-38
20
-12.9018380893654
30
0
41
1
10
-37.9999999999999
20
-12.733292295151
30
0
41
1
10
-37.9999999999999
20
-12.5631480531083
30
0
41
1
10
-37.9999999999999
20
-12.3914123687224
30
0
41
1
10
-38
20
-12.2180896154106
30
0
41
1
10
-37.9999999999998
20
-12.0431930727568
30
0
41
1
10
-37.9999999999998
20
-11.8667275879998
30
0
41
1
10
-37.9999999999999
20
-11.6886992220565
30
0
41
1
10
-37.9999999999999
20
-11.5091211559414
30
0
41
1
10
-38.0000000000002
20
-11.3279971676988
30
0
41
1
10
-38.0000000000001
20
-11.0835274575535
30
0
41
1
10
-38
20
-10.8388445996825
30
0
41
1
10
-38.0000000000001
20
-10.5882272221235
30
0
41
1
10
-37.9999999999998
20
-10.3995106478126
30
0
41
1
10
-38.0000000000001
20
-10.2093006505112
30
0
41
1
10
-37.9999999999998
20
-10.0176111741013
30
0
41
1
10
-37.9999999999999
20
-9.82444825814412
30
0
41
1
10
-37.9999999999999
20
-9.62982433363791
30
0
41
1
10
-38.0000000000001
20
-9.43375032895275
30
0
41
1
10
-38.0000000000001
20
-9.16930024978871
30
0
41
1
10
-38.0000000000001
20
-8.8377403499683
30
0
41
1
10
-38.0000000000002
20
-8.43283016067596
30
0
41
1
10
-37.9999999999998
20
-8.09202302704497
30
0
41
1
10
-38
20
-7.81440668712006
30
0
41
1
10
-37.9999999999999
20
-7.60585888080681
30
0
41
1
10
-38.0000000000002
20
-7.39600299493083
30
0
41
1
10
-38
20
-7.18486050853946
30
0
41
1
10
-37.9999999999999
20
-6.97245482074305
30
0
41
1
10
-38.0000000000002
20
-6.75880464755295
30
0
41
1
10
-38.0000000000001
20
-6.54393387937571
30
0
41
1
10
-38.0000000000001
20
-6.32787102064529
30
0
41
1
10
-38.0000000000001
20
-6.11064460524304
30
0
41
1
10
-38.0000000000001
20
-5.89228682406841
30
0
41
1
10
-37.9999999999999
20
-5.67283049766704
30
0
41
1
10
-37.9999999999999
20
-5.45231041402201
30
0
41
1
10
-37.9999999999999
20
-5.23076611988378
30
0
41
1
10
-37.9999999999999
20
-5.00824236668095
30
0
41
1
10
-38
20
-4.78478453894914
30
0
41
1
10
-38.0000000000001
20
-4.56044477194368
30
0
41
1
10
-38
20
-4.37375931423315
30
0
41
1
10
-38.0000000000002
20
-4.22222174308942
30
0
41
1
10
-38.0000000000001
20
-4.10916467830555
30
0
41
1
10
-38.0000000000001
20
-3.99593123757316
30
0
41
1
10
-37.9999999999999
20
-3.84368490764814
30
0
41
1
10
-37.9999999999999
20
-3.65544484289492
30
0
41
1
10
-38
20
-3.46668355973634
30
0
41
1
10
-37.9999999999998
20
-3.31336520651507
30
0
41
1
10
-38.0000000000001
20
-3.19916977025272
30
0
41
1
10
-38.0000000000001
20
-3.08487718492043
30
0
41
1
10
-38.0000000000001
20
-2.93116533478545
30
0
41
1
10
-37.9999999999999
20
-2.78106304592123
30
0
41
1
10
-38
20
-2.62697343511914
30
0
41
1
10
-38
20
-2.51237687493452
30
0
41
1
10
-37.9999999999999
20
-2.39774974487244
30
0
41
1
10
-38.0000000000001
20
-2.28311555219406
30
0
41
1
10
-38.0000000000002
20
-2.16847618976499
30
0
41
1
10
-37.9999999999999
20
-2.05384840107462
30
0
41
1
10
-38.0000000000001
20
-1.93924458170429
30
0
41
1
10
-38.0000000000001
20
-1.82466899171248
30
0
41
1
10
-38.0000000000001
20
-1.71014121398466
30
0
41
1
10
-38.0000000000002
20
-1.59566009898887
30
0
41
1
10
-37.9999999999999
20
-1.48124309885617
30
0
41
1
10
-37.9999999999999
20
-1.36688883878045
30
0
41
1
10
-37.9999999999999
20
-1.25260906632701
30
0
41
1
10
-38
20
-1.13840321986405
30
0
41
1
10
-38
20
-1.02427614220747
30
0
41
1
10
-38.0000000000001
20
-0.910225811804168
30
0
41
1
10
-37.9999999999999
20
-0.796251800903946
30
0
41
1
10
-38.0000000000001
20
-0.682349388495595
30
0
41
1
10
-38.0000000000002
20
-0.56851348341371
30
0
41
1
10
-38.0000000000002
20
-0.454735475949263
30
0
41
1
10
-38.0000000000002
20
-0.34100679103031
30
0
41
1
10
-37.9999999999998
20
-0.227315919379578
30
0
41
1
10
-37.9999999999999
20
-0.113651444289076
30
0
41
1
10
-38.0000000000002
20
-2.39309941E-08
30
0
41
1
10
-38
20
0.113651428861232
30
0
41
1
10
-37.9999999999999
20
0.227315965161637
30
0
41
1
10
-38.0000000000001
20
0.34100683111464
30
0
41
1
10
-37.9999999999999
20
0.454735424962564
30
0
41
1
10
-38
20
0.568513412391525
30
0
41
1
10
-37.9999999999999
20
0.682349437336967
30
0
41
1
10
-38.0000000000003
20
0.796251898049007
30
0
41
1
10
-37.9999999999999
20
0.910225765592202
30
0
41
1
10
-38.0000000000001
20
1.02427601417017
30
0
41
1
10
-38.0000000000001
20
1.13840324907599
30
0
41
1
10
-38.0000000000001
20
1.25260921865748
30
0
41
1
10
-38
20
1.36688883944296
30
0
41
1
10
-37.9999999999999
20
1.48124293103623
30
0
41
1
10
-38.0000000000002
20
1.59566004663375
30
0
41
1
10
-37.9999999999999
20
1.71014137238993
30
0
41
1
10
-38.0000000000002
20
1.82466911261426
30
0
41
1
10
-38.0000000000002
20
1.93924446866458
30
0
41
1
10
-38.0000000000001
20
2.05384821372678
30
0
41
1
10
-38.0000000000002
20
2.1684762190327
30
0
41
1
10
-38.0000000000001
20
2.28311576323398
30
0
41
1
10
-37.9999999999999
20
2.39774983280108
30
0
41
1
10
-37.9999999999999
20
2.51237672316302
30
0
41
1
10
-38.0000000000001
20
2.62697323991785
30
0
41
1
10
-38.0000000000001
20
2.78106315146911
30
0
41
1
10
-38.0000000000001
20
2.93116552693377
30
0
41
1
10
-38.0000000000001
20
3.0848770821257
30
0
41
1
10
-38.0000000000001
20
3.19916954548972
30
0
41
1
10
-38.0000000000001
20
3.31336512600512
30
0
41
1
10
-38.0000000000002
20
3.46668375918671
30
0
41
1
10
-38.0000000000002
20
3.65544489425062
30
0
41
1
10
-38
20
3.84368470208363
30
0
41
1
10
-38.0000000000003
20
3.99593117493765
30
0
41
1
10
-37.9999999999999
20
4.10916481607384
30
0
41
1
10
-38.0000000000002
20
4.22222196867912
30
0
41
1
10
-38
20
4.37375933348997
30
0
41
1
10
-38
20
4.56044458630834
30
0
41
1
10
-38.0000000000002
20
4.78478457648484
30
0
41
1
10
-37.9999999999999
20
5.00824253816069
30
0
41
1
10
-38.0000000000001
20
5.23076600439029
30
0
41
1
10
-38.0000000000001
20
5.45231022599029
30
0
41
1
10
-38
20
5.67283041504626
30
0
41
1
10
-38.0000000000001
20
5.89228674128228
30
0
41
1
10
-38.0000000000002
20
6.110644961085
30
0
41
1
10
-37.9999999999998
20
6.32787239667013
30
0
41
1
10
-38
20
6.54393525610632
30
0
41
1
10
-37.9999999999999
20
6.75880334040122
30
0
41
1
10
-38
20
6.9724531176621
30
0
41
1
10
-37.9999999999999
20
7.18486111103365
30
0
41
1
10
-38.0000000000001
20
7.39600347561728
30
0
41
1
10
-37.9999999999999
20
7.60585874971372
30
0
41
1
10
-38.0000000000001
20
7.81440645201096
30
0
41
1
10
-38.0000000000002
20
8.09202295752277
30
0
41
1
10
-37.9999999999999
20
8.43283023540661
30
0
41
1
10
-37.9999999999998
20
8.83774029355058
30
0
41
1
10
-37.9999999999999
20
9.16930023887303
30
0
41
1
10
-38.0000000000001
20
9.43375044009488
30
0
41
1
10
-37.9999999999998
20
9.62982432960183
30
0
41
1
10
-38.0000000000001
20
9.8244481496298
30
0
41
1
10
-38
20
10.0176111126087
30
0
41
1
10
-38.0000000000001
20
10.2093007057544
30
0
41
1
10
-37.9999999999999
20
10.3995107409484
30
0
41
1
10
-37.9999999999998
20
10.5882272324293
30
0
41
1
10
-38.0000000000001
20
10.8388445170811
30
0
41
1
10
-38.0000000000002
20
11.0835274377928
30
0
41
1
10
-38
20
11.327997250045
30
0
41
1
10
-38.0000000000001
20
11.5091211965039
30
0
41
1
10
-38.0000000000002
20
11.6886991809045
30
0
41
1
10
-38.0000000000003
20
11.8667275177685
30
0
41
1
10
-38
20
12.0431930522804
30
0
41
1
10
-38
20
12.2180896645831
30
0
41
1
10
-37.9999999999999
20
12.3914124247035
30
0
41
1
10
-37.9999999999999
20
12.5631480735018
30
0
41
1
10
-38.0000000000001
20
12.7332924196477
30
0
41
1
10
-38
20
12.9018387248248
30
0
41
1
10
-38.0000000000001
20
13.0687749028759
30
0
41
1
10
-38
20
13.2899980003418
30
0
41
1
10
-38.0000000000002
20
13.5056406071551
30
0
41
1
10
-38.0000000000002
20
13.7202970548283
30
0
41
1
10
-37.9999999999999
20
13.9327572918621
30
0
41
1
10
-38.0000000000002
20
14.1397069500693
30
0
41
1
10
-38
20
14.3454836148155
30
0
41
1
10
-38.0000000000001
20
14.4976048095277
30
0
41
1
10
-38.0000000000001
20
14.6480433741444
30
0
41
1
10
-38.0000000000001
20
14.8470538575164
30
0
41
1
10
-38
20
15.0406366439893
30
0
41
1
10
-37.9999999999999
20
15.2327734637881
30
0
41
1
10
-38
20
15.3746583733235
30
0
41
1
10
-38.0000000000002
20
15.5148115582752
30
0
41
1
10
-38.0000000000002
20
15.6999837411244
30
0
41
1
10
-38.0000000000001
20
15.8797870255403
30
0
41
1
10
-38.0000000000002
20
16.0578801048399
30
0
41
1
10
-38.0000000000002
20
16.1892165814337
30
0
41
1
10
-38
20
16.3187661779866
30
0
41
1
10
-38
20
16.4896741385661
30
0
41
1
10
-38.0000000000001
20
16.6552512602624
30
0
41
1
10
-38.0000000000002
20
16.8188545807648
30
0
41
1
10
-38.0000000000002
20
16.9392987318016
30
0
41
1
10
-38.0000000000001
20
17.0578934672827
30
0
41
1
10
-38.0000000000001
20
17.2140648101706
30
0
41
1
10
-38.0000000000002
20
17.3649216616151
30
0
41
1
10
-38.0000000000002
20
17.5135300358217
30
0
41
1
10
-38.0000000000001
20
17.6226956365843
30
0
41
1
10
-38.0000000000002
20
17.7299433731024
30
0
41
1
10
-38.0000000000002
20
17.870844000486
30
0
41
1
10
-38.0000000000001
20
18.0064238716362
30
0
41
1
10
-38.0000000000001
20
18.1394672902697
30
0
41
1
10
-38.0000000000002
20
18.2369159156767
30
0
41
1
10
-38.0000000000002
20
18.3323672965472
30
0
41
1
10
-38.0000000000002
20
18.4258040962279
30
0
41
1
10
-38.0000000000002
20
18.5172098870017
30
0
41
1
10
-37.9999999999999
20
18.6065734896478
30
0
41
1
10
-38.0000000000002
20
18.6938772522125
30
0
41
1
10
-38.0000000000003
20
18.7791047692186
30
0
41
1
10
-38.0000000000001
20
18.8622426359769
30
0
41
1
10
-38.0000000000001
20
18.9432715834754
30
0
41
1
10
-38.0000000000001
20
19.0221745805325
30
0
41
1
10
-38.0000000000002
20
19.0989364136871
30
0
41
1
10
-38.0000000000002
20
19.1735363647812
30
0
41
1
10
-38.0000000000002
20
19.2704515417458
30
0
41
1
10
-38.0000000000002
20
19.3619266112169
30
0
41
1
10
-38.0000000000001
20
19.449949864773
30
0
41
1
10
-38.0000000000002
20
19.5134574724375
30
0
41
1
10
-38.0000000000002
20
19.5746836830745
30
0
41
1
10
-38.0000000000002
20
19.6336085328261
30
0
41
1
10
-38.0000000000002
20
19.6902080668945
30
0
41
1
10
-38
20
19.7628242842048
30
0
41
1
10
-38.0000000000001
20
19.829873984374
30
0
41
1
10
-38.0000000000001
20
19.8928775551026
30
0
41
1
10
-38.0000000000002
20
19.9374871757691
30
0
41
1
10
-38
20
19.9796195436672
30
0
41
1
10
-38.0000000000002
20
20.0326760063813
30
0
41
1
10
-38.0000000000001
20
20.0800381474625
30
0
41
1
10
-38.0000000000002
20
20.1228090027494
30
0
41
1
10
-38.0000000000001
20
20.1521177658611
30
0
41
1
10
-38.0000000000001
20
20.1787668505584
30
0
41
1
10
-38.0000000000002
20
20.2027210424566
30
0
41
1
10
-37.9999999999999
20
20.2239455432985
30
0
41
1
10
-38.0000000000001
20
20.2424031363825
30
0
41
1
10
-38
20
20.2580557552654
30
0
41
1
10
-38.0000000000001
20
20.2708642249463
30
0
41
1
10
-38.0000000000002
20
20.2807872561094
30
0
41
1
10
-38.0000000000002
20
20.2864573975965
30
0
41
1
10
-38.0000000000001
20
20.2887806491748
30
0
41
1
10
-38.0000000000001
20
20.289388173464
30
0
0
SPLINE
5
165
100
AcDbEntity
8
SK1
62
256
6
ByLayer
370
18
48
1
60
0
100
AcDbSpline
70
4
71
2
72
6
73
3
40
0
40
0
40
0
40
1
40
1
40
1
41
1
10
-38.0000000000001
20
20.2894052255528
30
0
41
1
10
-37.2500000000013
20
20.722354079363
30
0
41
1
10
-36.5000000000001
20
21.1553029418637
30
0
0
SPLINE
5
166
100
AcDbEntity
8
SK1
62
256
6
ByLayer
370
18
48
1
60
0
100
AcDbSpline
70
4
71
2
72
6
73
3
40
0
40
0
40
0
40
1
40
1
40
1
41
1
10
-36.4999999999999
20
-21.1553027248969
30
0
41
1
10
-37.2500000000013
20
-20.722353860962
30
0
41
1
10
-38
20
-20.2894050057155
30
0
0
SPLINE
5
167
100
AcDbEntity
8
1
62
256
6
ByLayer
370
18
48
1
60
0
100
AcDbSpline
70
4
71
3
72
8
73
4
40
0
40
0
40
0
40
0
40
1
40
1
40
1
40
1
41
1
10
134.661958104515
20
35.097177990427
30
0
41
1
10
134.415266217072
20
35.0419746786039
30
0
41
1
10
134.192371136918
20
34.9819311690645
30
0
41
1
10
133.991833109797
20
34.9173403034144
30
0
0
SPLINE
5
168
100
AcDbEntity
8
1
62
256
6
ByLayer
370
18
48
1
60
0
100
AcDbSpline
70
4
71
3
72
8
73
4
40
0
40
0
40
0
40
0
40
1
40
1
40
1
40
1
41
1
10
135.289621049368
20
31.7267844070055
30
0
41
1
10
135.087644717386
20
30.9058017208207
30
0
41
1
10
134.926970342857
20
30.061511453885
30
0
41
1
10
134.80702064716
20
29.1942393769104
30
0
0
SPLINE
5
169
100
AcDbEntity
8
1
62
256
6
ByLayer
370
18
48
1
60
0
100
AcDbSpline
70
4
71
3
72
19
73
15
40
0
40
0
40
0
40
0
40
0.25
40
0.25
40
0.500000000000001
40
0.500000000000001
40
0.750000000000001
40
0.750000000000001
40
0.812500000000001
40
0.843750000000001
40
0.843750000000001
40
0.875000000000001
40
0.875000000000001
40
1
40
1
40
1
40
1
41
1
10
135.289621049368
20
31.7267844070054
30
0
41
1
10
135.134483408087
20
32.00366360405
30
0
41
1
10
135.006389207554
20
32.2816249667121
30
0
41
1
10
134.8014177899
20
32.8395971819291
30
0
41
1
10
134.724543654344
20
33.1196081577955
30
0
41
1
10
134.620704973269
20
33.6816272829953
30
0
41
1
10
134.593739074266
20
33.963635378168
30
0
41
1
10
134.591360050978
20
34.3173991269528
30
0
41
1
10
134.593001712812
20
34.4236225036169
30
0
41
1
10
134.598197852961
20
34.5299881156666
30
0
41
1
10
134.602454971349
20
34.6009302572483
30
0
41
1
10
134.604980786161
20
34.6364253724076
30
0
41
1
10
134.619587273381
20
34.8138294495114
30
0
41
1
10
134.637596909864
20
34.9555869538988
30
0
41
1
10
134.661958104515
20
35.097177990427
30
0
0
SPLINE
5
16A
100
AcDbEntity
8
1
62
256
6
ByLayer
370
18
48
1
60
0
100
AcDbSpline
70
4
71
3
72
10
73
6
40
0
40
0
40
0
40
0
40
0.5
40
0.5
40
1
40
1
40
1
40
1
41
1
10
134.629983390291
20
36.337887418003
30
0
41
1
10
134.511714667157
20
36.2025650403411
30
0
41
1
10
134.399214142733
20
36.0695613020624
30
0
41
1
10
134.185752380249
20
35.8086733107004
30
0
41
1
10
134.08408043155
20
35.6798173690386
30
0
41
1
10
133.991833109797
20
35.5580111622702
30
0
0
SPLINE
5
16B
100
AcDbEntity
8
1
62
256
6
ByLayer
370
18
48
1
60
0
100
AcDbSpline
70
4
71
3
72
14
73
10
40
0
40
0
40
0
40
0
40
0.249999999999999
40
0.249999999999999
40
0.375000000000001
40
0.375000000000001
40
0.500000000000003
40
0.500000000000003
40
1
40
1
40
1
40
1
41
1
10
134.629983390291
20
36.337887418003
30
0
41
1
10
135.082252303904
20
36.8553708498962
30
0
41
1
10
135.552495823963
20
37.3575319994843
30
0
41
1
10
136.28518942763
20
38.0874779543559
30
0
41
1
10
136.533979159701
20
38.3269073963808
30
0
41
1
10
137.040784696665
20
38.7979016024058
30
0
41
1
10
137.29906685603
20
39.0296961835819
30
0
41
1
10
138.610977310412
20
40.1661792900569
30
0
41
1
10
139.711745196904
20
40.991809444562
30
0
41
1
10
140.861947023808
20
41.7368276333248
30
0
0
SPLINE
5
16C
100
AcDbEntity
8
1
62
256
6
ByLayer
370
18
48
1
60
0
100
AcDbSpline
70
4
71
3
72
10
73
6
40
0
40
0
40
0
40
0
40
0.4129736371537
40
0.4129736371537
40
1
40
1
40
1
40
1
41
1
10
140.319922477279
20
41.454516090173
30
0
41
1
10
140.376069403855
20
41.4919657853864
30
0
41
1
10
140.439684381602
20
41.5299867807709
30
0
41
1
10
140.612223670574
20
41.6234682644154
30
0
41
1
10
140.728940305038
20
41.6795248594103
30
0
41
1
10
140.86194702381
20
41.7368276333263
30
0
0
SPLINE
5
16D
100
AcDbEntity
8
1
62
256
6
ByLayer
370
18
48
1
60
0
100
AcDbSpline
70
4
71
3
72
8
73
4
40
0
40
0
40
0
40
0
40
1
40
1
40
1
40
1
41
1
10
155.919102066091
20
29.0401146488875
30
0
41
1
10
155.698427588129
20
28.7978659192294
30
0
41
1
10
155.475589936818
20
28.5567567185781
30
0
41
1
10
155.250545370603
20
28.3168350563446
30
0
0
SPLINE
5
16E
100
AcDbEntity
8
1
62
256
6
ByLayer
370
18
48
1
60
0
100
AcDbSpline
70
4
71
3
72
8
73
4
40
0
40
0
40
0
40
0
40
1
40
1
40
1
40
1
41
1
10
160.383215475167
20
37.9843248340525
30
0
41
1
10
160.234961631522
20
38.0225684625208
30
0
41
1
10
160.086613205083
20
38.0607348968063
30
0
41
1
10
159.938072636051
20
38.0987445130313
30
0
0
SPLINE
5
16F
100
AcDbEntity
8
1
62
256
6
ByLayer
370
18
48
1
60
0
100
AcDbSpline
70
4
71
3
72
8
73
4
40
0
40
0
40
0
40
0
40
1
40
1
40
1
40
1
41
1
10
156.296204040947
20
36.516182983073
30
0
41
1
10
156.42678705373
20
36.6545907694122
30
0
41
1
10
156.557472995776
20
36.7929923121207
30
0
41
1
10
156.688368036058
20
36.9313811710489
30
0
0
SPLINE
5
170
100
AcDbEntity
8
1
62
256
6
ByLayer
370
18
48
1
60
0
100
AcDbSpline
70
4
71
3
72
8
73
4
40
0
40
0
40
0
40
0
40
1
40
1
40
1
40
1
41
1
10
156.258352965545
20
38.0976810885654
30
0
41
1
10
156.075186383214
20
38.1010646914908
30
0
41
1
10
155.892178671231
20
38.1045718402335
30
0
41
1
10
155.709249163677
20
38.1081398047926
30
0
0
SPLINE
5
171
100
AcDbEntity
8
1
62
256
6
ByLayer
370
18
48
1
60
0
100
AcDbSpline
70
4
71
3
72
8
73
4
40
0
40
0
40
0
40
0
40
1
40
1
40
1
40
1
41
1
10
159.508057565538
20
39.2650444305477
30
0
41
1
10
159.60432659252
20
39.3688072761764
30
0
41
1
10
159.700353249023
20
39.472549533342
30
0
41
1
10
159.796260597897
20
39.5762816557721
30
0
0
SPLINE
5
172
100
AcDbEntity
8
1
62
256
6
ByLayer
370
18
48
1
60
0
100
AcDbSpline
70
4
71
3
72
34
73
30
40
0
40
0
40
0
40
0
40
0.0054903616584848
40
0.0054903616584848
40
0.0883661648536126
40
0.0883661648536126
40
0.17124196804874
40
0.17124196804874
40
0.336993574439008
40
0.336993574439008
40
0.419869377634137
40
0.419869377634137
40
0.502745180829266
40
0.502745180829266
40
0.585620984024394
40
0.585620984024394
40
0.668496787219523
40
0.668496787219523
40
0.709934688817087
40
0.709934688817087
40
0.751372590414651
40
0.751372590414651
40
0.834248393609768
40
0.834248393609768
40
0.875686295207326
40
0.875686295207326
40
0.917124196804884
40
0.917124196804884
40
1
40
1
40
1
40
1
41
1
10
155.602013909319
20
38.3499796861563
30
0
41
1
10
155.602703496634
20
38.3516044306373
30
0
41
1
10
155.603394567121
20
38.3532275329759
30
0
41
1
10
155.614540947465
20
38.379324486954
30
0
41
1
10
155.625330244371
20
38.4034235024435
30
0
41
1
10
155.647514097015
20
38.450812972887
30
0
41
1
10
155.658932189904
20
38.4741467521324
30
0
41
1
10
155.693690079294
20
38.5422914583174
30
0
41
1
10
155.717600030119
20
38.585385318531
30
0
41
1
10
155.753712055256
20
38.6460418285946
30
0
41
1
10
155.76578742079
20
38.6655937352401
30
0
41
1
10
155.789810248053
20
38.7032297129516
30
0
41
1
10
155.801789549653
20
38.7213582641031
30
0
41
1
10
155.825115647305
20
38.7556188805005
30
0
41
1
10
155.836478421164
20
38.7717785545639
30
0
41
1
10
155.858227561809
20
38.8019192609488
30
0
41
1
10
155.868616213861
20
38.8159025765647
30
0
41
1
10
155.88308410535
20
38.834972496015
30
0
41
1
10
155.88771962138
20
38.8410104464016
30
0
41
1
10
155.896531833468
20
38.8523838054627
30
0
41
1
10
155.900720375646
20
38.8577341689842
30
0
41
1
10
155.912354875242
20
38.8724947591589
30
0
41
1
10
155.918836254214
20
38.8805738918877
30
0
41
1
10
155.926060538669
20
38.8896377538122
30
0
41
1
10
155.928050929251
20
38.892148164065
30
0
41
1
10
155.931078053681
20
38.8960512958704
30
0
41
1
10
155.932113939808
20
38.8974442357906
30
0
41
1
10
155.933578362867
20
38.8997425121191
30
0
41
1
10
155.932398855177
20
38.8988179359677
30
0
41
1
10
155.92896502641
20
38.8953841072008
30
0
0
SPLINE
5
173
100
AcDbEntity
8
1
62
256
6
ByLayer
370
18
48
1
60
0
100
AcDbSpline
70
4
71
3
72
20
73
16
40
0
40
0
40
0
40
0
40
0.0850540252995425
40
0.0850540252995425
40
0.26078544303001
40
0.26078544303001
40
0.348651151895252
40
0.348651151895252
40
0.436516860760495
40
0.436516860760495
40
0.78797969622144
40
0.78797969622144
40
0.963711113951879
40
0.963711113951879
40
1
40
1
40
1
40
1
41
1
10
159.729215426786
20
36.7044940824574
30
0
41
1
10
159.71890050551
20
36.6778614198547
30
0
41
1
10
159.708129343431
20
36.6513642944362
30
0
41
1
10
159.673679423619
20
36.570563565885
30
0
41
1
10
159.648483284184
20
36.5167305834467
30
0
41
1
10
159.607588246835
20
36.436999909991
30
0
41
1
10
159.593433545827
20
36.4105821459773
30
0
41
1
10
159.564088396537
20
36.3581452259438
30
0
41
1
10
159.548977660077
20
36.3322675772937
30
0
41
1
10
159.47124663715
20
36.2045702735247
30
0
41
1
10
159.402124671403
20
36.1077988404885
30
0
41
1
10
159.287942954474
20
35.970758653155
30
0
41
1
10
159.24812665552
20
35.9264362280177
30
0
41
1
10
159.197912385386
20
35.874641252291
30
0
41
1
10
159.189233787263
20
35.8658289297635
30
0
41
1
10
159.180480787109
20
35.857079563859
30
0
0
SPLINE
5
174
100
AcDbEntity
8
1
62
256
6
ByLayer
370
18
48
1
60
0
100
AcDbSpline
70
4
71
3
72
20
73
16
40
0
40
0
40
0
40
0
40
0.317466568956164
40
0.317466568956164
40
0.476199853434245
40
0.476199853434245
40
0.634933137912326
40
0.634933137912326
40
0.793666422390407
40
0.793666422390407
40
0.873033064629442
40
0.873033064629442
40
0.952399706868476
40
0.952399706868476
40
1
40
1
40
1
40
1
41
1
10
156.331205447806
20
39.5155138295335
30
0
41
1
10
156.384461643603
20
39.5457680205333
30
0
41
1
10
156.437632539805
20
39.5737390817228
30
0
41
1
10
156.516264448991
20
39.6124886383444
30
0
41
1
10
156.542361508578
20
39.6249060675365
30
0
41
1
10
156.593389408193
20
39.6484761973725
30
0
41
1
10
156.618337869416
20
39.6596398500437
30
0
41
1
10
156.666689088765
20
39.6807844286542
30
0
41
1
10
156.69009550263
20
39.6907657853511
30
0
41
1
10
156.723595323491
20
39.7048860045867
30
0
41
1
10
156.734523374137
20
39.7094638187581
30
0
41
1
10
156.755541626467
20
39.7182579839806
30
0
41
1
10
156.76563362748
20
39.7224752930413
30
0
41
1
10
156.781022819532
20
39.728939801897
30
0
41
1
10
156.786623757013
20
39.731300286422
30
0
41
1
10
156.792040385885
20
39.7335974714956
30
0
0
SPLINE
5
175
100
AcDbEntity
8
1
62
256
6
ByLayer
370
18
48
1
60
0
100
AcDbSpline
70
4
71
3
72
34
73
30
40
0
40
0
40
0
40
0
40
0.124999999999979
40
0.124999999999979
40
0.249999999999958
40
0.249999999999958
40
0.374999999999937
40
0.374999999999937
40
0.499999999999916
40
0.499999999999916
40
0.562499999999923
40
0.562499999999923
40
0.624999999999929
40
0.624999999999929
40
0.687499999999935
40
0.687499999999935
40
0.749999999999942
40
0.749999999999942
40
0.812499999999948
40
0.812499999999948
40
0.843749999999959
40
0.843749999999959
40
0.87499999999997
40
0.87499999999997
40
0.937499999999986
40
0.937499999999986
40
0.968749999999993
40
0.968749999999993
40
1
40
1
40
1
40
1
41
1
10
156.489696882059
20
39.5558750106465
30
0
41
1
10
156.446870853614
20
39.5260744094142
30
0
41
1
10
156.405337179894
20
39.4949053004494
30
0
41
1
10
156.324945158318
20
39.4299588741198
30
0
41
1
10
156.286083766077
20
39.3961780669129
30
0
41
1
10
156.211203600532
20
39.3261727677901
30
0
41
1
10
156.175620912575
20
39.2903544293933
30
0
41
1
10
156.108252097488
20
39.2175324864521
30
0
41
1
10
156.07646316778
20
39.1805224705751
30
0
41
1
10
156.031798461065
20
39.1246111214136
30
0
41
1
10
156.017414676095
20
39.1059100838164
30
0
41
1
10
155.989710632563
20
39.0685084293303
30
0
41
1
10
155.976412017286
20
39.0498330251713
30
0
41
1
10
155.951190213046
20
39.013022479623
30
0
41
1
10
155.939237083525
20
38.9948468344119
30
0
41
1
10
155.916756964018
20
38.9592674582751
30
0
41
1
10
155.90621521375
20
38.941837742472
30
0
41
1
10
155.886809277623
20
38.9083312980981
30
0
41
1
10
155.878044356346
20
38.8924267492116
30
0
41
1
10
155.866536899675
20
38.870484999686
30
0
41
1
10
155.862975855619
20
38.8634932692092
30
0
41
1
10
155.856471732175
20
38.8503198924395
30
0
41
1
10
155.853515644213
20
38.8441093321311
30
0
41
1
10
155.845834023059
20
38.8272745813346
30
0
41
1
10
155.842274506231
20
38.8184270288642
30
0
41
1
10
155.839970539794
20
38.8104125690009
30
0
41
1
10
155.839734103602
20
38.8086893365893
30
0
41
1
10
155.840382031235
20
38.8073279008495
30
0
41
1
10
155.841264302506
20
38.8076833832971
30
0
41
1
10
155.842747207824
20
38.8091662886147
30
0
0
SPLINE
5
176
100
AcDbEntity
8
1
62
256
6
ByLayer
370
18
48
1
60
0
100
AcDbSpline
70
4
71
3
72
8
73
4
40
0
40
0
40
0
40
0
40
1
40
1
40
1
40
1
41
1
10
155.903191109586
20
39.3309811445994
30
0
41
1
10
156.050746751924
20
39.3938795136382
30
0
41
1
10
156.194274867231
20
39.4556337662286
30
0
41
1
10
156.331205447806
20
39.5155138295341
30
0
0
SPLINE
5
177
100
AcDbEntity
8
1
62
256
6
ByLayer
370
18
48
1
60
0
100
AcDbSpline
70
4
71
3
72
14
73
10
40
0
40
0
40
0
40
0
40
0.5
40
0.5
40
0.625
40
0.625
40
0.75
40
0.75
40
1
40
1
40
1
40
1
41
1
10
146.013036904598
20
32.2582750185449
30
0
41
1
10
145.788093915593
20
32.4317637618575
30
0
41
1
10
145.562973130072
20
32.6110459267901
30
0
41
1
10
145.281180613981
20
32.8479066031088
30
0
41
1
10
145.224888439869
20
32.89583120856
30
0
41
1
10
145.114161893369
20
32.9912567870525
30
0
41
1
10
145.059482005461
20
33.0389618018921
30
0
41
1
10
144.897244681745
20
33.1820563424238
30
0
41
1
10
144.791482562984
20
33.2774254440243
30
0
41
1
10
144.687368982595
20
33.3727757913336
30
0
0
SPLINE
5
178
100
AcDbEntity
8
1
62
256
6
ByLayer
370
18
48
1
60
0
100
AcDbSpline
70
4
71
3
72
14
73
10
40
0
40
0
40
0
40
0
40
0.499999999999989
40
0.499999999999989
40
0.624999999999991
40
0.624999999999991
40
0.749999999999993
40
0.749999999999993
40
1
40
1
40
1
40
1
41
1
10
144.687368982595
20
33.372775791333
30
0
41
1
10
144.72621089533
20
33.6410217087162
30
0
41
1
10
144.768828304074
20
33.9164811548804
30
0
41
1
10
144.830414264895
20
34.2766907184716
30
0
41
1
10
144.84311963974
20
34.3494007180595
30
0
41
1
10
144.868877749515
20
34.4938545019092
30
0
41
1
10
144.881982601928
20
34.5659092441048
30
0
41
1
10
144.921892670791
20
34.7816194481567
30
0
41
1
10
144.949291078405
20
34.924822656614
30
0
41
1
10
144.977234180003
20
35.0676105862858
30
0
0
SPLINE
5
179
100
AcDbEntity
8
1
62
256
6
ByLayer
370
18
48
1
60
0
100
AcDbSpline
70
4
71
3
72
14
73
10
40
0
40
0
40
0
40
0
40
0.25
40
0.25
40
0.5
40
0.5
40
0.75
40
0.75
40
1
40
1
40
1
40
1
41
1
10
146.013036904598
20
32.2582750185453
30
0
41
1
10
146.140224261249
20
32.3012539938579
30
0
41
1
10
146.271274162182
20
32.3460575541824
30
0
41
1
10
146.536227358892
20
32.4381279076003
30
0
41
1
10
146.670576260606
20
32.4855513825701
30
0
41
1
10
146.943661010711
20
32.5836512190761
30
0
41
1
10
147.08340110391
20
32.6347104719089
30
0
41
1
10
147.358012421123
20
32.7364848317524
30
0
41
1
10
147.493796222675
20
32.7875033530312
30
0
41
1
10
147.628570024008
20
32.8386090407091
30
0
0
SPLINE
5
17A
100
AcDbEntity
8
1
62
256
6
ByLayer
370
18
48
1
60
0
100
AcDbSpline
70
4
71
3
72
14
73
10
40
0
40
0
40
0
40
0
40
0.25
40
0.25
40
0.5
40
0.5
40
0.75
40
0.75
40
1
40
1
40
1
40
1
41
1
10
144.977234180003
20
35.0676105862857
30
0
41
1
10
145.104421536654
20
35.1105895615983
30
0
41
1
10
145.235471437587
20
35.1553931219228
30
0
41
1
10
145.500424634298
20
35.2474634753407
30
0
41
1
10
145.634773536011
20
35.2948869503105
30
0
41
1
10
145.907858286116
20
35.3929867868165
30
0
41
1
10
146.047598379316
20
35.4440460396493
30
0
41
1
10
146.322209696529
20
35.5458203994927
30
0
41
1
10
146.45799349808
20
35.5968389207716
30
0
41
1
10
146.592767299414
20
35.6479446084495
30
0
0
SPLINE
5
17B
100
AcDbEntity
8
1
62
256
6
ByLayer
370
18
48
1
60
0
100
AcDbSpline
70
4
71
3
72
14
73
10
40
0
40
0
40
0
40
0
40
0.499999999999994
40
0.499999999999994
40
0.624999999999994
40
0.624999999999994
40
0.749999999999995
40
0.749999999999995
40
1
40
1
40
1
40
1
41
1
10
147.918435221416
20
34.5334438356614
30
0
41
1
10
147.862618520598
20
34.2482231301945
30
0
41
1
10
147.809158685735
20
33.9619212579114
30
0
41
1
10
147.747524059123
20
33.6016630285291
30
0
41
1
10
147.735469820056
20
33.5296041647201
30
0
41
1
10
147.712250720564
20
33.3876893911532
30
0
41
1
10
147.701031172692
20
33.3175199534991
30
0
41
1
10
147.66840110833
20
33.1090897539477
30
0
41
1
10
147.64801516315
20
32.9728990079234
30
0
41
1
10
147.628570024008
20
32.8386090407088
30
0
0
SPLINE
5
17C
100
AcDbEntity
8
1
62
256
6
ByLayer
370
18
48
1
60
0
100
AcDbSpline
70
4
71
3
72
14
73
10
40
0
40
0
40
0
40
0
40
0.49999999999997
40
0.49999999999997
40
0.624999999999969
40
0.624999999999969
40
0.749999999999967
40
0.749999999999967
40
1
40
1
40
1
40
1
41
1
10
146.592767299413
20
35.6479446084495
30
0
41
1
10
146.800735500335
20
35.4574810770532
30
0
41
1
10
147.015013859737
20
35.2673564860017
30
0
41
1
10
147.296757710037
20
35.0304471438918
30
0
41
1
10
147.353701019927
20
34.9831736742196
30
0
41
1
10
147.46696657671
20
34.8902871060099
30
0
41
1
10
147.52353176916
20
34.8444673957118
30
0
41
1
10
147.693049097377
20
34.7086528596806
30
0
41
1
10
147.80582367857
20
34.620296220513
30
0
41
1
10
147.918435221416
20
34.5334438356611
30
0
0
INSERT
5
18D
100
AcDbEntity
8
2
62
256
6
ByLayer
370
25
48
1
60
0
100
AcDbBlockReference
2
DimnDraft3D11
10
0
20
0
30
0
41
1
42
1
43
1
50
0
210
0
220
0
230
1
0
LINE
5
70
100
AcDbEntity
8
1
62
256
6
ByLayer
370
18
48
1
60
0
100
AcDbLine
10
10.538675
20
30.080593
30
0
11
13.461325
21
30.080593
31
0
39
0
210
0
220
0
230
1
0
LINE
5
72
100
AcDbEntity
8
1
62
256
6
ByLayer
370
18
48
1
60
0
100
AcDbLine
10
13.461325
20
-30.080593
30
0
11
10.538675
21
-30.080593
31
0
39
0
210
0
220
0
230
1
0
LINE
5
73
100
AcDbEntity
8
1
62
256
6
ByLayer
370
18
48
1
60
0
100
AcDbLine
10
0.3
20
-31.5
30
0
11
0
21
-31.2
31
0
39
0
210
0
220
0
230
1
0
LINE
5
74
100
AcDbEntity
8
1
62
256
6
ByLayer
370
18
48
1
60
0
100
AcDbLine
10
0.3
20
31.5
30
0
11
0.3
21
-31.5
31
0
39
0
210
0
220
0
230
1
0
LINE
5
75
100
AcDbEntity
8
1
62
256
6
ByLayer
370
18
48
1
60
0
100
AcDbLine
10
0
20
31.2
30
0
11
0.3
21
31.5
31
0
39
0
210
0
220
0
230
1
0
LINE
5
76
100
AcDbEntity
8
1
62
256
6
ByLayer
370
18
48
1
60
0
100
AcDbLine
10
0
20
31.2
30
0
11
0
21
-31.2
31
0
39
0
210
0
220
0
230
1
0
LINE
5
77
100
AcDbEntity
8
1
62
256
6
ByLayer
370
18
48
1
60
0
100
AcDbLine
10
0.3
20
31.5
30
0
11
124.8
21
31.5
31
0
39
0
210
0
220
0
230
1
0
LINE
5
78
100
AcDbEntity
8
1
62
256
6
ByLayer
370
18
48
1
60
0
100
AcDbLine
10
109.28213
20
-31.5
30
0
11
0.3
21
-31.5
31
0
39
0
210
0
220
0
230
1
0
LINE
5
79
100
AcDbEntity
8
1
62
256
6
ByLayer
370
18
48
1
60
0
100
AcDbLine
10
124.8
20
31.5
30
0
11
124.8
21
19.928333
31
0
39
0
210
0
220
0
230
1
0
LINE
5
7A
100
AcDbEntity
8
1
62
256
6
ByLayer
370
18
48
1
60
0
100
AcDbLine
10
124.270542
20
-19.78977
30
0
11
109.28213
21
-31.5
31
0
39
0
210
0
220
0
230
1
0
LINE
5
7B
100
AcDbEntity
8
1
62
256
6
ByLayer
370
18
48
1
60
0
100
AcDbLine
10
10.538675
20
-9.349221
30
0
11
13.461325
21
-9.349221
31
0
39
0
210
0
220
0
230
1
0
LINE
5
7C
100
AcDbEntity
8
1
62
256
6
ByLayer
370
18
48
1
60
0
100
AcDbLine
10
13.461325
20
9.349221
30
0
11
10.538675
21
9.349221
31
0
39
0
210
0
220
0
230
1
0
LINE
5
7D
100
AcDbEntity
8
1
62
256
6
ByLayer
370
18
48
1
60
0
100
AcDbLine
10
138.7097
20
-8.508663
30
0
11
124.270542
21
-19.78977
31
0
39
0
210
0
220
0
230
1
0
LINE
5
7E
100
AcDbEntity
8
1
62
256
6
ByLayer
370
18
48
1
60
0
100
AcDbLine
10
153.436673
20
12.327827
30
0
11
138.7097
21
-8.508663
31
0
39
0
210
0
220
0
230
1
0
LINE
5
7F
100
AcDbEntity
8
1
62
256
6
ByLayer
370
18
48
1
60
0
100
AcDbLine
10
154.084178
20
19.438413
30
0
11
153.436673
21
12.327827
31
0
39
0
210
0
220
0
230
1
0
LINE
5
80
100
AcDbEntity
8
1
62
256
6
ByLayer
370
18
48
1
60
0
100
AcDbLine
10
134.807021
20
29.194239
30
0
11
154.084178
21
19.438413
31
0
39
0
210
0
220
0
230
1
0
LINE
5
81
100
AcDbEntity
8
1
62
256
6
ByLayer
370
18
48
1
60
0
100
AcDbLine
10
10.105662
20
-9.869413
30
0
11
10.105662
21
-29.913955
31
0
39
0
210
0
220
0
230
1
0
LINE
5
82
100
AcDbEntity
8
1
62
256
6
ByLayer
370
18
48
1
60
0
100
AcDbLine
10
10.538675
20
-9.349221
30
0
11
10.538675
21
-30.080593
31
0
39
0
210
0
220
0
230
1
0
LINE
5
83
100
AcDbEntity
8
1
62
256
6
ByLayer
370
18
48
1
60
0
100
AcDbLine
10
13.461325
20
30.080593
30
0
11
13.461325
21
9.349221
31
0
39
0
210
0
220
0
230
1
0
LINE
5
84
100
AcDbEntity
8
1
62
256
6
ByLayer
370
18
48
1
60
0
100
AcDbLine
10
13.894338
20
29.913955
30
0
11
13.894338
21
9.869413
31
0
39
0
210
0
220
0
230
1
0
LINE
5
85
100
AcDbEntity
8
1
62
256
6
ByLayer
370
18
48
1
60
0
100
AcDbLine
10
13.461325
20
-9.349221
30
0
11
13.461325
21
-30.080593
31
0
39
0
210
0
220
0
230
1
0
LINE
5
86
100
AcDbEntity
8
1
62
256
6
ByLayer
370
18
48
1
60
0
100
AcDbLine
10
13.894338
20
-9.869413
30
0
11
13.894338
21
-29.913955
31
0
39
0
210
0
220
0
230
1
0
LINE
5
87
100
AcDbEntity
8
1
62
256
6
ByLayer
370
18
48
1
60
0
100
AcDbLine
10
10.105662
20
29.913955
30
0
11
10.105662
21
9.869413
31
0
39
0
210
0
220
0
230
1
0
LINE
5
88
100
AcDbEntity
8
1
62
256
6
ByLayer
370
18
48
1
60
0
100
AcDbLine
10
10.538675
20
30.080593
30
0
11
10.538675
21
9.349221
31
0
39
0
210
0
220
0
230
1
0
LINE
5
89
100
AcDbEntity
8
1
62
256
6
ByLayer
370
18
48
1
60
0
100
AcDbLine
10
133.991833
20
27.874958
30
0
11
133.991833
21
34.91734
31
0
39
0
210
0
220
0
230
1
0
LINE
5
8A
100
AcDbEntity
8
1
62
256
6
ByLayer
370
18
48
1
60
0
100
AcDbLine
10
133.991833
20
35.785714
30
0
11
133.991833
21
35.558011
31
0
39
0
210
0
220
0
230
1
0
LINE
5
8B
100
AcDbEntity
8
SK1
62
256
6
ByLayer
370
18
48
1
60
0
100
AcDbLine
10
-1.307107
20
4.811013
30
0
11
-1.307107
21
-4.811013
31
0
39
0
210
0
220
0
230
1
0
LINE
5
8D
100
AcDbEntity
8
SK1
62
256
6
ByLayer
370
18
48
1
60
0
100
AcDbLine
10
-0.2
20
-7.059518
30
0
11
-0.2
21
-22.533485
31
0
39
0
210
0
220
0
230
1
0
LINE
5
8E
100
AcDbEntity
8
SK1
62
256
6
ByLayer
370
18
48
1
60
0
100
AcDbLine
10
-0.2
20
22.533485
30
0
11
-0.2
21
7.059517
31
0
39
0
210
0
220
0
230
1
0
LINE
5
8F
100
AcDbEntity
8
SK1
62
256
6
ByLayer
370
18
48
1
60
0
100
AcDbLine
10
-0.394977
20
-21.865385
30
0
11
-0.394977
21
-6.326943
31
0
39
0
210
0
220
0
230
1
0
LINE
5
90
100
AcDbEntity
8
1
62
256
6
ByLayer
370
18
48
1
60
0
100
AcDbLine
10
154.084178
20
19.438413
30
0
11
157.356466
21
21.856409
31
0
39
0
210
0
220
0
230
1
0
LINE
5
91
100
AcDbEntity
8
1
62
256
6
ByLayer
370
18
48
1
60
0
100
AcDbLine
10
157.356466
20
21.856409
30
0
11
157.358106
21
23.628804
31
0
39
0
210
0
220
0
230
1
0
LINE
5
92
100
AcDbEntity
8
1
62
256
6
ByLayer
370
18
48
1
60
0
100
AcDbLine
10
154.49096
20
27.943846
30
0
11
154.904824
21
27.697714
31
0
39
0
210
0
220
0
230
1
0
LINE
5
93
100
AcDbEntity
8
1
62
256
6
ByLayer
370
18
48
1
60
0
100
AcDbLine
10
151.103069
20
28.703069
30
0
11
152.322251
21
28.628022
31
0
39
0
210
0
220
0
230
1
0
LINE
5
94
100
AcDbEntity
8
1
62
256
6
ByLayer
370
18
48
1
60
0
100
AcDbLine
10
143.182808
20
32.885634
30
0
11
143.595443
21
32.428011
31
0
39
0
210
0
220
0
230
1
0
LINE
5
95
100
AcDbEntity
8
1
62
256
6
ByLayer
370
18
48
1
60
0
100
AcDbLine
10
141.453379
20
34.147921
30
0
11
135.289621
21
31.726784
31
0
39
0
210
0
220
0
230
1
0
LINE
5
96
100
AcDbEntity
8
1
62
256
6
ByLayer
370
18
48
1
60
0
100
AcDbLine
10
140.449746
20
34.357446
30
0
11
134.661958
21
35.097178
31
0
39
0
210
0
220
0
230
1
0
LINE
5
97
100
AcDbEntity
8
1
62
256
6
ByLayer
370
18
48
1
60
0
100
AcDbLine
10
157.356466
20
21.856409
30
0
11
156.966331
21
17.572134
31
0
39
0
210
0
220
0
230
1
0
LINE
5
98
100
AcDbEntity
8
1
62
256
6
ByLayer
370
18
48
1
60
0
100
AcDbLine
10
156.966331
20
17.572134
30
0
11
153.436673
21
12.327827
31
0
39
0
210
0
220
0
230
1
0
LINE
5
99
100
AcDbEntity
8
1
62
256
6
ByLayer
370
18
48
1
60
0
100
AcDbLine
10
139.858322
20
35.388342
30
0
11
134.629983
21
36.337887
31
0
39
0
210
0
220
0
230
1
0
LINE
5
9A
100
AcDbEntity
8
1
62
256
6
ByLayer
370
18
48
1
60
0
100
AcDbLine
10
158.183288
20
19.961145
30
0
11
158.391248
21
22.495246
31
0
39
0
210
0
220
0
230
1
0
LINE
5
9B
100
AcDbEntity
8
1
62
256
6
ByLayer
370
18
48
1
60
0
100
AcDbLine
10
151.531356
20
35.131299
30
0
11
151.198571
21
31.076156
31
0
39
0
210
0
220
0
230
1
0
LINE
5
9C
100
AcDbEntity
8
1
62
256
6
ByLayer
370
18
48
1
60
0
100
AcDbLine
10
151.684704
20
38.825578
30
0
11
151.451985
21
35.989783
31
0
39
0
210
0
220
0
230
1
0
LINE
5
9D
100
AcDbEntity
8
1
62
256
6
ByLayer
370
18
48
1
60
0
100
AcDbLine
10
152.149454
20
42.663134
30
0
11
151.90271
21
39.656433
31
0
39
0
210
0
220
0
230
1
0
LINE
5
9E
100
AcDbEntity
8
1
62
256
6
ByLayer
370
18
48
1
60
0
100
AcDbLine
10
140.861947
20
41.736828
30
0
11
152.149454
21
42.663134
31
0
39
0
210
0
220
0
230
1
0
LINE
5
9F
100
AcDbEntity
8
1
62
256
6
ByLayer
370
18
48
1
60
0
100
AcDbLine
10
162.66457
20
32.166949
30
0
11
162.12096
21
25.542793
31
0
39
0
210
0
220
0
230
1
0
LINE
5
A0
100
AcDbEntity
8
1
62
256
6
ByLayer
370
18
48
1
60
0
100
AcDbLine
10
156.852917
20
31.664431
30
0
11
162.66457
21
32.166949
31
0
39
0
210
0
220
0
230
1
0
LINE
5
A1
100
AcDbEntity
8
1
62
256
6
ByLayer
370
18
48
1
60
0
100
AcDbLine
10
156.852917
20
31.664431
30
0
11
156.771786
21
30.675811
31
0
39
0
210
0
220
0
230
1
0
LINE
5
A2
100
AcDbEntity
8
1
62
256
6
ByLayer
370
18
48
1
60
0
100
AcDbLine
10
162.12096
20
25.542793
30
0
11
158.183288
21
19.961145
31
0
39
0
210
0
220
0
230
1
0
LINE
5
A3
100
AcDbEntity
8
1
62
256
6
ByLayer
370
18
48
1
60
0
100
AcDbLine
10
156.771786
20
30.675811
30
0
11
156.078586
21
29.888067
31
0
39
0
210
0
220
0
230
1
0
LINE
5
A4
100
AcDbEntity
8
1
62
256
6
ByLayer
370
18
48
1
60
0
100
AcDbLine
10
156.338595
20
31.218185
30
0
11
156.321582
21
31.010874
31
0
39
0
210
0
220
0
230
1
0
LINE
5
A5
100
AcDbEntity
8
1
62
256
6
ByLayer
370
18
48
1
60
0
100
AcDbLine
10
156.078586
20
29.888067
30
0
11
156.186716
21
31.205691
31
0
39
0
210
0
220
0
230
1
0
LINE
5
A6
100
AcDbEntity
8
1
62
256
6
ByLayer
370
18
48
1
60
0
100
AcDbLine
10
156.321582
20
31.010874
30
0
11
156.852917
21
31.664431
31
0
39
0
210
0
220
0
230
1
0
LINE
5
A7
100
AcDbEntity
8
1
62
256
6
ByLayer
370
18
48
1
60
0
100
AcDbLine
10
156.296204
20
36.516183
30
0
11
156.25353
21
36.473509
31
0
39
0
210
0
220
0
230
1
0
LINE
5
A8
100
AcDbEntity
8
1
62
256
6
ByLayer
370
18
48
1
60
0
100
AcDbLine
10
155.605639
20
38.00453
30
0
11
155.709249
21
38.10814
31
0
39
0
210
0
220
0
230
1
0
LINE
5
A9
100
AcDbEntity
8
1
62
256
6
ByLayer
370
18
48
1
60
0
100
AcDbLine
10
159.694813
20
36.7228
30
0
11
159.237385
21
36.265371
31
0
39
0
210
0
220
0
230
1
0
LINE
5
AA
100
AcDbEntity
8
1
62
256
6
ByLayer
370
18
48
1
60
0
100
AcDbLine
10
155.928965
20
38.895384
30
0
11
155.842747
21
38.809166
31
0
39
0
210
0
220
0
230
1
0
LINE
5
AB
100
AcDbEntity
8
1
62
256
6
ByLayer
370
18
48
1
60
0
100
AcDbLine
10
155.940224
20
38.912237
30
0
11
156.397652
21
39.369665
31
0
39
0
210
0
220
0
230
1
0
LINE
5
AC
100
AcDbEntity
8
1
62
256
6
ByLayer
370
18
48
1
60
0
100
AcDbLine
10
159.180953
20
35.857551
30
0
11
159.081663
21
35.758261
31
0
39
0
210
0
220
0
230
1
0
LINE
5
AD
100
AcDbEntity
8
1
62
256
6
ByLayer
370
18
48
1
60
0
100
AcDbLine
10
156.187226
20
39.301442
30
0
11
156.198406
21
39.312623
31
0
39
0
210
0
220
0
230
1
0
LINE
5
AE
100
AcDbEntity
8
1
62
256
6
ByLayer
370
18
48
1
60
0
100
AcDbLine
10
153.400998
20
21.706275
30
0
11
152.455123
21
22.235549
31
0
39
0
210
0
220
0
230
1
0
LINE
5
AF
100
AcDbEntity
8
1
62
256
6
ByLayer
370
18
48
1
60
0
100
AcDbLine
10
153.873935
20
20.840485
30
0
11
153.400998
21
21.706275
31
0
39
0
210
0
220
0
230
1
0
LINE
5
B0
100
AcDbEntity
8
1
62
256
6
ByLayer
370
18
48
1
60
0
100
AcDbLine
10
153.400998
20
20.50397
30
0
11
153.873935
21
20.840485
31
0
39
0
210
0
220
0
230
1
0
LINE
5
B1
100
AcDbEntity
8
1
62
256
6
ByLayer
370
18
48
1
60
0
100
AcDbLine
10
152.455123
20
21.033244
30
0
11
153.400998
21
20.50397
31
0
39
0
210
0
220
0
230
1
0
LINE
5
B2
100
AcDbEntity
8
1
62
256
6
ByLayer
370
18
48
1
60
0
100
AcDbLine
10
151.982185
20
21.899033
30
0
11
152.455123
21
21.033244
31
0
39
0
210
0
220
0
230
1
0
LINE
5
B3
100
AcDbEntity
8
1
62
256
6
ByLayer
370
18
48
1
60
0
100
AcDbLine
10
152.455123
20
22.235549
30
0
11
151.982185
21
21.899033
31
0
39
0
210
0
220
0
230
1
0
LINE
5
B4
100
AcDbEntity
8
1
62
256
6
ByLayer
370
18
48
1
60
0
100
AcDbLine
10
152.050563
20
21.773832
30
0
11
152.455123
21
22.235549
31
0
39
0
210
0
220
0
230
1
0
LINE
5
B5
100
AcDbEntity
8
1
62
256
6
ByLayer
370
18
48
1
60
0
100
AcDbLine
10
152.694114
20
20.899521
30
0
11
153.400998
21
21.706275
31
0
39
0
210
0
220
0
230
1
0
LINE
5
B6
100
AcDbEntity
8
1
62
256
6
ByLayer
370
18
48
1
60
0
100
AcDbLine
10
144.853388
20
25.520824
30
0
11
145.725557
21
24.947649
31
0
39
0
210
0
220
0
230
1
0
LINE
5
B7
100
AcDbEntity
8
1
62
256
6
ByLayer
370
18
48
1
60
0
100
AcDbLine
10
144.398429
20
26.360607
30
0
11
144.853388
21
25.520824
31
0
39
0
210
0
220
0
230
1
0
LINE
5
B8
100
AcDbEntity
8
1
62
256
6
ByLayer
370
18
48
1
60
0
100
AcDbLine
10
144.853388
20
26.602409
30
0
11
144.398429
21
26.360607
31
0
39
0
210
0
220
0
230
1
0
LINE
5
B9
100
AcDbEntity
8
1
62
256
6
ByLayer
370
18
48
1
60
0
100
AcDbLine
10
145.763304
20
26.004428
30
0
11
144.853388
21
26.602409
31
0
39
0
210
0
220
0
230
1
0
LINE
5
BA
100
AcDbEntity
8
1
62
256
6
ByLayer
370
18
48
1
60
0
100
AcDbLine
10
146.218262
20
25.164644
30
0
11
145.763304
21
26.004428
31
0
39
0
210
0
220
0
230
1
0
LINE
5
BB
100
AcDbEntity
8
1
62
256
6
ByLayer
370
18
48
1
60
0
100
AcDbLine
10
145.773029
20
24.928011
30
0
11
146.218262
21
25.164644
31
0
39
0
210
0
220
0
230
1
0
LINE
5
BC
100
AcDbEntity
8
1
62
256
6
ByLayer
370
18
48
1
60
0
100
AcDbLine
10
144.483284
20
26.203944
30
0
11
144.853388
21
26.602409
31
0
39
0
210
0
220
0
230
1
0
LINE
5
BD
100
AcDbEntity
8
1
62
256
6
ByLayer
370
18
48
1
60
0
100
AcDbLine
10
145.1395
20
25.332821
30
0
11
145.763304
21
26.004428
31
0
39
0
210
0
220
0
230
1
0
LINE
5
BE
100
AcDbEntity
8
1
62
256
6
ByLayer
370
18
48
1
60
0
100
AcDbLine
10
145.369157
20
34.941934
30
0
11
146.176923
21
35.232101
31
0
39
0
210
0
220
0
230
1
0
LINE
5
BF
100
AcDbEntity
8
1
62
256
6
ByLayer
370
18
48
1
60
0
100
AcDbLine
10
146.176923
20
35.232101
30
0
11
146.592767
21
35.647945
31
0
39
0
210
0
220
0
230
1
0
LINE
5
C0
100
AcDbEntity
8
1
62
256
6
ByLayer
370
18
48
1
60
0
100
AcDbLine
10
144.92433
20
34.782142
30
0
11
145.369157
21
34.941934
31
0
39
0
210
0
220
0
230
1
0
LINE
5
C1
100
AcDbEntity
8
1
62
256
6
ByLayer
370
18
48
1
60
0
100
AcDbLine
10
147.357659
20
33.270183
30
0
11
147.260366
21
32.701314
31
0
39
0
210
0
220
0
230
1
0
LINE
5
C2
100
AcDbEntity
8
1
62
256
6
ByLayer
370
18
48
1
60
0
100
AcDbLine
10
147.502591
20
34.1176
30
0
11
147.918435
21
34.533444
31
0
39
0
210
0
220
0
230
1
0
LINE
5
C3
100
AcDbEntity
8
1
62
256
6
ByLayer
370
18
48
1
60
0
100
AcDbLine
10
147.502591
20
34.1176
30
0
11
147.357659
21
33.270183
31
0
39
0
210
0
220
0
230
1
0
LINE
5
C4
100
AcDbEntity
8
1
62
256
6
ByLayer
370
18
48
1
60
0
100
AcDbLine
10
143.351643
20
36.658705
30
0
11
143.408464
21
36.715526
31
0
39
0
210
0
220
0
230
1
0
LINE
5
C5
100
AcDbEntity
8
1
62
256
6
ByLayer
370
18
48
1
60
0
100
AcDbLine
10
146.839757
20
34.67485
30
0
11
147.502591
21
34.1176
31
0
39
0
210
0
220
0
230
1
0
LINE
5
C6
100
AcDbEntity
8
1
62
256
6
ByLayer
370
18
48
1
60
0
100
AcDbLine
10
149.065318
20
31.058671
30
0
11
149.008497
21
31.001851
31
0
39
0
210
0
220
0
230
1
0
LINE
5
C7
100
AcDbEntity
8
1
62
256
6
ByLayer
370
18
48
1
60
0
100
AcDbLine
10
146.176923
20
35.232101
30
0
11
146.839757
21
34.67485
31
0
39
0
210
0
220
0
230
1
0
LINE
5
C8
100
AcDbEntity
8
1
62
256
6
ByLayer
370
18
48
1
60
0
100
AcDbLine
10
164.137451
20
44.99736
30
0
11
152.635689
21
44.053471
31
0
39
0
210
0
220
0
230
1
0
LINE
5
C9
100
AcDbEntity
8
1
62
256
6
ByLayer
370
18
48
1
60
0
100
AcDbLine
10
152.276025
20
43.693807
30
0
11
151.332136
21
32.192045
31
0
39
0
210
0
220
0
230
1
0
LINE
5
CA
100
AcDbEntity
8
1
62
256
6
ByLayer
370
18
48
1
60
0
100
AcDbLine
10
152.192045
20
31.332136
30
0
11
163.693807
21
32.276025
31
0
39
0
210
0
220
0
230
1
0
LINE
5
CB
100
AcDbEntity
8
1
62
256
6
ByLayer
370
18
48
1
60
0
100
AcDbLine
10
164.053471
20
32.635689
30
0
11
164.99736
21
44.137451
31
0
39
0
210
0
220
0
230
1
0
LINE
5
CC
100
AcDbEntity
8
1
62
256
6
ByLayer
370
18
48
1
60
0
100
AcDbLine
10
151.286392
20
32.146302
30
0
11
151.332136
21
32.192045
31
0
39
0
210
0
220
0
230
1
0
LINE
5
CD
100
AcDbEntity
8
1
62
256
6
ByLayer
370
18
48
1
60
0
100
AcDbLine
10
151.697191
20
30.837281
30
0
11
152.192045
21
31.332136
31
0
39
0
210
0
220
0
230
1
0
LINE
5
CE
100
AcDbEntity
8
1
62
256
6
ByLayer
370
18
48
1
60
0
100
AcDbLine
10
151.78117
20
43.198953
30
0
11
152.276025
21
43.693807
31
0
39
0
210
0
220
0
230
1
0
LINE
5
CF
100
AcDbEntity
8
1
62
256
6
ByLayer
370
18
48
1
60
0
100
AcDbLine
10
151.78117
20
43.198953
30
0
11
151.734389
21
42.628897
31
0
39
0
210
0
220
0
230
1
0
LINE
5
D0
100
AcDbEntity
8
1
62
256
6
ByLayer
370
18
48
1
60
0
100
AcDbLine
10
163.198953
20
31.78117
30
0
11
163.693807
21
32.276025
31
0
39
0
210
0
220
0
230
1
0
LINE
5
D1
100
AcDbEntity
8
1
62
256
6
ByLayer
370
18
48
1
60
0
100
AcDbLine
10
151.697191
20
30.837281
30
0
11
156.500973
21
31.231503
31
0
39
0
210
0
220
0
230
1
0
LINE
5
D2
100
AcDbEntity
8
1
62
256
6
ByLayer
370
18
48
1
60
0
100
AcDbLine
10
162.628897
20
31.734389
30
0
11
163.198953
21
31.78117
31
0
39
0
210
0
220
0
230
1
0
LINE
5
D3
100
AcDbEntity
8
1
62
256
6
ByLayer
370
18
48
1
60
0
100
AcDbLine
10
151.89483
20
43.444957
30
0
11
152.389684
21
43.939811
31
0
39
0
210
0
220
0
230
1
0
LINE
5
D4
100
AcDbEntity
8
1
62
256
6
ByLayer
370
18
48
1
60
0
100
AcDbLine
10
163.939811
20
32.389684
30
0
11
163.444957
21
31.89483
31
0
39
0
210
0
220
0
230
1
0
LINE
5
D5
100
AcDbEntity
8
1
62
256
6
ByLayer
370
18
48
1
60
0
100
AcDbLine
10
137.514184
20
31.077411
30
0
11
137.869038
21
31.051894
31
0
39
0
210
0
220
0
230
1
0
LINE
5
D6
100
AcDbEntity
8
1
62
256
6
ByLayer
370
18
48
1
60
0
100
AcDbLine
10
139.827118
20
29.152679
30
0
11
139.859582
21
28.836459
31
0
39
0
210
0
220
0
230
1
0
LINE
5
D7
100
AcDbEntity
8
1
62
256
6
ByLayer
370
18
48
1
60
0
100
AcDbLine
10
139.123347
20
30.110637
30
0
11
138.238795
21
30.752743
31
0
39
0
210
0
220
0
230
1
0
LINE
5
D8
100
AcDbEntity
8
1
62
256
6
ByLayer
370
18
48
1
60
0
100
AcDbLine
10
139.565623
20
29.287996
30
0
11
139.123347
21
30.110637
31
0
39
0
210
0
220
0
230
1
0
LINE
5
D9
100
AcDbEntity
8
1
62
256
6
ByLayer
370
18
48
1
60
0
100
AcDbLine
10
139.123347
20
29.107462
30
0
11
139.565623
21
29.287996
31
0
39
0
210
0
220
0
230
1
0
LINE
5
DA
100
AcDbEntity
8
1
62
256
6
ByLayer
370
18
48
1
60
0
100
AcDbLine
10
138.238795
20
29.749568
30
0
11
139.123347
21
29.107462
31
0
39
0
210
0
220
0
230
1
0
LINE
5
DB
100
AcDbEntity
8
1
62
256
6
ByLayer
370
18
48
1
60
0
100
AcDbLine
10
137.796519
20
30.572208
30
0
11
138.238795
21
29.749568
31
0
39
0
210
0
220
0
230
1
0
LINE
5
DC
100
AcDbEntity
8
1
62
256
6
ByLayer
370
18
48
1
60
0
100
AcDbLine
10
138.238795
20
30.752743
30
0
11
137.796519
21
30.572208
31
0
39
0
210
0
220
0
230
1
0
LINE
5
DD
100
AcDbEntity
8
1
62
256
6
ByLayer
370
18
48
1
60
0
100
AcDbLine
10
137.891795
20
30.394988
30
0
11
138.238795
21
30.752743
31
0
39
0
210
0
220
0
230
1
0
LINE
5
DE
100
AcDbEntity
8
1
62
256
6
ByLayer
370
18
48
1
60
0
100
AcDbLine
10
138.55237
20
29.521963
30
0
11
139.123347
21
30.110637
31
0
39
0
210
0
220
0
230
1
0
LINE
5
DF
100
AcDbEntity
8
SK4
62
256
6
ByLayer
370
13
48
0.05
60
0
100
AcDbLine
10
161.3
20
0
30
0
11
-41.869898
21
0
31
0
39
0
210
0
220
0
230
1
0
LINE
5
E1
100
AcDbEntity
8
80
62
256
6
ByLayer
370
18
48
1
60
0
100
AcDbLine
10
0
20
0
30
0
11
-5.729133
21
0
31
0
39
0
210
0
220
0
230
1
0
LINE
5
E2
100
AcDbEntity
8
81
62
256
6
ByLayer
370
18
48
1
60
0
100
AcDbLine
10
170.726493
20
45.067928
30
0
11
164.99736
21
45.067928
31
0
39
0
210
0
220
0
230
1
0
MTEXT
5
17D
100
AcDbEntity
8
SK6
62
256
6
ByLayer
370
18
48
1
60
0
100
AcDbMText
10
39.713083
20
-67.349406
30
0
210
0
220
0
230
1
1
\W0.7217;C6-PCLNR-45165-12HP
40
4.5
41
0
44
1.084337
50
0
71
7
72
5
7
iso_b_vert
0
DIMENSION
5
19B
100
AcDbEntity
8
SK2
62
256
6
ByLayer
370
13
48
1
60
0
100
AcDbDimension
2
DimnDraft3D2
10
31.5
20
49.610044
30
0
11
2.770061
21
49.610044
31
0
70
32
71
5
72
1
41
1
210
0
220
0
230
1
3
Standard
100
AcDbAlignedDimension
13
-31.5
23
1.2875
33
0
14
31.5
24
1.2875
34
0
50
0
100
AcDbRotatedDimension
1001
ACAD
1000
DSTYLE
1002
{
1070
   279
1070
     0
1070
   172
1070
     1
1070
   173
1070
     1
1070
   340
1005
17E
1070
   271
1070
     2
1070
   272
1070
     2
1070
    77
1070
     1
1070
    73
1070
     0
1070
   171
1070
     3
1070
   274
1070
     4
1070
   177
1070
     7
1070
   176
1070
     7
1070
   178
1070
     7
1070
    78
1070
     8
1070
    48
1040
-0.005
1070
    41
1041
3.175
1070
   147
1041
1.75006
1070
    42
1041
1.5875
1070
    44
1041
3.175
1070
   140
1041
3.50012
1070
   343
1005
19C
1070
   344
1005
19C
1002
}
0
DIMENSION
5
1AD
100
AcDbEntity
8
2
62
256
6
ByLayer
370
13
48
1
60
0
100
AcDbDimension
2
DimnDraft3D3
10
0
20
69.254526
30
0
11
82.49868
21
69.254526
31
0
70
32
71
5
72
1
41
1
210
0
220
0
230
1
3
Standard
100
AcDbAlignedDimension
13
164.99736
23
46.655428
33
0
14
0
24
32.7875
34
0
50
0
100
AcDbRotatedDimension
1001
ACAD
1000
DSTYLE
1002
{
1070
   279
1070
     0
1070
   172
1070
     1
1070
   173
1070
     1
1070
   340
1005
17E
1070
   271
1070
     2
1070
   272
1070
     2
1070
    77
1070
     1
1070
    73
1070
     0
1070
   171
1070
     3
1070
   274
1070
     4
1070
   177
1070
     7
1070
   176
1070
     7
1070
   178
1070
     7
1070
    78
1070
     8
1070
    48
1040
-0.005
1070
    41
1041
3.175
1070
   147
1041
1.75006
1070
    42
1041
1.5875
1070
    44
1041
3.175
1070
   140
1041
3.50012
1070
   343
1005
19C
1070
   344
1005
19C
1002
}
0
DIMENSION
5
1B9
100
AcDbEntity
8
2
62
256
6
ByLayer
370
13
48
1
60
0
100
AcDbDimension
2
DimnDraft3D4
10
152.635689
20
44.053471
30
0
11
151.959801
21
57.079391
31
0
70
34
71
5
72
1
41
1
210
0
220
0
230
1
3
Standard
100
AcDb2LineAngularDimension
13
164.99736
23
45.067928
33
0
14
164.99736
24
46.067928
34
0
15
164.137451
25
44.99736
35
0
16
154.533984
26
54.707805
36
0
40
0
0
ENDSEC
0
SECTION
2
OBJECTS
0
DICTIONARY
5
224
330
0
100
AcDbDictionary
280
0
281
1
3
ACAD_GROUP
350
225
3
ACAD_MLINESTYLE
350
226
0
DICTIONARY
5
225
330
0
100
AcDbDictionary
280
0
281
1
0
DICTIONARY
5
226
330
0
100
AcDbDictionary
280
0
281
1
3
Standard
350
18
0
MLINESTYLE
5
18
330
226
100
AcDbMlineStyle
2
Standard
70
0
3

62
256
51
90
52
90
71
2
49
-0.5
62
256
6
ByLayer
49
0.5
62
256
6
ByLayer
0
RASTERVARIABLES
5
212
330

100
AcDbRasterVariables
90
0
70
1
71
1
72
1
0
ENDSEC
0
EOF
