0
SECTION
2
HEADER
9
$ACADVER
1
AC1015
9
$DWGCODEPAGE
3
ANSI_1252
9
$HANDSEED
5
237
9
$ANGBASE
50
0
9
$ANGDIR
70
0
9
$ATTMODE
70
1
9
$AUNITS
70
0
9
$AUPREC
70
0
9
$CECOLOR
62
256
9
$CELTSCALE
40
1
9
$CELTYPE
6
ByLayer
9
$CELWEIGHT
370
18
9
$CLAYER
8
0
9
$CMLJUST
70
0
9
$CMLSCALE
40
1
9
$CMLSTYLE
2
Standard
9
$DIMSTYLE
2
Standard
9
$TEXTSIZE
40
0.2
9
$TEXTSTYLE
7
Standard
9
$LUNITS
70
2
9
$LUPREC
70
4
9
$EXTNAMES
290
1
9
$INSUNITS
70
4
9
$LTSCALE
40
1
9
$LWDISPLAY
290
1
9
$PDMODE
70
0
9
$PDSIZE
40
0
9
$PLINEGEN
70
0
0
ENDSEC
0
SECTION
2
CLASSES
0
CLASS
1
RASTERVARIABLES
2
AcDbRasterVariables
3
ISM
90
0
280
0
281
0
0
ENDSEC
0
SECTION
2
TABLES
0
TABLE
2
VPORT
5
22d
100
AcDbSymbolTable
0
VPORT
5
1
100
AcDbSymbolTableRecord
100
AcDbViewportTableRecord
2
*Active
70
0
10
0
20
0
11
1
21
1
12
-1
22
1
13
0
23
0
14
0.5
24
0.5
15
10
25
10
16
0
26
0
36
1
17
0
27
0
37
0
0
ENDTAB
0
TABLE
2
LTYPE
5
22e
100
AcDbSymbolTable
0
LTYPE
5
14
100
AcDbSymbolTableRecord
100
AcDbLinetypeTableRecord
70
0
2
ByBlock
3

72
65
73
0
40
0
0
LTYPE
5
15
100
AcDbSymbolTableRecord
100
AcDbLinetypeTableRecord
70
0
2
ByLayer
3

72
65
73
0
40
0
0
LTYPE
5
16
100
AcDbSymbolTableRecord
100
AcDbLinetypeTableRecord
70
0
2
CONTINUOUS
3
Solid line
72
65
73
0
40
0
0
LTYPE
5
6A
100
AcDbSymbolTableRecord
100
AcDbLinetypeTableRecord
70
0
2
CENTER
3
____ _ ____ _ ____ _ ____
72
65
73
4
40
47.5
49
22
74
0
49
-8.5
74
0
49
8.5
74
0
49
-8.5
74
0
0
LTYPE
5
6B
100
AcDbSymbolTableRecord
100
AcDbLinetypeTableRecord
70
0
2
DASHED
3
__ __ __ __ __ __ __ __ __
72
65
73
2
40
25.72
49
12.86
74
0
49
-12.86
74
0
0
ENDTAB
0
TABLE
2
LAYER
5
22f
100
AcDbSymbolTable
0
LAYER
5
10
100
AcDbSymbolTableRecord
100
AcDbLayerTableRecord
2
0
70
0
62
7
6
CONTINUOUS
290
1
370
-3
390
0
0
LAYER
5
6D
100
AcDbSymbolTableRecord
100
AcDbLayerTableRecord
2
80
70
0
62
-6
6
CONTINUOUS
290
1
370
-3
390
0
0
LAYER
5
6F
100
AcDbSymbolTableRecord
100
AcDbLayerTableRecord
2
81
70
0
62
-3
6
CONTINUOUS
290
1
370
-3
390
0
0
LAYER
5
71
100
AcDbSymbolTableRecord
100
AcDbLayerTableRecord
2
1
70
0
62
4
6
CONTINUOUS
290
1
370
-3
390
0
0
LAYER
5
18B
100
AcDbSymbolTableRecord
100
AcDbLayerTableRecord
2
2
70
0
62
7
6
CONTINUOUS
290
1
370
-3
390
0
0
LAYER
5
219
100
AcDbSymbolTableRecord
100
AcDbLayerTableRecord
2
SK1
70
0
62
4
6
CONTINUOUS
290
1
370
-3
390
0
0
LAYER
5
21a
100
AcDbSymbolTableRecord
100
AcDbLayerTableRecord
2
SK4
70
0
62
2
6
CENTER
290
1
370
-3
390
0
0
LAYER
5
21b
100
AcDbSymbolTableRecord
100
AcDbLayerTableRecord
2
SK6
70
0
62
5
6
CONTINUOUS
290
1
370
-3
390
0
0
LAYER
5
21c
100
AcDbSymbolTableRecord
100
AcDbLayerTableRecord
2
SK2
70
0
62
7
6
CONTINUOUS
290
1
370
-3
390
0
0
ENDTAB
0
TABLE
2
STYLE
5
230
100
AcDbSymbolTable
0
STYLE
5
11
100
AcDbSymbolTableRecord
100
AcDbTextStyleTableRecord
2
Standard
3
txt
70
0
71
0
40
0
41
1
42
0
50
0
0
STYLE
5
184
100
AcDbSymbolTableRecord
100
AcDbTextStyleTableRecord
2
iso_b_vert
3
simplex.shx
70
0
71
0
40
0
41
1
42
0
50
0
0
STYLE
5
185
100
AcDbSymbolTableRecord
100
AcDbTextStyleTableRecord
2
DWGDirectTextStyle
3
simplex
70
0
71
0
40
0
41
1
42
0
50
0
0
ENDTAB
0
TABLE
2
DIMSTYLE
5
231
100
AcDbSymbolTable
100
AcDbDimStyleTable
0
DIMSTYLE
105
27
100
AcDbSymbolTableRecord
100
AcDbDimStyleTableRecord
2
Standard
70
0
3
<>
41
0.18
42
0.0625
44
0.18
140
0.18
147
0.09
73
0
74
0
77
1
271
2
275
0
278
52
280
0
340
11
0
ENDTAB
0
TABLE
2
VIEW
5
232
100
AcDbSymbolTable
0
ENDTAB
0
TABLE
2
UCS
5
233
100
AcDbSymbolTable
0
ENDTAB
0
TABLE
2
APPID
5
234
100
AcDbSymbolTable
0
APPID
5
12
100
AcDbSymbolTableRecord
100
AcDbRegAppTableRecord
2
ACAD
70
0
0
ENDTAB
0
TABLE
2
BLOCK_RECORD
5
235
100
AcDbSymbolTable
0
BLOCK_RECORD
5
1F
100
AcDbSymbolTableRecord
100
AcDbBlockTableRecord
2
*Model_Space
340
0
70
0
0
BLOCK_RECORD
5
1B
100
AcDbSymbolTableRecord
100
AcDbBlockTableRecord
2
*Paper_Space
340
0
70
0
0
BLOCK_RECORD
5
23
100
AcDbSymbolTableRecord
100
AcDbBlockTableRecord
2
*Paper_Space0
340
0
70
0
0
BLOCK_RECORD
5
187
100
AcDbSymbolTableRecord
100
AcDbBlockTableRecord
2
DimnDraft3D11
340
0
70
0
0
BLOCK_RECORD
5
194
100
AcDbSymbolTableRecord
100
AcDbBlockTableRecord
2
DimnDraft3D22
340
0
70
0
0
BLOCK_RECORD
5
1A0
100
AcDbSymbolTableRecord
100
AcDbBlockTableRecord
2
DimnDraft3D3
340
0
70
0
0
BLOCK_RECORD
5
1AE
100
AcDbSymbolTableRecord
100
AcDbBlockTableRecord
2
_OPEN
340
0
70
0
0
BLOCK_RECORD
5
1B4
100
AcDbSymbolTableRecord
100
AcDbBlockTableRecord
2
DimnDraft3D4
340
0
70
0
0
ENDTAB
0
ENDSEC
0
SECTION
2
BLOCKS
0
BLOCK
5
20
100
AcDbEntity
8
0
100
AcDbBlockBegin
2
*Model_Space
70
0
10
0
20
0
30
0
3
*Model_Space
0
ENDBLK
5
21
100
AcDbEntity
8
0
100
AcDbBlockEnd
0
BLOCK
5
1C
100
AcDbEntity
8
0
100
AcDbBlockBegin
2
*Paper_Space
70
0
10
0
20
0
30
0
3
*Paper_Space
0
ENDBLK
5
1D
100
AcDbEntity
8
0
100
AcDbBlockEnd
0
BLOCK
5
24
100
AcDbEntity
8
0
100
AcDbBlockBegin
2
*Paper_Space0
70
0
10
0
20
0
30
0
3
*Paper_Space0
0
ENDBLK
5
25
100
AcDbEntity
8
0
100
AcDbBlockEnd
0
BLOCK
5
188
100
AcDbEntity
8
0
100
AcDbBlockBegin
2
DimnDraft3D11
70
0
10
0
20
0
30
0
3
DimnDraft3D11
0
LINE
5
18A
100
AcDbEntity
8
2
62
256
6
ByLayer
370
25
48
1
60
0
100
AcDbLine
10
166.58486
20
-44.99736
30
0
11
193.864635
21
-44.99736
31
0
39
0
210
0
220
0
230
1
0
LINE
5
18C
100
AcDbEntity
8
2
62
256
6
ByLayer
370
25
48
1
60
0
100
AcDbLine
10
161.5875
20
0
30
0
11
193.864635
21
0
31
0
39
0
210
0
220
0
230
1
0
LINE
5
18D
100
AcDbEntity
8
2
62
256
6
ByLayer
370
25
48
1
60
0
100
AcDbLine
10
190.689635
20
-44.99736
30
0
11
190.689635
21
0
31
0
39
0
210
0
220
0
230
1
0
LINE
5
18E
100
AcDbEntity
8
2
62
256
6
ByLayer
370
25
48
1
60
0
100
AcDbLine
10
190.689635
20
-44.99736
30
0
11
190.271638
21
-41.822362
31
0
39
0
210
0
220
0
230
1
0
LINE
5
18F
100
AcDbEntity
8
2
62
256
6
ByLayer
370
25
48
1
60
0
100
AcDbLine
10
190.689635
20
-44.99736
30
0
11
191.107631
21
-41.822359
31
0
39
0
210
0
220
0
230
1
0
LINE
5
190
100
AcDbEntity
8
2
62
256
6
ByLayer
370
25
48
1
60
0
100
AcDbLine
10
190.689635
20
0
30
0
11
191.107631
21
-3.174998
31
0
39
0
210
0
220
0
230
1
0
LINE
5
191
100
AcDbEntity
8
2
62
256
6
ByLayer
370
25
48
1
60
0
100
AcDbLine
10
190.689635
20
0
30
0
11
190.271638
21
-3.175002
31
0
39
0
210
0
220
0
230
1
0
MTEXT
5
192
100
AcDbEntity
8
2
62
256
6
ByLayer
370
18
48
1
60
0
100
AcDbMText
10
189.814605
20
-23.852674
30
0
210
0
220
0
230
1
1
\W0.7183;45
40
3.50012
41
0
44
1.084337
50
90
71
7
72
5
7
iso_b_vert
0
ENDBLK
5
189
100
AcDbEntity
8
0
100
AcDbBlockEnd
0
BLOCK
5
195
100
AcDbEntity
8
0
100
AcDbBlockBegin
2
DimnDraft3D22
70
0
10
0
20
0
30
0
3
DimnDraft3D22
0
LINE
5
197
100
AcDbEntity
8
2
62
256
6
ByLayer
370
25
48
1
60
0
100
AcDbLine
10
164.99736
20
-46.58486
30
0
11
164.99736
21
-60.067492
31
0
39
0
210
0
220
0
230
1
0
LINE
5
198
100
AcDbEntity
8
2
62
256
6
ByLayer
370
25
48
1
60
0
100
AcDbLine
10
0
20
-32.7875
30
0
11
0
21
-60.067492
31
0
39
0
210
0
220
0
230
1
0
LINE
5
199
100
AcDbEntity
8
2
62
256
6
ByLayer
370
25
48
1
60
0
100
AcDbLine
10
164.99736
20
-56.892492
30
0
11
0
21
-56.892492
31
0
39
0
210
0
220
0
230
1
0
LINE
5
19A
100
AcDbEntity
8
2
62
256
6
ByLayer
370
25
48
1
60
0
100
AcDbLine
10
164.99736
20
-56.892492
30
0
11
161.822362
21
-57.310489
31
0
39
0
210
0
220
0
230
1
0
LINE
5
19B
100
AcDbEntity
8
2
62
256
6
ByLayer
370
25
48
1
60
0
100
AcDbLine
10
164.99736
20
-56.892492
30
0
11
161.822359
21
-56.474496
31
0
39
0
210
0
220
0
230
1
0
LINE
5
19C
100
AcDbEntity
8
2
62
256
6
ByLayer
370
25
48
1
60
0
100
AcDbLine
10
0
20
-56.892492
30
0
11
3.174998
21
-56.474496
31
0
39
0
210
0
220
0
230
1
0
LINE
5
19D
100
AcDbEntity
8
2
62
256
6
ByLayer
370
25
48
1
60
0
100
AcDbLine
10
0
20
-56.892492
30
0
11
3.175002
21
-57.310489
31
0
39
0
210
0
220
0
230
1
0
MTEXT
5
19E
100
AcDbEntity
8
2
62
256
6
ByLayer
370
18
48
1
60
0
100
AcDbMText
10
80.481506
20
-56.017462
30
0
210
0
220
0
230
1
1
\W0.6044;165
40
3.50012
41
0
44
1.084337
50
0
71
7
72
5
7
iso_b_vert
0
ENDBLK
5
196
100
AcDbEntity
8
0
100
AcDbBlockEnd
0
BLOCK
5
1AB
100
AcDbEntity
8
0
100
AcDbBlockBegin
2
DimnDraft3D3
70
0
10
0
20
0
30
0
3
DimnDraft3D3
0
MTEXT
5
1A1
100
AcDbEntity
8
SK2
62
256
6
ByLayer
370
18
48
1
60
0
100
AcDbMText
10
-55.183079
20
2.787465
30
0
210
0
220
0
230
1
1
\W0.6562;63
40
3.50012
41
0
44
1.084337
50
90
71
7
72
5
7
iso_b_vert
0
MTEXT
5
1A3
100
AcDbEntity
8
SK2
62
256
6
ByLayer
370
18
48
1
60
0
100
AcDbMText
10
-55.183079
20
-5.93549
30
0
210
0
220
0
230
1
1
%%c
40
3.50012
41
0
44
1.084337
50
90
71
7
72
5
7
iso_b_vert
0
LINE
5
1A4
100
AcDbEntity
8
SK2
62
256
6
ByLayer
370
13
48
1
60
0
100
AcDbLine
10
-1.2875
20
-31.5
30
0
11
-56.608019
21
-31.5
31
0
39
0
210
0
220
0
230
1
0
LINE
5
1A5
100
AcDbEntity
8
SK2
62
256
6
ByLayer
370
13
48
1
60
0
100
AcDbLine
10
-1.2875
20
31.5
30
0
11
-56.608019
21
31.5
31
0
39
0
210
0
220
0
230
1
0
LINE
5
1A6
100
AcDbEntity
8
SK2
62
256
6
ByLayer
370
13
48
1
60
0
100
AcDbLine
10
-53.433019
20
-31.5
30
0
11
-53.433019
21
31.5
31
0
39
0
210
0
220
0
230
1
0
LINE
5
1A7
100
AcDbEntity
8
SK2
62
256
6
ByLayer
370
13
48
1
60
0
100
AcDbLine
10
-53.433019
20
-31.5
30
0
11
-53.851016
21
-28.325002
31
0
39
0
210
0
220
0
230
1
0
LINE
5
1A8
100
AcDbEntity
8
SK2
62
256
6
ByLayer
370
13
48
1
60
0
100
AcDbLine
10
-53.433019
20
-31.5
30
0
11
-53.015023
21
-28.324998
31
0
39
0
210
0
220
0
230
1
0
LINE
5
1A9
100
AcDbEntity
8
SK2
62
256
6
ByLayer
370
13
48
1
60
0
100
AcDbLine
10
-53.433019
20
31.5
30
0
11
-53.015023
21
28.325002
31
0
39
0
210
0
220
0
230
1
0
LINE
5
1AA
100
AcDbEntity
8
SK2
62
256
6
ByLayer
370
13
48
1
60
0
100
AcDbLine
10
-53.433019
20
31.5
30
0
11
-53.851016
21
28.324998
31
0
39
0
210
0
220
0
230
1
0
ENDBLK
5
1AC
100
AcDbEntity
8
0
100
AcDbBlockEnd
0
BLOCK
5
1AF
100
AcDbEntity
8
0
100
AcDbBlockBegin
2
_OPEN
70
0
10
0
20
0
30
0
3
_OPEN
0
LINE
5
1B1
100
AcDbEntity
8
0
62
256
6
ByLayer
370
-2
48
1
60
0
100
AcDbLine
10
-1
20
0.166667
30
0
11
0
21
0
31
0
39
0
210
0
220
0
230
1
0
LINE
5
1B2
100
AcDbEntity
8
0
62
256
6
ByLayer
370
-2
48
1
60
0
100
AcDbLine
10
-1
20
-0.166667
30
0
11
0
21
0
31
0
39
0
210
0
220
0
230
1
0
LINE
5
1B3
100
AcDbEntity
8
0
62
256
6
ByLayer
370
-2
48
1
60
0
100
AcDbLine
10
0
20
0
30
0
11
-1
21
0
31
0
39
0
210
0
220
0
230
1
0
ENDBLK
5
1B0
100
AcDbEntity
8
0
100
AcDbBlockEnd
0
BLOCK
5
1BD
100
AcDbEntity
8
0
100
AcDbBlockBegin
2
DimnDraft3D4
70
0
10
0
20
0
30
0
3
DimnDraft3D4
0
MTEXT
5
1B5
100
AcDbEntity
8
2
62
256
6
ByLayer
370
18
48
1
60
0
100
AcDbMText
10
176.060675
20
-29.69766
30
0
210
0
220
0
230
1
1
\W0.8385;95%%d
40
3.50012
41
0
44
1.084337
50
317.345725198092
71
7
72
5
7
iso_b_vert
0
LINE
5
1B6
100
AcDbEntity
8
2
62
256
6
ByLayer
370
13
48
1
60
0
100
AcDbLine
10
166.58486
20
-44.99736
30
0
11
186.068536
21
-44.99736
31
0
39
0
210
0
220
0
230
1
0
LINE
5
1B7
100
AcDbEntity
8
2
62
256
6
ByLayer
370
13
48
1
60
0
100
AcDbLine
10
163.92363
20
-31.053508
30
0
11
163.350293
21
-24.067113
31
0
39
0
210
0
220
0
230
1
0
ARC
5
1B8
100
AcDbEntity
8
2
62
256
6
ByLayer
370
13
48
1
60
0
100
AcDbCircle
39
0
10
165.067928
20
-44.99736
30
0
40
17.8256073395807
210
0
220
0
230
1
100
AcDbArc
50
0
51
94.69145
0
LINE
5
1B9
100
AcDbEntity
8
2
62
256
6
ByLayer
370
13
48
1
60
0
100
AcDbLine
10
182.893536
20
-44.99736
30
0
11
182.334991
21
-41.84405
31
0
39
0
210
0
220
0
230
1
0
LINE
5
1BA
100
AcDbEntity
8
2
62
256
6
ByLayer
370
13
48
1
60
0
100
AcDbLine
10
182.893536
20
-44.99736
30
0
11
183.17016
21
-41.806931
31
0
39
0
210
0
220
0
230
1
0
LINE
5
1BB
100
AcDbEntity
8
2
62
256
6
ByLayer
370
13
48
1
60
0
100
AcDbLine
10
163.609976
20
-27.231476
30
0
11
166.767087
21
-26.694834
31
0
39
0
210
0
220
0
230
1
0
LINE
5
1BC
100
AcDbEntity
8
2
62
256
6
ByLayer
370
13
48
1
60
0
100
AcDbLine
10
163.609976
20
-27.231476
30
0
11
166.798407
21
-27.53024
31
0
39
0
210
0
220
0
230
1
0
ENDBLK
5
1BE
100
AcDbEntity
8
0
100
AcDbBlockEnd
0
ENDSEC
0
SECTION
2
ENTITIES
0
ARC
5
E5
100
AcDbEntity
8
1
62
256
6
ByLayer
370
18
48
1
60
0
100
AcDbCircle
39
0
10
156.840285
20
-36.840285
30
0
40
3.1
210
0
220
0
230
1
100
AcDbArc
50
357.011822
51
0
0
ARC
5
E6
100
AcDbEntity
8
1
62
256
6
ByLayer
370
18
48
1
60
0
100
AcDbCircle
39
0
10
156.840285
20
-36.840285
30
0
40
3.1
210
0
220
0
230
1
100
AcDbArc
50
263.309845
51
276.928515
0
ARC
5
E7
100
AcDbEntity
8
1
62
256
6
ByLayer
370
18
48
1
60
0
100
AcDbCircle
39
0
10
156.840285
20
-36.840285
30
0
40
3.1
210
0
220
0
230
1
100
AcDbArc
50
0
51
8.368603
0
ARC
5
E8
100
AcDbEntity
8
1
62
256
6
ByLayer
370
18
48
1
60
0
100
AcDbCircle
39
0
10
-124.8
20
-43.5
30
0
40
12
210
0
220
0
230
-1
100
AcDbArc
50
90
51
139.994799
0
ARC
5
E9
100
AcDbEntity
8
SK1
62
256
6
ByLayer
370
18
48
1
60
0
100
AcDbCircle
39
0
10
0.6
20
-23.45
30
0
40
1
210
0
220
0
230
-1
100
AcDbArc
50
113.578178
51
126.870857
0
ARC
5
EA
100
AcDbEntity
8
SK1
62
256
6
ByLayer
370
18
48
1
60
0
100
AcDbCircle
39
0
10
0.6
20
23.45
30
0
40
1
210
0
220
0
230
-1
100
AcDbArc
50
233.129143
51
246.421822
0
ARC
5
EB
100
AcDbEntity
8
1
62
256
6
ByLayer
370
18
48
1
60
0
100
AcDbCircle
39
0
10
156.971416
20
-16.5
30
0
40
30
210
0
220
0
230
1
100
AcDbArc
50
220.005201
51
238.441665
0
ELLIPSE
5
EC
100
AcDbEntity
8
1
62
256
6
ByLayer
370
18
48
1
60
0
100
AcDbEllipse
10
158.098213
20
-38.098213
30
0
11
1.30814754519513
21
1.3081475451951
31
0
210
0
220
0
230
1
40
0.989133
41
1.66381486015153
42
2.35044241943543
0
ELLIPSE
5
ED
100
AcDbEntity
8
1
62
256
6
ByLayer
370
18
48
1
60
0
100
AcDbEllipse
10
158.046232
20
-38.046232
30
0
11
-1.66170093578841
21
-1.66170093578836
31
0
210
0
220
0
230
1
40
0.989133
41
-1.50455700394469
42
-0.764371023647916
0
ELLIPSE
5
EE
100
AcDbEntity
8
1
62
256
6
ByLayer
370
18
48
1
60
0
100
AcDbEllipse
10
151.62409
20
-31.62409
30
0
11
-0.56126600756683
21
-0.561266007566814
31
0
210
0
220
0
230
1
40
0.989133
41
-2.44346095279203
42
-1.7717540727278
0
ELLIPSE
5
EF
100
AcDbEntity
8
1
62
256
6
ByLayer
370
18
48
1
60
0
100
AcDbEllipse
10
152.118945
20
-32.118945
30
0
11
-0.56126600756683
21
-0.561266007566814
31
0
210
0
220
0
230
1
40
0.989133
41
-2.44346095279207
42
-0.698131700797714
0
ELLIPSE
5
F0
100
AcDbEntity
8
1
62
256
6
ByLayer
370
18
48
1
60
0
100
AcDbEllipse
10
152.672527
20
-43.656969
30
0
11
-0.282842712474632
21
-0.282842712474624
31
0
210
0
220
0
230
1
40
0.989133
41
-0.698131700797678
42
0.698131700797678
0
ELLIPSE
5
F1
100
AcDbEntity
8
1
62
256
6
ByLayer
370
18
48
1
60
0
100
AcDbEllipse
10
163.656969
20
-32.672527
30
0
11
-0.282842712474632
21
-0.282842712474624
31
0
210
0
220
0
230
1
40
0.989133
41
2.44346095279213
42
-2.44346095279203
0
ELLIPSE
5
F2
100
AcDbEntity
8
1
62
256
6
ByLayer
370
18
48
1
60
0
100
AcDbEllipse
10
164.210551
20
-44.210551
30
0
11
-0.56126600756683
21
-0.561266007566814
31
0
210
0
220
0
230
1
40
0.989133
41
0.698131700797771
42
2.44346095279207
0
ELLIPSE
5
F3
100
AcDbEntity
8
1
62
256
6
ByLayer
370
18
48
1
60
0
100
AcDbEllipse
10
158.164748
20
-38.164748
30
0
11
-1.82433549546132
21
-1.82433549546127
31
0
210
0
220
0
230
1
40
0.989133
41
0
42
6.28318530717959
0
ELLIPSE
5
F4
100
AcDbEntity
8
1
62
256
6
ByLayer
370
18
48
1
60
0
100
AcDbEllipse
10
157.669894
20
-37.669894
30
0
11
-1.82433549546132
21
-1.82433549546127
31
0
210
0
220
0
230
1
40
0.989133
41
2.4108777635271
42
3.00414773213261
0
ELLIPSE
5
F5
100
AcDbEntity
8
1
62
256
6
ByLayer
370
18
48
1
60
0
100
AcDbEllipse
10
157.669894
20
-37.669894
30
0
11
-1.82433549546132
21
-1.82433549546127
31
0
210
0
220
0
230
1
40
0.989133
41
0.137542820265515
42
1.09985200099588
0
ELLIPSE
5
F6
100
AcDbEntity
8
1
62
256
6
ByLayer
370
18
48
1
60
0
100
AcDbEllipse
10
152.177673
20
-43.162115
30
0
11
-0.282842712474632
21
-0.282842712474624
31
0
210
0
220
0
230
1
40
0.989133
41
-0.698131700797665
42
-2.88106092308205E-08
0
ELLIPSE
5
F7
100
AcDbEntity
8
1
62
256
6
ByLayer
370
18
48
1
60
0
100
AcDbEllipse
10
163.162115
20
-32.177673
30
0
11
-0.282842712474632
21
-0.282842712474624
31
0
210
0
220
0
230
1
40
0.989133
41
-3.14159262477911
42
-2.44346095279203
0
ELLIPSE
5
F8
100
AcDbEntity
8
1
62
256
6
ByLayer
370
18
48
1
60
0
100
AcDbEllipse
10
157.856335
20
-38.561277
30
0
11
-1.83847763108505
21
-1.838477631085
31
0
210
0
220
0
230
1
40
0.989133
41
2.57573894005766
42
-1.70307431406047
0
ELLIPSE
5
F9
100
AcDbEntity
8
1
62
256
6
ByLayer
370
18
48
1
60
0
100
AcDbEllipse
10
157.908316
20
-38.613258
30
0
11
1.48492424049177
21
1.48492424049173
31
0
210
0
220
0
230
1
40
0.989133
41
-0.541958077265906
42
1.4146227032631
0
ELLIPSE
5
FA
100
AcDbEntity
8
1
62
256
6
ByLayer
370
18
48
1
60
0
100
AcDbEllipse
10
158.098213
20
-38.098213
30
0
11
1.30814754519513
21
1.3081475451951
31
0
210
0
220
0
230
1
40
0.989133
41
-1.47777779343824
42
-0.791150234154345
0
ELLIPSE
5
FB
100
AcDbEntity
8
1
62
256
6
ByLayer
370
18
48
1
60
0
100
AcDbEllipse
10
158.28811
20
-37.583168
30
0
11
1.48492424049177
21
1.48492424049173
31
0
210
0
220
0
230
1
40
0.989133
41
2.59963457632389
42
-1.7269699503267
0
ELLIPSE
5
FC
100
AcDbEntity
8
1
62
256
6
ByLayer
370
18
48
1
60
0
100
AcDbEllipse
10
158.236129
20
-37.531187
30
0
11
-1.83847763108505
21
-1.838477631085
31
0
210
0
220
0
230
1
40
0.989133
41
-0.565853713532116
42
1.43851833952931
0
ELLIPSE
5
FD
100
AcDbEntity
8
1
62
256
6
ByLayer
370
18
48
1
60
0
100
AcDbEllipse
10
157.398907
20
-38.103849
30
0
11
1.83847763108505
21
1.838477631085
31
0
210
0
220
0
230
1
40
0.989133
41
2.02416358056169E-05
42
0.52528453909529
0
ELLIPSE
5
FE
100
AcDbEntity
8
1
62
256
6
ByLayer
370
18
48
1
60
0
100
AcDbEllipse
10
158.046232
20
-38.046232
30
0
11
-1.66170093578841
21
-1.66170093578836
31
0
210
0
220
0
230
1
40
0.989133
41
1.63703564964511
42
2.37722162994188
0
ELLIPSE
5
FF
100
AcDbEntity
8
1
62
256
6
ByLayer
370
18
48
1
60
0
100
AcDbEllipse
10
157.848927
20
-37.639741
30
0
11
-1.66170093578841
21
-1.66170093578836
31
0
210
0
220
0
230
1
40
0.989133
41
-0.502297863188724
42
-3.06023826721486E-05
0
ELLIPSE
5
100
100
AcDbEntity
8
1
62
256
6
ByLayer
370
18
48
1
60
0
100
AcDbEllipse
10
156.88187
20
-36.88187
30
0
11
-2.01525432638169
21
-2.01525432638163
31
0
210
0
220
0
230
1
40
0.989133
41
2.43296543732108
42
2.66132030855191
0
ELLIPSE
5
101
100
AcDbEntity
8
1
62
256
6
ByLayer
370
18
48
1
60
0
100
AcDbEllipse
10
156.88187
20
-36.88187
30
0
11
-2.01525432638169
21
-2.01525432638163
31
0
210
0
220
0
230
1
40
0.989133
41
0.480291349124157
42
0.735633725292032
0
ELLIPSE
5
102
100
AcDbEntity
8
1
62
256
6
ByLayer
370
18
48
1
60
0
100
AcDbEllipse
10
156.88187
20
-36.88187
30
0
11
-2.17370651192845
21
-2.17370651192838
31
0
210
0
220
0
230
1
40
0.989133
41
2.3116991883819
42
2.51477469382027
0
ELLIPSE
5
103
100
AcDbEntity
8
1
62
256
6
ByLayer
370
18
48
1
60
0
100
AcDbEllipse
10
156.88187
20
-36.88187
30
0
11
-2.17370651192845
21
-2.17370651192838
31
0
210
0
220
0
230
1
40
0.989133
41
0.644205896574592
42
0.899626155701666
0
ELLIPSE
5
104
100
AcDbEntity
8
1
62
256
6
ByLayer
370
18
48
1
60
0
100
AcDbEllipse
10
155.801753
20
-39.657024
30
0
11
-0.70369358372359
21
0.259451999850166
31
0
210
0
220
0
230
1
40
0.062135
41
2.71296227944408
42
2.88925338296616
0
ELLIPSE
5
105
100
AcDbEntity
8
1
62
256
6
ByLayer
370
18
48
1
60
0
100
AcDbEllipse
10
239.569021
20
0
30
0
11
148.195848448574
21
1.49772512243196E-13
31
0
210
0
220
0
230
-1
40
0.212557
41
2.45662820396991
42
-2.46229511616734
0
ELLIPSE
5
106
100
AcDbEntity
8
1
62
256
6
ByLayer
370
18
48
1
60
0
100
AcDbEllipse
10
-2.347154
20
0
30
0
11
14.753683160656
21
31.0932549155808
31
0
210
0
220
0
230
-1
40
0.341999
41
0.157806186645433
42
1.09123958575283
0
ELLIPSE
5
107
100
AcDbEntity
8
1
62
256
6
ByLayer
370
18
48
1
60
0
100
AcDbEllipse
10
26.347154
20
0
30
0
11
14.7536831606565
21
-31.0932549155814
31
0
210
0
220
0
230
-1
40
0.341999
41
2.05035306783697
42
2.98378646694436
0
ELLIPSE
5
108
100
AcDbEntity
8
1
62
256
6
ByLayer
370
18
48
1
60
0
100
AcDbEllipse
10
-2.347154
20
0
30
0
11
14.7536831606581
21
-31.0932549155834
31
0
210
0
220
0
230
-1
40
0.341999
41
-1.09123958575277
42
-0.15780618664542
0
ELLIPSE
5
109
100
AcDbEntity
8
1
62
256
6
ByLayer
370
18
48
1
60
0
100
AcDbEllipse
10
26.347154
20
0
30
0
11
14.7536831606553
21
31.0932549155798
31
0
210
0
220
0
230
-1
40
0.341999
41
-2.98378646694436
42
-2.05035306783694
0
ELLIPSE
5
10A
100
AcDbEntity
8
1
62
256
6
ByLayer
370
18
48
1
60
0
100
AcDbEllipse
10
139.331598
20
-30.600792
30
0
11
1.90098122498337
21
1.24562276649342
31
0
210
0
220
0
230
-1
40
0.665167
41
0
42
6.28318530717959
0
ELLIPSE
5
10B
100
AcDbEntity
8
1
62
256
6
ByLayer
370
18
48
1
60
0
100
AcDbEllipse
10
153.320109
20
-21.817198
30
0
11
1.84794523555372
21
1.29671716602417
31
0
210
0
220
0
230
-1
40
0.651222
41
0
42
6.28318530717959
0
ELLIPSE
5
10C
100
AcDbEntity
8
1
62
256
6
ByLayer
370
18
48
1
60
0
100
AcDbEllipse
10
145.990082
20
-26.496604
30
0
11
1.87535694628902
21
1.27006862039986
31
0
210
0
220
0
230
-1
40
0.659431
41
0
42
6.28318530717959
0
ELLIPSE
5
10D
100
AcDbEntity
8
1
62
256
6
ByLayer
370
18
48
1
60
0
100
AcDbEllipse
10
153.103182
20
-24.248957
30
0
11
3.45890152222381
21
2.8860217015486
31
0
210
0
220
0
230
-1
40
0.858615
41
0.620762515028851
42
1.75522652882475
0
ELLIPSE
5
10E
100
AcDbEntity
8
1
62
256
6
ByLayer
370
18
48
1
60
0
100
AcDbEllipse
10
152.689318
20
-24.495089
30
0
11
3.45890152220157
21
2.88602170162113
31
0
210
0
220
0
230
-1
40
0.858615
41
1.75522652884208
42
2.2788253044373
0
ELLIPSE
5
10F
100
AcDbEntity
8
1
62
256
6
ByLayer
370
18
48
1
60
0
100
AcDbEllipse
10
150.287365
20
-37.887365
30
0
11
7.68644782715892
21
6.41338155899762
31
0
210
0
220
0
230
-1
40
0.858615
41
-1.73543197516342
42
-0.862767349166227
0
ELLIPSE
5
110
100
AcDbEntity
8
1
62
256
6
ByLayer
370
18
48
1
60
0
100
AcDbEllipse
10
140.171443
20
-30.428925
30
0
11
3.45890152221222
21
2.88602170155596
31
0
210
0
220
0
230
-1
40
0.858615
41
1.40616067842922
42
1.88641162314366
0
ELLIPSE
5
111
100
AcDbEntity
8
1
62
256
6
ByLayer
370
18
48
1
60
0
100
AcDbEllipse
10
138.745349
20
-29.996373
30
0
11
-1.61508181395395
21
-1.56652824239949
31
0
210
0
220
0
230
1
40
0.384238
41
0.259056625312099
42
2.68475845210404
0
ELLIPSE
5
112
100
AcDbEntity
8
1
62
256
6
ByLayer
370
18
48
1
60
0
100
AcDbEllipse
10
140.639085
20
-30.896567
30
0
11
4.50434763949807
21
1.49543769824933
31
0
210
0
220
0
230
-1
40
0.705215
41
1.62384272029452
42
1.84172347631298
0
ELLIPSE
5
113
100
AcDbEntity
8
1
62
256
6
ByLayer
370
18
48
1
60
0
100
AcDbEllipse
10
138.745349
20
-29.996373
30
0
11
-1.1843933302329
21
-1.14878737775962
31
0
210
0
220
0
230
1
40
0.384238
41
-1.83147728798032
42
-1.5649325062529
0
ELLIPSE
5
114
100
AcDbEntity
8
1
62
256
6
ByLayer
370
18
48
1
60
0
100
AcDbEllipse
10
138.745349
20
-29.996373
30
0
11
-1.1843933302329
21
-1.14878737775962
31
0
210
0
220
0
230
1
40
0.384238
41
-1.56493250625288
42
0
0
ELLIPSE
5
115
100
AcDbEntity
8
1
62
256
6
ByLayer
370
18
48
1
60
0
100
AcDbEllipse
10
138.745349
20
-29.996373
30
0
11
-1.1843933302329
21
-1.14878737775962
31
0
210
0
220
0
230
1
40
0.384238
41
0
42
-3.10549158787693
0
ELLIPSE
5
116
100
AcDbEntity
8
1
62
256
6
ByLayer
370
18
48
1
60
0
100
AcDbEllipse
10
145.369912
20
-25.82891
30
0
11
-1.64857790419622
21
-1.53123835303195
31
0
210
0
220
0
230
1
40
0.42615
41
0.299155160210146
42
2.68499823622049
0
ELLIPSE
5
117
100
AcDbEntity
8
1
62
256
6
ByLayer
370
18
48
1
60
0
100
AcDbEllipse
10
145.369912
20
-25.82891
30
0
11
-1.20895712974389
21
-1.12290812555677
31
0
210
0
220
0
230
1
40
0.42615
41
-0.63448768399794
42
0
0
ELLIPSE
5
118
100
AcDbEntity
8
1
62
256
6
ByLayer
370
18
48
1
60
0
100
AcDbEllipse
10
145.369912
20
-25.82891
30
0
11
-1.20895712974389
21
-1.12290812555677
31
0
210
0
220
0
230
1
40
0.42615
41
0
42
3.09841198357732
0
ELLIPSE
5
119
100
AcDbEntity
8
1
62
256
6
ByLayer
370
18
48
1
60
0
100
AcDbEllipse
10
152.985418
20
-21.43522
30
0
11
-1.6922844504619
21
-1.48279241255304
31
0
210
0
220
0
230
1
40
0.492435
41
0.143809473147604
42
2.89024845304096
0
ELLIPSE
5
11A
100
AcDbEntity
8
1
62
256
6
ByLayer
370
18
48
1
60
0
100
AcDbEllipse
10
152.985418
20
-21.43522
30
0
11
-1.24100859700539
21
-1.0873811025389
31
0
210
0
220
0
230
1
40
0.492435
41
0
42
6.28318530717959
0
ELLIPSE
5
11B
100
AcDbEntity
8
1
62
256
6
ByLayer
370
18
48
1
60
0
100
AcDbEllipse
10
140.066244
20
-35.596264
30
0
11
0.35738417963543
21
-1.96781008945129
31
0
210
0
220
0
230
1
40
0.084329
41
-2.20742405826333
42
-1.69195726657791
0
ELLIPSE
5
11C
100
AcDbEntity
8
1
62
256
6
ByLayer
370
18
48
1
60
0
100
AcDbEllipse
10
146.18008
20
-33.830288
30
0
11
-2.82842712474623
21
-2.82842712474615
31
0
210
0
220
0
230
1
40
0.989133
41
-0.815623072087666
42
-0.636256587552883
0
ELLIPSE
5
11D
100
AcDbEntity
8
1
62
256
6
ByLayer
370
18
48
1
60
0
100
AcDbEllipse
10
142.45067
20
-34.65083
30
0
11
1.08717062587524
21
-1.6787078454079
31
0
210
0
220
0
230
1
40
0.031071
41
-2.04427238176241
42
-1.71506798643779
0
ELLIPSE
5
11E
100
AcDbEntity
8
1
62
256
6
ByLayer
370
18
48
1
60
0
100
AcDbEllipse
10
158.59917
20
-22.703167
30
0
11
1.99329920496605
21
0.163579581493867
31
0
210
0
220
0
230
1
40
0.112626
41
1.66605001191965
42
2.23421204036031
0
ELLIPSE
5
11F
100
AcDbEntity
8
1
62
256
6
ByLayer
370
18
48
1
60
0
100
AcDbEllipse
10
158.355064
20
-19.728605
30
0
11
2.26895570311292
21
-3.20805934911386
31
0
210
0
220
0
230
-1
40
0.018997
41
1.63391292721412
42
2.15119585628092
0
ELLIPSE
5
120
100
AcDbEntity
8
1
62
256
6
ByLayer
370
18
48
1
60
0
100
AcDbEllipse
10
138.770523
20
-29.028005
30
0
11
-4.59619407771263
21
-4.59619407771249
31
0
210
0
220
0
230
1
40
0.989133
41
0.959931088596895
42
1.35785512566182
0
ELLIPSE
5
121
100
AcDbEntity
8
1
62
256
6
ByLayer
370
18
48
1
60
0
100
AcDbEllipse
10
154.923369
20
-29.108305
30
0
11
0.909964031918191
21
-1.78100125227783
31
0
210
0
220
0
230
1
40
0.320152
41
1.89823987054266
42
2.25004940209456
0
ELLIPSE
5
122
100
AcDbEntity
8
1
62
256
6
ByLayer
370
18
48
1
60
0
100
AcDbEllipse
10
153.784951
20
-30.339228
30
0
11
1.76776695296646
21
1.76776695296641
31
0
210
0
220
0
230
1
40
0.989133
41
0.199756485703014
42
0.504729927335597
0
ELLIPSE
5
123
100
AcDbEntity
8
1
62
256
6
ByLayer
370
18
48
1
60
0
100
AcDbEllipse
10
153.784951
20
-30.339228
30
0
11
1.76776695296646
21
1.76776695296641
31
0
210
0
220
0
230
1
40
0.989133
41
1.60331788969109
42
2.12046986247723
0
ELLIPSE
5
124
100
AcDbEntity
8
1
62
256
6
ByLayer
370
18
48
1
60
0
100
AcDbEllipse
10
151.702797
20
-30.008569
30
0
11
0.0242498728289898
21
-1.99985298051326
31
0
210
0
220
0
230
1
40
0.165924
41
-2.29782045908568
42
-1.69151011478106
0
ELLIPSE
5
125
100
AcDbEntity
8
1
62
256
6
ByLayer
370
18
48
1
60
0
100
AcDbEllipse
10
151.57121
20
-30.009725
30
0
11
0.010926131397336
21
-1.99997015469049
31
0
210
0
220
0
230
1
40
0.103961
41
-2.29583213503886
42
-1.6755149695007
0
ELLIPSE
5
126
100
AcDbEntity
8
1
62
256
6
ByLayer
370
18
48
1
60
0
100
AcDbEllipse
10
151.948088
20
-23.093863
30
0
11
-4.59619407771263
21
-4.59619407771249
31
0
210
0
220
0
230
1
40
0.989133
41
1.36507824636574
42
2.44346095279208
0
ELLIPSE
5
127
100
AcDbEntity
8
1
62
256
6
ByLayer
370
18
48
1
60
0
100
AcDbEllipse
10
155.667532
20
-28.691038
30
0
11
1.09914767321884
21
-1.67089029934871
31
0
210
0
220
0
230
1
40
0.030032
41
-2.24415423648512
42
-1.71528647262865
0
ELLIPSE
5
128
100
AcDbEntity
8
1
62
256
6
ByLayer
370
18
48
1
60
0
100
AcDbEllipse
10
153.784951
20
-30.339228
30
0
11
1.76776695296646
21
1.76776695296641
31
0
210
0
220
0
230
1
40
0.989133
41
2.12046986247723
42
2.13287090560585
0
ELLIPSE
5
129
100
AcDbEntity
8
1
62
256
6
ByLayer
370
18
48
1
60
0
100
AcDbEllipse
10
153.784951
20
-30.339228
30
0
11
1.76776695296646
21
1.76776695296641
31
0
210
0
220
0
230
1
40
0.989133
41
0.0519095607716804
42
0.0996390205975263
0
ELLIPSE
5
12A
100
AcDbEntity
8
1
62
256
6
ByLayer
370
18
48
1
60
0
100
AcDbEllipse
10
155.354607
20
-28.879547
30
0
11
0.964134028239091
21
-1.75226869389128
31
0
210
0
220
0
230
1
40
0.123404
41
1.77583384735709
42
2.24776789865614
0
ELLIPSE
5
12B
100
AcDbEntity
8
1
62
256
6
ByLayer
370
18
48
1
60
0
100
AcDbEllipse
10
153.784951
20
-30.339228
30
0
11
1.76776695296646
21
1.76776695296641
31
0
210
0
220
0
230
1
40
0.989133
41
0.0996390205975263
42
0.199756485703014
0
ELLIPSE
5
12C
100
AcDbEntity
8
1
62
256
6
ByLayer
370
18
48
1
60
0
100
AcDbEllipse
10
153.610965
20
-30.852027
30
0
11
-1.72086773877523
21
-1.72086773877518
31
0
210
0
220
0
230
1
40
0.989133
41
-1.09575779272874
42
-0.698131700797728
0
ELLIPSE
5
12D
100
AcDbEntity
8
1
62
256
6
ByLayer
370
18
48
1
60
0
100
AcDbEllipse
10
153.930124
20
-35.759545
30
0
11
-1.76776695296639
21
-1.76776695296634
31
0
210
0
220
0
230
1
40
0.989133
41
-1.04629772207068
42
-0.698131700797708
0
ELLIPSE
5
12E
100
AcDbEntity
8
1
62
256
6
ByLayer
370
18
48
1
60
0
100
AcDbEllipse
10
154.162842
20
-38.59534
30
0
11
-1.76776695296639
21
-1.76776695296634
31
0
210
0
220
0
230
1
40
0.989133
41
-0.698131700797705
42
-0.349965679524774
0
ELLIPSE
5
12F
100
AcDbEntity
8
1
62
256
6
ByLayer
370
18
48
1
60
0
100
AcDbEllipse
10
146.18008
20
-33.830288
30
0
11
-2.82842712474623
21
-2.82842712474615
31
0
210
0
220
0
230
1
40
0.989133
41
-0.636256587552883
42
4.96046881576499E-05
0
ELLIPSE
5
130
100
AcDbEntity
8
1
62
256
6
ByLayer
370
18
48
1
60
0
100
AcDbEllipse
10
153.784951
20
-30.339228
30
0
11
1.76776695296646
21
1.76776695296641
31
0
210
0
220
0
230
1
40
0.989133
41
2.13287090560585
42
2.26463189847008
0
ELLIPSE
5
131
100
AcDbEntity
8
1
62
256
6
ByLayer
370
18
48
1
60
0
100
AcDbEllipse
10
154.380154
20
-30.898011
30
0
11
1.7060574606096
21
1.70605746060955
31
0
210
0
220
0
230
1
40
0.989133
41
-0.698131700797738
42
0.0946436679963262
0
ELLIPSE
5
132
100
AcDbEntity
8
1
62
256
6
ByLayer
370
18
48
1
60
0
100
AcDbEllipse
10
153.784951
20
-30.339228
30
0
11
1.76776695296646
21
1.76776695296641
31
0
210
0
220
0
230
1
40
0.989133
41
-0.241108535862597
42
0.0519095607716804
0
ELLIPSE
5
133
100
AcDbEntity
8
1
62
256
6
ByLayer
370
18
48
1
60
0
100
AcDbEllipse
10
152.953263
20
-29.50754
30
0
11
-1.76776695296646
21
-1.76776695296641
31
0
210
0
220
0
230
1
40
0.989133
41
1.65777925196588
42
2.90155541159908
0
ELLIPSE
5
134
100
AcDbEntity
8
1
62
256
6
ByLayer
370
18
48
1
60
0
100
AcDbEllipse
10
153.005243
20
-29.559521
30
0
11
1.76776695296646
21
1.76776695296641
31
0
210
0
220
0
230
1
40
0.989133
41
-1.46067309711728
42
-0.224877016065666
0
ELLIPSE
5
135
100
AcDbEntity
8
1
62
256
6
ByLayer
370
18
48
1
60
0
100
AcDbEllipse
10
153.600447
20
-30.118304
30
0
11
-1.76776695296639
21
-1.76776695296634
31
0
210
0
220
0
230
1
40
0.989133
41
2.44346095279206
42
2.9267267857945
0
ELLIPSE
5
136
100
AcDbEntity
8
1
62
256
6
ByLayer
370
18
48
1
60
0
100
AcDbEllipse
10
146.302902
20
-33.95311
30
0
11
-2.24329626331435
21
-2.24329626331429
31
0
210
0
220
0
230
1
40
0.989133
41
-1.25777147978613
42
-1.13446411101264
0
ELLIPSE
5
137
100
AcDbEntity
8
1
62
256
6
ByLayer
370
18
48
1
60
0
100
AcDbEllipse
10
146.302902
20
-33.95311
30
0
11
-2.24329626331435
21
-2.24329626331429
31
0
210
0
220
0
230
1
40
0.989133
41
-1.13446411101264
42
0
0
ELLIPSE
5
138
100
AcDbEntity
8
1
62
256
6
ByLayer
370
18
48
1
60
0
100
AcDbEllipse
10
146.302902
20
-33.95311
30
0
11
-2.24329626331435
21
-2.24329626331429
31
0
210
0
220
0
230
1
40
0.989133
41
0
42
-1.94096960193388
0
ELLIPSE
5
139
100
AcDbEntity
8
1
62
256
6
ByLayer
370
18
48
1
60
0
100
AcDbEllipse
10
146.302902
20
-33.95311
30
0
11
-1.22474487139161
21
-1.22474487139157
31
0
210
0
220
0
230
1
40
0.989133
41
2.00712863979348
42
3.05432619099008
0
ELLIPSE
5
13A
100
AcDbEntity
8
1
62
256
6
ByLayer
370
18
48
1
60
0
100
AcDbEllipse
10
146.302902
20
-33.95311
30
0
11
-1.22474487139161
21
-1.22474487139157
31
0
210
0
220
0
230
1
40
0.989133
41
3.05432619099008
42
-2.1816615649929
0
ELLIPSE
5
13B
100
AcDbEntity
8
1
62
256
6
ByLayer
370
18
48
1
60
0
100
AcDbEllipse
10
146.302902
20
-33.95311
30
0
11
-1.22474487139161
21
-1.22474487139157
31
0
210
0
220
0
230
1
40
0.989133
41
-2.1816615649929
42
-1.13446401379632
0
ELLIPSE
5
13C
100
AcDbEntity
8
1
62
256
6
ByLayer
370
18
48
1
60
0
100
AcDbEllipse
10
146.302902
20
-33.95311
30
0
11
-1.22474487139161
21
-1.22474487139157
31
0
210
0
220
0
230
1
40
0.989133
41
-1.13446401379632
42
-0.0872664625997052
0
ELLIPSE
5
13D
100
AcDbEntity
8
1
62
256
6
ByLayer
370
18
48
1
60
0
100
AcDbEllipse
10
146.302902
20
-33.95311
30
0
11
-1.22474487139161
21
-1.22474487139157
31
0
210
0
220
0
230
1
40
0.989133
41
-0.0872664625997052
42
0.959931088596893
0
ELLIPSE
5
13E
100
AcDbEntity
8
1
62
256
6
ByLayer
370
18
48
1
60
0
100
AcDbEllipse
10
146.302902
20
-33.95311
30
0
11
-1.22474487139161
21
-1.22474487139157
31
0
210
0
220
0
230
1
40
0.989133
41
0.959931088596893
42
2.00712863979348
0
ELLIPSE
5
13F
100
AcDbEntity
8
1
62
256
6
ByLayer
370
18
48
1
60
0
100
AcDbEllipse
10
146.236891
20
-33.887098
30
0
11
-2.82842712474623
21
-2.82842712474615
31
0
210
0
220
0
230
1
40
0.989133
41
-0.840332362684573
42
0
0
ELLIPSE
5
140
100
AcDbEntity
8
1
62
256
6
ByLayer
370
18
48
1
60
0
100
AcDbEllipse
10
146.236891
20
-33.887098
30
0
11
-2.82842712474623
21
-2.82842712474615
31
0
210
0
220
0
230
1
40
0.989133
41
0
42
-2.48937406839593
0
ELLIPSE
5
141
100
AcDbEntity
8
1
62
256
6
ByLayer
370
18
48
1
60
0
100
AcDbEllipse
10
145.783097
20
-33.433305
30
0
11
-1.06066017177984
21
-1.06066017177981
31
0
210
0
220
0
230
1
40
0.989133
41
0.132873894065118
42
2.95461330849735
0
ELLIPSE
5
142
100
AcDbEntity
8
1
62
256
6
ByLayer
370
18
48
1
60
0
100
AcDbEllipse
10
145.887058
20
-33.537266
30
0
11
1.06066017177983
21
1.06066017177981
31
0
210
0
220
0
230
1
40
0.989133
41
-0.61086523819801
42
-0.11855148923747
0
ELLIPSE
5
143
100
AcDbEntity
8
1
62
256
6
ByLayer
370
18
48
1
60
0
100
AcDbEllipse
10
145.887058
20
-33.537266
30
0
11
1.06066017177983
21
1.06066017177981
31
0
210
0
220
0
230
1
40
0.989133
41
-1.65806278939461
42
-0.61086523819801
0
ELLIPSE
5
144
100
AcDbEntity
8
1
62
256
6
ByLayer
370
18
48
1
60
0
100
AcDbEllipse
10
145.887058
20
-33.537266
30
0
11
1.06066017177983
21
1.06066017177981
31
0
210
0
220
0
230
1
40
0.989133
41
-2.70526034059122
42
-1.65806278939461
0
ELLIPSE
5
145
100
AcDbEntity
8
1
62
256
6
ByLayer
370
18
48
1
60
0
100
AcDbEllipse
10
145.887058
20
-33.537266
30
0
11
1.06066017177983
21
1.06066017177981
31
0
210
0
220
0
230
1
40
0.989133
41
-3.09797584453019
42
-2.70526034059122
0
ELLIPSE
5
146
100
AcDbEntity
8
1
62
256
6
ByLayer
370
18
48
1
60
0
100
AcDbEllipse
10
138.681071
20
-29.930102
30
0
11
1.07672120930263
21
1.04435216159965
31
0
210
0
220
0
230
1
40
0.384238
41
2.5285168727323
42
0
0
ELLIPSE
5
147
100
AcDbEntity
8
1
62
256
6
ByLayer
370
18
48
1
60
0
100
AcDbEllipse
10
138.681071
20
-29.930102
30
0
11
1.07672120930263
21
1.04435216159965
31
0
210
0
220
0
230
1
40
0.384238
41
0
42
0.0858305260510254
0
ELLIPSE
5
148
100
AcDbEntity
8
1
62
256
6
ByLayer
370
18
48
1
60
0
100
AcDbEllipse
10
145.308346
20
-25.762626
30
0
11
1.09905193613081
21
1.02082556868797
31
0
210
0
220
0
230
1
40
0.42615
41
2.54282118413178
42
-0.016496279982331
0
ELLIPSE
5
149
100
AcDbEntity
8
1
62
256
6
ByLayer
370
18
48
1
60
0
100
AcDbEllipse
10
152.92806
20
-21.369759
30
0
11
1.12818963364127
21
0.988528275035359
31
0
210
0
220
0
230
1
40
0.492435
41
2.15855291898791
42
0
0
ELLIPSE
5
14A
100
AcDbEntity
8
1
62
256
6
ByLayer
370
18
48
1
60
0
100
AcDbEllipse
10
152.92806
20
-21.369759
30
0
11
1.12818963364127
21
0.988528275035359
31
0
210
0
220
0
230
1
40
0.492435
41
0
42
0.983106568821432
0
POINT
5
6C
100
AcDbEntity
8
80
62
256
6
ByLayer
370
18
48
1
60
0
100
AcDbPoint
10
0
20
0
30
0
39
0
210
0
220
0
230
1
50
360
0
POINT
5
6E
100
AcDbEntity
8
81
62
256
6
ByLayer
370
18
48
1
60
0
100
AcDbPoint
10
164.99736
20
-44.99736
30
0
39
0
210
0
220
0
230
1
50
360
0
SPLINE
5
14B
100
AcDbEntity
8
1
62
256
6
ByLayer
370
18
48
1
60
0
100
AcDbSpline
70
4
71
3
72
8
73
4
40
0
40
0
40
0
40
0
40
1
40
1
40
1
40
1
41
1
10
160.383215475167
20
-37.9843248340524
30
0
41
1
10
160.234961631522
20
-38.0225684625208
30
0
41
1
10
160.086613205083
20
-38.0607348968063
30
0
41
1
10
159.938072636051
20
-38.0987445130312
30
0
0
SPLINE
5
14C
100
AcDbEntity
8
1
62
256
6
ByLayer
370
18
48
1
60
0
100
AcDbSpline
70
4
71
3
72
8
73
4
40
0
40
0
40
0
40
0
40
1
40
1
40
1
40
1
41
1
10
156.296204040947
20
-36.516182983073
30
0
41
1
10
156.42678705373
20
-36.6545907694122
30
0
41
1
10
156.557472995776
20
-36.7929923121207
30
0
41
1
10
156.688368036058
20
-36.9313811710489
30
0
0
SPLINE
5
14D
100
AcDbEntity
8
1
62
256
6
ByLayer
370
18
48
1
60
0
100
AcDbSpline
70
4
71
3
72
8
73
4
40
0
40
0
40
0
40
0
40
1
40
1
40
1
40
1
41
1
10
156.258352965545
20
-38.0976810885654
30
0
41
1
10
156.075186383214
20
-38.1010646914908
30
0
41
1
10
155.892178671231
20
-38.1045718402334
30
0
41
1
10
155.709249163677
20
-38.1081398047926
30
0
0
SPLINE
5
14E
100
AcDbEntity
8
1
62
256
6
ByLayer
370
18
48
1
60
0
100
AcDbSpline
70
4
71
3
72
8
73
4
40
0
40
0
40
0
40
0
40
1
40
1
40
1
40
1
41
1
10
159.508057565538
20
-39.2650444305477
30
0
41
1
10
159.60432659252
20
-39.3688072761764
30
0
41
1
10
159.700353249023
20
-39.472549533342
30
0
41
1
10
159.796260597897
20
-39.576281655772
30
0
0
SPLINE
5
14F
100
AcDbEntity
8
1
62
256
6
ByLayer
370
18
48
1
60
0
100
AcDbSpline
70
4
71
3
72
32
73
28
40
0
40
0
40
0
40
0
40
0.0384614121284837
40
0.0384614121284837
40
0.125874011025887
40
0.125874011025887
40
0.300699208820705
40
0.300699208820705
40
0.388111807718109
40
0.388111807718109
40
0.475524406615514
40
0.475524406615514
40
0.562937005512918
40
0.562937005512918
40
0.650349604410322
40
0.650349604410322
40
0.69405590385902
40
0.69405590385902
40
0.737762203307718
40
0.737762203307718
40
0.825174802205136
40
0.825174802205136
40
0.868881101653852
40
0.868881101653852
40
0.912587401102568
40
0.912587401102568
40
1
40
1
40
1
40
1
41
1
10
155.621959440782
20
-38.3956088574148
30
0
41
1
10
155.626719897528
20
-38.4061886737741
30
0
41
1
10
155.631541739783
20
-38.4166925897822
30
0
41
1
10
155.647514097015
20
-38.450812972887
30
0
41
1
10
155.658932189904
20
-38.4741467521324
30
0
41
1
10
155.693690079294
20
-38.5422914583174
30
0
41
1
10
155.717600030119
20
-38.585385318531
30
0
41
1
10
155.753712055256
20
-38.6460418285946
30
0
41
1
10
155.76578742079
20
-38.6655937352401
30
0
41
1
10
155.789810248053
20
-38.7032297129515
30
0
41
1
10
155.801789549653
20
-38.7213582641031
30
0
41
1
10
155.825115647305
20
-38.7556188805005
30
0
41
1
10
155.836478421164
20
-38.7717785545639
30
0
41
1
10
155.858227561809
20
-38.8019192609488
30
0
41
1
10
155.868616213861
20
-38.8159025765647
30
0
41
1
10
155.88308410535
20
-38.834972496015
30
0
41
1
10
155.88771962138
20
-38.8410104464016
30
0
41
1
10
155.896531833468
20
-38.8523838054627
30
0
41
1
10
155.900720375647
20
-38.8577341689842
30
0
41
1
10
155.912354875242
20
-38.8724947591588
30
0
41
1
10
155.918836254214
20
-38.8805738918877
30
0
41
1
10
155.926060538669
20
-38.8896377538122
30
0
41
1
10
155.928050929251
20
-38.892148164065
30
0
41
1
10
155.931078053681
20
-38.8960512958704
30
0
41
1
10
155.932113939808
20
-38.8974442357906
30
0
41
1
10
155.933578362867
20
-38.8997425121191
30
0
41
1
10
155.932398855177
20
-38.8988179359677
30
0
41
1
10
155.92896502641
20
-38.8953841072008
30
0
0
SPLINE
5
150
100
AcDbEntity
8
1
62
256
6
ByLayer
370
18
48
1
60
0
100
AcDbSpline
70
4
71
3
72
22
73
18
40
0
40
0
40
0
40
0
40
0.0783794836754281
40
0.0783794836754281
40
0.240572295229356
40
0.240572295229356
40
0.321668701006311
40
0.321668701006311
40
0.402765106783266
40
0.402765106783266
40
0.727150729891222
40
0.727150729891222
40
0.889343541445231
40
0.889343541445231
40
0.970439947222255
40
0.970439947222255
40
1
40
1
40
1
40
1
41
1
10
159.729167389061
20
-36.7043700607076
30
0
41
1
10
159.718867065027
20
-36.6777791591615
30
0
41
1
10
159.70811190268
20
-36.6513233879433
30
0
41
1
10
159.673679423619
20
-36.5705635658849
30
0
41
1
10
159.648483284184
20
-36.5167305834466
30
0
41
1
10
159.607588246835
20
-36.4369999099909
30
0
41
1
10
159.593433545827
20
-36.4105821459773
30
0
41
1
10
159.564088396537
20
-36.3581452259437
30
0
41
1
10
159.548977660077
20
-36.3322675772936
30
0
41
1
10
159.47124663715
20
-36.2045702735247
30
0
41
1
10
159.402124671403
20
-36.1077988404885
30
0
41
1
10
159.287942954474
20
-35.970758653155
30
0
41
1
10
159.24812665552
20
-35.9264362280177
30
0
41
1
10
159.185697081155
20
-35.8620414199245
30
0
41
1
10
159.164394503853
20
-35.8408859195123
30
0
41
1
10
159.134841472895
20
-35.8126384493629
30
0
41
1
10
159.126904193606
20
-35.8051568402008
30
0
41
1
10
159.118924433808
20
-35.7977391133743
30
0
0
SPLINE
5
151
100
AcDbEntity
8
1
62
256
6
ByLayer
370
18
48
1
60
0
100
AcDbSpline
70
4
71
3
72
20
73
16
40
0
40
0
40
0
40
0
40
0.327573396412955
40
0.327573396412955
40
0.491360094619425
40
0.491360094619425
40
0.655146792825895
40
0.655146792825895
40
0.818933491032365
40
0.818933491032365
40
0.900826840135606
40
0.900826840135606
40
0.982720189238847
40
0.982720189238847
40
1
40
1
40
1
40
1
41
1
10
156.331205447806
20
-39.5155138295335
30
0
41
1
10
156.384461643604
20
-39.5457680205333
30
0
41
1
10
156.437632539805
20
-39.5737390817228
30
0
41
1
10
156.516264448991
20
-39.6124886383444
30
0
41
1
10
156.542361508578
20
-39.6249060675365
30
0
41
1
10
156.593389408193
20
-39.6484761973725
30
0
41
1
10
156.618337869416
20
-39.6596398500436
30
0
41
1
10
156.666689088765
20
-39.6807844286541
30
0
41
1
10
156.69009550263
20
-39.690765785351
30
0
41
1
10
156.723595323491
20
-39.7048860045867
30
0
41
1
10
156.734523374137
20
-39.709463818758
30
0
41
1
10
156.755541626467
20
-39.7182579839806
30
0
41
1
10
156.76563362748
20
-39.7224752930413
30
0
41
1
10
156.777283165635
20
-39.7273688925438
30
0
41
1
10
156.77929210849
20
-39.728213739604
30
0
41
1
10
156.7812795052
20
-39.7290507693272
30
0
0
SPLINE
5
152
100
AcDbEntity
8
1
62
256
6
ByLayer
370
18
48
1
60
0
100
AcDbSpline
70
4
71
3
72
34
73
30
40
0
40
0
40
0
40
0
40
0.124999999999991
40
0.124999999999991
40
0.249999999999982
40
0.249999999999982
40
0.374999999999973
40
0.374999999999973
40
0.499999999999964
40
0.499999999999964
40
0.562499999999976
40
0.562499999999976
40
0.624999999999988
40
0.624999999999988
40
0.6875
40
0.6875
40
0.750000000000012
40
0.750000000000012
40
0.812500000000024
40
0.812500000000024
40
0.843750000000022
40
0.843750000000022
40
0.87500000000002
40
0.87500000000002
40
0.937500000000011
40
0.937500000000011
40
0.968750000000005
40
0.968750000000005
40
1
40
1
40
1
40
1
41
1
10
156.489696882059
20
-39.5558750106465
30
0
41
1
10
156.446870853614
20
-39.5260744094141
30
0
41
1
10
156.405337179894
20
-39.4949053004494
30
0
41
1
10
156.324945158318
20
-39.4299588741198
30
0
41
1
10
156.286083766077
20
-39.3961780669129
30
0
41
1
10
156.211203600532
20
-39.3261727677901
30
0
41
1
10
156.175620912575
20
-39.2903544293933
30
0
41
1
10
156.108252097488
20
-39.2175324864521
30
0
41
1
10
156.07646316778
20
-39.180522470575
30
0
41
1
10
156.031798461065
20
-39.1246111214136
30
0
41
1
10
156.017414676095
20
-39.1059100838164
30
0
41
1
10
155.989710632563
20
-39.0685084293303
30
0
41
1
10
155.976412017286
20
-39.0498330251713
30
0
41
1
10
155.951190213046
20
-39.0130224796229
30
0
41
1
10
155.939237083526
20
-38.9948468344119
30
0
41
1
10
155.916756964018
20
-38.959267458275
30
0
41
1
10
155.90621521375
20
-38.941837742472
30
0
41
1
10
155.886809277623
20
-38.908331298098
30
0
41
1
10
155.878044356346
20
-38.8924267492115
30
0
41
1
10
155.866536899675
20
-38.870484999686
30
0
41
1
10
155.862975855619
20
-38.8634932692092
30
0
41
1
10
155.856471732175
20
-38.8503198924395
30
0
41
1
10
155.853515644213
20
-38.844109332131
30
0
41
1
10
155.845834023059
20
-38.8272745813346
30
0
41
1
10
155.842274506231
20
-38.8184270288642
30
0
41
1
10
155.839970539794
20
-38.8104125690009
30
0
41
1
10
155.839734103602
20
-38.8086893365893
30
0
41
1
10
155.840382031235
20
-38.8073279008495
30
0
41
1
10
155.841264302506
20
-38.807683383297
30
0
41
1
10
155.842747207824
20
-38.8091662886146
30
0
0
SPLINE
5
153
100
AcDbEntity
8
1
62
256
6
ByLayer
370
18
48
1
60
0
100
AcDbSpline
70
4
71
3
72
8
73
4
40
0
40
0
40
0
40
0
40
1
40
1
40
1
40
1
41
1
10
156.862753319457
20
-39.7661734106375
30
0
41
1
10
156.730606857269
20
-39.7073447560983
30
0
41
1
10
156.606185782255
20
-39.6369341092546
30
0
41
1
10
156.489696882058
20
-39.5558750106457
30
0
0
SPLINE
5
154
100
AcDbEntity
8
1
62
256
6
ByLayer
370
18
48
1
60
0
100
AcDbSpline
70
4
71
3
72
10
73
6
40
0
40
0
40
0
40
0
40
0.0637792932613039
40
0.0637792932613039
40
1
40
1
40
1
40
1
41
1
10
155.856380815447
20
-39.3110470747786
30
0
41
1
10
155.866847089149
20
-39.3154995557247
30
0
41
1
10
155.877291552662
20
-39.3199458409593
30
0
41
1
10
156.040712004603
20
-39.3895631507434
30
0
41
1
10
156.189491966109
20
-39.453542192376
30
0
41
1
10
156.331205447806
20
-39.515513829534
30
0
0
SPLINE
5
155
100
AcDbEntity
8
1
62
256
6
ByLayer
370
18
48
1
60
0
100
AcDbSpline
70
4
71
3
72
32
73
28
40
0
40
0
40
0
40
0
40
0.250000000000004
40
0.250000000000004
40
0.37500000000001
40
0.37500000000001
40
0.437500000000012
40
0.437500000000012
40
0.500000000000014
40
0.500000000000014
40
0.625000000000004
40
0.625000000000004
40
0.687500000000004
40
0.687500000000004
40
0.750000000000003
40
0.750000000000003
40
0.812500000000002
40
0.812500000000002
40
0.843750000000003
40
0.843750000000003
40
0.875000000000005
40
0.875000000000005
40
0.937500000000002
40
0.937500000000002
40
0.968750000000001
40
0.968750000000001
40
1
40
1
40
1
40
1
41
1
10
10.1056624327027
20
9.86941261896624
30
0
41
1
10
10.1212498345489
20
9.8124320149881
30
0
41
1
10
10.1399018475135
20
9.7565502308297
30
0
41
1
10
10.174090269145
20
9.67499387250788
30
0
41
1
10
10.1865318440057
20
9.64819007031201
30
0
41
1
10
10.2071584182929
20
9.60870778228673
30
0
41
1
10
10.2143631613258
20
9.59566828989804
30
0
41
1
10
10.2295303543196
20
9.56986960560326
30
0
41
1
10
10.2375038868184
20
9.55709686534368
30
0
41
1
10
10.2625095528536
20
9.51963294536125
30
0
41
1
10
10.2806617049327
20
9.49566900868385
30
0
41
1
10
10.3109602056389
20
9.46183015552265
30
0
41
1
10
10.3215875864293
20
9.45090526429323
30
0
41
1
10
10.3437220241869
20
9.43026612350755
30
0
41
1
10
10.3552649931435
20
9.4205071911083
30
0
41
1
10
10.3794828926305
20
9.40232505361246
30
0
41
1
10
10.3921560258319
20
9.39389972204373
30
0
41
1
10
10.4122177999418
20
9.38250456041428
30
0
41
1
10
10.4191127836332
20
9.37890069603381
30
0
41
1
10
10.4330939182296
20
9.37226208194008
30
0
41
1
10
10.440186363189
20
9.36922064667905
30
0
41
1
10
10.4617882298584
20
9.36098178019472
30
0
41
1
10
10.4766203225408
20
9.35666472180193
30
0
41
1
10
10.4996178076424
20
9.3522345198121
30
0
41
1
10
10.5074080928859
20
9.35110433740215
30
0
41
1
10
10.5229918398929
20
9.34960123302471
30
0
41
1
10
10.5308166515934
20
9.34922131452507
30
0
41
1
10
10.5386751345948
20
9.34922131452507
30
0
0
SPLINE
5
156
100
AcDbEntity
8
1
62
256
6
ByLayer
370
18
48
1
60
0
100
AcDbSpline
70
4
71
3
72
30
73
26
40
0
40
0
40
0
40
0
40
0.0624999999999981
40
0.0624999999999981
40
0.0937499999999971
40
0.0937499999999971
40
0.124999999999996
40
0.124999999999996
40
0.249999999999996
40
0.249999999999996
40
0.3125
40
0.3125
40
0.375000000000003
40
0.375000000000003
40
0.437500000000006
40
0.437500000000006
40
0.50000000000001
40
0.50000000000001
40
0.625000000000007
40
0.625000000000007
40
0.750000000000005
40
0.750000000000005
40
0.875000000000002
40
0.875000000000002
40
1
40
1
40
1
40
1
41
1
10
13.4613248654052
20
9.34922131452512
30
0
41
1
10
13.4770644463612
20
9.34922131452512
30
0
41
1
10
13.4925182901836
20
9.35074113394265
30
0
41
1
10
13.5153082123102
20
9.35509944740008
30
0
41
1
10
13.5228395300832
20
9.35689961322646
30
0
41
1
10
13.537775923748
20
9.36117119765689
30
0
41
1
10
13.5452163817754
20
9.36365758390252
30
0
41
1
10
13.5815263070004
20
9.37748487924947
30
0
41
1
10
13.6079581046677
20
9.39290424748287
30
0
41
1
10
13.644860686771
20
9.4205974895456
30
0
41
1
10
13.656501349587
20
9.43046143490409
30
0
41
1
10
13.6786197964874
20
9.45111186483314
30
0
41
1
10
13.689116753821
20
9.46191570446771
30
0
41
1
10
13.7091749421596
20
9.48431848058797
30
0
41
1
10
13.7187352282345
20
9.49591822570949
30
0
41
1
10
13.7370497658743
20
9.51980127252966
30
0
41
1
10
13.7458258793006
20
9.5321214266346
30
0
41
1
10
13.7708221243603
20
9.56957065273519
30
0
41
1
10
13.7858017072529
20
9.5952614212766
30
0
41
1
10
13.8132376332899
20
9.64772023935038
30
0
41
1
10
13.8256849705004
20
9.67449223197161
30
0
41
1
10
13.8485243776495
20
9.72890711075632
30
0
41
1
10
13.8589127955726
20
9.75655159685448
30
0
41
1
10
13.8779317869833
20
9.81257982037158
30
0
41
1
10
13.8865409364124
20
9.8409116063402
30
0
41
1
10
13.8943375672975
20
9.86941261896615
30
0
0
SPLINE
5
157
100
AcDbEntity
8
1
62
256
6
ByLayer
370
18
48
1
60
0
100
AcDbSpline
70
4
71
3
72
32
73
28
40
0
40
0
40
0
40
0
40
0.249999999999995
40
0.249999999999995
40
0.374999999999997
40
0.374999999999997
40
0.437499999999995
40
0.437499999999995
40
0.499999999999993
40
0.499999999999993
40
0.624999999999983
40
0.624999999999983
40
0.687499999999983
40
0.687499999999983
40
0.749999999999983
40
0.749999999999983
40
0.812499999999983
40
0.812499999999983
40
0.843749999999983
40
0.843749999999983
40
0.874999999999982
40
0.874999999999982
40
0.937499999999988
40
0.937499999999988
40
0.968749999999994
40
0.968749999999994
40
1
40
1
40
1
40
1
41
1
10
13.8943375672975
20
29.9139548464691
30
0
41
1
10
13.8787501654514
20
29.9327542695085
30
0
41
1
10
13.8600981524867
20
29.9510098933138
30
0
41
1
10
13.8259097308552
20
29.9774133319732
30
0
41
1
10
13.8134681559946
20
29.986049964686
30
0
41
1
10
13.7928415817074
20
29.9987154022303
30
0
41
1
10
13.7856368386744
20
30.0028887514669
30
0
41
1
10
13.7704696456807
20
30.0111275878532
30
0
41
1
10
13.7624961131818
20
30.0151973377031
30
0
41
1
10
13.7374904471467
20
30.0271090091073
30
0
41
1
10
13.7193382950676
20
30.0346937657151
30
0
41
1
10
13.6890397943614
20
30.0453642012998
30
0
41
1
10
13.6784124135709
20
30.0488020840798
30
0
41
1
10
13.6562779758134
20
30.0552856889212
30
0
41
1
10
13.6447350068567
20
30.0583455135278
30
0
41
1
10
13.6205171073698
20
30.0640378913836
30
0
41
1
10
13.6078439741683
20
30.0666711051741
30
0
41
1
10
13.5877822000585
20
30.0702282001227
30
0
41
1
10
13.580887216367
20
30.0713523776811
30
0
41
1
10
13.5669060817706
20
30.0734220792407
30
0
41
1
10
13.5598136368112
20
30.0743696982578
30
0
41
1
10
13.5382117701418
20
30.0769355687274
30
0
41
1
10
13.5233796774594
20
30.0782784555617
30
0
41
1
10
13.5003821923579
20
30.079656113029
30
0
41
1
10
13.4925919071142
20
30.0800074516355
30
0
41
1
10
13.4770081601073
20
30.0804746871264
30
0
41
1
10
13.4691833484067
20
30.080592760317
30
0
41
1
10
13.4613248654053
20
30.080592760317
30
0
0
SPLINE
5
158
100
AcDbEntity
8
1
62
256
6
ByLayer
370
18
48
1
60
0
100
AcDbSpline
70
4
71
3
72
30
73
26
40
0
40
0
40
0
40
0
40
0.0625000000000078
40
0.0625000000000078
40
0.0937500000000083
40
0.0937500000000083
40
0.125000000000009
40
0.125000000000009
40
0.250000000000011
40
0.250000000000011
40
0.312500000000012
40
0.312500000000012
40
0.375000000000013
40
0.375000000000013
40
0.437500000000014
40
0.437500000000014
40
0.500000000000015
40
0.500000000000015
40
0.625000000000011
40
0.625000000000011
40
0.750000000000007
40
0.750000000000007
40
0.875000000000004
40
0.875000000000004
40
1
40
1
40
1
40
1
41
1
10
10.538675134595
20
30.0805927603168
30
0
41
1
10
10.522935553639
20
30.0805927603168
30
0
41
1
10
10.5074817098166
20
30.0801205034911
30
0
41
1
10
10.4846917876899
20
30.0787652114229
30
0
41
1
10
10.477160469917
20
30.078205309348
30
0
41
1
10
10.4622240762521
20
30.0768761478224
30
0
41
1
10
10.4547836182248
20
30.0761022248722
30
0
41
1
10
10.4184736929998
20
30.0717959485604
30
0
41
1
10
10.3920418953324
20
30.0669872793664
30
0
41
1
10
10.3551393132292
20
30.0583172600358
30
0
41
1
10
10.3434986504131
20
30.0552244086804
30
0
41
1
10
10.3213802035127
20
30.0487371057381
30
0
41
1
10
10.3108832461791
20
30.0453372280744
30
0
41
1
10
10.2908250578405
20
30.0382729348068
30
0
41
1
10
10.2812647717657
20
30.0346082702027
30
0
41
1
10
10.2629502341258
20
30.0270468182509
30
0
41
1
10
10.2541741206995
20
30.0231382884605
30
0
41
1
10
10.2291778756398
20
30.0112312950132
30
0
41
1
10
10.2141982927472
20
30.0030284643034
30
0
41
1
10
10.1867623667102
20
29.9862010424073
30
0
41
1
10
10.1743150294997
20
29.9775752500988
30
0
41
1
10
10.1514756223506
20
29.9599596837527
30
0
41
1
10
10.1410872044275
20
29.950969425637
30
0
41
1
10
10.1220682130168
20
29.9326601869323
30
0
41
1
10
10.1134590635876
20
29.923358091714
30
0
41
1
10
10.1056624327026
20
29.9139548464692
30
0
0
SPLINE
5
159
100
AcDbEntity
8
1
62
256
6
ByLayer
370
18
48
1
60
0
100
AcDbSpline
70
4
71
3
72
32
73
28
40
0
40
0
40
0
40
0
40
0.250000000000013
40
0.250000000000013
40
0.375000000000015
40
0.375000000000015
40
0.437500000000018
40
0.437500000000018
40
0.500000000000021
40
0.500000000000021
40
0.625000000000017
40
0.625000000000017
40
0.687500000000018
40
0.687500000000018
40
0.750000000000019
40
0.750000000000019
40
0.81250000000002
40
0.81250000000002
40
0.843750000000015
40
0.843750000000015
40
0.875000000000009
40
0.875000000000009
40
0.937500000000005
40
0.937500000000005
40
0.968750000000002
40
0.968750000000002
40
1
40
1
40
1
40
1
41
1
10
10.1056624327025
20
-29.913954846469
30
0
41
1
10
10.1212498345486
20
-29.9327542695083
30
0
41
1
10
10.1399018475136
20
-29.9510098933133
30
0
41
1
10
10.1740902691451
20
-29.9774133319728
30
0
41
1
10
10.1865318440058
20
-29.9860499646856
30
0
41
1
10
10.207158418293
20
-29.9987154022299
30
0
41
1
10
10.214363161326
20
-30.0028887514664
30
0
41
1
10
10.2295303543198
20
-30.0111275878527
30
0
41
1
10
10.2375038868186
20
-30.0151973377025
30
0
41
1
10
10.2625095528537
20
-30.0271090091069
30
0
41
1
10
10.2806617049328
20
-30.0346937657146
30
0
41
1
10
10.3109602056391
20
-30.0453642012993
30
0
41
1
10
10.3215875864295
20
-30.0488020840793
30
0
41
1
10
10.343722024187
20
-30.0552856889207
30
0
41
1
10
10.3552649931437
20
-30.0583455135272
30
0
41
1
10
10.3794828926307
20
-30.0640378913831
30
0
41
1
10
10.3921560258321
20
-30.0666711051736
30
0
41
1
10
10.412217799942
20
-30.0702282001221
30
0
41
1
10
10.4191127836333
20
-30.0713523776806
30
0
41
1
10
10.4330939182297
20
-30.0734220792401
30
0
41
1
10
10.440186363189
20
-30.0743696982572
30
0
41
1
10
10.4617882298584
20
-30.0769355687268
30
0
41
1
10
10.4766203225409
20
-30.0782784555611
30
0
41
1
10
10.4996178076424
20
-30.0796561130283
30
0
41
1
10
10.5074080928858
20
-30.0800074516349
30
0
41
1
10
10.5229918398928
20
-30.0804746871257
30
0
41
1
10
10.5308166515933
20
-30.0805927603169
30
0
41
1
10
10.5386751345947
20
-30.0805927603169
30
0
0
SPLINE
5
15A
100
AcDbEntity
8
1
62
256
6
ByLayer
370
18
48
1
60
0
100
AcDbSpline
70
4
71
3
72
30
73
26
40
0
40
0
40
0
40
0
40
0.0625000000000009
40
0.0625000000000009
40
0.0937500000000051
40
0.0937500000000051
40
0.125000000000009
40
0.125000000000009
40
0.25000000000001
40
0.25000000000001
40
0.312500000000008
40
0.312500000000008
40
0.375000000000006
40
0.375000000000006
40
0.437500000000004
40
0.437500000000004
40
0.500000000000002
40
0.500000000000002
40
0.625000000000001
40
0.625000000000001
40
0.750000000000001
40
0.750000000000001
40
0.875
40
0.875
40
1
40
1
40
1
40
1
41
1
10
13.4613248654051
20
-30.0805927603169
30
0
41
1
10
13.4770644463611
20
-30.0805927603169
30
0
41
1
10
13.4925182901834
20
-30.0801205034905
30
0
41
1
10
13.51530821231
20
-30.0787652114223
30
0
41
1
10
13.522839530083
20
-30.0782053093475
30
0
41
1
10
13.5377759237478
20
-30.0768761478218
30
0
41
1
10
13.5452163817749
20
-30.0761022248717
30
0
41
1
10
13.5815263069999
20
-30.0717959485598
30
0
41
1
10
13.6079581046673
20
-30.0669872793659
30
0
41
1
10
13.6448606867706
20
-30.0583172600353
30
0
41
1
10
13.6565013495864
20
-30.0552244086799
30
0
41
1
10
13.6786197964869
20
-30.0487371057376
30
0
41
1
10
13.6891167538205
20
-30.0453372280739
30
0
41
1
10
13.7091749421591
20
-30.0382729348063
30
0
41
1
10
13.718735228234
20
-30.0346082702022
30
0
41
1
10
13.7370497658738
20
-30.0270468182504
30
0
41
1
10
13.7458258793
20
-30.02313828846
30
0
41
1
10
13.7708221243597
20
-30.0112312950127
30
0
41
1
10
13.7858017072524
20
-30.003028464303
30
0
41
1
10
13.8132376332894
20
-29.9862010424069
30
0
41
1
10
13.8256849704999
20
-29.9775752500983
30
0
41
1
10
13.848524377649
20
-29.9599596837523
30
0
41
1
10
13.8589127955721
20
-29.9509694256365
30
0
41
1
10
13.8779317869829
20
-29.9326601869319
30
0
41
1
10
13.8865409364123
20
-29.9233580917138
30
0
41
1
10
13.8943375672973
20
-29.913954846469
30
0
0
SPLINE
5
15B
100
AcDbEntity
8
1
62
256
6
ByLayer
370
18
48
1
60
0
100
AcDbSpline
70
4
71
3
72
32
73
28
40
0
40
0
40
0
40
0
40
0.25000000000001
40
0.25000000000001
40
0.375000000000013
40
0.375000000000013
40
0.437500000000011
40
0.437500000000011
40
0.500000000000009
40
0.500000000000009
40
0.625000000000012
40
0.625000000000012
40
0.68750000000001
40
0.68750000000001
40
0.750000000000008
40
0.750000000000008
40
0.812500000000006
40
0.812500000000006
40
0.843750000000005
40
0.843750000000005
40
0.875000000000003
40
0.875000000000003
40
0.937500000000005
40
0.937500000000005
40
0.968750000000003
40
0.968750000000003
40
1
40
1
40
1
40
1
41
1
10
13.8943375672973
20
-9.86941261896618
30
0
41
1
10
13.8787501654511
20
-9.81243201498805
30
0
41
1
10
13.8600981524863
20
-9.75655023082967
30
0
41
1
10
13.8259097308548
20
-9.67499387250786
30
0
41
1
10
13.8134681559941
20
-9.64819007031198
30
0
41
1
10
13.7928415817069
20
-9.6087077822867
30
0
41
1
10
13.7856368386739
20
-9.59566828989801
30
0
41
1
10
13.7704696456801
20
-9.56986960560323
30
0
41
1
10
13.7624961131813
20
-9.55709686534368
30
0
41
1
10
13.7374904471462
20
-9.51963294536128
30
0
41
1
10
13.7193382950671
20
-9.4956690086839
30
0
41
1
10
13.6890397943609
20
-9.4618301555227
30
0
41
1
10
13.6784124135704
20
-9.45090526429331
30
0
41
1
10
13.6562779758129
20
-9.43026612350764
30
0
41
1
10
13.6447350068563
20
-9.42050719110841
30
0
41
1
10
13.6205171073693
20
-9.40232505361257
30
0
41
1
10
13.6078439741679
20
-9.39389972204384
30
0
41
1
10
13.587782200058
20
-9.38250456041439
30
0
41
1
10
13.5808872163667
20
-9.37890069603398
30
0
41
1
10
13.5669060817702
20
-9.37226208194025
30
0
41
1
10
13.5598136368109
20
-9.3692206466792
30
0
41
1
10
13.5382117701415
20
-9.36098178019486
30
0
41
1
10
13.5233796774591
20
-9.3566647218021
30
0
41
1
10
13.5003821923575
20
-9.35223451981224
30
0
41
1
10
13.4925919071141
20
-9.35110433740229
30
0
41
1
10
13.4770081601071
20
-9.34960123302486
30
0
41
1
10
13.4691833484067
20
-9.34922131452507
30
0
41
1
10
13.4613248654052
20
-9.34922131452507
30
0
0
SPLINE
5
15C
100
AcDbEntity
8
1
62
256
6
ByLayer
370
18
48
1
60
0
100
AcDbSpline
70
4
71
3
72
30
73
26
40
0
40
0
40
0
40
0
40
0.0625000000000017
40
0.0625000000000017
40
0.0937500000000059
40
0.0937500000000059
40
0.12500000000001
40
0.12500000000001
40
0.250000000000009
40
0.250000000000009
40
0.312500000000012
40
0.312500000000012
40
0.375000000000014
40
0.375000000000014
40
0.437500000000016
40
0.437500000000016
40
0.500000000000019
40
0.500000000000019
40
0.625000000000014
40
0.625000000000014
40
0.750000000000009
40
0.750000000000009
40
0.875000000000005
40
0.875000000000005
40
1
40
1
40
1
40
1
41
1
10
10.5386751345948
20
-9.34922131452524
30
0
41
1
10
10.5229355536388
20
-9.34922131452521
30
0
41
1
10
10.5074817098165
20
-9.35074113394299
30
0
41
1
10
10.4846917876899
20
-9.35509944740042
30
0
41
1
10
10.4771604699169
20
-9.3568996132268
30
0
41
1
10
10.4622240762521
20
-9.36117119765726
30
0
41
1
10
10.4547836182249
20
-9.36365758390281
30
0
41
1
10
10.4184736929999
20
-9.37748487924972
30
0
41
1
10
10.3920418953325
20
-9.39290424748316
30
0
41
1
10
10.3551393132292
20
-9.42059748954586
30
0
41
1
10
10.3434986504134
20
-9.43046143490426
30
0
41
1
10
10.3213802035129
20
-9.45111186483331
30
0
41
1
10
10.3108832461793
20
-9.46191570446788
30
0
41
1
10
10.2908250578407
20
-9.48431848058812
30
0
41
1
10
10.2812647717658
20
-9.49591822570963
30
0
41
1
10
10.262950234126
20
-9.5198012725298
30
0
41
1
10
10.2541741206997
20
-9.53212142663469
30
0
41
1
10
10.22917787564
20
-9.56957065273528
30
0
41
1
10
10.2141982927474
20
-9.59526142127669
30
0
41
1
10
10.1867623667103
20
-9.64772023935046
30
0
41
1
10
10.1743150294999
20
-9.6744922319717
30
0
41
1
10
10.1514756223507
20
-9.72890711075644
30
0
41
1
10
10.1410872044276
20
-9.75655159685456
30
0
41
1
10
10.1220682130169
20
-9.8125798203717
30
0
41
1
10
10.1134590635875
20
-9.84091160634023
30
0
41
1
10
10.1056624327025
20
-9.86941261896621
30
0
0
SPLINE
5
15D
100
AcDbEntity
8
1
62
256
6
ByLayer
370
18
48
1
60
0
100
AcDbSpline
70
4
71
3
72
36
73
32
40
0
40
0
40
0
40
0
40
0.0624999999999992
40
0.0624999999999992
40
0.124999999999998
40
0.124999999999998
40
0.187499999999998
40
0.187499999999998
40
0.249999999999997
40
0.249999999999997
40
0.312499999999996
40
0.312499999999996
40
0.374999999999995
40
0.374999999999995
40
0.437499999999994
40
0.437499999999994
40
0.499999999999993
40
0.499999999999993
40
0.562499999999993
40
0.562499999999993
40
0.578124999999993
40
0.578124999999993
40
0.593749999999992
40
0.593749999999992
40
0.624999999999992
40
0.624999999999992
40
0.749999999999994
40
0.749999999999994
40
0.874999999999997
40
0.874999999999997
40
1
40
1
40
1
40
1
41
1
10
124.8
20
-19.9283326270914
30
0
41
1
10
125.049567283657
20
-19.9932693544705
30
0
41
1
10
125.295588762405
20
-20.0690358432897
30
0
41
1
10
125.781263979417
20
-20.2400174685823
30
0
41
1
10
126.020916504995
20
-20.3352363089017
30
0
41
1
10
126.494420621647
20
-20.5433914721417
30
0
41
1
10
126.728271384293
20
-20.6563303252866
30
0
41
1
10
127.190615205679
20
-20.8985717787789
30
0
41
1
10
127.416727121386
20
-21.0266151466094
30
0
41
1
10
127.85999105346
20
-21.2949150131718
30
0
41
1
10
128.077144222881
20
-21.4351780582805
30
0
41
1
10
128.503379342515
20
-21.726720559788
30
0
41
1
10
128.712459227441
20
-21.8780028350964
30
0
41
1
10
129.123207633437
20
-22.1906831600914
30
0
41
1
10
129.324874761208
20
-22.3520831114922
30
0
41
1
10
129.721287763299
20
-22.6843298367234
30
0
41
1
10
129.916032682976
20
-22.8551779135452
30
0
41
1
10
130.298956047995
20
-23.2058366514224
30
0
41
1
10
130.487133839057
20
-23.3856482055038
30
0
41
1
10
130.718403969592
20
-23.6158068827647
30
0
41
1
10
130.764460141422
20
-23.6621086696238
30
0
41
1
10
130.856179629545
20
-23.755248452066
30
0
41
1
10
130.901860564911
20
-23.8021050729718
30
0
41
1
10
131.038049851883
20
-23.9431943073084
30
0
41
1
10
131.127779117175
20
-24.0380198723144
30
0
41
1
10
131.571258292946
20
-24.5158694484615
30
0
41
1
10
131.909583183722
20
-24.9100036609047
30
0
41
1
10
132.555830289637
20
-25.7201702650437
30
0
41
1
10
132.863734319556
20
-26.1362157550349
30
0
41
1
10
133.450017127247
20
-26.98957293118
30
0
41
1
10
133.728388447529
20
-27.4268899887522
30
0
41
1
10
133.991833109798
20
-27.8749582919294
30
0
0
SPLINE
5
15E
100
AcDbEntity
8
1
62
256
6
ByLayer
370
18
48
1
60
0
100
AcDbSpline
70
4
71
3
72
8
73
4
40
0
40
0
40
0
40
0
40
1
40
1
40
1
40
1
41
1
10
134.807020647161
20
-29.1942393769103
30
0
41
1
10
134.526198467145
20
-28.7615084597556
30
0
41
1
10
134.254508327155
20
-28.3217179184649
30
0
41
1
10
133.991833109798
20
-27.8749582919293
30
0
0
SPLINE
5
15F
100
AcDbEntity
8
1
62
256
6
ByLayer
370
18
48
1
60
0
100
AcDbSpline
70
4
71
3
72
8
73
4
40
0
40
0
40
0
40
0
40
1
40
1
40
1
40
1
41
1
10
133.534835212241
20
-34.7646520399989
30
0
41
1
10
133.682565819925
20
-34.8164390380721
30
0
41
1
10
133.835948663738
20
-34.8671318144961
30
0
41
1
10
133.991833109798
20
-34.9173403034144
30
0
0
SPLINE
5
160
100
AcDbEntity
8
1
62
256
6
ByLayer
370
18
48
1
60
0
100
AcDbSpline
70
4
71
3
72
24
73
20
40
0
40
0
40
0
40
0
40
0.182544195698417
40
0.182544195698417
40
0.365088391396835
40
0.365088391396835
40
0.45636048924604
40
0.45636048924604
40
0.501996538170643
40
0.501996538170643
40
0.547632587095246
40
0.547632587095246
40
0.730176782793665
40
0.730176782793665
40
0.912720978492084
40
0.912720978492084
40
0.958357027416689
40
0.958357027416689
40
1
40
1
40
1
40
1
41
1
10
133.991833109798
20
-35.5580111622702
30
0
41
1
10
133.943375389652
20
-35.4940260950895
30
0
41
1
10
133.897129939212
20
-35.4331740552341
30
0
41
1
10
133.809564855545
20
-35.3174695772397
30
0
41
1
10
133.768241820069
20
-35.2626160856462
30
0
41
1
10
133.710592278947
20
-35.1849067134897
30
0
41
1
10
133.69210132617
20
-35.1597682787431
30
0
41
1
10
133.665568309209
20
-35.1232470408914
30
0
41
1
10
133.656940575942
20
-35.1112925572284
30
0
41
1
10
133.640240850855
20
-35.0879751664842
30
0
41
1
10
133.632152328301
20
-35.0765895558276
30
0
41
1
10
133.593038563072
20
-35.0210191582658
30
0
41
1
10
133.565982145302
20
-34.9808846071301
30
0
41
1
10
133.521179456171
20
-34.9094196254163
30
0
41
1
10
133.5034269645
20
-34.8780832718826
30
0
41
1
10
133.487911125071
20
-34.8449207911857
30
0
41
1
10
133.485138692965
20
-34.8385771542727
30
0
41
1
10
133.480547248773
20
-34.827155005293
30
0
41
1
10
133.478660384454
20
-34.8220039707317
30
0
41
1
10
133.477075416813
20
-34.8171482794999
30
0
0
SPLINE
5
161
100
AcDbEntity
8
1
62
256
6
ByLayer
370
18
48
1
60
0
100
AcDbSpline
70
4
71
3
72
12
73
8
40
0
40
0
40
0
40
0
40
0.109403021387439
40
0.109403021387439
40
0.406268680924959
40
0.406268680924959
40
1
40
1
40
1
40
1
41
1
10
133.491038298815
20
-34.7577047655855
30
0
41
1
10
133.492193661502
20
-34.757500775416
30
0
41
1
10
133.493399075961
20
-34.7573464366281
30
0
41
1
10
133.498061921821
20
-34.7569588713625
30
0
41
1
10
133.501843327378
20
-34.7570453392406
30
0
41
1
10
133.514215159519
20
-34.7584149386699
30
0
41
1
10
133.523852759409
20
-34.7608021386646
30
0
41
1
10
133.534835212241
20
-34.7646520399988
30
0
0
SPLINE
5
162
100
AcDbEntity
8
SK1
62
256
6
ByLayer
370
18
48
1
60
0
100
AcDbSpline
70
4
71
3
72
51
73
47
40
0
40
0
40
0
40
0
40
0.124999999999998
40
0.124999999999998
40
0.249999999999996
40
0.249999999999996
40
0.374999999999995
40
0.374999999999995
40
0.499999999999993
40
0.499999999999993
40
0.562499999999992
40
0.562499999999992
40
0.624999999999991
40
0.624999999999991
40
0.68749999999999
40
0.68749999999999
40
0.71874999999999
40
0.71874999999999
40
0.74999999999999
40
0.74999999999999
40
0.78124999999999
40
0.78124999999999
40
0.81249999999999
40
0.81249999999999
40
0.828124999999991
40
0.828124999999991
40
0.843749999999991
40
0.843749999999991
40
0.859374999999992
40
0.859374999999992
40
0.874999999999992
40
0.874999999999992
40
0.906249999999994
40
0.906249999999994
40
0.914062499999994
40
0.914062499999994
40
0.921874999999994
40
0.937499999999996
40
0.937499999999996
40
0.953124999999997
40
0.953124999999997
40
0.968749999999998
40
0.968749999999998
40
0.984374999999999
40
0.984374999999999
40
1
40
1
40
1
40
1
41
1
10
-1.30710678118646
20
4.81101329740287
30
0
41
1
10
-1.29244176463848
20
4.89398769272975
30
0
41
1
10
-1.27676215781608
20
4.97650730648718
30
0
41
1
10
-1.24293910905465
20
5.14057962370856
30
0
41
1
10
-1.22479989232227
20
5.22213302869977
30
0
41
1
10
-1.18541598952268
20
5.38418040833497
30
0
41
1
10
-1.1641703653693
20
5.46471422466468
30
0
41
1
10
-1.11756232853281
20
5.62439574156338
30
0
41
1
10
-1.09229336045297
20
5.70330762453332
30
0
41
1
10
-1.05010359684758
20
5.81986141651853
30
0
41
1
10
-1.03531850251795
20
5.85840789068214
30
0
41
1
10
-1.00391088700414
20
5.93476506270244
30
0
41
1
10
-0.987293898278978
20
5.97257758781305
30
0
41
1
10
-0.951595196520515
20
6.0472637337171
30
0
41
1
10
-0.932528346395429
20
6.0841422654172
30
0
41
1
10
-0.901226529888987
20
6.13847742495963
30
0
41
1
10
-0.890337486882061
20
6.15642377397973
30
0
41
1
10
-0.867394264014649
20
6.1919020791901
30
0
41
1
10
-0.855291918076205
20
6.20949944548872
30
0
41
1
10
-0.829871023152521
20
6.24369652170472
30
0
41
1
10
-0.816547704376944
20
6.26031927551796
30
0
41
1
10
-0.788266799301738
20
6.2923086434451
30
0
41
1
10
-0.773317167670228
20
6.30768123676515
30
0
41
1
10
-0.749143173440046
20
6.32940641252955
30
0
41
1
10
-0.740790749867159
20
6.3364237247435
30
0
41
1
10
-0.723348711229363
20
6.34989840284811
30
0
41
1
10
-0.714202961866079
20
6.35639098128007
30
0
41
1
10
-0.695295302950626
20
6.36844133558427
30
0
41
1
10
-0.685541105622775
20
6.37400249775214
30
0
41
1
10
-0.665302713720934
20
6.3839990576268
30
0
41
1
10
-0.654760238829851
20
6.38845544503343
30
0
41
1
10
-0.622158748114003
20
6.3995806448969
30
0
41
1
10
-0.59975205837145
20
6.40383193253007
30
0
41
1
10
-0.570720936727582
20
6.40433446208664
30
0
41
1
10
-0.564886021711828
20
6.40418931749673
30
0
41
1
10
-0.553383150331314
20
6.4034260800818
30
0
41
1
10
-0.536282472568928
20
6.40157448566907
30
0
41
1
10
-0.519619603216
20
6.39770847656089
30
0
41
1
10
-0.49775729310673
20
6.39091961851844
30
0
41
1
10
-0.487232732039644
20
6.38677901662771
30
0
41
1
10
-0.466996761053394
20
6.37736239462944
30
0
41
1
10
-0.457254953119502
20
6.37207517386003
30
0
41
1
10
-0.438389199975291
20
6.36054798675303
30
0
41
1
10
-0.429239914302798
20
6.35428620030484
30
0
41
1
10
-0.411635429450627
20
6.34109219397033
30
0
41
1
10
-0.403168655463958
20
6.33415680421612
30
0
41
1
10
-0.394976888874652
20
6.32694309068154
30
0
0
SPLINE
5
163
100
AcDbEntity
8
SK1
62
256
6
ByLayer
370
18
48
1
60
0
100
AcDbSpline
70
4
71
3
72
38
73
34
40
0
40
0
40
0
40
0
40
0.0156249999999997
40
0.0156249999999997
40
0.0312499999999993
40
0.0312499999999993
40
0.046874999999999
40
0.046874999999999
40
0.0624999999999986
40
0.0624999999999986
40
0.0781249999999983
40
0.0781249999999983
40
0.0937499999999979
40
0.0937499999999979
40
0.124999999999998
40
0.124999999999998
40
0.156249999999999
40
0.156249999999999
40
0.187499999999999
40
0.187499999999999
40
0.25
40
0.25
40
0.312500000000001
40
0.312500000000001
40
0.375000000000002
40
0.375000000000002
40
0.500000000000001
40
0.500000000000001
40
0.625
40
0.625
40
0.749999999999999
40
0.749999999999999
40
1
40
1
40
1
40
1
41
1
10
-0.394976888875164
20
6.32694309066903
30
0
41
1
10
-0.391727840008116
20
6.32408196083441
30
0
41
1
10
-0.388335470376006
20
6.32141928943932
30
0
41
1
10
-0.381160699955615
20
6.31663456223512
30
0
41
1
10
-0.37733729375779
20
6.31449473474115
30
0
41
1
10
-0.369385571634808
20
6.31111288677019
30
0
41
1
10
-0.365259213138188
20
6.30985987304769
30
0
41
1
10
-0.356602053761804
20
6.3085297153724
30
0
41
1
10
-0.35207607544902
20
6.30848994048034
30
0
41
1
10
-0.343245936202948
20
6.30981804057467
30
0
41
1
10
-0.338839896562092
20
6.31120032557638
30
0
41
1
10
-0.330609830662638
20
6.31504343200652
30
0
41
1
10
-0.326682033469751
20
6.31753670083984
30
0
41
1
10
-0.315858342049836
20
6.3259303329622
30
0
41
1
10
-0.309649778597162
20
6.33285276949934
30
0
41
1
10
-0.298759052450407
20
6.34747591030185
30
0
41
1
10
-0.294039768289338
20
6.35522287410015
30
0
41
1
10
-0.285441114396605
20
6.37121915611471
30
0
41
1
10
-0.281577225764977
20
6.37947829811526
30
0
41
1
10
-0.271027300228212
20
6.40434328922603
30
0
41
1
10
-0.265260102162756
20
6.42121101452742
30
0
41
1
10
-0.255056704786085
20
6.45524280361863
30
0
41
1
10
-0.250650675190627
20
6.47241406830696
30
0
41
1
10
-0.242745882078737
20
6.50695257177011
30
0
41
1
10
-0.239249306945936
20
6.52435045938401
30
0
41
1
10
-0.229806665913003
20
6.57651474417179
30
0
41
1
10
-0.224881575141751
20
6.61123172400934
30
0
41
1
10
-0.216682382319988
20
6.68055892991541
30
0
41
1
10
-0.213429522966038
20
6.71516905756206
30
0
41
1
10
-0.208119529771039
20
6.78429037229347
30
0
41
1
10
-0.206068462856109
20
6.81880152454448
30
0
41
1
10
-0.201318249455056
20
6.92219574622325
30
0
41
1
10
-0.200000000000898
20
6.99093988368702
30
0
41
1
10
-0.200000000000926
20
7.05951756777677
30
0
0
SPLINE
5
164
100
AcDbEntity
8
SK1
62
256
6
ByLayer
370
18
48
1
60
0
100
AcDbSpline
70
4
71
3
72
34
73
30
40
0
40
0
40
0
40
0
40
0.0415721663240364
40
0.0415721663240364
40
0.233257733059234
40
0.233257733059234
40
0.424943299794433
40
0.424943299794433
40
0.520786083162032
40
0.520786083162032
40
0.616628866529632
40
0.616628866529632
40
0.712471649897231
40
0.712471649897231
40
0.760393041581031
40
0.760393041581031
40
0.808314433264831
40
0.808314433264831
40
0.85623582494863
40
0.85623582494863
40
0.880196520790526
40
0.880196520790526
40
0.904157216632422
40
0.904157216632422
40
0.928117912474317
40
0.928117912474317
40
0.952078608316213
40
0.952078608316213
40
1
40
1
40
1
40
1
41
1
10
-0.209169060621321
20
21.9947934567755
30
0
41
1
10
-0.20969243060523
20
21.9928852502171
30
0
41
1
10
-0.210243091220263
20
21.99096258623
30
0
41
1
10
-0.213493921983599
20
21.9800910755367
30
0
41
1
10
-0.216773906481166
20
21.9708324513086
30
0
41
1
10
-0.225032192728577
20
21.951589274304
30
0
41
1
10
-0.229988326543065
20
21.9416123435508
30
0
41
1
10
-0.239451201096074
20
21.9259295604088
30
0
41
1
10
-0.242954639607234
20
21.9205732207142
30
0
41
1
10
-0.250884191768137
20
21.9096123694388
30
0
41
1
10
-0.255303279611496
20
21.9040075529812
30
0
41
1
10
-0.265534058490886
20
21.8924690412288
30
0
41
1
10
-0.271315664905586
20
21.8865400840862
30
0
41
1
10
-0.281887216584096
20
21.877261986221
30
0
41
1
10
-0.285754236703127
20
21.8740892419227
30
0
41
1
10
-0.294365230444726
20
21.8676615192306
30
0
41
1
10
-0.299097978052373
20
21.8644034744385
30
0
41
1
10
-0.310069692334451
20
21.8577563969493
30
0
41
1
10
-0.316188605996899
20
21.8544274429474
30
0
41
1
10
-0.327092981293788
20
21.8495406875216
30
0
41
1
10
-0.330930389921804
20
21.8479731855645
30
0
41
1
10
-0.339145076217307
20
21.8450063177226
30
0
41
1
10
-0.343496020232777
20
21.8436255373084
30
0
41
1
10
-0.35221635194597
20
21.8412615992219
30
0
41
1
10
-0.35671938066389
20
21.8402448422724
30
0
41
1
10
-0.365343328288049
20
21.8386616016613
30
0
41
1
10
-0.369555738240564
20
21.8380723572609
30
0
41
1
10
-0.381451910103209
20
21.8368338440474
30
0
41
1
10
-0.388510132182176
20
21.8366679278902
30
0
41
1
10
-0.39497688887522
20
21.8368455663701
30
0
0
SPLINE
5
165
100
AcDbEntity
8
SK1
62
256
6
ByLayer
370
18
48
1
60
0
100
AcDbSpline
70
4
71
3
72
38
73
34
40
0
40
0
40
0
40
0
40
0.0169549156202883
40
0.0169549156202883
40
0.0339098312405766
40
0.0339098312405766
40
0.0508647468608649
40
0.0508647468608649
40
0.0678196624811532
40
0.0678196624811532
40
0.0847745781014415
40
0.0847745781014415
40
0.10172949372173
40
0.10172949372173
40
0.135639324962306
40
0.135639324962306
40
0.169549156202883
40
0.169549156202883
40
0.20345898744346
40
0.20345898744346
40
0.271278649924609
40
0.271278649924609
40
0.339098312405758
40
0.339098312405758
40
0.406917974886907
40
0.406917974886907
40
0.542557299849201
40
0.542557299849201
40
0.678196624811495
40
0.678196624811495
40
0.81383594977379
40
0.81383594977379
40
1
40
1
40
1
40
1
41
1
10
-0.394976888875107
20
-21.8368457077636
30
0
41
1
10
-0.391727836857569
20
-21.8367564552859
30
0
41
1
10
-0.388335462947708
20
-21.8367575102275
30
0
41
1
10
-0.381160680164442
20
-21.8370063953433
30
0
41
1
10
-0.377337265730432
20
-21.8372584545584
30
0
41
1
10
-0.36938552490011
20
-21.8380942572622
30
0
41
1
10
-0.365259154641052
20
-21.8386743817224
30
0
41
1
10
-0.356601963799903
20
-21.8402693810169
30
0
41
1
10
-0.35207597357126
20
-21.8412940229744
30
0
41
1
10
-0.343245807197519
20
-21.8436994970153
30
0
41
1
10
-0.338839759286174
20
-21.8451077061704
30
0
41
1
10
-0.330609681601146
20
-21.8480988532094
30
0
41
1
10
-0.326681882216292
20
-21.8497148139504
30
0
41
1
10
-0.31585819576469
20
-21.8545978371134
30
0
41
1
10
-0.309649635830567
20
-21.8579930086273
30
0
41
1
10
-0.298758930441238
20
-21.864628343503
30
0
41
1
10
-0.294039653953462
20
-21.8678908734004
30
0
41
1
10
-0.285441012915328
20
-21.8743381084954
30
0
41
1
10
-0.281577134169538
20
-21.8775219513842
30
0
41
1
10
-0.271027231501876
20
-21.8868197672955
30
0
41
1
10
-0.265260039644175
20
-21.892757209636
30
0
41
1
10
-0.2550566464312
20
-21.9043080675861
30
0
41
1
10
-0.250650615364577
20
-21.9099166220699
30
0
41
1
10
-0.242745818948691
20
-21.9208819372234
30
0
41
1
10
-0.239249241675481
20
-21.9262461524815
30
0
41
1
10
-0.22980660394316
20
-21.9419519763543
30
0
41
1
10
-0.224881521380666
20
-21.9519088703318
30
0
41
1
10
-0.216682345988403
20
-21.9710783182464
30
0
41
1
10
-0.213429491530604
20
-21.9802858115127
30
0
41
1
10
-0.20811950613097
20
-21.9980851491636
30
0
41
1
10
-0.206068443442632
20
-22.0066755233805
30
0
41
1
10
-0.202311840097195
20
-22.0264200535058
30
0
41
1
10
-0.201009182248669
20
-22.0373400924836
30
0
41
1
10
-0.200405688421398
20
-22.0478175566101
30
0
0
SPLINE
5
166
100
AcDbEntity
8
SK1
62
256
6
ByLayer
370
18
48
1
60
0
100
AcDbSpline
70
4
71
3
72
36
73
32
40
0
40
0
40
0
40
0
40
0.250000000000008
40
0.250000000000008
40
0.375000000000011
40
0.375000000000011
40
0.500000000000014
40
0.500000000000014
40
0.625000000000016
40
0.625000000000016
40
0.687500000000016
40
0.687500000000016
40
0.750000000000016
40
0.750000000000016
40
0.812500000000017
40
0.812500000000017
40
0.843750000000014
40
0.843750000000014
40
0.875000000000012
40
0.875000000000012
40
0.90625000000001
40
0.90625000000001
40
0.921875000000008
40
0.921875000000008
40
0.937500000000006
40
0.937500000000006
40
0.953125000000005
40
0.953125000000005
40
0.968750000000003
40
0.968750000000003
40
1
40
1
40
1
40
1
41
1
10
-0.200000000000074
20
-7.05951749342077
30
0
41
1
10
-0.200000000000017
20
-6.99088366827027
30
0
41
1
10
-0.201319609066843
20
-6.92203745653012
30
0
41
1
10
-0.206090084506769
20
-6.8183951437357
30
0
41
1
10
-0.208151034983672
20
-6.7837852932102
30
0
41
1
10
-0.213493984947206
20
-6.71442586061184
30
0
41
1
10
-0.216773999711506
20
-6.67964297799384
30
0
41
1
10
-0.225032362287806
20
-6.61010153250686
30
0
41
1
10
-0.229988536108976
20
-6.57535167439411
30
0
41
1
10
-0.239451452332588
20
-6.52331614077158
30
0
41
1
10
-0.242954902554743
20
-6.50596118190668
30
0
41
1
10
-0.250884475472503
20
-6.47147444885798
30
0
41
1
10
-0.255303571894473
20
-6.45433496817734
30
0
41
1
10
-0.265534367861818
20
-6.42038445843178
30
0
41
1
10
-0.271315983615864
20
-6.40356588205802
30
0
41
1
10
-0.281887551545111
20
-6.37879812944601
30
0
41
1
10
-0.285754577758581
20
-6.37058402265515
30
0
41
1
10
-0.294365583617463
20
-6.35467212439295
30
0
41
1
10
-0.299098336615344
20
-6.34695402708002
30
0
41
1
10
-0.310070058833162
20
-6.33235891704209
30
0
41
1
10
-0.316188975330164
20
-6.32559855176615
30
0
41
1
10
-0.327093340772393
20
-6.31725804804285
30
0
41
1
10
-0.330930743377479
20
-6.31486185527049
30
0
41
1
10
-0.339145408376254
20
-6.31109129764343
30
0
41
1
10
-0.343496335699996
20
-6.30976042443788
30
0
41
1
10
-0.352216625139107
20
-6.30848907644304
30
0
41
1
10
-0.356719625966861
20
-6.30853790053885
30
0
41
1
10
-0.365343516832524
20
-6.30988235079065
30
0
41
1
10
-0.369555897144437
20
-6.31117170394202
30
0
41
1
10
-0.381451989855151
20
-6.31627189389678
30
0
41
1
10
-0.388510166361186
20
-6.3212481650807
30
0
41
1
10
-0.394976888875334
20
-6.32694279392754
30
0
0
SPLINE
5
167
100
AcDbEntity
8
SK1
62
256
6
ByLayer
370
18
48
1
60
0
100
AcDbSpline
70
4
71
3
72
51
73
47
40
0
40
0
40
0
40
0
40
0.0312500000000006
40
0.0312500000000006
40
0.046875000000001
40
0.046875000000001
40
0.0625000000000013
40
0.0625000000000013
40
0.0781250000000017
40
0.0781250000000017
40
0.0937500000000021
40
0.101562500000002
40
0.101562500000002
40
0.109375000000002
40
0.109375000000002
40
0.125000000000003
40
0.125000000000003
40
0.140625000000003
40
0.140625000000003
40
0.156250000000004
40
0.156250000000004
40
0.171875000000004
40
0.171875000000004
40
0.187500000000005
40
0.187500000000005
40
0.218750000000005
40
0.218750000000005
40
0.250000000000005
40
0.250000000000005
40
0.281250000000005
40
0.281250000000005
40
0.312500000000005
40
0.312500000000005
40
0.375000000000005
40
0.375000000000005
40
0.437500000000005
40
0.437500000000005
40
0.500000000000006
40
0.500000000000006
40
0.625000000000004
40
0.625000000000004
40
0.750000000000003
40
0.750000000000003
40
0.875000000000002
40
0.875000000000002
40
1
40
1
40
1
40
1
41
1
10
-0.394976888875334
20
-6.32694279392754
30
0
41
1
10
-0.411238696721767
20
-6.34126302490412
30
0
41
1
10
-0.428507485946369
20
-6.35445833731509
30
0
41
1
10
-0.456670233693671
20
-6.37174225420665
30
0
41
1
10
-0.466483664298124
20
-6.37709385022487
30
0
41
1
10
-0.486591494189639
20
-6.38650813483491
30
0
41
1
10
-0.496926643445192
20
-6.39060153529036
30
0
41
1
10
-0.518261372575637
20
-6.39734038383023
30
0
41
1
10
-0.529288688452823
20
-6.39999137034917
30
0
41
1
10
-0.552029863844695
20
-6.40352645544726
30
0
41
1
10
-0.569122170022865
20
-6.4047786558412
30
0
41
1
10
-0.586269587269754
20
-6.40391558402308
30
0
41
1
10
-0.597713516780999
20
-6.40286726137316
30
0
41
1
10
-0.603469210371145
20
-6.40210091700712
30
0
41
1
10
-0.620484453672447
20
-6.39914057465751
30
0
41
1
10
-0.631521298100381
20
-6.39629613100803
30
0
41
1
10
-0.65306795595825
20
-6.38910953757807
30
0
41
1
10
-0.663647019327385
20
-6.38472913070882
30
0
41
1
10
-0.683914090581737
20
-6.3748801636111
30
0
41
1
10
-0.693619694147856
20
-6.36942005626011
30
0
41
1
10
-0.712349558937291
20
-6.35764547249309
30
0
41
1
10
-0.721372912538328
20
-6.35132986237963
30
0
41
1
10
-0.738857672965054
20
-6.33799239464975
30
0
41
1
10
-0.747347473223329
20
-6.33094289857644
30
0
41
1
10
-0.771836234848621
20
-6.30914419635494
30
0
41
1
10
-0.786901848847748
20
-6.29375180625595
30
0
41
1
10
-0.815326569021465
20
-6.26179199946714
30
0
41
1
10
-0.828675731410783
20
-6.24521789481673
30
0
41
1
10
-0.854098967455059
20
-6.21118254722447
30
0
41
1
10
-0.866193821709373
20
-6.19368034374003
30
0
41
1
10
-0.889264933418644
20
-6.15815258135464
30
0
41
1
10
-0.900209860985797
20
-6.14017947190476
30
0
41
1
10
-0.931663440024494
20
-6.0857602140492
30
0
41
1
10
-0.950810679353623
20
-6.04882063700347
30
0
41
1
10
-0.986648965174822
20
-5.97400775850906
30
0
41
1
10
-1.00332473325477
20
-5.93612942656304
30
0
41
1
10
-1.0348366750913
20
-5.85963788366212
30
0
41
1
10
-1.04966719442732
20
-5.82102281214415
30
0
41
1
10
-1.09197977593217
20
-5.70426049482555
30
0
41
1
10
-1.11732446718886
20
-5.62516646058836
30
0
41
1
10
-1.16401678895687
20
-5.46528393669757
30
0
41
1
10
-1.18527730088002
20
-5.3847235269053
30
0
41
1
10
-1.2247083346173
20
-5.22253672374882
30
0
41
1
10
-1.24286856219783
20
-5.14090854029001
30
0
41
1
10
-1.27672968747515
20
-4.97667800814656
30
0
41
1
10
-1.29242634244312
20
-4.89407494295654
30
0
41
1
10
-1.30710678118663
20
-4.81101321788435
30
0
0
SPLINE
5
168
100
AcDbEntity
8
SK1
62
256
6
ByLayer
370
18
48
1
60
0
100
AcDbSpline
70
4
71
3
72
295
73
291
40
0
40
0
40
0
40
0
40
0.002975235353375
40
0.0065509540695064
40
0.0101266727856379
40
0.0137023915017693
40
0.0172781102179007
40
0.0208538289340321
40
0.028005266366295
40
0.0351567037985579
40
0.0423081412308207
40
0.0458838599469522
40
0.0494595786630836
40
0.053035297379215
40
0.0566110160953465
40
0.0637624535276093
40
0.0673381722437407
40
0.0709138909598722
40
0.0744896096760036
40
0.078065328392135
40
0.0816410471082665
40
0.0852167658243979
40
0.0923682032566608
40
0.0959439219727922
40
0.0995196406889236
40
0.103095359405055
40
0.106671078121186
40
0.110246796837318
40
0.113822515553449
40
0.117398234269581
40
0.120973952985712
40
0.124549671701844
40
0.128125390417975
40
0.131701109134106
40
0.135276827850238
40
0.138852546566369
40
0.142428265282501
40
0.149579702714764
40
0.153155421430895
40
0.156731140147026
40
0.158518999505092
40
0.160306858863158
40
0.163882577579289
40
0.171034015011552
40
0.174609733727684
40
0.178185452443815
40
0.181761171159947
40
0.185336889876078
40
0.192488327308341
40
0.196064046024472
40
0.199639764740604
40
0.201427624098669
40
0.203215483456735
40
0.206791202172867
40
0.213942639605129
40
0.217518358321261
40
0.221094077037392
40
0.224669795753524
40
0.228245514469655
40
0.235396951901918
40
0.238972670618049
40
0.242548389334181
40
0.244336248692246
40
0.246124108050312
40
0.249699826766444
40
0.253275545482575
40
0.256851264198707
40
0.258639123556772
40
0.260426982914838
40
0.264002701630969
40
0.267578420347101
40
0.271154139063232
40
0.274729857779364
40
0.278305576495495
40
0.281881295211627
40
0.285457013927758
40
0.289032732643889
40
0.292608451360021
40
0.296184170076152
40
0.299759888792284
40
0.303335607508415
40
0.306911326224546
40
0.310487044940678
40
0.314062763656809
40
0.321214201089072
40
0.324789919805204
40
0.328365638521335
40
0.331941357237467
40
0.335517075953598
40
0.339092794669729
40
0.342668513385861
40
0.346244232101992
40
0.349819950818124
40
0.356971388250387
40
0.364122825682649
40
0.371274263114912
40
0.374849981831044
40
0.378425700547175
40
0.382001419263307
40
0.385577137979438
40
0.389152856695569
40
0.392728575411701
40
0.396304294127832
40
0.399880012843964
40
0.403455731560095
40
0.407031450276227
40
0.410607168992358
40
0.414182887708489
40
0.417758606424621
40
0.421334325140752
40
0.424910043856884
40
0.428485762573015
40
0.432061481289147
40
0.433849340647212
40
0.435637200005278
40
0.437425059363344
40
0.439212918721409
40
0.442788637437541
40
0.446364356153672
40
0.448152215511738
40
0.449940074869804
40
0.451727934227869
40
0.453515793585935
40
0.457091512302067
40
0.458879371660132
40
0.460667231018198
40
0.462455090376264
40
0.464242949734329
40
0.466030809092395
40
0.467818668450461
40
0.469606527808527
40
0.471394387166592
40
0.473182246524658
40
0.474970105882724
40
0.476757965240789
40
0.478545824598855
40
0.480333683956921
40
0.482121543314987
40
0.483909402673052
40
0.485697262031118
40
0.487485121389184
40
0.48927298074725
40
0.491060840105315
40
0.492848699463381
40
0.494636558821447
40
0.496424418179512
40
0.498212277537578
40
0.500000136895644
40
0.50178799625371
40
0.503575855611775
40
0.505363714969841
40
0.507151574327907
40
0.508939433685972
40
0.510727293044038
40
0.512515152402104
40
0.51430301176017
40
0.516090871118235
40
0.517878730476301
40
0.519666589834367
40
0.521454449192432
40
0.523242308550498
40
0.525030167908564
40
0.52681802726663
40
0.528605886624695
40
0.530393745982761
40
0.532181605340827
40
0.533969464698892
40
0.535757324056958
40
0.537545183415024
40
0.53933304277309
40
0.541120902131155
40
0.542908761489221
40
0.546484480205352
40
0.548272339563418
40
0.550060198921484
40
0.55184805827955
40
0.553635917637615
40
0.557211636353747
40
0.560787355069878
40
0.562575214427944
40
0.564363073786009
40
0.566150933144075
40
0.567938792502141
40
0.571514511218272
40
0.575090229934404
40
0.578665948650535
40
0.582241667366667
40
0.585817386082798
40
0.589393104798929
40
0.592968823515061
40
0.596544542231192
40
0.600120260947324
40
0.603695979663455
40
0.607271698379587
40
0.610847417095718
40
0.61442313581185
40
0.617998854527981
40
0.621574573244112
40
0.625150291960244
40
0.628726010676375
40
0.635877448108638
40
0.643028885540901
40
0.650180322973164
40
0.653756041689295
40
0.657331760405427
40
0.660907479121558
40
0.66448319783769
40
0.668058916553821
40
0.671634635269952
40
0.675210353986084
40
0.678786072702215
40
0.685937510134478
40
0.68951322885061
40
0.693088947566741
40
0.696664666282872
40
0.700240384999004
40
0.703816103715135
40
0.707391822431267
40
0.710967541147398
40
0.71454325986353
40
0.718118978579661
40
0.721694697295793
40
0.725270416011924
40
0.728846134728055
40
0.735997572160318
40
0.73957329087645
40
0.743149009592581
40
0.750300447024844
40
0.753876165740975
40
0.757451884457107
40
0.761027603173238
40
0.76460332188937
40
0.771754759321633
40
0.775330478037764
40
0.778906196753895
40
0.782481915470027
40
0.786057634186158
40
0.793209071618421
40
0.796784790334552
40
0.800360509050684
40
0.803936227766815
40
0.807511946482947
40
0.81466338391521
40
0.818239102631341
40
0.821814821347472
40
0.825390540063604
40
0.828966258779735
40
0.836117696211998
40
0.83969341492813
40
0.843269133644261
40
0.846844852360392
40
0.850420571076524
40
0.857572008508787
40
0.861147727224918
40
0.86472344594105
40
0.868299164657181
40
0.871874883373312
40
0.875450602089444
40
0.879026320805575
40
0.882602039521707
40
0.886177758237838
40
0.88975347695397
40
0.893329195670101
40
0.896904914386233
40
0.900480633102364
40
0.904056351818495
40
0.907632070534627
40
0.91478350796689
40
0.918359226683021
40
0.921934945399153
40
0.925510664115284
40
0.929086382831415
40
0.932662101547547
40
0.936237820263678
40
0.943389257695941
40
0.946964976412073
40
0.950540695128204
40
0.954116413844336
40
0.957692132560467
40
0.96484356999273
40
0.968419288708861
40
0.971995007424993
40
0.975570726141124
40
0.979146444857255
40
0.982722163573387
40
0.986297882289518
40
0.98987360100565
40
0.993449319721781
40
0.997025038437913
40
1
40
1
40
1
40
1
41
1
10
-2.20000000000005
20
22.0135726677163
30
0
41
1
10
-2.20000000000002
20
22.0117701186165
30
0
41
1
10
-2.20000000000002
20
22.0069887571807
30
0
41
1
10
-2.20000000000002
20
21.9968726461305
30
0
41
1
10
-2.20000000000007
20
21.98305837502
30
0
41
1
10
-2.20000000000013
20
21.9661971621581
30
0
41
1
10
-2.19999999999987
20
21.9463373083128
30
0
41
1
10
-2.20000000000002
20
21.9159230944435
30
0
41
1
10
-2.19999999999993
20
21.8706336643491
30
0
41
1
10
-2.1999999999999
20
21.8049949078793
30
0
41
1
10
-2.19999999999982
20
21.7411390111089
30
0
41
1
10
-2.19999999999985
20
21.6847072709128
30
0
41
1
10
-2.20000000000013
20
21.6397397481891
30
0
41
1
10
-2.1999999999999
20
21.5921615264852
30
0
41
1
10
-2.20000000000016
20
21.5252891523051
30
0
41
1
10
-2.19999999999987
20
21.453308753177
30
0
41
1
10
-2.20000000000016
20
21.3763547276272
30
0
41
1
10
-2.19999999999982
20
21.3161703964091
30
0
41
1
10
-2.20000000000005
20
21.2535469243881
30
0
41
1
10
-2.2000000000001
20
21.1885090229235
30
0
41
1
10
-2.20000000000002
20
21.1210800834731
30
0
41
1
10
-2.20000000000005
20
21.0280237507366
30
0
41
1
10
-2.2000000000001
20
20.9302657445269
30
0
41
1
10
-2.20000000000013
20
20.8279188369074
30
0
41
1
10
-2.20000000000013
20
20.7488739070255
30
0
41
1
10
-2.19999999999996
20
20.6675681841826
30
0
41
1
10
-2.20000000000013
20
20.584021218422
30
0
41
1
10
-2.1999999999999
20
20.4982502525025
30
0
41
1
10
-2.20000000000016
20
20.4102747128952
30
0
41
1
10
-2.2000000000001
20
20.3201119071546
30
0
41
1
10
-2.20000000000016
20
20.2277776663921
30
0
41
1
10
-2.19999999999996
20
20.1332899477275
30
0
41
1
10
-2.2000000000001
20
20.0366642357897
30
0
41
1
10
-2.19999999999993
20
19.9379151599299
30
0
41
1
10
-2.19999999999985
20
19.8370591957147
30
0
41
1
10
-2.1999999999999
20
19.7341102362335
30
0
41
1
10
-2.20000000000013
20
19.5940778412013
30
0
41
1
10
-2.20000000000016
20
19.4499005336561
30
0
41
1
10
-2.2000000000001
20
19.3016622310536
30
0
41
1
10
-2.19999999999987
20
19.2073184270571
30
0
41
1
10
-2.19999999999996
20
19.1308417758756
30
0
41
1
10
-2.20000000000002
20
19.0536957086559
30
0
41
1
10
-2.20000000000005
20
18.9169360704625
30
0
41
1
10
-2.20000000000005
20
18.7566457946411
30
0
41
1
10
-2.19999999999979
20
18.5924362845556
30
0
41
1
10
-2.2000000000001
20
18.4673177976701
30
0
41
1
10
-2.20000000000007
20
18.3402521463354
30
0
41
1
10
-2.19999999999985
20
18.1682545122203
30
0
41
1
10
-2.19999999999999
20
17.9923842356823
30
0
41
1
10
-2.19999999999993
20
17.8127164551588
30
0
41
1
10
-2.20000000000002
20
17.6988333809737
30
0
41
1
10
-2.2000000000001
20
17.6067877670912
30
0
41
1
10
-2.20000000000016
20
17.5141131161325
30
0
41
1
10
-2.19999999999993
20
17.3502824417038
30
0
41
1
10
-2.19999999999987
20
17.1592829447589
30
0
41
1
10
-2.20000000000002
20
16.9645867974539
30
0
41
1
10
-2.19999999999993
20
16.8167088060478
30
0
41
1
10
-2.19999999999999
20
16.6669871400997
30
0
41
1
10
-2.20000000000002
20
16.4649164953068
30
0
41
1
10
-2.20000000000013
20
16.2591646002878
30
0
41
1
10
-2.19999999999993
20
16.0498028317161
30
0
41
1
10
-2.19999999999999
20
15.9174340084589
30
0
41
1
10
-2.20000000000016
20
15.8106442286414
30
0
41
1
10
-2.19999999999985
20
15.7032538676566
30
0
41
1
10
-2.20000000000013
20
15.5678823963092
30
0
41
1
10
-2.19999999999982
20
15.4036502143979
30
0
41
1
10
-2.19999999999987
20
15.2652965264295
30
0
41
1
10
-2.1999999999999
20
15.1537302031574
30
0
41
1
10
-2.20000000000005
20
15.0415708470879
30
0
41
1
10
-2.20000000000002
20
14.9002513108301
30
0
41
1
10
-2.19999999999985
20
14.7289012367182
30
0
41
1
10
-2.19999999999993
20
14.5557843226632
30
0
41
1
10
-2.20000000000002
20
14.3809062427341
30
0
41
1
10
-2.19999999999982
20
14.2042700822292
30
0
41
1
10
-2.20000000000002
20
14.0258803741546
30
0
41
1
10
-2.20000000000016
20
13.8457420253847
30
0
41
1
10
-2.20000000000016
20
13.663857986182
30
0
41
1
10
-2.19999999999996
20
13.4802328481715
30
0
41
1
10
-2.20000000000002
20
13.2948705974072
30
0
41
1
10
-2.20000000000002
20
13.1077737485313
30
0
41
1
10
-2.19999999999987
20
12.9189467805056
30
0
41
1
10
-2.19999999999985
20
12.7283927787489
30
0
41
1
10
-2.19999999999996
20
12.5361142588231
30
0
41
1
10
-2.19999999999999
20
12.2774598592138
30
0
41
1
10
-2.20000000000002
20
12.0153352592314
30
0
41
1
10
-2.1999999999999
20
11.7498207258852
30
0
41
1
10
-2.19999999999996
20
11.5489655826484
30
0
41
1
10
-2.1999999999999
20
11.3464032807099
30
0
41
1
10
-2.19999999999999
20
11.1421359853759
30
0
41
1
10
-2.19999999999993
20
10.936165587976
30
0
41
1
10
-2.19999999999996
20
10.7284950970913
30
0
41
1
10
-2.19999999999996
20
10.5191258614378
30
0
41
1
10
-2.19999999999996
20
10.2377184130835
30
0
41
1
10
-2.19999999999996
20
9.88169304970984
30
0
41
1
10
-2.19999999999987
20
9.44771865839314
30
0
41
1
10
-2.20000000000005
20
9.08043848955612
30
0
41
1
10
-2.19999999999999
20
8.78327689677781
30
0
41
1
10
-2.20000000000005
20
8.55871419535623
30
0
41
1
10
-2.1999999999999
20
8.33247380011304
30
0
41
1
10
-2.19999999999996
20
8.10455852701506
30
0
41
1
10
-2.20000000000005
20
7.87497060194664
30
0
41
1
10
-2.20000000000002
20
7.64371283673128
30
0
41
1
10
-2.19999999999987
20
7.41078884464241
30
0
41
1
10
-2.19999999999999
20
7.17620220160032
30
0
41
1
10
-2.19999999999996
20
6.93995692090425
30
0
41
1
10
-2.19999999999993
20
6.70205758660666
30
0
41
1
10
-2.20000000000005
20
6.46250918569623
30
0
41
1
10
-2.20000000000005
20
6.22131784000132
30
0
41
1
10
-2.19999999999993
20
5.97849049576263
30
0
41
1
10
-2.19999999999987
20
5.7340352157583
30
0
41
1
10
-2.20000000000005
20
5.48796107357271
30
0
41
1
10
-2.19999999999993
20
5.24027911118978
30
0
41
1
10
-2.19999999999993
20
5.03253661023493
30
0
41
1
10
-2.19999999999993
20
4.86557359122415
30
0
41
1
10
-2.19999999999996
20
4.73994908127332
30
0
41
1
10
-2.20000000000007
20
4.61393371339023
30
0
41
1
10
-2.19999999999993
20
4.44540774959782
30
0
41
1
10
-2.20000000000005
20
4.23375652596869
30
0
41
1
10
-2.19999999999996
20
4.02083961713782
30
0
41
1
10
-2.20000000000005
20
3.84978439152428
30
0
41
1
10
-2.20000000000007
20
3.72111342731077
30
0
41
1
10
-2.1999999999999
20
3.59207749308624
30
0
41
1
10
-2.20000000000007
20
3.41956369464552
30
0
41
1
10
-2.19999999999993
20
3.24629481959218
30
0
41
1
10
-2.19999999999999
20
3.07238361507393
30
0
41
1
10
-2.19999999999999
20
2.94160046512798
30
0
41
1
10
-2.19999999999987
20
2.81048647644627
30
0
41
1
10
-2.20000000000002
20
2.67904892732187
30
0
41
1
10
-2.19999999999996
20
2.54729562722184
30
0
41
1
10
-2.20000000000007
20
2.41523551097498
30
0
41
1
10
-2.20000000000002
20
2.28287740252168
30
0
41
1
10
-2.19999999999993
20
2.15023166945252
30
0
41
1
10
-2.19999999999993
20
2.01730873413069
30
0
41
1
10
-2.19999999999999
20
1.88412021099802
30
0
41
1
10
-2.20000000000002
20
1.7506784185436
30
0
41
1
10
-2.19999999999996
20
1.61699634722078
30
0
41
1
10
-2.20000000000007
20
1.48308821885644
30
0
41
1
10
-2.19999999999993
20
1.34896859254377
30
0
41
1
10
-2.20000000000007
20
1.21465350310547
30
0
41
1
10
-2.20000000000002
20
1.08015921626895
30
0
41
1
10
-2.20000000000002
20
0.94550344266284
30
0
41
1
10
-2.19999999999996
20
0.810704113119158
30
0
41
1
10
-2.2000000000001
20
0.675780421912407
30
0
41
1
10
-2.20000000000002
20
0.540751787789674
30
0
41
1
10
-2.19999999999999
20
0.405638599099007
30
0
41
1
10
-2.20000000000007
20
0.270461428271489
30
0
41
1
10
-2.19999999999999
20
0.135241462279907
30
0
41
1
10
-2.20000000000005
20
-5.3654787E-09
30
0
41
1
10
-2.19999999999996
20
-0.135241472589968
30
0
41
1
10
-2.19999999999996
20
-0.270461437853811
30
0
41
1
10
-2.19999999999996
20
-0.40563860890785
30
0
41
1
10
-2.19999999999996
20
-0.540751798686443
30
0
41
1
10
-2.19999999999996
20
-0.675780432522203
30
0
41
1
10
-2.19999999999996
20
-0.810704122044882
30
0
41
1
10
-2.19999999999993
20
-0.945503451789477
30
0
41
1
10
-2.19999999999999
20
-1.08015922751386
30
0
41
1
10
-2.19999999999996
20
-1.21465351395381
30
0
41
1
10
-2.20000000000005
20
-1.3489686004649
30
0
41
1
10
-2.20000000000007
20
-1.48308822685561
30
0
41
1
10
-2.20000000000002
20
-1.61699635855214
30
0
41
1
10
-2.20000000000007
20
-1.75067843002708
30
0
41
1
10
-2.20000000000005
20
-1.88412021847037
30
0
41
1
10
-2.19999999999993
20
-2.01730874020458
30
0
41
1
10
-2.1999999999999
20
-2.15023167925048
30
0
41
1
10
-2.20000000000002
20
-2.28287741513995
30
0
41
1
10
-2.20000000000007
20
-2.41523552035429
30
0
41
1
10
-2.2000000000001
20
-2.54729563151909
30
0
41
1
10
-2.19999999999993
20
-2.67904893291691
30
0
41
1
10
-2.20000000000002
20
-2.8104864876961
30
0
41
1
10
-2.20000000000002
20
-2.94160047796305
30
0
41
1
10
-2.20000000000005
20
-3.07238362297491
30
0
41
1
10
-2.19999999999999
20
-3.2462948197568
30
0
41
1
10
-2.20000000000007
20
-3.41956370437853
30
0
41
1
10
-2.19999999999999
20
-3.59207750684843
30
0
41
1
10
-2.19999999999996
20
-3.72111343644579
30
0
41
1
10
-2.20000000000005
20
-3.84978439330663
30
0
41
1
10
-2.20000000000005
20
-4.02083961748895
30
0
41
1
10
-2.19999999999999
20
-4.23375654375474
30
0
41
1
10
-2.19999999999999
20
-4.4454077575958
30
0
41
1
10
-2.20000000000002
20
-4.61393371339858
30
0
41
1
10
-2.20000000000002
20
-4.73994907984493
30
0
41
1
10
-2.20000000000007
20
-4.86557359653648
30
0
41
1
10
-2.20000000000005
20
-5.03253662624775
30
0
41
1
10
-2.19999999999999
20
-5.24027911954087
30
0
41
1
10
-2.20000000000002
20
-5.48796106514416
30
0
41
1
10
-2.20000000000002
20
-5.73403522651981
30
0
41
1
10
-2.20000000000007
20
-5.97849051253718
30
0
41
1
10
-2.20000000000005
20
-6.2213178348909
30
0
41
1
10
-2.19999999999999
20
-6.46250917346819
30
0
41
1
10
-2.20000000000007
20
-6.70205756880276
30
0
41
1
10
-2.20000000000005
20
-6.93995689241021
30
0
41
1
10
-2.19999999999996
20
-7.17620223308299
30
0
41
1
10
-2.20000000000005
20
-7.41078904293681
30
0
41
1
10
-2.2000000000001
20
-7.64371312168007
30
0
41
1
10
-2.20000000000007
20
-7.87497052861906
30
0
41
1
10
-2.19999999999999
20
-8.10455846042146
30
0
41
1
10
-2.19999999999996
20
-8.33247384441506
30
0
41
1
10
-2.19999999999999
20
-8.55871423477029
30
0
41
1
10
-2.2000000000001
20
-8.78327691067389
30
0
41
1
10
-2.20000000000005
20
-9.08043846702645
30
0
41
1
10
-2.20000000000013
20
-9.44771866001548
30
0
41
1
10
-2.20000000000007
20
-9.8816930552818
30
0
41
1
10
-2.20000000000005
20
-10.2377183913446
30
0
41
1
10
-2.19999999999996
20
-10.5191258633122
30
0
41
1
10
-2.20000000000005
20
-10.7284951094205
30
0
41
1
10
-2.19999999999999
20
-10.9361655882296
30
0
41
1
10
-2.20000000000007
20
-11.1421359694816
30
0
41
1
10
-2.19999999999999
20
-11.3464032666246
30
0
41
1
10
-2.20000000000013
20
-11.5489655840493
30
0
41
1
10
-2.19999999999999
20
-11.7498207382014
30
0
41
1
10
-2.20000000000005
20
-12.015335258712
30
0
41
1
10
-2.20000000000002
20
-12.2774598396549
30
0
41
1
10
-2.20000000000005
20
-12.5361142561417
30
0
41
1
10
-2.19999999999996
20
-12.7283927892775
30
0
41
1
10
-2.20000000000002
20
-12.9189467887917
30
0
41
1
10
-2.20000000000005
20
-13.1077737445536
30
0
41
1
10
-2.20000000000019
20
-13.2948705838033
30
0
41
1
10
-2.20000000000013
20
-13.4802328404437
30
0
41
1
10
-2.20000000000005
20
-13.6638579908945
30
0
41
1
10
-2.20000000000002
20
-13.8457420356779
30
0
41
1
10
-2.20000000000002
20
-14.0258803815961
30
0
41
1
10
-2.20000000000005
20
-14.2042701267483
30
0
41
1
10
-2.20000000000007
20
-14.3809064511142
30
0
41
1
10
-2.19999999999999
20
-14.6140681792699
30
0
41
1
10
-2.19999999999999
20
-14.8437340716545
30
0
41
1
10
-2.20000000000013
20
-15.069828938707
30
0
41
1
10
-2.20000000000005
20
-15.2935559429894
30
0
41
1
10
-2.20000000000005
20
-15.5137443309019
30
0
41
1
10
-2.19999999999999
20
-15.7303232767804
30
0
41
1
10
-2.20000000000013
20
-15.8909649274652
30
0
41
1
10
-2.20000000000013
20
-16.0498023362736
30
0
41
1
10
-2.20000000000005
20
-16.2591647559546
30
0
41
1
10
-2.2000000000001
20
-16.4649171124642
30
0
41
1
10
-2.20000000000005
20
-16.6669873047369
30
0
41
1
10
-2.20000000000002
20
-16.8167085043733
30
0
41
1
10
-2.20000000000016
20
-16.9645862898263
30
0
41
1
10
-2.20000000000005
20
-17.1592828976246
30
0
41
1
10
-2.20000000000007
20
-17.3502835148978
30
0
41
1
10
-2.20000000000007
20
-17.5375147595291
30
0
41
1
10
-2.2000000000001
20
-17.6760604389849
30
0
41
1
10
-2.20000000000007
20
-17.8127154575359
30
0
41
1
10
-2.2000000000001
20
-17.9923842415008
30
0
41
1
10
-2.20000000000016
20
-18.1682547291305
30
0
41
1
10
-2.20000000000005
20
-18.3402522143585
30
0
41
1
10
-2.2000000000001
20
-18.4673177032105
30
0
41
1
10
-2.20000000000002
20
-18.592436107322
30
0
41
1
10
-2.2000000000001
20
-18.7566457425985
30
0
41
1
10
-2.20000000000007
20
-18.9169371900014
30
0
41
1
10
-2.20000000000016
20
-19.0732305996173
30
0
41
1
10
-2.20000000000002
20
-19.1884526890886
30
0
41
1
10
-2.2000000000001
20
-19.3016611759422
30
0
41
1
10
-2.20000000000002
20
-19.4499005391959
30
0
41
1
10
-2.20000000000007
20
-19.5940785255287
30
0
41
1
10
-2.2000000000001
20
-19.7341104289282
30
0
41
1
10
-2.20000000000013
20
-19.8370589164794
30
0
41
1
10
-2.20000000000005
20
-19.9379146863562
30
0
41
1
10
-2.20000000000005
20
-20.0366640227897
30
0
41
1
10
-2.2000000000001
20
-20.1332899031449
30
0
41
1
10
-2.2000000000001
20
-20.2277776697998
30
0
41
1
10
-2.19999999999999
20
-20.3201119082526
30
0
41
1
10
-2.20000000000013
20
-20.4102747220553
30
0
41
1
10
-2.19999999999999
20
-20.4982502752195
30
0
41
1
10
-2.19999999999999
20
-20.5840212474557
30
0
41
1
10
-2.20000000000005
20
-20.6675682022903
30
0
41
1
10
-2.20000000000007
20
-20.7488739108726
30
0
41
1
10
-2.20000000000002
20
-20.8279188375297
30
0
41
1
10
-2.20000000000005
20
-20.9302657657863
30
0
41
1
10
-2.20000000000013
20
-21.0280237880877
30
0
41
1
10
-2.20000000000016
20
-21.1210800961779
30
0
41
1
10
-2.2000000000001
20
-21.1885090211437
30
0
41
1
10
-2.20000000000022
20
-21.2535469320082
30
0
41
1
10
-2.20000000000016
20
-21.3161704250342
30
0
41
1
10
-2.20000000000007
20
-21.3763547664479
30
0
41
1
10
-2.20000000000005
20
-21.4533087676776
30
0
41
1
10
-2.20000000000005
20
-21.5252891448139
30
0
41
1
10
-2.2000000000001
20
-21.5921615531195
30
0
41
1
10
-2.20000000000013
20
-21.639739791663
30
0
41
1
10
-2.20000000000019
20
-21.6847072964972
30
0
41
1
10
-2.20000000000016
20
-21.7411389990571
30
0
41
1
10
-2.20000000000002
20
-21.7922265879071
30
0
41
1
10
-2.19999999999999
20
-21.8378144981282
30
0
41
1
10
-2.20000000000016
20
-21.8692221254413
30
0
41
1
10
-2.20000000000007
20
-21.8978063777088
30
0
41
1
10
-2.20000000000022
20
-21.9235254752889
30
0
41
1
10
-2.20000000000005
20
-21.9463373508772
30
0
41
1
10
-2.20000000000013
20
-21.9661972037605
30
0
41
1
10
-2.20000000000013
20
-21.9830583809742
30
0
41
1
10
-2.20000000000007
20
-21.9968726399856
30
0
41
1
10
-2.20000000000005
20
-22.0069885195934
30
0
41
1
10
-2.20000000000007
20
-22.0117698390633
30
0
41
1
10
-2.20000000000007
20
-22.013572332481
30
0
0
SPLINE
5
169
100
AcDbEntity
8
SK1
62
256
6
ByLayer
370
18
48
1
60
0
100
AcDbSpline
70
4
71
2
72
6
73
3
40
0
40
0
40
0
40
1
40
1
40
1
41
1
10
-36.5000000000001
20
-21.1521177089664
30
0
41
1
10
-19.3499999999701
20
-21.5828554470538
30
0
41
1
10
-2.20000000000005
20
-22.0135928951587
30
0
0
SPLINE
5
16A
100
AcDbEntity
8
SK1
62
256
6
ByLayer
370
18
48
1
60
0
100
AcDbSpline
70
4
71
2
72
6
73
3
40
0
40
0
40
0
40
1
40
1
40
1
41
1
10
-2.19999999999999
20
22.0135927638553
30
0
41
1
10
-19.349999999987
20
21.5828539542125
30
0
41
1
10
-36.5000000000001
20
21.1521149580213
30
0
0
SPLINE
5
16B
100
AcDbEntity
8
SK1
62
256
6
ByLayer
370
18
48
1
60
0
100
AcDbSpline
70
4
71
3
72
295
73
291
40
0
40
0
40
0
40
0
40
0.002967800176638
40
0.0065435708887499
40
0.0101193416008618
40
0.0136951123129737
40
0.0172708830250856
40
0.0208466537371974
40
0.0279981951614212
40
0.035149736585645
40
0.0423012780098688
40
0.0458770487219806
40
0.0494528194340925
40
0.0530285901462044
40
0.0566043608583163
40
0.0637559022825401
40
0.0673316729946519
40
0.0709074437067638
40
0.0744832144188757
40
0.0780589851309876
40
0.0816347558430995
40
0.0852105265552114
40
0.0923620679794351
40
0.095937838691547
40
0.0995136094036589
40
0.103089380115771
40
0.106665150827883
40
0.110240921539994
40
0.113816692252106
40
0.117392462964218
40
0.12096823367633
40
0.124544004388442
40
0.128119775100554
40
0.131695545812666
40
0.135271316524778
40
0.13884708723689
40
0.142422857949002
40
0.149574399373225
40
0.153150170085337
40
0.156725940797449
40
0.158513826153505
40
0.160301711509561
40
0.163877482221673
40
0.171029023645897
40
0.174604794358008
40
0.17818056507012
40
0.181756335782232
40
0.185332106494344
40
0.192483647918568
40
0.19605941863068
40
0.199635189342792
40
0.201423074698847
40
0.203210960054904
40
0.206786730767015
40
0.213938272191239
40
0.217514042903351
40
0.221089813615463
40
0.224665584327575
40
0.228241355039687
40
0.235392896463911
40
0.238968667176022
40
0.242544437888134
40
0.24433232324419
40
0.246120208600246
40
0.249695979312358
40
0.25327175002447
40
0.256847520736582
40
0.258635406092638
40
0.260423291448694
40
0.263999062160805
40
0.267574832872917
40
0.271150603585029
40
0.274726374297141
40
0.278302145009253
40
0.281877915721365
40
0.285453686433477
40
0.289029457145589
40
0.292605227857701
40
0.296180998569813
40
0.299756769281924
40
0.303332539994036
40
0.306908310706148
40
0.31048408141826
40
0.314059852130372
40
0.321211393554596
40
0.324787164266708
40
0.32836293497882
40
0.331938705690931
40
0.335514476403043
40
0.339090247115155
40
0.342666017827267
40
0.346241788539379
40
0.349817559251491
40
0.356969100675715
40
0.364120642099938
40
0.371272183524162
40
0.374847954236274
40
0.378423724948386
40
0.381999495660498
40
0.38557526637261
40
0.389151037084721
40
0.392726807796833
40
0.396302578508945
40
0.399878349221057
40
0.403454119933169
40
0.407029890645281
40
0.410605661357393
40
0.414181432069505
40
0.417757202781616
40
0.421332973493728
40
0.42490874420584
40
0.428484514917952
40
0.432060285630064
40
0.43384817098612
40
0.435636056342176
40
0.437423941698232
40
0.439211827054288
40
0.4427875977664
40
0.446363368478512
40
0.448151253834568
40
0.449939139190624
40
0.45172702454668
40
0.453514909902735
40
0.457090680614847
40
0.458878565970903
40
0.460666451326959
40
0.462454336683015
40
0.464242222039071
40
0.466030107395127
40
0.467817992751183
40
0.469605878107239
40
0.471393763463295
40
0.473181648819351
40
0.474969534175407
40
0.476757419531463
40
0.478545304887519
40
0.480333190243575
40
0.482121075599631
40
0.483908960955686
40
0.485696846311742
40
0.487484731667798
40
0.489272617023854
40
0.49106050237991
40
0.492848387735966
40
0.494636273092022
40
0.496424158448078
40
0.498212043804134
40
0.49999992916019
40
0.501787814516246
40
0.503575699872302
40
0.505363585228358
40
0.507151470584414
40
0.50893935594047
40
0.510727241296526
40
0.512515126652582
40
0.514303012008637
40
0.516090897364693
40
0.517878782720749
40
0.519666668076805
40
0.521454553432861
40
0.523242438788917
40
0.525030324144973
40
0.526818209501029
40
0.528606094857085
40
0.530393980213141
40
0.532181865569197
40
0.533969750925253
40
0.535757636281309
40
0.537545521637365
40
0.53933340699342
40
0.541121292349476
40
0.542909177705532
40
0.546484948417644
40
0.5482728337737
40
0.550060719129756
40
0.551848604485812
40
0.553636489841868
40
0.55721226055398
40
0.560788031266092
40
0.562575916622148
40
0.564363801978204
40
0.56615168733426
40
0.567939572690316
40
0.571515343402427
40
0.575091114114539
40
0.578666884826651
40
0.582242655538763
40
0.585818426250875
40
0.589394196962987
40
0.592969967675099
40
0.596545738387211
40
0.600121509099322
40
0.603697279811435
40
0.607273050523546
40
0.610848821235658
40
0.61442459194777
40
0.618000362659882
40
0.621576133371994
40
0.625151904084106
40
0.628727674796218
40
0.635879216220441
40
0.643030757644665
40
0.650182299068889
40
0.653758069781001
40
0.657333840493113
40
0.660909611205225
40
0.664485381917336
40
0.668061152629448
40
0.67163692334156
40
0.675212694053672
40
0.678788464765784
40
0.685940006190008
40
0.68951577690212
40
0.693091547614232
40
0.696667318326343
40
0.700243089038455
40
0.703818859750567
40
0.707394630462679
40
0.710970401174791
40
0.714546171886903
40
0.718121942599015
40
0.721697713311127
40
0.725273484023238
40
0.72884925473535
40
0.736000796159574
40
0.739576566871686
40
0.743152337583798
40
0.750303879008022
40
0.753879649720134
40
0.757455420432245
40
0.761031191144357
40
0.764606961856469
40
0.771758503280693
40
0.775334273992805
40
0.778910044704917
40
0.782485815417028
40
0.78606158612914
40
0.793213127553364
40
0.796788898265476
40
0.800364668977588
40
0.8039404396897
40
0.807516210401812
40
0.814667751826036
40
0.818243522538147
40
0.821819293250259
40
0.825395063962371
40
0.828970834674483
40
0.836122376098707
40
0.839698146810819
40
0.84327391752293
40
0.846849688235043
40
0.850425458947154
40
0.857577000371378
40
0.86115277108349
40
0.864728541795602
40
0.868304312507714
40
0.871880083219826
40
0.875455853931937
40
0.879031624644049
40
0.882607395356161
40
0.886183166068273
40
0.889758936780385
40
0.893334707492497
40
0.896910478204609
40
0.900486248916721
40
0.904062019628833
40
0.907637790340945
40
0.914789331765168
40
0.91836510247728
40
0.921940873189392
40
0.925516643901504
40
0.929092414613616
40
0.932668185325728
40
0.93624395603784
40
0.943395497462063
40
0.946971268174175
40
0.950547038886287
40
0.954122809598399
40
0.957698580310511
40
0.964850121734735
40
0.968425892446847
40
0.972001663158958
40
0.97557743387107
40
0.979153204583182
40
0.982728975295294
40
0.986304746007406
40
0.989880516719518
40
0.99345628743163
40
0.997032058143742
40
1
40
1
40
1
40
1
41
1
10
-36.5000000000001
20
21.1520777903933
30
0
41
1
10
-36.5000000000001
20
21.1503457277736
30
0
41
1
10
-36.5000000000001
20
21.1457468095556
30
0
41
1
10
-36.4999999999999
20
21.1360112678939
30
0
41
1
10
-36.5000000000001
20
21.1226986497686
30
0
41
1
10
-36.4999999999998
20
21.1064402158536
30
0
41
1
10
-36.5000000000001
20
21.087279742623
30
0
41
1
10
-36.5000000000001
20
21.0578537406021
30
0
41
1
10
-36.4999999999999
20
21.0141777773226
30
0
41
1
10
-36.4999999999999
20
20.9507130747221
30
0
41
1
10
-36.4999999999998
20
20.8890285612073
30
0
41
1
10
-36.4999999999999
20
20.8342802658873
30
0
41
1
10
-36.5
20
20.7907267804187
30
0
41
1
10
-36.5000000000002
20
20.7446291690676
30
0
41
1
10
-36.4999999999998
20
20.6796864194098
30
0
41
1
10
-36.5000000000001
20
20.6101652524539
30
0
41
1
10
-36.5000000000001
20
20.5353747251345
30
0
41
1
10
-36.5000000000001
20
20.4769783324062
30
0
41
1
10
-36.5000000000002
20
20.4161995895796
30
0
41
1
10
-36.5000000000001
20
20.3530628196559
30
0
41
1
10
-36.5000000000001
20
20.2875896826629
30
0
41
1
10
-36.5000000000001
20
20.1970436182686
30
0
41
1
10
-36.4999999999999
20
20.1024192722934
30
0
41
1
10
-36.4999999999999
20
20.0027815031754
30
0
41
1
10
-36.5000000000001
20
19.925953557262
30
0
41
1
10
-36.5
20
19.8469141355254
30
0
41
1
10
-36.4999999999999
20
19.7656833730653
30
0
41
1
10
-36.4999999999999
20
19.6822775189499
30
0
41
1
10
-36.5
20
19.5967148149266
30
0
41
1
10
-36.5000000000001
20
19.5090135394177
30
0
41
1
10
-36.5000000000001
20
19.4191882696521
30
0
41
1
10
-36.5000000000001
20
19.327256169768
30
0
41
1
10
-36.4999999999999
20
19.2332338822715
30
0
41
1
10
-36.5000000000001
20
19.1371346902896
30
0
41
1
10
-36.4999999999998
20
19.0389746878945
30
0
41
1
10
-36.4999999999998
20
18.9387689752276
30
0
41
1
10
-36.5000000000001
20
18.8022215100793
30
0
41
1
10
-36.4999999999998
20
18.6623317385555
30
0
41
1
10
-36.5000000000002
20
18.5177544284041
30
0
41
1
10
-36.4999999999999
20
18.4260133905723
30
0
41
1
10
-36.4999999999998
20
18.3514175898239
30
0
41
1
10
-36.4999999999998
20
18.2761667145513
30
0
41
1
10
-36.4999999999998
20
18.1428549391527
30
0
41
1
10
-36.4999999999999
20
17.9872696454242
30
0
41
1
10
-36.5000000000001
20
17.8270700659302
30
0
41
1
10
-36.4999999999999
20
17.705205542109
30
0
41
1
10
-36.5000000000001
20
17.581442377073
30
0
41
1
10
-36.4999999999998
20
17.413631143753
30
0
41
1
10
-36.5
20
17.2428939764419
30
0
41
1
10
-36.5000000000001
20
17.0675963011879
30
0
41
1
10
-36.5000000000001
20
16.9568152899199
30
0
41
1
10
-36.4999999999999
20
16.8670089991512
30
0
41
1
10
-36.5
20
16.7765898513276
30
0
41
1
10
-36.4999999999998
20
16.6168596157574
30
0
41
1
10
-36.5000000000001
20
16.4314438788641
30
0
41
1
10
-36.5000000000001
20
16.2414991337769
30
0
41
1
10
-36.5
20
16.0974747197412
30
0
41
1
10
-36.4999999999999
20
15.9516616651349
30
0
41
1
10
-36.4999999999999
20
15.7545445351491
30
0
41
1
10
-36.4999999999998
20
15.5548613446892
30
0
41
1
10
-36.4999999999998
20
15.3506633851321
30
0
41
1
10
-36.5000000000001
20
15.2219600388741
30
0
41
1
10
-36.5000000000002
20
15.1178164480942
30
0
41
1
10
-36.5
20
15.0130920883857
30
0
41
1
10
-36.4999999999999
20
14.881491045121
30
0
41
1
10
-36.4999999999998
20
14.7216281332596
30
0
41
1
10
-36.4999999999999
20
14.5871530954064
30
0
41
1
10
-36.5
20
14.4783873813366
30
0
41
1
10
-36.5
20
14.3690494022437
30
0
41
1
10
-36.5
20
14.2317235183091
30
0
41
1
10
-36.4999999999999
20
14.0650028858779
30
0
41
1
10
-36.5000000000001
20
13.8965816080869
30
0
41
1
10
-36.5000000000001
20
13.726468969447
30
0
41
1
10
-36.5
20
13.5546710496346
30
0
41
1
10
-36.4999999999998
20
13.3811910773124
30
0
41
1
10
-36.4999999999997
20
13.2060373742645
30
0
41
1
10
-36.4999999999999
20
13.0292149133306
30
0
41
1
10
-36.5
20
12.8507281773022
30
0
41
1
10
-36.5
20
12.6705857874605
30
0
41
1
10
-36.4999999999998
20
12.4887914218502
30
0
41
1
10
-36.4999999999999
20
12.3053503484468
30
0
41
1
10
-36.4999999999999
20
12.120270687933
30
0
41
1
10
-36.5000000000001
20
11.9335555855448
30
0
41
1
10
-36.5000000000001
20
11.6819759204352
30
0
41
1
10
-36.5000000000001
20
11.4285505376591
30
0
41
1
10
-36.4999999999998
20
11.1704660874501
30
0
41
1
10
-36.4999999999999
20
10.9756651586942
30
0
41
1
10
-36.4999999999999
20
10.77926367374
30
0
41
1
10
-36.5000000000001
20
10.5812696725588
30
0
41
1
10
-36.5000000000002
20
10.3816871154461
30
0
41
1
10
-36.4999999999999
20
10.1805237104932
30
0
41
1
10
-36.4999999999998
20
9.97778558435036
30
0
41
1
10
-36.4999999999999
20
9.70483576808888
30
0
41
1
10
-36.5000000000001
20
9.361012762722
30
0
41
1
10
-36.5000000000001
20
8.94153438933301
30
0
41
1
10
-36.5000000000001
20
8.58745787193726
30
0
41
1
10
-36.5000000000001
20
8.30004464023617
30
0
41
1
10
-36.4999999999999
20
8.08346950394412
30
0
41
1
10
-36.5000000000002
20
7.86540102208502
30
0
41
1
10
-36.5000000000002
20
7.64585131899651
30
0
41
1
10
-36.5000000000002
20
7.42483318088853
30
0
41
1
10
-36.5000000000001
20
7.20235735193455
30
0
41
1
10
-36.5
20
6.97843755880001
30
0
41
1
10
-36.4999999999999
20
6.7530898107133
30
0
41
1
10
-36.5000000000001
20
6.52633035082317
30
0
41
1
10
-36.4999999999999
20
6.29817753233087
30
0
41
1
10
-36.5000000000002
20
6.0686502244493
30
0
41
1
10
-36.4999999999999
20
5.83776884649433
30
0
41
1
10
-36.4999999999999
20
5.60555660448861
30
0
41
1
10
-36.4999999999999
20
5.37203985998684
30
0
41
1
10
-36.4999999999998
20
5.13724579696893
30
0
41
1
10
-36.4999999999998
20
4.90120595303745
30
0
41
1
10
-36.5000000000001
20
4.70396583147428
30
0
41
1
10
-36.5000000000001
20
4.54469638576873
30
0
41
1
10
-36.4999999999999
20
4.42533999597069
30
0
41
1
10
-36.4999999999998
20
4.3056997229541
30
0
41
1
10
-36.5000000000001
20
4.14529336499885
30
0
41
1
10
-36.5000000000002
20
3.94531865595238
30
0
41
1
10
-36.5000000000001
20
3.74444957084992
30
0
41
1
10
-36.4999999999998
20
3.58224076118009
30
0
41
1
10
-36.5000000000001
20
3.46078958963551
30
0
41
1
10
-36.4999999999998
20
3.33910702605124
30
0
41
1
10
-36.4999999999999
20
3.17597085922367
30
0
41
1
10
-36.4999999999999
20
3.01425651604583
30
0
41
1
10
-36.4999999999999
20
2.85023149996022
30
0
41
1
10
-36.4999999999998
20
2.72752154931192
30
0
41
1
10
-36.5000000000001
20
2.60463052157485
30
0
41
1
10
-36.5000000000001
20
2.48157378937663
30
0
41
1
10
-36.5
20
2.35835621123061
30
0
41
1
10
-36.4999999999999
20
2.23499061660075
30
0
41
1
10
-36.4999999999998
20
2.11148761081361
30
0
41
1
10
-36.5000000000002
20
1.98785451527681
30
0
41
1
10
-36.4999999999999
20
1.8641063212412
30
0
41
1
10
-36.4999999999999
20
1.74024827700848
30
0
41
1
10
-36.4999999999999
20
1.61629526151529
30
0
41
1
10
-36.5
20
1.4922531004199
30
0
41
1
10
-36.4999999999998
20
1.36813478148963
30
0
41
1
10
-36.5000000000001
20
1.243947322228
30
0
41
1
10
-36.4999999999999
20
1.11970117534887
30
0
41
1
10
-36.4999999999998
20
0.995403485642981
30
0
41
1
10
-36.5000000000001
20
0.871062917068684
30
0
41
1
10
-36.5
20
0.746686102657975
30
0
41
1
10
-36.4999999999999
20
0.622280124115861
30
0
41
1
10
-36.4999999999999
20
0.497850420758482
30
0
41
1
10
-36.4999999999999
20
0.373402935182241
30
0
41
1
10
-36.5
20
0.248942238793376
30
0
41
1
10
-36.4999999999999
20
0.124473257201203
30
0
41
1
10
-36.5
20
9.2464063E-09
30
0
41
1
10
-36.5000000000001
20
-0.124473254673774
30
0
41
1
10
-36.5000000000002
20
-0.248942266430362
30
0
41
1
10
-36.5000000000001
20
-0.373402960091113
30
0
41
1
10
-36.5000000000001
20
-0.4978504007901
30
0
41
1
10
-36.5000000000001
20
-0.622280094010392
30
0
41
1
10
-36.5000000000001
20
-0.746686131491401
30
0
41
1
10
-36.4999999999998
20
-0.871062970095068
30
0
41
1
10
-36.4999999999999
20
-0.99540346823062
30
0
41
1
10
-36.5000000000001
20
-1.11970111692656
30
0
41
1
10
-36.5000000000001
20
-1.24394734076782
30
0
41
1
10
-36.4999999999999
20
-1.36813486147491
30
0
41
1
10
-36.4999999999999
20
-1.4922531064299
30
0
41
1
10
-36.4999999999999
20
-1.61629518356935
30
0
41
1
10
-36.4999999999999
20
-1.74024825464127
30
0
41
1
10
-36.5000000000001
20
-1.86410640329132
30
0
41
1
10
-36.4999999999999
20
-1.9878545804884
30
0
41
1
10
-36.5
20
-2.11148756075883
30
0
41
1
10
-36.5000000000002
20
-2.2349905278605
30
0
41
1
10
-36.5000000000001
20
-2.358356227982
30
0
41
1
10
-36.4999999999999
20
-2.48157389743901
30
0
41
1
10
-36.5000000000001
20
-2.60463057106799
30
0
41
1
10
-36.4999999999999
20
-2.72752148004796
30
0
41
1
10
-36.5000000000002
20
-2.85023140656204
30
0
41
1
10
-36.4999999999999
20
-3.01425656877103
30
0
41
1
10
-36.5000000000001
20
-3.1759709599375
30
0
41
1
10
-36.5000000000001
20
-3.33910698167932
30
0
41
1
10
-36.4999999999999
20
-3.46078948211144
30
0
41
1
10
-36.4999999999998
20
-3.58224072191848
30
0
41
1
10
-36.4999999999999
20
-3.74444967050337
30
0
41
1
10
-36.5000000000001
20
-3.94531869048123
30
0
41
1
10
-36.5
20
-4.14529326648039
30
0
41
1
10
-36.5
20
-4.30569969171856
30
0
41
1
10
-36.5
20
-4.42534006396764
30
0
41
1
10
-36.5000000000001
20
-4.54469650094583
30
0
41
1
10
-36.4999999999999
20
-4.70396584910498
30
0
41
1
10
-36.5000000000001
20
-4.90120586463593
30
0
41
1
10
-36.4999999999998
20
-5.13724581146533
30
0
41
1
10
-36.5000000000001
20
-5.37203995090783
30
0
41
1
10
-36.5
20
-5.60555655529333
30
0
41
1
10
-36.4999999999999
20
-5.83776875015016
30
0
41
1
10
-36.5000000000001
20
-6.06865017711183
30
0
41
1
10
-36.5000000000002
20
-6.29817748211633
30
0
41
1
10
-36.4999999999999
20
-6.52633051401975
30
0
41
1
10
-36.4999999999998
20
-6.75309051279766
30
0
41
1
10
-36.5000000000001
20
-6.97843834484902
30
0
41
1
10
-36.5000000000002
20
-7.20235684280914
30
0
41
1
10
-36.5000000000001
20
-7.42483229470724
30
0
41
1
10
-36.4999999999999
20
-7.64585158611558
30
0
41
1
10
-36.5000000000001
20
-7.86540128403698
30
0
41
1
10
-36.5000000000001
20
-8.0834694583157
30
0
41
1
10
-36.5000000000001
20
-8.30004452993862
30
0
41
1
10
-36.5000000000001
20
-8.5874578259693
30
0
41
1
10
-36.5000000000001
20
-8.94153442741811
30
0
41
1
10
-36.5000000000001
20
-9.36101273737572
30
0
41
1
10
-36.5000000000001
20
-9.70483575174791
30
0
41
1
10
-36.5000000000002
20
-9.97778564072286
30
0
41
1
10
-36.5
20
-10.1805237146599
30
0
41
1
10
-36.5
20
-10.3816870614502
30
0
41
1
10
-36.5000000000002
20
-10.5812696339214
30
0
41
1
10
-36.5000000000002
20
-10.7792636942324
30
0
41
1
10
-36.5
20
-10.9756652058484
30
0
41
1
10
-36.5000000000002
20
-11.1704660987633
30
0
41
1
10
-36.5000000000001
20
-11.4285504962002
30
0
41
1
10
-36.5000000000001
20
-11.6819759007752
30
0
41
1
10
-36.5000000000003
20
-11.9335556252711
30
0
41
1
10
-36.5000000000002
20
-12.1202707134411
30
0
41
1
10
-36.5000000000001
20
-12.305350332075
30
0
41
1
10
-36.5
20
-12.4887913848281
30
0
41
1
10
-36.5
20
-12.6705857704289
30
0
41
1
10
-36.5000000000002
20
-12.8507281979535
30
0
41
1
10
-36.5000000000001
20
-13.0292149436135
30
0
41
1
10
-36.5000000000001
20
-13.2060373895954
30
0
41
1
10
-36.5
20
-13.381191143136
30
0
41
1
10
-36.5000000000001
20
-13.5546713888897
30
0
41
1
10
-36.5000000000002
20
-13.7264696827891
30
0
41
1
10
-36.4999999999999
20
-13.9536769173598
30
0
41
1
10
-36.5000000000001
20
-14.1763485768089
30
0
41
1
10
-36.5000000000001
20
-14.3967384349213
30
0
41
1
10
-36.5000000000002
20
-14.6148460432233
30
0
41
1
10
-36.5
20
-14.8284315021103
30
0
41
1
10
-36.4999999999999
20
-15.0396227184094
30
0
41
1
10
-36.5000000000002
20
-15.1960147192178
30
0
41
1
10
-36.5
20
-15.3506631330603
30
0
41
1
10
-36.5000000000002
20
-15.5548624364718
30
0
41
1
10
-36.5000000000001
20
-15.7545451164333
30
0
41
1
10
-36.5000000000002
20
-15.9516609547092
30
0
41
1
10
-36.4999999999999
20
-16.0974737380163
30
0
41
1
10
-36.5000000000002
20
-16.2414988132776
30
0
41
1
10
-36.5000000000002
20
-16.4314450331349
30
0
41
1
10
-36.5000000000001
20
-16.6168608854208
30
0
41
1
10
-36.5000000000002
20
-16.7995343923803
30
0
41
1
10
-36.5
20
-16.9344844206001
30
0
41
1
10
-36.4999999999999
20
-17.0675955495036
30
0
41
1
10
-36.5000000000002
20
-17.2428947983011
30
0
41
1
10
-36.5
20
-17.4136313821346
30
0
41
1
10
-36.5000000000001
20
-17.5814422063199
30
0
41
1
10
-36.5000000000002
20
-17.7052052466275
30
0
41
1
10
-36.5000000000002
20
-17.8270699155306
30
0
41
1
10
-36.5000000000002
20
-17.9872703841191
30
0
41
1
10
-36.5000000000003
20
-18.142856246554
30
0
41
1
10
-36.4999999999999
20
-18.2953166794046
30
0
41
1
10
-36.4999999999999
20
-18.4075180436266
30
0
41
1
10
-36.5000000000002
20
-18.5177535555588
30
0
41
1
10
-36.5000000000003
20
-18.6623326618873
30
0
41
1
10
-36.5
20
-18.8022222651528
30
0
41
1
10
-36.5000000000002
20
-18.9387686023434
30
0
41
1
10
-36.5000000000001
20
-19.0389739868784
30
0
41
1
10
-36.5000000000004
20
-19.1371342717781
30
0
41
1
10
-36.5000000000001
20
-19.2332339353273
30
0
41
1
10
-36.5000000000001
20
-19.3272562516112
30
0
41
1
10
-36.5000000000001
20
-19.4191882978896
30
0
41
1
10
-36.5000000000001
20
-19.5090135437129
30
0
41
1
10
-36.5000000000002
20
-19.5967148362677
30
0
41
1
10
-36.5000000000002
20
-19.682277552196
30
0
41
1
10
-36.5000000000001
20
-19.7656833992672
30
0
41
1
10
-36.5000000000002
20
-19.8469141406672
30
0
41
1
10
-36.5000000000001
20
-19.9259535527377
30
0
41
1
10
-36.5000000000001
20
-20.0027815100318
30
0
41
1
10
-36.5000000000002
20
-20.1024193061388
30
0
41
1
10
-36.5000000000001
20
-20.1970436522846
30
0
41
1
10
-36.5000000000001
20
-20.2875896816238
30
0
41
1
10
-36.5000000000001
20
-20.3530628162378
30
0
41
1
10
-36.5000000000001
20
-20.4161996091985
30
0
41
1
10
-36.5000000000001
20
-20.4769783724372
30
0
41
1
10
-36.5000000000002
20
-20.5353747607015
30
0
41
1
10
-36.5000000000001
20
-20.6101652553121
30
0
41
1
10
-36.5000000000001
20
-20.6796864153792
30
0
41
1
10
-36.5000000000001
20
-20.744629208042
30
0
41
1
10
-36.5000000000001
20
-20.7907268231735
30
0
41
1
10
-36.5000000000002
20
-20.8342802793505
30
0
41
1
10
-36.5000000000001
20
-20.8890285523334
30
0
41
1
10
-36.5000000000001
20
-20.9382580424266
30
0
41
1
10
-36.5
20
-20.9824409225427
30
0
41
1
10
-36.5000000000001
20
-21.012801723486
30
0
41
1
10
-36.5000000000001
20
-21.0404207944708
30
0
41
1
10
-36.5
20
-21.065259630333
30
0
41
1
10
-36.5000000000002
20
-21.0872797892673
30
0
41
1
10
-36.5000000000001
20
-21.1064402531504
30
0
41
1
10
-36.5000000000001
20
-21.1226986516188
30
0
41
1
10
-36.5000000000001
20
-21.1360112646482
30
0
41
1
10
-36.5000000000001
20
-21.1457469925486
30
0
41
1
10
-36.5000000000001
20
-21.1503460580795
30
0
41
1
10
-36.5000000000002
20
-21.1520782097111
30
0
0
SPLINE
5
16C
100
AcDbEntity
8
SK1
62
256
6
ByLayer
370
18
48
1
60
0
100
AcDbSpline
70
4
71
3
72
299
73
295
40
0
40
0
40
0
40
0
40
0.0028851669239537
40
0.0064107277687572
40
0.0099362886135607
40
0.0134618494583642
40
0.0169874103031676
40
0.0205129711479711
40
0.0240385319927746
40
0.0275640928375781
40
0.0346152145271851
40
0.0416663362167921
40
0.0487174579063991
40
0.0522430187512026
40
0.0557685795960061
40
0.0592941404408096
40
0.062819701285613
40
0.06987082297522
40
0.0733963838200235
40
0.076921944664827
40
0.0804475055096305
40
0.083973066354434
40
0.0874986271992375
40
0.091024188044041
40
0.0980753097336479
40
0.101600870578451
40
0.105126431423255
40
0.108651992268058
40
0.112177553112862
40
0.115703113957665
40
0.119228674802469
40
0.122754235647272
40
0.126279796492076
40
0.129805357336879
40
0.133330918181683
40
0.136856479026486
40
0.14038203987129
40
0.143907600716093
40
0.147433161560897
40
0.154484283250504
40
0.158009844095307
40
0.161535404940111
40
0.163298185362513
40
0.165060965784914
40
0.168586526629718
40
0.175637648319325
40
0.179163209164128
40
0.182688770008932
40
0.186214330853735
40
0.189739891698539
40
0.196791013388146
40
0.200316574232949
40
0.203842135077753
40
0.205604915500155
40
0.207367695922556
40
0.21089325676736
40
0.217944378456967
40
0.22146993930177
40
0.224995500146574
40
0.228521060991377
40
0.232046621836181
40
0.239097743525788
40
0.242623304370591
40
0.246148865215395
40
0.247911645637796
40
0.249674426060198
40
0.253199986905002
40
0.256725547749805
40
0.260251108594609
40
0.26201388901701
40
0.263776669439412
40
0.267302230284216
40
0.270827791129019
40
0.274353351973822
40
0.277878912818626
40
0.28140447366343
40
0.284930034508233
40
0.288455595353037
40
0.29198115619784
40
0.295506717042643
40
0.299032277887447
40
0.302557838732251
40
0.306083399577054
40
0.309608960421857
40
0.313134521266661
40
0.316660082111465
40
0.323711203801071
40
0.327236764645875
40
0.330762325490679
40
0.334287886335482
40
0.337813447180285
40
0.341339008025089
40
0.344864568869892
40
0.348390129714696
40
0.351915690559499
40
0.358966812249106
40
0.366017933938713
40
0.37306905562832
40
0.376594616473124
40
0.380120177317927
40
0.383645738162731
40
0.387171299007534
40
0.390696859852338
40
0.394222420697141
40
0.397747981541945
40
0.401273542386748
40
0.404799103231552
40
0.408324664076355
40
0.411850224921159
40
0.415375785765962
40
0.418901346610766
40
0.422426907455569
40
0.425952468300373
40
0.429478029145176
40
0.43300358998998
40
0.434766370412381
40
0.436529150834783
40
0.438291931257185
40
0.440054711679587
40
0.44358027252439
40
0.447105833369194
40
0.448868613791595
40
0.450631394213997
40
0.452394174636399
40
0.454156955058801
40
0.457682515903604
40
0.459445296326006
40
0.461208076748408
40
0.462970857170809
40
0.464733637593211
40
0.466496418015613
40
0.468259198438015
40
0.470021978860416
40
0.471784759282818
40
0.47354753970522
40
0.475310320127622
40
0.477073100550023
40
0.478835880972425
40
0.480598661394827
40
0.482361441817229
40
0.48412422223963
40
0.485887002662032
40
0.487649783084434
40
0.489412563506835
40
0.491175343929237
40
0.492938124351639
40
0.494700904774041
40
0.496463685196443
40
0.498226465618844
40
0.499989246041246
40
0.501752026463648
40
0.50351480688605
40
0.505277587308451
40
0.507040367730853
40
0.508803148153255
40
0.510565928575657
40
0.512328708998058
40
0.51409148942046
40
0.515854269842862
40
0.517617050265264
40
0.519379830687665
40
0.521142611110067
40
0.522905391532469
40
0.52466817195487
40
0.526430952377272
40
0.528193732799674
40
0.529956513222076
40
0.531719293644477
40
0.533482074066879
40
0.535244854489281
40
0.537007634911683
40
0.538770415334084
40
0.540533195756486
40
0.542295976178888
40
0.545821537023691
40
0.547584317446093
40
0.549347097868495
40
0.551109878290897
40
0.552872658713298
40
0.556398219558102
40
0.559923780402905
40
0.561686560825307
40
0.563449341247709
40
0.565212121670111
40
0.566974902092512
40
0.570500462937316
40
0.574026023782119
40
0.577551584626923
40
0.581077145471726
40
0.58460270631653
40
0.588128267161333
40
0.591653828006137
40
0.59517938885094
40
0.598704949695744
40
0.602230510540547
40
0.605756071385351
40
0.609281632230154
40
0.612807193074958
40
0.616332753919761
40
0.619858314764565
40
0.623383875609368
40
0.626909436454172
40
0.633960558143779
40
0.641011679833386
40
0.648062801522993
40
0.651588362367796
40
0.6551139232126
40
0.658639484057403
40
0.662165044902207
40
0.66569060574701
40
0.669216166591814
40
0.672741727436617
40
0.676267288281421
40
0.683318409971028
40
0.686843970815831
40
0.690369531660635
40
0.693895092505438
40
0.697420653350242
40
0.700946214195045
40
0.704471775039849
40
0.707997335884652
40
0.711522896729456
40
0.715048457574259
40
0.718574018419063
40
0.722099579263866
40
0.72562514010867
40
0.732676261798277
40
0.73620182264308
40
0.739727383487884
40
0.74677850517749
40
0.750304066022294
40
0.753829626867097
40
0.757355187711901
40
0.760880748556705
40
0.767931870246311
40
0.771457431091115
40
0.774982991935918
40
0.778508552780722
40
0.782034113625525
40
0.789085235315132
40
0.792610796159936
40
0.796136357004739
40
0.799661917849543
40
0.803187478694346
40
0.810238600383953
40
0.813764161228757
40
0.81728972207356
40
0.820815282918364
40
0.824340843763167
40
0.831391965452774
40
0.834917526297578
40
0.838443087142381
40
0.841968647987185
40
0.845494208831988
40
0.852545330521595
40
0.856070891366399
40
0.859596452211202
40
0.863122013056006
40
0.866647573900809
40
0.870173134745613
40
0.873698695590416
40
0.87722425643522
40
0.880749817280023
40
0.884275378124827
40
0.88780093896963
40
0.891326499814434
40
0.894852060659237
40
0.898377621504041
40
0.901903182348844
40
0.908954304038451
40
0.912479864883255
40
0.916005425728058
40
0.919530986572862
40
0.923056547417665
40
0.926582108262469
40
0.930107669107272
40
0.937158790796879
40
0.940684351641683
40
0.944209912486486
40
0.94773547333129
40
0.951261034176093
40
0.9583121558657
40
0.961837716710504
40
0.965363277555307
40
0.968888838400111
40
0.972414399244914
40
0.975939960089718
40
0.979465520934521
40
0.982991081779324
40
0.986516642624128
40
0.990042203468931
40
0.993567764313735
40
0.997093325158538
40
1
40
1
40
1
40
1
41
1
10
-1.99503997793943
20
21.8251859380857
30
0
41
1
10
-1.9950399779394
20
21.8251769951372
30
0
41
1
10
-1.9950399779394
20
21.8243420961537
30
0
41
1
10
-1.99503997793926
20
21.8202836860758
30
0
41
1
10
-1.9950399779394
20
21.8127830441423
30
0
41
1
10
-1.9950399779394
20
21.8021565364937
30
0
41
1
10
-1.99503997793931
20
21.788455733033
30
0
41
1
10
-1.99503997793909
20
21.7717308612526
30
0
41
1
10
-1.99503997793917
20
21.7520291985819
30
0
41
1
10
-1.99503997793914
20
21.7218385059107
30
0
41
1
10
-1.99503997793912
20
21.6769140218914
30
0
41
1
10
-1.99503997793923
20
21.6117670092986
30
0
41
1
10
-1.99503997793934
20
21.5484022523456
30
0
41
1
10
-1.99503997793926
20
21.4923512863896
30
0
41
1
10
-1.99503997793931
20
21.4477036012611
30
0
41
1
10
-1.99503997793931
20
21.4004602751574
30
0
41
1
10
-1.99503997793934
20
21.3340243579835
30
0
41
1
10
-1.99503997793914
20
21.2626002065084
30
0
41
1
10
-1.99503997793934
20
21.1861355372815
30
0
41
1
10
-1.99503997793923
20
21.126355615456
30
0
41
1
10
-1.99503997793917
20
21.0641493981766
30
0
41
1
10
-1.99503997793928
20
20.9995415089614
30
0
41
1
10
-1.99503997793912
20
20.9325549476397
30
0
41
1
10
-1.99503997793926
20
20.8400664063017
30
0
41
1
10
-1.99503997793943
20
20.7430171949634
30
0
41
1
10
-1.99503997793914
20
20.6412830606924
30
0
41
1
10
-1.9950399779394
20
20.5627395849406
30
0
41
1
10
-1.99503997793928
20
20.4819464711494
30
0
41
1
10
-1.99503997793946
20
20.3989234016946
30
0
41
1
10
-1.99503997793926
20
20.3136873945746
30
0
41
1
10
-1.9950399779392
20
20.2262576082901
30
0
41
1
10
-1.99503997793914
20
20.136651569995
30
0
41
1
10
-1.99503997793909
20
20.0448848271876
30
0
41
1
10
-1.99503997793928
20
19.9509751576253
30
0
41
1
10
-1.9950399779392
20
19.8549383078337
30
0
41
1
10
-1.9950399779392
20
19.7567886026658
30
0
41
1
10
-1.9950399779392
20
19.6565424313982
30
0
41
1
10
-1.9950399779392
20
19.5542139601407
30
0
41
1
10
-1.99503997793923
20
19.4149698127943
30
0
41
1
10
-1.99503997793934
20
19.2717622924358
30
0
41
1
10
-1.9950399779394
20
19.1243520606767
30
0
41
1
10
-1.9950399779392
20
19.0305969699326
30
0
41
1
10
-1.99503997793931
20
18.9545457436667
30
0
41
1
10
-1.99503997793937
20
18.8778283452342
30
0
41
1
10
-1.99503997793931
20
18.7418485706134
30
0
41
1
10
-1.99503997793923
20
18.5826225030747
30
0
41
1
10
-1.9950399779392
20
18.4193199892891
30
0
41
1
10
-1.99503997793937
20
18.2949375082748
30
0
41
1
10
-1.99503997793926
20
18.168618838162
30
0
41
1
10
-1.99503997793926
20
17.9975681157065
30
0
41
1
10
-1.9950399779392
20
17.8228588844704
30
0
41
1
10
-1.99503997793923
20
17.6441795672679
30
0
41
1
10
-1.99503997793931
20
17.5309981410349
30
0
41
1
10
-1.99503997793914
20
17.4394590341184
30
0
41
1
10
-1.99503997793934
20
17.347294549845
30
0
41
1
10
-1.99503997793923
20
17.1843913435575
30
0
41
1
10
-1.99503997793926
20
16.9946548235123
30
0
41
1
10
-1.99503997793917
20
16.8010333841432
30
0
41
1
10
-1.99503997793923
20
16.654027023888
30
0
41
1
10
-1.99503997793923
20
16.5051894370888
30
0
41
1
10
-1.99503997793923
20
16.3042392155797
30
0
41
1
10
-1.99503997793934
20
16.0998599858611
30
0
41
1
10
-1.99503997793917
20
15.8916662065007
30
0
41
1
10
-1.99503997793923
20
15.7601264684357
30
0
41
1
10
-1.9950399779392
20
15.6539352235828
30
0
41
1
10
-1.99503997793934
20
15.5471478788446
30
0
41
1
10
-1.9950399779394
20
15.4126292313157
30
0
41
1
10
-1.99503997793923
20
15.2493853238092
30
0
41
1
10
-1.99503997793909
20
15.1119089381336
30
0
41
1
10
-1.99503997793923
20
15.0009760777421
30
0
41
1
10
-1.99503997793923
20
14.8894548819648
30
0
41
1
10
-1.9950399779394
20
14.7490386600657
30
0
41
1
10
-1.99503997793912
20
14.578735707937
30
0
41
1
10
-1.99503997793912
20
14.4066808882547
30
0
41
1
10
-1.9950399779394
20
14.2328806917251
30
0
41
1
10
-1.9950399779394
20
14.0573388809366
30
0
41
1
10
-1.99503997793917
20
13.8800596938692
30
0
41
1
10
-1.99503997793928
20
13.7010488098078
30
0
41
1
10
-1.99503997793937
20
13.5203096364966
30
0
41
1
10
-1.99503997793926
20
13.3378467409435
30
0
41
1
10
-1.99503997793931
20
13.1536651576332
30
0
41
1
10
-1.99503997793928
20
12.967767664355
30
0
41
1
10
-1.99503997793923
20
12.7801589185362
30
0
41
1
10
-1.99503997793926
20
12.5908431445087
30
0
41
1
10
-1.99503997793934
20
12.3998230002593
30
0
41
1
10
-1.9950399779392
20
12.1427688173785
30
0
41
1
10
-1.9950399779392
20
11.8826118718574
30
0
41
1
10
-1.99503997793923
20
11.6187779306708
30
0
41
1
10
-1.99503997793928
20
11.4192921752592
30
0
41
1
10
-1.9950399779392
20
11.2181233733031
30
0
41
1
10
-1.9950399779392
20
11.0152750188843
30
0
41
1
10
-1.9950399779392
20
10.8107494713072
30
0
41
1
10
-1.99503997793934
20
10.6045508021233
30
0
41
1
10
-1.9950399779394
20
10.3966814407575
30
0
41
1
10
-1.99503997793926
20
10.117187003324
30
0
41
1
10
-1.9950399779392
20
9.76392166117964
30
0
41
1
10
-1.9950399779392
20
9.33322608836659
30
0
41
1
10
-1.99503997793931
20
8.96893242084872
30
0
41
1
10
-1.99503997793926
20
8.67397578579329
30
0
41
1
10
-1.99503997793923
20
8.45121977200665
30
0
41
1
10
-1.99503997793931
20
8.22682776167508
30
0
41
1
10
-1.99503997793923
20
8.00080467620251
30
0
41
1
10
-1.9950399779392
20
7.7731551300873
30
0
41
1
10
-1.9950399779392
20
7.54388372935196
30
0
41
1
10
-1.99503997793923
20
7.31299637479279
30
0
41
1
10
-1.99503997793926
20
7.08049945458959
30
0
41
1
10
-1.99503997793923
20
6.84639974828056
30
0
41
1
10
-1.99503997793928
20
6.61070495432847
30
0
41
1
10
-1.99503997793926
20
6.37342319970764
30
0
41
1
10
-1.9950399779392
20
6.13456384015998
30
0
41
1
10
-1.99503997793917
20
5.89413749968631
30
0
41
1
10
-1.99503997793917
20
5.65215638001951
30
0
41
1
10
-1.99503997793917
20
5.4086336510897
30
0
41
1
10
-1.99503997793934
20
5.16358499073453
30
0
41
1
10
-1.9950399779392
20
4.95821799704328
30
0
41
1
10
-1.99503997793926
20
4.7929951683827
30
0
41
1
10
-1.99503997793923
20
4.66878842905288
30
0
41
1
10
-1.9950399779392
20
4.54421502813727
30
0
41
1
10
-1.99503997793931
20
4.37752561794167
30
0
41
1
10
-1.99503997793928
20
4.16851547631603
30
0
41
1
10
-1.9950399779394
20
3.95832363498786
30
0
41
1
10
-1.9950399779394
20
3.78926935835429
30
0
41
1
10
-1.9950399779394
20
3.66223142121845
30
0
41
1
10
-1.99503997793931
20
3.53485872774334
30
0
41
1
10
-1.9950399779392
20
3.36446603264318
30
0
41
1
10
-1.99503997793934
20
3.19381064862634
30
0
41
1
10
-1.99503997793923
20
3.02213557666002
30
0
41
1
10
-1.99503997793923
20
2.89317848373017
30
0
41
1
10
-1.99503997793934
20
2.76392442628179
30
0
41
1
10
-1.99503997793923
20
2.63438251344513
30
0
41
1
10
-1.99503997793931
20
2.50455988721885
30
0
41
1
10
-1.99503997793934
20
2.37446636334937
30
0
41
1
10
-1.99503997793926
20
2.24411116870436
30
0
41
1
10
-1.99503997793934
20
2.11350398186622
30
0
41
1
10
-1.99503997793937
20
1.98265625862308
30
0
41
1
10
-1.99503997793923
20
1.85157817347516
30
0
41
1
10
-1.99503997793934
20
1.7202826240536
30
0
41
1
10
-1.99503997793928
20
1.58878098022367
30
0
41
1
10
-1.99503997793923
20
1.45708718468359
30
0
41
1
10
-1.9950399779394
20
1.32521409071345
30
0
41
1
10
-1.99503997793923
20
1.19317647053171
30
0
41
1
10
-1.99503997793934
20
1.06098852682445
30
0
41
1
10
-1.99503997793923
20
0.928665923975757
30
0
41
1
10
-1.99503997793926
20
0.796224037396257
30
0
41
1
10
-1.99503997793931
20
0.663679321648374
30
0
41
1
10
-1.99503997793926
20
0.53104803350621
30
0
41
1
10
-1.99503997793926
20
0.398347293868937
30
0
41
1
10
-1.99503997793923
20
0.265594055935196
30
0
41
1
10
-1.99503997793928
20
0.132805828560237
30
0
41
1
10
-1.99503997793926
20
-2.0604602E-09
30
0
41
1
10
-1.99503997793923
20
-0.13280583596682
30
0
41
1
10
-1.99503997793926
20
-0.265594069601519
30
0
41
1
10
-1.99503997793934
20
-0.398347307093388
30
0
41
1
10
-1.99503997793937
20
-0.53104803742184
30
0
41
1
10
-1.9950399779392
20
-0.663679323049109
30
0
41
1
10
-1.99503997793928
20
-0.796224050825003
30
0
41
1
10
-1.99503997793931
20
-0.92866594303203
30
0
41
1
10
-1.99503997793923
20
-1.06098853158753
30
0
41
1
10
-1.99503997793928
20
-1.19317646571201
30
0
41
1
10
-1.99503997793923
20
-1.32521410103644
30
0
41
1
10
-1.99503997793934
20
-1.45708720896525
30
0
41
1
10
-1.99503997793928
20
-1.58878099035152
30
0
41
1
10
-1.99503997793926
20
-1.7202826153092
30
0
41
1
10
-1.99503997793937
20
-1.85157817419824
30
0
41
1
10
-1.99503997793928
20
-1.98265628188184
30
0
41
1
10
-1.99503997793923
20
-2.11350400419812
30
0
41
1
10
-1.99503997793926
20
-2.24411116714697
30
0
41
1
10
-1.99503997793923
20
-2.37446635053544
30
0
41
1
10
-1.99503997793937
20
-2.50455989433323
30
0
41
1
10
-1.9950399779394
20
-2.63438254221697
30
0
41
1
10
-1.99503997793928
20
-2.76392444618185
30
0
41
1
10
-1.99503997793926
20
-2.89317847799561
30
0
41
1
10
-1.99503997793931
20
-3.02213556164861
30
0
41
1
10
-1.99503997793931
20
-3.19381066067948
30
0
41
1
10
-1.99503997793931
20
-3.36446606295522
30
0
41
1
10
-1.99503997793923
20
-3.53485872835628
30
0
41
1
10
-1.99503997793931
20
-3.66223140396664
30
0
41
1
10
-1.99503997793934
20
-3.789269350853
30
0
41
1
10
-1.99503997793926
20
-3.95832365779981
30
0
41
1
10
-1.99503997793937
20
-4.16851549788913
30
0
41
1
10
-1.99503997793931
20
-4.37752560184686
30
0
41
1
10
-1.99503997793937
20
-4.54421502107871
30
0
41
1
10
-1.99503997793926
20
-4.6687884433278
30
0
41
1
10
-1.99503997793923
20
-4.79299519854527
30
0
41
1
10
-1.99503997793931
20
-4.95821801342225
30
0
41
1
10
-1.99503997793931
20
-5.16358497720134
30
0
41
1
10
-1.99503997793934
20
-5.40863364784659
30
0
41
1
10
-1.99503997793934
20
-5.65215640891222
30
0
41
1
10
-1.99503997793928
20
-5.89413750153929
30
0
41
1
10
-1.99503997793937
20
-6.13456381441384
30
0
41
1
10
-1.9950399779394
20
-6.37342317953826
30
0
41
1
10
-1.9950399779394
20
-6.6107049291937
30
0
41
1
10
-1.99503997793937
20
-6.84639976314458
30
0
41
1
10
-1.99503997793934
20
-7.08049963775386
30
0
41
1
10
-1.99503997793943
20
-7.31299670602999
30
0
41
1
10
-1.99503997793931
20
-7.54388383469123
30
0
41
1
10
-1.99503997793934
20
-7.7731548729025
30
0
41
1
10
-1.99503997793928
20
-8.0008046850906
30
0
41
1
10
-1.99503997793928
20
-8.22682785520692
30
0
41
1
10
-1.99503997793937
20
-8.45121979218519
30
0
41
1
10
-1.99503997793928
20
-8.67397577159846
30
0
41
1
10
-1.99503997793946
20
-8.9689323930175
30
0
41
1
10
-1.99503997793928
20
-9.33322609823659
30
0
41
1
10
-1.99503997793934
20
-9.76392165975835
30
0
41
1
10
-1.99503997793937
20
-10.1171869828061
30
0
41
1
10
-1.99503997793931
20
-10.3966814549586
30
0
41
1
10
-1.99503997793923
20
-10.6045508126063
30
0
41
1
10
-1.99503997793937
20
-10.8107494592902
30
0
41
1
10
-1.99503997793928
20
-11.0152749978462
30
0
41
1
10
-1.99503997793934
20
-11.2181233670389
30
0
41
1
10
-1.99503997793934
20
-11.4192921870092
30
0
41
1
10
-1.99503997793931
20
-11.6187779427601
30
0
41
1
10
-1.99503997793937
20
-11.8826118620779
30
0
41
1
10
-1.99503997793934
20
-12.1427687977971
30
0
41
1
10
-1.99503997793943
20
-12.39982300717
30
0
41
1
10
-1.99503997793931
20
-12.5908431584254
30
0
41
1
10
-1.99503997793934
20
-12.7801589212448
30
0
41
1
10
-1.99503997793943
20
-12.9677676529032
30
0
41
1
10
-1.99503997793934
20
-13.1536651432542
30
0
41
1
10
-1.99503997793928
20
-13.3378467396348
30
0
41
1
10
-1.99503997793943
20
-13.5203096469928
30
0
41
1
10
-1.99503997793943
20
-13.7010488212406
30
0
41
1
10
-1.99503997793937
20
-13.8800597145162
30
0
41
1
10
-1.99503997793937
20
-14.0573389921213
30
0
41
1
10
-1.99503997793934
20
-14.2328810143211
30
0
41
1
10
-1.9950399779394
20
-14.4646959102748
30
0
41
1
10
-1.99503997793937
20
-14.6927797943808
30
0
41
1
10
-1.99503997793937
20
-14.9175842595471
30
0
41
1
10
-1.99503997793934
20
-15.1400402265273
30
0
41
1
10
-1.99503997793928
20
-15.3587351142266
30
0
41
1
10
-1.99503997793923
20
-15.574095422854
30
0
41
1
10
-1.99503997793943
20
-15.7337758557258
30
0
41
1
10
-1.99503997793928
20
-15.8916657661056
30
0
41
1
10
-1.99503997793946
20
-16.0998603532657
30
0
41
1
10
-1.99503997793937
20
-16.3042398246231
30
0
41
1
10
-1.99503997793946
20
-16.5051894037978
30
0
41
1
10
-1.99503997793931
20
-16.6540265683948
30
0
41
1
10
-1.99503997793931
20
-16.8010329188421
30
0
41
1
10
-1.99503997793943
20
-16.9946550481208
30
0
41
1
10
-1.9950399779394
20
-17.1843924611907
30
0
41
1
10
-1.99503997793943
20
-17.3705928023911
30
0
41
1
10
-1.99503997793943
20
-17.5083251903718
30
0
41
1
10
-1.99503997793943
20
-17.6441786252733
30
0
41
1
10
-1.99503997793931
20
-17.8228590748675
30
0
41
1
10
-1.99503997793937
20
-17.9975683374732
30
0
41
1
10
-1.99503997793937
20
-18.1686188521771
30
0
41
1
10
-1.99503997793937
20
-18.2949373683467
30
0
41
1
10
-1.99503997793934
20
-18.4193198181251
30
0
41
1
10
-1.99503997793934
20
-18.5826226298872
30
0
41
1
10
-1.99503997793934
20
-18.7418497326446
30
0
41
1
10
-1.99503997793948
20
-18.8972761707095
30
0
41
1
10
-1.99503997793946
20
-19.0118150097951
30
0
41
1
10
-1.99503997793931
20
-19.1243510467917
30
0
41
1
10
-1.9950399779394
20
-19.2717625055688
30
0
41
1
10
-1.99503997793934
20
-19.4149705131239
30
0
41
1
10
-1.99503997793957
20
-19.5542140249084
30
0
41
1
10
-1.99503997793937
20
-19.6565420567611
30
0
41
1
10
-1.99503997793934
20
-19.7567881415466
30
0
41
1
10
-1.99503997793948
20
-19.8549381550125
30
0
41
1
10
-1.99503997793934
20
-19.9509751416387
30
0
41
1
10
-1.99503997793931
20
-20.0448848362118
30
0
41
1
10
-1.99503997793926
20
-20.1366515718165
30
0
41
1
10
-1.99503997793931
20
-20.2262576202058
30
0
41
1
10
-1.99503997793934
20
-20.3136874196729
30
0
41
1
10
-1.99503997793954
20
-20.3989234300878
30
0
41
1
10
-1.99503997793943
20
-20.4819464863243
30
0
41
1
10
-1.99503997793934
20
-20.5627395868942
30
0
41
1
10
-1.9950399779394
20
-20.6412830627251
30
0
41
1
10
-1.99503997793931
20
-20.7430172190698
30
0
41
1
10
-1.9950399779394
20
-20.8400664428987
30
0
41
1
10
-1.99503997793943
20
-20.9325549572361
30
0
41
1
10
-1.99503997793937
20
-20.9995415068112
30
0
41
1
10
-1.99503997793948
20
-21.0641494085109
30
0
41
1
10
-1.99503997793954
20
-21.1263556466611
30
0
41
1
10
-1.99503997793931
20
-21.1861355753665
30
0
41
1
10
-1.99503997793937
20
-21.2626002183758
30
0
41
1
10
-1.99503997793937
20
-21.3340243512751
30
0
41
1
10
-1.99503997793943
20
-21.4004603045826
30
0
41
1
10
-1.9950399779394
20
-21.4477036445723
30
0
41
1
10
-1.9950399779394
20
-21.4923513092323
30
0
41
1
10
-1.99503997793937
20
-21.5484022410125
30
0
41
1
10
-1.99503997793948
20
-21.5990695510923
30
0
41
1
10
-1.99503997793957
20
-21.6443396610231
30
0
41
1
10
-1.99503997793926
20
-21.6755105092645
30
0
41
1
10
-1.99503997793951
20
-21.7038764495605
30
0
41
1
10
-1.99503997793937
20
-21.7293964429163
30
0
41
1
10
-1.99503997793937
20
-21.7520292420694
30
0
41
1
10
-1.99503997793934
20
-21.7717309018815
30
0
41
1
10
-1.99503997793937
20
-21.7884557380591
30
0
41
1
10
-1.99503997793946
20
-21.8021565310045
30
0
41
1
10
-1.99503997793934
20
-21.8127830851056
30
0
41
1
10
-1.99503997793937
20
-21.8202838734722
30
0
41
1
10
-1.99503997793948
20
-21.8243512218608
30
0
41
1
10
-1.99503997793943
20
-21.8251826733393
30
0
41
1
10
-1.99503997793943
20
-21.8251860616932
30
0
0
SPLINE
5
16D
100
AcDbEntity
8
SK1
62
256
6
ByLayer
370
18
48
1
60
0
100
AcDbSpline
70
4
71
3
72
13
73
9
40
0
40
0
40
0
40
0
40
0.239456135763445
40
0.368359721933391
40
0.499998984020886
40
0.631638415283524
40
0.760542467777986
40
1
40
1
40
1
40
1
41
1
10
-2.2000000000001
20
-22.0200986606753
30
0
41
1
10
-2.19909198642284
20
-21.9940411845601
30
0
41
1
10
-2.19103284106956
20
-21.9566686002237
30
0
41
1
10
-2.16563592203355
20
-21.9104494263858
30
0
41
1
10
-2.1388637867928
20
-21.8791678725252
30
0
41
1
10
-2.10627712749889
20
-21.8540005023228
30
0
41
1
10
-2.05884064234095
20
-21.8309566998544
30
0
41
1
10
-2.02111030873041
20
-21.8247844448324
30
0
41
1
10
-1.99503997793946
20
-21.8251860847749
30
0
0
SPLINE
5
16E
100
AcDbEntity
8
SK1
62
256
6
ByLayer
370
18
48
1
60
0
100
AcDbSpline
70
4
71
3
72
13
73
9
40
0
40
0
40
0
40
0
40
0.239457532153182
40
0.368361584623392
40
0.500001015876379
40
0.631640277971422
40
0.760543864164551
40
1
40
1
40
1
40
1
41
1
10
-1.9950399779394
20
21.8251861015557
30
0
41
1
10
-2.02111030873178
20
21.8247844616137
30
0
41
1
10
-2.05884064234354
20
21.8309567166394
30
0
41
1
10
-2.10627712750087
20
21.8540005191232
30
0
41
1
10
-2.13886378679464
20
21.8791678893423
30
0
41
1
10
-2.16563592203494
20
21.9104494432233
30
0
41
1
10
-2.19103284107055
20
21.9566686170921
30
0
41
1
10
-2.19909198642381
20
21.9940412014511
30
0
41
1
10
-2.19999999999996
20
22.0200986775814
30
0
0
SPLINE
5
16F
100
AcDbEntity
8
SK1
62
256
6
ByLayer
370
18
48
1
60
0
100
AcDbSpline
70
4
71
3
72
36
73
32
40
0
40
0
40
0
40
0
40
0.125
40
0.125
40
0.25
40
0.25
40
0.3125
40
0.3125
40
0.328125
40
0.328125
40
0.34375
40
0.375
40
0.375
40
0.4375
40
0.4375
40
0.5
40
0.5625
40
0.5625
40
0.625
40
0.625
40
0.640625
40
0.640625
40
0.65625
40
0.65625
40
0.6875
40
0.6875
40
0.75
40
0.75
40
0.875
40
0.875
40
1
40
1
40
1
40
1
41
1
10
-1.30710678118646
20
4.81101329740287
30
0
41
1
10
-1.3746132962855
20
4.42906267002712
30
0
41
1
10
-1.43842288357246
20
4.04270825974379
30
0
41
1
10
-1.55482767545834
20
3.25964078646078
30
0
41
1
10
-1.60743482920452
20
2.8629346370391
30
0
41
1
10
-1.67407835953026
20
2.25842147165619
30
0
41
1
10
-1.69423470862265
20
2.05533443764037
30
0
41
1
10
-1.71637274266504
20
1.79927439089843
30
0
41
1
10
-1.72065008204447
20
1.7479177700701
30
0
41
1
10
-1.72887105179788
20
1.64516013968378
30
0
41
1
10
-1.74069991111549
20
1.49101028656861
30
0
41
1
10
-1.75097754535133
20
1.33681958665863
30
0
41
1
10
-1.76936887151865
20
1.02838234860934
30
0
41
1
10
-1.77873517948879
20
0.822682936651205
30
0
41
1
10
-1.79127438872604
20
0.411128998005608
30
0
41
1
10
-1.79761805851317
20
-0.0005800878332138
30
0
41
1
10
-1.79124730100827
20
-0.412604451011731
30
0
41
1
10
-1.778653113107
20
-0.824784664534718
30
0
41
1
10
-1.76924536681716
20
-1.0309526803745
30
0
41
1
10
-1.75383566430304
20
-1.28875676075248
30
0
41
1
10
-1.75057178042715
20
-1.34032227193504
30
0
41
1
10
-1.74368816007254
20
-1.44346257204984
30
0
41
1
10
-1.7400652836958
20
-1.49507406667257
30
0
41
1
10
-1.72869579779231
20
-1.64963453116886
30
0
41
1
10
-1.72045642660231
20
-1.75222724907025
30
0
41
1
10
-1.69390777409217
20
-2.05873054114883
30
0
41
1
10
-1.67377216548027
20
-2.26136839295072
30
0
41
1
10
-1.60720273884689
20
-2.86469699044159
30
0
41
1
10
-1.55465955887379
20
-3.26082920006917
30
0
41
1
10
-1.43835988164514
20
-4.04307426593758
30
0
41
1
10
-1.3745923318163
20
-4.42918087958239
30
0
41
1
10
-1.30710678118675
20
-4.81101321788418
30
0
0
SPLINE
5
170
100
AcDbEntity
8
SK1
62
256
6
ByLayer
370
18
48
1
60
0
100
AcDbSpline
70
4
71
2
72
6
73
3
40
0
40
0
40
0
40
1
40
1
40
1
41
1
10
-1.99503997793946
20
-21.8251812553753
30
0
41
1
10
-1.19500843340737
20
-21.8452807024746
30
0
41
1
10
-0.394976888875306
20
-21.8653801495791
30
0
0
SPLINE
5
171
100
AcDbEntity
8
SK1
62
256
6
ByLayer
370
18
48
1
60
0
100
AcDbSpline
70
4
71
2
72
6
73
3
40
0
40
0
40
0
40
1
40
1
40
1
41
1
10
-0.394976888875192
20
21.8653802062992
30
0
41
1
10
-1.19500843340728
20
21.8452807593864
30
0
41
1
10
-1.9950399779394
20
21.8251813124782
30
0
0
SPLINE
5
172
100
AcDbEntity
8
SK1
62
256
6
ByLayer
370
18
48
1
60
0
100
AcDbSpline
70
4
71
3
72
111
73
107
40
0
40
0
40
0
40
0
40
0.0023103668906284
40
0.0108509594236334
40
0.0193915519566384
40
0.0279321444896434
40
0.0364727370226484
40
0.0450133295556534
40
0.0535539220886584
40
0.0620945146216634
40
0.0706351071546684
40
0.0791756996876734
40
0.0877162922206784
40
0.0962568847536834
40
0.113338069819693
40
0.130419254885703
40
0.147500439951713
40
0.156041032484718
40
0.164581625017723
40
0.173122217550728
40
0.181662810083733
40
0.190203402616738
40
0.198743995149743
40
0.207284587682748
40
0.215825180215753
40
0.232906365281763
40
0.241446957814768
40
0.249987550347773
40
0.258528142880778
40
0.267068735413783
40
0.275609327946788
40
0.284149920479793
40
0.292690513012798
40
0.301231105545804
40
0.309771698078808
40
0.318312290611813
40
0.326852883144818
40
0.335393475677824
40
0.352474660743833
40
0.361015253276838
40
0.369555845809843
40
0.386637030875853
40
0.395177623408858
40
0.403718215941863
40
0.412258808474869
40
0.420799401007873
40
0.437880586073883
40
0.446421178606888
40
0.454961771139893
40
0.463502363672898
40
0.472042956205903
40
0.489124141271913
40
0.497664733804918
40
0.506205326337923
40
0.514745918870928
40
0.523286511403933
40
0.540367696469943
40
0.548908289002949
40
0.557448881535954
40
0.565989474068959
40
0.574530066601963
40
0.591611251667973
40
0.600151844200978
40
0.608692436733983
40
0.617233029266988
40
0.625773621799994
40
0.642854806866003
40
0.651395399399008
40
0.659935991932013
40
0.668476584465018
40
0.677017176998023
40
0.685557769531028
40
0.694098362064033
40
0.702638954597039
40
0.711179547130044
40
0.719720139663048
40
0.728260732196053
40
0.736801324729058
40
0.745341917262063
40
0.753882509795068
40
0.762423102328074
40
0.779504287394083
40
0.788044879927088
40
0.796585472460093
40
0.805126064993098
40
0.813666657526104
40
0.822207250059109
40
0.830747842592114
40
0.847829027658123
40
0.856369620191128
40
0.864910212724134
40
0.873450805257139
40
0.881991397790144
40
0.899072582856153
40
0.907613175389158
40
0.916153767922163
40
0.924694360455169
40
0.933234952988173
40
0.941775545521179
40
0.950316138054184
40
0.958856730587188
40
0.967397323120193
40
0.975937915653199
40
0.984478508186204
40
0.993019100719209
40
1
40
1
40
1
40
1
41
1
10
-0.394976888875334
20
-6.3269427939297
30
0
41
1
10
-0.394976888875334
20
-6.34849163113907
30
0
41
1
10
-0.394976888875334
20
-6.44960775400912
30
0
41
1
10
-0.394976888875362
20
-6.62954555948863
30
0
41
1
10
-0.394976888875306
20
-6.8656950488801
30
0
41
1
10
-0.394976888875249
20
-7.10023740586408
30
0
41
1
10
-0.394976888875249
20
-7.33316546385936
30
0
41
1
10
-0.394976888875277
20
-7.56447269448574
30
0
41
1
10
-0.394976888875362
20
-7.79415340272942
30
0
41
1
10
-0.394976888875391
20
-8.02220293401987
30
0
41
1
10
-0.394976888875306
20
-8.24861635560848
30
0
41
1
10
-0.394976888875419
20
-8.47338951886371
30
0
41
1
10
-0.394976888875277
20
-8.69651811258549
30
0
41
1
10
-0.394976888875391
20
-8.99192948127936
30
0
41
1
10
-0.394976888875249
20
-9.35683912175983
30
0
41
1
10
-0.39497688887522
20
-9.7882109121748
30
0
41
1
10
-0.394976888875419
20
-10.1420454621769
30
0
41
1
10
-0.394976888875362
20
-10.4219344727076
30
0
41
1
10
-0.394976888875391
20
-10.6301131683676
30
0
41
1
10
-0.394976888875334
20
-10.8366153667066
30
0
41
1
10
-0.394976888875334
20
-11.0414388905991
30
0
41
1
10
-0.394976888875362
20
-11.2445799004537
30
0
41
1
10
-0.394976888875362
20
-11.4460361162834
30
0
41
1
10
-0.394976888875448
20
-11.6458042976884
30
0
41
1
10
-0.394976888875306
20
-11.9099848253352
30
0
41
1
10
-0.394976888875362
20
-12.1705475695385
30
0
41
1
10
-0.394976888875306
20
-12.427931806711
30
0
41
1
10
-0.394976888875334
20
-12.619211487498
30
0
41
1
10
-0.394976888875391
20
-12.8087826250924
30
0
41
1
10
-0.394976888875277
20
-12.9966426041155
30
0
41
1
10
-0.394976888875334
20
-13.1827874489959
30
0
41
1
10
-0.394976888875334
20
-13.3672125455486
30
0
41
1
10
-0.394976888875362
20
-13.5499151547097
30
0
41
1
10
-0.394976888875391
20
-13.7308904478325
30
0
41
1
10
-0.394976888875448
20
-13.9101338677049
30
0
41
1
10
-0.394976888875277
20
-14.0876421688895
30
0
41
1
10
-0.394976888875391
20
-14.2634098807096
30
0
41
1
10
-0.394976888875334
20
-14.4955025482493
30
0
41
1
10
-0.394976888875277
20
-14.7239127068147
30
0
41
1
10
-0.394976888875277
20
-14.9489833053404
30
0
41
1
10
-0.394976888875362
20
-15.171701411915
30
0
41
1
10
-0.394976888875334
20
-15.3907043201102
30
0
41
1
10
-0.394976888875334
20
-15.6063159613101
30
0
41
1
10
-0.394976888875419
20
-15.7661946363951
30
0
41
1
10
-0.394976888875476
20
-15.9242799594927
30
0
41
1
10
-0.394976888875334
20
-16.1327154012234
30
0
41
1
10
-0.394976888875476
20
-16.3373780173448
30
0
41
1
10
-0.394976888875334
20
-16.5385587125242
30
0
41
1
10
-0.394976888875391
20
-16.6875782011066
30
0
41
1
10
-0.394976888875419
20
-16.8347642769
30
0
41
1
10
-0.394976888875391
20
-17.0286080073567
30
0
41
1
10
-0.394976888875362
20
-17.2186059445175
30
0
41
1
10
-0.394976888875419
20
-17.4050188999401
30
0
41
1
10
-0.394976888875362
20
-17.5429190217058
30
0
41
1
10
-0.394976888875391
20
-17.6789377757622
30
0
41
1
10
-0.394976888875419
20
-17.8578220601067
30
0
41
1
10
-0.394976888875306
20
-18.0327708145484
30
0
41
1
10
-0.394976888875419
20
-18.2040166330947
30
0
41
1
10
-0.394976888875391
20
-18.3304892054166
30
0
41
1
10
-0.394976888875391
20
-18.4550234389153
30
0
41
1
10
-0.394976888875362
20
-18.6185132745736
30
0
41
1
10
-0.394976888875334
20
-18.7779598884918
30
0
41
1
10
-0.394976888875391
20
-18.9335651313569
30
0
41
1
10
-0.394976888875362
20
-19.0482448844651
30
0
41
1
10
-0.394976888875419
20
-19.1609196079756
30
0
41
1
10
-0.394976888875448
20
-19.308501814333
30
0
41
1
10
-0.394976888875277
20
-19.4519098709686
30
0
41
1
10
-0.394976888875391
20
-19.5913159811739
30
0
41
1
10
-0.394976888875362
20
-19.6937719762304
30
0
41
1
10
-0.394976888875334
20
-19.7941438028821
30
0
41
1
10
-0.394976888875419
20
-19.892417421123
30
0
41
1
10
-0.394976888875391
20
-19.9885758615909
30
0
41
1
10
-0.394976888875391
20
-20.0826047781419
30
0
41
1
10
-0.394976888875391
20
-20.1744885559187
30
0
41
1
10
-0.394976888875277
20
-20.2642094319839
30
0
41
1
10
-0.394976888875334
20
-20.3517517880635
30
0
41
1
10
-0.394976888875277
20
-20.4370981293669
30
0
41
1
10
-0.394976888875448
20
-20.5202292348051
30
0
41
1
10
-0.394976888875419
20
-20.601128055999
30
0
41
1
10
-0.394976888875362
20
-20.6797749513881
30
0
41
1
10
-0.394976888875476
20
-20.7816354862269
30
0
41
1
10
-0.394976888875476
20
-20.8788308931331
30
0
41
1
10
-0.394976888875448
20
-20.9714365096389
30
0
41
1
10
-0.394976888875476
20
-21.0385142950143
30
0
41
1
10
-0.394976888875362
20
-21.1032108820956
30
0
41
1
10
-0.394976888875419
20
-21.165503175174
30
0
41
1
10
-0.394976888875277
20
-21.2253665102305
30
0
41
1
10
-0.394976888875391
20
-21.3019320788108
30
0
41
1
10
-0.394976888875334
20
-21.3734709318985
30
0
41
1
10
-0.394976888875277
20
-21.4399968999806
30
0
41
1
10
-0.394976888875334
20
-21.487309309675
30
0
41
1
10
-0.394976888875448
20
-21.532022938389
30
0
41
1
10
-0.394976888875391
20
-21.588152400593
30
0
41
1
10
-0.394976888875391
20
-21.6389063892511
30
0
41
1
10
-0.394976888875362
20
-21.6842420425291
30
0
41
1
10
-0.394976888875504
20
-21.7154617242466
30
0
41
1
10
-0.394976888875419
20
-21.7438726893517
30
0
41
1
10
-0.394976888875306
20
-21.7694337460976
30
0
41
1
10
-0.394976888875277
20
-21.792103478096
30
0
41
1
10
-0.394976888875476
20
-21.8118377637543
30
0
41
1
10
-0.394976888875476
20
-21.8285907189996
30
0
41
1
10
-0.394976888875476
20
-21.842314913263
30
0
41
1
10
-0.394976888875561
20
-21.8529599173645
30
0
41
1
10
-0.394976888875391
20
-21.860473951941
30
0
41
1
10
-0.394976888875306
20
-21.8645383990786
30
0
41
1
10
-0.394976888875306
20
-21.8653750861682
30
0
41
1
10
-0.394976888875306
20
-21.8653847937675
30
0
0
SPLINE
5
173
100
AcDbEntity
8
SK1
62
256
6
ByLayer
370
18
48
1
60
0
100
AcDbSpline
70
4
71
3
72
297
73
293
40
0
40
0
40
0
40
0
40
0.0015364582429636
40
0.0050969118261199
40
0.0086573654092762
40
0.0122178189924326
40
0.015778272575589
40
0.0193387261587453
40
0.0228991797419017
40
0.0300200869082144
40
0.0371409940745272
40
0.0442619012408399
40
0.0478223548239963
40
0.0513828084071527
40
0.054943261990309
40
0.0585037155734654
40
0.0656246227397782
40
0.0691850763229346
40
0.0727455299060908
40
0.0763059834892472
40
0.0798664370724035
40
0.0834268906555599
40
0.0869873442387163
40
0.0941082514050291
40
0.0976687049881854
40
0.101229158571342
40
0.104789612154498
40
0.108350065737655
40
0.111910519320811
40
0.115470972903967
40
0.119031426487124
40
0.12259188007028
40
0.126152333653436
40
0.129712787236593
40
0.133273240819749
40
0.136833694402905
40
0.140394147986062
40
0.143954601569218
40
0.151075508735531
40
0.154635962318687
40
0.158196415901844
40
0.159976642693422
40
0.161756869485
40
0.165317323068156
40
0.172438230234469
40
0.175998683817625
40
0.179559137400782
40
0.183119590983938
40
0.186680044567095
40
0.193800951733407
40
0.197361405316564
40
0.20092185889972
40
0.202702085691298
40
0.204482312482876
40
0.208042766066033
40
0.215163673232346
40
0.218724126815502
40
0.222284580398658
40
0.225845033981815
40
0.229405487564971
40
0.236526394731284
40
0.24008684831444
40
0.243647301897597
40
0.245427528689175
40
0.247207755480753
40
0.250768209063909
40
0.254328662647066
40
0.257889116230222
40
0.2596693430218
40
0.261449569813378
40
0.265010023396535
40
0.268570476979691
40
0.272130930562847
40
0.275691384146004
40
0.27925183772916
40
0.282812291312317
40
0.286372744895473
40
0.289933198478629
40
0.293493652061786
40
0.297054105644942
40
0.300614559228098
40
0.304175012811255
40
0.307735466394411
40
0.311295919977567
40
0.314856373560724
40
0.321977280727037
40
0.325537734310193
40
0.329098187893349
40
0.332658641476506
40
0.336219095059662
40
0.339779548642818
40
0.343340002225975
40
0.346900455809131
40
0.350460909392288
40
0.3575818165586
40
0.364702723724913
40
0.371823630891226
40
0.375384084474382
40
0.378944538057539
40
0.382504991640695
40
0.386065445223851
40
0.389625898807008
40
0.393186352390164
40
0.39674680597332
40
0.400307259556477
40
0.403867713139633
40
0.407428166722789
40
0.410988620305946
40
0.414549073889102
40
0.418109527472258
40
0.421669981055415
40
0.425230434638571
40
0.428790888221728
40
0.432351341804884
40
0.434131568596462
40
0.43591179538804
40
0.437692022179619
40
0.439472248971197
40
0.443032702554353
40
0.446593156137509
40
0.448373382929088
40
0.450153609720666
40
0.451933836512244
40
0.453714063303822
40
0.457274516886979
40
0.459054743678557
40
0.460834970470135
40
0.462615197261713
40
0.464395424053291
40
0.46617565084487
40
0.467955877636448
40
0.469736104428026
40
0.471516331219604
40
0.473296558011182
40
0.47507678480276
40
0.476857011594339
40
0.478637238385917
40
0.480417465177495
40
0.482197691969073
40
0.483977918760651
40
0.48575814555223
40
0.487538372343808
40
0.489318599135386
40
0.491098825926964
40
0.492879052718542
40
0.49465927951012
40
0.496439506301699
40
0.498219733093277
40
0.499999959884855
40
0.501780186676433
40
0.503560413468011
40
0.50534064025959
40
0.507120867051168
40
0.508901093842746
40
0.510681320634324
40
0.512461547425902
40
0.51424177421748
40
0.516022001009059
40
0.517802227800637
40
0.519582454592215
40
0.521362681383793
40
0.523142908175371
40
0.52492313496695
40
0.526703361758528
40
0.528483588550106
40
0.530263815341684
40
0.532044042133262
40
0.53382426892484
40
0.535604495716419
40
0.537384722507997
40
0.539164949299575
40
0.540945176091153
40
0.542725402882731
40
0.546285856465888
40
0.548066083257466
40
0.549846310049044
40
0.551626536840622
40
0.5534067636322
40
0.556967217215357
40
0.560527670798513
40
0.562307897590091
40
0.56408812438167
40
0.565868351173248
40
0.567648577964826
40
0.571209031547982
40
0.574769485131139
40
0.578329938714295
40
0.581890392297451
40
0.585450845880608
40
0.589011299463764
40
0.59257175304692
40
0.596132206630077
40
0.599692660213233
40
0.60325311379639
40
0.606813567379546
40
0.610374020962702
40
0.613934474545859
40
0.617494928129015
40
0.621055381712171
40
0.624615835295328
40
0.628176288878484
40
0.635297196044797
40
0.64241810321111
40
0.649539010377423
40
0.653099463960579
40
0.656659917543735
40
0.660220371126892
40
0.663780824710048
40
0.667341278293204
40
0.670901731876361
40
0.674462185459517
40
0.678022639042673
40
0.685143546208986
40
0.688703999792143
40
0.692264453375299
40
0.695824906958455
40
0.699385360541612
40
0.702945814124768
40
0.706506267707924
40
0.710066721291081
40
0.713627174874237
40
0.717187628457393
40
0.72074808204055
40
0.724308535623706
40
0.727868989206863
40
0.734989896373175
40
0.738550349956332
40
0.742110803539488
40
0.749231710705801
40
0.752792164288957
40
0.756352617872114
40
0.75991307145527
40
0.763473525038426
40
0.770594432204739
40
0.774154885787895
40
0.777715339371052
40
0.781275792954208
40
0.784836246537365
40
0.791957153703677
40
0.795517607286834
40
0.79907806086999
40
0.802638514453146
40
0.806198968036303
40
0.813319875202615
40
0.816880328785772
40
0.820440782368928
40
0.824001235952085
40
0.827561689535241
40
0.834682596701554
40
0.83824305028471
40
0.841803503867866
40
0.845363957451023
40
0.848924411034179
40
0.856045318200492
40
0.859605771783648
40
0.863166225366805
40
0.866726678949961
40
0.870287132533117
40
0.873847586116274
40
0.87740803969943
40
0.880968493282586
40
0.884528946865743
40
0.888089400448899
40
0.891649854032055
40
0.895210307615212
40
0.898770761198368
40
0.902331214781525
40
0.905891668364681
40
0.913012575530994
40
0.91657302911415
40
0.920133482697306
40
0.923693936280463
40
0.927254389863619
40
0.930814843446775
40
0.934375297029932
40
0.941496204196245
40
0.945056657779401
40
0.948617111362557
40
0.952177564945714
40
0.95573801852887
40
0.962858925695183
40
0.966419379278339
40
0.969979832861496
40
0.973540286444652
40
0.977100740027808
40
0.980661193610965
40
0.984221647194121
40
0.987782100777277
40
0.991342554360434
40
0.99490300794359
40
0.998463461526747
40
1
40
1
40
1
40
1
41
1
10
-37.9999999999999
20
20.2893878261436
30
0
41
1
10
-37.9999999999999
20
20.2887803346537
30
0
41
1
10
-37.9999999999999
20
20.2864571657179
30
0
41
1
10
-38.0000000000001
20
20.2807871950945
30
0
41
1
10
-38
20
20.2708642252783
30
0
41
1
10
-37.9999999999998
20
20.2580557575389
30
0
41
1
10
-37.9999999999999
20
20.2424031034127
30
0
41
1
10
-37.9999999999999
20
20.2239454925536
30
0
41
1
10
-38.0000000000001
20
20.1955126220403
30
0
41
1
10
-37.9999999999999
20
20.1534581579691
30
0
41
1
10
-38.0000000000001
20
20.092178332427
30
0
41
1
10
-38.0000000000001
20
20.0326760120611
30
0
41
1
10
-38.0000000000001
20
19.9796195423856
30
0
41
1
10
-38.0000000000001
20
19.9374871337367
30
0
41
1
10
-38.0000000000001
20
19.8928775037258
30
0
41
1
10
-37.9999999999998
20
19.8298739849264
30
0
41
1
10
-37.9999999999999
20
19.7628242930465
30
0
41
1
10
-37.9999999999999
20
19.6902080345969
30
0
41
1
10
-37.9999999999998
20
19.6336084813317
30
0
41
1
10
-37.9999999999999
20
19.5746836513969
30
0
41
1
10
-38.0000000000001
20
19.5134574775016
30
0
41
1
10
-37.9999999999999
20
19.449949879624
30
0
41
1
10
-38.0000000000001
20
19.3619265805524
30
0
41
1
10
-37.9999999999999
20
19.2704514952517
30
0
41
1
10
-37.9999999999999
20
19.1735363516594
30
0
41
1
10
-38.0000000000001
20
19.0989364266242
30
0
41
1
10
-38.0000000000001
20
19.022174588421
30
0
41
1
10
-38
20
18.9432715601192
30
0
41
1
10
-38.0000000000002
20
18.8622425921492
30
0
41
1
10
-38.0000000000002
20
18.779104735636
30
0
41
1
10
-38.0000000000002
20
18.6938772447035
30
0
41
1
10
-37.9999999999999
20
18.6065734364564
30
0
41
1
10
-38.0000000000001
20
18.5172096781031
30
0
41
1
10
-38
20
18.4258037757918
30
0
41
1
10
-38
20
18.3323676597216
30
0
41
1
10
-37.9999999999999
20
18.2369170405733
30
0
41
1
10
-38.0000000000001
20
18.1394682315483
30
0
41
1
10
-38
20
18.0064230454642
30
0
41
1
10
-38
20
17.8708421547933
30
0
41
1
10
-38.0000000000001
20
17.7299440627737
30
0
41
1
10
-37.9999999999999
20
17.6408187485728
30
0
41
1
10
-38.0000000000001
20
17.5681131617788
30
0
41
1
10
-38.0000000000001
20
17.4947669133717
30
0
41
1
10
-37.9999999999999
20
17.3649201654159
30
0
41
1
10
-37.9999999999999
20
17.2140632768011
30
0
41
1
10
-38.0000000000001
20
17.0578935907138
30
0
41
1
10
-38.0000000000001
20
16.9392992293063
30
0
41
1
10
-38.0000000000001
20
16.8188549914822
30
0
41
1
10
-37.9999999999998
20
16.6552510003022
30
0
41
1
10
-38
20
16.4896724966033
30
0
41
1
10
-38
20
16.3187666825074
30
0
41
1
10
-37.9999999999999
20
16.2111031772941
30
0
41
1
10
-37.9999999999999
20
16.1235473577609
30
0
41
1
10
-38
20
16.0353949417437
30
0
41
1
10
-37.9999999999999
20
15.8797855584288
30
0
41
1
10
-37.9999999999999
20
15.699981379467
30
0
41
1
10
-37.9999999999998
20
15.514811690714
30
0
41
1
10
-38.0000000000001
20
15.3746600384841
30
0
41
1
10
-37.9999999999998
20
15.2327750536329
30
0
41
1
10
-38
20
15.0406360987565
30
0
41
1
10
-37.9999999999999
20
14.847051824957
30
0
41
1
10
-38.0000000000001
20
14.6480433816339
30
0
41
1
10
-38
20
14.5230237603815
30
0
41
1
10
-37.9999999999999
20
14.4215395322794
30
0
41
1
10
-38.0000000000001
20
14.3194944461194
30
0
41
1
10
-37.9999999999999
20
14.1916826014271
30
0
41
1
10
-37.9999999999999
20
14.0362107113463
30
0
41
1
10
-37.9999999999999
20
13.9056336328642
30
0
41
1
10
-37.9999999999999
20
13.7996824703936
30
0
41
1
10
-38.0000000000001
20
13.6931799140643
30
0
41
1
10
-37.9999999999999
20
13.5598675642286
30
0
41
1
10
-37.9999999999999
20
13.3977994204327
30
0
41
1
10
-38
20
13.2340971553999
30
0
41
1
10
-37.9999999999998
20
13.0687736820566
30
0
41
1
10
-37.9999999999999
20
12.9018380893655
30
0
41
1
10
-37.9999999999998
20
12.7332922951511
30
0
41
1
10
-37.9999999999998
20
12.5631480531084
30
0
41
1
10
-37.9999999999999
20
12.3914123687225
30
0
41
1
10
-37.9999999999999
20
12.2180896154107
30
0
41
1
10
-38.0000000000001
20
12.0431930727573
30
0
41
1
10
-37.9999999999998
20
11.8667275879998
30
0
41
1
10
-37.9999999999999
20
11.6886992220564
30
0
41
1
10
-37.9999999999999
20
11.5091211559415
30
0
41
1
10
-38.0000000000001
20
11.3279971676989
30
0
41
1
10
-37.9999999999999
20
11.0835274575536
30
0
41
1
10
-37.9999999999999
20
10.8388445996825
30
0
41
1
10
-38.0000000000001
20
10.5882272221235
30
0
41
1
10
-37.9999999999998
20
10.3995106478125
30
0
41
1
10
-37.9999999999999
20
10.2093006505114
30
0
41
1
10
-38.0000000000001
20
10.0176111741018
30
0
41
1
10
-37.9999999999998
20
9.82444825814423
30
0
41
1
10
-37.9999999999999
20
9.62982433363788
30
0
41
1
10
-37.9999999999999
20
9.4337503289529
30
0
41
1
10
-38.0000000000001
20
9.16930024978868
30
0
41
1
10
-38.0000000000001
20
8.83774034996827
30
0
41
1
10
-38.0000000000001
20
8.43283016067608
30
0
41
1
10
-37.9999999999998
20
8.09202302704509
30
0
41
1
10
-38.0000000000001
20
7.81440668712003
30
0
41
1
10
-38.0000000000002
20
7.60585888080726
30
0
41
1
10
-38.0000000000001
20
7.39600299493094
30
0
41
1
10
-37.9999999999999
20
7.18486050853957
30
0
41
1
10
-37.9999999999999
20
6.97245482074317
30
0
41
1
10
-38.0000000000001
20
6.75880464755306
30
0
41
1
10
-38.0000000000002
20
6.54393387937569
30
0
41
1
10
-38
20
6.3278710206454
30
0
41
1
10
-38
20
6.11064460524315
30
0
41
1
10
-38.0000000000001
20
5.89228682406835
30
0
41
1
10
-37.9999999999998
20
5.67283049766715
30
0
41
1
10
-38.0000000000001
20
5.45231041402246
30
0
41
1
10
-37.9999999999999
20
5.2307661198839
30
0
41
1
10
-38.0000000000001
20
5.00824236668095
30
0
41
1
10
-37.9999999999999
20
4.78478453894925
30
0
41
1
10
-37.9999999999999
20
4.56044477194379
30
0
41
1
10
-38.0000000000001
20
4.37375931423315
30
0
41
1
10
-38.0000000000001
20
4.22222174308953
30
0
41
1
10
-37.9999999999999
20
4.10916467830566
30
0
41
1
10
-38.0000000000001
20
3.99593123757313
30
0
41
1
10
-37.9999999999999
20
3.84368490764811
30
0
41
1
10
-37.9999999999999
20
3.65544484289489
30
0
41
1
10
-37.9999999999999
20
3.46668355973645
30
0
41
1
10
-37.9999999999998
20
3.31336520651519
30
0
41
1
10
-37.9999999999999
20
3.19916977025284
30
0
41
1
10
-38
20
3.08487718492057
30
0
41
1
10
-38
20
2.93116533478556
30
0
41
1
10
-37.9999999999998
20
2.78106304592134
30
0
41
1
10
-38
20
2.62697343511911
30
0
41
1
10
-38.0000000000001
20
2.51237687493449
30
0
41
1
10
-37.9999999999998
20
2.39774974487256
30
0
41
1
10
-37.9999999999999
20
2.28311555219417
30
0
41
1
10
-38.0000000000001
20
2.1684761897651
30
0
41
1
10
-37.9999999999998
20
2.05384840107473
30
0
41
1
10
-38.0000000000001
20
1.9392445817044
30
0
41
1
10
-37.9999999999999
20
1.8246689917126
30
0
41
1
10
-38
20
1.71014121398477
30
0
41
1
10
-38.0000000000001
20
1.59566009898899
30
0
41
1
10
-37.9999999999999
20
1.48124309885614
30
0
41
1
10
-37.9999999999999
20
1.36688883878057
30
0
41
1
10
-37.9999999999998
20
1.25260906632712
30
0
41
1
10
-37.9999999999999
20
1.13840321986416
30
0
41
1
10
-37.9999999999999
20
1.02427614220758
30
0
41
1
10
-38
20
0.910225811804281
30
0
41
1
10
-38.0000000000001
20
0.7962518009044
30
0
41
1
10
-38
20
0.682349388495709
30
0
41
1
10
-38.0000000000001
20
0.568513483413824
30
0
41
1
10
-38.0000000000001
20
0.454735475949377
30
0
41
1
10
-38.0000000000001
20
0.341006791030423
30
0
41
1
10
-37.9999999999999
20
0.227315919379549
30
0
41
1
10
-37.9999999999999
20
0.113651444289189
30
0
41
1
10
-38.0000000000001
20
2.39311078E-08
30
0
41
1
10
-37.9999999999999
20
-0.113651428861118
30
0
41
1
10
-38
20
-0.227315965161665
30
0
41
1
10
-38.0000000000001
20
-0.341006831114669
30
0
41
1
10
-38
20
-0.454735424962593
30
0
41
1
10
-37.9999999999999
20
-0.568513412391411
30
0
41
1
10
-37.9999999999998
20
-0.682349437336853
30
0
41
1
10
-38.0000000000002
20
-0.796251898048894
30
0
41
1
10
-37.9999999999999
20
-0.910225765592088
30
0
41
1
10
-38.0000000000001
20
-1.02427601417006
30
0
41
1
10
-38.0000000000002
20
-1.13840324907602
30
0
41
1
10
-38
20
-1.25260921865734
30
0
41
1
10
-38.0000000000001
20
-1.36688883944296
30
0
41
1
10
-37.9999999999998
20
-1.48124293103612
30
0
41
1
10
-38.0000000000001
20
-1.59566004663364
30
0
41
1
10
-37.9999999999998
20
-1.71014137238981
30
0
41
1
10
-38.0000000000001
20
-1.82466911261415
30
0
41
1
10
-38.0000000000001
20
-1.93924446866444
30
0
41
1
10
-38.0000000000001
20
-2.05384821372681
30
0
41
1
10
-38.0000000000001
20
-2.16847621903258
30
0
41
1
10
-38.0000000000001
20
-2.28311576323387
30
0
41
1
10
-37.9999999999998
20
-2.39774983280097
30
0
41
1
10
-37.9999999999998
20
-2.5123767231629
30
0
41
1
10
-37.9999999999999
20
-2.62697323991773
30
0
41
1
10
-38.0000000000001
20
-2.781063151469
30
0
41
1
10
-38.0000000000001
20
-2.9311655269338
30
0
41
1
10
-38
20
-3.08487708212559
30
0
41
1
10
-38.0000000000001
20
-3.19916954548975
30
0
41
1
10
-38.0000000000001
20
-3.31336512600515
30
0
41
1
10
-38.0000000000001
20
-3.46668375918659
30
0
41
1
10
-38.0000000000001
20
-3.65544489425051
30
0
41
1
10
-37.9999999999999
20
-3.84368470208352
30
0
41
1
10
-38.0000000000002
20
-3.99593117493754
30
0
41
1
10
-38
20
-4.10916481607384
30
0
41
1
10
-38.0000000000001
20
-4.22222196867901
30
0
41
1
10
-37.9999999999999
20
-4.37375933348986
30
0
41
1
10
-38.0000000000001
20
-4.56044458630836
30
0
41
1
10
-38.0000000000001
20
-4.78478457648473
30
0
41
1
10
-38
20
-5.00824253816072
30
0
41
1
10
-38
20
-5.23076600439018
30
0
41
1
10
-37.9999999999999
20
-5.45231022599017
30
0
41
1
10
-38.0000000000001
20
-5.67283041504629
30
0
41
1
10
-37.9999999999999
20
-5.89228674128216
30
0
41
1
10
-38.0000000000001
20
-6.11064496108489
30
0
41
1
10
-38.0000000000001
20
-6.32787239666968
30
0
41
1
10
-37.9999999999999
20
-6.54393525610621
30
0
41
1
10
-37.9999999999998
20
-6.7588033404011
30
0
41
1
10
-37.9999999999999
20
-6.97245311766196
30
0
41
1
10
-37.9999999999999
20
-7.18486111103365
30
0
41
1
10
-38.0000000000001
20
-7.39600347561716
30
0
41
1
10
-38.0000000000002
20
-7.60585874971324
30
0
41
1
10
-38
20
-7.81440645201084
30
0
41
1
10
-38.0000000000001
20
-8.09202295752266
30
0
41
1
10
-38.0000000000002
20
-8.43283023540616
30
0
41
1
10
-38.0000000000002
20
-8.83774029355027
30
0
41
1
10
-38
20
-9.16930023887309
30
0
41
1
10
-38.0000000000001
20
-9.43375044009477
30
0
41
1
10
-37.9999999999999
20
-9.62982432960189
30
0
41
1
10
-38.0000000000001
20
-9.82444814962966
30
0
41
1
10
-37.9999999999999
20
-10.0176111126086
30
0
41
1
10
-38.0000000000002
20
-10.2093007057544
30
0
41
1
10
-38.0000000000001
20
-10.3995107409485
30
0
41
1
10
-38.0000000000003
20
-10.588227232429
30
0
41
1
10
-38
20
-10.838844517081
30
0
41
1
10
-38.0000000000001
20
-11.0835274377927
30
0
41
1
10
-37.9999999999999
20
-11.3279972500449
30
0
41
1
10
-38.0000000000001
20
-11.5091211965039
30
0
41
1
10
-38.0000000000002
20
-11.6886991809044
30
0
41
1
10
-38.0000000000002
20
-11.8667275177684
30
0
41
1
10
-38.0000000000003
20
-12.0431930522799
30
0
41
1
10
-37.9999999999999
20
-12.218089664583
30
0
41
1
10
-38.0000000000003
20
-12.3914124247031
30
0
41
1
10
-38.0000000000001
20
-12.5631480735018
30
0
41
1
10
-38
20
-12.7332924196476
30
0
41
1
10
-38.0000000000001
20
-12.9018387248248
30
0
41
1
10
-38.0000000000001
20
-13.0687749028759
30
0
41
1
10
-37.9999999999999
20
-13.2899980003417
30
0
41
1
10
-38.0000000000002
20
-13.505640607155
30
0
41
1
10
-38.0000000000002
20
-13.7202970548283
30
0
41
1
10
-37.9999999999999
20
-13.9327572918622
30
0
41
1
10
-38.0000000000001
20
-14.1397069500692
30
0
41
1
10
-38.0000000000001
20
-14.3454836148155
30
0
41
1
10
-37.9999999999999
20
-14.4976048095276
30
0
41
1
10
-37.9999999999999
20
-14.6480433741442
30
0
41
1
10
-38
20
-14.8470538575162
30
0
41
1
10
-37.9999999999999
20
-15.0406366439892
30
0
41
1
10
-38.0000000000003
20
-15.2327734637877
30
0
41
1
10
-38.0000000000001
20
-15.3746583733235
30
0
41
1
10
-38.0000000000001
20
-15.5148115582751
30
0
41
1
10
-38.0000000000002
20
-15.6999837411243
30
0
41
1
10
-38
20
-15.8797870255402
30
0
41
1
10
-38.0000000000001
20
-16.0578801048398
30
0
41
1
10
-38.0000000000001
20
-16.1892165814336
30
0
41
1
10
-38.0000000000001
20
-16.3187661779866
30
0
41
1
10
-38.0000000000001
20
-16.4896741385662
30
0
41
1
10
-38
20
-16.6552512602623
30
0
41
1
10
-38.0000000000001
20
-16.8188545807647
30
0
41
1
10
-38.0000000000001
20
-16.9392987318015
30
0
41
1
10
-38
20
-17.0578934672826
30
0
41
1
10
-38
20
-17.2140648101704
30
0
41
1
10
-38.0000000000001
20
-17.364921661615
30
0
41
1
10
-38.0000000000002
20
-17.5135300358216
30
0
41
1
10
-38.0000000000003
20
-17.6226956365838
30
0
41
1
10
-38.0000000000002
20
-17.7299433731023
30
0
41
1
10
-38.0000000000002
20
-17.8708440004859
30
0
41
1
10
-38
20
-18.0064238716361
30
0
41
1
10
-38.0000000000001
20
-18.1394672902696
30
0
41
1
10
-38.0000000000002
20
-18.2369159156767
30
0
41
1
10
-38.0000000000002
20
-18.3323672965471
30
0
41
1
10
-38.0000000000001
20
-18.4258040962278
30
0
41
1
10
-38.0000000000002
20
-18.5172098870017
30
0
41
1
10
-38.0000000000003
20
-18.6065734896475
30
0
41
1
10
-38.0000000000002
20
-18.6938772522124
30
0
41
1
10
-38.0000000000003
20
-18.7791047692185
30
0
41
1
10
-38.0000000000003
20
-18.8622426359765
30
0
41
1
10
-38.0000000000001
20
-18.9432715834753
30
0
41
1
10
-38
20
-19.0221745805324
30
0
41
1
10
-38.0000000000002
20
-19.098936413687
30
0
41
1
10
-38.0000000000001
20
-19.1735363647811
30
0
41
1
10
-38.0000000000001
20
-19.2704515417457
30
0
41
1
10
-38.0000000000002
20
-19.3619266112168
30
0
41
1
10
-38.0000000000002
20
-19.449949864773
30
0
41
1
10
-38.0000000000001
20
-19.5134574724374
30
0
41
1
10
-38.0000000000001
20
-19.5746836830744
30
0
41
1
10
-38.0000000000002
20
-19.633608532826
30
0
41
1
10
-38.0000000000002
20
-19.6902080668944
30
0
41
1
10
-38.0000000000002
20
-19.7628242842046
30
0
41
1
10
-38.0000000000001
20
-19.8298739843737
30
0
41
1
10
-38.0000000000001
20
-19.8928775551024
30
0
41
1
10
-38.0000000000002
20
-19.937487175769
30
0
41
1
10
-38
20
-19.979619543667
30
0
41
1
10
-38.0000000000002
20
-20.032676006381
30
0
41
1
10
-38.0000000000001
20
-20.0800381474624
30
0
41
1
10
-38.0000000000001
20
-20.1228090027493
30
0
41
1
10
-37.9999999999999
20
-20.152117765861
30
0
41
1
10
-38.0000000000002
20
-20.1787668505583
30
0
41
1
10
-38.0000000000002
20
-20.2027210424564
30
0
41
1
10
-38.0000000000002
20
-20.2239455432983
30
0
41
1
10
-38.0000000000002
20
-20.2424031363822
30
0
41
1
10
-38.0000000000001
20
-20.2580557552651
30
0
41
1
10
-37.9999999999999
20
-20.2708642249462
30
0
41
1
10
-38.0000000000001
20
-20.2807872561092
30
0
41
1
10
-38.0000000000002
20
-20.2864573979437
30
0
41
1
10
-38.0000000000002
20
-20.2887806496582
30
0
41
1
10
-38.0000000000002
20
-20.2893881740931
30
0
0
SPLINE
5
174
100
AcDbEntity
8
SK1
62
256
6
ByLayer
370
18
48
1
60
0
100
AcDbSpline
70
4
71
2
72
6
73
3
40
0
40
0
40
0
40
1
40
1
40
1
41
1
10
-38.0000000000003
20
-20.2894052255526
30
0
41
1
10
-37.2500000000014
20
-20.7223540793627
30
0
41
1
10
-36.5000000000001
20
-21.1553029418632
30
0
0
SPLINE
5
175
100
AcDbEntity
8
SK1
62
256
6
ByLayer
370
18
48
1
60
0
100
AcDbSpline
70
4
71
2
72
6
73
3
40
0
40
0
40
0
40
1
40
1
40
1
41
1
10
-36.5
20
21.1553027248973
30
0
41
1
10
-37.2500000000012
20
20.722353860962
30
0
41
1
10
-37.9999999999999
20
20.2894050057153
30
0
0
SPLINE
5
176
100
AcDbEntity
8
1
62
256
6
ByLayer
370
18
48
1
60
0
100
AcDbSpline
70
4
71
3
72
8
73
4
40
0
40
0
40
0
40
0
40
1
40
1
40
1
40
1
41
1
10
134.661958104515
20
-35.0971779904269
30
0
41
1
10
134.415266217072
20
-35.0419746786038
30
0
41
1
10
134.192371136918
20
-34.9819311690644
30
0
41
1
10
133.991833109798
20
-34.9173403034143
30
0
0
SPLINE
5
177
100
AcDbEntity
8
1
62
256
6
ByLayer
370
18
48
1
60
0
100
AcDbSpline
70
4
71
3
72
8
73
4
40
0
40
0
40
0
40
0
40
1
40
1
40
1
40
1
41
1
10
135.289621049366
20
-31.7267844069924
30
0
41
1
10
135.087644717385
20
-30.9058017208116
30
0
41
1
10
134.926970342857
20
-30.0615114538803
30
0
41
1
10
134.807020647161
20
-29.1942393769103
30
0
0
SPLINE
5
178
100
AcDbEntity
8
1
62
256
6
ByLayer
370
18
48
1
60
0
100
AcDbSpline
70
4
71
3
72
19
73
15
40
0
40
0
40
0
40
0
40
0.250000000000001
40
0.250000000000001
40
0.500000000000002
40
0.500000000000002
40
0.750000000000002
40
0.750000000000002
40
0.812500000000002
40
0.843750000000002
40
0.843750000000002
40
0.875000000000002
40
0.875000000000002
40
1
40
1
40
1
40
1
41
1
10
135.289621049372
20
-31.7267844070001
30
0
41
1
10
135.13448340809
20
-32.003663604045
30
0
41
1
10
135.006389207556
20
-32.2816249667076
30
0
41
1
10
134.801417789901
20
-32.8395971819255
30
0
41
1
10
134.724543654345
20
-33.1196081577922
30
0
41
1
10
134.620704973269
20
-33.681627282993
30
0
41
1
10
134.593739074267
20
-33.9636353781661
30
0
41
1
10
134.591360050978
20
-34.3173991269515
30
0
41
1
10
134.593001712812
20
-34.4236225036158
30
0
41
1
10
134.598197852961
20
-34.5299881156656
30
0
41
1
10
134.60245497135
20
-34.6009302572475
30
0
41
1
10
134.604980786161
20
-34.6364253724068
30
0
41
1
10
134.619587273381
20
-34.8138294495108
30
0
41
1
10
134.637596909864
20
-34.9555869538985
30
0
41
1
10
134.661958104515
20
-35.0971779904269
30
0
0
SPLINE
5
179
100
AcDbEntity
8
1
62
256
6
ByLayer
370
18
48
1
60
0
100
AcDbSpline
70
4
71
3
72
10
73
6
40
0
40
0
40
0
40
0
40
0.5
40
0.5
40
1
40
1
40
1
40
1
41
1
10
134.629983390291
20
-36.3378874180029
30
0
41
1
10
134.511714667157
20
-36.2025650403411
30
0
41
1
10
134.399214142734
20
-36.0695613020623
30
0
41
1
10
134.18575238025
20
-35.8086733107003
30
0
41
1
10
134.08408043155
20
-35.6798173690385
30
0
41
1
10
133.991833109797
20
-35.5580111622701
30
0
0
SPLINE
5
17A
100
AcDbEntity
8
1
62
256
6
ByLayer
370
18
48
1
60
0
100
AcDbSpline
70
4
71
3
72
14
73
10
40
0
40
0
40
0
40
0
40
0.249999999999996
40
0.249999999999996
40
0.374999999999995
40
0.374999999999995
40
0.499999999999994
40
0.499999999999994
40
1
40
1
40
1
40
1
41
1
10
134.629983390291
20
-36.337887418003
30
0
41
1
10
135.143433291171
20
-36.92537377582
30
0
41
1
10
135.680043503756
20
-37.4931203217272
30
0
41
1
10
136.520273234662
20
-38.3146412429561
30
0
41
1
10
136.806241895799
20
-38.5834596559088
30
0
41
1
10
137.39013975154
20
-39.1109023754507
30
0
41
1
10
137.688393113925
20
-39.3697546451934
30
0
41
1
10
139.197434929498
20
-40.6278558977333
30
0
41
1
10
140.47009501943
20
-41.5276659947864
30
0
41
1
10
141.806389176632
20
-42.3237277745565
30
0
0
SPLINE
5
17B
100
AcDbEntity
8
1
62
256
6
ByLayer
370
18
48
1
60
0
100
AcDbSpline
70
4
71
3
72
10
73
6
40
0
40
0
40
0
40
0
40
0.409768433482739
40
0.409768433482739
40
1
40
1
40
1
40
1
41
1
10
141.259188289368
20
-42.0563300022819
30
0
41
1
10
141.316459108688
20
-42.0915222026434
30
0
41
1
10
141.380726756583
20
-42.1272476521069
30
0
41
1
10
141.555068400453
20
-42.2157660690533
30
0
41
1
10
141.672846233157
20
-42.2691461688308
30
0
41
1
10
141.806389176634
20
-42.3237277745578
30
0
0
SPLINE
5
17C
100
AcDbEntity
8
1
62
256
6
ByLayer
370
18
48
1
60
0
100
AcDbSpline
70
4
71
3
72
8
73
4
40
0
40
0
40
0
40
0
40
1
40
1
40
1
40
1
41
1
10
155.919102066091
20
-29.0401146488875
30
0
41
1
10
155.698427588129
20
-28.7978659192294
30
0
41
1
10
155.475589936818
20
-28.5567567185781
30
0
41
1
10
155.250545370603
20
-28.3168350563446
30
0
0
SPLINE
5
17D
100
AcDbEntity
8
1
62
256
6
ByLayer
370
18
48
1
60
0
100
AcDbSpline
70
4
71
3
72
14
73
10
40
0
40
0
40
0
40
0
40
0.5
40
0.5
40
0.625
40
0.625
40
0.75
40
0.75
40
1
40
1
40
1
40
1
41
1
10
146.013036904598
20
-32.2582750185448
30
0
41
1
10
145.788093915593
20
-32.4317637618574
30
0
41
1
10
145.562973130072
20
-32.6110459267901
30
0
41
1
10
145.281180613981
20
-32.8479066031088
30
0
41
1
10
145.224888439869
20
-32.8958312085599
30
0
41
1
10
145.114161893369
20
-32.9912567870525
30
0
41
1
10
145.059482005461
20
-33.0389618018921
30
0
41
1
10
144.897244681745
20
-33.1820563424238
30
0
41
1
10
144.791482562984
20
-33.2774254440243
30
0
41
1
10
144.687368982595
20
-33.3727757913335
30
0
0
SPLINE
5
17E
100
AcDbEntity
8
1
62
256
6
ByLayer
370
18
48
1
60
0
100
AcDbSpline
70
4
71
3
72
14
73
10
40
0
40
0
40
0
40
0
40
0.499999999999989
40
0.499999999999989
40
0.624999999999991
40
0.624999999999991
40
0.749999999999993
40
0.749999999999993
40
1
40
1
40
1
40
1
41
1
10
144.687368982595
20
-33.372775791333
30
0
41
1
10
144.72621089533
20
-33.6410217087161
30
0
41
1
10
144.768828304074
20
-33.9164811548804
30
0
41
1
10
144.830414264895
20
-34.2766907184715
30
0
41
1
10
144.84311963974
20
-34.3494007180594
30
0
41
1
10
144.868877749515
20
-34.4938545019091
30
0
41
1
10
144.881982601928
20
-34.5659092441047
30
0
41
1
10
144.921892670791
20
-34.7816194481567
30
0
41
1
10
144.949291078405
20
-34.924822656614
30
0
41
1
10
144.977234180003
20
-35.0676105862858
30
0
0
SPLINE
5
17F
100
AcDbEntity
8
1
62
256
6
ByLayer
370
18
48
1
60
0
100
AcDbSpline
70
4
71
3
72
14
73
10
40
0
40
0
40
0
40
0
40
0.25
40
0.25
40
0.5
40
0.5
40
0.75
40
0.75
40
1
40
1
40
1
40
1
41
1
10
146.013036904598
20
-32.2582750185453
30
0
41
1
10
146.140224261249
20
-32.3012539938578
30
0
41
1
10
146.271274162182
20
-32.3460575541824
30
0
41
1
10
146.536227358892
20
-32.4381279076003
30
0
41
1
10
146.670576260606
20
-32.48555138257
30
0
41
1
10
146.943661010711
20
-32.5836512190761
30
0
41
1
10
147.08340110391
20
-32.6347104719089
30
0
41
1
10
147.358012421123
20
-32.7364848317523
30
0
41
1
10
147.493796222675
20
-32.7875033530312
30
0
41
1
10
147.628570024008
20
-32.8386090407091
30
0
0
SPLINE
5
180
100
AcDbEntity
8
1
62
256
6
ByLayer
370
18
48
1
60
0
100
AcDbSpline
70
4
71
3
72
14
73
10
40
0
40
0
40
0
40
0
40
0.25
40
0.25
40
0.5
40
0.5
40
0.75
40
0.75
40
1
40
1
40
1
40
1
41
1
10
144.977234180003
20
-35.0676105862857
30
0
41
1
10
145.104421536654
20
-35.1105895615982
30
0
41
1
10
145.235471437587
20
-35.1553931219228
30
0
41
1
10
145.500424634298
20
-35.2474634753407
30
0
41
1
10
145.634773536011
20
-35.2948869503104
30
0
41
1
10
145.907858286116
20
-35.3929867868165
30
0
41
1
10
146.047598379316
20
-35.4440460396493
30
0
41
1
10
146.322209696529
20
-35.5458203994927
30
0
41
1
10
146.45799349808
20
-35.5968389207716
30
0
41
1
10
146.592767299414
20
-35.6479446084495
30
0
0
SPLINE
5
181
100
AcDbEntity
8
1
62
256
6
ByLayer
370
18
48
1
60
0
100
AcDbSpline
70
4
71
3
72
14
73
10
40
0
40
0
40
0
40
0
40
0.499999999999994
40
0.499999999999994
40
0.624999999999994
40
0.624999999999994
40
0.749999999999995
40
0.749999999999995
40
1
40
1
40
1
40
1
41
1
10
147.918435221416
20
-34.5334438356613
30
0
41
1
10
147.862618520598
20
-34.2482231301944
30
0
41
1
10
147.809158685735
20
-33.9619212579114
30
0
41
1
10
147.747524059123
20
-33.601663028529
30
0
41
1
10
147.735469820056
20
-33.52960416472
30
0
41
1
10
147.712250720564
20
-33.3876893911531
30
0
41
1
10
147.701031172692
20
-33.3175199534991
30
0
41
1
10
147.66840110833
20
-33.1090897539477
30
0
41
1
10
147.64801516315
20
-32.9728990079233
30
0
41
1
10
147.628570024008
20
-32.8386090407088
30
0
0
SPLINE
5
182
100
AcDbEntity
8
1
62
256
6
ByLayer
370
18
48
1
60
0
100
AcDbSpline
70
4
71
3
72
14
73
10
40
0
40
0
40
0
40
0
40
0.500000000000022
40
0.500000000000022
40
0.625000000000026
40
0.625000000000026
40
0.750000000000029
40
0.750000000000029
40
1
40
1
40
1
40
1
41
1
10
146.592767299414
20
-35.6479446084495
30
0
41
1
10
146.800735500335
20
-35.4574810770531
30
0
41
1
10
147.015013859737
20
-35.2673564860017
30
0
41
1
10
147.296757710037
20
-35.0304471438918
30
0
41
1
10
147.353701019927
20
-34.9831736742195
30
0
41
1
10
147.46696657671
20
-34.8902871060098
30
0
41
1
10
147.52353176916
20
-34.8444673957118
30
0
41
1
10
147.693049097377
20
-34.7086528596806
30
0
41
1
10
147.805823678571
20
-34.620296220513
30
0
41
1
10
147.918435221416
20
-34.533443835661
30
0
0
INSERT
5
193
100
AcDbEntity
8
2
62
256
6
ByLayer
370
25
48
1
60
0
100
AcDbBlockReference
2
DimnDraft3D11
10
0
20
0
30
0
41
1
42
1
43
1
50
0
210
0
220
0
230
1
0
INSERT
5
19F
100
AcDbEntity
8
2
62
256
6
ByLayer
370
25
48
1
60
0
100
AcDbBlockReference
2
DimnDraft3D22
10
0
20
0
30
0
41
1
42
1
43
1
50
0
210
0
220
0
230
1
0
LINE
5
70
100
AcDbEntity
8
1
62
256
6
ByLayer
370
18
48
1
60
0
100
AcDbLine
10
151.286392
20
-32.146302
30
0
11
151.332136
21
-32.192045
31
0
39
0
210
0
220
0
230
1
0
LINE
5
72
100
AcDbEntity
8
1
62
256
6
ByLayer
370
18
48
1
60
0
100
AcDbLine
10
151.697191
20
-30.837281
30
0
11
152.192045
21
-31.332136
31
0
39
0
210
0
220
0
230
1
0
LINE
5
73
100
AcDbEntity
8
1
62
256
6
ByLayer
370
18
48
1
60
0
100
AcDbLine
10
164.137451
20
-44.99736
30
0
11
152.635689
21
-44.053471
31
0
39
0
210
0
220
0
230
1
0
LINE
5
74
100
AcDbEntity
8
1
62
256
6
ByLayer
370
18
48
1
60
0
100
AcDbLine
10
152.276025
20
-43.693807
30
0
11
151.332136
21
-32.192045
31
0
39
0
210
0
220
0
230
1
0
LINE
5
75
100
AcDbEntity
8
1
62
256
6
ByLayer
370
18
48
1
60
0
100
AcDbLine
10
152.192045
20
-31.332136
30
0
11
163.693807
21
-32.276025
31
0
39
0
210
0
220
0
230
1
0
LINE
5
76
100
AcDbEntity
8
1
62
256
6
ByLayer
370
18
48
1
60
0
100
AcDbLine
10
164.053471
20
-32.635689
30
0
11
164.99736
21
-44.137451
31
0
39
0
210
0
220
0
230
1
0
LINE
5
77
100
AcDbEntity
8
1
62
256
6
ByLayer
370
18
48
1
60
0
100
AcDbLine
10
163.198953
20
-31.78117
30
0
11
163.693807
21
-32.276025
31
0
39
0
210
0
220
0
230
1
0
LINE
5
78
100
AcDbEntity
8
1
62
256
6
ByLayer
370
18
48
1
60
0
100
AcDbLine
10
151.697191
20
-30.837281
30
0
11
156.500973
21
-31.231503
31
0
39
0
210
0
220
0
230
1
0
LINE
5
79
100
AcDbEntity
8
1
62
256
6
ByLayer
370
18
48
1
60
0
100
AcDbLine
10
163.141803
20
-31.776481
30
0
11
163.198953
21
-31.78117
31
0
39
0
210
0
220
0
230
1
0
LINE
5
7A
100
AcDbEntity
8
1
62
256
6
ByLayer
370
18
48
1
60
0
100
AcDbLine
10
151.78117
20
-43.198953
30
0
11
152.276025
21
-43.693807
31
0
39
0
210
0
220
0
230
1
0
LINE
5
7B
100
AcDbEntity
8
1
62
256
6
ByLayer
370
18
48
1
60
0
100
AcDbLine
10
151.78117
20
-43.198953
30
0
11
151.776481
21
-43.141803
31
0
39
0
210
0
220
0
230
1
0
LINE
5
7C
100
AcDbEntity
8
1
62
256
6
ByLayer
370
18
48
1
60
0
100
AcDbLine
10
151.89483
20
-43.444957
30
0
11
152.389684
21
-43.939811
31
0
39
0
210
0
220
0
230
1
0
LINE
5
7D
100
AcDbEntity
8
1
62
256
6
ByLayer
370
18
48
1
60
0
100
AcDbLine
10
163.939811
20
-32.389684
30
0
11
163.444957
21
-31.89483
31
0
39
0
210
0
220
0
230
1
0
LINE
5
7E
100
AcDbEntity
8
1
62
256
6
ByLayer
370
18
48
1
60
0
100
AcDbLine
10
156.296204
20
-36.516183
30
0
11
156.25353
21
-36.473509
31
0
39
0
210
0
220
0
230
1
0
LINE
5
7F
100
AcDbEntity
8
1
62
256
6
ByLayer
370
18
48
1
60
0
100
AcDbLine
10
155.605639
20
-38.00453
30
0
11
155.709249
21
-38.10814
31
0
39
0
210
0
220
0
230
1
0
LINE
5
80
100
AcDbEntity
8
1
62
256
6
ByLayer
370
18
48
1
60
0
100
AcDbLine
10
159.694813
20
-36.7228
30
0
11
159.237385
21
-36.265371
31
0
39
0
210
0
220
0
230
1
0
LINE
5
81
100
AcDbEntity
8
1
62
256
6
ByLayer
370
18
48
1
60
0
100
AcDbLine
10
155.928965
20
-38.895384
30
0
11
155.842747
21
-38.809166
31
0
39
0
210
0
220
0
230
1
0
LINE
5
82
100
AcDbEntity
8
1
62
256
6
ByLayer
370
18
48
1
60
0
100
AcDbLine
10
155.940224
20
-38.912237
30
0
11
156.397652
21
-39.369665
31
0
39
0
210
0
220
0
230
1
0
LINE
5
83
100
AcDbEntity
8
1
62
256
6
ByLayer
370
18
48
1
60
0
100
AcDbLine
10
159.180953
20
-35.857551
30
0
11
159.081663
21
-35.758261
31
0
39
0
210
0
220
0
230
1
0
LINE
5
84
100
AcDbEntity
8
1
62
256
6
ByLayer
370
18
48
1
60
0
100
AcDbLine
10
156.187226
20
-39.301442
30
0
11
156.198406
21
-39.312623
31
0
39
0
210
0
220
0
230
1
0
LINE
5
85
100
AcDbEntity
8
1
62
256
6
ByLayer
370
18
48
1
60
0
100
AcDbLine
10
156.332548
20
-39.874344
30
0
11
156.435087
21
-39.911178
31
0
39
0
210
0
220
0
230
1
0
LINE
5
86
100
AcDbEntity
8
1
62
256
6
ByLayer
370
18
48
1
60
0
100
AcDbLine
10
0.3
20
-31.5
30
0
11
124.8
21
-31.5
31
0
39
0
210
0
220
0
230
1
0
LINE
5
87
100
AcDbEntity
8
1
62
256
6
ByLayer
370
18
48
1
60
0
100
AcDbLine
10
109.28213
20
31.5
30
0
11
0.3
21
31.5
31
0
39
0
210
0
220
0
230
1
0
LINE
5
88
100
AcDbEntity
8
1
62
256
6
ByLayer
370
18
48
1
60
0
100
AcDbLine
10
124.8
20
-31.5
30
0
11
124.8
21
-19.928333
31
0
39
0
210
0
220
0
230
1
0
LINE
5
89
100
AcDbEntity
8
1
62
256
6
ByLayer
370
18
48
1
60
0
100
AcDbLine
10
124.270542
20
19.78977
30
0
11
109.28213
21
31.5
31
0
39
0
210
0
220
0
230
1
0
LINE
5
8A
100
AcDbEntity
8
1
62
256
6
ByLayer
370
18
48
1
60
0
100
AcDbLine
10
10.538675
20
9.349221
30
0
11
13.461325
21
9.349221
31
0
39
0
210
0
220
0
230
1
0
LINE
5
8B
100
AcDbEntity
8
1
62
256
6
ByLayer
370
18
48
1
60
0
100
AcDbLine
10
13.461325
20
30.080593
30
0
11
10.538675
21
30.080593
31
0
39
0
210
0
220
0
230
1
0
LINE
5
8C
100
AcDbEntity
8
1
62
256
6
ByLayer
370
18
48
1
60
0
100
AcDbLine
10
0.3
20
-31.5
30
0
11
0.3
21
31.5
31
0
39
0
210
0
220
0
230
1
0
LINE
5
8D
100
AcDbEntity
8
1
62
256
6
ByLayer
370
18
48
1
60
0
100
AcDbLine
10
10.538675
20
-30.080593
30
0
11
13.461325
21
-30.080593
31
0
39
0
210
0
220
0
230
1
0
LINE
5
8E
100
AcDbEntity
8
1
62
256
6
ByLayer
370
18
48
1
60
0
100
AcDbLine
10
13.461325
20
-9.349221
30
0
11
10.538675
21
-9.349221
31
0
39
0
210
0
220
0
230
1
0
LINE
5
8F
100
AcDbEntity
8
1
62
256
6
ByLayer
370
18
48
1
60
0
100
AcDbLine
10
0.3
20
31.5
30
0
11
0
21
31.2
31
0
39
0
210
0
220
0
230
1
0
LINE
5
90
100
AcDbEntity
8
1
62
256
6
ByLayer
370
18
48
1
60
0
100
AcDbLine
10
0
20
-31.2
30
0
11
0
21
31.2
31
0
39
0
210
0
220
0
230
1
0
LINE
5
91
100
AcDbEntity
8
1
62
256
6
ByLayer
370
18
48
1
60
0
100
AcDbLine
10
0
20
-31.2
30
0
11
0.3
21
-31.5
31
0
39
0
210
0
220
0
230
1
0
LINE
5
92
100
AcDbEntity
8
1
62
256
6
ByLayer
370
18
48
1
60
0
100
AcDbLine
10
139.252606
20
8.084499
30
0
11
124.270542
21
19.78977
31
0
39
0
210
0
220
0
230
1
0
LINE
5
93
100
AcDbEntity
8
1
62
256
6
ByLayer
370
18
48
1
60
0
100
AcDbLine
10
153.979578
20
-12.751991
30
0
11
139.252606
21
8.084499
31
0
39
0
210
0
220
0
230
1
0
LINE
5
94
100
AcDbEntity
8
1
62
256
6
ByLayer
370
18
48
1
60
0
100
AcDbLine
10
154.566242
20
-19.194449
30
0
11
153.979578
21
-12.751991
31
0
39
0
210
0
220
0
230
1
0
LINE
5
95
100
AcDbEntity
8
1
62
256
6
ByLayer
370
18
48
1
60
0
100
AcDbLine
10
134.807021
20
-29.194239
30
0
11
154.566242
21
-19.194449
31
0
39
0
210
0
220
0
230
1
0
LINE
5
96
100
AcDbEntity
8
1
62
256
6
ByLayer
370
18
48
1
60
0
100
AcDbLine
10
10.105662
20
9.869413
30
0
11
10.105662
21
29.913955
31
0
39
0
210
0
220
0
230
1
0
LINE
5
97
100
AcDbEntity
8
1
62
256
6
ByLayer
370
18
48
1
60
0
100
AcDbLine
10
10.538675
20
9.349221
30
0
11
10.538675
21
30.080593
31
0
39
0
210
0
220
0
230
1
0
LINE
5
98
100
AcDbEntity
8
1
62
256
6
ByLayer
370
18
48
1
60
0
100
AcDbLine
10
13.461325
20
-30.080593
30
0
11
13.461325
21
-9.349221
31
0
39
0
210
0
220
0
230
1
0
LINE
5
99
100
AcDbEntity
8
1
62
256
6
ByLayer
370
18
48
1
60
0
100
AcDbLine
10
13.894338
20
-29.913955
30
0
11
13.894338
21
-9.869413
31
0
39
0
210
0
220
0
230
1
0
LINE
5
9A
100
AcDbEntity
8
1
62
256
6
ByLayer
370
18
48
1
60
0
100
AcDbLine
10
13.461325
20
9.349221
30
0
11
13.461325
21
30.080593
31
0
39
0
210
0
220
0
230
1
0
LINE
5
9B
100
AcDbEntity
8
1
62
256
6
ByLayer
370
18
48
1
60
0
100
AcDbLine
10
13.894338
20
9.869413
30
0
11
13.894338
21
29.913955
31
0
39
0
210
0
220
0
230
1
0
LINE
5
9C
100
AcDbEntity
8
1
62
256
6
ByLayer
370
18
48
1
60
0
100
AcDbLine
10
10.105662
20
-29.913955
30
0
11
10.105662
21
-9.869413
31
0
39
0
210
0
220
0
230
1
0
LINE
5
9D
100
AcDbEntity
8
1
62
256
6
ByLayer
370
18
48
1
60
0
100
AcDbLine
10
10.538675
20
-30.080593
30
0
11
10.538675
21
-9.349221
31
0
39
0
210
0
220
0
230
1
0
LINE
5
9E
100
AcDbEntity
8
1
62
256
6
ByLayer
370
18
48
1
60
0
100
AcDbLine
10
133.991833
20
-27.874958
30
0
11
133.991833
21
-34.91734
31
0
39
0
210
0
220
0
230
1
0
LINE
5
9F
100
AcDbEntity
8
1
62
256
6
ByLayer
370
18
48
1
60
0
100
AcDbLine
10
133.991833
20
-35.785714
30
0
11
133.991833
21
-35.558011
31
0
39
0
210
0
220
0
230
1
0
LINE
5
A0
100
AcDbEntity
8
SK1
62
256
6
ByLayer
370
18
48
1
60
0
100
AcDbLine
10
-1.307107
20
-4.811013
30
0
11
-1.307107
21
4.811013
31
0
39
0
210
0
220
0
230
1
0
LINE
5
A2
100
AcDbEntity
8
SK1
62
256
6
ByLayer
370
18
48
1
60
0
100
AcDbLine
10
-0.2
20
7.059518
30
0
11
-0.2
21
22.533485
31
0
39
0
210
0
220
0
230
1
0
LINE
5
A3
100
AcDbEntity
8
SK1
62
256
6
ByLayer
370
18
48
1
60
0
100
AcDbLine
10
-0.2
20
-22.533485
30
0
11
-0.2
21
-7.059517
31
0
39
0
210
0
220
0
230
1
0
LINE
5
A4
100
AcDbEntity
8
SK1
62
256
6
ByLayer
370
18
48
1
60
0
100
AcDbLine
10
-0.394977
20
21.865385
30
0
11
-0.394977
21
6.326943
31
0
39
0
210
0
220
0
230
1
0
LINE
5
A5
100
AcDbEntity
8
1
62
256
6
ByLayer
370
18
48
1
60
0
100
AcDbLine
10
154.566242
20
-19.194449
30
0
11
157.35591
21
-21.255822
31
0
39
0
210
0
220
0
230
1
0
LINE
5
A6
100
AcDbEntity
8
1
62
256
6
ByLayer
370
18
48
1
60
0
100
AcDbLine
10
157.35591
20
-21.255822
30
0
11
157.358106
21
-23.628804
31
0
39
0
210
0
220
0
230
1
0
LINE
5
A7
100
AcDbEntity
8
1
62
256
6
ByLayer
370
18
48
1
60
0
100
AcDbLine
10
154.49096
20
-27.943846
30
0
11
154.904824
21
-27.697714
31
0
39
0
210
0
220
0
230
1
0
LINE
5
A8
100
AcDbEntity
8
1
62
256
6
ByLayer
370
18
48
1
60
0
100
AcDbLine
10
151.103069
20
-28.703069
30
0
11
152.322251
21
-28.628022
31
0
39
0
210
0
220
0
230
1
0
LINE
5
A9
100
AcDbEntity
8
1
62
256
6
ByLayer
370
18
48
1
60
0
100
AcDbLine
10
143.182808
20
-32.885634
30
0
11
143.595443
21
-32.428011
31
0
39
0
210
0
220
0
230
1
0
LINE
5
AA
100
AcDbEntity
8
1
62
256
6
ByLayer
370
18
48
1
60
0
100
AcDbLine
10
141.453379
20
-34.147921
30
0
11
135.289621
21
-31.726784
31
0
39
0
210
0
220
0
230
1
0
LINE
5
AB
100
AcDbEntity
8
1
62
256
6
ByLayer
370
18
48
1
60
0
100
AcDbLine
10
140.449746
20
-34.357446
30
0
11
134.661958
21
-35.097178
31
0
39
0
210
0
220
0
230
1
0
LINE
5
AC
100
AcDbEntity
8
1
62
256
6
ByLayer
370
18
48
1
60
0
100
AcDbLine
10
157.35591
20
-21.255822
30
0
11
156.988658
21
-17.222831
31
0
39
0
210
0
220
0
230
1
0
LINE
5
AD
100
AcDbEntity
8
1
62
256
6
ByLayer
370
18
48
1
60
0
100
AcDbLine
10
156.988658
20
-17.222831
30
0
11
153.979578
21
-12.751991
31
0
39
0
210
0
220
0
230
1
0
LINE
5
AE
100
AcDbEntity
8
1
62
256
6
ByLayer
370
18
48
1
60
0
100
AcDbLine
10
139.858322
20
-35.388342
30
0
11
134.629983
21
-36.337887
31
0
39
0
210
0
220
0
230
1
0
LINE
5
AF
100
AcDbEntity
8
1
62
256
6
ByLayer
370
18
48
1
60
0
100
AcDbLine
10
158.151129
20
-19.569274
30
0
11
158.391248
21
-22.495246
31
0
39
0
210
0
220
0
230
1
0
LINE
5
B0
100
AcDbEntity
8
1
62
256
6
ByLayer
370
18
48
1
60
0
100
AcDbLine
10
151.531356
20
-35.131299
30
0
11
151.198571
21
-31.076156
31
0
39
0
210
0
220
0
230
1
0
LINE
5
B1
100
AcDbEntity
8
1
62
256
6
ByLayer
370
18
48
1
60
0
100
AcDbLine
10
151.684704
20
-38.825578
30
0
11
151.451985
21
-35.989783
31
0
39
0
210
0
220
0
230
1
0
LINE
5
B2
100
AcDbEntity
8
1
62
256
6
ByLayer
370
18
48
1
60
0
100
AcDbLine
10
152.191541
20
-43.175983
30
0
11
151.90271
21
-39.656433
31
0
39
0
210
0
220
0
230
1
0
LINE
5
B3
100
AcDbEntity
8
1
62
256
6
ByLayer
370
18
48
1
60
0
100
AcDbLine
10
141.806389
20
-42.323728
30
0
11
152.191541
21
-43.175983
31
0
39
0
210
0
220
0
230
1
0
LINE
5
B4
100
AcDbEntity
8
1
62
256
6
ByLayer
370
18
48
1
60
0
100
AcDbLine
10
163.177605
20
-32.21131
30
0
11
162.665253
21
-25.968041
31
0
39
0
210
0
220
0
230
1
0
LINE
5
B5
100
AcDbEntity
8
1
62
256
6
ByLayer
370
18
48
1
60
0
100
AcDbLine
10
156.852917
20
-31.664431
30
0
11
163.177605
21
-32.21131
31
0
39
0
210
0
220
0
230
1
0
LINE
5
B6
100
AcDbEntity
8
1
62
256
6
ByLayer
370
18
48
1
60
0
100
AcDbLine
10
156.852917
20
-31.664431
30
0
11
156.771786
21
-30.675811
31
0
39
0
210
0
220
0
230
1
0
LINE
5
B7
100
AcDbEntity
8
1
62
256
6
ByLayer
370
18
48
1
60
0
100
AcDbLine
10
162.665253
20
-25.968041
30
0
11
158.151129
21
-19.569274
31
0
39
0
210
0
220
0
230
1
0
LINE
5
B8
100
AcDbEntity
8
1
62
256
6
ByLayer
370
18
48
1
60
0
100
AcDbLine
10
156.771786
20
-30.675811
30
0
11
156.078586
21
-29.888067
31
0
39
0
210
0
220
0
230
1
0
LINE
5
B9
100
AcDbEntity
8
1
62
256
6
ByLayer
370
18
48
1
60
0
100
AcDbLine
10
156.338595
20
-31.218185
30
0
11
156.321582
21
-31.010874
31
0
39
0
210
0
220
0
230
1
0
LINE
5
BA
100
AcDbEntity
8
1
62
256
6
ByLayer
370
18
48
1
60
0
100
AcDbLine
10
156.078586
20
-29.888067
30
0
11
156.186716
21
-31.205691
31
0
39
0
210
0
220
0
230
1
0
LINE
5
BB
100
AcDbEntity
8
1
62
256
6
ByLayer
370
18
48
1
60
0
100
AcDbLine
10
156.321582
20
-31.010874
30
0
11
156.852917
21
-31.664431
31
0
39
0
210
0
220
0
230
1
0
LINE
5
BC
100
AcDbEntity
8
1
62
256
6
ByLayer
370
18
48
1
60
0
100
AcDbLine
10
145.369157
20
-34.941934
30
0
11
146.176923
21
-35.232101
31
0
39
0
210
0
220
0
230
1
0
LINE
5
BD
100
AcDbEntity
8
1
62
256
6
ByLayer
370
18
48
1
60
0
100
AcDbLine
10
146.176923
20
-35.232101
30
0
11
146.592767
21
-35.647945
31
0
39
0
210
0
220
0
230
1
0
LINE
5
BE
100
AcDbEntity
8
1
62
256
6
ByLayer
370
18
48
1
60
0
100
AcDbLine
10
144.922588
20
-34.781517
30
0
11
145.369157
21
-34.941934
31
0
39
0
210
0
220
0
230
1
0
LINE
5
BF
100
AcDbEntity
8
1
62
256
6
ByLayer
370
18
48
1
60
0
100
AcDbLine
10
147.357659
20
-33.270183
30
0
11
147.260366
21
-32.701314
31
0
39
0
210
0
220
0
230
1
0
LINE
5
C0
100
AcDbEntity
8
1
62
256
6
ByLayer
370
18
48
1
60
0
100
AcDbLine
10
147.502591
20
-34.1176
30
0
11
147.918435
21
-34.533444
31
0
39
0
210
0
220
0
230
1
0
LINE
5
C1
100
AcDbEntity
8
1
62
256
6
ByLayer
370
18
48
1
60
0
100
AcDbLine
10
147.502591
20
-34.1176
30
0
11
147.357659
21
-33.270183
31
0
39
0
210
0
220
0
230
1
0
LINE
5
C2
100
AcDbEntity
8
1
62
256
6
ByLayer
370
18
48
1
60
0
100
AcDbLine
10
143.351643
20
-36.658705
30
0
11
143.408464
21
-36.715526
31
0
39
0
210
0
220
0
230
1
0
LINE
5
C3
100
AcDbEntity
8
1
62
256
6
ByLayer
370
18
48
1
60
0
100
AcDbLine
10
149.065318
20
-31.058671
30
0
11
149.008497
21
-31.001851
31
0
39
0
210
0
220
0
230
1
0
LINE
5
C4
100
AcDbEntity
8
1
62
256
6
ByLayer
370
18
48
1
60
0
100
AcDbLine
10
146.839757
20
-34.67485
30
0
11
147.502591
21
-34.1176
31
0
39
0
210
0
220
0
230
1
0
LINE
5
C5
100
AcDbEntity
8
1
62
256
6
ByLayer
370
18
48
1
60
0
100
AcDbLine
10
146.176923
20
-35.232101
30
0
11
146.839757
21
-34.67485
31
0
39
0
210
0
220
0
230
1
0
LINE
5
C6
100
AcDbEntity
8
1
62
256
6
ByLayer
370
18
48
1
60
0
100
AcDbLine
10
137.514184
20
-31.077411
30
0
11
137.869038
21
-31.051894
31
0
39
0
210
0
220
0
230
1
0
LINE
5
C7
100
AcDbEntity
8
1
62
256
6
ByLayer
370
18
48
1
60
0
100
AcDbLine
10
139.827118
20
-29.152679
30
0
11
139.859582
21
-28.836459
31
0
39
0
210
0
220
0
230
1
0
LINE
5
C8
100
AcDbEntity
8
1
62
256
6
ByLayer
370
18
48
1
60
0
100
AcDbLine
10
139.123347
20
-30.110637
30
0
11
138.238795
21
-30.752743
31
0
39
0
210
0
220
0
230
1
0
LINE
5
C9
100
AcDbEntity
8
1
62
256
6
ByLayer
370
18
48
1
60
0
100
AcDbLine
10
139.565623
20
-29.287996
30
0
11
139.123347
21
-30.110637
31
0
39
0
210
0
220
0
230
1
0
LINE
5
CA
100
AcDbEntity
8
1
62
256
6
ByLayer
370
18
48
1
60
0
100
AcDbLine
10
139.123347
20
-29.107462
30
0
11
139.565623
21
-29.287996
31
0
39
0
210
0
220
0
230
1
0
LINE
5
CB
100
AcDbEntity
8
1
62
256
6
ByLayer
370
18
48
1
60
0
100
AcDbLine
10
138.238795
20
-29.749568
30
0
11
139.123347
21
-29.107462
31
0
39
0
210
0
220
0
230
1
0
LINE
5
CC
100
AcDbEntity
8
1
62
256
6
ByLayer
370
18
48
1
60
0
100
AcDbLine
10
137.796519
20
-30.572208
30
0
11
138.238795
21
-29.749568
31
0
39
0
210
0
220
0
230
1
0
LINE
5
CD
100
AcDbEntity
8
1
62
256
6
ByLayer
370
18
48
1
60
0
100
AcDbLine
10
138.238795
20
-30.752743
30
0
11
137.796519
21
-30.572208
31
0
39
0
210
0
220
0
230
1
0
LINE
5
CE
100
AcDbEntity
8
1
62
256
6
ByLayer
370
18
48
1
60
0
100
AcDbLine
10
137.891795
20
-30.394988
30
0
11
138.238795
21
-30.752743
31
0
39
0
210
0
220
0
230
1
0
LINE
5
CF
100
AcDbEntity
8
1
62
256
6
ByLayer
370
18
48
1
60
0
100
AcDbLine
10
138.55237
20
-29.521963
30
0
11
139.123347
21
-30.110637
31
0
39
0
210
0
220
0
230
1
0
LINE
5
D0
100
AcDbEntity
8
1
62
256
6
ByLayer
370
18
48
1
60
0
100
AcDbLine
10
145.763304
20
-26.004428
30
0
11
144.853388
21
-26.602409
31
0
39
0
210
0
220
0
230
1
0
LINE
5
D1
100
AcDbEntity
8
1
62
256
6
ByLayer
370
18
48
1
60
0
100
AcDbLine
10
146.218262
20
-25.164644
30
0
11
145.763304
21
-26.004428
31
0
39
0
210
0
220
0
230
1
0
LINE
5
D2
100
AcDbEntity
8
1
62
256
6
ByLayer
370
18
48
1
60
0
100
AcDbLine
10
145.773029
20
-24.928011
30
0
11
146.218262
21
-25.164644
31
0
39
0
210
0
220
0
230
1
0
LINE
5
D3
100
AcDbEntity
8
1
62
256
6
ByLayer
370
18
48
1
60
0
100
AcDbLine
10
144.853388
20
-25.520824
30
0
11
145.725557
21
-24.947649
31
0
39
0
210
0
220
0
230
1
0
LINE
5
D4
100
AcDbEntity
8
1
62
256
6
ByLayer
370
18
48
1
60
0
100
AcDbLine
10
144.398429
20
-26.360607
30
0
11
144.853388
21
-25.520824
31
0
39
0
210
0
220
0
230
1
0
LINE
5
D5
100
AcDbEntity
8
1
62
256
6
ByLayer
370
18
48
1
60
0
100
AcDbLine
10
144.853388
20
-26.602409
30
0
11
144.398429
21
-26.360607
31
0
39
0
210
0
220
0
230
1
0
LINE
5
D6
100
AcDbEntity
8
1
62
256
6
ByLayer
370
18
48
1
60
0
100
AcDbLine
10
144.483284
20
-26.203944
30
0
11
144.853388
21
-26.602409
31
0
39
0
210
0
220
0
230
1
0
LINE
5
D7
100
AcDbEntity
8
1
62
256
6
ByLayer
370
18
48
1
60
0
100
AcDbLine
10
145.1395
20
-25.332821
30
0
11
145.763304
21
-26.004428
31
0
39
0
210
0
220
0
230
1
0
LINE
5
D8
100
AcDbEntity
8
1
62
256
6
ByLayer
370
18
48
1
60
0
100
AcDbLine
10
153.400998
20
-21.706275
30
0
11
152.455123
21
-22.235549
31
0
39
0
210
0
220
0
230
1
0
LINE
5
D9
100
AcDbEntity
8
1
62
256
6
ByLayer
370
18
48
1
60
0
100
AcDbLine
10
153.873935
20
-20.840485
30
0
11
153.400998
21
-21.706275
31
0
39
0
210
0
220
0
230
1
0
LINE
5
DA
100
AcDbEntity
8
1
62
256
6
ByLayer
370
18
48
1
60
0
100
AcDbLine
10
153.400998
20
-20.50397
30
0
11
153.873935
21
-20.840485
31
0
39
0
210
0
220
0
230
1
0
LINE
5
DB
100
AcDbEntity
8
1
62
256
6
ByLayer
370
18
48
1
60
0
100
AcDbLine
10
152.455123
20
-21.033244
30
0
11
153.400998
21
-20.50397
31
0
39
0
210
0
220
0
230
1
0
LINE
5
DC
100
AcDbEntity
8
1
62
256
6
ByLayer
370
18
48
1
60
0
100
AcDbLine
10
151.982185
20
-21.899033
30
0
11
152.455123
21
-21.033244
31
0
39
0
210
0
220
0
230
1
0
LINE
5
DD
100
AcDbEntity
8
1
62
256
6
ByLayer
370
18
48
1
60
0
100
AcDbLine
10
152.455123
20
-22.235549
30
0
11
151.982185
21
-21.899033
31
0
39
0
210
0
220
0
230
1
0
LINE
5
DE
100
AcDbEntity
8
1
62
256
6
ByLayer
370
18
48
1
60
0
100
AcDbLine
10
152.050563
20
-21.773832
30
0
11
152.455123
21
-22.235549
31
0
39
0
210
0
220
0
230
1
0
LINE
5
DF
100
AcDbEntity
8
1
62
256
6
ByLayer
370
18
48
1
60
0
100
AcDbLine
10
152.694114
20
-20.899521
30
0
11
153.400998
21
-21.706275
31
0
39
0
210
0
220
0
230
1
0
LINE
5
E0
100
AcDbEntity
8
SK4
62
256
6
ByLayer
370
13
48
0.05
60
0
100
AcDbLine
10
-45
20
0
30
0
11
160
21
0
31
0
39
0
210
0
220
0
230
1
0
LINE
5
E2
100
AcDbEntity
8
SK4
62
256
6
ByLayer
370
13
48
0.05
60
0
100
AcDbLine
10
-8
20
0
30
0
11
154
21
0
31
0
39
0
210
0
220
0
230
1
0
LINE
5
E3
100
AcDbEntity
8
80
62
256
6
ByLayer
370
18
48
1
60
0
100
AcDbLine
10
0
20
0
30
0
11
-9
21
0
31
0
39
0
210
0
220
0
230
1
0
LINE
5
E4
100
AcDbEntity
8
81
62
256
6
ByLayer
370
18
48
1
60
0
100
AcDbLine
10
173.99736
20
-44.99736
30
0
11
164.99736
21
-44.99736
31
0
39
0
210
0
220
0
230
1
0
MTEXT
5
183
100
AcDbEntity
8
SK6
62
256
6
ByLayer
370
18
48
1
60
0
100
AcDbMText
10
58.877414
20
-75.937462
30
0
210
0
220
0
230
1
1
\W0.7232;C6-PCLNL-45165-12HP
40
3.175
41
0
44
1.084337
50
0
71
7
72
5
7
iso_b_vert
0
DIMENSION
5
1AD
100
AcDbEntity
8
SK2
62
256
6
ByLayer
370
13
48
1
60
0
100
AcDbDimension
2
DimnDraft3D3
10
-56.608019
20
31.5
30
0
11
-56.058109
21
1.912435
31
0
70
33
71
5
72
1
41
1
210
0
220
0
230
1
3
Standard
100
AcDbAlignedDimension
13
-1.2875
23
-31.5
33
0
14
-1.2875
24
31.5
34
0
1001
ACAD
1000
DSTYLE
1002
{
1070
   279
1070
     0
1070
    74
1070
     0
1070
   173
1070
     1
1070
   340
1005
184
1070
   271
1070
     2
1070
   272
1070
     2
1070
    77
1070
     1
1070
    73
1070
     0
1070
   171
1070
     3
1070
   274
1070
     4
1070
   177
1070
     7
1070
   176
1070
     7
1070
   178
1070
     7
1070
    78
1070
     8
1070
    48
1040
-0.005
1070
    41
1041
3.175
1070
   147
1041
1.75006
1070
    42
1041
1.5875
1070
    44
1041
3.175
1070
   140
1041
3.50012
1070
   343
1005
1AE
1070
   344
1005
1AE
1002
}
0
DIMENSION
5
1BF
100
AcDbEntity
8
2
62
256
6
ByLayer
370
13
48
1
60
0
100
AcDbDimension
2
DimnDraft3D4
10
164.99736
20
-44.137451
30
0
11
179.517664
21
-29.313235
31
0
70
34
71
5
72
1
41
1
210
0
220
0
230
1
3
Standard
100
AcDb2LineAngularDimension
13
164.99736
23
-44.99736
33
0
14
165.99736
24
-44.99736
34
0
15
164.053471
25
-32.635689
35
0
16
177.146078
26
-31.887418
36
0
40
0
0
ENDSEC
0
SECTION
2
OBJECTS
0
DICTIONARY
5
22a
330
0
100
AcDbDictionary
280
0
281
1
3
ACAD_GROUP
350
22b
3
ACAD_MLINESTYLE
350
22c
0
DICTIONARY
5
22b
330
0
100
AcDbDictionary
280
0
281
1
0
DICTIONARY
5
22c
330
0
100
AcDbDictionary
280
0
281
1
3
Standard
350
18
0
MLINESTYLE
5
18
330
22c
100
AcDbMlineStyle
2
Standard
70
0
3

62
256
51
90
52
90
71
2
49
-0.5
62
256
6
ByLayer
49
0.5
62
256
6
ByLayer
0
RASTERVARIABLES
5
218
330

100
AcDbRasterVariables
90
0
70
1
71
1
72
1
0
ENDSEC
0
EOF
