  0
SECTION
  2
HEADER
  9
$ACADVER
  1
AC1015
  9
$ACADMAINTVER
 70
    20
  9
$DWGCODEPAGE
  3
ANSI_1252
  9
$INSBASE
 10
0.0
 20
0.0
 30
0.0
  9
$EXTMIN
 10
-50.74757210950792
 20
-53.55041390232554
 30
-1.746147464644906
  9
$EXTMAX
 10
81.93034472331669
 20
82.76016314835306
 30
0.0000000099815534
  9
$LIMMIN
 10
-170.0
 20
-170.0
  9
$LIMMAX
 10
519.0
 20
260.0
  9
$ORTHOMODE
 70
     0
  9
$REGENMODE
 70
     1
  9
$FILLMODE
 70
     1
  9
$QTEXTMODE
 70
     0
  9
$MIRRTEXT
 70
     0
  9
$LTSCALE
 40
1.0
  9
$ATTMODE
 70
     1
  9
$TEXTSIZE
 40
3.5
  9
$TRACEWID
 40
1.0
  9
$TEXTSTYLE
  7
SIMPLEX
  9
$CLAYER
  8
1
  9
$CELTYPE
  6
BYLAYER
  9
$CECOLOR
 62
   256
  9
$CELTSCALE
 40
1.0
  9
$DISPSILH
 70
     0
  9
$DIMSCALE
 40
1.0
  9
$DIMASZ
 40
2.5
  9
$DIMEXO
 40
0.0
  9
$DIMDLI
 40
3.75
  9
$DIMRND
 40
0.0
  9
$DIMDLE
 40
0.0
  9
$DIMEXE
 40
1.25
  9
$DIMTP
 40
0.0
  9
$DIMTM
 40
0.0
  9
$DIMTXT
 40
3.5
  9
$DIMCEN
 40
0.0
  9
$DIMTSZ
 40
0.0
  9
$DIMTOL
 70
     0
  9
$DIMLIM
 70
     0
  9
$DIMTIH
 70
     0
  9
$DIMTOH
 70
     0
  9
$DIMSE1
 70
     0
  9
$DIMSE2
 70
     0
  9
$DIMTAD
 70
     1
  9
$DIMZIN
 70
     8
  9
$DIMBLK
  1

  9
$DIMASO
 70
     1
  9
$DIMSHO
 70
     1
  9
$DIMPOST
  1

  9
$DIMAPOST
  1

  9
$DIMALT
 70
     0
  9
$DIMALTD
 70
     3
  9
$DIMALTF
 40
0.039370078
  9
$DIMLFAC
 40
1.0
  9
$DIMTOFL
 70
     0
  9
$DIMTVP
 40
0.0
  9
$DIMTIX
 70
     0
  9
$DIMSOXD
 70
     0
  9
$DIMSAH
 70
     0
  9
$DIMBLK1
  1

  9
$DIMBLK2
  1

  9
$DIMSTYLE
  2
SANDVIK_STYLE
  9
$DIMCLRD
 70
     0
  9
$DIMCLRE
 70
     0
  9
$DIMCLRT
 70
     0
  9
$DIMTFAC
 40
1.0
  9
$DIMGAP
 40
0.625
  9
$DIMJUST
 70
     0
  9
$DIMSD1
 70
     0
  9
$DIMSD2
 70
     0
  9
$DIMTOLJ
 70
     0
  9
$DIMTZIN
 70
     8
  9
$DIMALTZ
 70
     0
  9
$DIMALTTZ
 70
     0
  9
$DIMUPT
 70
     0
  9
$DIMDEC
 70
     2
  9
$DIMTDEC
 70
     2
  9
$DIMALTU
 70
     2
  9
$DIMALTTD
 70
     3
  9
$DIMTXSTY
  7
SIMPLEX
  9
$DIMAUNIT
 70
     0
  9
$DIMADEC
 70
     2
  9
$DIMALTRND
 40
0.0
  9
$DIMAZIN
 70
     2
  9
$DIMDSEP
 70
    46
  9
$DIMATFIT
 70
     3
  9
$DIMFRAC
 70
     0
  9
$DIMLDRBLK
  1

  9
$DIMLUNIT
 70
     2
  9
$DIMLWD
 70
    -2
  9
$DIMLWE
 70
    -2
  9
$DIMTMOVE
 70
     0
  9
$LUNITS
 70
     2
  9
$LUPREC
 70
     4
  9
$SKETCHINC
 40
1.0
  9
$FILLETRAD
 40
0.0
  9
$AUNITS
 70
     0
  9
$AUPREC
 70
     0
  9
$MENU
  1
c:\tdm21\cad\caduti13\tdm13
  9
$ELEVATION
 40
0.0
  9
$PELEVATION
 40
0.0
  9
$THICKNESS
 40
0.0
  9
$LIMCHECK
 70
     0
  9
$CHAMFERA
 40
0.0
  9
$CHAMFERB
 40
0.0
  9
$CHAMFERC
 40
0.0
  9
$CHAMFERD
 40
0.0
  9
$SKPOLY
 70
     0
  9
$TDCREATE
 40
2455883.643486840
  9
$TDUCREATE
 40
2455883.560153508
  9
$TDUPDATE
 40
2456817.852186644
  9
$TDUUPDATE
 40
2456817.768853310
  9
$TDINDWG
 40
0.0008791898
  9
$TDUSRTIMER
 40
0.0008791551
  9
$USRTIMER
 70
     1
  9
$ANGBASE
 50
0.0
  9
$ANGDIR
 70
     0
  9
$PDMODE
 70
     1
  9
$PDSIZE
 40
0.0
  9
$PLINEWID
 40
0.0
  9
$SPLFRAME
 70
     0
  9
$SPLINETYPE
 70
     6
  9
$SPLINESEGS
 70
     8
  9
$HANDSEED
  5
127B9
  9
$SURFTAB1
 70
     6
  9
$SURFTAB2
 70
     6
  9
$SURFTYPE
 70
     6
  9
$SURFU
 70
     6
  9
$SURFV
 70
     6
  9
$UCSBASE
  2

  9
$UCSNAME
  2

  9
$UCSORG
 10
0.0
 20
0.0
 30
0.0
  9
$UCSXDIR
 10
1.0
 20
0.0
 30
0.0
  9
$UCSYDIR
 10
0.0
 20
1.0
 30
0.0
  9
$UCSORTHOREF
  2

  9
$UCSORTHOVIEW
 70
     0
  9
$UCSORGTOP
 10
0.0
 20
0.0
 30
0.0
  9
$UCSORGBOTTOM
 10
0.0
 20
0.0
 30
0.0
  9
$UCSORGLEFT
 10
0.0
 20
0.0
 30
0.0
  9
$UCSORGRIGHT
 10
0.0
 20
0.0
 30
0.0
  9
$UCSORGFRONT
 10
0.0
 20
0.0
 30
0.0
  9
$UCSORGBACK
 10
0.0
 20
0.0
 30
0.0
  9
$PUCSBASE
  2

  9
$PUCSNAME
  2

  9
$PUCSORG
 10
0.0
 20
0.0
 30
0.0
  9
$PUCSXDIR
 10
1.0
 20
0.0
 30
0.0
  9
$PUCSYDIR
 10
0.0
 20
1.0
 30
0.0
  9
$PUCSORTHOREF
  2

  9
$PUCSORTHOVIEW
 70
     0
  9
$PUCSORGTOP
 10
0.0
 20
0.0
 30
0.0
  9
$PUCSORGBOTTOM
 10
0.0
 20
0.0
 30
0.0
  9
$PUCSORGLEFT
 10
0.0
 20
0.0
 30
0.0
  9
$PUCSORGRIGHT
 10
0.0
 20
0.0
 30
0.0
  9
$PUCSORGFRONT
 10
0.0
 20
0.0
 30
0.0
  9
$PUCSORGBACK
 10
0.0
 20
0.0
 30
0.0
  9
$USERI1
 70
     0
  9
$USERI2
 70
     0
  9
$USERI3
 70
     0
  9
$USERI4
 70
     0
  9
$USERI5
 70
     0
  9
$USERR1
 40
0.0
  9
$USERR2
 40
0.0
  9
$USERR3
 40
0.0
  9
$USERR4
 40
0.0
  9
$USERR5
 40
0.0
  9
$WORLDVIEW
 70
     1
  9
$SHADEDGE
 70
     3
  9
$SHADEDIF
 70
    70
  9
$TILEMODE
 70
     1
  9
$MAXACTVP
 70
    64
  9
$PINSBASE
 10
0.0
 20
0.0
 30
0.0
  9
$PLIMCHECK
 70
     0
  9
$PEXTMIN
 10
0.0
 20
0.0
 30
0.0
  9
$PEXTMAX
 10
0.0
 20
0.0
 30
0.0
  9
$PLIMMIN
 10
0.0
 20
0.0
  9
$PLIMMAX
 10
12.0
 20
9.0
  9
$UNITMODE
 70
     0
  9
$VISRETAIN
 70
     0
  9
$PLINEGEN
 70
     0
  9
$PSLTSCALE
 70
     1
  9
$TREEDEPTH
 70
  3020
  9
$CMLSTYLE
  2
STANDARD
  9
$CMLJUST
 70
     0
  9
$CMLSCALE
 40
20.0
  9
$PROXYGRAPHICS
 70
     1
  9
$MEASUREMENT
 70
     1
  9
$CELWEIGHT
370
    -1
  9
$ENDCAPS
280
     0
  9
$JOINSTYLE
280
     0
  9
$LWDISPLAY
290
     0
  9
$INSUNITS
 70
     4
  9
$HYPERLINKBASE
  1

  9
$STYLESHEET
  1
MONOCHROME.CTB
  9
$XEDIT
290
     1
  9
$CEPSNTYPE
380
     0
  9
$PSTYLEMODE
290
     1
  9
$FINGERPRINTGUID
  2
{2541ECFD-A15C-4867-AF57-EDFAAE528261}
  9
$VERSIONGUID
  2
{208F8F04-7F0E-4AE6-8E67-44E59ACD5851}
  9
$EXTNAMES
290
     1
  9
$PSVPSCALE
 40
0.0
  9
$OLESTARTUP
290
     0
  0
ENDSEC
  0
SECTION
  2
CLASSES
  0
CLASS
  1
ACDBDICTIONARYWDFLT
  2
AcDbDictionaryWithDefault
  3
ObjectDBX Classes
 90
        0
280
     0
281
     0
  0
CLASS
  1
ACDBPLACEHOLDER
  2
AcDbPlaceHolder
  3
ObjectDBX Classes
 90
        0
280
     0
281
     0
  0
CLASS
  1
LAYOUT
  2
AcDbLayout
  3
ObjectDBX Classes
 90
        0
280
     0
281
     0
  0
CLASS
  1
DICTIONARYVAR
  2
AcDbDictionaryVar
  3
ObjectDBX Classes
 90
        0
280
     0
281
     0
  0
CLASS
  1
TABLESTYLE
  2
AcDbTableStyle
  3
ObjectDBX Classes
 90
     4095
280
     0
281
     0
  0
CLASS
  1
MATERIAL
  2
AcDbMaterial
  3
ObjectDBX Classes
 90
     1153
280
     0
281
     0
  0
CLASS
  1
VISUALSTYLE
  2
AcDbVisualStyle
  3
ObjectDBX Classes
 90
     4095
280
     0
281
     0
  0
CLASS
  1
SCALE
  2
AcDbScale
  3
ObjectDBX Classes
 90
     1153
280
     0
281
     0
  0
CLASS
  1
MLEADERSTYLE
  2
AcDbMLeaderStyle
  3
ACDB_MLEADERSTYLE_CLASS
 90
     4095
280
     0
281
     0
  0
CLASS
  1
CELLSTYLEMAP
  2
AcDbCellStyleMap
  3
ObjectDBX Classes
 90
     1152
280
     0
281
     0
  0
CLASS
  1
SORTENTSTABLE
  2
AcDbSortentsTable
  3
ObjectDBX Classes
 90
        0
280
     0
281
     0
  0
CLASS
  1
ACDBSECTIONVIEWSTYLE
  2
AcDbSectionViewStyle
  3
ObjectDBX Classes
 90
     1025
280
     0
281
     0
  0
CLASS
  1
ACDBDETAILVIEWSTYLE
  2
AcDbDetailViewStyle
  3
ObjectDBX Classes
 90
     1025
280
     0
281
     0
  0
CLASS
  1
EXACXREFPANELOBJECT
  2
ExAcXREFPanelObject
  3
EXAC_ESW
 90
     1025
280
     0
281
     0
  0
CLASS
  1
NPOCOLLECTION
  2
AcDbImpNonPersistentObjectsCollection
  3
ObjectDBX Classes
 90
     1153
280
     0
281
     0
  0
ENDSEC
  0
SECTION
  2
TABLES
  0
TABLE
  2
VPORT
  5
8
330
0
100
AcDbSymbolTable
 70
     1
  0
VPORT
  5
3ED
330
8
100
AcDbSymbolTableRecord
100
AcDbViewportTableRecord
  2
*Active
 70
     0
 10
0.0
 20
0.0
 11
1.0
 21
1.0
 12
15.59138630690438
 22
14.60487462301376
 13
0.0
 23
0.0
 14
5.0
 24
5.0
 15
5.0
 25
5.0
 16
0.0
 26
0.0
 36
1.0
 17
0.0
 27
0.0
 37
0.0
 40
152.5432029195526
 41
2.2
 42
50.0
 43
0.0
 44
0.0
 50
0.0
 51
0.0
 71
     0
 72
  2000
 73
     1
 74
     1
 75
     0
 76
     0
 77
     0
 78
     0
281
     0
 65
     1
110
0.0
120
0.0
130
0.0
111
1.0
121
0.0
131
0.0
112
0.0
122
1.0
132
0.0
 79
     0
146
0.0
1001
ACAD_NAV_VCDISPLAY
1070
     3
  0
ENDTAB
  0
TABLE
  2
LTYPE
  5
5
330
0
100
AcDbSymbolTable
 70
    28
  0
LTYPE
  5
12
330
5
100
AcDbSymbolTableRecord
100
AcDbLinetypeTableRecord
  2
BYBLOCK
 70
     0
  3

 72
    65
 73
     0
 40
0.0
  0
LTYPE
  5
13
330
5
100
AcDbSymbolTableRecord
100
AcDbLinetypeTableRecord
  2
BYLAYER
 70
     0
  3

 72
    65
 73
     0
 40
0.0
  0
LTYPE
  5
14
330
5
100
AcDbSymbolTableRecord
100
AcDbLinetypeTableRecord
  2
CONTINUOUS
 70
     0
  3
Solid line
 72
    65
 73
     0
 40
0.0
  0
LTYPE
  5
1246C
330
5
100
AcDbSymbolTableRecord
100
AcDbLinetypeTableRecord
  2
BORDER
 70
     0
  3
__ __ . __ __ . __ __ . __ __ . __ __ . __ __ .
 72
    65
 73
     6
 40
44.45
 49
12.7
 74
     0
 49
-6.349999999999997
 74
     0
 49
12.7
 74
     0
 49
-6.349999999999997
 74
     0
 49
0.0
 74
     0
 49
-6.349999999999997
 74
     0
  0
LTYPE
  5
1246D
330
5
100
AcDbSymbolTableRecord
100
AcDbLinetypeTableRecord
  2
BORDER2
 70
     0
  3
__.__.__.__.__.__.__.__.__.__.__.__.__.__.__.__
 72
    65
 73
     6
 40
22.225
 49
6.349999999999997
 74
     0
 49
-3.174999999999998
 74
     0
 49
6.349999999999997
 74
     0
 49
-3.174999999999998
 74
     0
 49
0.0
 74
     0
 49
-3.174999999999998
 74
     0
  0
LTYPE
  5
1246E
330
5
100
AcDbSymbolTableRecord
100
AcDbLinetypeTableRecord
  2
BORDERX2
 70
     0
  3
____  ____  .  ____  ____  .  ____  ____  .  __
 72
    65
 73
     6
 40
88.9
 49
25.4
 74
     0
 49
-12.7
 74
     0
 49
25.4
 74
     0
 49
-12.7
 74
     0
 49
0.0
 74
     0
 49
-12.7
 74
     0
  0
LTYPE
  5
1246F
330
5
100
AcDbSymbolTableRecord
100
AcDbLinetypeTableRecord
  2
CENTER
 70
     0
  3
____ _ ____ _ ____ _ ____ _ ____ _ ____ _ ____ 
 72
    65
 73
     4
 40
50.8
 49
31.75
 74
     0
 49
-6.349999999999997
 74
     0
 49
6.349999999999997
 74
     0
 49
-6.349999999999997
 74
     0
  0
LTYPE
  5
12470
330
5
100
AcDbSymbolTableRecord
100
AcDbLinetypeTableRecord
  2
CENTER2
 70
     0
  3
___ _ ___ _ ___ _ ___ _ ___ _ ___ _ ___ _ ___ _
 72
    65
 73
     4
 40
28.57499999999999
 49
19.05
 74
     0
 49
-3.174999999999998
 74
     0
 49
3.174999999999998
 74
     0
 49
-3.174999999999998
 74
     0
  0
LTYPE
  5
12471
330
5
100
AcDbSymbolTableRecord
100
AcDbLinetypeTableRecord
  2
CENTERX2
 70
     0
  3
________  __  ________  __  ________  __  _____
 72
    65
 73
     4
 40
101.6
 49
63.5
 74
     0
 49
-12.7
 74
     0
 49
12.7
 74
     0
 49
-12.7
 74
     0
  0
LTYPE
  5
12472
330
5
100
AcDbSymbolTableRecord
100
AcDbLinetypeTableRecord
  2
CENTRE
 70
     0
  3
____ _ ____ _ ____ _ ____ _ ____ _ ____ _ ____ 
 72
    65
 73
     4
 40
50.8
 49
31.75
 74
     0
 49
-6.349999999999997
 74
     0
 49
6.349999999999997
 74
     0
 49
-6.349999999999997
 74
     0
  0
LTYPE
  5
12473
330
5
100
AcDbSymbolTableRecord
100
AcDbLinetypeTableRecord
  2
CENTRE2
 70
     0
  3
___ _ ___ _ ___ _ ___ _ ___ _ ___ _ ___ _ ___ _
 72
    65
 73
     4
 40
28.57499999999999
 49
19.05
 74
     0
 49
-3.174999999999998
 74
     0
 49
3.174999999999998
 74
     0
 49
-3.174999999999998
 74
     0
  0
LTYPE
  5
12474
330
5
100
AcDbSymbolTableRecord
100
AcDbLinetypeTableRecord
  2
CENTREX2
 70
     0
  3
________  __  ________  __  ________  __  _____
 72
    65
 73
     4
 40
101.6
 49
63.5
 74
     0
 49
-12.7
 74
     0
 49
12.7
 74
     0
 49
-12.7
 74
     0
  0
LTYPE
  5
12475
330
5
100
AcDbSymbolTableRecord
100
AcDbLinetypeTableRecord
  2
DASHDOT
 70
     0
  3
__ . __ . __ . __ . __ . __ . __ . __ . __ . __
 72
    65
 73
     4
 40
25.4
 49
12.7
 74
     0
 49
-6.349999999999997
 74
     0
 49
0.0
 74
     0
 49
-6.349999999999997
 74
     0
  0
LTYPE
  5
12476
330
5
100
AcDbSymbolTableRecord
100
AcDbLinetypeTableRecord
  2
DASHDOT2
 70
     0
  3
_._._._._._._._._._._._._._._._._._._._._._._._
 72
    65
 73
     4
 40
12.7
 49
6.349999999999997
 74
     0
 49
-3.174999999999998
 74
     0
 49
0.0
 74
     0
 49
-3.174999999999998
 74
     0
  0
LTYPE
  5
12477
330
5
100
AcDbSymbolTableRecord
100
AcDbLinetypeTableRecord
  2
DASHDOTX2
 70
     0
  3
____  .  ____  .  ____  .  ____  .  ____  .  __
 72
    65
 73
     4
 40
50.8
 49
25.4
 74
     0
 49
-12.7
 74
     0
 49
0.0
 74
     0
 49
-12.7
 74
     0
  0
LTYPE
  5
12478
330
5
100
AcDbSymbolTableRecord
100
AcDbLinetypeTableRecord
  2
DASHED
 70
     0
  3
__ __ __ __ __ __ __ __ __ __ __ __ __ __ __ __
 72
    65
 73
     2
 40
19.05
 49
12.7
 74
     0
 49
-6.349999999999997
 74
     0
  0
LTYPE
  5
12479
330
5
100
AcDbSymbolTableRecord
100
AcDbLinetypeTableRecord
  2
DASHED2
 70
     0
  3
_ _ _ _ _ _ _ _ _ _ _ _ _ _ _ _ _ _ _ _ _ _ _ _
 72
    65
 73
     2
 40
9.525
 49
6.349999999999997
 74
     0
 49
-3.174999999999998
 74
     0
  0
LTYPE
  5
1247A
330
5
100
AcDbSymbolTableRecord
100
AcDbLinetypeTableRecord
  2
DASHEDX2
 70
     0
  3
____  ____  ____  ____  ____  ____  ____  ____ 
 72
    65
 73
     2
 40
38.1
 49
25.4
 74
     0
 49
-12.7
 74
     0
  0
LTYPE
  5
1247B
330
5
100
AcDbSymbolTableRecord
100
AcDbLinetypeTableRecord
  2
DIVIDE
 70
     0
  3
____ . . ____ . . ____ . . ____ . . ____ . . __
 72
    65
 73
     6
 40
31.75
 49
12.7
 74
     0
 49
-6.349999999999997
 74
     0
 49
0.0
 74
     0
 49
-6.349999999999997
 74
     0
 49
0.0
 74
     0
 49
-6.349999999999997
 74
     0
  0
LTYPE
  5
1247C
330
5
100
AcDbSymbolTableRecord
100
AcDbLinetypeTableRecord
  2
DIVIDE2
 70
     0
  3
__..__..__..__..__..__..__..__..__..__..__..__.
 72
    65
 73
     6
 40
15.875
 49
6.349999999999997
 74
     0
 49
-3.174999999999998
 74
     0
 49
0.0
 74
     0
 49
-3.174999999999998
 74
     0
 49
0.0
 74
     0
 49
-3.174999999999998
 74
     0
  0
LTYPE
  5
1247D
330
5
100
AcDbSymbolTableRecord
100
AcDbLinetypeTableRecord
  2
DIVIDEX2
 70
     0
  3
________  .  .  ________  .  .  ________  .  . 
 72
    65
 73
     6
 40
63.5
 49
25.4
 74
     0
 49
-12.7
 74
     0
 49
0.0
 74
     0
 49
-12.7
 74
     0
 49
0.0
 74
     0
 49
-12.7
 74
     0
  0
LTYPE
  5
1247E
330
5
100
AcDbSymbolTableRecord
100
AcDbLinetypeTableRecord
  2
DOT
 70
     0
  3
. . . . . . . . . . . . . . . . . . . . . . . .
 72
    65
 73
     2
 40
6.349999999999997
 49
0.0
 74
     0
 49
-6.349999999999997
 74
     0
  0
LTYPE
  5
1247F
330
5
100
AcDbSymbolTableRecord
100
AcDbLinetypeTableRecord
  2
DOT2
 70
     0
  3
...............................................
 72
    65
 73
     2
 40
3.174999999999998
 49
0.0
 74
     0
 49
-3.174999999999998
 74
     0
  0
LTYPE
  5
12480
330
5
100
AcDbSymbolTableRecord
100
AcDbLinetypeTableRecord
  2
DOTX2
 70
     0
  3
.  .  .  .  .  .  .  .  .  .  .  .  .  .  .  . 
 72
    65
 73
     2
 40
12.7
 49
0.0
 74
     0
 49
-12.7
 74
     0
  0
LTYPE
  5
12481
330
5
100
AcDbSymbolTableRecord
100
AcDbLinetypeTableRecord
  2
HIDDEN
 70
     0
  3
__ __ __ __ __ __ __ __ __ __ __ __ __ __ __ __
 72
    65
 73
     2
 40
9.525
 49
6.349999999999997
 74
     0
 49
-3.174999999999998
 74
     0
  0
LTYPE
  5
12482
330
5
100
AcDbSymbolTableRecord
100
AcDbLinetypeTableRecord
  2
HIDDEN2
 70
     0
  3
_ _ _ _ _ _ _ _ _ _ _ _ _ _ _ _ _ _ _ _ _ _ _ _
 72
    65
 73
     2
 40
4.7625
 49
3.174999999999998
 74
     0
 49
-1.587499999999999
 74
     0
  0
LTYPE
  5
12483
330
5
100
AcDbSymbolTableRecord
100
AcDbLinetypeTableRecord
  2
HIDDENX2
 70
     0
  3
____ ____ ____ ____ ____ ____ ____ ____ ____ __
 72
    65
 73
     2
 40
19.05
 49
12.7
 74
     0
 49
-6.349999999999997
 74
     0
  0
LTYPE
  5
12484
330
5
100
AcDbSymbolTableRecord
100
AcDbLinetypeTableRecord
  2
PHANTOM
 70
     0
  3
______  __  __  ______  __  __  ______  __  __ 
 72
    65
 73
     6
 40
63.5
 49
31.75
 74
     0
 49
-6.349999999999997
 74
     0
 49
6.349999999999997
 74
     0
 49
-6.349999999999997
 74
     0
 49
6.349999999999997
 74
     0
 49
-6.349999999999997
 74
     0
  0
LTYPE
  5
12485
330
5
100
AcDbSymbolTableRecord
100
AcDbLinetypeTableRecord
  2
PHANTOM2
 70
     0
  3
___ _ _ ___ _ _ ___ _ _ ___ _ _ ___ _ _ ___ _ _
 72
    65
 73
     6
 40
31.75
 49
15.875
 74
     0
 49
-3.174999999999998
 74
     0
 49
3.174999999999998
 74
     0
 49
-3.174999999999998
 74
     0
 49
3.174999999999998
 74
     0
 49
-3.174999999999998
 74
     0
  0
LTYPE
  5
12486
330
5
100
AcDbSymbolTableRecord
100
AcDbLinetypeTableRecord
  2
PHANTOMX2
 70
     0
  3
____________    ____    ____    ____________   
 72
    65
 73
     6
 40
127.0
 49
63.5
 74
     0
 49
-12.7
 74
     0
 49
12.7
 74
     0
 49
-12.7
 74
     0
 49
12.7
 74
     0
 49
-12.7
 74
     0
  0
ENDTAB
  0
TABLE
  2
LAYER
  5
2
330
0
100
AcDbSymbolTable
 70
    25
  0
LAYER
  5
F
102
{ACAD_XDICTIONARY
360
12746
102
}
330
2
100
AcDbSymbolTableRecord
100
AcDbLayerTableRecord
  2
0
 70
     0
 62
     7
  6
CONTINUOUS
370
    -3
390
300
  0
LAYER
  5
23
102
{ACAD_XDICTIONARY
360
12748
102
}
330
2
100
AcDbSymbolTableRecord
100
AcDbLayerTableRecord
  2
1
 70
     0
 62
     4
  6
CONTINUOUS
370
    -3
390
300
  0
LAYER
  5
12487
102
{ACAD_XDICTIONARY
360
1274A
102
}
330
2
100
AcDbSymbolTableRecord
100
AcDbLayerTableRecord
  2
2
 70
     0
 62
     7
  6
CONTINUOUS
370
    -3
390
300
  0
LAYER
  5
12488
330
2
100
AcDbSymbolTableRecord
100
AcDbLayerTableRecord
  2
DEFPOINTS
 70
     0
 62
     7
  6
CONTINUOUS
290
     0
370
    -3
390
300
  0
LAYER
  5
12489
102
{ACAD_XDICTIONARY
360
1274C
102
}
330
2
100
AcDbSymbolTableRecord
100
AcDbLayerTableRecord
  2
IGES_FRZ
 70
     0
 62
     7
  6
CONTINUOUS
370
    -3
390
300
  0
LAYER
  5
1248A
102
{ACAD_XDICTIONARY
360
1274E
102
}
330
2
100
AcDbSymbolTableRecord
100
AcDbLayerTableRecord
  2
95
 70
     0
 62
     7
  6
CONTINUOUS
370
    -3
390
300
  0
LAYER
  5
1248B
102
{ACAD_XDICTIONARY
360
12750
102
}
330
2
100
AcDbSymbolTableRecord
100
AcDbLayerTableRecord
  2
95_TOP
 70
     0
 62
     7
  6
CONTINUOUS
370
    -3
390
300
  0
LAYER
  5
1248C
102
{ACAD_XDICTIONARY
360
12752
102
}
330
2
100
AcDbSymbolTableRecord
100
AcDbLayerTableRecord
  2
91
 70
     0
 62
     7
  6
CONTINUOUS
370
    -3
390
300
  0
LAYER
  5
1248D
102
{ACAD_XDICTIONARY
360
12754
102
}
330
2
100
AcDbSymbolTableRecord
100
AcDbLayerTableRecord
  2
91_TOP
 70
     0
 62
     7
  6
CONTINUOUS
370
    -3
390
300
  0
LAYER
  5
1248E
102
{ACAD_XDICTIONARY
360
12756
102
}
330
2
100
AcDbSymbolTableRecord
100
AcDbLayerTableRecord
  2
90
 70
     0
 62
     7
  6
CONTINUOUS
370
    -3
390
300
  0
LAYER
  5
1248F
102
{ACAD_XDICTIONARY
360
12758
102
}
330
2
100
AcDbSymbolTableRecord
100
AcDbLayerTableRecord
  2
90_TOP
 70
     0
 62
     7
  6
CONTINUOUS
370
    -3
390
300
  0
LAYER
  5
12490
102
{ACAD_XDICTIONARY
360
1275A
102
}
330
2
100
AcDbSymbolTableRecord
100
AcDbLayerTableRecord
  2
IGES
 70
     0
 62
     7
  6
CONTINUOUS
370
    -3
390
300
  0
LAYER
  5
12491
102
{ACAD_XDICTIONARY
360
1275C
102
}
330
2
100
AcDbSymbolTableRecord
100
AcDbLayerTableRecord
  2
11
 70
     0
 62
     4
  6
CONTINUOUS
370
    -3
390
300
  0
LAYER
  5
12492
102
{ACAD_XDICTIONARY
360
1275E
102
}
330
2
100
AcDbSymbolTableRecord
100
AcDbLayerTableRecord
  2
20
 70
     0
 62
     7
  6
CONTINUOUS
370
    -3
390
300
  0
LAYER
  5
12493
102
{ACAD_XDICTIONARY
360
12760
102
}
330
2
100
AcDbSymbolTableRecord
100
AcDbLayerTableRecord
  2
12
 70
     0
 62
     7
  6
CONTINUOUS
370
    -3
390
300
  0
LAYER
  5
12494
102
{ACAD_XDICTIONARY
360
12762
102
}
330
2
100
AcDbSymbolTableRecord
100
AcDbLayerTableRecord
  2
3
 70
     0
 62
     1
  6
HIDDEN
370
    -3
390
300
  0
LAYER
  5
12495
102
{ACAD_XDICTIONARY
360
12764
102
}
330
2
100
AcDbSymbolTableRecord
100
AcDbLayerTableRecord
  2
13
 70
     0
 62
     1
  6
HIDDEN
370
    -3
390
300
  0
LAYER
  5
12496
102
{ACAD_XDICTIONARY
360
12766
102
}
330
2
100
AcDbSymbolTableRecord
100
AcDbLayerTableRecord
  2
4
 70
     0
 62
     2
  6
CENTER
370
    -3
390
300
  0
LAYER
  5
12497
102
{ACAD_XDICTIONARY
360
12768
102
}
330
2
100
AcDbSymbolTableRecord
100
AcDbLayerTableRecord
  2
14
 70
     0
 62
     2
  6
CENTER
370
    -3
390
300
  0
LAYER
  5
12498
102
{ACAD_XDICTIONARY
360
1276A
102
}
330
2
100
AcDbSymbolTableRecord
100
AcDbLayerTableRecord
  2
5
 70
     0
 62
    -7
  6
CONTINUOUS
370
    -3
390
300
  0
LAYER
  5
12499
102
{ACAD_XDICTIONARY
360
1276C
102
}
330
2
100
AcDbSymbolTableRecord
100
AcDbLayerTableRecord
  2
6
 70
     0
 62
     5
  6
CONTINUOUS
370
    -3
390
300
  0
LAYER
  5
1249A
102
{ACAD_XDICTIONARY
360
1276E
102
}
330
2
100
AcDbSymbolTableRecord
100
AcDbLayerTableRecord
  2
16
 70
     0
 62
     5
  6
CONTINUOUS
370
    -3
390
300
  0
LAYER
  5
1249B
102
{ACAD_XDICTIONARY
360
12770
102
}
330
2
100
AcDbSymbolTableRecord
100
AcDbLayerTableRecord
  2
80
 70
     0
 62
     2
  6
CENTER
370
    -3
390
300
  0
LAYER
  5
1249C
102
{ACAD_XDICTIONARY
360
12772
102
}
330
2
100
AcDbSymbolTableRecord
100
AcDbLayerTableRecord
  2
81
 70
     0
 62
     2
  6
CENTER
370
    -3
390
300
  0
LAYER
  5
1249D
102
{ACAD_XDICTIONARY
360
12774
102
}
330
2
100
AcDbSymbolTableRecord
100
AcDbLayerTableRecord
  2
82
 70
     0
 62
     2
  6
CENTER
370
    -3
390
300
  0
ENDTAB
  0
TABLE
  2
STYLE
  5
3
330
0
100
AcDbSymbolTable
 70
     5
  0
STYLE
  5
10
330
3
100
AcDbSymbolTableRecord
100
AcDbTextStyleTableRecord
  2
STANDARD
 70
     0
 40
0.0
 41
1.0
 50
0.0
 71
     0
 42
5.0
  3
txt
  4

  0
STYLE
  5
1E
330
3
100
AcDbSymbolTableRecord
100
AcDbTextStyleTableRecord
  2
SIMPLEX
 70
     0
 40
0.0
 41
1.0
 50
0.0
 71
     0
 42
3.5
  3
simplex
  4

  0
STYLE
  5
1249E
330
3
100
AcDbSymbolTableRecord
100
AcDbTextStyleTableRecord
  2
Annotative
 70
     0
 40
0.0
 41
1.0
 50
0.0
 71
     0
 42
0.2
  3
txt
  4

1001
AcadAnnotative
1000
AnnotativeData
1002
{
1070
     1
1070
     1
1002
}
  0
STYLE
  5
1249F
330
3
100
AcDbSymbolTableRecord
100
AcDbTextStyleTableRecord
  2
TDM_STYLE
 70
     0
 40
0.0
 41
1.0
 50
0.0
 71
     0
 42
0.2
  3
txt
  4

  0
STYLE
  5
124A0
330
3
100
AcDbSymbolTableRecord
100
AcDbTextStyleTableRecord
  2
SANDVIK_STYLE
 70
     0
 40
4.57
 41
1.0
 50
15.0
 71
     0
 42
4.57
  3
simplex.shx
  4

  0
ENDTAB
  0
TABLE
  2
VIEW
  5
6
330
0
100
AcDbSymbolTable
 70
     0
  0
ENDTAB
  0
TABLE
  2
UCS
  5
7
330
0
100
AcDbSymbolTable
 70
     0
  0
ENDTAB
  0
TABLE
  2
APPID
  5
9
330
0
100
AcDbSymbolTable
 70
    11
  0
APPID
  5
11
330
9
100
AcDbSymbolTableRecord
100
AcDbRegAppTableRecord
  2
ACAD
 70
     0
  0
APPID
  5
3A6
330
9
100
AcDbSymbolTableRecord
100
AcDbRegAppTableRecord
  2
ACAD_PSEXT
 70
     0
  0
APPID
  5
3A8
330
9
100
AcDbSymbolTableRecord
100
AcDbRegAppTableRecord
  2
ACAD_EXEMPT_FROM_CAD_STANDARDS
 70
     0
  0
APPID
  5
43E
330
9
100
AcDbSymbolTableRecord
100
AcDbRegAppTableRecord
  2
ACAD_MLEADERVER
 70
     0
  0
APPID
  5
454
330
9
100
AcDbSymbolTableRecord
100
AcDbRegAppTableRecord
  2
ACAD_DSTYLE_DIMJAG
 70
     0
  0
APPID
  5
455
330
9
100
AcDbSymbolTableRecord
100
AcDbRegAppTableRecord
  2
ACAD_DSTYLE_DIMBREAK
 70
     0
  0
APPID
  5
456
330
9
100
AcDbSymbolTableRecord
100
AcDbRegAppTableRecord
  2
ACAD_DSTYLE_DIMTALN
 70
     0
  0
APPID
  5
58A
330
9
100
AcDbSymbolTableRecord
100
AcDbRegAppTableRecord
  2
AcadAnnotative
 70
     0
  0
APPID
  5
58B
330
9
100
AcDbSymbolTableRecord
100
AcDbRegAppTableRecord
  2
ACADIGES
 70
     0
  0
APPID
  5
58C
330
9
100
AcDbSymbolTableRecord
100
AcDbRegAppTableRecord
  2
ACAD_DSTYLE_DIMJOGGED_JOGANGLE_SYMBOL
 70
     0
  0
APPID
  5
12779
330
9
100
AcDbSymbolTableRecord
100
AcDbRegAppTableRecord
  2
ACAD_NAV_VCDISPLAY
 70
     0
  0
ENDTAB
  0
TABLE
  2
DIMSTYLE
  5
A
330
0
100
AcDbSymbolTable
 70
     5
100
AcDbDimStyleTable
 71
     1
340
457
  0
DIMSTYLE
105
457
102
{ACAD_REACTORS
330
126AA
330
126A9
330
126A8
330
126A7
102
}
330
A
100
AcDbSymbolTableRecord
100
AcDbDimStyleTableRecord
  2
SANDVIK_STYLE
 70
     0
 41
2.5
 42
0.0
 43
3.75
 44
1.25
 73
     0
 74
     0
 77
     1
 78
     8
 79
     2
140
3.5
141
0.0
143
0.039370078
147
0.625
171
     3
179
     2
271
     2
272
     2
274
     3
283
     0
284
     8
340
1E
1001
ACAD_DSTYLE_DIMBREAK
1070
   391
1040
3.75
1001
ACAD_DSTYLE_DIMJAG
1070
   388
1040
1.5
1001
ACAD_DSTYLE_DIMTALN
1070
   392
1070
     0
  0
DIMSTYLE
105
124A1
330
A
100
AcDbSymbolTableRecord
100
AcDbDimStyleTableRecord
  2
ISO-25
 70
     0
 41
2.5
 42
0.625
 43
3.75
 44
1.25
 73
     0
 74
     0
 77
     1
 78
     8
140
2.5
141
2.5
143
0.03937007874016
147
0.625
171
     3
172
     1
271
     2
272
     2
274
     3
278
    44
283
     0
284
     8
340
10
1001
ACAD_DSTYLE_DIMJOGGED_JOGANGLE_SYMBOL
1070
   384
1040
1.570796326794896
  0
DIMSTYLE
105
124A2
330
A
100
AcDbSymbolTableRecord
100
AcDbDimStyleTableRecord
  2
STANDARD
 70
     0
 41
3.0
 42
2.5
 43
10.0
 44
2.5
 46
1.25
 73
     0
 74
     0
140
3.0
141
-3.0
143
0.039
145
1.5
146
0.75
147
1.5
271
     2
272
     2
279
     2
340
1249F
  0
DIMSTYLE
105
124A3
330
A
100
AcDbSymbolTableRecord
100
AcDbDimStyleTableRecord
  2
Annotative
 70
     0
340
10
1001
AcadAnnotative
1000
AnnotativeData
1002
{
1070
     1
1070
     1
1002
}
  0
DIMSTYLE
105
124A4
330
A
100
AcDbSymbolTableRecord
100
AcDbDimStyleTableRecord
  2
SANDVIK_DIM
 70
     0
 41
3.0
 42
2.5
 43
10.0
 44
2.5
 46
1.25
 73
     0
 74
     0
140
3.0
141
-3.0
143
0.039
145
1.5
146
0.75
147
1.5
176
   256
177
   256
178
   256
271
     2
272
     2
279
     2
340
1249F
  0
ENDTAB
  0
TABLE
  2
BLOCK_RECORD
  5
1
330
0
100
AcDbSymbolTable
 70
    23
  0
BLOCK_RECORD
  5
18
330
1
100
AcDbSymbolTableRecord
100
AcDbBlockTableRecord
  2
*MODEL_SPACE
340
303
  0
BLOCK_RECORD
  5
338
330
1
100
AcDbSymbolTableRecord
100
AcDbBlockTableRecord
  2
*Paper_Space
340
33B
  0
BLOCK_RECORD
  5
12377
330
1
100
AcDbSymbolTableRecord
100
AcDbBlockTableRecord
  2
$MODEL_SPACE
340
0
  0
BLOCK_RECORD
  5
1237A
330
1
100
AcDbSymbolTableRecord
100
AcDbBlockTableRecord
  2
$PAPER_SPACE
340
0
  0
BLOCK_RECORD
  5
1237D
330
1
100
AcDbSymbolTableRecord
100
AcDbBlockTableRecord
  2
IGES_214_02
340
0
102
{BLKREFS
331
12385
331
12387
331
1238F
331
12391
331
12399
331
1239B
331
123A3
331
123A5
102
}
  0
BLOCK_RECORD
  5
12382
330
1
100
AcDbSymbolTableRecord
100
AcDbBlockTableRecord
  2
*U3
340
0
  0
BLOCK_RECORD
  5
1238C
330
1
100
AcDbSymbolTableRecord
100
AcDbBlockTableRecord
  2
*U4
340
0
  0
BLOCK_RECORD
  5
12396
330
1
100
AcDbSymbolTableRecord
100
AcDbBlockTableRecord
  2
*U5
340
0
  0
BLOCK_RECORD
  5
123A0
330
1
100
AcDbSymbolTableRecord
100
AcDbBlockTableRecord
  2
*U6
340
0
  0
BLOCK_RECORD
  5
123AA
330
1
100
AcDbSymbolTableRecord
100
AcDbBlockTableRecord
  2
DVIEWBLOCK
340
0
  0
BLOCK_RECORD
  5
123C0
330
1
100
AcDbSymbolTableRecord
100
AcDbBlockTableRecord
  2
*D8
340
0
  0
BLOCK_RECORD
  5
123CC
330
1
100
AcDbSymbolTableRecord
100
AcDbBlockTableRecord
  2
*D9
340
0
  0
BLOCK_RECORD
  5
123D8
330
1
100
AcDbSymbolTableRecord
100
AcDbBlockTableRecord
  2
*D10
340
0
  0
BLOCK_RECORD
  5
123E4
330
1
100
AcDbSymbolTableRecord
100
AcDbBlockTableRecord
  2
*D11
340
0
  0
BLOCK_RECORD
  5
123F3
330
1
100
AcDbSymbolTableRecord
100
AcDbBlockTableRecord
  2
*D12
340
0
  0
BLOCK_RECORD
  5
123FF
330
1
100
AcDbSymbolTableRecord
100
AcDbBlockTableRecord
  2
*U13
340
0
102
{BLKREFS
331
123F8
102
}
  0
BLOCK_RECORD
  5
12404
330
1
100
AcDbSymbolTableRecord
100
AcDbBlockTableRecord
  2
*D14
340
0
  0
BLOCK_RECORD
  5
12410
330
1
100
AcDbSymbolTableRecord
100
AcDbBlockTableRecord
  2
*D15
340
0
  0
BLOCK_RECORD
  5
1241C
330
1
100
AcDbSymbolTableRecord
100
AcDbBlockTableRecord
  2
*D16
340
0
  0
BLOCK_RECORD
  5
1242B
330
1
100
AcDbSymbolTableRecord
100
AcDbBlockTableRecord
  2
*D17
340
0
  0
BLOCK_RECORD
  5
12437
330
1
100
AcDbSymbolTableRecord
100
AcDbBlockTableRecord
  2
*D18
340
0
  0
BLOCK_RECORD
  5
12443
330
1
100
AcDbSymbolTableRecord
100
AcDbBlockTableRecord
  2
*D19
340
0
  0
BLOCK_RECORD
  5
12450
330
1
100
AcDbSymbolTableRecord
100
AcDbBlockTableRecord
  2
*D20
340
0
  0
BLOCK_RECORD
  5
1245F
102
{ACAD_XDICTIONARY
360
12460
102
}
330
1
100
AcDbSymbolTableRecord
100
AcDbBlockTableRecord
  2
_Zeropoint.dwg
340
0
102
{BLKREFS
331
1246A
102
}
  0
BLOCK_RECORD
  5
12468
330
1
100
AcDbSymbolTableRecord
100
AcDbBlockTableRecord
  2
_nullpunkt
340
0
102
{BLKREFS
331
126AD
102
}
1001
ACAD
1000
DesignCenter Data
1002
{
1070
     1
1070
     4
1002
}
  0
ENDTAB
  0
ENDSEC
  0
SECTION
  2
BLOCKS
  0
BLOCK
  5
32
330
18
100
AcDbEntity
  8
0
100
AcDbBlockBegin
  2
*MODEL_SPACE
 70
     0
 10
0.0
 20
0.0
 30
0.0
  3
*MODEL_SPACE
  1

  0
ENDBLK
  5
33
330
18
100
AcDbEntity
  8
0
100
AcDbBlockEnd
  0
BLOCK
  5
339
330
338
100
AcDbEntity
 67
     1
  8
0
100
AcDbBlockBegin
  2
*Paper_Space
 70
     0
 10
0.0
 20
0.0
 30
0.0
  3
*Paper_Space
  1

  0
ENDBLK
  5
33A
330
338
100
AcDbEntity
 67
     1
  8
0
100
AcDbBlockEnd
  0
BLOCK
  5
12378
330
12377
100
AcDbEntity
  8
0
100
AcDbBlockBegin
  2
$MODEL_SPACE
 70
     0
 10
0.0
 20
0.0
 30
0.0
  3
$MODEL_SPACE
  1

  0
ENDBLK
  5
12379
330
12377
100
AcDbEntity
  8
0
100
AcDbBlockEnd
  0
BLOCK
  5
1237B
330
1237A
100
AcDbEntity
  8
0
100
AcDbBlockBegin
  2
$PAPER_SPACE
 70
     0
 10
0.0
 20
0.0
 30
0.0
  3
$PAPER_SPACE
  1

  0
ENDBLK
  5
1237C
330
1237A
100
AcDbEntity
  8
0
100
AcDbBlockEnd
  0
BLOCK
  5
1237E
330
1237D
100
AcDbEntity
  8
0
100
AcDbBlockBegin
  2
IGES_214_02
 70
     0
 10
0.0
 20
0.0
 30
0.0
  3
IGES_214_02
  1

  0
LWPOLYLINE
  5
1237F
330
1237D
100
AcDbEntity
  8
0
100
AcDbPolyline
 90
        3
 70
     1
 43
0.0
 10
-1.0
 20
0.5
 10
0.0
 20
0.0
 10
-1.0
 20
-0.5
  0
LINE
  5
12380
330
1237D
100
AcDbEntity
  8
0
100
AcDbLine
 10
0.0
 20
0.0
 30
0.0
 11
-1.0
 21
0.0
 31
0.0
  0
ENDBLK
  5
12381
330
1237D
100
AcDbEntity
  8
0
100
AcDbBlockEnd
  0
BLOCK
  5
12383
330
12382
100
AcDbEntity
  8
0
100
AcDbBlockBegin
  2
*U3
 70
     1
 10
0.0
 20
0.0
 30
0.0
  3
*U3
  1
*IGES
  0
TEXT
  5
12384
330
12382
100
AcDbEntity
  8
12
100
AcDbText
 10
-41.443417
 20
102.251742
 30
0.0
 40
3.0
  1
%%c63
 41
0.8581429433962249
  7
SANDVIK_STYLE
 72
     5
 11
-34.94604900000001
 21
102.251742
 31
0.0
100
AcDbText
  0
INSERT
  5
12385
330
12382
100
AcDbEntity
  8
12
100
AcDbBlockReference
  2
IGES_214_02
 10
-6.694733
 20
100.751742
 30
0.0
 41
3.0
 43
3.0
  0
LINE
  5
12386
330
12382
100
AcDbEntity
  8
12
100
AcDbLine
 10
-9.694732999999999
 20
100.751742
 30
0.0
 11
-38.194733
 21
100.751742
 31
0.0
  0
INSERT
  5
12387
330
12382
100
AcDbEntity
  8
12
100
AcDbBlockReference
  2
IGES_214_02
 10
-69.694733
 20
100.751742
 30
0.0
 41
3.0
 43
3.0
 50
180.0
  0
LINE
  5
12388
330
12382
100
AcDbEntity
  8
12
100
AcDbLine
 10
-66.69473299999999
 20
100.751742
 30
0.0
 11
-38.194733
 21
100.751742
 31
0.0
  0
LINE
  5
12389
330
12382
100
AcDbEntity
  8
12
100
AcDbLine
 10
-6.694733
 20
56.50174200000001
 30
0.0
 11
-6.694733
 21
103.751742
 31
0.0
  0
LINE
  5
1238A
330
12382
100
AcDbEntity
  8
12
100
AcDbLine
 10
-69.694733
 20
56.50174200000001
 30
0.0
 11
-69.694733
 21
103.751742
 31
0.0
  0
ENDBLK
  5
1238B
330
12382
100
AcDbEntity
  8
0
100
AcDbBlockEnd
  0
BLOCK
  5
1238D
330
1238C
100
AcDbEntity
  8
0
100
AcDbBlockBegin
  2
*U4
 70
     1
 10
0.0
 20
0.0
 30
0.0
  3
*U4
  1
*IGES
  0
TEXT
  5
1238E
330
1238C
100
AcDbEntity
  8
20
100
AcDbText
 10
-17.64473299999998
 20
-24.99825799999999
 30
0.0
 40
3.0
  1
45
 41
0.8029411764705848
  7
SANDVIK_STYLE
 72
     5
 11
-13.744733
 21
-24.99825799999999
 31
0.0
100
AcDbText
  0
INSERT
  5
1238F
330
1238C
100
AcDbEntity
  8
20
100
AcDbBlockReference
  2
IGES_214_02
 10
6.805266999999997
 20
-26.498258
 30
0.0
 41
3.0
 43
3.0
  0
LINE
  5
12390
330
1238C
100
AcDbEntity
  8
20
100
AcDbLine
 10
3.805266999999998
 20
-26.498258
 30
0.0
 11
-15.694733
 21
-26.498258
 31
0.0
  0
INSERT
  5
12391
330
1238C
100
AcDbEntity
  8
20
100
AcDbBlockReference
  2
IGES_214_02
 10
-38.194733
 20
-26.498258
 30
0.0
 41
3.0
 43
3.0
 50
180.0
  0
LINE
  5
12392
330
1238C
100
AcDbEntity
  8
20
100
AcDbLine
 10
-35.194733
 20
-26.498258
 30
0.0
 11
-15.694733
 21
-26.498258
 31
0.0
  0
LINE
  5
12393
330
1238C
100
AcDbEntity
  8
20
100
AcDbLine
 10
6.805266999999997
 20
-11.498258
 30
0.0
 11
6.805266999999997
 21
-29.498258
 31
0.0
  0
LINE
  5
12394
330
1238C
100
AcDbEntity
  8
20
100
AcDbLine
 10
-38.194733
 20
-16.498258
 30
0.0
 11
-38.194733
 21
-29.498258
 31
0.0
  0
ENDBLK
  5
12395
330
1238C
100
AcDbEntity
  8
0
100
AcDbBlockEnd
  0
BLOCK
  5
12397
330
12396
100
AcDbEntity
  8
0
100
AcDbBlockBegin
  2
*U5
 70
     1
 10
0.0
 20
0.0
 30
0.0
  3
*U5
  1
*IGES
  0
TEXT
  5
12398
330
12396
100
AcDbEntity
  8
20
100
AcDbText
 10
-89.694733
 20
20.709637
 30
0.0
 40
3.0
  1
65
 50
90.0
 41
0.737925794117647
  7
SANDVIK_STYLE
 72
     5
 11
-89.694733
 21
24.293848
 31
0.0
100
AcDbText
  0
INSERT
  5
12399
330
12396
100
AcDbEntity
  8
20
100
AcDbBlockReference
  2
IGES_214_02
 10
-88.194733
 20
55.001742
 30
0.0
 41
3.0
 43
3.0
 50
90.0
  0
LINE
  5
1239A
330
12396
100
AcDbEntity
  8
20
100
AcDbLine
 10
-88.194733
 20
52.001742
 30
0.0
 11
-88.194733
 21
22.501742
 31
0.0
  0
INSERT
  5
1239B
330
12396
100
AcDbEntity
  8
20
100
AcDbBlockReference
  2
IGES_214_02
 10
-88.194733
 20
-9.998257999999999
 30
0.0
 41
3.0
 43
3.0
 50
270.0
  0
LINE
  5
1239C
330
12396
100
AcDbEntity
  8
20
100
AcDbLine
 10
-88.194733
 20
-6.998257999999997
 30
0.0
 11
-88.194733
 21
22.501742
 31
0.0
  0
LINE
  5
1239D
330
12396
100
AcDbEntity
  8
20
100
AcDbLine
 10
-71.194733
 20
55.001742
 30
0.0
 11
-91.19473300000001
 21
55.001742
 31
0.0
  0
LINE
  5
1239E
330
12396
100
AcDbEntity
  8
20
100
AcDbLine
 10
5.205267
 20
-9.998257999999999
 30
0.0
 11
-91.19473300000001
 21
-9.998257999999999
 31
0.0
  0
ENDBLK
  5
1239F
330
12396
100
AcDbEntity
  8
0
100
AcDbBlockEnd
  0
BLOCK
  5
123A1
330
123A0
100
AcDbEntity
  8
0
100
AcDbBlockBegin
  2
*U6
 70
     1
 10
0.0
 20
0.0
 30
0.0
  3
*U6
  1
*IGES
  0
TEXT
  5
123A2
330
123A0
100
AcDbEntity
  8
20
100
AcDbText
 10
29.425358
 20
17.755008
 30
0.0
 40
3.0
  1
93%%d
 50
316.4999951053538
 41
0.8578350057349716
  7
SANDVIK_STYLE
 72
     5
 11
33.33665300000002
 21
14.043327
 31
0.0
100
AcDbText
  0
INSERT
  5
123A3
330
123A0
100
AcDbEntity
  8
20
100
AcDbBlockReference
  2
IGES_214_02
 10
41.00741699999999
 20
-9.998257999999999
 30
0.0
 41
3.0
 43
3.0
 50
272.5128149999999
  0
ARC
  5
123A4
330
123A0
100
AcDbEntity
  8
20
100
AcDbCircle
 10
6.805266999999997
 20
-9.998257999999999
 30
0.0
 40
34.20215000000001
100
AcDbArc
 50
5.025629999999996
 51
46.5
  0
INSERT
  5
123A5
330
123A0
100
AcDbEntity
  8
20
100
AcDbBlockReference
  2
IGES_214_02
 10
5.015265
 20
24.15702
 30
0.0
 41
3.0
 43
3.0
 50
180.4871839999999
  0
ARC
  5
123A6
330
123A0
100
AcDbEntity
  8
20
100
AcDbCircle
 10
6.805266999999997
 20
-9.998257999999999
 30
0.0
 40
34.20215000000001
100
AcDbArc
 50
46.5
 51
87.97437099999998
  0
LINE
  5
123A7
330
123A0
100
AcDbEntity
  8
20
100
AcDbLine
 10
8.305267
 20
-9.998257999999999
 30
0.0
 11
44.007417
 21
-9.998257999999999
 31
0.0
  0
LINE
  5
123A8
330
123A0
100
AcDbEntity
  8
20
100
AcDbLine
 10
5.633676999999997
 20
12.357018
 30
0.0
 11
4.858257
 21
27.152909
 31
0.0
  0
ENDBLK
  5
123A9
330
123A0
100
AcDbEntity
  8
0
100
AcDbBlockEnd
  0
BLOCK
  5
123AB
330
123AA
100
AcDbEntity
  8
0
100
AcDbBlockBegin
  2
DVIEWBLOCK
 70
     0
 10
0.0
 20
0.0
 30
0.0
  3
DVIEWBLOCK
  1

  0
3DFACE
  5
123AC
330
123AA
100
AcDbEntity
  8
IGES
100
AcDbFace
 10
0.1
 20
0.1
 30
0.0
 11
0.9
 21
0.1
 31
0.0
 12
0.9
 22
0.9
 32
0.0
 13
0.1
 23
0.9
 33
0.0
  0
3DFACE
  5
123AD
330
123AA
100
AcDbEntity
  8
IGES
100
AcDbFace
 10
0.1
 20
0.1
 30
0.0
 11
0.1
 21
0.1
 31
0.595
 12
0.2
 22
0.1
 32
0.4
 13
0.2
 23
0.1
 33
0.0
 70
    10
  0
3DFACE
  5
123AE
330
123AA
100
AcDbEntity
  8
IGES
100
AcDbFace
 10
0.2
 20
0.1
 30
0.4
 11
0.1
 21
0.1
 31
0.595
 12
0.9
 22
0.1
 32
0.595
 13
0.4
 23
0.1
 33
0.4
 70
     5
  0
3DFACE
  5
123AF
330
123AA
100
AcDbEntity
  8
IGES
100
AcDbFace
 10
0.4
 20
0.1
 30
0.0
 11
0.4
 21
0.1
 31
0.4
 12
0.9
 22
0.1
 32
0.595
 13
0.9
 23
0.1
 33
0.0
 70
    14
  0
3DFACE
  5
123B0
330
123AA
100
AcDbEntity
  8
IGES
100
AcDbFace
 10
0.2
 20
0.1
 30
0.005
 11
0.2
 21
0.1
 31
0.4
 12
0.34
 22
0.24
 32
0.4
 13
0.34
 23
0.24
 33
0.005
 70
     1
  0
3DFACE
  5
123B1
330
123AA
100
AcDbEntity
  8
IGES
100
AcDbFace
 10
0.9
 20
0.1
 30
0.0
 11
0.9
 21
0.1
 31
0.595
 12
0.9
 22
0.5
 32
0.9949999999999999
 13
0.9
 23
0.3
 33
0.4
 70
    12
  0
3DFACE
  5
123B2
330
123AA
100
AcDbEntity
  8
IGES
100
AcDbFace
 10
0.9
 20
0.3
 30
0.4
 11
0.9
 21
0.5
 31
0.9949999999999999
 12
0.9
 22
0.9
 32
0.595
 13
0.9
 23
0.7
 33
0.4
 70
     5
  0
3DFACE
  5
123B3
330
123AA
100
AcDbEntity
  8
IGES
100
AcDbFace
 10
0.9
 20
0.7
 30
0.4
 11
0.9
 21
0.9
 31
0.595
 12
0.9
 22
0.9
 32
0.0
 13
0.9
 23
0.7
 33
0.2
 70
     7
  0
3DFACE
  5
123B4
330
123AA
100
AcDbEntity
  8
IGES
100
AcDbFace
 10
0.9
 20
0.7
 30
0.2
 11
0.9
 21
0.9
 31
0.0
 12
0.9
 22
0.1
 32
0.0
 13
0.9
 23
0.3
 33
0.2
 70
     7
  0
3DFACE
  5
123B5
330
123AA
100
AcDbEntity
  8
IGES
100
AcDbFace
 10
0.9
 20
0.3
 30
0.2
 11
0.9
 21
0.3
 31
0.2
 12
0.9
 22
0.1
 32
0.0
 13
0.9
 23
0.3
 33
0.4
 70
     7
  0
3DFACE
  5
123B6
330
123AA
100
AcDbEntity
  8
IGES
100
AcDbFace
 10
0.9
 20
0.9
 30
0.0
 11
0.9
 21
0.9
 31
0.595
 12
0.1
 22
0.9
 32
0.595
 13
0.1
 23
0.9
 33
0.0
 70
    12
  0
3DFACE
  5
123B7
330
123AA
100
AcDbEntity
  8
IGES
100
AcDbFace
 10
0.1
 20
0.9
 30
0.0
 11
0.1
 21
0.9
 31
0.595
 12
0.1
 22
0.5
 32
0.9949999999999999
 13
0.1
 23
0.5
 33
0.0
 70
    12
  0
3DFACE
  5
123B8
330
123AA
100
AcDbEntity
  8
IGES
100
AcDbFace
 10
0.1
 20
0.5
 30
0.0
 11
0.1
 21
0.5
 31
0.9949999999999999
 12
0.1
 22
0.1
 32
0.595
 13
0.1
 23
0.1
 33
0.0
 70
    13
  0
3DFACE
  5
123B9
330
123AA
100
AcDbEntity
  8
IGES
100
AcDbFace
 10
0.2
 20
0.6
 30
0.9
 11
0.2
 21
0.6
 31
1.0
 12
0.3
 22
0.6
 32
1.0
 13
0.3
 23
0.6
 33
0.9
 70
     4
  0
3DFACE
  5
123BA
330
123AA
100
AcDbEntity
  8
IGES
100
AcDbFace
 10
0.3
 20
0.6
 30
0.9
 11
0.3
 21
0.6
 31
1.0
 12
0.3
 22
0.7
 32
1.0
 13
0.3
 23
0.7
 33
0.8
 70
     4
  0
3DFACE
  5
123BB
330
123AA
100
AcDbEntity
  8
IGES
100
AcDbFace
 10
0.3
 20
0.7
 30
0.8
 11
0.3
 21
0.7
 31
1.0
 12
0.2
 22
0.7
 32
1.0
 13
0.2
 23
0.7
 33
0.8
 70
     4
  0
3DFACE
  5
123BC
330
123AA
100
AcDbEntity
  8
IGES
100
AcDbFace
 10
0.2
 20
0.7
 30
0.8
 11
0.2
 21
0.7
 31
1.0
 12
0.2
 22
0.6
 32
1.0
 13
0.2
 23
0.6
 33
0.9
 70
     4
  0
3DFACE
  5
123BD
330
123AA
100
AcDbEntity
  8
IGES
100
AcDbFace
 10
0.0
 20
0.0
 30
0.5
 11
1.0
 21
0.0
 31
0.5
 12
1.0
 22
0.5
 32
1.0
 13
0.0
 23
0.5
 33
1.0
  0
3DFACE
  5
123BE
330
123AA
100
AcDbEntity
  8
IGES
100
AcDbFace
 10
0.0
 20
0.5
 30
1.0
 11
1.0
 21
0.5
 31
1.0
 12
1.0
 22
1.0
 32
0.5
 13
0.0
 23
1.0
 33
0.5
 70
     1
  0
ENDBLK
  5
123BF
330
123AA
100
AcDbEntity
  8
0
100
AcDbBlockEnd
  0
BLOCK
  5
123C1
330
123C0
100
AcDbEntity
  8
0
100
AcDbBlockBegin
  2
*D8
 70
     1
 10
0.0
 20
0.0
 30
0.0
  3
*D8
  1

  0
LINE
  5
123C2
330
123C0
100
AcDbEntity
  8
0
100
AcDbLine
 10
-6.694733
 20
57.501742
 30
0.0
 11
-6.694733
 21
103.251742
 31
0.0
  0
LINE
  5
123C3
330
123C0
100
AcDbEntity
  8
0
100
AcDbLine
 10
-69.694733
 20
57.501742
 30
0.0
 11
-69.694733
 21
103.251742
 31
0.0
  0
LINE
  5
123C4
330
123C0
100
AcDbEntity
  8
0
100
AcDbLine
 10
-9.694732999999999
 20
100.751742
 30
0.0
 11
-66.69473299999999
 21
100.751742
 31
0.0
  0
SOLID
  5
123C5
330
123C0
100
AcDbEntity
  8
0
100
AcDbTrace
 10
-9.694732999999999
 20
101.251742
 30
0.0
 11
-9.694732999999999
 21
100.2517419999998
 31
0.0
 12
-6.694733
 22
100.751742
 32
0.0
 13
-6.694733
 23
100.751742
 33
0.0
  0
SOLID
  5
123C6
330
123C0
100
AcDbEntity
  8
0
100
AcDbTrace
 10
-66.69473299999999
 20
101.251742
 30
0.0
 11
-66.69473299999999
 21
100.2517419999998
 31
0.0
 12
-69.694733
 22
100.751742
 32
0.0
 13
-69.694733
 23
100.751742
 33
0.0
  0
TEXT
  5
123C7
330
123C0
100
AcDbEntity
  8
0
100
AcDbText
 10
-41.98044728571428
 20
102.251742
 30
0.0
 40
3.0
  1
%%c63
  7
SANDVIK_STYLE
 72
     1
 11
-38.194733
 21
103.751742
 31
0.0
100
AcDbText
 73
     2
  0
POINT
  5
123C8
330
123C0
100
AcDbEntity
  8
DEFPOINTS
100
AcDbPoint
 10
-6.694733
 20
55.001742
 30
0.0
  0
POINT
  5
123C9
330
123C0
100
AcDbEntity
  8
DEFPOINTS
100
AcDbPoint
 10
-69.694733
 20
55.001742
 30
0.0
  0
POINT
  5
123CA
330
123C0
100
AcDbEntity
  8
DEFPOINTS
100
AcDbPoint
 10
-69.694733
 20
100.751742
 30
0.0
  0
ENDBLK
  5
123CB
330
123C0
100
AcDbEntity
  8
0
100
AcDbBlockEnd
  0
BLOCK
  5
123CD
330
123CC
100
AcDbEntity
  8
0
100
AcDbBlockBegin
  2
*D9
 70
     1
 10
0.0
 20
0.0
 30
0.0
  3
*D9
  1

  0
LINE
  5
123CE
330
123CC
100
AcDbEntity
  8
0
100
AcDbLine
 10
6.805266999999997
 20
-12.49825799999999
 30
0.0
 11
6.805266999999997
 21
-28.998258
 31
0.0
  0
LINE
  5
123CF
330
123CC
100
AcDbEntity
  8
0
100
AcDbLine
 10
-38.194733
 20
-17.49825799999999
 30
0.0
 11
-38.194733
 21
-28.998258
 31
0.0
  0
LINE
  5
123D0
330
123CC
100
AcDbEntity
  8
0
100
AcDbLine
 10
3.805266999999998
 20
-26.498258
 30
0.0
 11
-35.194733
 21
-26.498258
 31
0.0
  0
SOLID
  5
123D1
330
123CC
100
AcDbEntity
  8
0
100
AcDbTrace
 10
3.805266999999998
 20
-25.998258
 30
0.0
 11
3.805266999999998
 21
-26.998258
 31
0.0
 12
6.805266999999997
 22
-26.498258
 32
0.0
 13
6.805266999999997
 23
-26.498258
 33
0.0
  0
SOLID
  5
123D2
330
123CC
100
AcDbEntity
  8
0
100
AcDbTrace
 10
-35.194733
 20
-25.998258
 30
0.0
 11
-35.194733
 21
-26.998258
 31
0.0
 12
-38.194733
 22
-26.498258
 32
0.0
 13
-38.194733
 23
-26.498258
 33
0.0
  0
TEXT
  5
123D3
330
123CC
100
AcDbEntity
  8
0
100
AcDbText
 10
-18.12330442857142
 20
-24.998258
 30
0.0
 40
3.0
  1
45
  7
SANDVIK_STYLE
 72
     1
 11
-15.694733
 21
-23.498258
 31
0.0
100
AcDbText
 73
     2
  0
POINT
  5
123D4
330
123CC
100
AcDbEntity
  8
DEFPOINTS
100
AcDbPoint
 10
6.805266999999997
 20
-9.998257999999999
 30
0.0
  0
POINT
  5
123D5
330
123CC
100
AcDbEntity
  8
DEFPOINTS
100
AcDbPoint
 10
-38.194733
 20
-14.99825799999999
 30
0.0
  0
POINT
  5
123D6
330
123CC
100
AcDbEntity
  8
DEFPOINTS
100
AcDbPoint
 10
-38.194733
 20
-26.498258
 30
0.0
  0
ENDBLK
  5
123D7
330
123CC
100
AcDbEntity
  8
0
100
AcDbBlockEnd
  0
BLOCK
  5
123D9
330
123D8
100
AcDbEntity
  8
0
100
AcDbBlockBegin
  2
*D10
 70
     1
 10
0.0
 20
0.0
 30
0.0
  3
*D10
  1

  0
LINE
  5
123DA
330
123D8
100
AcDbEntity
  8
0
100
AcDbLine
 10
-72.194733
 20
55.001742
 30
0.0
 11
-90.69473300000002
 21
55.001742
 31
0.0
  0
LINE
  5
123DB
330
123D8
100
AcDbEntity
  8
0
100
AcDbLine
 10
4.205267
 20
-9.998257999999999
 30
0.0
 11
-90.69473300000002
 21
-9.998257999999999
 31
0.0
  0
LINE
  5
123DC
330
123D8
100
AcDbEntity
  8
0
100
AcDbLine
 10
-88.194733
 20
52.001742
 30
0.0
 11
-88.194733
 21
-6.998257999999997
 31
0.0
  0
SOLID
  5
123DD
330
123D8
100
AcDbEntity
  8
0
100
AcDbTrace
 10
-88.69473300000001
 20
52.001742
 30
0.0
 11
-87.69473299999999
 21
52.001742
 31
0.0
 12
-88.194733
 22
55.001742
 32
0.0
 13
-88.194733
 23
55.001742
 33
0.0
  0
SOLID
  5
123DE
330
123D8
100
AcDbEntity
  8
0
100
AcDbTrace
 10
-88.69473300000001
 20
-6.998257999999997
 30
0.0
 11
-87.69473299999999
 21
-6.998257999999997
 31
0.0
 12
-88.194733
 22
-9.998257999999999
 32
0.0
 13
-88.194733
 23
-9.998257999999999
 33
0.0
  0
TEXT
  5
123DF
330
123D8
100
AcDbEntity
  8
0
100
AcDbText
 10
-89.69473308477313
 20
20.0731705190687
 30
0.0
 40
3.0
  1
65
 50
89.99999800000002
  7
SANDVIK_STYLE
 72
     1
 11
-91.19473300000001
 21
22.501742
 31
0.0
100
AcDbText
 73
     2
  0
POINT
  5
123E0
330
123D8
100
AcDbEntity
  8
DEFPOINTS
100
AcDbPoint
 10
-69.694733
 20
55.001742
 30
0.0
  0
POINT
  5
123E1
330
123D8
100
AcDbEntity
  8
DEFPOINTS
100
AcDbPoint
 10
6.705267
 20
-9.998257999999999
 30
0.0
  0
POINT
  5
123E2
330
123D8
100
AcDbEntity
  8
DEFPOINTS
100
AcDbPoint
 10
-88.194733
 20
-9.998257999999999
 30
0.0
  0
ENDBLK
  5
123E3
330
123D8
100
AcDbEntity
  8
0
100
AcDbBlockEnd
  0
BLOCK
  5
123E5
330
123E4
100
AcDbEntity
  8
0
100
AcDbBlockBegin
  2
*D11
 70
     1
 10
0.0
 20
0.0
 30
0.0
  3
*D11
  1

  0
LINE
  5
123E6
330
123E4
100
AcDbEntity
  8
0
100
AcDbLine
 10
12.725482
 20
-9.998257999999999
 30
0.0
 11
43.50641699999999
 21
-9.998257999999999
 31
0.0
  0
LINE
  5
123E7
330
123E4
100
AcDbEntity
  8
0
100
AcDbLine
 10
5.581341
 20
13.35564699999999
 30
0.0
 11
4.884476999999998
 21
26.652595
 31
0.0
  0
ARC
  5
123E8
330
123E4
100
AcDbEntity
  8
0
100
AcDbCircle
 10
6.805266999999997
 20
-9.998257999999999
 30
0.0
 40
34.201151
100
AcDbArc
 50
5.027389
 51
39.843834
  0
ARC
  5
123E9
330
123E4
100
AcDbEntity
  8
0
100
AcDbCircle
 10
6.805266999999997
 20
-9.998257999999999
 30
0.0
 40
34.201151
100
AcDbArc
 50
53.15616600000002
 51
87.972611
  0
SOLID
  5
123EA
330
123E4
100
AcDbEntity
  8
0
100
AcDbTrace
 10
41.37436199999998
 20
-6.979214999999999
 30
0.0
 11
40.37532399999999
 21
-7.023072999999999
 31
0.0
 12
41.00641699999999
 22
-9.998257999999999
 32
0.0
 13
41.00641699999999
 23
-9.998257999999999
 33
0.0
  0
SOLID
  5
123EB
330
123E4
100
AcDbEntity
  8
0
100
AcDbTrace
 10
8.019453
 20
23.681502
 30
0.0
 11
8.010964999999997
 21
24.681466
 31
0.0
 12
5.015316999999996
 22
24.156021
 32
0.0
 13
5.015316999999996
 23
24.156021
 33
0.0
  0
TEXT
  5
123EC
330
123E4
100
AcDbEntity
  8
0
100
AcDbText
 10
27.03550509450969
 20
15.88571848070889
 30
0.0
 40
3.0
  1
93%%d
 50
316.5000009999999
  7
SANDVIK_STYLE
 72
     1
 11
30.34778499999999
 21
14.81037999999999
 31
0.0
100
AcDbText
 73
     2
  0
POINT
  5
123ED
330
123E4
100
AcDbEntity
  8
DEFPOINTS
100
AcDbPoint
 10
41.00641699999999
 20
-9.998257999999999
 30
0.0
  0
POINT
  5
123EE
330
123E4
100
AcDbEntity
  8
DEFPOINTS
100
AcDbPoint
 10
6.805266999999997
 20
-9.998257999999999
 30
-1.746136999999995
  0
POINT
  5
123EF
330
123E4
100
AcDbEntity
  8
DEFPOINTS
100
AcDbPoint
 10
5.712181
 20
10.859073
 30
-1.746136999999995
  0
POINT
  5
123F0
330
123E4
100
AcDbEntity
  8
DEFPOINTS
100
AcDbPoint
 10
6.805266999999997
 20
-9.998257999999999
 30
-1.746136999999995
  0
POINT
  5
123F1
330
123E4
100
AcDbEntity
  8
DEFPOINTS
100
AcDbPoint
 10
10.225482
 20
-9.998257999999999
 30
-1.746136999999995
  0
ENDBLK
  5
123F2
330
123E4
100
AcDbEntity
  8
0
100
AcDbBlockEnd
  0
BLOCK
  5
123F4
330
123F3
100
AcDbEntity
  8
0
100
AcDbBlockBegin
  2
*D12
 70
     1
 10
0.0
 20
0.0
 30
0.0
  3
*D12
  1

  0
LINE
  5
123F5
330
123F3
100
AcDbEntity
  8
12
100
AcDbLine
 10
-6.694733
 20
57.501742
 30
0.0
 11
-6.694732999999996
 21
103.251742
 31
0.0
  0
LINE
  5
123F6
330
123F3
100
AcDbEntity
  8
12
100
AcDbLine
 10
-69.694733
 20
57.501742
 30
0.0
 11
-69.694733
 21
103.251742
 31
0.0
  0
LINE
  5
123F7
330
123F3
100
AcDbEntity
  8
12
100
AcDbLine
 10
-9.694732999999995
 20
100.751742
 30
0.0
 11
-66.69473299999999
 21
100.751742
 31
0.0
  0
INSERT
  5
123F8
330
123F3
100
AcDbEntity
  8
1
100
AcDbBlockReference
  2
*U13
 10
0.0
 20
0.0
 30
0.0
  0
SOLID
  5
123F9
330
123F3
100
AcDbEntity
  8
12
100
AcDbTrace
 10
-9.694732999999995
 20
101.251742
 30
0.0
 11
-9.694732999999995
 21
100.2517419999998
 31
0.0
 12
-6.694732999999996
 22
100.751742
 32
0.0
 13
-6.694732999999996
 23
100.751742
 33
0.0
  0
SOLID
  5
123FA
330
123F3
100
AcDbEntity
  8
12
100
AcDbTrace
 10
-66.69473299999999
 20
101.251742
 30
0.0
 11
-66.69473299999999
 21
100.2517419999998
 31
0.0
 12
-69.694733
 22
100.751742
 32
0.0
 13
-69.694733
 23
100.751742
 33
0.0
  0
POINT
  5
123FB
330
123F3
100
AcDbEntity
  8
DEFPOINTS
 62
     0
100
AcDbPoint
 10
-6.694733
 20
55.001742
 30
0.0
  0
POINT
  5
123FC
330
123F3
100
AcDbEntity
  8
DEFPOINTS
 62
     0
100
AcDbPoint
 10
-69.694733
 20
55.001742
 30
0.0
  0
POINT
  5
123FD
330
123F3
100
AcDbEntity
  8
DEFPOINTS
 62
     0
100
AcDbPoint
 10
-69.694733
 20
100.751742
 30
0.0
  0
ENDBLK
  5
123FE
330
123F3
100
AcDbEntity
  8
0
100
AcDbBlockEnd
  0
BLOCK
  5
12400
330
123FF
100
AcDbEntity
  8
0
100
AcDbBlockBegin
  2
*U13
 70
     1
 10
0.0
 20
0.0
 30
0.0
  3
*U13
  1

  0
TEXT
  5
12401
330
123FF
100
AcDbEntity
  8
1
100
AcDbText
 10
-41.98044728571428
 20
102.251742
 30
0.0
 40
3.0
  1
\U+2205
  7
TDM_STYLE
100
AcDbText
  0
TEXT
  5
12402
330
123FF
100
AcDbEntity
  8
1
100
AcDbText
 10
-39.26616157142857
 20
102.251742
 30
0.0
 40
3.0
  1
63
  7
TDM_STYLE
100
AcDbText
  0
ENDBLK
  5
12403
330
123FF
100
AcDbEntity
  8
0
100
AcDbBlockEnd
  0
BLOCK
  5
12405
330
12404
100
AcDbEntity
  8
0
100
AcDbBlockBegin
  2
*D14
 70
     1
 10
0.0
 20
0.0
 30
0.0
  3
*D14
  1

  0
LINE
  5
12406
330
12404
100
AcDbEntity
  8
20
100
AcDbLine
 10
6.805266999999997
 20
-12.49825799999999
 30
0.0
 11
6.805266999999997
 21
-28.998258
 31
0.0
  0
LINE
  5
12407
330
12404
100
AcDbEntity
  8
20
100
AcDbLine
 10
-38.194733
 20
-17.49825799999999
 30
0.0
 11
-38.194733
 21
-28.998258
 31
0.0
  0
LINE
  5
12408
330
12404
100
AcDbEntity
  8
20
100
AcDbLine
 10
3.805266999999998
 20
-26.498258
 30
0.0
 11
-35.194733
 21
-26.498258
 31
0.0
  0
TEXT
  5
12409
330
12404
100
AcDbEntity
  8
1
100
AcDbText
 10
-18.12330442857141
 20
-24.99825799999999
 30
0.0
 40
3.0
  1
45
  7
TDM_STYLE
100
AcDbText
  0
SOLID
  5
1240A
330
12404
100
AcDbEntity
  8
20
100
AcDbTrace
 10
3.805266999999998
 20
-25.998258
 30
0.0
 11
3.805266999999998
 21
-26.998258
 31
0.0
 12
6.805266999999997
 22
-26.498258
 32
0.0
 13
6.805266999999997
 23
-26.498258
 33
0.0
  0
SOLID
  5
1240B
330
12404
100
AcDbEntity
  8
20
100
AcDbTrace
 10
-35.194733
 20
-25.998258
 30
0.0
 11
-35.194733
 21
-26.998258
 31
0.0
 12
-38.194733
 22
-26.498258
 32
0.0
 13
-38.194733
 23
-26.498258
 33
0.0
  0
POINT
  5
1240C
330
12404
100
AcDbEntity
  8
DEFPOINTS
 62
     0
100
AcDbPoint
 10
6.805266999999997
 20
-9.998257999999999
 30
0.0
  0
POINT
  5
1240D
330
12404
100
AcDbEntity
  8
DEFPOINTS
 62
     0
100
AcDbPoint
 10
-38.194733
 20
-14.99825799999999
 30
0.0
  0
POINT
  5
1240E
330
12404
100
AcDbEntity
  8
DEFPOINTS
 62
     0
100
AcDbPoint
 10
-38.194733
 20
-26.498258
 30
0.0
  0
ENDBLK
  5
1240F
330
12404
100
AcDbEntity
  8
0
100
AcDbBlockEnd
  0
BLOCK
  5
12411
330
12410
100
AcDbEntity
  8
0
100
AcDbBlockBegin
  2
*D15
 70
     1
 10
0.0
 20
0.0
 30
0.0
  3
*D15
  1

  0
LINE
  5
12412
330
12410
100
AcDbEntity
  8
20
100
AcDbLine
 10
-72.194733
 20
55.001742
 30
0.0
 11
-90.69473299999998
 21
55.001742
 31
0.0
  0
LINE
  5
12413
330
12410
100
AcDbEntity
  8
20
100
AcDbLine
 10
4.205267
 20
-9.998257999999999
 30
0.0
 11
-90.69473300000002
 21
-9.998257999999973
 31
0.0
  0
LINE
  5
12414
330
12410
100
AcDbEntity
  8
20
100
AcDbLine
 10
-88.19473299999998
 20
52.00174200000001
 30
0.0
 11
-88.194733
 21
-6.998257999999972
 31
0.0
  0
TEXT
  5
12415
330
12410
100
AcDbEntity
  8
1
100
AcDbText
 10
-89.6947330847731
 20
20.07317051906869
 30
0.0
 40
3.0
  1
65
 50
89.99999800000002
  7
TDM_STYLE
100
AcDbText
  0
SOLID
  5
12416
330
12410
100
AcDbEntity
  8
20
100
AcDbTrace
 10
-88.69473299999999
 20
52.00174200000001
 30
0.0
 11
-87.69473299999999
 21
52.00174200000001
 31
0.0
 12
-88.19473299999998
 22
55.001742
 32
0.0
 13
-88.19473299999998
 23
55.001742
 33
0.0
  0
SOLID
  5
12417
330
12410
100
AcDbEntity
  8
20
100
AcDbTrace
 10
-88.69473300000001
 20
-6.998257999999972
 30
0.0
 11
-87.69473299999999
 21
-6.998257999999972
 31
0.0
 12
-88.194733
 22
-9.998257999999973
 32
0.0
 13
-88.194733
 23
-9.998257999999973
 33
0.0
  0
POINT
  5
12418
330
12410
100
AcDbEntity
  8
DEFPOINTS
 62
     0
100
AcDbPoint
 10
-69.694733
 20
55.001742
 30
0.0
  0
POINT
  5
12419
330
12410
100
AcDbEntity
  8
DEFPOINTS
 62
     0
100
AcDbPoint
 10
6.705267
 20
-9.998257999999999
 30
0.0
  0
POINT
  5
1241A
330
12410
100
AcDbEntity
  8
DEFPOINTS
 62
     0
100
AcDbPoint
 10
-88.194733
 20
-9.998257999999973
 30
0.0
  0
ENDBLK
  5
1241B
330
12410
100
AcDbEntity
  8
0
100
AcDbBlockEnd
  0
BLOCK
  5
1241D
330
1241C
100
AcDbEntity
  8
0
100
AcDbBlockBegin
  2
*D16
 70
     1
 10
0.0
 20
0.0
 30
0.0
  3
*D16
  1

  0
LINE
  5
1241E
330
1241C
100
AcDbEntity
  8
20
100
AcDbLine
 10
12.72548199999999
 20
-9.998257999999996
 30
0.0
 11
43.50641699999999
 21
-9.998258000000003
 31
0.0
  0
LINE
  5
1241F
330
1241C
100
AcDbEntity
  8
20
100
AcDbLine
 10
5.581341157078655
 20
13.35564683938555
 30
0.0
 11
4.884477919586871
 21
26.65259438614602
 31
0.0
  0
ARC
  5
12420
330
1241C
100
AcDbEntity
  8
20
100
AcDbCircle
 10
6.805266999999997
 20
-9.998257999999999
 30
0.0
 40
34.20115
100
AcDbArc
 50
5.027389185423881
 51
38.93941197888518
  0
ARC
  5
12421
330
1241C
100
AcDbEntity
  8
20
100
AcDbCircle
 10
6.805266999999997
 20
-9.998257999999999
 30
0.0
 40
34.20115
100
AcDbArc
 50
54.06058689959461
 51
87.97260972019341
  0
SOLID
  5
12422
330
1241C
100
AcDbEntity
  8
20
100
AcDbTrace
 10
41.37436136058361
 20
-6.979215610845004
 30
0.0
 11
40.37532359325856
 21
-7.023073785204638
 31
0.0
 12
41.00641699999999
 22
-9.998257999999999
 32
0.0
 13
41.00641699999999
 23
-9.998257999999999
 33
0.0
  0
SOLID
  5
12423
330
1241C
100
AcDbEntity
  8
20
100
AcDbTrace
 10
8.01945345859529
 20
23.68150108509908
 30
0.0
 11
8.010965949075361
 21
24.68146506554145
 31
0.0
 12
5.015317762508216
 22
24.15602054676046
 32
0.0
 13
5.015317762508216
 23
24.15602054676046
 33
0.0
  0
TEXT
  5
12424
330
1241C
100
AcDbEntity
  8
20
100
AcDbText
 10
24.3478
 20
9.500379999999999
 30
0.0
 40
3.0
  1
93%%d
  7
TDM_STYLE
100
AcDbText
  0
POINT
  5
12425
330
1241C
100
AcDbEntity
  8
DEFPOINTS
 62
     0
100
AcDbPoint
 10
36.12137453855962
 20
7.616636269058424
 30
0.0
  0
POINT
  5
12426
330
1241C
100
AcDbEntity
  8
DEFPOINTS
 62
     0
100
AcDbPoint
 10
6.805266999999997
 20
-9.998257999999999
 30
-1.746136999999995
  0
POINT
  5
12427
330
1241C
100
AcDbEntity
  8
DEFPOINTS
 62
     0
100
AcDbPoint
 10
5.712180999999997
 20
10.85907299999999
 30
-1.746136999999995
  0
POINT
  5
12428
330
1241C
100
AcDbEntity
  8
DEFPOINTS
 62
     0
100
AcDbPoint
 10
6.805266999999997
 20
-9.998257999999999
 30
-1.746136999999995
  0
POINT
  5
12429
330
1241C
100
AcDbEntity
  8
DEFPOINTS
 62
     0
100
AcDbPoint
 10
10.22548199999999
 20
-9.998257999999998
 30
-1.746136999999995
  0
ENDBLK
  5
1242A
330
1241C
100
AcDbEntity
  8
0
100
AcDbBlockEnd
  0
BLOCK
  5
1242C
330
1242B
100
AcDbEntity
  8
0
100
AcDbBlockBegin
  2
*D17
 70
     1
 10
0.0
 20
0.0
 30
0.0
  3
*D17
  1

  0
LINE
  5
126F6
330
1242B
100
AcDbEntity
  8
12
 62
     0
370
    -2
100
AcDbLine
 10
2.136146500000001
 20
33.788539
 30
0.0
 11
-47.86385349999998
 21
33.78853900000001
 31
0.0
  0
LINE
  5
126F7
330
1242B
100
AcDbEntity
  8
12
 62
     0
370
    -2
100
AcDbLine
 10
2.136146500000001
 20
-29.211461
 30
0.0
 11
-47.86385349999998
 21
-29.21146099999999
 31
0.0
  0
LINE
  5
126F8
330
1242B
100
AcDbEntity
  8
12
 62
     0
370
    -2
100
AcDbLine
 10
-46.61385349999998
 20
31.28853900000001
 30
0.0
 11
-46.61385349999998
 21
-26.71146099999999
 31
0.0
  0
SOLID
  5
126F9
330
1242B
100
AcDbEntity
  8
12
 62
     0
100
AcDbTrace
 10
-47.03052016666664
 20
31.28853900000001
 30
0.0
 11
-46.19718683333331
 21
31.28853900000001
 31
0.0
 12
-46.61385349999998
 22
33.78853900000001
 32
0.0
 13
-46.61385349999998
 23
33.78853900000001
 33
0.0
  0
SOLID
  5
126FA
330
1242B
100
AcDbEntity
  8
12
 62
     0
100
AcDbTrace
 10
-47.03052016666666
 20
-26.71146099999999
 30
0.0
 11
-46.19718683333333
 21
-26.71146099999999
 31
0.0
 12
-46.61385349999998
 22
-29.21146099999999
 32
0.0
 13
-46.61385349999998
 23
-29.21146099999999
 33
0.0
  0
MTEXT
  5
126FB
330
1242B
100
AcDbEntity
  8
12
 62
     0
100
AcDbMText
 10
-48.98885349999999
 20
2.288539000000006
 30
0.0
 40
3.5
 41
0.0
 71
     5
 72
     1
  1
%%c63
  7
SIMPLEX
 11
0.0000000000000001
 21
1.0
 31
0.0
 73
     1
 44
1.0
1001
ACAD
1000
MTEXTBEGIN
1070
    73
1070
     1
1070
    44
1040
1.0
1070
    74
1070
     0
1000
MTEXTEND
  0
POINT
  5
126FC
330
1242B
100
AcDbEntity
  8
DEFPOINTS
 62
     0
100
AcDbPoint
 10
2.136146500000001
 20
33.788539
 30
0.0
  0
POINT
  5
126FD
330
1242B
100
AcDbEntity
  8
DEFPOINTS
 62
     0
100
AcDbPoint
 10
2.136146500000001
 20
-29.211461
 30
0.0
  0
POINT
  5
126FE
330
1242B
100
AcDbEntity
  8
DEFPOINTS
 62
     0
100
AcDbPoint
 10
-46.61385349999998
 20
-29.21146099999999
 30
0.0
  0
ENDBLK
  5
12436
330
1242B
100
AcDbEntity
  8
0
100
AcDbBlockEnd
  0
BLOCK
  5
12438
330
12437
100
AcDbEntity
  8
0
100
AcDbBlockBegin
  2
*D18
 70
     1
 10
0.0
 20
0.0
 30
0.0
  3
*D18
  1

  0
LINE
  5
126ED
330
12437
100
AcDbEntity
  8
20
 62
     0
370
    -2
100
AcDbLine
 10
67.13614650000001
 20
47.28853899999999
 30
0.0
 11
81.88614650000003
 21
47.28853899999998
 31
0.0
  0
LINE
  5
126EE
330
12437
100
AcDbEntity
  8
20
 62
     0
370
    -2
100
AcDbLine
 10
72.1361465
 20
2.288539
 30
0.0
 11
81.88614650000003
 21
2.288538999999996
 31
0.0
  0
LINE
  5
126EF
330
12437
100
AcDbEntity
  8
20
 62
     0
370
    -2
100
AcDbLine
 10
80.63614650000003
 20
44.78853899999998
 30
0.0
 11
80.63614650000003
 21
4.788538999999998
 31
0.0
  0
SOLID
  5
126F0
330
12437
100
AcDbEntity
  8
20
 62
     0
100
AcDbTrace
 10
80.21947983333339
 20
44.78853899999998
 30
0.0
 11
81.05281316666669
 21
44.78853899999998
 31
0.0
 12
80.63614650000003
 22
47.28853899999998
 32
0.0
 13
80.63614650000003
 23
47.28853899999998
 33
0.0
  0
SOLID
  5
126F1
330
12437
100
AcDbEntity
  8
20
 62
     0
100
AcDbTrace
 10
80.21947983333333
 20
4.788538999999998
 30
0.0
 11
81.05281316666669
 21
4.788538999999998
 31
0.0
 12
80.63614650000003
 22
2.288538999999996
 32
0.0
 13
80.63614650000003
 23
2.288538999999996
 33
0.0
  0
MTEXT
  5
126F2
330
12437
100
AcDbEntity
  8
20
 62
     0
100
AcDbMText
 10
78.26114650000002
 20
24.788539
 30
0.0
 40
3.5
 41
0.0
 71
     5
 72
     1
  1
45
  7
SIMPLEX
 11
0.0000000000000001
 21
1.0
 31
0.0
 73
     1
 44
1.0
1001
ACAD
1000
MTEXTBEGIN
1070
    73
1070
     1
1070
    44
1040
1.0
1070
    74
1070
     0
1000
MTEXTEND
  0
POINT
  5
126F3
330
12437
100
AcDbEntity
  8
DEFPOINTS
 62
     0
100
AcDbPoint
 10
67.13614650000001
 20
47.28853899999999
 30
0.0
  0
POINT
  5
126F4
330
12437
100
AcDbEntity
  8
DEFPOINTS
 62
     0
100
AcDbPoint
 10
72.1361465
 20
2.288539
 30
0.0
  0
POINT
  5
126F5
330
12437
100
AcDbEntity
  8
DEFPOINTS
 62
     0
100
AcDbPoint
 10
80.63614650000003
 20
2.288538999999996
 30
0.0
  0
ENDBLK
  5
12442
330
12437
100
AcDbEntity
  8
0
100
AcDbBlockEnd
  0
BLOCK
  5
12444
330
12443
100
AcDbEntity
  8
0
100
AcDbBlockBegin
  2
*D19
 70
     1
 10
0.0
 20
0.0
 30
0.0
  3
*D19
  1

  0
LINE
  5
126E3
330
12443
100
AcDbEntity
  8
20
 62
     0
370
    -2
100
AcDbLine
 10
2.136146500000001
 20
-29.211461
 30
0.0
 11
2.1361465
 21
-51.96146099999999
 31
0.0
  0
LINE
  5
126E4
330
12443
100
AcDbEntity
  8
20
 62
     0
370
    -2
100
AcDbLine
 10
67.13614650000001
 20
47.188539
 30
0.0
 11
67.13614650000001
 21
-51.96146099999999
 31
0.0
  0
LINE
  5
126E5
330
12443
100
AcDbEntity
  8
20
 62
     0
370
    -2
100
AcDbLine
 10
4.636146499999999
 20
-50.71146099999999
 30
0.0
 11
32.2611465
 21
-50.71146099999999
 31
0.0
  0
LINE
  5
126E6
330
12443
100
AcDbEntity
  8
20
 62
     0
370
    -2
100
AcDbLine
 10
64.63614650000001
 20
-50.71146099999999
 30
0.0
 11
37.0111465
 21
-50.71146099999999
 31
0.0
  0
SOLID
  5
126E7
330
12443
100
AcDbEntity
  8
20
 62
     0
100
AcDbTrace
 10
4.636146499999999
 20
-50.29479433333333
 30
0.0
 11
4.636146499999999
 21
-51.12812766666666
 31
0.0
 12
2.1361465
 22
-50.71146099999999
 32
0.0
 13
2.1361465
 23
-50.71146099999999
 33
0.0
  0
SOLID
  5
126E8
330
12443
100
AcDbEntity
  8
20
 62
     0
100
AcDbTrace
 10
64.63614650000001
 20
-50.29479433333333
 30
0.0
 11
64.63614650000001
 21
-51.12812766666666
 31
0.0
 12
67.13614650000001
 22
-50.71146099999999
 32
0.0
 13
67.13614650000001
 23
-50.71146099999999
 33
0.0
  0
MTEXT
  5
126E9
330
12443
100
AcDbEntity
  8
20
 62
     0
100
AcDbMText
 10
34.6361465
 20
-50.71146099999999
 30
0.0
 40
3.5
 41
0.0
 71
     5
 72
     1
  1
65
  7
SIMPLEX
 11
0.0000000349065848
 21
0.9999999999999994
 31
0.0
 73
     1
 44
1.0
1001
ACAD
1000
MTEXTBEGIN
1070
    73
1070
     1
1070
    44
1040
1.0
1070
    74
1070
     0
1000
MTEXTEND
  0
POINT
  5
126EA
330
12443
100
AcDbEntity
  8
DEFPOINTS
 62
     0
100
AcDbPoint
 10
2.136146500000001
 20
-29.211461
 30
0.0
  0
POINT
  5
126EB
330
12443
100
AcDbEntity
  8
DEFPOINTS
 62
     0
100
AcDbPoint
 10
67.13614650000001
 20
47.188539
 30
0.0
  0
POINT
  5
126EC
330
12443
100
AcDbEntity
  8
DEFPOINTS
 62
     0
100
AcDbPoint
 10
67.13614650000001
 20
-50.71146099999999
 30
0.0
  0
ENDBLK
  5
1244F
330
12443
100
AcDbEntity
  8
0
100
AcDbBlockEnd
  0
BLOCK
  5
12451
330
12450
100
AcDbEntity
  8
0
100
AcDbBlockBegin
  2
*D20
 70
     1
 10
0.0
 20
0.0
 30
0.0
  3
*D20
  1

  0
LINE
  5
126D7
330
12450
100
AcDbEntity
  8
20
 62
     0
370
    -2
100
AcDbLine
 10
67.1361465
 20
50.708754
 30
0.0
 11
67.13614649999995
 21
82.73968899999998
 31
0.0
  0
LINE
  5
126D8
330
12450
100
AcDbEntity
  8
20
 62
     0
370
    -2
100
AcDbLine
 10
46.27881549999997
 20
46.19545299999999
 30
0.0
 11
31.73358103354678
 21
45.43316984104754
 31
0.0
  0
ARC
  5
126D9
330
12450
100
AcDbEntity
  8
20
 62
     0
370
    -2
100
AcDbCircle
 10
67.13614650000001
 20
47.28853899999999
 30
0.0
 40
34.20114999999999
100
AcDbArc
 50
94.18908012259993
 51
132.518054983276
  0
ARC
  5
126DA
330
12450
100
AcDbEntity
  8
20
 62
     0
370
    -2
100
AcDbCircle
 10
67.13614650000001
 20
47.28853899999999
 30
0.0
 40
34.20114999999999
100
AcDbArc
 50
140.4819439148534
 51
178.8109187830174
  0
SOLID
  5
126DB
330
12450
100
AcDbEntity
  8
20
 62
     0
100
AcDbTrace
 10
64.62258826432767
 20
81.81470608723548
 30
0.0
 11
64.65304532985519
 21
80.98192951959935
 31
0.0
 12
67.13614649999996
 22
81.48968899999998
 32
0.0
 13
67.13614649999996
 23
81.48968899999998
 33
0.0
  0
SOLID
  5
126DC
330
12450
100
AcDbEntity
  8
20
 62
     0
100
AcDbTrace
 10
33.35897614060304
 20
48.00486199954363
 30
0.0
 11
32.52574686440974
 21
47.99169318263258
 31
0.0
 12
32.98186795323955
 22
45.49858976250821
 32
0.0
 13
32.98186795323955
 23
45.49858976250821
 33
0.0
  0
MTEXT
  5
126DD
330
12450
100
AcDbEntity
  8
20
 62
     0
100
AcDbMText
 10
42.32750905569099
 20
70.83105733341811
 30
0.0
 40
3.5
 41
0.0
 71
     5
 72
     1
  1
93%%d
  7
SIMPLEX
 11
0.7253743830263399
 21
-0.6883545630335845
 31
0.0
 73
     1
 44
1.0
1001
ACAD
1000
MTEXTBEGIN
1070
    73
1070
     1
1070
    44
1040
1.0
1070
    74
1070
     0
1000
MTEXTEND
  0
POINT
  5
126DE
330
12450
100
AcDbEntity
  8
DEFPOINTS
 62
     0
100
AcDbPoint
 10
49.52125223094154
 20
76.60464653855959
 30
0.0
  0
POINT
  5
126DF
330
12450
100
AcDbEntity
  8
DEFPOINTS
 62
     0
100
AcDbPoint
 10
67.13614650000001
 20
47.28853899999999
 30
-1.746136999999995
  0
POINT
  5
126E0
330
12450
100
AcDbEntity
  8
DEFPOINTS
 62
     0
100
AcDbPoint
 10
46.27881549999997
 20
46.19545299999999
 30
-1.746136999999995
  0
POINT
  5
126E1
330
12450
100
AcDbEntity
  8
DEFPOINTS
 62
     0
100
AcDbPoint
 10
67.13614650000001
 20
47.28853899999999
 30
-1.746136999999995
  0
POINT
  5
126E2
330
12450
100
AcDbEntity
  8
DEFPOINTS
 62
     0
100
AcDbPoint
 10
67.1361465
 20
50.708754
 30
-1.746136999999995
  0
ENDBLK
  5
1245E
330
12450
100
AcDbEntity
  8
0
100
AcDbBlockEnd
  0
BLOCK
  5
12462
330
1245F
100
AcDbEntity
  8
0
100
AcDbBlockBegin
  2
_Zeropoint.dwg
 70
     0
 10
0.0
 20
0.0
 30
0.0
  3
_Zeropoint.dwg
  1

  0
HATCH
  5
12463
330
1245F
100
AcDbEntity
  8
2
100
AcDbHatch
 10
0.0
 20
0.0
 30
0.0
210
0.0
220
0.0
230
1.0
  2
_USER
 70
     0
 71
     1
 91
        2
 92
        7
 72
     1
 73
     1
 93
        3
 10
-2.5
 20
0.0
 42
0.4142135623730951
 10
0.0
 20
-2.5
 42
0.0
 10
0.0
 20
0.0
 42
0.0
 97
        3
330
12464
330
12466
330
12465
 92
        7
 72
     1
 73
     1
 93
        3
 10
0.0
 20
2.5
 42
0.0
 10
0.0
 20
0.0
 42
0.0
 10
2.5
 20
0.0
 42
0.4142135623730951
 97
        3
330
12465
330
12464
330
12466
 75
     0
 76
     0
 52
45.0
 41
0.5
 77
     0
 78
     1
 53
45.0
 43
0.0
 44
0.0
 45
-0.3535533905932737
 46
0.3535533905932738
 79
     0
 47
0.0807540860238484
 98
        2
 10
-1.081351813010084
 20
-0.6749528531090621
 10
1.100054950607727
 20
1.263145885468702
  0
LINE
  5
12464
102
{ACAD_REACTORS
330
12463
102
}
330
1245F
100
AcDbEntity
  8
2
100
AcDbLine
 10
5.0
 20
0.0
 30
0.0
 11
-5.0
 21
0.0
 31
0.0
  0
LINE
  5
12465
102
{ACAD_REACTORS
330
12463
102
}
330
1245F
100
AcDbEntity
  8
2
100
AcDbLine
 10
0.0
 20
5.0
 30
0.0
 11
0.0
 21
-5.0
 31
0.0
  0
CIRCLE
  5
12466
102
{ACAD_REACTORS
330
12463
102
}
330
1245F
100
AcDbEntity
  8
2
100
AcDbCircle
 10
0.0
 20
0.0
 30
0.0
 40
2.5
  0
ENDBLK
  5
12467
330
1245F
100
AcDbEntity
  8
0
100
AcDbBlockEnd
  0
BLOCK
  5
12469
330
12468
100
AcDbEntity
  8
0
100
AcDbBlockBegin
  2
_nullpunkt
 70
     0
 10
0.0
 20
0.0
 30
0.0
  3
_nullpunkt
  1

  0
INSERT
  5
1246A
330
12468
100
AcDbEntity
  8
0
100
AcDbBlockReference
  2
_Zeropoint.dwg
 10
0.0
 20
0.0
 30
0.0
  0
ENDBLK
  5
1246B
330
12468
100
AcDbEntity
  8
0
100
AcDbBlockEnd
  0
ENDSEC
  0
SECTION
  2
ENTITIES
  0
POINT
  5
124A5
330
18
100
AcDbEntity
  8
81
100
AcDbPoint
 10
67.13614650000001
 20
47.28853899999999
 30
-1.746136999999995
 50
90.0
  0
POINT
  5
124A6
330
18
100
AcDbEntity
  8
80
100
AcDbPoint
 10
2.136146500000001
 20
2.288539
 30
-1.746136999999995
 50
90.0
  0
LINE
  5
124A7
330
18
100
AcDbEntity
  8
1
100
AcDbLine
 10
65.3583835
 20
45.426136
 30
-1.746136999999995
 11
26.85948550000001
 21
43.40849399999998
 31
-1.746136999999995
  0
LINE
  5
124A8
330
18
100
AcDbEntity
  8
1
100
AcDbLine
 10
65.3583835
 20
45.426136
 30
-1.746136999999995
 11
49.40785149999999
 21
13.471709
 31
-1.746136999999995
  0
LINE
  5
124A9
330
18
100
AcDbEntity
  8
1
100
AcDbLine
 10
49.40785149999999
 20
13.471709
 30
-1.746136999999995
 11
27.60274250000001
 21
-30.211461
 31
-1.746136999999995
  0
LINE
  5
124AA
330
18
100
AcDbEntity
  8
1
100
AcDbLine
 10
27.60274250000001
 20
-30.211461
 30
-1.746136999999995
 11
24.60503050000001
 21
-30.211461
 31
-1.746136999999995
  0
LINE
  5
124AB
330
18
100
AcDbEntity
  8
1
100
AcDbLine
 10
24.83198250000001
 20
35.59992000000001
 30
-1.746136999999995
 11
49.40785149999999
 21
13.471709
 31
-1.746136999999995
  0
LINE
  5
124AC
330
18
100
AcDbEntity
  8
1
100
AcDbLine
 10
2.236146499999989
 20
33.788539
 30
-1.746136999999995
 11
2.136146500000001
 21
33.788539
 31
-1.746136999999995
  0
LINE
  5
124AD
330
18
100
AcDbEntity
  8
1
100
AcDbLine
 10
2.236146499999989
 20
-29.211461
 30
-1.746136999999995
 11
2.136146500000001
 21
-29.211461
 31
-1.746136999999995
  0
LINE
  5
124AE
330
18
100
AcDbEntity
  8
1
100
AcDbLine
 10
2.136146500000001
 20
-29.211461
 30
-1.746136999999995
 11
2.136146500000001
 21
-29.11146099999999
 31
-1.746136999999995
  0
LINE
  5
124AF
330
18
100
AcDbEntity
  8
1
100
AcDbLine
 10
58.54937050000001
 20
29.10386400000001
 30
-1.746136999999995
 11
67.0491305
 21
46.131821
 31
-1.746136999999995
  0
LINE
  5
124B0
330
18
100
AcDbEntity
  8
1
100
AcDbLine
 10
66.28556450000001
 20
47.28693999999999
 30
-1.746136999999995
 11
47.19132550000001
 21
46.286253
 31
-1.746136999999995
  0
LINE
  5
124B1
330
18
100
AcDbEntity
  8
1
100
AcDbLine
 10
49.71138850000001
 20
21.477321
 30
-1.746136999999995
 11
56.09572850000001
 21
25.666605
 31
-1.746136999999995
  0
LINE
  5
124B2
330
18
100
AcDbEntity
  8
1
100
AcDbLine
 10
36.48603650000001
 20
41.484562
 30
-1.746136999999995
 11
42.87037650000002
 21
45.67384599999999
 31
-1.746136999999995
  0
LINE
  5
124B3
330
18
100
AcDbEntity
  8
1
100
AcDbLine
 10
47.97793950000001
 20
20.256637
 30
-1.746136999999995
 11
49.71138850000001
 21
21.477321
 31
-1.746136999999995
  0
LINE
  5
124B4
330
18
100
AcDbEntity
  8
1
100
AcDbLine
 10
44.80936550000001
 20
25.05003900000001
 30
-1.746136999999995
 11
46.54281450000001
 21
26.270722
 31
-1.746136999999995
  0
LINE
  5
124B5
330
18
100
AcDbEntity
  8
1
100
AcDbLine
 10
47.97793950000001
 20
20.256637
 30
-1.746136999999995
 11
44.80936550000001
 21
25.05003900000001
 31
-1.746136999999995
  0
LINE
  5
124B6
330
18
100
AcDbEntity
  8
1
100
AcDbLine
 10
49.71138850000001
 20
21.477321
 30
-1.746136999999995
 11
46.51526249999998
 21
26.31240400000001
 31
-1.746136999999995
  0
LINE
  5
124B7
330
18
100
AcDbEntity
  8
1
100
AcDbLine
 10
34.7525875
 20
40.26387899999998
 30
-1.746136999999995
 11
36.48603650000001
 21
41.484562
 31
-1.746136999999995
  0
LINE
  5
124B8
330
18
100
AcDbEntity
  8
1
100
AcDbLine
 10
37.92116150000001
 20
35.470477
 30
-1.746136999999995
 11
39.65461050000001
 21
36.691161
 31
-1.746136999999995
  0
LINE
  5
124B9
330
18
100
AcDbEntity
  8
1
100
AcDbLine
 10
37.92116150000001
 20
35.470477
 30
-1.746136999999995
 11
34.7525875
 21
40.26387899999998
 31
-1.746136999999995
  0
LINE
  5
124BA
330
18
100
AcDbEntity
  8
1
100
AcDbLine
 10
44.90143350000002
 20
25.11487300000001
 30
-1.746136999999995
 11
38.01322950000001
 21
35.535311
 31
-1.746136999999995
  0
LINE
  5
124BB
330
18
100
AcDbEntity
  8
1
100
AcDbLine
 10
55.75443350000001
 20
38.257578
 30
-1.746136999999995
 11
54.47025650000001
 21
40.200275
 31
-1.746136999999995
  0
LINE
  5
124BC
330
18
100
AcDbEntity
  8
1
100
AcDbLine
 10
36.48603650000001
 20
41.484562
 30
-1.746136999999995
 11
39.68216350000001
 21
36.649479
 31
-1.746136999999995
  0
LINE
  5
124BD
330
18
100
AcDbEntity
  8
1
100
AcDbLine
 10
53.35924550000001
 20
41.618848
 30
-1.746136999999995
 11
47.23486150000001
 21
45.686656
 31
-1.746136999999995
  0
LINE
  5
124BE
330
18
100
AcDbEntity
  8
1
100
AcDbLine
 10
57.92535350000001
 20
29.514136
 30
-1.746136999999995
 11
56.66558350000001
 21
36.617037
 31
-1.746136999999995
  0
LINE
  5
124BF
330
18
100
AcDbEntity
  8
1
100
AcDbLine
 10
56.09572850000001
 20
25.666605
 30
-1.746136999999995
 11
57.32647850000001
 21
28.12123800000001
 31
-1.746136999999995
  0
LINE
  5
124C0
330
18
100
AcDbEntity
  8
1
100
AcDbLine
 10
57.32647850000001
 20
28.12123800000001
 30
-1.746136999999995
 11
56.89875450000001
 21
29.62089400000001
 31
-1.746136999999995
  0
LINE
  5
124C1
330
18
100
AcDbEntity
  8
1
100
AcDbLine
 10
55.68923750000001
 20
35.628424
 30
-1.746136999999995
 11
55.75443350000001
 21
38.257578
 31
-1.746136999999995
  0
LINE
  5
124C2
330
18
100
AcDbEntity
  8
1
100
AcDbLine
 10
55.75443350000001
 20
38.257578
 30
-1.746136999999995
 11
56.66558350000001
 21
36.617037
 31
-1.746136999999995
  0
LINE
  5
124C3
330
18
100
AcDbEntity
  8
1
100
AcDbLine
 10
46.69363050000002
 20
45.597379
 30
-1.746136999999995
 11
47.23486150000001
 21
45.686656
 31
-1.746136999999995
  0
LINE
  5
124C4
330
18
100
AcDbEntity
  8
1
100
AcDbLine
 10
51.9431785
 20
41.29544099999999
 30
-1.746136999999995
 11
54.47025650000001
 21
40.200275
 31
-1.746136999999995
  0
LINE
  5
124C5
330
18
100
AcDbEntity
  8
1
100
AcDbLine
 10
54.47025650000001
 20
40.200275
 30
-1.746136999999995
 11
53.35924550000001
 21
41.618848
 31
-1.746136999999995
  0
LINE
  5
124C6
330
18
100
AcDbEntity
  8
1
100
AcDbLine
 10
46.83374950000001
 20
44.84717899999998
 30
-1.746136999999995
 11
45.61985050000001
 21
45.83096199999999
 31
-1.746136999999995
  0
LINE
  5
124C7
330
18
100
AcDbEntity
  8
1
100
AcDbLine
 10
45.61985050000001
 20
45.83096199999999
 30
-1.746136999999995
 11
42.87037650000002
 21
45.67384599999999
 31
-1.746136999999995
  0
LINE
  5
124C8
330
18
100
AcDbEntity
  8
1
100
AcDbLine
 10
46.17821950000001
 20
31.539101
 30
-1.746136999999995
 11
49.28199250000001
 21
31.667209
 31
-1.746136999999995
  0
LINE
  5
124C9
330
18
100
AcDbEntity
  8
1
100
AcDbLine
 10
49.28199250000001
 20
31.667209
 30
-1.746136999999995
 11
50.6041775
 21
34.413635
 31
-1.746136999999995
  0
LINE
  5
124CA
330
18
100
AcDbEntity
  8
1
100
AcDbLine
 10
50.6041775
 20
34.413635
 30
-1.746136999999995
 11
48.8225895
 21
37.031954
 31
-1.746136999999995
  0
LINE
  5
124CB
330
18
100
AcDbEntity
  8
1
100
AcDbLine
 10
48.8225895
 20
37.031954
 30
-1.746136999999995
 11
45.71881649999999
 21
36.903847
 31
-1.746136999999995
  0
LINE
  5
124CC
330
18
100
AcDbEntity
  8
1
100
AcDbLine
 10
45.71881649999999
 20
36.903847
 30
-1.746136999999995
 11
44.39663150000001
 21
34.15742
 31
-1.746136999999995
  0
LINE
  5
124CD
330
18
100
AcDbEntity
  8
1
100
AcDbLine
 10
44.39663150000001
 20
34.15742
 30
-1.746136999999995
 11
46.17821950000001
 21
31.539101
 31
-1.746136999999995
  0
LINE
  5
124CE
330
18
100
AcDbEntity
  8
1
100
AcDbLine
 10
2.136146500000001
 20
33.788539
 30
-1.746136999999995
 11
2.136146500000001
 21
-29.211461
 31
-1.746136999999995
  0
LINE
  5
124CF
330
18
100
AcDbEntity
  8
1
100
AcDbLine
 10
26.0324315
 20
-29.211461
 30
-1.746136999999995
 11
2.136146500000001
 21
-29.211461
 31
-1.746136999999995
  0
LINE
  5
124D0
330
18
100
AcDbEntity
  8
11
100
AcDbLine
 10
-35.86385349999997
 20
23.12024200000002
 30
-1.746136999999995
 11
-35.86385349999997
 21
-18.54316399999999
 31
-1.746136999999995
  0
LINE
  5
124D1
330
18
100
AcDbEntity
  8
11
100
AcDbLine
 10
0.0361465000000081
 20
24.311033
 30
-1.746136999999995
 11
0.0361465000000081
 21
-19.733956
 31
-1.746136999999995
  0
LINE
  5
124D2
330
18
100
AcDbEntity
  8
11
100
AcDbLine
 10
0.0361465000000081
 20
24.16098600000001
 30
-1.746136999999995
 11
2.139895500000001
 21
24.21358600000001
 31
-1.746136999999995
  0
LINE
  5
124D3
330
18
100
AcDbEntity
  8
11
100
AcDbLine
 10
2.136146500000001
 20
-19.636414
 30
-1.746136999999995
 11
0.0361465000000081
 21
-19.583909
 31
-1.746136999999995
  0
LINE
  5
124D4
330
18
100
AcDbEntity
  8
1
100
AcDbLine
 10
12.24179650000002
 20
12.158048
 30
-1.746136999999995
 11
12.24180850000002
 21
32.202486
 31
-1.746136999999995
  0
LINE
  5
124D5
330
18
100
AcDbEntity
  8
1
100
AcDbLine
 10
12.67482150000001
 20
11.637783
 30
-1.746136999999995
 11
12.67482150000001
 21
32.36912500000001
 31
-1.746136999999995
  0
LINE
  5
124D6
330
18
100
AcDbEntity
  8
1
100
AcDbLine
 10
15.59747050000001
 20
32.369125
 30
-1.746136999999995
 11
15.59747050000001
 21
11.637783
 31
-1.746136999999995
  0
LINE
  5
124D7
330
18
100
AcDbEntity
  8
1
100
AcDbLine
 10
16.03047150000001
 20
12.157904
 30
-1.746136999999995
 11
16.03048350000001
 21
32.202486
 31
-1.746136999999995
  0
LINE
  5
124D8
330
18
100
AcDbEntity
  8
1
100
AcDbLine
 10
12.24179650000002
 20
-7.580969999999998
 30
-1.746136999999995
 11
12.24180850000002
 21
-27.62540800000001
 31
-1.746136999999995
  0
LINE
  5
124D9
330
18
100
AcDbEntity
  8
1
100
AcDbLine
 10
12.67482150000001
 20
-7.060705000000012
 30
-1.746136999999995
 11
12.67482150000001
 21
-27.792047
 31
-1.746136999999995
  0
LINE
  5
124DA
330
18
100
AcDbEntity
  8
1
100
AcDbLine
 10
15.59747050000001
 20
-27.792047
 30
-1.746136999999995
 11
15.59747050000001
 21
-7.060705000000012
 31
-1.746136999999995
  0
LINE
  5
124DB
330
18
100
AcDbEntity
  8
1
100
AcDbLine
 10
16.03047150000001
 20
-7.580825999999999
 30
-1.746136999999995
 11
16.0304835
 21
-27.62540800000001
 31
-1.746136999999995
  0
LINE
  5
124DC
330
18
100
AcDbEntity
  8
11
100
AcDbLine
 10
-35.3638535
 20
23.40891700000002
 30
-1.746136999999995
 11
-35.3638535
 21
-18.83183899999998
 31
-1.746136999999995
  0
LINE
  5
124DD
330
18
100
AcDbEntity
  8
11
100
AcDbLine
 10
-35.86385349999997
 20
23.12024200000002
 30
-1.746136999999995
 11
-35.3638535
 21
23.40891700000002
 31
-1.746136999999995
  0
LINE
  5
124DE
330
18
100
AcDbEntity
  8
11
100
AcDbLine
 10
-35.86385349999997
 20
-18.54316399999999
 30
-1.746136999999995
 11
-35.3638535
 21
-18.83183899999998
 31
-1.746136999999995
  0
LINE
  5
124DF
330
18
100
AcDbEntity
  8
1
100
AcDbLine
 10
26.03243150000001
 20
33.788539
 30
-1.746136999999995
 11
2.136146500000001
 21
33.788539
 31
-1.746136999999995
  0
LINE
  5
124E0
330
18
100
AcDbEntity
  8
11
100
AcDbLine
 10
0.0361465000000081
 20
-19.7344
 30
-1.746136999999995
 11
-35.3638535
 21
-18.83183899999998
 31
-1.746136999999995
  0
LINE
  5
124E1
330
18
100
AcDbEntity
  8
11
100
AcDbLine
 10
0.0361465000000081
 20
24.31147700000002
 30
-1.746136999999995
 11
-35.3638535
 21
23.40891700000002
 31
-1.746136999999995
  0
LINE
  5
124E2
330
18
100
AcDbEntity
  8
1
100
AcDbLine
 10
67.13614650000001
 20
47.188539
 30
-1.746136999999995
 11
67.13614650000001
 21
47.28853899999999
 31
-1.746136999999995
  0
LINE
  5
124E3
330
18
100
AcDbEntity
  8
1
100
AcDbLine
 10
46.27980850000001
 20
46.19550499999999
 30
-1.746136999999995
 11
46.2788155
 21
46.195452
 31
-1.746136999999995
  0
LINE
  5
124E4
330
18
100
AcDbEntity
  8
1
100
AcDbLine
 10
46.27980850000001
 20
46.19550499999999
 30
-1.746136999999995
 11
46.2788155
 21
46.195452
 31
-1.746136999999995
  0
LINE
  5
124E5
330
18
100
AcDbEntity
  8
1
100
AcDbLine
 10
67.13614650000001
 20
47.28853899999999
 30
-1.746136999999995
 11
67.2361465
 21
47.28853899999999
 31
-1.746136999999995
  0
LWPOLYLINE
  5
124E6
330
18
100
AcDbEntity
  8
1
100
AcDbPolyline
 90
       48
 70
     0
 43
0.0
 38
-1.746136999999995
 10
55.94422950000002
 20
37.574293
 10
56.42267750000001
 20
37.417143
 10
56.91918350000001
 20
37.33741
 10
57.42121250000001
 20
37.337105
 10
57.91608650000001
 20
37.416236
 10
58.15692150000001
 20
37.485044
 10
58.39131350000001
 20
37.572806
 10
58.61778050000001
 20
37.678969
 10
58.83489250000001
 20
37.80286200000001
 10
59.0412745
 20
37.9437
 10
59.23562450000001
 20
38.100594
 10
59.41671150000001
 20
38.27255200000001
 10
59.58339150000001
 20
38.458486
 10
59.7346105
 20
38.657221
 10
59.8694125
 20
38.867501
 10
59.98694550000001
 20
39.087995
 10
60.08646650000001
 20
39.317311
 10
60.16734550000001
 20
39.553999
 10
60.22907250000001
 20
39.796561
 10
60.27125650000001
 20
40.04346499999999
 10
60.2936305
 20
40.29314999999999
 10
60.27851050000001
 20
40.794538
 10
60.18409350000001
 20
41.28806799999997
 10
60.01276450000001
 20
41.76127799999997
 10
59.76884749999999
 20
42.202219
 10
59.4585035
 20
42.59975999999999
 10
59.08956650000001
 20
42.94386199999999
 10
58.67135250000001
 20
43.225837
 10
58.21442050000001
 20
43.43856699999999
 10
57.73030750000001
 20
43.576679
 10
57.23123750000001
 20
43.63668699999998
 10
56.72980950000001
 20
43.617075
 10
56.2386855
 20
43.51833899999999
 10
56.0008805
 20
43.440001
 10
55.77026450000001
 20
43.34297099999999
 10
55.54829450000001
 20
43.227862
 10
55.33637450000001
 20
43.0954
 10
55.13584450000001
 20
42.94642399999999
 10
54.94797050000001
 20
42.78187599999998
 10
54.77394250000001
 20
42.60279599999999
 10
54.61485950000001
 20
42.41031599999998
 10
54.47172650000001
 20
42.205652
 10
54.34545050000001
 20
41.9901
 10
54.23682850000001
 20
41.76502099999999
 10
54.14654750000001
 20
41.531839
 10
54.07517850000001
 20
41.29202699999999
 10
54.02317150000001
 20
41.04710299999999
 10
53.9784385
 20
40.54813099999999
  0
LWPOLYLINE
  5
124E7
330
18
100
AcDbEntity
  8
1
100
AcDbPolyline
 90
        9
 70
     0
 43
0.0
 38
-1.746136999999995
 10
57.4603295
 20
28.76794200000001
 10
57.6074505
 20
28.70569
 10
57.76371150000001
 20
28.673782
 10
57.92286650000001
 20
28.67349100000001
 10
58.07855550000001
 20
28.704831
 10
58.22455450000001
 20
28.766548
 10
58.3550275
 20
28.85617700000001
 10
58.46476250000001
 20
28.970133
 10
58.54937050000001
 20
29.10386400000001
  0
LWPOLYLINE
  5
124E8
330
18
100
AcDbEntity
  8
1
100
AcDbPolyline
 90
       64
 70
     1
 43
0.0
 38
-1.746136999999995
 10
47.44078250000001
 20
39.7526
 10
46.90462250000001
 20
39.72626
 10
46.37419949999999
 20
39.647523
 10
45.85462350000001
 20
39.517147
 10
45.35089650000001
 20
39.336388
 10
44.86787050000001
 20
39.106986
 10
44.41019750000001
 20
38.831151
 10
43.9822845
 20
38.511539
 10
43.5882535
 20
38.15122800000001
 10
43.23189850000002
 20
37.75368800000001
 10
42.9166515
 20
37.32274800000001
 10
42.64554850000002
 20
36.862558
 10
42.42119950000001
 20
36.37755
 10
42.24576749999999
 20
35.87239500000001
 10
42.12093950000002
 20
35.351957
 10
42.04791949999999
 20
34.82124800000001
 10
42.02740949999999
 20
34.285381
 10
42.05960750000001
 20
33.749515
 10
42.14420250000002
 20
33.21881100000001
 10
42.28038150000001
 20
32.69838
 10
42.46683250000001
 20
32.193234
 10
42.70175950000001
 20
31.708238
 10
42.9828995
 20
31.248063
 10
43.3075455
 20
30.81714
 10
43.67257150000001
 20
30.41962
 10
44.07446150000001
 20
30.059331
 10
44.5093445
 20
29.739742
 10
44.97303450000001
 20
29.463931
 10
45.46106350000001
 20
29.23455500000001
 10
45.9687325
 20
29.053823
 10
46.49115250000001
 20
28.923475
 10
47.02329149999999
 20
28.84476600000001
 10
47.5600265
 20
28.818455
 10
48.0961865
 20
28.844795
 10
48.62660850000001
 20
28.923532
 10
49.14618550000001
 20
29.05390800000001
 10
49.6499125
 20
29.23466800000001
 10
50.13293850000001
 20
29.46406900000001
 10
50.59061150000001
 20
29.73990500000001
 10
51.01852350000001
 20
30.059517
 10
51.41255550000001
 20
30.41982700000001
 10
51.76891050000001
 20
30.817367
 10
52.08415750000001
 20
31.248307
 10
52.3552605
 20
31.708497
 10
52.57960849999999
 20
32.193505
 10
52.75504150000001
 20
32.698661
 10
52.87986950000001
 20
33.219099
 10
52.95288950000001
 20
33.749807
 10
52.97339950000001
 20
34.285674
 10
52.94120150000001
 20
34.82154
 10
52.85660550000001
 20
35.352244
 10
52.72042650000001
 20
35.872675
 10
52.53397650000001
 20
36.37782100000001
 10
52.29904950000001
 20
36.862817
 10
52.01790950000001
 20
37.322992
 10
51.69326350000001
 20
37.753915
 10
51.3282375
 20
38.151435
 10
50.92634750000001
 20
38.511725
 10
50.4914635
 20
38.831314
 10
50.02777449999999
 20
39.107124
 10
49.53974550000001
 20
39.3365
 10
49.03207650000001
 20
39.517232
 10
48.5096565
 20
39.64758
 10
47.97751650000001
 20
39.726289
  0
LWPOLYLINE
  5
124E9
330
18
100
AcDbEntity
  8
1
100
AcDbPolyline
 90
       24
 70
     0
 43
0.0
 38
-1.746136999999995
 10
22.04765250000002
 20
32.273551
 10
21.84399150000002
 20
31.421814
 10
21.64681850000001
 20
30.38967300000001
 10
21.45735750000001
 20
29.183517
 10
21.27678050000001
 20
27.810817
 10
21.02500250000002
 20
25.45835900000001
 10
20.79922050000002
 20
22.78328600000001
 10
20.6025795
 20
19.822846
 10
20.43781550000002
 20
16.618259
 10
20.27161650000002
 20
12.043228
 10
20.17022450000001
 20
7.226950000000008
 10
20.13614650000001
 20
2.288539
 10
20.17022450000001
 20
-2.649872000000002
 10
20.27161650000002
 20
-7.466149000000001
 10
20.39038850000001
 20
-10.926356
 10
20.54399350000001
 20
-14.20256
 10
20.73029150000002
 20
-17.24914300000001
 10
20.94669050000002
 20
-20.023684
 10
21.1062065
 20
-21.70299400000001
 10
21.2767805
 20
-23.233739
 10
21.4573575
 20
-24.60643899999999
 10
21.6468185
 20
-25.812595
 10
21.8439905
 20
-26.844736
 10
22.04765250000001
 20
-27.696473
  0
LWPOLYLINE
  5
124EA
330
18
100
AcDbEntity
  8
1
100
AcDbPolyline
 90
       30
 70
     1
 43
0.0
 38
-1.746136999999995
 10
21.36098750000001
 20
16.76941300000001
 10
21.31811050000001
 20
16.732998
 10
21.27564650000002
 20
16.647083
 10
21.19358550000001
 20
16.330529
 10
21.11795650000002
 20
15.83191600000001
 10
21.02283950000002
 20
14.78628699999999
 10
20.9568425
 20
13.46565699999999
 10
20.92354450000001
 20
11.475819
 10
20.9568425
 20
9.503826999999995
 10
21.02283950000002
 20
8.218564000000007
 10
21.08347650000001
 20
7.517276999999999
 10
21.15477850000002
 20
6.972618000000013
 10
21.2340045
 20
6.605518999999991
 10
21.27564650000002
 20
6.493246999999996
 10
21.31811050000001
 20
6.430087999999997
 10
21.36098750000001
 20
6.416650999999991
 10
21.40386450000002
 20
6.453065999999997
 10
21.44632850000002
 20
6.538981000000005
 10
21.52838950000001
 20
6.855535000000008
 10
21.60401750000001
 20
7.354148000000002
 10
21.6991355
 20
8.399777
 10
21.7651325
 20
9.720406999999998
 10
21.79843050000001
 20
11.71024500000001
 10
21.7651325
 20
13.682238
 10
21.6991355
 20
14.9675
 10
21.6384985
 20
15.668787
 10
21.56719650000001
 20
16.213446
 10
21.48797050000001
 20
16.580545
 10
21.44632850000002
 20
16.69281700000001
 10
21.40386450000002
 20
16.75597600000001
  0
LWPOLYLINE
  5
124EB
330
18
100
AcDbEntity
  8
1
100
AcDbPolyline
 90
        9
 70
     0
 43
0.0
 38
-1.746136999999995
 10
47.19132550000001
 20
46.286253
 10
47.03428350000002
 20
46.26209999999999
 10
46.8855295
 20
46.207172
 10
46.7510095
 20
46.123666
 10
46.63609850000002
 20
46.01491699999999
 10
46.5453925
 20
45.88527399999999
 10
46.48251350000001
 20
45.73991699999999
 10
46.4499775
 20
45.58465599999999
 10
46.44908250000002
 20
45.42569799999998
  0
LWPOLYLINE
  5
124EC
330
18
100
AcDbEntity
  8
1
100
AcDbPolyline
 90
        9
 70
     0
 43
0.0
 38
-1.746136999999995
 10
67.0491305
 20
46.131821
 10
67.11636750000001
 20
46.32750699999999
 10
67.13041550000001
 20
46.534459
 10
67.09031750000001
 20
46.738574
 10
66.99880750000001
 20
46.92594099999999
 10
66.86211949999999
 20
47.083791
 10
66.6895705
 20
47.201367
 10
66.4929185
 20
47.270658
 10
66.28556450000001
 20
47.28693999999999
  0
POLYLINE
  5
124ED
330
18
100
AcDbEntity
  8
1
100
AcDb2dPolyline
 66
     1
 10
0.0
 20
0.0
 30
-1.746136999999995
 70
     4
 75
     6
  0
VERTEX
  5
124EE
330
124ED
100
AcDbEntity
  8
1
100
AcDbVertex
100
AcDb2dVertex
 10
52.79988550000001
 20
37.835292
 30
-1.746136999999995
 70
    16
  0
VERTEX
  5
124EF
330
124ED
100
AcDbEntity
  8
1
100
AcDbVertex
100
AcDb2dVertex
 10
53.09144450000001
 20
37.394224
 30
-1.746136999999995
 70
    16
  0
VERTEX
  5
124F0
330
124ED
100
AcDbEntity
  8
1
100
AcDbVertex
100
AcDb2dVertex
 10
53.32812249999999
 20
36.921259
 30
-1.746136999999995
 70
    16
  0
VERTEX
  5
124F1
330
124ED
100
AcDbEntity
  8
1
100
AcDbVertex
100
AcDb2dVertex
 10
53.71643250000001
 20
35.822442
 30
-1.746136999999995
 70
    16
  0
VERTEX
  5
124F2
330
124ED
100
AcDbEntity
  8
1
100
AcDbVertex
100
AcDb2dVertex
 10
53.83729250000001
 20
35.185151
 30
-1.746136999999995
 70
    16
  0
VERTEX
  5
124F3
330
124ED
100
AcDbEntity
  8
1
100
AcDbVertex
100
AcDb2dVertex
 10
53.85245850000001
 20
34.410712
 30
-1.746136999999995
 70
    16
  0
VERTEX
  5
124F4
330
124ED
100
AcDbEntity
  8
1
100
AcDbVertex
100
AcDb2dVertex
 10
53.85101750000001
 20
34.29051800000002
 30
-1.746136999999995
 70
    16
  0
VERTEX
  5
124F5
330
124ED
100
AcDbEntity
  8
1
100
AcDbVertex
100
AcDb2dVertex
 10
53.84540450000001
 20
34.16426
 30
-1.746136999999995
 70
    16
  0
VERTEX
  5
124F6
330
124ED
100
AcDbEntity
  8
1
100
AcDbVertex
100
AcDb2dVertex
 10
52.79988550000001
 20
37.835292
 30
-1.746136999999995
 70
     8
  0
VERTEX
  5
124F7
330
124ED
100
AcDbEntity
  8
1
100
AcDbVertex
100
AcDb2dVertex
 10
53.07289450000001
 20
37.383961
 30
-1.746136999999995
 70
     8
  0
VERTEX
  5
124F8
330
124ED
100
AcDbEntity
  8
1
100
AcDbVertex
100
AcDb2dVertex
 10
53.30778050000001
 20
36.913584
 30
-1.746136999999995
 70
     8
  0
VERTEX
  5
124F9
330
124ED
100
AcDbEntity
  8
1
100
AcDbVertex
100
AcDb2dVertex
 10
53.50300750000001
 20
36.426379
 30
-1.746136999999995
 70
     8
  0
VERTEX
  5
124FA
330
124ED
100
AcDbEntity
  8
1
100
AcDbVertex
100
AcDb2dVertex
 10
53.68499950000001
 20
35.812133
 30
-1.746136999999995
 70
     8
  0
VERTEX
  5
124FB
330
124ED
100
AcDbEntity
  8
1
100
AcDbVertex
100
AcDb2dVertex
 10
53.80181850000001
 20
35.180506
 30
-1.746136999999995
 70
     8
  0
VERTEX
  5
124FC
330
124ED
100
AcDbEntity
  8
1
100
AcDbVertex
100
AcDb2dVertex
 10
53.84999750000001
 20
34.536351
 30
-1.746136999999995
 70
     8
  0
VERTEX
  5
124FD
330
124ED
100
AcDbEntity
  8
1
100
AcDbVertex
100
AcDb2dVertex
 10
53.84540450000001
 20
34.16426
 30
-1.746136999999995
 70
     8
  0
SEQEND
  5
124FE
330
124ED
100
AcDbEntity
  8
1
  0
POLYLINE
  5
124FF
330
18
100
AcDbEntity
  8
1
100
AcDb3dPolyline
 66
     1
 10
0.0
 20
0.0
 30
0.0
 70
    12
 75
     6
  0
VERTEX
  5
12500
330
124FF
100
AcDbEntity
  8
1
100
AcDbVertex
100
AcDb3dPolylineVertex
 10
46.28716150000001
 20
40.504952
 30
-1.746136999999995
 70
    48
  0
VERTEX
  5
12501
330
124FF
100
AcDbEntity
  8
1
100
AcDbVertex
100
AcDb3dPolylineVertex
 10
46.91314150000001
 20
40.64152899999998
 30
-1.746136999999995
 70
    48
  0
VERTEX
  5
12502
330
124FF
100
AcDbEntity
  8
1
100
AcDbVertex
100
AcDb3dPolylineVertex
 10
47.55967350000001
 20
40.686682
 30
-1.746136999999995
 70
    48
  0
VERTEX
  5
12503
330
124FF
100
AcDbEntity
  8
1
100
AcDbVertex
100
AcDb3dPolylineVertex
 10
48.48993850000001
 20
40.601283
 30
-1.746136999999995
 70
    48
  0
VERTEX
  5
12504
330
124FF
100
AcDbEntity
  8
1
100
AcDbVertex
100
AcDb3dPolylineVertex
 10
48.7597745
 20
40.558018
 30
-1.746136999999995
 70
    48
  0
VERTEX
  5
12505
330
124FF
100
AcDbEntity
  8
1
100
AcDbVertex
100
AcDb3dPolylineVertex
 10
49.30960650000002
 20
40.43052399999999
 30
-1.746136999999995
 70
    48
  0
VERTEX
  5
12506
330
124FF
100
AcDbEntity
  8
1
100
AcDbVertex
100
AcDb3dPolylineVertex
 10
49.55893550000001
 20
40.355113
 30
-1.746136999999995
 70
    48
  0
VERTEX
  5
12507
330
124FF
100
AcDbEntity
  8
1
100
AcDbVertex
100
AcDb3dPolylineVertex
 10
49.81256650000001
 20
40.26039299999999
 30
-1.746136999999995
 70
    48
  0
VERTEX
  5
12508
330
124FF
100
AcDbEntity
  8
1
100
AcDbVertex
100
AcDb3dPolylineVertex
 10
46.28716150000001
 20
40.504952
 30
-1.746136999999995
 70
    40
  0
VERTEX
  5
12509
330
124FF
100
AcDbEntity
  8
1
100
AcDbVertex
100
AcDb3dPolylineVertex
 10
46.91920050000001
 20
40.61057299999998
 30
-1.746136999999995
 70
    40
  0
VERTEX
  5
1250A
330
124FF
100
AcDbEntity
  8
1
100
AcDbVertex
100
AcDb3dPolylineVertex
 10
47.56018850000001
 20
40.65235399999998
 30
-1.746136999999995
 70
    40
  0
VERTEX
  5
1250B
330
124FF
100
AcDbEntity
  8
1
100
AcDbVertex
100
AcDb3dPolylineVertex
 10
48.2053755
 20
40.627406
 30
-1.746136999999995
 70
    40
  0
VERTEX
  5
1250C
330
124FF
100
AcDbEntity
  8
1
100
AcDbVertex
100
AcDb3dPolylineVertex
 10
48.7628025
 20
40.550834
 30
-1.746136999999995
 70
    40
  0
VERTEX
  5
1250D
330
124FF
100
AcDbEntity
  8
1
100
AcDbVertex
100
AcDb3dPolylineVertex
 10
49.30425350000001
 20
40.425873
 30
-1.746136999999995
 70
    40
  0
VERTEX
  5
1250E
330
124FF
100
AcDbEntity
  8
1
100
AcDbVertex
100
AcDb3dPolylineVertex
 10
49.81256650000001
 20
40.26039299999999
 30
-1.746136999999995
 70
    40
  0
SEQEND
  5
1250F
330
124FF
100
AcDbEntity
  8
1
  0
LINE
  5
12510
330
18
100
AcDbEntity
  8
1
100
AcDbLine
 10
44.23879450000002
 20
39.639455
 30
-1.746136999999995
 11
39.68216350000001
 21
36.649479
 31
-1.746136999999995
  0
POLYLINE
  5
12511
330
18
100
AcDbEntity
  8
1
100
AcDb2dPolyline
 66
     1
 10
0.0
 20
0.0
 30
-1.746136999999995
 70
     4
 75
     6
  0
VERTEX
  5
12512
330
12511
100
AcDbEntity
  8
1
100
AcDbVertex
100
AcDb2dVertex
 10
26.85948550000001
 20
43.40849399999998
 30
-1.746136999999995
 70
    16
  0
VERTEX
  5
12513
330
12511
100
AcDbEntity
  8
1
100
AcDbVertex
100
AcDb2dVertex
 10
26.69841750000001
 20
42.78884999999998
 30
-1.746136999999995
 70
    16
  0
VERTEX
  5
12514
330
12511
100
AcDbEntity
  8
1
100
AcDbVertex
100
AcDb2dVertex
 10
26.53738450000002
 20
42.16919599999999
 30
-1.746136999999995
 70
    16
  0
VERTEX
  5
12515
330
12511
100
AcDbEntity
  8
1
100
AcDbVertex
100
AcDb2dVertex
 10
25.86116050000001
 20
39.56644
 30
-1.746136999999995
 70
    16
  0
VERTEX
  5
12516
330
12511
100
AcDbEntity
  8
1
100
AcDbVertex
100
AcDb2dVertex
 10
25.34632050000002
 20
37.583245
 30
-1.746136999999995
 70
    16
  0
VERTEX
  5
12517
330
12511
100
AcDbEntity
  8
1
100
AcDbVertex
100
AcDb2dVertex
 10
24.83198250000001
 20
35.59992000000001
 30
-1.746136999999995
 70
    16
  0
VERTEX
  5
12518
330
12511
100
AcDbEntity
  8
1
100
AcDbVertex
100
AcDb2dVertex
 10
26.85948550000001
 20
43.40849399999998
 30
-1.746136999999995
 70
     8
  0
VERTEX
  5
12519
330
12511
100
AcDbEntity
  8
1
100
AcDbVertex
100
AcDb2dVertex
 10
24.83198250000001
 20
35.59992000000001
 30
-1.746136999999995
 70
     8
  0
SEQEND
  5
1251A
330
12511
100
AcDbEntity
  8
1
  0
LINE
  5
1251B
330
18
100
AcDbEntity
  8
1
100
AcDbLine
 10
51.07189449999999
 20
29.302381
 30
-1.746136999999995
 11
46.51526249999998
 21
26.31240400000001
 31
-1.746136999999995
  0
POLYLINE
  5
1251C
330
18
100
AcDbEntity
  8
1
100
AcDb3dPolyline
 66
     1
 10
0.0
 20
0.0
 30
0.0
 70
    12
 75
     6
  0
VERTEX
  5
1251D
330
1251C
100
AcDbEntity
  8
1
100
AcDbVertex
100
AcDb3dPolylineVertex
 10
52.79988550000001
 20
37.835292
 30
-1.746136999999995
 70
    48
  0
VERTEX
  5
1251E
330
1251C
100
AcDbEntity
  8
1
100
AcDbVertex
100
AcDb3dPolylineVertex
 10
52.44380150000001
 20
38.367843
 30
-1.746136999999995
 70
    48
  0
VERTEX
  5
1251F
330
1251C
100
AcDbEntity
  8
1
100
AcDbVertex
100
AcDb3dPolylineVertex
 10
52.01590250000001
 20
38.853369
 30
-1.746136999999995
 70
    48
  0
VERTEX
  5
12520
330
1251C
100
AcDbEntity
  8
1
100
AcDbVertex
100
AcDb3dPolylineVertex
 10
51.2965935
 20
39.447316
 30
-1.746136999999995
 70
    48
  0
VERTEX
  5
12521
330
1251C
100
AcDbEntity
  8
1
100
AcDbVertex
100
AcDb3dPolylineVertex
 10
51.07477850000001
 20
39.607074
 30
-1.746136999999995
 70
    48
  0
VERTEX
  5
12522
330
1251C
100
AcDbEntity
  8
1
100
AcDbVertex
100
AcDb3dPolylineVertex
 10
50.49988950000001
 20
39.96221400000001
 30
-1.746136999999995
 70
    48
  0
VERTEX
  5
12523
330
1251C
100
AcDbEntity
  8
1
100
AcDbVertex
100
AcDb3dPolylineVertex
 10
50.17075150000001
 20
40.124775
 30
-1.746136999999995
 70
    48
  0
VERTEX
  5
12524
330
1251C
100
AcDbEntity
  8
1
100
AcDbVertex
100
AcDb3dPolylineVertex
 10
49.81221150000001
 20
40.259998
 30
-1.746136999999995
 70
    48
  0
VERTEX
  5
12525
330
1251C
100
AcDbEntity
  8
1
100
AcDbVertex
100
AcDb3dPolylineVertex
 10
52.79988550000001
 20
37.835292
 30
-1.746136999999995
 70
    40
  0
VERTEX
  5
12526
330
1251C
100
AcDbEntity
  8
1
100
AcDbVertex
100
AcDb3dPolylineVertex
 10
52.41987149999999
 20
38.351202
 30
-1.746136999999995
 70
    40
  0
VERTEX
  5
12527
330
1251C
100
AcDbEntity
  8
1
100
AcDbVertex
100
AcDb3dPolylineVertex
 10
51.9920325
 20
38.829971
 30
-1.746136999999995
 70
    40
  0
VERTEX
  5
12528
330
1251C
100
AcDbEntity
  8
1
100
AcDbVertex
100
AcDb3dPolylineVertex
 10
51.51641750000001
 20
39.265804
 30
-1.746136999999995
 70
    40
  0
VERTEX
  5
12529
330
1251C
100
AcDbEntity
  8
1
100
AcDbVertex
100
AcDb3dPolylineVertex
 10
51.06764550000001
 20
39.603894
 30
-1.746136999999995
 70
    40
  0
VERTEX
  5
1252A
330
1251C
100
AcDbEntity
  8
1
100
AcDbVertex
100
AcDb3dPolylineVertex
 10
50.8291385
 20
39.758819
 30
-1.746136999999995
 70
    40
  0
VERTEX
  5
1252B
330
1251C
100
AcDbEntity
  8
1
100
AcDbVertex
100
AcDb3dPolylineVertex
 10
50.49883350000001
 20
39.94910199999999
 30
-1.746136999999995
 70
    40
  0
VERTEX
  5
1252C
330
1251C
100
AcDbEntity
  8
1
100
AcDbVertex
100
AcDb3dPolylineVertex
 10
50.1620445
 20
40.11516199999999
 30
-1.746136999999995
 70
    40
  0
VERTEX
  5
1252D
330
1251C
100
AcDbEntity
  8
1
100
AcDbVertex
100
AcDb3dPolylineVertex
 10
49.81221150000001
 20
40.259998
 30
-1.746136999999995
 70
    40
  0
SEQEND
  5
1252E
330
1251C
100
AcDbEntity
  8
1
  0
POLYLINE
  5
1252F
330
18
100
AcDbEntity
  8
1
100
AcDb3dPolyline
 66
     1
 10
0.0
 20
0.0
 30
0.0
 70
    12
 75
     6
  0
VERTEX
  5
12530
330
1252F
100
AcDbEntity
  8
1
100
AcDbVertex
100
AcDb3dPolylineVertex
 10
22.04765250000001
 20
-27.696473
 30
-1.746136999999995
 70
    48
  0
VERTEX
  5
12531
330
1252F
100
AcDbEntity
  8
1
100
AcDbVertex
100
AcDb3dPolylineVertex
 10
22.0499355
 20
-27.704869
 30
-1.746136999999995
 70
    48
  0
VERTEX
  5
12532
330
1252F
100
AcDbEntity
  8
1
100
AcDbVertex
100
AcDb3dPolylineVertex
 10
22.0515345
 20
-27.710269
 30
-1.746136999999995
 70
    48
  0
VERTEX
  5
12533
330
1252F
100
AcDbEntity
  8
1
100
AcDbVertex
100
AcDb3dPolylineVertex
 10
22.10681550000001
 20
-27.876356
 30
-1.746136999999995
 70
    48
  0
VERTEX
  5
12534
330
1252F
100
AcDbEntity
  8
1
100
AcDbVertex
100
AcDb3dPolylineVertex
 10
22.19802250000002
 20
-27.95252000000001
 30
-1.746136999999995
 70
    48
  0
VERTEX
  5
12535
330
1252F
100
AcDbEntity
  8
1
100
AcDbVertex
100
AcDb3dPolylineVertex
 10
22.52794650000002
 20
-28.18913100000001
 30
-1.746136999999995
 70
    48
  0
VERTEX
  5
12536
330
1252F
100
AcDbEntity
  8
1
100
AcDbVertex
100
AcDb3dPolylineVertex
 10
22.7803805
 20
-28.270243
 30
-1.746136999999995
 70
    48
  0
VERTEX
  5
12537
330
1252F
100
AcDbEntity
  8
1
100
AcDbVertex
100
AcDb3dPolylineVertex
 10
23.66454750000001
 20
-28.512373
 30
-1.746136999999995
 70
    48
  0
VERTEX
  5
12538
330
1252F
100
AcDbEntity
  8
1
100
AcDbVertex
100
AcDb3dPolylineVertex
 10
24.32347250000002
 20
-28.570852
 30
-1.746136999999995
 70
    48
  0
VERTEX
  5
12539
330
1252F
100
AcDbEntity
  8
1
100
AcDbVertex
100
AcDb3dPolylineVertex
 10
25.33148950000001
 20
-28.625776
 30
-1.746136999999995
 70
    48
  0
VERTEX
  5
1253A
330
1252F
100
AcDbEntity
  8
1
100
AcDbVertex
100
AcDb3dPolylineVertex
 10
25.68131850000001
 20
-28.63475300000001
 30
-1.746136999999995
 70
    48
  0
VERTEX
  5
1253B
330
1252F
100
AcDbEntity
  8
1
100
AcDbVertex
100
AcDb3dPolylineVertex
 10
26.0324315
 20
-28.63475300000001
 30
-1.746136999999995
 70
    48
  0
VERTEX
  5
1253C
330
1252F
100
AcDbEntity
  8
1
100
AcDbVertex
100
AcDb3dPolylineVertex
 10
22.04765250000001
 20
-27.696473
 30
-1.746136999999995
 70
    40
  0
VERTEX
  5
1253D
330
1252F
100
AcDbEntity
  8
1
100
AcDbVertex
100
AcDb3dPolylineVertex
 10
22.0546585
 20
-27.719655
 30
-1.746136999999995
 70
    40
  0
VERTEX
  5
1253E
330
1252F
100
AcDbEntity
  8
1
100
AcDbVertex
100
AcDb3dPolylineVertex
 10
22.1191625
 20
-27.85265200000001
 30
-1.746136999999995
 70
    40
  0
VERTEX
  5
1253F
330
1252F
100
AcDbEntity
  8
1
100
AcDbVertex
100
AcDb3dPolylineVertex
 10
22.2056855
 20
-27.95080900000001
 30
-1.746136999999995
 70
    40
  0
VERTEX
  5
12540
330
1252F
100
AcDbEntity
  8
1
100
AcDbVertex
100
AcDb3dPolylineVertex
 10
22.31020950000001
 20
-28.032977
 30
-1.746136999999995
 70
    40
  0
VERTEX
  5
12541
330
1252F
100
AcDbEntity
  8
1
100
AcDbVertex
100
AcDb3dPolylineVertex
 10
22.53822150000001
 20
-28.166451
 30
-1.746136999999995
 70
    40
  0
VERTEX
  5
12542
330
1252F
100
AcDbEntity
  8
1
100
AcDbVertex
100
AcDb3dPolylineVertex
 10
22.78162150000001
 20
-28.26390100000001
 30
-1.746136999999995
 70
    40
  0
VERTEX
  5
12543
330
1252F
100
AcDbEntity
  8
1
100
AcDbVertex
100
AcDb3dPolylineVertex
 10
23.0326675
 20
-28.33933199999999
 30
-1.746136999999995
 70
    40
  0
VERTEX
  5
12544
330
1252F
100
AcDbEntity
  8
1
100
AcDbVertex
100
AcDb3dPolylineVertex
 10
23.67246650000002
 20
-28.477587
 30
-1.746136999999995
 70
    40
  0
VERTEX
  5
12545
330
1252F
100
AcDbEntity
  8
1
100
AcDbVertex
100
AcDb3dPolylineVertex
 10
24.3237185
 20
-28.559879
 30
-1.746136999999995
 70
    40
  0
VERTEX
  5
12546
330
1252F
100
AcDbEntity
  8
1
100
AcDbVertex
100
AcDb3dPolylineVertex
 10
25.3309995
 20
-28.622427
 30
-1.746136999999995
 70
    40
  0
VERTEX
  5
12547
330
1252F
100
AcDbEntity
  8
1
100
AcDbVertex
100
AcDb3dPolylineVertex
 10
26.0324315
 20
-28.63475300000001
 30
-1.746136999999995
 70
    40
  0
SEQEND
  5
12548
330
1252F
100
AcDbEntity
  8
1
  0
POLYLINE
  5
12549
330
18
100
AcDbEntity
  8
1
100
AcDb3dPolyline
 66
     1
 10
0.0
 20
0.0
 30
0.0
 70
    12
 75
     6
  0
VERTEX
  5
1254A
330
12549
100
AcDbEntity
  8
1
100
AcDbVertex
100
AcDb3dPolylineVertex
 10
26.03243150000001
 20
33.329933
 30
-1.746136999999995
 70
    48
  0
VERTEX
  5
1254B
330
12549
100
AcDbEntity
  8
1
100
AcDbVertex
100
AcDb3dPolylineVertex
 10
25.39413650000001
 20
33.254007
 30
-1.746136999999995
 70
    48
  0
VERTEX
  5
1254C
330
12549
100
AcDbEntity
  8
1
100
AcDbVertex
100
AcDb3dPolylineVertex
 10
24.75573150000001
 20
33.179006
 30
-1.746136999999995
 70
    48
  0
VERTEX
  5
1254D
330
12549
100
AcDbEntity
  8
1
100
AcDbVertex
100
AcDb3dPolylineVertex
 10
23.84810050000001
 20
33.069687
 30
-1.746136999999995
 70
    48
  0
VERTEX
  5
1254E
330
12549
100
AcDbEntity
  8
1
100
AcDbVertex
100
AcDb3dPolylineVertex
 10
23.57997850000002
 20
33.029308
 30
-1.746136999999995
 70
    48
  0
VERTEX
  5
1254F
330
12549
100
AcDbEntity
  8
1
100
AcDbVertex
100
AcDb3dPolylineVertex
 10
22.98686350000002
 20
32.90617000000001
 30
-1.746136999999995
 70
    48
  0
VERTEX
  5
12550
330
12549
100
AcDbEntity
  8
1
100
AcDbVertex
100
AcDb3dPolylineVertex
 10
22.66419150000002
 20
32.836168
 30
-1.746136999999995
 70
    48
  0
VERTEX
  5
12551
330
12549
100
AcDbEntity
  8
1
100
AcDbVertex
100
AcDb3dPolylineVertex
 10
22.22339150000002
 20
32.55732500000001
 30
-1.746136999999995
 70
    48
  0
VERTEX
  5
12552
330
12549
100
AcDbEntity
  8
1
100
AcDbVertex
100
AcDb3dPolylineVertex
 10
22.10407550000001
 20
32.48113100000001
 30
-1.746136999999995
 70
    48
  0
VERTEX
  5
12553
330
12549
100
AcDbEntity
  8
1
100
AcDbVertex
100
AcDb3dPolylineVertex
 10
22.04765250000002
 20
32.27355
 30
-1.746136999999995
 70
    48
  0
VERTEX
  5
12554
330
12549
100
AcDbEntity
  8
1
100
AcDbVertex
100
AcDb3dPolylineVertex
 10
26.03243150000001
 20
33.329933
 30
-1.746136999999995
 70
    40
  0
VERTEX
  5
12555
330
12549
100
AcDbEntity
  8
1
100
AcDbVertex
100
AcDb3dPolylineVertex
 10
24.11754850000001
 20
33.102141
 30
-1.746136999999995
 70
    40
  0
VERTEX
  5
12556
330
12549
100
AcDbEntity
  8
1
100
AcDbVertex
100
AcDb3dPolylineVertex
 10
23.5805175
 20
33.024587
 30
-1.746136999999995
 70
    40
  0
VERTEX
  5
12557
330
12549
100
AcDbEntity
  8
1
100
AcDbVertex
100
AcDb3dPolylineVertex
 10
22.9890805
 20
32.901212
 30
-1.746136999999995
 70
    40
  0
VERTEX
  5
12558
330
12549
100
AcDbEntity
  8
1
100
AcDbVertex
100
AcDb3dPolylineVertex
 10
22.67264750000002
 20
32.801605
 30
-1.746136999999995
 70
    40
  0
VERTEX
  5
12559
330
12549
100
AcDbEntity
  8
1
100
AcDbVertex
100
AcDb3dPolylineVertex
 10
22.36956150000001
 20
32.64979
 30
-1.746136999999995
 70
    40
  0
VERTEX
  5
1255A
330
12549
100
AcDbEntity
  8
1
100
AcDbVertex
100
AcDb3dPolylineVertex
 10
22.23367750000002
 20
32.55728000000001
 30
-1.746136999999995
 70
    40
  0
VERTEX
  5
1255B
330
12549
100
AcDbEntity
  8
1
100
AcDbVertex
100
AcDb3dPolylineVertex
 10
22.12370550000001
 20
32.442804
 30
-1.746136999999995
 70
    40
  0
VERTEX
  5
1255C
330
12549
100
AcDbEntity
  8
1
100
AcDbVertex
100
AcDb3dPolylineVertex
 10
22.04765250000002
 20
32.27355
 30
-1.746136999999995
 70
    40
  0
SEQEND
  5
1255D
330
12549
100
AcDbEntity
  8
1
  0
POLYLINE
  5
1255E
330
18
100
AcDbEntity
  8
1
100
AcDb2dPolyline
 66
     1
 10
0.0
 20
0.0
 30
-1.746136999999995
 70
     4
 75
     5
  0
VERTEX
  5
1255F
330
1255E
100
AcDbEntity
  8
1
100
AcDbVertex
100
AcDb2dVertex
 10
15.59747050000001
 20
-7.060705000000012
 30
-1.746136999999995
 70
    16
  0
VERTEX
  5
12560
330
1255E
100
AcDbEntity
  8
1
100
AcDbVertex
100
AcDb2dVertex
 10
14.13614650000002
 20
-7.060705000000012
 30
-1.746136999999995
 70
    16
  0
VERTEX
  5
12561
330
1255E
100
AcDbEntity
  8
1
100
AcDbVertex
100
AcDb2dVertex
 10
12.67482150000001
 20
-7.060705000000012
 30
-1.746136999999995
 70
    16
  0
VERTEX
  5
12562
330
1255E
100
AcDbEntity
  8
1
100
AcDbVertex
100
AcDb2dVertex
 10
15.59747050000001
 20
-7.060705000000012
 30
-1.746136999999995
 70
     8
  0
VERTEX
  5
12563
330
1255E
100
AcDbEntity
  8
1
100
AcDbVertex
100
AcDb2dVertex
 10
12.67482150000001
 20
-7.060705000000012
 30
-1.746136999999995
 70
     8
  0
SEQEND
  5
12564
330
1255E
100
AcDbEntity
  8
1
  0
POLYLINE
  5
12565
330
18
100
AcDbEntity
  8
1
100
AcDb2dPolyline
 66
     1
 10
0.0
 20
0.0
 30
-1.746136999999995
 70
     4
 75
     6
  0
VERTEX
  5
12566
330
12565
100
AcDbEntity
  8
1
100
AcDbVertex
100
AcDb2dVertex
 10
15.59747050000001
 20
-27.792047
 30
-1.746136999999995
 70
    16
  0
VERTEX
  5
12567
330
12565
100
AcDbEntity
  8
1
100
AcDbVertex
100
AcDb2dVertex
 10
15.64733450000002
 20
-27.792047
 30
-1.746136999999995
 70
    16
  0
VERTEX
  5
12568
330
12565
100
AcDbEntity
  8
1
100
AcDbVertex
100
AcDb2dVertex
 10
15.69719750000001
 20
-27.792047
 30
-1.746136999999995
 70
    16
  0
VERTEX
  5
12569
330
12565
100
AcDbEntity
  8
1
100
AcDbVertex
100
AcDb2dVertex
 10
15.76255650000001
 20
-27.792047
 30
-1.746136999999995
 70
    16
  0
VERTEX
  5
1256A
330
12565
100
AcDbEntity
  8
1
100
AcDbVertex
100
AcDb2dVertex
 10
15.77805150000002
 20
-27.792047
 30
-1.746136999999995
 70
    16
  0
VERTEX
  5
1256B
330
12565
100
AcDbEntity
  8
1
100
AcDbVertex
100
AcDb2dVertex
 10
15.79354650000001
 20
-27.792047
 30
-1.746136999999995
 70
    16
  0
VERTEX
  5
1256C
330
12565
100
AcDbEntity
  8
1
100
AcDbVertex
100
AcDb2dVertex
 10
15.59747050000001
 20
-27.792047
 30
-1.746136999999995
 70
     8
  0
VERTEX
  5
1256D
330
12565
100
AcDbEntity
  8
1
100
AcDbVertex
100
AcDb2dVertex
 10
15.79354650000001
 20
-27.792047
 30
-1.746136999999995
 70
     8
  0
SEQEND
  5
1256E
330
12565
100
AcDbEntity
  8
1
  0
POLYLINE
  5
1256F
330
18
100
AcDbEntity
  8
1
100
AcDb2dPolyline
 66
     1
 10
0.0
 20
0.0
 30
-1.746136999999995
 70
     4
 75
     6
  0
VERTEX
  5
12570
330
1256F
100
AcDbEntity
  8
1
100
AcDbVertex
100
AcDb2dVertex
 10
15.79354650000001
 20
-27.792047
 30
-1.746136999999995
 70
    16
  0
VERTEX
  5
12571
330
1256F
100
AcDbEntity
  8
1
100
AcDbVertex
100
AcDb2dVertex
 10
15.6993625
 20
-27.792047
 30
-1.746136999999995
 70
    16
  0
VERTEX
  5
12572
330
1256F
100
AcDbEntity
  8
1
100
AcDbVertex
100
AcDb2dVertex
 10
15.60517850000002
 20
-27.792047
 30
-1.746136999999995
 70
    16
  0
VERTEX
  5
12573
330
1256F
100
AcDbEntity
  8
1
100
AcDbVertex
100
AcDb2dVertex
 10
14.56560350000001
 20
-27.792047
 30
-1.746136999999995
 70
    16
  0
VERTEX
  5
12574
330
1256F
100
AcDbEntity
  8
1
100
AcDbVertex
100
AcDb2dVertex
 10
13.6202125
 20
-27.792047
 30
-1.746136999999995
 70
    16
  0
VERTEX
  5
12575
330
1256F
100
AcDbEntity
  8
1
100
AcDbVertex
100
AcDb2dVertex
 10
12.67482150000001
 20
-27.792047
 30
-1.746136999999995
 70
    16
  0
VERTEX
  5
12576
330
1256F
100
AcDbEntity
  8
1
100
AcDbVertex
100
AcDb2dVertex
 10
15.79354650000001
 20
-27.792047
 30
-1.746136999999995
 70
     8
  0
VERTEX
  5
12577
330
1256F
100
AcDbEntity
  8
1
100
AcDbVertex
100
AcDb2dVertex
 10
12.67482150000001
 20
-27.792047
 30
-1.746136999999995
 70
     8
  0
SEQEND
  5
12578
330
1256F
100
AcDbEntity
  8
1
  0
POLYLINE
  5
12579
330
18
100
AcDbEntity
  8
1
100
AcDb2dPolyline
 66
     1
 10
0.0
 20
0.0
 30
-1.746136999999995
 70
     4
 75
     6
  0
VERTEX
  5
1257A
330
12579
100
AcDbEntity
  8
1
100
AcDbVertex
100
AcDb2dVertex
 10
24.13614650000001
 20
33.000914
 30
-1.746136999999995
 70
    16
  0
VERTEX
  5
1257B
330
12579
100
AcDbEntity
  8
1
100
AcDbVertex
100
AcDb2dVertex
 10
24.24538250000002
 20
33.407883
 30
-1.746136999999995
 70
    16
  0
VERTEX
  5
1257C
330
12579
100
AcDbEntity
  8
1
100
AcDbVertex
100
AcDb2dVertex
 10
24.35449050000002
 20
33.814886
 30
-1.746136999999995
 70
    16
  0
VERTEX
  5
1257D
330
12579
100
AcDbEntity
  8
1
100
AcDbVertex
100
AcDb2dVertex
 10
24.58646050000001
 20
34.681215
 30
-1.746136999999995
 70
    16
  0
VERTEX
  5
1257E
330
12579
100
AcDbEntity
  8
1
100
AcDbVertex
100
AcDb2dVertex
 10
24.70929050000001
 20
35.140549
 30
-1.746136999999995
 70
    16
  0
VERTEX
  5
1257F
330
12579
100
AcDbEntity
  8
1
100
AcDbVertex
100
AcDb2dVertex
 10
24.83198250000001
 20
35.59992000000001
 30
-1.746136999999995
 70
    16
  0
VERTEX
  5
12580
330
12579
100
AcDbEntity
  8
1
100
AcDbVertex
100
AcDb2dVertex
 10
24.13614650000001
 20
33.000914
 30
-1.746136999999995
 70
     8
  0
VERTEX
  5
12581
330
12579
100
AcDbEntity
  8
1
100
AcDbVertex
100
AcDb2dVertex
 10
24.83198250000001
 20
35.59992000000001
 30
-1.746136999999995
 70
     8
  0
SEQEND
  5
12582
330
12579
100
AcDbEntity
  8
1
  0
POLYLINE
  5
12583
330
18
100
AcDbEntity
  8
1
100
AcDb3dPolyline
 66
     1
 10
0.0
 20
0.0
 30
0.0
 70
    12
 75
     6
  0
VERTEX
  5
12584
330
12583
100
AcDbEntity
  8
1
100
AcDbVertex
100
AcDb3dPolylineVertex
 10
12.24180850000002
 20
-27.62540800000001
 30
-1.746136999999995
 70
    48
  0
VERTEX
  5
12585
330
12583
100
AcDbEntity
  8
1
100
AcDbVertex
100
AcDb3dPolylineVertex
 10
12.1754885
 20
-27.54542199999998
 30
-1.746136999999995
 70
    48
  0
VERTEX
  5
12586
330
12583
100
AcDbEntity
  8
1
100
AcDbVertex
100
AcDb3dPolylineVertex
 10
12.11160050000001
 20
-27.463482
 30
-1.746136999999995
 70
    48
  0
VERTEX
  5
12587
330
12583
100
AcDbEntity
  8
1
100
AcDbVertex
100
AcDb3dPolylineVertex
 10
11.49697550000001
 20
-26.628367
 30
-1.746136999999995
 70
    48
  0
VERTEX
  5
12588
330
12583
100
AcDbEntity
  8
1
100
AcDbVertex
100
AcDb3dPolylineVertex
 10
11.13056550000002
 20
-25.749071
 30
-1.746136999999995
 70
    48
  0
VERTEX
  5
12589
330
12583
100
AcDbEntity
  8
1
100
AcDbVertex
100
AcDb3dPolylineVertex
 10
10.76560250000002
 20
-24.463449
 30
-1.746136999999995
 70
    48
  0
VERTEX
  5
1258A
330
12583
100
AcDbEntity
  8
1
100
AcDbVertex
100
AcDb3dPolylineVertex
 10
10.6816055
 20
-24.096763
 30
-1.746136999999995
 70
    48
  0
VERTEX
  5
1258B
330
12583
100
AcDbEntity
  8
1
100
AcDbVertex
100
AcDb3dPolylineVertex
 10
10.38295950000001
 20
-22.505321
 30
-1.746136999999995
 70
    48
  0
VERTEX
  5
1258C
330
12583
100
AcDbEntity
  8
1
100
AcDbVertex
100
AcDb3dPolylineVertex
 10
10.30352250000002
 20
-21.319114
 30
-1.746136999999995
 70
    48
  0
VERTEX
  5
1258D
330
12583
100
AcDbEntity
  8
1
100
AcDbVertex
100
AcDb3dPolylineVertex
 10
10.2973005
 20
-20.11118699999999
 30
-1.746136999999995
 70
    48
  0
VERTEX
  5
1258E
330
12583
100
AcDbEntity
  8
1
100
AcDbVertex
100
AcDb3dPolylineVertex
 10
10.2973005
 20
-20.11118699999999
 30
-1.746136999999995
 70
    48
  0
VERTEX
  5
1258F
330
12583
100
AcDbEntity
  8
1
100
AcDbVertex
100
AcDb3dPolylineVertex
 10
10.2925765
 20
-19.19419999999998
 30
-1.746136999999995
 70
    48
  0
VERTEX
  5
12590
330
12583
100
AcDbEntity
  8
1
100
AcDbVertex
100
AcDb3dPolylineVertex
 10
10.33443850000002
 20
-18.28830800000001
 30
-1.746136999999995
 70
    48
  0
VERTEX
  5
12591
330
12583
100
AcDbEntity
  8
1
100
AcDbVertex
100
AcDb3dPolylineVertex
 10
10.64347450000002
 20
-14.528905
 30
-1.746136999999995
 70
    48
  0
VERTEX
  5
12592
330
12583
100
AcDbEntity
  8
1
100
AcDbVertex
100
AcDb3dPolylineVertex
 10
11.17755650000001
 20
-11.751846
 30
-1.746136999999995
 70
    48
  0
VERTEX
  5
12593
330
12583
100
AcDbEntity
  8
1
100
AcDbVertex
100
AcDb3dPolylineVertex
 10
11.87033150000002
 20
-8.995894999999997
 30
-1.746136999999995
 70
    48
  0
VERTEX
  5
12594
330
12583
100
AcDbEntity
  8
1
100
AcDbVertex
100
AcDb3dPolylineVertex
 10
11.87033150000002
 20
-8.995894999999997
 30
-1.746136999999995
 70
    48
  0
VERTEX
  5
12595
330
12583
100
AcDbEntity
  8
1
100
AcDbVertex
100
AcDb3dPolylineVertex
 10
11.98954350000001
 20
-8.52165399999999
 30
-1.746136999999995
 70
    48
  0
VERTEX
  5
12596
330
12583
100
AcDbEntity
  8
1
100
AcDbVertex
100
AcDb3dPolylineVertex
 10
12.11270850000001
 20
-8.052798000000002
 30
-1.746136999999995
 70
    48
  0
VERTEX
  5
12597
330
12583
100
AcDbEntity
  8
1
100
AcDbVertex
100
AcDb3dPolylineVertex
 10
12.24182050000002
 20
-7.580825999999999
 30
-1.746136999999995
 70
    48
  0
VERTEX
  5
12598
330
12583
100
AcDbEntity
  8
1
100
AcDbVertex
100
AcDb3dPolylineVertex
 10
12.24180850000002
 20
-27.62540800000001
 30
-1.746136999999995
 70
    40
  0
VERTEX
  5
12599
330
12583
100
AcDbEntity
  8
1
100
AcDbVertex
100
AcDb3dPolylineVertex
 10
12.05003750000001
 20
-27.379834
 30
-1.746136999999995
 70
    40
  0
VERTEX
  5
1259A
330
12583
100
AcDbEntity
  8
1
100
AcDbVertex
100
AcDb3dPolylineVertex
 10
11.7886985
 20
-26.993904
 30
-1.746136999999995
 70
    40
  0
VERTEX
  5
1259B
330
12583
100
AcDbEntity
  8
1
100
AcDbVertex
100
AcDb3dPolylineVertex
 10
11.5562965
 20
-26.58940300000001
 30
-1.746136999999995
 70
    40
  0
VERTEX
  5
1259C
330
12583
100
AcDbEntity
  8
1
100
AcDbVertex
100
AcDb3dPolylineVertex
 10
11.35065850000001
 20
-26.16906500000001
 30
-1.746136999999995
 70
    40
  0
VERTEX
  5
1259D
330
12583
100
AcDbEntity
  8
1
100
AcDbVertex
100
AcDb3dPolylineVertex
 10
11.1696115
 20
-25.735625
 30
-1.746136999999995
 70
    40
  0
VERTEX
  5
1259E
330
12583
100
AcDbEntity
  8
1
100
AcDbVertex
100
AcDb3dPolylineVertex
 10
11.01098450000002
 20
-25.291816
 30
-1.746136999999995
 70
    40
  0
VERTEX
  5
1259F
330
12583
100
AcDbEntity
  8
1
100
AcDbVertex
100
AcDb3dPolylineVertex
 10
10.77283850000002
 20
-24.46572499999999
 30
-1.746136999999995
 70
    40
  0
VERTEX
  5
125A0
330
12583
100
AcDbEntity
  8
1
100
AcDbVertex
100
AcDb3dPolylineVertex
 10
10.60895750000001
 20
-23.709631
 30
-1.746136999999995
 70
    40
  0
VERTEX
  5
125A1
330
12583
100
AcDbEntity
  8
1
100
AcDbVertex
100
AcDb3dPolylineVertex
 10
10.5078315
 20
-23.1088
 30
-1.746136999999995
 70
    40
  0
VERTEX
  5
125A2
330
12583
100
AcDbEntity
  8
1
100
AcDbVertex
100
AcDb3dPolylineVertex
 10
10.42909650000002
 20
-22.50988
 30
-1.746136999999995
 70
    40
  0
VERTEX
  5
125A3
330
12583
100
AcDbEntity
  8
1
100
AcDbVertex
100
AcDb3dPolylineVertex
 10
10.3306435
 20
-21.31334899999998
 30
-1.746136999999995
 70
    40
  0
VERTEX
  5
125A4
330
12583
100
AcDbEntity
  8
1
100
AcDbVertex
100
AcDb3dPolylineVertex
 10
10.2973005
 20
-20.11118699999999
 30
-1.746136999999995
 70
    40
  0
VERTEX
  5
125A5
330
12583
100
AcDbEntity
  8
1
100
AcDbVertex
100
AcDb3dPolylineVertex
 10
10.2973005
 20
-20.11118699999999
 30
-1.746136999999995
 70
    40
  0
VERTEX
  5
125A6
330
12583
100
AcDbEntity
  8
1
100
AcDbVertex
100
AcDb3dPolylineVertex
 10
10.30762050000002
 20
-19.19708499999998
 30
-1.746136999999995
 70
    40
  0
VERTEX
  5
125A7
330
12583
100
AcDbEntity
  8
1
100
AcDbVertex
100
AcDb3dPolylineVertex
 10
10.34608950000001
 20
-18.28549699999999
 30
-1.746136999999995
 70
    40
  0
VERTEX
  5
125A8
330
12583
100
AcDbEntity
  8
1
100
AcDbVertex
100
AcDb3dPolylineVertex
 10
10.40979950000002
 20
-17.371542
 30
-1.746136999999995
 70
    40
  0
VERTEX
  5
125A9
330
12583
100
AcDbEntity
  8
1
100
AcDbVertex
100
AcDb3dPolylineVertex
 10
10.55101450000001
 20
-15.955482
 30
-1.746136999999995
 70
    40
  0
VERTEX
  5
125AA
330
12583
100
AcDbEntity
  8
1
100
AcDbVertex
100
AcDb3dPolylineVertex
 10
10.73836150000001
 20
-14.549117
 30
-1.746136999999995
 70
    40
  0
VERTEX
  5
125AB
330
12583
100
AcDbEntity
  8
1
100
AcDbVertex
100
AcDb3dPolylineVertex
 10
10.96790250000001
 20
-13.15121099999999
 30
-1.746136999999995
 70
    40
  0
VERTEX
  5
125AC
330
12583
100
AcDbEntity
  8
1
100
AcDbVertex
100
AcDb3dPolylineVertex
 10
11.23570250000001
 20
-11.760529
 30
-1.746136999999995
 70
    40
  0
VERTEX
  5
125AD
330
12583
100
AcDbEntity
  8
1
100
AcDbVertex
100
AcDb3dPolylineVertex
 10
11.5378245
 20
-10.375835
 30
-1.746136999999995
 70
    40
  0
VERTEX
  5
125AE
330
12583
100
AcDbEntity
  8
1
100
AcDbVertex
100
AcDb3dPolylineVertex
 10
11.87033150000002
 20
-8.995894999999997
 30
-1.746136999999995
 70
    40
  0
VERTEX
  5
125AF
330
12583
100
AcDbEntity
  8
1
100
AcDbVertex
100
AcDb3dPolylineVertex
 10
11.87033150000002
 20
-8.995894999999997
 30
-1.746136999999995
 70
    40
  0
VERTEX
  5
125B0
330
12583
100
AcDbEntity
  8
1
100
AcDbVertex
100
AcDb3dPolylineVertex
 10
12.24182050000002
 20
-7.580825999999999
 30
-1.746136999999995
 70
    40
  0
SEQEND
  5
125B1
330
12583
100
AcDbEntity
  8
1
  0
POLYLINE
  5
125B2
330
18
100
AcDbEntity
  8
1
100
AcDb2dPolyline
 66
     1
 10
0.0
 20
0.0
 30
-1.746136999999995
 70
     4
 75
     5
  0
VERTEX
  5
125B3
330
125B2
100
AcDbEntity
  8
1
100
AcDbVertex
100
AcDb2dVertex
 10
15.59747050000001
 20
11.637783
 30
-1.746136999999995
 70
    16
  0
VERTEX
  5
125B4
330
125B2
100
AcDbEntity
  8
1
100
AcDbVertex
100
AcDb2dVertex
 10
14.13614650000002
 20
11.637783
 30
-1.746136999999995
 70
    16
  0
VERTEX
  5
125B5
330
125B2
100
AcDbEntity
  8
1
100
AcDbVertex
100
AcDb2dVertex
 10
12.67482150000001
 20
11.637783
 30
-1.746136999999995
 70
    16
  0
VERTEX
  5
125B6
330
125B2
100
AcDbEntity
  8
1
100
AcDbVertex
100
AcDb2dVertex
 10
15.59747050000001
 20
11.637783
 30
-1.746136999999995
 70
     8
  0
VERTEX
  5
125B7
330
125B2
100
AcDbEntity
  8
1
100
AcDbVertex
100
AcDb2dVertex
 10
12.67482150000001
 20
11.637783
 30
-1.746136999999995
 70
     8
  0
SEQEND
  5
125B8
330
125B2
100
AcDbEntity
  8
1
  0
POLYLINE
  5
125B9
330
18
100
AcDbEntity
  8
1
100
AcDb2dPolyline
 66
     1
 10
0.0
 20
0.0
 30
-1.746136999999995
 70
     4
 75
     6
  0
VERTEX
  5
125BA
330
125B9
100
AcDbEntity
  8
1
100
AcDbVertex
100
AcDb2dVertex
 10
15.59747050000001
 20
32.369125
 30
-1.746136999999995
 70
    16
  0
VERTEX
  5
125BB
330
125B9
100
AcDbEntity
  8
1
100
AcDbVertex
100
AcDb2dVertex
 10
15.64733450000002
 20
32.369125
 30
-1.746136999999995
 70
    16
  0
VERTEX
  5
125BC
330
125B9
100
AcDbEntity
  8
1
100
AcDbVertex
100
AcDb2dVertex
 10
15.69719750000001
 20
32.369125
 30
-1.746136999999995
 70
    16
  0
VERTEX
  5
125BD
330
125B9
100
AcDbEntity
  8
1
100
AcDbVertex
100
AcDb2dVertex
 10
15.76255650000001
 20
32.369125
 30
-1.746136999999995
 70
    16
  0
VERTEX
  5
125BE
330
125B9
100
AcDbEntity
  8
1
100
AcDbVertex
100
AcDb2dVertex
 10
15.77805150000002
 20
32.369125
 30
-1.746136999999995
 70
    16
  0
VERTEX
  5
125BF
330
125B9
100
AcDbEntity
  8
1
100
AcDbVertex
100
AcDb2dVertex
 10
15.79354650000001
 20
32.369125
 30
-1.746136999999995
 70
    16
  0
VERTEX
  5
125C0
330
125B9
100
AcDbEntity
  8
1
100
AcDbVertex
100
AcDb2dVertex
 10
15.59747050000001
 20
32.369125
 30
-1.746136999999995
 70
     8
  0
VERTEX
  5
125C1
330
125B9
100
AcDbEntity
  8
1
100
AcDbVertex
100
AcDb2dVertex
 10
15.79354650000001
 20
32.369125
 30
-1.746136999999995
 70
     8
  0
SEQEND
  5
125C2
330
125B9
100
AcDbEntity
  8
1
  0
POLYLINE
  5
125C3
330
18
100
AcDbEntity
  8
1
100
AcDb2dPolyline
 66
     1
 10
0.0
 20
0.0
 30
-1.746136999999995
 70
     4
 75
     6
  0
VERTEX
  5
125C4
330
125C3
100
AcDbEntity
  8
1
100
AcDbVertex
100
AcDb2dVertex
 10
15.79354650000001
 20
32.369125
 30
-1.746136999999995
 70
    16
  0
VERTEX
  5
125C5
330
125C3
100
AcDbEntity
  8
1
100
AcDbVertex
100
AcDb2dVertex
 10
15.6993625
 20
32.369125
 30
-1.746136999999995
 70
    16
  0
VERTEX
  5
125C6
330
125C3
100
AcDbEntity
  8
1
100
AcDbVertex
100
AcDb2dVertex
 10
15.60517850000002
 20
32.369125
 30
-1.746136999999995
 70
    16
  0
VERTEX
  5
125C7
330
125C3
100
AcDbEntity
  8
1
100
AcDbVertex
100
AcDb2dVertex
 10
14.56560350000001
 20
32.369125
 30
-1.746136999999995
 70
    16
  0
VERTEX
  5
125C8
330
125C3
100
AcDbEntity
  8
1
100
AcDbVertex
100
AcDb2dVertex
 10
13.62021250000001
 20
32.36912500000001
 30
-1.746136999999995
 70
    16
  0
VERTEX
  5
125C9
330
125C3
100
AcDbEntity
  8
1
100
AcDbVertex
100
AcDb2dVertex
 10
12.67482150000001
 20
32.36912500000001
 30
-1.746136999999995
 70
    16
  0
VERTEX
  5
125CA
330
125C3
100
AcDbEntity
  8
1
100
AcDbVertex
100
AcDb2dVertex
 10
15.79354650000001
 20
32.369125
 30
-1.746136999999995
 70
     8
  0
VERTEX
  5
125CB
330
125C3
100
AcDbEntity
  8
1
100
AcDbVertex
100
AcDb2dVertex
 10
12.67482150000001
 20
32.36912500000001
 30
-1.746136999999995
 70
     8
  0
SEQEND
  5
125CC
330
125C3
100
AcDbEntity
  8
1
  0
POLYLINE
  5
125CD
330
18
100
AcDbEntity
  8
1
100
AcDb3dPolyline
 66
     1
 10
0.0
 20
0.0
 30
0.0
 70
    12
 75
     6
  0
VERTEX
  5
125CE
330
125CD
100
AcDbEntity
  8
1
100
AcDbVertex
100
AcDb3dPolylineVertex
 10
12.24180850000002
 20
32.202486
 30
-1.746136999999995
 70
    48
  0
VERTEX
  5
125CF
330
125CD
100
AcDbEntity
  8
1
100
AcDbVertex
100
AcDb3dPolylineVertex
 10
12.18080650000001
 20
32.12891300000001
 30
-1.746136999999995
 70
    48
  0
VERTEX
  5
125D0
330
125CD
100
AcDbEntity
  8
1
100
AcDbVertex
100
AcDb3dPolylineVertex
 10
12.12186050000002
 20
32.053685
 30
-1.746136999999995
 70
    48
  0
VERTEX
  5
125D1
330
125CD
100
AcDbEntity
  8
1
100
AcDbVertex
100
AcDb3dPolylineVertex
 10
11.50848150000001
 20
31.22801900000001
 30
-1.746136999999995
 70
    48
  0
VERTEX
  5
125D2
330
125CD
100
AcDbEntity
  8
1
100
AcDbVertex
100
AcDb3dPolylineVertex
 10
11.13940950000002
 20
30.34957900000001
 30
-1.746136999999995
 70
    48
  0
VERTEX
  5
125D3
330
125CD
100
AcDbEntity
  8
1
100
AcDbVertex
100
AcDb3dPolylineVertex
 10
10.77155050000001
 20
29.06454
 30
-1.746136999999995
 70
    48
  0
VERTEX
  5
125D4
330
125CD
100
AcDbEntity
  8
1
100
AcDbVertex
100
AcDb3dPolylineVertex
 10
10.68685850000003
 20
28.69810400000002
 30
-1.746136999999995
 70
    48
  0
VERTEX
  5
125D5
330
125CD
100
AcDbEntity
  8
1
100
AcDbVertex
100
AcDb3dPolylineVertex
 10
10.38540750000001
 20
27.106577
 30
-1.746136999999995
 70
    48
  0
VERTEX
  5
125D6
330
125CD
100
AcDbEntity
  8
1
100
AcDbVertex
100
AcDb3dPolylineVertex
 10
10.30475250000002
 20
25.920429
 30
-1.746136999999995
 70
    48
  0
VERTEX
  5
125D7
330
125CD
100
AcDbEntity
  8
1
100
AcDbVertex
100
AcDb3dPolylineVertex
 10
10.29743450000001
 20
24.71226000000002
 30
-1.746136999999995
 70
    48
  0
VERTEX
  5
125D8
330
125CD
100
AcDbEntity
  8
1
100
AcDbVertex
100
AcDb3dPolylineVertex
 10
10.29743450000001
 20
24.71226000000002
 30
-1.746136999999995
 70
    48
  0
VERTEX
  5
125D9
330
125CD
100
AcDbEntity
  8
1
100
AcDbVertex
100
AcDb3dPolylineVertex
 10
10.2918795
 20
23.79520300000001
 30
-1.746136999999995
 70
    48
  0
VERTEX
  5
125DA
330
125CD
100
AcDbEntity
  8
1
100
AcDbVertex
100
AcDb3dPolylineVertex
 10
10.3330695
 20
22.88928200000001
 30
-1.746136999999995
 70
    48
  0
VERTEX
  5
125DB
330
125CD
100
AcDbEntity
  8
1
100
AcDbVertex
100
AcDb3dPolylineVertex
 10
10.50767150000001
 20
20.74856600000002
 30
-1.746136999999995
 70
    48
  0
VERTEX
  5
125DC
330
125CD
100
AcDbEntity
  8
1
100
AcDbVertex
100
AcDb3dPolylineVertex
 10
10.66414650000001
 20
19.54801100000002
 30
-1.746136999999995
 70
    48
  0
VERTEX
  5
125DD
330
125CD
100
AcDbEntity
  8
1
100
AcDbVertex
100
AcDb3dPolylineVertex
 10
10.86525850000001
 20
18.341129
 30
-1.746136999999995
 70
    48
  0
VERTEX
  5
125DE
330
125CD
100
AcDbEntity
  8
1
100
AcDbVertex
100
AcDb3dPolylineVertex
 10
10.86525850000001
 20
18.341129
 30
-1.746136999999995
 70
    48
  0
VERTEX
  5
125DF
330
125CD
100
AcDbEntity
  8
1
100
AcDbVertex
100
AcDb3dPolylineVertex
 10
11.21334050000001
 20
16.252265
 30
-1.746136999999995
 70
    48
  0
VERTEX
  5
125E0
330
125CD
100
AcDbEntity
  8
1
100
AcDbVertex
100
AcDb3dPolylineVertex
 10
11.6840245
 20
14.196949
 30
-1.746136999999995
 70
    48
  0
VERTEX
  5
125E1
330
125CD
100
AcDbEntity
  8
1
100
AcDbVertex
100
AcDb3dPolylineVertex
 10
12.24182050000002
 20
12.157904
 30
-1.746136999999995
 70
    48
  0
VERTEX
  5
125E2
330
125CD
100
AcDbEntity
  8
1
100
AcDbVertex
100
AcDb3dPolylineVertex
 10
12.24180850000002
 20
32.202486
 30
-1.746136999999995
 70
    40
  0
VERTEX
  5
125E3
330
125CD
100
AcDbEntity
  8
1
100
AcDbVertex
100
AcDb3dPolylineVertex
 10
12.06488750000001
 20
31.97699400000001
 30
-1.746136999999995
 70
    40
  0
VERTEX
  5
125E4
330
125CD
100
AcDbEntity
  8
1
100
AcDbVertex
100
AcDb3dPolylineVertex
 10
11.80193350000002
 20
31.59217900000001
 30
-1.746136999999995
 70
    40
  0
VERTEX
  5
125E5
330
125CD
100
AcDbEntity
  8
1
100
AcDbVertex
100
AcDb3dPolylineVertex
 10
11.56802750000003
 20
31.188555
 30
-1.746136999999995
 70
    40
  0
VERTEX
  5
125E6
330
125CD
100
AcDbEntity
  8
1
100
AcDbVertex
100
AcDb3dPolylineVertex
 10
11.36099650000001
 20
30.768889
 30
-1.746136999999995
 70
    40
  0
VERTEX
  5
125E7
330
125CD
100
AcDbEntity
  8
1
100
AcDbVertex
100
AcDb3dPolylineVertex
 10
11.17866550000001
 20
30.33595100000001
 30
-1.746136999999995
 70
    40
  0
VERTEX
  5
125E8
330
125CD
100
AcDbEntity
  8
1
100
AcDbVertex
100
AcDb3dPolylineVertex
 10
11.01886150000001
 20
29.89250800000001
 30
-1.746136999999995
 70
    40
  0
VERTEX
  5
125E9
330
125CD
100
AcDbEntity
  8
1
100
AcDbVertex
100
AcDb3dPolylineVertex
 10
10.77883550000001
 20
29.06684100000001
 30
-1.746136999999995
 70
    40
  0
VERTEX
  5
125EA
330
125CD
100
AcDbEntity
  8
1
100
AcDbVertex
100
AcDb3dPolylineVertex
 10
10.61353050000001
 20
28.31096900000001
 30
-1.746136999999995
 70
    40
  0
VERTEX
  5
125EB
330
125CD
100
AcDbEntity
  8
1
100
AcDbVertex
100
AcDb3dPolylineVertex
 10
10.51141450000002
 20
27.71010700000002
 30
-1.746136999999995
 70
    40
  0
VERTEX
  5
125EC
330
125CD
100
AcDbEntity
  8
1
100
AcDbVertex
100
AcDb3dPolylineVertex
 10
10.43181850000002
 20
27.11116700000001
 30
-1.746136999999995
 70
    40
  0
VERTEX
  5
125ED
330
125CD
100
AcDbEntity
  8
1
100
AcDbVertex
100
AcDb3dPolylineVertex
 10
10.33194350000001
 20
25.91458
 30
-1.746136999999995
 70
    40
  0
VERTEX
  5
125EE
330
125CD
100
AcDbEntity
  8
1
100
AcDbVertex
100
AcDb3dPolylineVertex
 10
10.29743450000001
 20
24.71226000000002
 30
-1.746136999999995
 70
    40
  0
VERTEX
  5
125EF
330
125CD
100
AcDbEntity
  8
1
100
AcDbVertex
100
AcDb3dPolylineVertex
 10
10.29743450000001
 20
24.71226000000002
 30
-1.746136999999995
 70
    40
  0
VERTEX
  5
125F0
330
125CD
100
AcDbEntity
  8
1
100
AcDbVertex
100
AcDb3dPolylineVertex
 10
10.30697450000001
 20
23.79809600000001
 30
-1.746136999999995
 70
    40
  0
VERTEX
  5
125F1
330
125CD
100
AcDbEntity
  8
1
100
AcDbVertex
100
AcDb3dPolylineVertex
 10
10.34475550000002
 20
22.88644000000001
 30
-1.746136999999995
 70
    40
  0
VERTEX
  5
125F2
330
125CD
100
AcDbEntity
  8
1
100
AcDbVertex
100
AcDb3dPolylineVertex
 10
10.4078545
 20
21.97237600000002
 30
-1.746136999999995
 70
    40
  0
VERTEX
  5
125F3
330
125CD
100
AcDbEntity
  8
1
100
AcDbVertex
100
AcDb3dPolylineVertex
 10
10.52611250000001
 20
20.75522200000001
 30
-1.746136999999995
 70
    40
  0
VERTEX
  5
125F4
330
125CD
100
AcDbEntity
  8
1
100
AcDbVertex
100
AcDb3dPolylineVertex
 10
10.67947050000001
 20
19.54699700000001
 30
-1.746136999999995
 70
    40
  0
VERTEX
  5
125F5
330
125CD
100
AcDbEntity
  8
1
100
AcDbVertex
100
AcDb3dPolylineVertex
 10
10.86525850000001
 20
18.341129
 30
-1.746136999999995
 70
    40
  0
VERTEX
  5
125F6
330
125CD
100
AcDbEntity
  8
1
100
AcDbVertex
100
AcDb3dPolylineVertex
 10
10.86525850000001
 20
18.341129
 30
-1.746136999999995
 70
    40
  0
VERTEX
  5
125F7
330
125CD
100
AcDbEntity
  8
1
100
AcDbVertex
100
AcDb3dPolylineVertex
 10
11.04935250000002
 20
17.29941300000001
 30
-1.746136999999995
 70
    40
  0
VERTEX
  5
125F8
330
125CD
100
AcDbEntity
  8
1
100
AcDbVertex
100
AcDb3dPolylineVertex
 10
11.2528935
 20
16.262808
 30
-1.746136999999995
 70
    40
  0
VERTEX
  5
125F9
330
125CD
100
AcDbEntity
  8
1
100
AcDbVertex
100
AcDb3dPolylineVertex
 10
11.7143765
 20
14.203012
 30
-1.746136999999995
 70
    40
  0
VERTEX
  5
125FA
330
125CD
100
AcDbEntity
  8
1
100
AcDbVertex
100
AcDb3dPolylineVertex
 10
12.24182050000002
 20
12.157904
 30
-1.746136999999995
 70
    40
  0
SEQEND
  5
125FB
330
125CD
100
AcDbEntity
  8
1
  0
POLYLINE
  5
125FC
330
18
100
AcDbEntity
  8
1
100
AcDb3dPolyline
 66
     1
 10
0.0
 20
0.0
 30
0.0
 70
    12
 75
     6
  0
VERTEX
  5
125FD
330
125FC
100
AcDbEntity
  8
1
100
AcDbVertex
100
AcDb3dPolylineVertex
 10
16.00677750000001
 20
32.230206
 30
-1.746136999999995
 70
    48
  0
VERTEX
  5
125FE
330
125FC
100
AcDbEntity
  8
1
100
AcDbVertex
100
AcDb3dPolylineVertex
 10
16.00534950000001
 20
32.228779
 30
-1.746136999999995
 70
    48
  0
VERTEX
  5
125FF
330
125FC
100
AcDbEntity
  8
1
100
AcDbVertex
100
AcDb3dPolylineVertex
 10
16.00821950000002
 20
32.22884500000001
 30
-1.746136999999995
 70
    48
  0
VERTEX
  5
12600
330
125FC
100
AcDbEntity
  8
1
100
AcDbVertex
100
AcDb3dPolylineVertex
 10
16.12876450000001
 20
32.094172
 30
-1.746136999999995
 70
    48
  0
VERTEX
  5
12601
330
125FC
100
AcDbEntity
  8
1
100
AcDbVertex
100
AcDb3dPolylineVertex
 10
16.21910350000002
 20
31.957573
 30
-1.746136999999995
 70
    48
  0
VERTEX
  5
12602
330
125FC
100
AcDbEntity
  8
1
100
AcDbVertex
100
AcDb3dPolylineVertex
 10
16.86675950000003
 20
31.060832
 30
-1.746136999999995
 70
    48
  0
VERTEX
  5
12603
330
125FC
100
AcDbEntity
  8
1
100
AcDbVertex
100
AcDb3dPolylineVertex
 10
17.18658150000001
 20
30.19624
 30
-1.746136999999995
 70
    48
  0
VERTEX
  5
12604
330
125FC
100
AcDbEntity
  8
1
100
AcDbVertex
100
AcDb3dPolylineVertex
 10
17.77408950000001
 20
28.053956
 30
-1.746136999999995
 70
    48
  0
VERTEX
  5
12605
330
125FC
100
AcDbEntity
  8
1
100
AcDbVertex
100
AcDb3dPolylineVertex
 10
17.9159855
 20
26.73780900000001
 30
-1.746136999999995
 70
    48
  0
VERTEX
  5
12606
330
125FC
100
AcDbEntity
  8
1
100
AcDbVertex
100
AcDb3dPolylineVertex
 10
17.97826150000001
 20
24.907395
 30
-1.746136999999995
 70
    48
  0
VERTEX
  5
12607
330
125FC
100
AcDbEntity
  8
1
100
AcDbVertex
100
AcDb3dPolylineVertex
 10
17.97958050000001
 20
24.40331000000002
 30
-1.746136999999995
 70
    48
  0
VERTEX
  5
12608
330
125FC
100
AcDbEntity
  8
1
100
AcDbVertex
100
AcDb3dPolylineVertex
 10
17.90087850000002
 20
21.074484
 30
-1.746136999999995
 70
    48
  0
VERTEX
  5
12609
330
125FC
100
AcDbEntity
  8
1
100
AcDbVertex
100
AcDb3dPolylineVertex
 10
17.4710615
 20
18.31712400000002
 30
-1.746136999999995
 70
    48
  0
VERTEX
  5
1260A
330
125FC
100
AcDbEntity
  8
1
100
AcDbVertex
100
AcDb3dPolylineVertex
 10
16.87299150000002
 20
15.577077
 30
-1.746136999999995
 70
    48
  0
VERTEX
  5
1260B
330
125FC
100
AcDbEntity
  8
1
100
AcDbVertex
100
AcDb3dPolylineVertex
 10
16.87299150000002
 20
15.577077
 30
-1.746136999999995
 70
    48
  0
VERTEX
  5
1260C
330
125FC
100
AcDbEntity
  8
1
100
AcDbVertex
100
AcDb3dPolylineVertex
 10
16.62179450000001
 20
14.42622
 30
-1.746136999999995
 70
    48
  0
VERTEX
  5
1260D
330
125FC
100
AcDbEntity
  8
1
100
AcDbVertex
100
AcDb3dPolylineVertex
 10
16.34185150000003
 20
13.296166
 30
-1.746136999999995
 70
    48
  0
VERTEX
  5
1260E
330
125FC
100
AcDbEntity
  8
1
100
AcDbVertex
100
AcDb3dPolylineVertex
 10
16.03047150000001
 20
12.157904
 30
-1.746136999999995
 70
    48
  0
VERTEX
  5
1260F
330
125FC
100
AcDbEntity
  8
1
100
AcDbVertex
100
AcDb3dPolylineVertex
 10
16.00677750000001
 20
32.230206
 30
-1.746136999999995
 70
    40
  0
VERTEX
  5
12610
330
125FC
100
AcDbEntity
  8
1
100
AcDbVertex
100
AcDb3dPolylineVertex
 10
16.32266650000001
 20
31.814181
 30
-1.746136999999995
 70
    40
  0
VERTEX
  5
12611
330
125FC
100
AcDbEntity
  8
1
100
AcDbVertex
100
AcDb3dPolylineVertex
 10
16.57669450000001
 20
31.428693
 30
-1.746136999999995
 70
    40
  0
VERTEX
  5
12612
330
125FC
100
AcDbEntity
  8
1
100
AcDbVertex
100
AcDb3dPolylineVertex
 10
16.79737250000001
 20
31.02740600000001
 30
-1.746136999999995
 70
    40
  0
VERTEX
  5
12613
330
125FC
100
AcDbEntity
  8
1
100
AcDbVertex
100
AcDb3dPolylineVertex
 10
16.98872850000003
 20
30.613061
 30
-1.746136999999995
 70
    40
  0
VERTEX
  5
12614
330
125FC
100
AcDbEntity
  8
1
100
AcDbVertex
100
AcDb3dPolylineVertex
 10
17.15478850000001
 20
30.18839900000001
 30
-1.746136999999995
 70
    40
  0
VERTEX
  5
12615
330
125FC
100
AcDbEntity
  8
1
100
AcDbVertex
100
AcDb3dPolylineVertex
 10
17.4271355
 20
29.319089
 30
-1.746136999999995
 70
    40
  0
VERTEX
  5
12616
330
125FC
100
AcDbEntity
  8
1
100
AcDbVertex
100
AcDb3dPolylineVertex
 10
17.5840245
 20
28.68249900000001
 30
-1.746136999999995
 70
    40
  0
VERTEX
  5
12617
330
125FC
100
AcDbEntity
  8
1
100
AcDbVertex
100
AcDb3dPolylineVertex
 10
17.7097365
 20
28.038775
 30
-1.746136999999995
 70
    40
  0
VERTEX
  5
12618
330
125FC
100
AcDbEntity
  8
1
100
AcDbVertex
100
AcDb3dPolylineVertex
 10
17.80727350000001
 20
27.38928600000001
 30
-1.746136999999995
 70
    40
  0
VERTEX
  5
12619
330
125FC
100
AcDbEntity
  8
1
100
AcDbVertex
100
AcDb3dPolylineVertex
 10
17.87963350000001
 20
26.735399
 30
-1.746136999999995
 70
    40
  0
VERTEX
  5
1261A
330
125FC
100
AcDbEntity
  8
1
100
AcDbVertex
100
AcDb3dPolylineVertex
 10
17.96082450000001
 20
25.419905
 30
-1.746136999999995
 70
    40
  0
VERTEX
  5
1261B
330
125FC
100
AcDbEntity
  8
1
100
AcDbVertex
100
AcDb3dPolylineVertex
 10
17.97499350000002
 20
24.40072800000001
 30
-1.746136999999995
 70
    40
  0
VERTEX
  5
1261C
330
125FC
100
AcDbEntity
  8
1
100
AcDbVertex
100
AcDb3dPolylineVertex
 10
17.96743150000001
 20
23.88945600000001
 30
-1.746136999999995
 70
    40
  0
VERTEX
  5
1261D
330
125FC
100
AcDbEntity
  8
1
100
AcDbVertex
100
AcDb3dPolylineVertex
 10
17.90478550000001
 20
22.48658500000001
 30
-1.746136999999995
 70
    40
  0
VERTEX
  5
1261E
330
125FC
100
AcDbEntity
  8
1
100
AcDbVertex
100
AcDb3dPolylineVertex
 10
17.78701350000001
 20
21.09219600000001
 30
-1.746136999999995
 70
    40
  0
VERTEX
  5
1261F
330
125FC
100
AcDbEntity
  8
1
100
AcDbVertex
100
AcDb3dPolylineVertex
 10
17.61953050000002
 20
19.70517
 30
-1.746136999999995
 70
    40
  0
VERTEX
  5
12620
330
125FC
100
AcDbEntity
  8
1
100
AcDbVertex
100
AcDb3dPolylineVertex
 10
17.40775450000001
 20
18.324388
 30
-1.746136999999995
 70
    40
  0
VERTEX
  5
12621
330
125FC
100
AcDbEntity
  8
1
100
AcDbVertex
100
AcDb3dPolylineVertex
 10
17.1571025
 20
16.94873000000001
 30
-1.746136999999995
 70
    40
  0
VERTEX
  5
12622
330
125FC
100
AcDbEntity
  8
1
100
AcDbVertex
100
AcDb3dPolylineVertex
 10
16.87299150000002
 20
15.577077
 30
-1.746136999999995
 70
    40
  0
VERTEX
  5
12623
330
125FC
100
AcDbEntity
  8
1
100
AcDbVertex
100
AcDb3dPolylineVertex
 10
16.87299150000002
 20
15.577077
 30
-1.746136999999995
 70
    40
  0
VERTEX
  5
12624
330
125FC
100
AcDbEntity
  8
1
100
AcDbVertex
100
AcDb3dPolylineVertex
 10
16.61211250000001
 20
14.43208
 30
-1.746136999999995
 70
    40
  0
VERTEX
  5
12625
330
125FC
100
AcDbEntity
  8
1
100
AcDbVertex
100
AcDb3dPolylineVertex
 10
16.33147250000003
 20
13.294504
 30
-1.746136999999995
 70
    40
  0
VERTEX
  5
12626
330
125FC
100
AcDbEntity
  8
1
100
AcDbVertex
100
AcDb3dPolylineVertex
 10
16.03047150000001
 20
12.157904
 30
-1.746136999999995
 70
    40
  0
SEQEND
  5
12627
330
125FC
100
AcDbEntity
  8
1
  0
POLYLINE
  5
12628
330
18
100
AcDbEntity
  8
1
100
AcDb2dPolyline
 66
     1
 10
0.0
 20
0.0
 30
-1.746136999999995
 70
     4
 75
     6
  0
VERTEX
  5
12629
330
12628
100
AcDbEntity
  8
1
100
AcDbVertex
100
AcDb2dVertex
 10
52.67894350000001
 20
30.835498
 30
-1.746136999999995
 70
    16
  0
VERTEX
  5
1262A
330
12628
100
AcDbEntity
  8
1
100
AcDbVertex
100
AcDb2dVertex
 10
52.4673765
 20
30.543879
 30
-1.746136999999995
 70
    16
  0
VERTEX
  5
1262B
330
12628
100
AcDbEntity
  8
1
100
AcDbVertex
100
AcDb2dVertex
 10
52.2310125
 20
30.271965
 30
-1.746136999999995
 70
    16
  0
VERTEX
  5
1262C
330
12628
100
AcDbEntity
  8
1
100
AcDbVertex
100
AcDb2dVertex
 10
51.69632950000001
 20
29.755479
 30
-1.746136999999995
 70
    16
  0
VERTEX
  5
1262D
330
12628
100
AcDbEntity
  8
1
100
AcDbVertex
100
AcDb2dVertex
 10
51.39475850000001
 20
29.51423800000001
 30
-1.746136999999995
 70
    16
  0
VERTEX
  5
1262E
330
12628
100
AcDbEntity
  8
1
100
AcDbVertex
100
AcDb2dVertex
 10
51.07188350000001
 20
29.30237400000001
 30
-1.746136999999995
 70
    16
  0
VERTEX
  5
1262F
330
12628
100
AcDbEntity
  8
1
100
AcDbVertex
100
AcDb2dVertex
 10
52.67894350000001
 20
30.835498
 30
-1.746136999999995
 70
     8
  0
VERTEX
  5
12630
330
12628
100
AcDbEntity
  8
1
100
AcDbVertex
100
AcDb2dVertex
 10
52.45922250000001
 20
30.55055300000001
 30
-1.746136999999995
 70
     8
  0
VERTEX
  5
12631
330
12628
100
AcDbEntity
  8
1
100
AcDbVertex
100
AcDb2dVertex
 10
52.22364250000001
 20
30.27937900000001
 30
-1.746136999999995
 70
     8
  0
VERTEX
  5
12632
330
12628
100
AcDbEntity
  8
1
100
AcDbVertex
100
AcDb2dVertex
 10
51.97287349999999
 20
30.02261100000001
 30
-1.746136999999995
 70
     8
  0
VERTEX
  5
12633
330
12628
100
AcDbEntity
  8
1
100
AcDbVertex
100
AcDb2dVertex
 10
51.68812550000001
 20
29.76423800000001
 30
-1.746136999999995
 70
     8
  0
VERTEX
  5
12634
330
12628
100
AcDbEntity
  8
1
100
AcDbVertex
100
AcDb2dVertex
 10
51.38751950000001
 20
29.523901
 30
-1.746136999999995
 70
     8
  0
VERTEX
  5
12635
330
12628
100
AcDbEntity
  8
1
100
AcDbVertex
100
AcDb2dVertex
 10
51.07188350000001
 20
29.30237400000001
 30
-1.746136999999995
 70
     8
  0
SEQEND
  5
12636
330
12628
100
AcDbEntity
  8
1
  0
POLYLINE
  5
12637
330
18
100
AcDbEntity
  8
1
100
AcDb3dPolyline
 66
     1
 10
0.0
 20
0.0
 30
0.0
 70
    12
 75
     6
  0
VERTEX
  5
12638
330
12637
100
AcDbEntity
  8
1
100
AcDbVertex
100
AcDb3dPolylineVertex
 10
16.0304835
 20
-27.62540800000001
 30
-1.746136999999995
 70
    48
  0
VERTEX
  5
12639
330
12637
100
AcDbEntity
  8
1
100
AcDbVertex
100
AcDb3dPolylineVertex
 10
16.56675850000001
 20
-26.978624
 30
-1.746136999999995
 70
    48
  0
VERTEX
  5
1263A
330
12637
100
AcDbEntity
  8
1
100
AcDbVertex
100
AcDb3dPolylineVertex
 10
16.93398950000001
 20
-26.228
 30
-1.746136999999995
 70
    48
  0
VERTEX
  5
1263B
330
12637
100
AcDbEntity
  8
1
100
AcDbVertex
100
AcDb3dPolylineVertex
 10
17.64150750000001
 20
-24.21115500000001
 30
-1.746136999999995
 70
    48
  0
VERTEX
  5
1263C
330
12637
100
AcDbEntity
  8
1
100
AcDbVertex
100
AcDb3dPolylineVertex
 10
17.83714150000001
 20
-22.89612399999999
 30
-1.746136999999995
 70
    48
  0
VERTEX
  5
1263D
330
12637
100
AcDbEntity
  8
1
100
AcDbVertex
100
AcDb3dPolylineVertex
 10
17.95827050000001
 20
-21.06275700000001
 30
-1.746136999999995
 70
    48
  0
VERTEX
  5
1263E
330
12637
100
AcDbEntity
  8
1
100
AcDbVertex
100
AcDb3dPolylineVertex
 10
17.9739315
 20
-20.559067
 30
-1.746136999999995
 70
    48
  0
VERTEX
  5
1263F
330
12637
100
AcDbEntity
  8
1
100
AcDbVertex
100
AcDb3dPolylineVertex
 10
17.98250650000001
 20
-17.216665
 30
-1.746136999999995
 70
    48
  0
VERTEX
  5
12640
330
12637
100
AcDbEntity
  8
1
100
AcDbVertex
100
AcDb3dPolylineVertex
 10
17.58850350000001
 20
-14.452351
 30
-1.746136999999995
 70
    48
  0
VERTEX
  5
12641
330
12637
100
AcDbEntity
  8
1
100
AcDbVertex
100
AcDb3dPolylineVertex
 10
17.02154250000002
 20
-11.70013700000001
 30
-1.746136999999995
 70
    48
  0
VERTEX
  5
12642
330
12637
100
AcDbEntity
  8
1
100
AcDbVertex
100
AcDb3dPolylineVertex
 10
17.02154250000002
 20
-11.70013700000001
 30
-1.746136999999995
 70
    48
  0
VERTEX
  5
12643
330
12637
100
AcDbEntity
  8
1
100
AcDbVertex
100
AcDb3dPolylineVertex
 10
16.73545550000001
 20
-10.311382
 30
-1.746136999999995
 70
    48
  0
VERTEX
  5
12644
330
12637
100
AcDbEntity
  8
1
100
AcDbVertex
100
AcDb3dPolylineVertex
 10
16.40546450000001
 20
-8.951627000000001
 30
-1.746136999999995
 70
    48
  0
VERTEX
  5
12645
330
12637
100
AcDbEntity
  8
1
100
AcDbVertex
100
AcDb3dPolylineVertex
 10
16.03047150000001
 20
-7.580825999999999
 30
-1.746136999999995
 70
    48
  0
VERTEX
  5
12646
330
12637
100
AcDbEntity
  8
1
100
AcDbVertex
100
AcDb3dPolylineVertex
 10
16.0304835
 20
-27.62540800000001
 30
-1.746136999999995
 70
    40
  0
VERTEX
  5
12647
330
12637
100
AcDbEntity
  8
1
100
AcDbVertex
100
AcDb3dPolylineVertex
 10
16.28487950000001
 20
-27.293717
 30
-1.746136999999995
 70
    40
  0
VERTEX
  5
12648
330
12637
100
AcDbEntity
  8
1
100
AcDbVertex
100
AcDb3dPolylineVertex
 10
16.51317650000001
 20
-26.946848
 30
-1.746136999999995
 70
    40
  0
VERTEX
  5
12649
330
12637
100
AcDbEntity
  8
1
100
AcDbVertex
100
AcDb3dPolylineVertex
 10
16.71744850000002
 20
-26.58692799999999
 30
-1.746136999999995
 70
    40
  0
VERTEX
  5
1264A
330
12637
100
AcDbEntity
  8
1
100
AcDbVertex
100
AcDb3dPolylineVertex
 10
16.89977050000002
 20
-26.21608599999999
 30
-1.746136999999995
 70
    40
  0
VERTEX
  5
1264B
330
12637
100
AcDbEntity
  8
1
100
AcDbVertex
100
AcDb3dPolylineVertex
 10
17.20686350000001
 20
-25.45014799999999
 30
-1.746136999999995
 70
    40
  0
VERTEX
  5
1264C
330
12637
100
AcDbEntity
  8
1
100
AcDbVertex
100
AcDb3dPolylineVertex
 10
17.4048725
 20
-24.824648
 30
-1.746136999999995
 70
    40
  0
VERTEX
  5
1264D
330
12637
100
AcDbEntity
  8
1
100
AcDbVertex
100
AcDb3dPolylineVertex
 10
17.56667150000001
 20
-24.188473
 30
-1.746136999999995
 70
    40
  0
VERTEX
  5
1264E
330
12637
100
AcDbEntity
  8
1
100
AcDbVertex
100
AcDb3dPolylineVertex
 10
17.6958885
 20
-23.54362
 30
-1.746136999999995
 70
    40
  0
VERTEX
  5
1264F
330
12637
100
AcDbEntity
  8
1
100
AcDbVertex
100
AcDb3dPolylineVertex
 10
17.79614750000001
 20
-22.892088
 30
-1.746136999999995
 70
    40
  0
VERTEX
  5
12650
330
12637
100
AcDbEntity
  8
1
100
AcDbVertex
100
AcDb3dPolylineVertex
 10
17.8710755
 20
-22.23587399999998
 30
-1.746136999999995
 70
    40
  0
VERTEX
  5
12651
330
12637
100
AcDbEntity
  8
1
100
AcDbVertex
100
AcDb3dPolylineVertex
 10
17.9523135
 20
-21.065394
 30
-1.746136999999995
 70
    40
  0
VERTEX
  5
12652
330
12637
100
AcDbEntity
  8
1
100
AcDbVertex
100
AcDb3dPolylineVertex
 10
17.97525750000001
 20
-20.042332
 30
-1.746136999999995
 70
    40
  0
VERTEX
  5
12653
330
12637
100
AcDbEntity
  8
1
100
AcDbVertex
100
AcDb3dPolylineVertex
 10
17.94650150000001
 20
-18.63438300000001
 30
-1.746136999999995
 70
    40
  0
VERTEX
  5
12654
330
12637
100
AcDbEntity
  8
1
100
AcDbVertex
100
AcDb3dPolylineVertex
 10
17.8572115
 20
-17.235291
 30
-1.746136999999995
 70
    40
  0
VERTEX
  5
12655
330
12637
100
AcDbEntity
  8
1
100
AcDbVertex
100
AcDb3dPolylineVertex
 10
17.71372850000001
 20
-15.843689
 30
-1.746136999999995
 70
    40
  0
VERTEX
  5
12656
330
12637
100
AcDbEntity
  8
1
100
AcDbVertex
100
AcDb3dPolylineVertex
 10
17.52239550000001
 20
-14.458208
 30
-1.746136999999995
 70
    40
  0
VERTEX
  5
12657
330
12637
100
AcDbEntity
  8
1
100
AcDbVertex
100
AcDb3dPolylineVertex
 10
17.28955250000002
 20
-13.07748
 30
-1.746136999999995
 70
    40
  0
VERTEX
  5
12658
330
12637
100
AcDbEntity
  8
1
100
AcDbVertex
100
AcDb3dPolylineVertex
 10
17.02154250000002
 20
-11.70013700000001
 30
-1.746136999999995
 70
    40
  0
VERTEX
  5
12659
330
12637
100
AcDbEntity
  8
1
100
AcDbVertex
100
AcDb3dPolylineVertex
 10
17.02154250000002
 20
-11.70013700000001
 30
-1.746136999999995
 70
    40
  0
VERTEX
  5
1265A
330
12637
100
AcDbEntity
  8
1
100
AcDbVertex
100
AcDb3dPolylineVertex
 10
16.72078050000002
 20
-10.31956499999998
 30
-1.746136999999995
 70
    40
  0
VERTEX
  5
1265B
330
12637
100
AcDbEntity
  8
1
100
AcDbVertex
100
AcDb3dPolylineVertex
 10
16.3905045
 20
-8.949427999999997
 30
-1.746136999999995
 70
    40
  0
VERTEX
  5
1265C
330
12637
100
AcDbEntity
  8
1
100
AcDbVertex
100
AcDb3dPolylineVertex
 10
16.03047150000001
 20
-7.580825999999999
 30
-1.746136999999995
 70
    40
  0
SEQEND
  5
1265D
330
12637
100
AcDbEntity
  8
1
  0
LINE
  5
1265E
330
18
100
AcDbEntity
  8
1
100
AcDbLine
 10
57.92535350000001
 20
29.514136
 30
-1.746136999999995
 11
57.32647850000001
 21
28.12123800000001
 31
-1.746136999999995
  0
POLYLINE
  5
1265F
330
18
100
AcDbEntity
  8
1
100
AcDb3dPolyline
 66
     1
 10
0.0
 20
0.0
 30
0.0
 70
    12
 75
     6
  0
VERTEX
  5
12660
330
1265F
100
AcDbEntity
  8
1
100
AcDbVertex
100
AcDb3dPolylineVertex
 10
46.83374950000001
 20
44.84717899999998
 30
-1.746136999999995
 70
    48
  0
VERTEX
  5
12661
330
1265F
100
AcDbEntity
  8
1
100
AcDbVertex
100
AcDb3dPolylineVertex
 10
47.62409950000001
 20
44.21504699999998
 30
-1.746136999999995
 70
    48
  0
VERTEX
  5
12662
330
1265F
100
AcDbEntity
  8
1
100
AcDbVertex
100
AcDb3dPolylineVertex
 10
48.42420650000001
 20
43.595094
 30
-1.746136999999995
 70
    48
  0
VERTEX
  5
12663
330
1265F
100
AcDbEntity
  8
1
100
AcDbVertex
100
AcDb3dPolylineVertex
 10
49.98554550000001
 20
42.46039999999999
 30
-1.746136999999995
 70
    48
  0
VERTEX
  5
12664
330
1265F
100
AcDbEntity
  8
1
100
AcDbVertex
100
AcDb3dPolylineVertex
 10
50.73461149999999
 20
41.92615299999999
 30
-1.746136999999995
 70
    48
  0
VERTEX
  5
12665
330
1265F
100
AcDbEntity
  8
1
100
AcDbVertex
100
AcDb3dPolylineVertex
 10
51.67691050000001
 20
41.420157
 30
-1.746136999999995
 70
    48
  0
VERTEX
  5
12666
330
1265F
100
AcDbEntity
  8
1
100
AcDbVertex
100
AcDb3dPolylineVertex
 10
51.8064945
 20
41.354676
 30
-1.746136999999995
 70
    48
  0
VERTEX
  5
12667
330
1265F
100
AcDbEntity
  8
1
100
AcDbVertex
100
AcDb3dPolylineVertex
 10
51.9431785
 20
41.29544099999999
 30
-1.746136999999995
 70
    48
  0
VERTEX
  5
12668
330
1265F
100
AcDbEntity
  8
1
100
AcDbVertex
100
AcDb3dPolylineVertex
 10
46.83374950000001
 20
44.84717899999998
 30
-1.746136999999995
 70
    40
  0
VERTEX
  5
12669
330
1265F
100
AcDbEntity
  8
1
100
AcDbVertex
100
AcDb3dPolylineVertex
 10
48.43002150000001
 20
43.602983
 30
-1.746136999999995
 70
    40
  0
VERTEX
  5
1266A
330
1265F
100
AcDbEntity
  8
1
100
AcDbVertex
100
AcDb3dPolylineVertex
 10
49.98972950000001
 20
42.465694
 30
-1.746136999999995
 70
    40
  0
VERTEX
  5
1266B
330
1265F
100
AcDbEntity
  8
1
100
AcDbVertex
100
AcDb3dPolylineVertex
 10
50.75351950000001
 20
41.955446
 30
-1.746136999999995
 70
    40
  0
VERTEX
  5
1266C
330
1265F
100
AcDbEntity
  8
1
100
AcDbVertex
100
AcDb3dPolylineVertex
 10
51.54671050000001
 20
41.49007199999998
 30
-1.746136999999995
 70
    40
  0
VERTEX
  5
1266D
330
1265F
100
AcDbEntity
  8
1
100
AcDbVertex
100
AcDb3dPolylineVertex
 10
51.9431785
 20
41.29544099999999
 30
-1.746136999999995
 70
    40
  0
SEQEND
  5
1266E
330
1265F
100
AcDbEntity
  8
1
  0
LINE
  5
1266F
330
18
100
AcDbEntity
  8
1
100
AcDbLine
 10
45.61985050000001
 20
45.83096199999999
 30
-1.746136999999995
 11
47.23486150000001
 21
45.686656
 31
-1.746136999999995
  0
POLYLINE
  5
12670
330
18
100
AcDbEntity
  8
1
100
AcDb2dPolyline
 66
     1
 10
0.0
 20
0.0
 30
-1.746136999999995
 70
     4
 75
     6
  0
VERTEX
  5
12671
330
12670
100
AcDbEntity
  8
1
100
AcDbVertex
100
AcDb2dVertex
 10
24.60503050000001
 20
-30.211461
 30
-1.746136999999995
 70
    16
  0
VERTEX
  5
12672
330
12670
100
AcDbEntity
  8
1
100
AcDbVertex
100
AcDb2dVertex
 10
24.4499895
 20
-29.615259
 30
-1.746136999999995
 70
    16
  0
VERTEX
  5
12673
330
12670
100
AcDbEntity
  8
1
100
AcDbVertex
100
AcDb2dVertex
 10
24.2940825
 20
-29.01928100000001
 30
-1.746136999999995
 70
    16
  0
VERTEX
  5
12674
330
12670
100
AcDbEntity
  8
1
100
AcDbVertex
100
AcDb2dVertex
 10
24.1361465
 20
-28.423836
 30
-1.746136999999995
 70
    16
  0
VERTEX
  5
12675
330
12670
100
AcDbEntity
  8
1
100
AcDbVertex
100
AcDb2dVertex
 10
24.60503050000001
 20
-30.211461
 30
-1.746136999999995
 70
     8
  0
VERTEX
  5
12676
330
12670
100
AcDbEntity
  8
1
100
AcDbVertex
100
AcDb2dVertex
 10
24.1361465
 20
-28.423836
 30
-1.746136999999995
 70
     8
  0
SEQEND
  5
12677
330
12670
100
AcDbEntity
  8
1
  0
POLYLINE
  5
12678
330
18
100
AcDbEntity
  8
1
100
AcDb2dPolyline
 66
     1
 10
0.0
 20
0.0
 30
-1.746136999999995
 70
     4
 75
     6
  0
VERTEX
  5
12679
330
12678
100
AcDbEntity
  8
1
100
AcDbVertex
100
AcDb2dVertex
 10
55.68923750000001
 20
35.628424
 30
-1.746136999999995
 70
    16
  0
VERTEX
  5
1267A
330
12678
100
AcDbEntity
  8
1
100
AcDbVertex
100
AcDb2dVertex
 10
55.67787650000001
 20
35.17029700000001
 30
-1.746136999999995
 70
    16
  0
VERTEX
  5
1267B
330
12678
100
AcDbEntity
  8
1
100
AcDbVertex
100
AcDb2dVertex
 10
55.74452650000001
 20
34.718444
 30
-1.746136999999995
 70
    16
  0
VERTEX
  5
1267C
330
12678
100
AcDbEntity
  8
1
100
AcDbVertex
100
AcDb2dVertex
 10
56.06584450000001
 20
32.697875
 30
-1.746136999999995
 70
    16
  0
VERTEX
  5
1267D
330
12678
100
AcDbEntity
  8
1
100
AcDbVertex
100
AcDb2dVertex
 10
56.47252350000001
 20
31.155039
 30
-1.746136999999995
 70
    16
  0
VERTEX
  5
1267E
330
12678
100
AcDbEntity
  8
1
100
AcDbVertex
100
AcDb2dVertex
 10
56.89875450000001
 20
29.62089400000001
 30
-1.746136999999995
 70
    16
  0
VERTEX
  5
1267F
330
12678
100
AcDbEntity
  8
1
100
AcDbVertex
100
AcDb2dVertex
 10
55.68923750000001
 20
35.628424
 30
-1.746136999999995
 70
     8
  0
VERTEX
  5
12680
330
12678
100
AcDbEntity
  8
1
100
AcDbVertex
100
AcDb2dVertex
 10
55.70116949999999
 20
35.172244
 30
-1.746136999999995
 70
     8
  0
VERTEX
  5
12681
330
12678
100
AcDbEntity
  8
1
100
AcDbVertex
100
AcDb2dVertex
 10
55.81600250000001
 20
34.268977
 30
-1.746136999999995
 70
     8
  0
VERTEX
  5
12682
330
12678
100
AcDbEntity
  8
1
100
AcDbVertex
100
AcDb2dVertex
 10
55.95335750000001
 20
33.48569100000001
 30
-1.746136999999995
 70
     8
  0
VERTEX
  5
12683
330
12678
100
AcDbEntity
  8
1
100
AcDbVertex
100
AcDb2dVertex
 10
56.11303850000001
 20
32.706572
 30
-1.746136999999995
 70
     8
  0
VERTEX
  5
12684
330
12678
100
AcDbEntity
  8
1
100
AcDbVertex
100
AcDb2dVertex
 10
56.48412550000001
 20
31.158661
 30
-1.746136999999995
 70
     8
  0
VERTEX
  5
12685
330
12678
100
AcDbEntity
  8
1
100
AcDbVertex
100
AcDb2dVertex
 10
56.89875450000001
 20
29.62089400000001
 30
-1.746136999999995
 70
     8
  0
SEQEND
  5
12686
330
12678
100
AcDbEntity
  8
1
  0
POLYLINE
  5
12687
330
18
100
AcDbEntity
  8
1
100
AcDb3dPolyline
 66
     1
 10
0.0
 20
0.0
 30
0.0
 70
    12
 75
     6
  0
VERTEX
  5
12688
330
12687
100
AcDbEntity
  8
1
100
AcDbVertex
100
AcDb3dPolylineVertex
 10
44.2387855
 20
39.639449
 30
-1.746136999999995
 70
    48
  0
VERTEX
  5
12689
330
12687
100
AcDbEntity
  8
1
100
AcDbVertex
100
AcDb3dPolylineVertex
 10
44.25568850000002
 20
39.65054
 30
-1.746136999999995
 70
    48
  0
VERTEX
  5
1268A
330
12687
100
AcDbEntity
  8
1
100
AcDbVertex
100
AcDb3dPolylineVertex
 10
44.2726465
 20
39.661548
 30
-1.746136999999995
 70
    48
  0
VERTEX
  5
1268B
330
12687
100
AcDbEntity
  8
1
100
AcDbVertex
100
AcDb3dPolylineVertex
 10
44.82871450000001
 20
40.018634
 30
-1.746136999999995
 70
    48
  0
VERTEX
  5
1268C
330
12687
100
AcDbEntity
  8
1
100
AcDbVertex
100
AcDb3dPolylineVertex
 10
45.42182949999999
 20
40.280924
 30
-1.746136999999995
 70
    48
  0
VERTEX
  5
1268D
330
12687
100
AcDbEntity
  8
1
100
AcDbVertex
100
AcDb3dPolylineVertex
 10
46.12871150000001
 20
40.46804199999999
 30
-1.746136999999995
 70
    48
  0
VERTEX
  5
1268E
330
12687
100
AcDbEntity
  8
1
100
AcDbVertex
100
AcDb3dPolylineVertex
 10
46.2060565
 20
40.486892
 30
-1.746136999999995
 70
    48
  0
VERTEX
  5
1268F
330
12687
100
AcDbEntity
  8
1
100
AcDbVertex
100
AcDb3dPolylineVertex
 10
46.28716150000001
 20
40.504952
 30
-1.746136999999995
 70
    48
  0
VERTEX
  5
12690
330
12687
100
AcDbEntity
  8
1
100
AcDbVertex
100
AcDb3dPolylineVertex
 10
44.2387855
 20
39.639449
 30
-1.746136999999995
 70
    40
  0
VERTEX
  5
12691
330
12687
100
AcDbEntity
  8
1
100
AcDbVertex
100
AcDb3dPolylineVertex
 10
44.28965750000001
 20
39.672472
 30
-1.746136999999995
 70
    40
  0
VERTEX
  5
12692
330
12687
100
AcDbEntity
  8
1
100
AcDbVertex
100
AcDb3dPolylineVertex
 10
44.84597950000001
 20
39.990214
 30
-1.746136999999995
 70
    40
  0
VERTEX
  5
12693
330
12687
100
AcDbEntity
  8
1
100
AcDbVertex
100
AcDb3dPolylineVertex
 10
45.43381749999999
 20
40.249265
 30
-1.746136999999995
 70
    40
  0
VERTEX
  5
12694
330
12687
100
AcDbEntity
  8
1
100
AcDbVertex
100
AcDb3dPolylineVertex
 10
46.04864650000001
 20
40.44684799999998
 30
-1.746136999999995
 70
    40
  0
VERTEX
  5
12695
330
12687
100
AcDbEntity
  8
1
100
AcDbVertex
100
AcDb3dPolylineVertex
 10
46.28716150000001
 20
40.504952
 30
-1.746136999999995
 70
    40
  0
SEQEND
  5
12696
330
12687
100
AcDbEntity
  8
1
  0
POLYLINE
  5
12697
330
18
100
AcDbEntity
  8
1
100
AcDb2dPolyline
 66
     1
 10
0.0
 20
0.0
 30
-1.746136999999995
 70
     4
 75
     6
  0
VERTEX
  5
12698
330
12697
100
AcDbEntity
  8
1
100
AcDbVertex
100
AcDb2dVertex
 10
53.84577250000001
 20
34.164669
 30
-1.746136999999995
 70
    16
  0
VERTEX
  5
12699
330
12697
100
AcDbEntity
  8
1
100
AcDbVertex
100
AcDb2dVertex
 10
53.81821850000001
 20
33.574157
 30
-1.746136999999995
 70
    16
  0
VERTEX
  5
1269A
330
12697
100
AcDbEntity
  8
1
100
AcDbVertex
100
AcDb2dVertex
 10
53.70594750000001
 20
32.993699
 30
-1.746136999999995
 70
    16
  0
VERTEX
  5
1269B
330
12697
100
AcDbEntity
  8
1
100
AcDbVertex
100
AcDb2dVertex
 10
53.31790650000002
 20
31.870411
 30
-1.746136999999995
 70
    16
  0
VERTEX
  5
1269C
330
12697
100
AcDbEntity
  8
1
100
AcDbVertex
100
AcDb2dVertex
 10
53.03704549999999
 20
31.329067
 30
-1.746136999999995
 70
    16
  0
VERTEX
  5
1269D
330
12697
100
AcDbEntity
  8
1
100
AcDbVertex
100
AcDb2dVertex
 10
52.67894350000001
 20
30.835498
 30
-1.746136999999995
 70
    16
  0
VERTEX
  5
1269E
330
12697
100
AcDbEntity
  8
1
100
AcDbVertex
100
AcDb2dVertex
 10
53.84577250000001
 20
34.164669
 30
-1.746136999999995
 70
     8
  0
VERTEX
  5
1269F
330
12697
100
AcDbEntity
  8
1
100
AcDbVertex
100
AcDb2dVertex
 10
53.79019850000001
 20
33.57814900000001
 30
-1.746136999999995
 70
     8
  0
VERTEX
  5
126A0
330
12697
100
AcDbEntity
  8
1
100
AcDbVertex
100
AcDb2dVertex
 10
53.67946150000001
 20
33.00217400000001
 30
-1.746136999999995
 70
     8
  0
VERTEX
  5
126A1
330
12697
100
AcDbEntity
  8
1
100
AcDbVertex
100
AcDb2dVertex
 10
53.51487550000001
 20
32.44058900000001
 30
-1.746136999999995
 70
     8
  0
VERTEX
  5
126A2
330
12697
100
AcDbEntity
  8
1
100
AcDbVertex
100
AcDb2dVertex
 10
53.2901885
 20
31.880724
 30
-1.746136999999995
 70
     8
  0
VERTEX
  5
126A3
330
12697
100
AcDbEntity
  8
1
100
AcDbVertex
100
AcDb2dVertex
 10
53.01105250000001
 20
31.344291
 30
-1.746136999999995
 70
     8
  0
VERTEX
  5
126A4
330
12697
100
AcDbEntity
  8
1
100
AcDbVertex
100
AcDb2dVertex
 10
52.67894350000001
 20
30.835498
 30
-1.746136999999995
 70
     8
  0
SEQEND
  5
126A5
330
12697
100
AcDbEntity
  8
1
  0
TEXT
  5
126A6
330
18
100
AcDbEntity
  8
16
100
AcDbText
 10
6.136146500000008
 20
-17.10883
 30
-1.746136999999995
 40
3.0
  1
C6-MTJNR-45065-22
 50
90.0
 41
0.7671275677966102
  7
SANDVIK_STYLE
 72
     5
 11
6.136146500000008
 21
21.68590700000002
 31
-1.746136999999995
100
AcDbText
  0
DIMENSION
  5
126A7
330
18
100
AcDbEntity
  8
12
100
AcDbDimension
  2
*D17
 10
-46.61385349999998
 20
-29.21146099999999
 30
-1.746136999999995
 11
-46.61385349999998
 21
2.288539000000005
 31
-1.746136999999995
 70
   160
  1
%%c63
 71
     5
 42
63.0
  3
SANDVIK_STYLE
100
AcDbAlignedDimension
 13
2.136146500000001
 23
33.788539
 33
-1.746136999999995
 14
2.136146500000001
 24
-29.211461
 34
-1.746136999999995
 50
90.0
100
AcDbRotatedDimension
  0
DIMENSION
  5
126A8
330
18
100
AcDbEntity
  8
20
100
AcDbDimension
  2
*D18
 10
80.63614650000003
 20
2.288538999999996
 30
-1.746136999999995
 11
80.63614650000003
 21
24.788539
 31
-1.746136999999995
 70
   160
  1
45
 71
     5
 42
44.99999999999999
  3
SANDVIK_STYLE
100
AcDbAlignedDimension
 13
67.13614650000001
 23
47.28853899999999
 33
-1.746136999999995
 14
72.1361465
 24
2.288539
 34
-1.746136999999995
 50
90.0
100
AcDbRotatedDimension
  0
DIMENSION
  5
126A9
330
18
100
AcDbEntity
  8
20
100
AcDbDimension
  2
*D19
 10
67.13614650000001
 20
-50.71146099999999
 30
-1.746136999999995
 11
34.6361465
 21
-50.71146099999999
 31
-1.746136999999995
 70
   160
  1
65
 71
     5
 42
65.00000000000001
 53
89.99999800000002
  3
SANDVIK_STYLE
100
AcDbAlignedDimension
 13
2.136146500000001
 23
-29.211461
 33
-1.746136999999995
 14
67.13614650000001
 24
47.188539
 34
-1.746136999999995
100
AcDbRotatedDimension
  0
DIMENSION
  5
126AA
330
18
100
AcDbEntity
  8
20
100
AcDbDimension
  2
*D20
 10
67.13614650000001
 20
50.708754
 30
-1.746136999999995
 11
42.32750905569099
 21
70.83105733341809
 31
0.0
 70
    34
  1
93%%d
 71
     5
 42
1.623156185254143
 52
200.2499999999999
 53
316.5000009999999
  3
SANDVIK_STYLE
100
AcDb2LineAngularDimension
 13
46.2788155
 23
46.195453
 33
-1.746136999999995
 14
67.13614650000001
 24
47.28853899999999
 34
-1.746136999999995
 15
67.13614650000001
 25
47.28853899999999
 35
-1.746136999999995
 16
49.52125223094154
 26
76.60464653855959
 36
0.0
  0
LINE
  5
126AB
330
18
100
AcDbEntity
  8
80
100
AcDbLine
 10
2.136146500000001
 20
2.288539
 30
-1.746136999999995
 11
-39.12275067751964
 21
2.288539000000005
 31
-1.746136999999995
  0
LINE
  5
126AC
330
18
100
AcDbEntity
  8
81
100
AcDbLine
 10
2.136146500000001
 20
2.288539
 30
-1.746136999999995
 11
70.09724568970526
 21
2.288539
 31
-1.746136999999995
  0
INSERT
  5
126AD
330
18
100
AcDbEntity
  8
5
100
AcDbBlockReference
  2
_nullpunkt
 10
2.136146499999999
 20
2.288538999999999
 30
-1.746136999999995
  0
TEXT
  5
126AE
330
18
100
AcDbEntity
  8
5
100
AcDbText
 10
2.136146499999999
 20
-0.2114610000000008
 30
-1.746136999999995
 40
0.1
  1
ISOORIENTED
100
AcDbText
  0
ENDSEC
  0
SECTION
  2
OBJECTS
  0
DICTIONARY
  5
C
330
0
100
AcDbDictionary
281
     1
  3
ACAD_2007HEADERVARS_RT
350
1277D
  3
ACAD_CIP_PREVIOUS_PRODUCT_INFO
350
12743
  3
ACAD_COLOR
350
387
  3
ACAD_DETAILVIEWSTYLE
350
12740
  3
ACAD_GROUP
350
D
  3
ACAD_LAYOUT
350
301
  3
ACAD_MATERIAL
350
386
  3
ACAD_MLEADERSTYLE
350
43C
  3
ACAD_MLINESTYLE
350
E
  3
ACAD_PLOTSETTINGS
350
302
  3
ACAD_PLOTSTYLENAME
350
2FF
  3
ACAD_SCALELIST
350
41A
  3
ACAD_SECTIONVIEWSTYLE
350
1273E
  3
ACAD_TABLESTYLE
350
388
  3
ACAD_VISUALSTYLE
350
3F2
  3
ACDB_RECOMPOSE_DATA
350
1277B
  3
AcDbVariableDictionary
350
357
  3
DWGPROPS
350
1277C
  0
DICTIONARY
  5
12746
330
F
100
AcDbDictionary
280
     1
281
     1
  3
ADSK_XREC_LAYER_RECONCILED
360
12747
  0
DICTIONARY
  5
12748
330
23
100
AcDbDictionary
280
     1
281
     1
  3
ADSK_XREC_LAYER_RECONCILED
360
12749
  0
DICTIONARY
  5
1274A
330
12487
100
AcDbDictionary
280
     1
281
     1
  3
ADSK_XREC_LAYER_RECONCILED
360
1274B
  0
DICTIONARY
  5
1274C
330
12489
100
AcDbDictionary
280
     1
281
     1
  3
ADSK_XREC_LAYER_RECONCILED
360
1274D
  0
DICTIONARY
  5
1274E
330
1248A
100
AcDbDictionary
280
     1
281
     1
  3
ADSK_XREC_LAYER_RECONCILED
360
1274F
  0
DICTIONARY
  5
12750
330
1248B
100
AcDbDictionary
280
     1
281
     1
  3
ADSK_XREC_LAYER_RECONCILED
360
12751
  0
DICTIONARY
  5
12752
330
1248C
100
AcDbDictionary
280
     1
281
     1
  3
ADSK_XREC_LAYER_RECONCILED
360
12753
  0
DICTIONARY
  5
12754
330
1248D
100
AcDbDictionary
280
     1
281
     1
  3
ADSK_XREC_LAYER_RECONCILED
360
12755
  0
DICTIONARY
  5
12756
330
1248E
100
AcDbDictionary
280
     1
281
     1
  3
ADSK_XREC_LAYER_RECONCILED
360
12757
  0
DICTIONARY
  5
12758
330
1248F
100
AcDbDictionary
280
     1
281
     1
  3
ADSK_XREC_LAYER_RECONCILED
360
12759
  0
DICTIONARY
  5
1275A
330
12490
100
AcDbDictionary
280
     1
281
     1
  3
ADSK_XREC_LAYER_RECONCILED
360
1275B
  0
DICTIONARY
  5
1275C
330
12491
100
AcDbDictionary
280
     1
281
     1
  3
ADSK_XREC_LAYER_RECONCILED
360
1275D
  0
DICTIONARY
  5
1275E
330
12492
100
AcDbDictionary
280
     1
281
     1
  3
ADSK_XREC_LAYER_RECONCILED
360
1275F
  0
DICTIONARY
  5
12760
330
12493
100
AcDbDictionary
280
     1
281
     1
  3
ADSK_XREC_LAYER_RECONCILED
360
12761
  0
DICTIONARY
  5
12762
330
12494
100
AcDbDictionary
280
     1
281
     1
  3
ADSK_XREC_LAYER_RECONCILED
360
12763
  0
DICTIONARY
  5
12764
330
12495
100
AcDbDictionary
280
     1
281
     1
  3
ADSK_XREC_LAYER_RECONCILED
360
12765
  0
DICTIONARY
  5
12766
330
12496
100
AcDbDictionary
280
     1
281
     1
  3
ADSK_XREC_LAYER_RECONCILED
360
12767
  0
DICTIONARY
  5
12768
330
12497
100
AcDbDictionary
280
     1
281
     1
  3
ADSK_XREC_LAYER_RECONCILED
360
12769
  0
DICTIONARY
  5
1276A
330
12498
100
AcDbDictionary
280
     1
281
     1
  3
ADSK_XREC_LAYER_RECONCILED
360
1276B
  0
DICTIONARY
  5
1276C
330
12499
100
AcDbDictionary
280
     1
281
     1
  3
ADSK_XREC_LAYER_RECONCILED
360
1276D
  0
DICTIONARY
  5
1276E
330
1249A
100
AcDbDictionary
280
     1
281
     1
  3
ADSK_XREC_LAYER_RECONCILED
360
1276F
  0
DICTIONARY
  5
12770
330
1249B
100
AcDbDictionary
280
     1
281
     1
  3
ADSK_XREC_LAYER_RECONCILED
360
12771
  0
DICTIONARY
  5
12772
330
1249C
100
AcDbDictionary
280
     1
281
     1
  3
ADSK_XREC_LAYER_RECONCILED
360
12773
  0
DICTIONARY
  5
12774
330
1249D
100
AcDbDictionary
280
     1
281
     1
  3
ADSK_XREC_LAYER_RECONCILED
360
12775
  0
DICTIONARY
  5
12460
330
1245F
100
AcDbDictionary
280
     1
281
     1
  3
ACAD_SORTENTS
360
12461
  0
DICTIONARY
  5
1277D
102
{ACAD_REACTORS
330
C
102
}
330
C
100
AcDbDictionary
281
     1
  3
DIMJOGANG
350
1277E
  0
XRECORD
  5
12743
102
{ACAD_REACTORS
330
C
102
}
330
C
100
AcDbXrecord
280
     1
300
AMECH_PP
300
2013
300
PDSU_F_S
  0
DICTIONARY
  5
387
102
{ACAD_REACTORS
330
C
102
}
330
C
100
AcDbDictionary
281
     1
  0
DICTIONARY
  5
12740
102
{ACAD_REACTORS
330
C
102
}
330
C
100
AcDbDictionary
281
     1
  3
Metric50
350
12741
  0
DICTIONARY
  5
D
102
{ACAD_REACTORS
330
C
102
}
330
C
100
AcDbDictionary
281
     1
  0
DICTIONARY
  5
301
102
{ACAD_REACTORS
330
C
102
}
330
C
100
AcDbDictionary
281
     1
  3
Layout1
350
33B
  3
Model
350
303
  0
DICTIONARY
  5
386
102
{ACAD_REACTORS
330
C
102
}
330
C
100
AcDbDictionary
281
     1
  3
ByBlock
350
3F0
  3
ByLayer
350
3EF
  3
Global
350
3F1
  0
DICTIONARY
  5
43C
102
{ACAD_REACTORS
330
C
102
}
330
C
100
AcDbDictionary
281
     1
  3
Standard
350
43D
  0
DICTIONARY
  5
E
102
{ACAD_REACTORS
330
C
102
}
330
C
100
AcDbDictionary
281
     1
  3
STANDARD
350
1B
  0
DICTIONARY
  5
302
102
{ACAD_REACTORS
330
C
102
}
330
C
100
AcDbDictionary
281
     1
  0
ACDBDICTIONARYWDFLT
  5
2FF
102
{ACAD_REACTORS
330
C
102
}
330
C
100
AcDbDictionary
281
     1
  3
Normal
350
300
100
AcDbDictionaryWithDefault
340
300
  0
DICTIONARY
  5
41A
102
{ACAD_REACTORS
330
C
102
}
330
C
100
AcDbDictionary
281
     1
  3
A0
350
41B
  3
A1
350
41C
  3
A2
350
41D
  3
A3
350
41E
  3
A4
350
41F
  3
A5
350
420
  3
A6
350
421
  3
A7
350
422
  3
A8
350
423
  3
A9
350
424
  3
B0
350
425
  3
B1
350
426
  3
B2
350
427
  3
B3
350
428
  3
B4
350
429
  3
B5
350
42A
  3
B6
350
42B
  3
B7
350
42C
  3
B8
350
42D
  3
B9
350
42E
  3
C0
350
42F
  3
C1
350
430
  3
C2
350
431
  3
C3
350
432
  3
C4
350
433
  3
C5
350
434
  3
C6
350
435
  3
C7
350
436
  3
C8
350
437
  3
C9
350
438
  3
D0
350
439
  3
D1
350
43A
  3
D2
350
43B
  0
DICTIONARY
  5
1273E
102
{ACAD_REACTORS
330
C
102
}
330
C
100
AcDbDictionary
281
     1
  3
Metric50
350
1273F
  0
DICTIONARY
  5
388
102
{ACAD_REACTORS
330
C
102
}
330
C
100
AcDbDictionary
281
     1
  3
Standard
350
389
  0
DICTIONARY
  5
3F2
102
{ACAD_REACTORS
330
C
102
}
330
C
100
AcDbDictionary
281
     1
  3
2dWireframe
350
3F8
  3
3D Hidden
350
3FA
  3
3dWireframe
350
3F9
  3
Basic
350
3F7
  3
Brighten
350
3FE
  3
ColorChange
350
402
  3
Conceptual
350
3FB
  3
Dim
350
3FD
  3
EdgeColorOff
350
44E
  3
Facepattern
350
401
  3
Flat
350
3F3
  3
FlatWithEdges
350
3F4
  3
Gouraud
350
3F5
  3
GouraudWithEdges
350
3F6
  3
Hidden
350
12738
  3
JitterOff
350
44C
  3
Linepattern
350
400
  3
OverhangOff
350
44D
  3
Realistic
350
3FC
  3
Shaded
350
1273D
  3
Shaded with edges
350
1273C
  3
Shades of Gray
350
12739
  3
Sketchy
350
1273A
  3
Thicken
350
3FF
  3
Wireframe
350
12737
  3
X-Ray
350
1273B
  0
XRECORD
  5
1277B
102
{ACAD_REACTORS
330
C
102
}
330
C
100
AcDbXrecord
280
     1
 90
        1
330
389
  0
DICTIONARY
  5
357
102
{ACAD_REACTORS
330
C
102
}
330
C
100
AcDbDictionary
281
     1
  3
CANNOSCALE
350
449
  3
CMLEADERSTYLE
350
447
  3
CTABLESTYLE
350
38E
  3
CVIEWDETAILSTYLE
350
12776
  3
CVIEWSECTIONSTYLE
350
12777
  3
DIMASSOC
350
359
  3
HIDETEXT
350
358
  3
INDEXCTL
350
728
  3
LAYEREVAL
350
458
  3
LAYERNOTIFY
350
459
  3
LIGHTINGUNITS
350
44A
  3
MSLTSCALE
350
448
  3
SORTENTS
350
727
  3
XCLIPFRAME
350
12778
  0
XRECORD
  5
1277C
102
{ACAD_REACTORS
330
C
102
}
330
C
100
AcDbXrecord
280
     1
  1
DWGPROPS COOKIE
  2

  3

  4

  6

  7

  8
Micke
  9

300
=
301
=
302
=
303
=
304
=
305
=
306
=
307
=
308
=
309
=
 40
0.0008782060185185
 41
2455883.64348684
 42
2456817.852186644
  1

 90
        0
  0
XRECORD
  5
12747
102
{ACAD_REACTORS
330
12746
102
}
330
12746
100
AcDbXrecord
280
     1
290
     1
  0
XRECORD
  5
12749
102
{ACAD_REACTORS
330
12748
102
}
330
12748
100
AcDbXrecord
280
     1
290
     1
  0
XRECORD
  5
1274B
102
{ACAD_REACTORS
330
1274A
102
}
330
1274A
100
AcDbXrecord
280
     1
290
     1
  0
XRECORD
  5
1274D
102
{ACAD_REACTORS
330
1274C
102
}
330
1274C
100
AcDbXrecord
280
     1
290
     1
  0
XRECORD
  5
1274F
102
{ACAD_REACTORS
330
1274E
102
}
330
1274E
100
AcDbXrecord
280
     1
290
     1
  0
XRECORD
  5
12751
102
{ACAD_REACTORS
330
12750
102
}
330
12750
100
AcDbXrecord
280
     1
290
     1
  0
XRECORD
  5
12753
102
{ACAD_REACTORS
330
12752
102
}
330
12752
100
AcDbXrecord
280
     1
290
     1
  0
XRECORD
  5
12755
102
{ACAD_REACTORS
330
12754
102
}
330
12754
100
AcDbXrecord
280
     1
290
     1
  0
XRECORD
  5
12757
102
{ACAD_REACTORS
330
12756
102
}
330
12756
100
AcDbXrecord
280
     1
290
     1
  0
XRECORD
  5
12759
102
{ACAD_REACTORS
330
12758
102
}
330
12758
100
AcDbXrecord
280
     1
290
     1
  0
XRECORD
  5
1275B
102
{ACAD_REACTORS
330
1275A
102
}
330
1275A
100
AcDbXrecord
280
     1
290
     1
  0
XRECORD
  5
1275D
102
{ACAD_REACTORS
330
1275C
102
}
330
1275C
100
AcDbXrecord
280
     1
290
     1
  0
XRECORD
  5
1275F
102
{ACAD_REACTORS
330
1275E
102
}
330
1275E
100
AcDbXrecord
280
     1
290
     1
  0
XRECORD
  5
12761
102
{ACAD_REACTORS
330
12760
102
}
330
12760
100
AcDbXrecord
280
     1
290
     1
  0
XRECORD
  5
12763
102
{ACAD_REACTORS
330
12762
102
}
330
12762
100
AcDbXrecord
280
     1
290
     1
  0
XRECORD
  5
12765
102
{ACAD_REACTORS
330
12764
102
}
330
12764
100
AcDbXrecord
280
     1
290
     1
  0
XRECORD
  5
12767
102
{ACAD_REACTORS
330
12766
102
}
330
12766
100
AcDbXrecord
280
     1
290
     1
  0
XRECORD
  5
12769
102
{ACAD_REACTORS
330
12768
102
}
330
12768
100
AcDbXrecord
280
     1
290
     1
  0
XRECORD
  5
1276B
102
{ACAD_REACTORS
330
1276A
102
}
330
1276A
100
AcDbXrecord
280
     1
290
     1
  0
XRECORD
  5
1276D
102
{ACAD_REACTORS
330
1276C
102
}
330
1276C
100
AcDbXrecord
280
     1
290
     1
  0
XRECORD
  5
1276F
102
{ACAD_REACTORS
330
1276E
102
}
330
1276E
100
AcDbXrecord
280
     1
290
     1
  0
XRECORD
  5
12771
102
{ACAD_REACTORS
330
12770
102
}
330
12770
100
AcDbXrecord
280
     1
290
     1
  0
XRECORD
  5
12773
102
{ACAD_REACTORS
330
12772
102
}
330
12772
100
AcDbXrecord
280
     1
290
     1
  0
XRECORD
  5
12775
102
{ACAD_REACTORS
330
12774
102
}
330
12774
100
AcDbXrecord
280
     1
290
     1
  0
SORTENTSTABLE
  5
12461
102
{ACAD_REACTORS
330
12460
102
}
330
12460
100
AcDbSortentsTable
330
1245F
  0
XRECORD
  5
1277E
102
{ACAD_REACTORS
330
1277D
102
}
330
1277D
100
AcDbXrecord
280
     1
 40
1.570796326794896
  0
ACDBDETAILVIEWSTYLE
  5
12741
102
{ACAD_REACTORS
330
12740
102
}
330
12740
100
AcDbModelDocViewStyle
 70
     0
  3
Metric50
290
     0
100
AcDbDetailViewStyle
 70
     0
 71
     0
 90
        3
 71
     1
340
10
 40
5.0
340
0
 40
5.0
300

 40
0.0
280
     1
 71
     2
340
14
 90
       25
 71
     3
340
10
 40
5.0
 90
        0
 40
15.0
 90
        1
300
%<\AcVar ViewDetailId>% (%<\AcVar ViewScale \f "%sn">%)
 71
     4
340
14
 90
       25
340
14
 90
       25
280
     0
  0
LAYOUT
  5
33B
102
{ACAD_XDICTIONARY
360
12781
102
}
102
{ACAD_REACTORS
330
301
102
}
330
301
100
AcDbPlotSettings
  1

  2
Lexmark Optra PS2
  4

  6

 40
0.0
 41
0.0
 42
0.0
 43
0.0
 44
0.0
 45
0.0
 46
0.0
 47
0.0
 48
0.0
 49
0.0
140
0.0
141
0.0
142
1.0
143
1.0
 70
   688
 72
     0
 73
     0
 74
     5
  7
monochrome.ctb
 75
    16
147
1.0
148
0.0
149
0.0
100
AcDbLayout
  1
Layout1
 70
     1
 71
     1
 10
0.0
 20
0.0
 11
12.0
 21
9.0
 12
0.0
 22
0.0
 32
0.0
 14
0.0
 24
0.0
 34
0.0
 15
0.0
 25
0.0
 35
0.0
146
0.0
 13
0.0
 23
0.0
 33
0.0
 16
1.0
 26
0.0
 36
0.0
 17
0.0
 27
1.0
 37
0.0
 76
     0
330
338
  0
LAYOUT
  5
303
102
{ACAD_XDICTIONARY
360
1277F
102
}
102
{ACAD_REACTORS
330
301
102
}
330
301
100
AcDbPlotSettings
  1

  2
Default Windows System Printer.pc3
  4
A4
  6

 40
6.805083274841307
 41
5.535083293914794
 42
6.974411010742187
 43
7.14373779296875
 44
209.9733276367186
 45
296.9259948730469
 46
67.83299579489725
 47
0.0
 48
0.0
 49
0.0
140
0.0
141
0.0
142
1.0
143
0.3604333568168785
 70
  3764
 72
     1
 73
     1
 74
     1
  7
monochrome.ctb
 75
     0
147
2.774437995504559
148
-82.35087775247029
149
-53.69369632994493
100
AcDbLayout
  1
Model
 70
     1
 71
     0
 10
0.0
 20
0.0
 11
12.0
 21
9.0
 12
0.0
 22
0.0
 32
0.0
 14
0.0
 24
0.0
 34
0.0
 15
0.0
 25
0.0
 35
0.0
146
0.0
 13
0.0
 23
0.0
 33
0.0
 16
1.0
 26
0.0
 36
0.0
 17
0.0
 27
1.0
 37
0.0
 76
     0
330
18
331
3ED
1001
ACAD_PSEXT
1000
Default Windows System Printer.pc3
1000
Lexmark Optra Rx
1000
Lexmark Rx
1000
Erstellt von Lexmark Benutzerdefinierte Installation,Nov 13,2005,10:03
1070
     0
  0
MATERIAL
  5
3F0
102
{ACAD_XDICTIONARY
360
12709
102
}
102
{ACAD_REACTORS
330
386
102
}
330
386
100
AcDbMaterial
  1
ByBlock
 73
     1
 78
     1
172
     1
176
     1
270
     1
274
     1
  0
MATERIAL
  5
3EF
102
{ACAD_XDICTIONARY
360
12707
102
}
102
{ACAD_REACTORS
330
386
102
}
330
386
100
AcDbMaterial
  1
ByLayer
 73
     1
 78
     1
172
     1
176
     1
270
     1
274
     1
  0
MATERIAL
  5
3F1
102
{ACAD_XDICTIONARY
360
1270B
102
}
102
{ACAD_REACTORS
330
386
102
}
330
386
100
AcDbMaterial
  1
Global
 73
     1
 78
     1
172
     1
176
     1
270
     1
274
     1
  0
MLEADERSTYLE
  5
43D
102
{ACAD_REACTORS
330
43C
102
}
330
43C
100
AcDbMLeaderStyle
170
     2
171
     1
172
     0
 90
        2
 40
0.0
 41
0.0
173
     1
 91
-1056964608
340
12
 92
       -2
290
     1
 42
2.0
291
     1
 43
0.36
  3
Standard
 44
4.0
300

342
10
174
     1
178
     6
175
     1
176
     0
 93
-1056964608
 45
4.0
292
     0
297
     0
 46
4.0
 94
-1056964608
 47
1.0
 49
1.0
140
1.0
293
     1
141
0.0
294
     1
177
     0
142
1.0
295
     0
296
     0
143
0.125
1001
ACAD_MLEADERVER
1070
     2
  0
MLINESTYLE
  5
1B
102
{ACAD_REACTORS
330
E
102
}
330
E
100
AcDbMlineStyle
  2
STANDARD
 70
     0
  3

 62
     0
 51
90.0
 52
90.0
 71
     2
 49
0.5
 62
   256
  6
BYLAYER
 49
-0.5
 62
   256
  6
BYLAYER
  0
ACDBPLACEHOLDER
  5
300
102
{ACAD_REACTORS
330
2FF
102
}
330
2FF
  0
SCALE
  5
41B
102
{ACAD_REACTORS
330
41A
102
}
330
41A
100
AcDbScale
 70
     0
300
1:1
140
1.0
141
1.0
290
     1
  0
SCALE
  5
41C
102
{ACAD_REACTORS
330
41A
102
}
330
41A
100
AcDbScale
 70
     0
300
1:2
140
1.0
141
2.0
290
     0
  0
SCALE
  5
41D
102
{ACAD_REACTORS
330
41A
102
}
330
41A
100
AcDbScale
 70
     0
300
1:4
140
1.0
141
4.0
290
     0
  0
SCALE
  5
41E
102
{ACAD_REACTORS
330
41A
102
}
330
41A
100
AcDbScale
 70
     0
300
1:5
140
1.0
141
5.0
290
     0
  0
SCALE
  5
41F
102
{ACAD_REACTORS
330
41A
102
}
330
41A
100
AcDbScale
 70
     0
300
1:8
140
1.0
141
8.0
290
     0
  0
SCALE
  5
420
102
{ACAD_REACTORS
330
41A
102
}
330
41A
100
AcDbScale
 70
     0
300
1:10
140
1.0
141
10.0
290
     0
  0
SCALE
  5
421
102
{ACAD_REACTORS
330
41A
102
}
330
41A
100
AcDbScale
 70
     0
300
1:16
140
1.0
141
16.0
290
     0
  0
SCALE
  5
422
102
{ACAD_REACTORS
330
41A
102
}
330
41A
100
AcDbScale
 70
     0
300
1:20
140
1.0
141
20.0
290
     0
  0
SCALE
  5
423
102
{ACAD_REACTORS
330
41A
102
}
330
41A
100
AcDbScale
 70
     0
300
1:30
140
1.0
141
30.0
290
     0
  0
SCALE
  5
424
102
{ACAD_REACTORS
330
41A
102
}
330
41A
100
AcDbScale
 70
     0
300
1:40
140
1.0
141
40.0
290
     0
  0
SCALE
  5
425
102
{ACAD_REACTORS
330
41A
102
}
330
41A
100
AcDbScale
 70
     0
300
1:50
140
1.0
141
50.0
290
     0
  0
SCALE
  5
426
102
{ACAD_REACTORS
330
41A
102
}
330
41A
100
AcDbScale
 70
     0
300
1:100
140
1.0
141
100.0
290
     0
  0
SCALE
  5
427
102
{ACAD_REACTORS
330
41A
102
}
330
41A
100
AcDbScale
 70
     0
300
2:1
140
2.0
141
1.0
290
     0
  0
SCALE
  5
428
102
{ACAD_REACTORS
330
41A
102
}
330
41A
100
AcDbScale
 70
     0
300
4:1
140
4.0
141
1.0
290
     0
  0
SCALE
  5
429
102
{ACAD_REACTORS
330
41A
102
}
330
41A
100
AcDbScale
 70
     0
300
8:1
140
8.0
141
1.0
290
     0
  0
SCALE
  5
42A
102
{ACAD_REACTORS
330
41A
102
}
330
41A
100
AcDbScale
 70
     0
300
10:1
140
10.0
141
1.0
290
     0
  0
SCALE
  5
42B
102
{ACAD_REACTORS
330
41A
102
}
330
41A
100
AcDbScale
 70
     0
300
100:1
140
100.0
141
1.0
290
     0
  0
SCALE
  5
42C
102
{ACAD_REACTORS
330
41A
102
}
330
41A
100
AcDbScale
 70
     0
300
1/128" = 1'-0"
140
0.0078125
141
12.0
290
     0
  0
SCALE
  5
42D
102
{ACAD_REACTORS
330
41A
102
}
330
41A
100
AcDbScale
 70
     0
300
1/64" = 1'-0"
140
0.015625
141
12.0
290
     0
  0
SCALE
  5
42E
102
{ACAD_REACTORS
330
41A
102
}
330
41A
100
AcDbScale
 70
     0
300
1/32" = 1'-0"
140
0.03125
141
12.0
290
     0
  0
SCALE
  5
42F
102
{ACAD_REACTORS
330
41A
102
}
330
41A
100
AcDbScale
 70
     0
300
1/16" = 1'-0"
140
0.0625
141
12.0
290
     0
  0
SCALE
  5
430
102
{ACAD_REACTORS
330
41A
102
}
330
41A
100
AcDbScale
 70
     0
300
3/32" = 1'-0"
140
0.09375
141
12.0
290
     0
  0
SCALE
  5
431
102
{ACAD_REACTORS
330
41A
102
}
330
41A
100
AcDbScale
 70
     0
300
1/8" = 1'-0"
140
0.125
141
12.0
290
     0
  0
SCALE
  5
432
102
{ACAD_REACTORS
330
41A
102
}
330
41A
100
AcDbScale
 70
     0
300
3/16" = 1'-0"
140
0.1875
141
12.0
290
     0
  0
SCALE
  5
433
102
{ACAD_REACTORS
330
41A
102
}
330
41A
100
AcDbScale
 70
     0
300
1/4" = 1'-0"
140
0.25
141
12.0
290
     0
  0
SCALE
  5
434
102
{ACAD_REACTORS
330
41A
102
}
330
41A
100
AcDbScale
 70
     0
300
3/8" = 1'-0"
140
0.375
141
12.0
290
     0
  0
SCALE
  5
435
102
{ACAD_REACTORS
330
41A
102
}
330
41A
100
AcDbScale
 70
     0
300
1/2" = 1'-0"
140
0.5
141
12.0
290
     0
  0
SCALE
  5
436
102
{ACAD_REACTORS
330
41A
102
}
330
41A
100
AcDbScale
 70
     0
300
3/4" = 1'-0"
140
0.75
141
12.0
290
     0
  0
SCALE
  5
437
102
{ACAD_REACTORS
330
41A
102
}
330
41A
100
AcDbScale
 70
     0
300
1" = 1'-0"
140
1.0
141
12.0
290
     0
  0
SCALE
  5
438
102
{ACAD_REACTORS
330
41A
102
}
330
41A
100
AcDbScale
 70
     0
300
1-1/2" = 1'-0"
140
1.5
141
12.0
290
     0
  0
SCALE
  5
439
102
{ACAD_REACTORS
330
41A
102
}
330
41A
100
AcDbScale
 70
     0
300
3" = 1'-0"
140
3.0
141
12.0
290
     0
  0
SCALE
  5
43A
102
{ACAD_REACTORS
330
41A
102
}
330
41A
100
AcDbScale
 70
     0
300
6" = 1'-0"
140
6.0
141
12.0
290
     0
  0
SCALE
  5
43B
102
{ACAD_REACTORS
330
41A
102
}
330
41A
100
AcDbScale
 70
     0
300
1'-0" = 1'-0"
140
12.0
141
12.0
290
     0
  0
ACDBSECTIONVIEWSTYLE
  5
1273F
102
{ACAD_REACTORS
330
1273E
102
}
330
1273E
100
AcDbModelDocViewStyle
 70
     0
  3
Metric50
290
     0
100
AcDbSectionViewStyle
 70
     0
 71
     0
 90
      102
 71
     1
340
10
 40
5.0
340
0
340
0
 40
5.0
300
I, O, Q, S, X, Z
 40
10.0
 90
        0
 40
2.5
 90
        0
 71
     2
340
14
 90
       25
340
14
 90
       50
 40
5.0
 40
2.5
 40
5.0
 71
     3
340
10
 40
5.0
 90
        0
 40
15.0
 90
        1
300
%<\AcVar ViewSectionStartId>%-%<\AcVar ViewSectionEndId>% (%<\AcVar ViewScale \f "%sn">%)
 71
     4
300
ANSI31
 40
1.0
 90
        0
290
     0
290
     0
 90
        6
 40
0.0
 40
1.570796326794896
 40
0.2617993877991494
 40
1.308996938995747
 40
-0.2617993877991494
 40
1.832595714594046
  0
TABLESTYLE
  5
389
102
{ACAD_XDICTIONARY
360
444
102
}
102
{ACAD_REACTORS
330
388
102
}
330
388
100
AcDbTableStyle
  3
Standard
 70
     0
 71
     0
 40
1.5
 41
1.5
280
     0
281
     0
  7
STANDARD
140
4.5
170
     2
 62
     0
 63
     7
283
     0
274
    -2
284
     1
 64
     0
275
    -2
285
     1
 65
     0
276
    -2
286
     1
 66
     0
277
    -2
287
     1
 67
     0
278
    -2
288
     1
 68
     0
279
    -2
289
     1
 69
     0
  7
STANDARD
140
6.0
170
     5
 62
     0
 63
     7
283
     0
274
    -2
284
     1
 64
     0
275
    -2
285
     1
 65
     0
276
    -2
286
     1
 66
     0
277
    -2
287
     1
 67
     0
278
    -2
288
     1
 68
     0
279
    -2
289
     1
 69
     0
  7
STANDARD
140
4.5
170
     5
 62
     0
 63
     7
283
     0
274
    -2
284
     1
 64
     0
275
    -2
285
     1
 65
     0
276
    -2
286
     1
 66
     0
277
    -2
287
     1
 67
     0
278
    -2
288
     1
 68
     0
279
    -2
289
     1
 69
     0
  0
VISUALSTYLE
  5
3F8
102
{ACAD_XDICTIONARY
360
1278E
102
}
102
{ACAD_REACTORS
330
3F2
102
}
330
3F2
100
AcDbVisualStyle
  2

 70
     4
 71
     0
 72
     2
 73
     0
 90
        0
 40
-0.6
 41
-30.0
 62
     5
 63
     7
 74
     1
 91
        4
 64
     7
 65
   257
 75
     1
175
     1
 42
1.0
 92
        0
 66
   257
 43
1.0
 76
     1
 77
     6
 78
     2
 67
     7
 79
     5
170
     0
171
     0
290
     0
174
     0
 93
        1
 44
0.0
173
     0
291
     0
 45
0.0
1001
ACAD
1000
AcDbSavedByObjectVersion
1070
     0
  0
VISUALSTYLE
  5
3FA
102
{ACAD_XDICTIONARY
360
12792
102
}
102
{ACAD_REACTORS
330
3F2
102
}
330
3F2
100
AcDbVisualStyle
  2

 70
     6
 71
     1
 72
     2
 73
     2
 90
        0
 40
-0.6
 41
-30.0
 62
     5
 63
     7
 74
     2
 91
        2
 64
     7
 65
   257
 75
     2
175
     1
 42
40.0
 92
        0
 66
   257
 43
1.0
 76
     1
 77
     6
 78
     2
 67
     7
 79
     3
170
     0
171
     0
290
     0
174
     0
 93
        1
 44
0.0
173
     0
291
     0
 45
0.0
1001
ACAD
1000
AcDbSavedByObjectVersion
1070
     0
  0
VISUALSTYLE
  5
3F9
102
{ACAD_XDICTIONARY
360
12790
102
}
102
{ACAD_REACTORS
330
3F2
102
}
330
3F2
100
AcDbVisualStyle
  2

 70
     5
 71
     0
 72
     2
 73
     0
 90
        0
 40
-0.6
 41
-30.0
 62
     5
 63
     7
 74
     1
 91
        4
 64
     7
 65
   257
 75
     1
175
     1
 42
1.0
 92
        0
 66
   257
 43
1.0
 76
     1
 77
     6
 78
     2
 67
     7
 79
     5
170
     0
171
     0
290
     0
174
     0
 93
        1
 44
0.0
173
     0
291
     0
 45
0.0
1001
ACAD
1000
AcDbSavedByObjectVersion
1070
     0
  0
VISUALSTYLE
  5
3F7
102
{ACAD_XDICTIONARY
360
1278C
102
}
102
{ACAD_REACTORS
330
3F2
102
}
330
3F2
100
AcDbVisualStyle
  2

 70
     7
 71
     1
 72
     0
 73
     1
 90
        0
 40
-0.6
 41
-30.0
 62
     5
 63
     7
 74
     0
 91
        4
 64
     7
 65
   257
 75
     1
175
     1
 42
1.0
 92
        8
 66
     7
 43
1.0
 76
     1
 77
     6
 78
     2
 67
     7
 79
     5
170
     0
171
     0
290
     0
174
     0
 93
        1
 44
0.0
173
     0
291
     1
 45
0.0
1001
ACAD
1000
AcDbSavedByObjectVersion
1070
     0
  0
VISUALSTYLE
  5
3FE
102
{ACAD_XDICTIONARY
360
1279A
102
}
102
{ACAD_REACTORS
330
3F2
102
}
330
3F2
100
AcDbVisualStyle
  2

 70
    12
 71
     2
 72
     2
 73
     0
 90
        0
 40
-0.6
 41
-30.0
 62
     5
 63
     7
 74
     1
 91
        4
 64
     7
 65
   257
 75
     1
175
     1
 42
1.0
 92
        8
 66
     7
 43
1.0
 76
     1
 77
     6
 78
     2
 67
     7
 79
     5
170
     0
171
     0
290
     0
174
     0
 93
        1
 44
50.0
173
     0
291
     1
 45
0.0
1001
ACAD
1000
AcDbSavedByObjectVersion
1070
     0
  0
VISUALSTYLE
  5
402
102
{ACAD_XDICTIONARY
360
127A2
102
}
102
{ACAD_REACTORS
330
3F2
102
}
330
3F2
100
AcDbVisualStyle
  2

 70
    16
 71
     2
 72
     2
 73
     3
 90
        0
 40
-0.6
 41
-30.0
 62
     5
 63
     8
 74
     1
 91
        4
 64
     7
 65
   257
 75
     1
175
     1
 42
1.0
 92
        8
 66
     8
 43
1.0
 76
     1
 77
     6
 78
     2
 67
     7
 79
     5
170
     0
171
     0
290
     0
174
     0
 93
        1
 44
0.0
173
     0
291
     1
 45
0.0
1001
ACAD
1000
AcDbSavedByObjectVersion
1070
     0
  0
VISUALSTYLE
  5
3FB
102
{ACAD_XDICTIONARY
360
12794
102
}
102
{ACAD_REACTORS
330
3F2
102
}
330
3F2
100
AcDbVisualStyle
  2

 70
     9
 71
     3
 72
     2
 73
     0
 90
        0
 40
-0.6
 41
-30.0
 62
     5
 63
     7
 74
     2
 91
        2
 64
     7
 65
   257
 75
     1
175
     1
 42
40.0
 92
        8
 66
     7
 43
1.0
 76
     1
 77
     6
 78
     2
 67
     7
 79
     3
170
     0
171
     0
290
     0
174
     0
 93
        1
 44
0.0
173
     0
291
     0
 45
0.0
1001
ACAD
1000
AcDbSavedByObjectVersion
1070
     0
  0
VISUALSTYLE
  5
3FD
102
{ACAD_XDICTIONARY
360
12798
102
}
102
{ACAD_REACTORS
330
3F2
102
}
330
3F2
100
AcDbVisualStyle
  2

 70
    11
 71
     2
 72
     2
 73
     0
 90
        0
 40
-0.6
 41
-30.0
 62
     5
 63
     7
 74
     1
 91
        4
 64
     7
 65
   257
 75
     1
175
     1
 42
1.0
 92
        8
 66
     7
 43
1.0
 76
     1
 77
     6
 78
     2
 67
     7
 79
     5
170
     0
171
     0
290
     0
174
     0
 93
        1
 44
-50.0
173
     0
291
     1
 45
0.0
1001
ACAD
1000
AcDbSavedByObjectVersion
1070
     0
  0
VISUALSTYLE
  5
44E
102
{ACAD_XDICTIONARY
360
127A8
102
}
102
{ACAD_REACTORS
330
3F2
102
}
330
3F2
100
AcDbVisualStyle
  2

 70
    22
 71
     2
 72
     2
 73
     0
 90
        0
 40
-0.6
 41
-30.0
 62
     5
 63
     7
 74
     1
 91
        4
 64
     7
 65
   257
 75
     1
175
     1
 42
1.0
 92
        8
 66
     7
 43
1.0
 76
     1
 77
     6
 78
     2
 67
     7
 79
     5
170
     0
171
     0
290
     0
174
     0
 93
        1
 44
0.0
173
     0
291
     1
 45
0.0
1001
ACAD
1000
AcDbSavedByObjectVersion
1070
     0
  0
VISUALSTYLE
  5
401
102
{ACAD_XDICTIONARY
360
127A0
102
}
102
{ACAD_REACTORS
330
3F2
102
}
330
3F2
100
AcDbVisualStyle
  2

 70
    15
 71
     2
 72
     2
 73
     0
 90
        0
 40
-0.6
 41
-30.0
 62
     5
 63
     7
 74
     1
 91
        4
 64
     7
 65
   257
 75
     1
175
     1
 42
1.0
 92
        8
 66
     7
 43
1.0
 76
     1
 77
     6
 78
     2
 67
     7
 79
     5
170
     0
171
     0
290
     0
174
     0
 93
        1
 44
0.0
173
     0
291
     1
 45
0.0
1001
ACAD
1000
AcDbSavedByObjectVersion
1070
     0
  0
VISUALSTYLE
  5
3F3
102
{ACAD_XDICTIONARY
360
12784
102
}
102
{ACAD_REACTORS
330
3F2
102
}
330
3F2
100
AcDbVisualStyle
  2

 70
     0
 71
     2
 72
     1
 73
     1
 90
        2
 40
-0.6
 41
30.0
 62
     5
 63
     7
 74
     0
 91
        4
 64
     7
 65
   257
 75
     1
175
     1
 42
1.0
 92
        8
 66
     7
 43
1.0
 76
     1
 77
     6
 78
     2
 67
     7
 79
     5
170
     0
171
     0
290
     0
174
     0
 93
       13
 44
0.0
173
     0
291
     1
 45
0.0
1001
ACAD
1000
AcDbSavedByObjectVersion
1070
     0
  0
VISUALSTYLE
  5
3F4
102
{ACAD_XDICTIONARY
360
12786
102
}
102
{ACAD_REACTORS
330
3F2
102
}
330
3F2
100
AcDbVisualStyle
  2

 70
     1
 71
     2
 72
     1
 73
     1
 90
        2
 40
-0.6
 41
30.0
 62
     5
 63
     7
 74
     1
 91
        4
 64
     7
 65
   257
 75
     1
175
     1
 42
1.0
 92
        0
 66
   257
 43
1.0
 76
     1
 77
     6
 78
     2
 67
     7
 79
     5
170
     0
171
     0
290
     0
174
     0
 93
       13
 44
0.0
173
     0
291
     1
 45
0.0
1001
ACAD
1000
AcDbSavedByObjectVersion
1070
     0
  0
VISUALSTYLE
  5
3F5
102
{ACAD_XDICTIONARY
360
12788
102
}
102
{ACAD_REACTORS
330
3F2
102
}
330
3F2
100
AcDbVisualStyle
  2

 70
     2
 71
     2
 72
     2
 73
     1
 90
        2
 40
-0.6
 41
30.0
 62
     5
 63
     7
 74
     0
 91
        4
 64
     7
 65
   257
 75
     1
175
     1
 42
1.0
 92
        0
 66
     7
 43
1.0
 76
     1
 77
     6
 78
     2
 67
     7
 79
     5
170
     0
171
     0
290
     0
174
     0
 93
       13
 44
0.0
173
     0
291
     1
 45
0.0
1001
ACAD
1000
AcDbSavedByObjectVersion
1070
     0
  0
VISUALSTYLE
  5
3F6
102
{ACAD_XDICTIONARY
360
1278A
102
}
102
{ACAD_REACTORS
330
3F2
102
}
330
3F2
100
AcDbVisualStyle
  2

 70
     3
 71
     2
 72
     2
 73
     1
 90
        2
 40
-0.6
 41
30.0
 62
     5
 63
     7
 74
     1
 91
        4
 64
     7
 65
   257
 75
     1
175
     1
 42
1.0
 92
        0
 66
   257
 43
1.0
 76
     1
 77
     6
 78
     2
 67
     7
 79
     5
170
     0
171
     0
290
     0
174
     0
 93
       13
 44
0.0
173
     0
291
     1
 45
0.0
1001
ACAD
1000
AcDbSavedByObjectVersion
1070
     0
  0
VISUALSTYLE
  5
12738
102
{ACAD_XDICTIONARY
360
127AD
102
}
102
{ACAD_REACTORS
330
3F2
102
}
330
3F2
100
AcDbVisualStyle
  2
Hidden
 70
     6
 71
     1
 72
     2
 73
     2
 90
        0
 40
-0.6
 41
-30.0
 62
     5
 63
     7
 74
     2
 91
        2
 64
     7
 65
   257
 75
     2
175
     1
 42
40.0
 92
        0
 66
   257
 43
1.0
 76
     1
 77
     6
 78
     2
 67
     7
 79
     3
170
     0
171
     0
290
     0
174
     0
 93
        1
 44
0.0
173
     0
291
     0
 45
0.0
1001
ACAD
1000
AcDbSavedByObjectVersion
1070
     0
  0
VISUALSTYLE
  5
44C
102
{ACAD_XDICTIONARY
360
127A4
102
}
102
{ACAD_REACTORS
330
3F2
102
}
330
3F2
100
AcDbVisualStyle
  2

 70
    20
 71
     2
 72
     2
 73
     0
 90
        0
 40
-0.6
 41
-30.0
 62
     5
 63
     7
 74
     1
 91
        4
 64
     7
 65
   257
 75
     1
175
     1
 42
1.0
 92
       10
 66
     7
 43
1.0
 76
     1
 77
     6
 78
     2
 67
     7
 79
     5
170
     0
171
     0
290
     0
174
     0
 93
        1
 44
0.0
173
     0
291
     1
 45
0.0
1001
ACAD
1000
AcDbSavedByObjectVersion
1070
     0
  0
VISUALSTYLE
  5
400
102
{ACAD_XDICTIONARY
360
1279E
102
}
102
{ACAD_REACTORS
330
3F2
102
}
330
3F2
100
AcDbVisualStyle
  2

 70
    14
 71
     2
 72
     2
 73
     0
 90
        0
 40
-0.6
 41
-30.0
 62
     5
 63
     7
 74
     1
 91
        4
 64
     7
 65
   257
 75
     7
175
     7
 42
1.0
 92
        8
 66
     7
 43
1.0
 76
     1
 77
     6
 78
     2
 67
     7
 79
     5
170
     0
171
     0
290
     0
174
     0
 93
        1
 44
0.0
173
     0
291
     1
 45
0.0
1001
ACAD
1000
AcDbSavedByObjectVersion
1070
     0
  0
VISUALSTYLE
  5
44D
102
{ACAD_XDICTIONARY
360
127A6
102
}
102
{ACAD_REACTORS
330
3F2
102
}
330
3F2
100
AcDbVisualStyle
  2

 70
    21
 71
     2
 72
     2
 73
     0
 90
        0
 40
-0.6
 41
-30.0
 62
     5
 63
     7
 74
     1
 91
        4
 64
     7
 65
   257
 75
     1
175
     1
 42
1.0
 92
        9
 66
     7
 43
1.0
 76
     1
 77
     6
 78
     2
 67
     7
 79
     5
170
     0
171
     0
290
     0
174
     0
 93
        1
 44
0.0
173
     0
291
     1
 45
0.0
1001
ACAD
1000
AcDbSavedByObjectVersion
1070
     0
  0
VISUALSTYLE
  5
3FC
102
{ACAD_XDICTIONARY
360
12796
102
}
102
{ACAD_REACTORS
330
3F2
102
}
330
3F2
100
AcDbVisualStyle
  2

 70
     8
 71
     2
 72
     2
 73
     0
 90
        0
 40
-0.6
 41
-30.0
 62
     5
 63
     7
 74
     1
 91
        0
 64
     7
 65
   257
 75
     1
175
     1
 42
1.0
 92
        8
 66
     8
 43
1.0
 76
     1
 77
     6
 78
     2
 67
     7
 79
     5
170
     0
171
     0
290
     0
174
     0
 93
       13
 44
0.0
173
     0
291
     0
 45
0.0
1001
ACAD
1000
AcDbSavedByObjectVersion
1070
     0
  0
VISUALSTYLE
  5
1273D
102
{ACAD_XDICTIONARY
360
127B7
102
}
102
{ACAD_REACTORS
330
3F2
102
}
330
3F2
100
AcDbVisualStyle
  2
Shaded
 70
    27
 71
     2
 72
     2
 73
     1
 90
        2
 40
-0.6
 41
30.0
 62
     5
 63
     7
 74
     0
 91
        4
 64
     7
 65
   257
 75
     1
175
     1
 42
1.0
 92
        8
 66
   257
 43
1.0
 76
     1
 77
     6
 78
     2
 67
     8
 79
     3
170
     0
171
     0
290
     0
174
     0
 93
        5
 44
0.0
173
     0
291
     0
 45
0.0
1001
ACAD
1000
AcDbSavedByObjectVersion
1070
     0
  0
VISUALSTYLE
  5
1273C
102
{ACAD_XDICTIONARY
360
127B5
102
}
102
{ACAD_REACTORS
330
3F2
102
}
330
3F2
100
AcDbVisualStyle
  2
Shaded with edges
 70
    26
 71
     2
 72
     2
 73
     1
 90
        2
 40
-0.6
 41
30.0
 62
     5
 63
     7
 74
     1
 91
       10
 64
     7
 65
   257
 75
     2
175
     1
 42
1.0
 92
        8
 66
   257
 43
1.0
 76
     1
 77
     6
 78
     2
 67
     7
 79
     3
170
     0
171
     0
290
     0
174
     0
 93
        5
 44
0.0
173
     0
291
     0
 45
0.0
1001
ACAD
1000
AcDbSavedByObjectVersion
1070
     0
  0
VISUALSTYLE
  5
12739
102
{ACAD_XDICTIONARY
360
127AF
102
}
102
{ACAD_REACTORS
330
3F2
102
}
330
3F2
100
AcDbVisualStyle
  2
Shades of Gray
 70
    23
 71
     2
 72
     2
 73
     3
 90
        0
 40
-0.6
 41
-30.0
 62
     5
 63
     7
 74
     2
 91
        2
 64
     7
 65
     7
 75
     1
175
     1
 42
40.0
 92
        8
 66
     7
 43
1.0
 76
     1
 77
     6
 78
     2
 67
     7
 79
     3
170
     0
171
     0
290
     0
174
     0
 93
        1
 44
0.0
173
     0
291
     0
 45
0.0
1001
ACAD
1000
AcDbSavedByObjectVersion
1070
     0
  0
VISUALSTYLE
  5
1273A
102
{ACAD_XDICTIONARY
360
127B1
102
}
102
{ACAD_REACTORS
330
3F2
102
}
330
3F2
100
AcDbVisualStyle
  2
Sketchy
 70
    24
 71
     1
 72
     2
 73
     2
 90
        0
 40
-0.6
 41
-30.0
 62
     5
 63
     7
 74
     2
 91
        2
 64
     7
 65
     7
 75
     1
175
     1
 42
40.0
 92
       11
 66
     7
 43
1.0
 76
     1
 77
     6
 78
     2
 67
     7
 79
     6
170
     0
171
     0
290
     0
174
     0
 93
        1
 44
0.0
173
     0
291
     0
 45
0.0
1001
ACAD
1000
AcDbSavedByObjectVersion
1070
     0
  0
VISUALSTYLE
  5
3FF
102
{ACAD_XDICTIONARY
360
1279C
102
}
102
{ACAD_REACTORS
330
3F2
102
}
330
3F2
100
AcDbVisualStyle
  2

 70
    13
 71
     2
 72
     2
 73
     0
 90
        0
 40
-0.6
 41
-30.0
 62
     5
 63
     7
 74
     1
 91
        4
 64
     7
 65
   257
 75
     1
175
     1
 42
1.0
 92
       12
 66
     7
 43
1.0
 76
     1
 77
     6
 78
     2
 67
     7
 79
     5
170
     0
171
     0
290
     0
174
     0
 93
        1
 44
0.0
173
     0
291
     1
 45
0.0
1001
ACAD
1000
AcDbSavedByObjectVersion
1070
     0
  0
VISUALSTYLE
  5
12737
102
{ACAD_XDICTIONARY
360
127AB
102
}
102
{ACAD_REACTORS
330
3F2
102
}
330
3F2
100
AcDbVisualStyle
  2
Wireframe
 70
     5
 71
     0
 72
     2
 73
     0
 90
        0
 40
-0.6
 41
-30.0
 62
     5
 63
     7
 74
     1
 91
        4
 64
     7
 65
   257
 75
     1
175
     1
 42
1.0
 92
        0
 66
   257
 43
1.0
 76
     1
 77
     6
 78
     2
 67
     7
 79
     3
170
     0
171
     0
290
     0
174
     0
 93
        1
 44
0.0
173
     0
291
     0
 45
0.0
1001
ACAD
1000
AcDbSavedByObjectVersion
1070
     0
  0
VISUALSTYLE
  5
1273B
102
{ACAD_XDICTIONARY
360
127B3
102
}
102
{ACAD_REACTORS
330
3F2
102
}
330
3F2
100
AcDbVisualStyle
  2
X-Ray
 70
    25
 71
     2
 72
     2
 73
     1
 90
        1
 40
0.5
 41
-30.0
 62
     5
 63
     7
 74
     1
 91
        0
 64
     7
 65
   257
 75
     1
175
     1
 42
1.0
 92
        8
 66
     7
 43
1.0
 76
     1
 77
     6
 78
     2
 67
     7
 79
     3
170
     0
171
     0
290
     0
174
     0
 93
       13
 44
0.0
173
     0
291
     0
 45
0.0
1001
ACAD
1000
AcDbSavedByObjectVersion
1070
     0
  0
DICTIONARYVAR
  5
449
102
{ACAD_REACTORS
330
357
102
}
330
357
100
DictionaryVariables
280
     0
  1
1:1
  0
DICTIONARYVAR
  5
447
102
{ACAD_REACTORS
330
357
102
}
330
357
100
DictionaryVariables
280
     0
  1
STANDARD
  0
DICTIONARYVAR
  5
38E
102
{ACAD_REACTORS
330
357
102
}
330
357
100
DictionaryVariables
280
     0
  1
STANDARD
  0
DICTIONARYVAR
  5
12776
102
{ACAD_REACTORS
330
357
102
}
330
357
100
DictionaryVariables
280
     0
  1
Metric50
  0
DICTIONARYVAR
  5
12777
102
{ACAD_REACTORS
330
357
102
}
330
357
100
DictionaryVariables
280
     0
  1
Metric50
  0
DICTIONARYVAR
  5
359
102
{ACAD_REACTORS
330
357
102
}
330
357
100
DictionaryVariables
280
     0
  1
2
  0
DICTIONARYVAR
  5
358
102
{ACAD_REACTORS
330
357
102
}
330
357
100
DictionaryVariables
280
     0
  1
1
  0
DICTIONARYVAR
  5
728
102
{ACAD_REACTORS
330
357
102
}
330
357
100
DictionaryVariables
280
     0
  1
0
  0
DICTIONARYVAR
  5
458
102
{ACAD_REACTORS
330
357
102
}
330
357
100
DictionaryVariables
280
     0
  1
1
  0
DICTIONARYVAR
  5
459
102
{ACAD_REACTORS
330
357
102
}
330
357
100
DictionaryVariables
280
     0
  1
15
  0
DICTIONARYVAR
  5
44A
102
{ACAD_REACTORS
330
357
102
}
330
357
100
DictionaryVariables
280
     0
  1
0
  0
DICTIONARYVAR
  5
448
102
{ACAD_REACTORS
330
357
102
}
330
357
100
DictionaryVariables
280
     0
  1
0
  0
DICTIONARYVAR
  5
727
102
{ACAD_REACTORS
330
357
102
}
330
357
100
DictionaryVariables
280
     0
  1
127
  0
DICTIONARYVAR
  5
12778
102
{ACAD_REACTORS
330
357
102
}
330
357
100
DictionaryVariables
280
     0
  1
2
  0
DICTIONARY
  5
12781
330
33B
100
AcDbDictionary
280
     1
281
     1
  3
ACAD_XREC_ROUNDTRIP
360
12782
  0
DICTIONARY
  5
1277F
330
303
100
AcDbDictionary
280
     1
281
     1
  3
ACAD_XREC_ROUNDTRIP
360
12780
  0
DICTIONARY
  5
12709
330
3F0
100
AcDbDictionary
280
     1
281
     1
  3
ACAD_XREC_ROUNDTRIP
360
1270A
  0
DICTIONARY
  5
12707
330
3EF
100
AcDbDictionary
280
     1
281
     1
  3
ACAD_XREC_ROUNDTRIP
360
12708
  0
DICTIONARY
  5
1270B
330
3F1
100
AcDbDictionary
280
     1
281
     1
  3
ACAD_XREC_ROUNDTRIP
360
1270C
  0
DICTIONARY
  5
444
330
389
100
AcDbDictionary
280
     1
281
     1
  3
ACAD_ROUNDTRIP_2008_TABLESTYLE_CELLSTYLEMAP
360
1277A
  3
ACAD_XREC_ROUNDTRIP
360
12783
  0
DICTIONARY
  5
1278E
330
3F8
100
AcDbDictionary
280
     1
281
     1
  3
ACAD_XREC_ROUNDTRIP
360
1278F
  0
DICTIONARY
  5
12792
330
3FA
100
AcDbDictionary
280
     1
281
     1
  3
ACAD_XREC_ROUNDTRIP
360
12793
  0
DICTIONARY
  5
12790
330
3F9
100
AcDbDictionary
280
     1
281
     1
  3
ACAD_XREC_ROUNDTRIP
360
12791
  0
DICTIONARY
  5
1278C
330
3F7
100
AcDbDictionary
280
     1
281
     1
  3
ACAD_XREC_ROUNDTRIP
360
1278D
  0
DICTIONARY
  5
1279A
330
3FE
100
AcDbDictionary
280
     1
281
     1
  3
ACAD_XREC_ROUNDTRIP
360
1279B
  0
DICTIONARY
  5
127A2
330
402
100
AcDbDictionary
280
     1
281
     1
  3
ACAD_XREC_ROUNDTRIP
360
127A3
  0
DICTIONARY
  5
12794
330
3FB
100
AcDbDictionary
280
     1
281
     1
  3
ACAD_XREC_ROUNDTRIP
360
12795
  0
DICTIONARY
  5
12798
330
3FD
100
AcDbDictionary
280
     1
281
     1
  3
ACAD_XREC_ROUNDTRIP
360
12799
  0
DICTIONARY
  5
127A8
330
44E
100
AcDbDictionary
280
     1
281
     1
  3
ACAD_XREC_ROUNDTRIP
360
127A9
  0
DICTIONARY
  5
127A0
330
401
100
AcDbDictionary
280
     1
281
     1
  3
ACAD_XREC_ROUNDTRIP
360
127A1
  0
DICTIONARY
  5
12784
330
3F3
100
AcDbDictionary
280
     1
281
     1
  3
ACAD_XREC_ROUNDTRIP
360
12785
  0
DICTIONARY
  5
12786
330
3F4
100
AcDbDictionary
280
     1
281
     1
  3
ACAD_XREC_ROUNDTRIP
360
12787
  0
DICTIONARY
  5
12788
330
3F5
100
AcDbDictionary
280
     1
281
     1
  3
ACAD_XREC_ROUNDTRIP
360
12789
  0
DICTIONARY
  5
1278A
330
3F6
100
AcDbDictionary
280
     1
281
     1
  3
ACAD_XREC_ROUNDTRIP
360
1278B
  0
DICTIONARY
  5
127AD
330
12738
100
AcDbDictionary
280
     1
281
     1
  3
ACAD_XREC_ROUNDTRIP
360
127AE
  0
DICTIONARY
  5
127A4
330
44C
100
AcDbDictionary
280
     1
281
     1
  3
ACAD_XREC_ROUNDTRIP
360
127A5
  0
DICTIONARY
  5
1279E
330
400
100
AcDbDictionary
280
     1
281
     1
  3
ACAD_XREC_ROUNDTRIP
360
1279F
  0
DICTIONARY
  5
127A6
330
44D
100
AcDbDictionary
280
     1
281
     1
  3
ACAD_XREC_ROUNDTRIP
360
127A7
  0
DICTIONARY
  5
12796
330
3FC
100
AcDbDictionary
280
     1
281
     1
  3
ACAD_XREC_ROUNDTRIP
360
12797
  0
DICTIONARY
  5
127B7
330
1273D
100
AcDbDictionary
280
     1
281
     1
  3
ACAD_XREC_ROUNDTRIP
360
127B8
  0
DICTIONARY
  5
127B5
330
1273C
100
AcDbDictionary
280
     1
281
     1
  3
ACAD_XREC_ROUNDTRIP
360
127B6
  0
DICTIONARY
  5
127AF
330
12739
100
AcDbDictionary
280
     1
281
     1
  3
ACAD_XREC_ROUNDTRIP
360
127B0
  0
DICTIONARY
  5
127B1
330
1273A
100
AcDbDictionary
280
     1
281
     1
  3
ACAD_XREC_ROUNDTRIP
360
127B2
  0
DICTIONARY
  5
1279C
330
3FF
100
AcDbDictionary
280
     1
281
     1
  3
ACAD_XREC_ROUNDTRIP
360
1279D
  0
DICTIONARY
  5
127AB
330
12737
100
AcDbDictionary
280
     1
281
     1
  3
ACAD_XREC_ROUNDTRIP
360
127AC
  0
DICTIONARY
  5
127B3
330
1273B
100
AcDbDictionary
280
     1
281
     1
  3
ACAD_XREC_ROUNDTRIP
360
127B4
  0
XRECORD
  5
12782
102
{ACAD_REACTORS
330
12781
102
}
330
12781
100
AcDbXrecord
280
     1
102
SHADEPLOT
 70
     0
102
SHADEPLOTRESLEVEL
 70
     2
102
SHADEPLOTCUSTOMDPI
 70
   300
  0
XRECORD
  5
12780
102
{ACAD_REACTORS
330
1277F
102
}
330
1277F
100
AcDbXrecord
280
     1
102
SHADEPLOT
 70
     1
102
SHADEPLOTRESLEVEL
 70
     2
102
SHADEPLOTCUSTOMDPI
 70
   300
  0
XRECORD
  5
1270A
102
{ACAD_REACTORS
330
12709
102
}
330
12709
100
AcDbXrecord
280
     1
102
MATERIAL
148
0.0
149
0.0
149
0.0
 93
        0
 94
      127
282
     0
 72
     1
 77
     1
171
     1
175
     1
179
     1
273
     0
  0
XRECORD
  5
12708
102
{ACAD_REACTORS
330
12707
102
}
330
12707
100
AcDbXrecord
280
     1
102
MATERIAL
148
0.0
149
0.0
149
0.0
 93
        0
 94
      127
282
     0
 72
     1
 77
     1
171
     1
175
     1
179
     1
273
     0
  0
XRECORD
  5
1270C
102
{ACAD_REACTORS
330
1270B
102
}
330
1270B
100
AcDbXrecord
280
     1
102
MATERIAL
148
0.0
149
0.0
149
0.0
 93
        0
 94
      127
282
     0
 72
     1
 77
     1
171
     1
175
     1
179
     1
273
     0
  0
CELLSTYLEMAP
  5
1277A
102
{ACAD_REACTORS
330
444
102
}
330
444
100
AcDbCellStyleMap
 90
        3
300
CELLSTYLE
  1
TABLEFORMAT_BEGIN
 90
        5
170
     1
 91
        0
 92
    32768
 62
   257
 93
        1
300
CONTENTFORMAT
  1
CONTENTFORMAT_BEGIN
 90
        0
 91
        0
 92
        4
 93
        0
300

 40
0.0
140
1.0
 94
        5
 62
     0
340
10
144
6.0
309
CONTENTFORMAT_END
171
     1
301
MARGIN
  1
CELLMARGIN_BEGIN
 40
1.5
 40
1.5
 40
1.5
 40
1.5
 40
0.18
 40
0.18
309
CELLMARGIN_END
 94
        6
 95
        1
302
GRIDFORMAT
  1
GRIDFORMAT_BEGIN
 90
        0
 91
        1
 62
     0
 92
       -2
340
0
 93
        0
 40
0.045
309
GRIDFORMAT_END
 95
        2
302
GRIDFORMAT
  1
GRIDFORMAT_BEGIN
 90
        0
 91
        1
 62
     0
 92
       -2
340
0
 93
        0
 40
0.045
309
GRIDFORMAT_END
 95
        4
302
GRIDFORMAT
  1
GRIDFORMAT_BEGIN
 90
        0
 91
        1
 62
     0
 92
       -2
340
0
 93
        0
 40
0.045
309
GRIDFORMAT_END
 95
        8
302
GRIDFORMAT
  1
GRIDFORMAT_BEGIN
 90
        0
 91
        1
 62
     0
 92
       -2
340
0
 93
        0
 40
0.045
309
GRIDFORMAT_END
 95
       16
302
GRIDFORMAT
  1
GRIDFORMAT_BEGIN
 90
        0
 91
        1
 62
     0
 92
       -2
340
0
 93
        0
 40
0.045
309
GRIDFORMAT_END
 95
       32
302
GRIDFORMAT
  1
GRIDFORMAT_BEGIN
 90
        0
 91
        1
 62
     0
 92
       -2
340
0
 93
        0
 40
0.045
309
GRIDFORMAT_END
309
TABLEFORMAT_END
  1
CELLSTYLE_BEGIN
 90
        1
 91
        1
300
_TITLE
309
CELLSTYLE_END
300
CELLSTYLE
  1
TABLEFORMAT_BEGIN
 90
        5
170
     1
 91
        0
 92
        0
 62
   257
 93
        1
300
CONTENTFORMAT
  1
CONTENTFORMAT_BEGIN
 90
        0
 91
        0
 92
        4
 93
        0
300

 40
0.0
140
1.0
 94
        5
 62
     0
340
10
144
4.5
309
CONTENTFORMAT_END
171
     1
301
MARGIN
  1
CELLMARGIN_BEGIN
 40
1.5
 40
1.5
 40
1.5
 40
1.5
 40
0.18
 40
0.18
309
CELLMARGIN_END
 94
        6
 95
        1
302
GRIDFORMAT
  1
GRIDFORMAT_BEGIN
 90
        0
 91
        1
 62
     0
 92
       -2
340
0
 93
        0
 40
0.045
309
GRIDFORMAT_END
 95
        2
302
GRIDFORMAT
  1
GRIDFORMAT_BEGIN
 90
        0
 91
        1
 62
     0
 92
       -2
340
0
 93
        0
 40
0.045
309
GRIDFORMAT_END
 95
        4
302
GRIDFORMAT
  1
GRIDFORMAT_BEGIN
 90
        0
 91
        1
 62
     0
 92
       -2
340
0
 93
        0
 40
0.045
309
GRIDFORMAT_END
 95
        8
302
GRIDFORMAT
  1
GRIDFORMAT_BEGIN
 90
        0
 91
        1
 62
     0
 92
       -2
340
0
 93
        0
 40
0.045
309
GRIDFORMAT_END
 95
       16
302
GRIDFORMAT
  1
GRIDFORMAT_BEGIN
 90
        0
 91
        1
 62
     0
 92
       -2
340
0
 93
        0
 40
0.045
309
GRIDFORMAT_END
 95
       32
302
GRIDFORMAT
  1
GRIDFORMAT_BEGIN
 90
        0
 91
        1
 62
     0
 92
       -2
340
0
 93
        0
 40
0.045
309
GRIDFORMAT_END
309
TABLEFORMAT_END
  1
CELLSTYLE_BEGIN
 90
        2
 91
        1
300
_HEADER
309
CELLSTYLE_END
300
CELLSTYLE
  1
TABLEFORMAT_BEGIN
 90
        5
170
     1
 91
        0
 92
        0
 62
   257
 93
        1
300
CONTENTFORMAT
  1
CONTENTFORMAT_BEGIN
 90
        0
 91
        0
 92
        4
 93
        0
300

 40
0.0
140
1.0
 94
        2
 62
     0
340
10
144
4.5
309
CONTENTFORMAT_END
171
     1
301
MARGIN
  1
CELLMARGIN_BEGIN
 40
1.5
 40
1.5
 40
1.5
 40
1.5
 40
0.18
 40
0.18
309
CELLMARGIN_END
 94
        6
 95
        1
302
GRIDFORMAT
  1
GRIDFORMAT_BEGIN
 90
        0
 91
        1
 62
     0
 92
       -2
340
0
 93
        0
 40
0.045
309
GRIDFORMAT_END
 95
        2
302
GRIDFORMAT
  1
GRIDFORMAT_BEGIN
 90
        0
 91
        1
 62
     0
 92
       -2
340
0
 93
        0
 40
0.045
309
GRIDFORMAT_END
 95
        4
302
GRIDFORMAT
  1
GRIDFORMAT_BEGIN
 90
        0
 91
        1
 62
     0
 92
       -2
340
0
 93
        0
 40
0.045
309
GRIDFORMAT_END
 95
        8
302
GRIDFORMAT
  1
GRIDFORMAT_BEGIN
 90
        0
 91
        1
 62
     0
 92
       -2
340
0
 93
        0
 40
0.045
309
GRIDFORMAT_END
 95
       16
302
GRIDFORMAT
  1
GRIDFORMAT_BEGIN
 90
        0
 91
        1
 62
     0
 92
       -2
340
0
 93
        0
 40
0.045
309
GRIDFORMAT_END
 95
       32
302
GRIDFORMAT
  1
GRIDFORMAT_BEGIN
 90
        0
 91
        1
 62
     0
 92
       -2
340
0
 93
        0
 40
0.045
309
GRIDFORMAT_END
309
TABLEFORMAT_END
  1
CELLSTYLE_BEGIN
 90
        3
 91
        2
300
_DATA
309
CELLSTYLE_END
  0
XRECORD
  5
12783
102
{ACAD_REACTORS
330
444
102
}
330
444
100
AcDbXrecord
280
     1
102
ACAD_ROUNDTRIP_PRE2007_TABLESTYLE
 90
        4
 91
        0
  1

 92
        4
 93
        0
  2

 94
        4
 95
        0
  3

  0
XRECORD
  5
1278F
102
{ACAD_REACTORS
330
1278E
102
}
330
1278E
100
AcDbXrecord
280
     1
102
RTVSPost2010Prop28
280
     1
102
RTVSPost2010PropOp28
 70
     1
102
RTVSPost2010Prop29
280
     1
102
RTVSPost2010PropOp29
 70
     1
102
RTVSPost2010Prop30
280
     0
102
RTVSPost2010PropOp30
 70
     1
102
RTVSPost2010Prop31
280
     0
102
RTVSPost2010PropOp31
 70
     1
102
RTVSPost2010Prop32
280
     0
102
RTVSPost2010PropOp32
 70
     1
102
RTVSPost2010Prop33
280
     0
102
RTVSPost2010PropOp33
 70
     1
102
RTVSPost2010Prop34
280
     0
102
RTVSPost2010PropOp34
 70
     1
102
RTVSPost2010Prop35
280
     0
102
RTVSPost2010PropOp35
 70
     1
102
RTVSPost2010Prop36
280
     0
102
RTVSPost2010PropOp36
 70
     1
102
RTVSPost2010Prop37
 90
       50
102
RTVSPost2010PropOp37
 70
     1
102
RTVSPost2010Prop38
140
0.0
102
RTVSPost2010PropOp38
 70
     1
102
RTVSPost2010Prop39
140
1.0
102
RTVSPost2010PropOp39
 70
     1
102
RTVSPost2010Prop40
 90
        0
102
RTVSPost2010PropOp40
 70
     1
102
RTVSPost2010Prop41ColorIndex
 90
       18
102
RTVSPost2010Prop41ColorRGB
 90
        0
102
RTVSPost2010PropOp41
 70
     1
102
RTVSPost2010Prop42
 90
       50
102
RTVSPost2010PropOp42
 70
     1
102
RTVSPost2010Prop43
 90
        3
102
RTVSPost2010PropOp43
 70
     1
102
RTVSPost2010Prop44ColorIndex
 90
        5
102
RTVSPost2010Prop44ColorRGB
 90
      255
102
RTVSPost2010PropOp44
 70
     1
102
RTVSPost2010Prop45
280
     0
102
RTVSPost2010PropOp45
 70
     1
102
RTVSPost2010Prop46
 90
       50
102
RTVSPost2010PropOp46
 70
     1
102
RTVSPost2010Prop47
 90
       50
102
RTVSPost2010PropOp47
 70
     1
102
RTVSPost2010Prop48
 90
       50
102
RTVSPost2010PropOp48
 70
     1
102
RTVSPost2010Prop49
280
     0
102
RTVSPost2010PropOp49
 70
     1
102
RTVSPost2010Prop50
 90
       50
102
RTVSPost2010PropOp50
 70
     1
102
RTVSPost2010Prop51ColorIndex
 90
      256
102
RTVSPost2010Prop51ColorRGB
 90
-16777216
102
RTVSPost2010PropOp51
 70
     0
102
RTVSPost2010Prop52
140
1.0
102
RTVSPost2010PropOp52
 70
     0
102
RTVSPost2010Prop53
 90
        2
102
RTVSPost2010PropOp53
 70
     1
102
RTVSPost2010Prop54
  1
strokes_ogs.tif
102
RTVSPost2010PropOp54
 70
     1
102
RTVSPost2010Prop55
280
     0
102
RTVSPost2010PropOp55
 70
     1
102
RTVSPost2010Prop56
140
1.0
102
RTVSPost2010PropOp56
 70
     1
102
RTVSPost2010Prop57
140
1.0
102
RTVSPost2010PropOp57
 70
     1
102
RTVSPropertyOp0
 70
     1
102
RTVSPropertyOp1
 70
     1
102
RTVSPropertyOp2
 70
     1
102
RTVSPropertyOp3
 70
     1
102
RTVSPropertyOp4
 70
     1
102
RTVSPropertyOp5
 70
     1
102
RTVSPropertyOp6
 70
     1
102
RTVSPropertyOp7
 70
     1
102
RTVSPropertyOp8
 70
     1
102
RTVSPropertyOp9
 70
     1
102
RTVSPropertyOp10
 70
     1
102
RTVSPropertyOp11
 70
     1
102
RTVSPropertyOp12
 70
     1
102
RTVSPropertyOp13
 70
     1
102
RTVSPropertyOp14
 70
     1
102
RTVSPropertyOp15
 70
     1
102
RTVSPropertyOp16
 70
     1
102
RTVSPropertyOp17
 70
     1
102
RTVSPropertyOp18
 70
     1
102
RTVSPropertyOp19
 70
     1
102
RTVSPropertyOp20
 70
     1
102
RTVSPropertyOp21
 70
     1
102
RTVSPropertyOp22
 70
     1
102
RTVSPropertyOp23
 70
     1
102
RTVSPropertyOp24
 70
     1
102
RTVSPropertyOp25
 70
     1
102
RTVSPropertyOp26
 70
     1
102
RTVSPropertyOp27
 70
     1
102
RTVSPropertyOp28
 70
     1
102
RTVSPropertyOp29
 70
     1
102
RTVSPropertyOp30
 70
     1
102
RTVSPropertyOp31
 70
     1
102
RTVSPropertyOp32
 70
     1
102
RTVSPropertyOp33
 70
     1
102
RTVSPropertyOp34
 70
     1
102
RTVSPropertyOp35
 70
     1
102
RTVSPropertyOp36
 70
     1
102
RTVSPropertyOp37
 70
     1
102
RTVSPropertyOp38
 70
     1
102
RTVSPropertyOp39
 70
     1
102
RTVSPropertyOp40
 70
     1
102
RTVSPropertyOp41
 70
     1
102
RTVSPropertyOp42
 70
     1
102
RTVSPropertyOp43
 70
     1
102
RTVSPropertyOp44
 70
     1
102
RTVSPropertyOp45
 70
     1
102
RTVSPropertyOp46
 70
     1
102
RTVSPropertyOp47
 70
     1
102
RTVSPropertyOp48
 70
     1
102
RTVSPropertyOp49
 70
     1
102
RTVSPropertyOp50
 70
     1
102
RTVSPropertyOp51
 70
     0
102
RTVSPropertyOp52
 70
     0
102
RTVSPropertyOp53
 70
     1
102
RTVSPropertyOp54
 70
     1
102
RTVSPropertyOp55
 70
     1
102
RTVSPropertyOp56
 70
     1
102
RTVSPropertyOp57
 70
     1
102
RTVSPropertyOp58
 70
     1
102
RTVSPropertyOp59
 70
     1
102
RTVSPropertyOp60
 70
     1
102
RTVSPropertyOp61
 70
     1
102
RTVSPropertyOp62
 70
     1
  0
XRECORD
  5
12793
102
{ACAD_REACTORS
330
12792
102
}
330
12792
100
AcDbXrecord
280
     1
102
RTVSPost2010Prop28
280
     0
102
RTVSPost2010PropOp28
 70
     1
102
RTVSPost2010Prop29
280
     1
102
RTVSPost2010PropOp29
 70
     1
102
RTVSPost2010Prop30
280
     1
102
RTVSPost2010PropOp30
 70
     1
102
RTVSPost2010Prop31
280
     0
102
RTVSPost2010PropOp31
 70
     1
102
RTVSPost2010Prop32
280
     0
102
RTVSPost2010PropOp32
 70
     1
102
RTVSPost2010Prop33
280
     0
102
RTVSPost2010PropOp33
 70
     1
102
RTVSPost2010Prop34
280
     0
102
RTVSPost2010PropOp34
 70
     1
102
RTVSPost2010Prop35
280
     0
102
RTVSPost2010PropOp35
 70
     1
102
RTVSPost2010Prop36
280
     0
102
RTVSPost2010PropOp36
 70
     1
102
RTVSPost2010Prop37
 90
       50
102
RTVSPost2010PropOp37
 70
     1
102
RTVSPost2010Prop38
140
0.0
102
RTVSPost2010PropOp38
 70
     1
102
RTVSPost2010Prop39
140
1.0
102
RTVSPost2010PropOp39
 70
     1
102
RTVSPost2010Prop40
 90
        0
102
RTVSPost2010PropOp40
 70
     1
102
RTVSPost2010Prop41ColorIndex
 90
       18
102
RTVSPost2010Prop41ColorRGB
 90
        0
102
RTVSPost2010PropOp41
 70
     1
102
RTVSPost2010Prop42
 90
       50
102
RTVSPost2010PropOp42
 70
     1
102
RTVSPost2010Prop43
 90
        3
102
RTVSPost2010PropOp43
 70
     1
102
RTVSPost2010Prop44ColorIndex
 90
        5
102
RTVSPost2010Prop44ColorRGB
 90
      255
102
RTVSPost2010PropOp44
 70
     1
102
RTVSPost2010Prop45
280
     0
102
RTVSPost2010PropOp45
 70
     1
102
RTVSPost2010Prop46
 90
       50
102
RTVSPost2010PropOp46
 70
     1
102
RTVSPost2010Prop47
 90
       50
102
RTVSPost2010PropOp47
 70
     1
102
RTVSPost2010Prop48
 90
       50
102
RTVSPost2010PropOp48
 70
     1
102
RTVSPost2010Prop49
280
     0
102
RTVSPost2010PropOp49
 70
     1
102
RTVSPost2010Prop50
 90
       50
102
RTVSPost2010PropOp50
 70
     1
102
RTVSPost2010Prop51ColorIndex
 90
      256
102
RTVSPost2010Prop51ColorRGB
 90
-16777216
102
RTVSPost2010PropOp51
 70
     0
102
RTVSPost2010Prop52
140
1.0
102
RTVSPost2010PropOp52
 70
     0
102
RTVSPost2010Prop53
 90
        2
102
RTVSPost2010PropOp53
 70
     1
102
RTVSPost2010Prop54
  1
strokes_ogs.tif
102
RTVSPost2010PropOp54
 70
     1
102
RTVSPost2010Prop55
280
     0
102
RTVSPost2010PropOp55
 70
     1
102
RTVSPost2010Prop56
140
1.0
102
RTVSPost2010PropOp56
 70
     1
102
RTVSPost2010Prop57
140
1.0
102
RTVSPost2010PropOp57
 70
     1
102
RTVSPropertyOp0
 70
     1
102
RTVSPropertyOp1
 70
     1
102
RTVSPropertyOp2
 70
     1
102
RTVSPropertyOp3
 70
     1
102
RTVSPropertyOp4
 70
     1
102
RTVSPropertyOp5
 70
     1
102
RTVSPropertyOp6
 70
     1
102
RTVSPropertyOp7
 70
     1
102
RTVSPropertyOp8
 70
     1
102
RTVSPropertyOp9
 70
     1
102
RTVSPropertyOp10
 70
     1
102
RTVSPropertyOp11
 70
     1
102
RTVSPropertyOp12
 70
     1
102
RTVSPropertyOp13
 70
     1
102
RTVSPropertyOp14
 70
     1
102
RTVSPropertyOp15
 70
     1
102
RTVSPropertyOp16
 70
     1
102
RTVSPropertyOp17
 70
     1
102
RTVSPropertyOp18
 70
     1
102
RTVSPropertyOp19
 70
     1
102
RTVSPropertyOp20
 70
     1
102
RTVSPropertyOp21
 70
     1
102
RTVSPropertyOp22
 70
     1
102
RTVSPropertyOp23
 70
     1
102
RTVSPropertyOp24
 70
     1
102
RTVSPropertyOp25
 70
     1
102
RTVSPropertyOp26
 70
     1
102
RTVSPropertyOp27
 70
     1
102
RTVSPropertyOp28
 70
     1
102
RTVSPropertyOp29
 70
     1
102
RTVSPropertyOp30
 70
     1
102
RTVSPropertyOp31
 70
     1
102
RTVSPropertyOp32
 70
     1
102
RTVSPropertyOp33
 70
     1
102
RTVSPropertyOp34
 70
     1
102
RTVSPropertyOp35
 70
     1
102
RTVSPropertyOp36
 70
     1
102
RTVSPropertyOp37
 70
     1
102
RTVSPropertyOp38
 70
     1
102
RTVSPropertyOp39
 70
     1
102
RTVSPropertyOp40
 70
     1
102
RTVSPropertyOp41
 70
     1
102
RTVSPropertyOp42
 70
     1
102
RTVSPropertyOp43
 70
     1
102
RTVSPropertyOp44
 70
     1
102
RTVSPropertyOp45
 70
     1
102
RTVSPropertyOp46
 70
     1
102
RTVSPropertyOp47
 70
     1
102
RTVSPropertyOp48
 70
     1
102
RTVSPropertyOp49
 70
     1
102
RTVSPropertyOp50
 70
     1
102
RTVSPropertyOp51
 70
     0
102
RTVSPropertyOp52
 70
     0
102
RTVSPropertyOp53
 70
     1
102
RTVSPropertyOp54
 70
     1
102
RTVSPropertyOp55
 70
     1
102
RTVSPropertyOp56
 70
     1
102
RTVSPropertyOp57
 70
     1
102
RTVSPropertyOp58
 70
     1
102
RTVSPropertyOp59
 70
     1
102
RTVSPropertyOp60
 70
     1
102
RTVSPropertyOp61
 70
     1
102
RTVSPropertyOp62
 70
     1
  0
XRECORD
  5
12791
102
{ACAD_REACTORS
330
12790
102
}
330
12790
100
AcDbXrecord
280
     1
102
RTVSPost2010Prop28
280
     0
102
RTVSPost2010PropOp28
 70
     1
102
RTVSPost2010Prop29
280
     1
102
RTVSPost2010PropOp29
 70
     1
102
RTVSPost2010Prop30
280
     1
102
RTVSPost2010PropOp30
 70
     1
102
RTVSPost2010Prop31
280
     0
102
RTVSPost2010PropOp31
 70
     1
102
RTVSPost2010Prop32
280
     0
102
RTVSPost2010PropOp32
 70
     1
102
RTVSPost2010Prop33
280
     0
102
RTVSPost2010PropOp33
 70
     1
102
RTVSPost2010Prop34
280
     0
102
RTVSPost2010PropOp34
 70
     1
102
RTVSPost2010Prop35
280
     0
102
RTVSPost2010PropOp35
 70
     1
102
RTVSPost2010Prop36
280
     0
102
RTVSPost2010PropOp36
 70
     1
102
RTVSPost2010Prop37
 90
       50
102
RTVSPost2010PropOp37
 70
     1
102
RTVSPost2010Prop38
140
0.0
102
RTVSPost2010PropOp38
 70
     1
102
RTVSPost2010Prop39
140
1.0
102
RTVSPost2010PropOp39
 70
     1
102
RTVSPost2010Prop40
 90
        0
102
RTVSPost2010PropOp40
 70
     1
102
RTVSPost2010Prop41ColorIndex
 90
       18
102
RTVSPost2010Prop41ColorRGB
 90
        0
102
RTVSPost2010PropOp41
 70
     1
102
RTVSPost2010Prop42
 90
       50
102
RTVSPost2010PropOp42
 70
     1
102
RTVSPost2010Prop43
 90
        3
102
RTVSPost2010PropOp43
 70
     1
102
RTVSPost2010Prop44ColorIndex
 90
        5
102
RTVSPost2010Prop44ColorRGB
 90
      255
102
RTVSPost2010PropOp44
 70
     1
102
RTVSPost2010Prop45
280
     0
102
RTVSPost2010PropOp45
 70
     1
102
RTVSPost2010Prop46
 90
       50
102
RTVSPost2010PropOp46
 70
     1
102
RTVSPost2010Prop47
 90
       50
102
RTVSPost2010PropOp47
 70
     1
102
RTVSPost2010Prop48
 90
       50
102
RTVSPost2010PropOp48
 70
     1
102
RTVSPost2010Prop49
280
     0
102
RTVSPost2010PropOp49
 70
     1
102
RTVSPost2010Prop50
 90
       50
102
RTVSPost2010PropOp50
 70
     1
102
RTVSPost2010Prop51ColorIndex
 90
      256
102
RTVSPost2010Prop51ColorRGB
 90
-16777216
102
RTVSPost2010PropOp51
 70
     0
102
RTVSPost2010Prop52
140
1.0
102
RTVSPost2010PropOp52
 70
     0
102
RTVSPost2010Prop53
 90
        2
102
RTVSPost2010PropOp53
 70
     1
102
RTVSPost2010Prop54
  1
strokes_ogs.tif
102
RTVSPost2010PropOp54
 70
     1
102
RTVSPost2010Prop55
280
     0
102
RTVSPost2010PropOp55
 70
     1
102
RTVSPost2010Prop56
140
1.0
102
RTVSPost2010PropOp56
 70
     1
102
RTVSPost2010Prop57
140
1.0
102
RTVSPost2010PropOp57
 70
     1
102
RTVSPropertyOp0
 70
     1
102
RTVSPropertyOp1
 70
     1
102
RTVSPropertyOp2
 70
     1
102
RTVSPropertyOp3
 70
     1
102
RTVSPropertyOp4
 70
     1
102
RTVSPropertyOp5
 70
     1
102
RTVSPropertyOp6
 70
     1
102
RTVSPropertyOp7
 70
     1
102
RTVSPropertyOp8
 70
     1
102
RTVSPropertyOp9
 70
     1
102
RTVSPropertyOp10
 70
     1
102
RTVSPropertyOp11
 70
     1
102
RTVSPropertyOp12
 70
     1
102
RTVSPropertyOp13
 70
     1
102
RTVSPropertyOp14
 70
     1
102
RTVSPropertyOp15
 70
     1
102
RTVSPropertyOp16
 70
     1
102
RTVSPropertyOp17
 70
     1
102
RTVSPropertyOp18
 70
     1
102
RTVSPropertyOp19
 70
     1
102
RTVSPropertyOp20
 70
     1
102
RTVSPropertyOp21
 70
     1
102
RTVSPropertyOp22
 70
     1
102
RTVSPropertyOp23
 70
     1
102
RTVSPropertyOp24
 70
     1
102
RTVSPropertyOp25
 70
     1
102
RTVSPropertyOp26
 70
     1
102
RTVSPropertyOp27
 70
     1
102
RTVSPropertyOp28
 70
     1
102
RTVSPropertyOp29
 70
     1
102
RTVSPropertyOp30
 70
     1
102
RTVSPropertyOp31
 70
     1
102
RTVSPropertyOp32
 70
     1
102
RTVSPropertyOp33
 70
     1
102
RTVSPropertyOp34
 70
     1
102
RTVSPropertyOp35
 70
     1
102
RTVSPropertyOp36
 70
     1
102
RTVSPropertyOp37
 70
     1
102
RTVSPropertyOp38
 70
     1
102
RTVSPropertyOp39
 70
     1
102
RTVSPropertyOp40
 70
     1
102
RTVSPropertyOp41
 70
     1
102
RTVSPropertyOp42
 70
     1
102
RTVSPropertyOp43
 70
     1
102
RTVSPropertyOp44
 70
     1
102
RTVSPropertyOp45
 70
     1
102
RTVSPropertyOp46
 70
     1
102
RTVSPropertyOp47
 70
     1
102
RTVSPropertyOp48
 70
     1
102
RTVSPropertyOp49
 70
     1
102
RTVSPropertyOp50
 70
     1
102
RTVSPropertyOp51
 70
     0
102
RTVSPropertyOp52
 70
     0
102
RTVSPropertyOp53
 70
     1
102
RTVSPropertyOp54
 70
     1
102
RTVSPropertyOp55
 70
     1
102
RTVSPropertyOp56
 70
     1
102
RTVSPropertyOp57
 70
     1
102
RTVSPropertyOp58
 70
     1
102
RTVSPropertyOp59
 70
     1
102
RTVSPropertyOp60
 70
     1
102
RTVSPropertyOp61
 70
     1
102
RTVSPropertyOp62
 70
     1
  0
XRECORD
  5
1278D
102
{ACAD_REACTORS
330
1278C
102
}
330
1278C
100
AcDbXrecord
280
     1
102
RTVSPost2010Prop28
280
     0
102
RTVSPost2010PropOp28
 70
     1
102
RTVSPost2010Prop29
280
     1
102
RTVSPost2010PropOp29
 70
     1
102
RTVSPost2010Prop30
280
     1
102
RTVSPost2010PropOp30
 70
     1
102
RTVSPost2010Prop31
280
     0
102
RTVSPost2010PropOp31
 70
     1
102
RTVSPost2010Prop32
280
     0
102
RTVSPost2010PropOp32
 70
     1
102
RTVSPost2010Prop33
280
     0
102
RTVSPost2010PropOp33
 70
     1
102
RTVSPost2010Prop34
280
     0
102
RTVSPost2010PropOp34
 70
     1
102
RTVSPost2010Prop35
280
     0
102
RTVSPost2010PropOp35
 70
     1
102
RTVSPost2010Prop36
280
     0
102
RTVSPost2010PropOp36
 70
     1
102
RTVSPost2010Prop37
 90
       50
102
RTVSPost2010PropOp37
 70
     1
102
RTVSPost2010Prop38
140
0.0
102
RTVSPost2010PropOp38
 70
     1
102
RTVSPost2010Prop39
140
1.0
102
RTVSPost2010PropOp39
 70
     1
102
RTVSPost2010Prop40
 90
        0
102
RTVSPost2010PropOp40
 70
     1
102
RTVSPost2010Prop41ColorIndex
 90
       18
102
RTVSPost2010Prop41ColorRGB
 90
        0
102
RTVSPost2010PropOp41
 70
     1
102
RTVSPost2010Prop42
 90
       50
102
RTVSPost2010PropOp42
 70
     1
102
RTVSPost2010Prop43
 90
        3
102
RTVSPost2010PropOp43
 70
     1
102
RTVSPost2010Prop44ColorIndex
 90
        5
102
RTVSPost2010Prop44ColorRGB
 90
      255
102
RTVSPost2010PropOp44
 70
     1
102
RTVSPost2010Prop45
280
     0
102
RTVSPost2010PropOp45
 70
     1
102
RTVSPost2010Prop46
 90
       50
102
RTVSPost2010PropOp46
 70
     1
102
RTVSPost2010Prop47
 90
       50
102
RTVSPost2010PropOp47
 70
     1
102
RTVSPost2010Prop48
 90
       50
102
RTVSPost2010PropOp48
 70
     1
102
RTVSPost2010Prop49
280
     0
102
RTVSPost2010PropOp49
 70
     1
102
RTVSPost2010Prop50
 90
       50
102
RTVSPost2010PropOp50
 70
     1
102
RTVSPost2010Prop51ColorIndex
 90
      256
102
RTVSPost2010Prop51ColorRGB
 90
-16777216
102
RTVSPost2010PropOp51
 70
     0
102
RTVSPost2010Prop52
140
1.0
102
RTVSPost2010PropOp52
 70
     0
102
RTVSPost2010Prop53
 90
        2
102
RTVSPost2010PropOp53
 70
     1
102
RTVSPost2010Prop54
  1
strokes_ogs.tif
102
RTVSPost2010PropOp54
 70
     1
102
RTVSPost2010Prop55
280
     0
102
RTVSPost2010PropOp55
 70
     1
102
RTVSPost2010Prop56
140
1.0
102
RTVSPost2010PropOp56
 70
     1
102
RTVSPost2010Prop57
140
1.0
102
RTVSPost2010PropOp57
 70
     1
102
RTVSPropertyOp0
 70
     1
102
RTVSPropertyOp1
 70
     1
102
RTVSPropertyOp2
 70
     1
102
RTVSPropertyOp3
 70
     1
102
RTVSPropertyOp4
 70
     1
102
RTVSPropertyOp5
 70
     1
102
RTVSPropertyOp6
 70
     1
102
RTVSPropertyOp7
 70
     1
102
RTVSPropertyOp8
 70
     1
102
RTVSPropertyOp9
 70
     1
102
RTVSPropertyOp10
 70
     1
102
RTVSPropertyOp11
 70
     1
102
RTVSPropertyOp12
 70
     1
102
RTVSPropertyOp13
 70
     1
102
RTVSPropertyOp14
 70
     1
102
RTVSPropertyOp15
 70
     1
102
RTVSPropertyOp16
 70
     1
102
RTVSPropertyOp17
 70
     1
102
RTVSPropertyOp18
 70
     1
102
RTVSPropertyOp19
 70
     1
102
RTVSPropertyOp20
 70
     1
102
RTVSPropertyOp21
 70
     1
102
RTVSPropertyOp22
 70
     1
102
RTVSPropertyOp23
 70
     1
102
RTVSPropertyOp24
 70
     1
102
RTVSPropertyOp25
 70
     1
102
RTVSPropertyOp26
 70
     1
102
RTVSPropertyOp27
 70
     1
102
RTVSPropertyOp28
 70
     1
102
RTVSPropertyOp29
 70
     1
102
RTVSPropertyOp30
 70
     1
102
RTVSPropertyOp31
 70
     1
102
RTVSPropertyOp32
 70
     1
102
RTVSPropertyOp33
 70
     1
102
RTVSPropertyOp34
 70
     1
102
RTVSPropertyOp35
 70
     1
102
RTVSPropertyOp36
 70
     1
102
RTVSPropertyOp37
 70
     1
102
RTVSPropertyOp38
 70
     1
102
RTVSPropertyOp39
 70
     1
102
RTVSPropertyOp40
 70
     1
102
RTVSPropertyOp41
 70
     1
102
RTVSPropertyOp42
 70
     1
102
RTVSPropertyOp43
 70
     1
102
RTVSPropertyOp44
 70
     1
102
RTVSPropertyOp45
 70
     1
102
RTVSPropertyOp46
 70
     1
102
RTVSPropertyOp47
 70
     1
102
RTVSPropertyOp48
 70
     1
102
RTVSPropertyOp49
 70
     1
102
RTVSPropertyOp50
 70
     1
102
RTVSPropertyOp51
 70
     0
102
RTVSPropertyOp52
 70
     0
102
RTVSPropertyOp53
 70
     1
102
RTVSPropertyOp54
 70
     1
102
RTVSPropertyOp55
 70
     1
102
RTVSPropertyOp56
 70
     1
102
RTVSPropertyOp57
 70
     1
102
RTVSPropertyOp58
 70
     1
102
RTVSPropertyOp59
 70
     1
102
RTVSPropertyOp60
 70
     1
102
RTVSPropertyOp61
 70
     1
102
RTVSPropertyOp62
 70
     1
  0
XRECORD
  5
1279B
102
{ACAD_REACTORS
330
1279A
102
}
330
1279A
100
AcDbXrecord
280
     1
102
RTVSPost2010Prop28
280
     0
102
RTVSPost2010PropOp28
 70
     1
102
RTVSPost2010Prop29
280
     1
102
RTVSPost2010PropOp29
 70
     1
102
RTVSPost2010Prop30
280
     1
102
RTVSPost2010PropOp30
 70
     1
102
RTVSPost2010Prop31
280
     0
102
RTVSPost2010PropOp31
 70
     1
102
RTVSPost2010Prop32
280
     0
102
RTVSPost2010PropOp32
 70
     1
102
RTVSPost2010Prop33
280
     0
102
RTVSPost2010PropOp33
 70
     1
102
RTVSPost2010Prop34
280
     0
102
RTVSPost2010PropOp34
 70
     1
102
RTVSPost2010Prop35
280
     0
102
RTVSPost2010PropOp35
 70
     1
102
RTVSPost2010Prop36
280
     0
102
RTVSPost2010PropOp36
 70
     1
102
RTVSPost2010Prop37
 90
       50
102
RTVSPost2010PropOp37
 70
     1
102
RTVSPost2010Prop38
140
0.0
102
RTVSPost2010PropOp38
 70
     1
102
RTVSPost2010Prop39
140
1.0
102
RTVSPost2010PropOp39
 70
     1
102
RTVSPost2010Prop40
 90
        0
102
RTVSPost2010PropOp40
 70
     1
102
RTVSPost2010Prop41ColorIndex
 90
       18
102
RTVSPost2010Prop41ColorRGB
 90
        0
102
RTVSPost2010PropOp41
 70
     1
102
RTVSPost2010Prop42
 90
       50
102
RTVSPost2010PropOp42
 70
     1
102
RTVSPost2010Prop43
 90
        3
102
RTVSPost2010PropOp43
 70
     1
102
RTVSPost2010Prop44ColorIndex
 90
        5
102
RTVSPost2010Prop44ColorRGB
 90
      255
102
RTVSPost2010PropOp44
 70
     1
102
RTVSPost2010Prop45
280
     0
102
RTVSPost2010PropOp45
 70
     1
102
RTVSPost2010Prop46
 90
       50
102
RTVSPost2010PropOp46
 70
     1
102
RTVSPost2010Prop47
 90
       50
102
RTVSPost2010PropOp47
 70
     1
102
RTVSPost2010Prop48
 90
       50
102
RTVSPost2010PropOp48
 70
     1
102
RTVSPost2010Prop49
280
     0
102
RTVSPost2010PropOp49
 70
     1
102
RTVSPost2010Prop50
 90
       50
102
RTVSPost2010PropOp50
 70
     1
102
RTVSPost2010Prop51ColorIndex
 90
      256
102
RTVSPost2010Prop51ColorRGB
 90
-16777216
102
RTVSPost2010PropOp51
 70
     0
102
RTVSPost2010Prop52
140
1.0
102
RTVSPost2010PropOp52
 70
     0
102
RTVSPost2010Prop53
 90
        2
102
RTVSPost2010PropOp53
 70
     1
102
RTVSPost2010Prop54
  1
strokes_ogs.tif
102
RTVSPost2010PropOp54
 70
     1
102
RTVSPost2010Prop55
280
     0
102
RTVSPost2010PropOp55
 70
     1
102
RTVSPost2010Prop56
140
1.0
102
RTVSPost2010PropOp56
 70
     1
102
RTVSPost2010Prop57
140
1.0
102
RTVSPost2010PropOp57
 70
     1
102
RTVSPropertyOp0
 70
     1
102
RTVSPropertyOp1
 70
     1
102
RTVSPropertyOp2
 70
     1
102
RTVSPropertyOp3
 70
     1
102
RTVSPropertyOp4
 70
     1
102
RTVSPropertyOp5
 70
     1
102
RTVSPropertyOp6
 70
     1
102
RTVSPropertyOp7
 70
     1
102
RTVSPropertyOp8
 70
     1
102
RTVSPropertyOp9
 70
     1
102
RTVSPropertyOp10
 70
     1
102
RTVSPropertyOp11
 70
     1
102
RTVSPropertyOp12
 70
     1
102
RTVSPropertyOp13
 70
     1
102
RTVSPropertyOp14
 70
     1
102
RTVSPropertyOp15
 70
     1
102
RTVSPropertyOp16
 70
     1
102
RTVSPropertyOp17
 70
     1
102
RTVSPropertyOp18
 70
     1
102
RTVSPropertyOp19
 70
     1
102
RTVSPropertyOp20
 70
     1
102
RTVSPropertyOp21
 70
     1
102
RTVSPropertyOp22
 70
     1
102
RTVSPropertyOp23
 70
     1
102
RTVSPropertyOp24
 70
     1
102
RTVSPropertyOp25
 70
     1
102
RTVSPropertyOp26
 70
     1
102
RTVSPropertyOp27
 70
     1
102
RTVSPropertyOp28
 70
     1
102
RTVSPropertyOp29
 70
     1
102
RTVSPropertyOp30
 70
     1
102
RTVSPropertyOp31
 70
     1
102
RTVSPropertyOp32
 70
     1
102
RTVSPropertyOp33
 70
     1
102
RTVSPropertyOp34
 70
     1
102
RTVSPropertyOp35
 70
     1
102
RTVSPropertyOp36
 70
     1
102
RTVSPropertyOp37
 70
     1
102
RTVSPropertyOp38
 70
     1
102
RTVSPropertyOp39
 70
     1
102
RTVSPropertyOp40
 70
     1
102
RTVSPropertyOp41
 70
     1
102
RTVSPropertyOp42
 70
     1
102
RTVSPropertyOp43
 70
     1
102
RTVSPropertyOp44
 70
     1
102
RTVSPropertyOp45
 70
     1
102
RTVSPropertyOp46
 70
     1
102
RTVSPropertyOp47
 70
     1
102
RTVSPropertyOp48
 70
     1
102
RTVSPropertyOp49
 70
     1
102
RTVSPropertyOp50
 70
     1
102
RTVSPropertyOp51
 70
     0
102
RTVSPropertyOp52
 70
     0
102
RTVSPropertyOp53
 70
     1
102
RTVSPropertyOp54
 70
     1
102
RTVSPropertyOp55
 70
     1
102
RTVSPropertyOp56
 70
     1
102
RTVSPropertyOp57
 70
     1
102
RTVSPropertyOp58
 70
     1
102
RTVSPropertyOp59
 70
     1
102
RTVSPropertyOp60
 70
     1
102
RTVSPropertyOp61
 70
     1
102
RTVSPropertyOp62
 70
     1
  0
XRECORD
  5
127A3
102
{ACAD_REACTORS
330
127A2
102
}
330
127A2
100
AcDbXrecord
280
     1
102
RTVSPost2010Prop28
280
     0
102
RTVSPost2010PropOp28
 70
     1
102
RTVSPost2010Prop29
280
     1
102
RTVSPost2010PropOp29
 70
     1
102
RTVSPost2010Prop30
280
     1
102
RTVSPost2010PropOp30
 70
     1
102
RTVSPost2010Prop31
280
     0
102
RTVSPost2010PropOp31
 70
     1
102
RTVSPost2010Prop32
280
     0
102
RTVSPost2010PropOp32
 70
     1
102
RTVSPost2010Prop33
280
     0
102
RTVSPost2010PropOp33
 70
     1
102
RTVSPost2010Prop34
280
     0
102
RTVSPost2010PropOp34
 70
     1
102
RTVSPost2010Prop35
280
     0
102
RTVSPost2010PropOp35
 70
     1
102
RTVSPost2010Prop36
280
     0
102
RTVSPost2010PropOp36
 70
     1
102
RTVSPost2010Prop37
 90
       50
102
RTVSPost2010PropOp37
 70
     1
102
RTVSPost2010Prop38
140
0.0
102
RTVSPost2010PropOp38
 70
     1
102
RTVSPost2010Prop39
140
1.0
102
RTVSPost2010PropOp39
 70
     1
102
RTVSPost2010Prop40
 90
        0
102
RTVSPost2010PropOp40
 70
     1
102
RTVSPost2010Prop41ColorIndex
 90
       18
102
RTVSPost2010Prop41ColorRGB
 90
        0
102
RTVSPost2010PropOp41
 70
     1
102
RTVSPost2010Prop42
 90
       50
102
RTVSPost2010PropOp42
 70
     1
102
RTVSPost2010Prop43
 90
        3
102
RTVSPost2010PropOp43
 70
     1
102
RTVSPost2010Prop44ColorIndex
 90
        5
102
RTVSPost2010Prop44ColorRGB
 90
      255
102
RTVSPost2010PropOp44
 70
     1
102
RTVSPost2010Prop45
280
     0
102
RTVSPost2010PropOp45
 70
     1
102
RTVSPost2010Prop46
 90
       50
102
RTVSPost2010PropOp46
 70
     1
102
RTVSPost2010Prop47
 90
       50
102
RTVSPost2010PropOp47
 70
     1
102
RTVSPost2010Prop48
 90
       50
102
RTVSPost2010PropOp48
 70
     1
102
RTVSPost2010Prop49
280
     0
102
RTVSPost2010PropOp49
 70
     1
102
RTVSPost2010Prop50
 90
       50
102
RTVSPost2010PropOp50
 70
     1
102
RTVSPost2010Prop51ColorIndex
 90
      256
102
RTVSPost2010Prop51ColorRGB
 90
-16777216
102
RTVSPost2010PropOp51
 70
     0
102
RTVSPost2010Prop52
140
1.0
102
RTVSPost2010PropOp52
 70
     0
102
RTVSPost2010Prop53
 90
        2
102
RTVSPost2010PropOp53
 70
     1
102
RTVSPost2010Prop54
  1
strokes_ogs.tif
102
RTVSPost2010PropOp54
 70
     1
102
RTVSPost2010Prop55
280
     0
102
RTVSPost2010PropOp55
 70
     1
102
RTVSPost2010Prop56
140
1.0
102
RTVSPost2010PropOp56
 70
     1
102
RTVSPost2010Prop57
140
1.0
102
RTVSPost2010PropOp57
 70
     1
102
RTVSPropertyOp0
 70
     1
102
RTVSPropertyOp1
 70
     1
102
RTVSPropertyOp2
 70
     1
102
RTVSPropertyOp3
 70
     1
102
RTVSPropertyOp4
 70
     1
102
RTVSPropertyOp5
 70
     1
102
RTVSPropertyOp6
 70
     1
102
RTVSPropertyOp7
 70
     1
102
RTVSPropertyOp8
 70
     1
102
RTVSPropertyOp9
 70
     1
102
RTVSPropertyOp10
 70
     1
102
RTVSPropertyOp11
 70
     1
102
RTVSPropertyOp12
 70
     1
102
RTVSPropertyOp13
 70
     1
102
RTVSPropertyOp14
 70
     1
102
RTVSPropertyOp15
 70
     1
102
RTVSPropertyOp16
 70
     1
102
RTVSPropertyOp17
 70
     1
102
RTVSPropertyOp18
 70
     1
102
RTVSPropertyOp19
 70
     1
102
RTVSPropertyOp20
 70
     1
102
RTVSPropertyOp21
 70
     1
102
RTVSPropertyOp22
 70
     1
102
RTVSPropertyOp23
 70
     1
102
RTVSPropertyOp24
 70
     1
102
RTVSPropertyOp25
 70
     1
102
RTVSPropertyOp26
 70
     1
102
RTVSPropertyOp27
 70
     1
102
RTVSPropertyOp28
 70
     1
102
RTVSPropertyOp29
 70
     1
102
RTVSPropertyOp30
 70
     1
102
RTVSPropertyOp31
 70
     1
102
RTVSPropertyOp32
 70
     1
102
RTVSPropertyOp33
 70
     1
102
RTVSPropertyOp34
 70
     1
102
RTVSPropertyOp35
 70
     1
102
RTVSPropertyOp36
 70
     1
102
RTVSPropertyOp37
 70
     1
102
RTVSPropertyOp38
 70
     1
102
RTVSPropertyOp39
 70
     1
102
RTVSPropertyOp40
 70
     1
102
RTVSPropertyOp41
 70
     1
102
RTVSPropertyOp42
 70
     1
102
RTVSPropertyOp43
 70
     1
102
RTVSPropertyOp44
 70
     1
102
RTVSPropertyOp45
 70
     1
102
RTVSPropertyOp46
 70
     1
102
RTVSPropertyOp47
 70
     1
102
RTVSPropertyOp48
 70
     1
102
RTVSPropertyOp49
 70
     1
102
RTVSPropertyOp50
 70
     1
102
RTVSPropertyOp51
 70
     0
102
RTVSPropertyOp52
 70
     0
102
RTVSPropertyOp53
 70
     1
102
RTVSPropertyOp54
 70
     1
102
RTVSPropertyOp55
 70
     1
102
RTVSPropertyOp56
 70
     1
102
RTVSPropertyOp57
 70
     1
102
RTVSPropertyOp58
 70
     1
102
RTVSPropertyOp59
 70
     1
102
RTVSPropertyOp60
 70
     1
102
RTVSPropertyOp61
 70
     1
102
RTVSPropertyOp62
 70
     1
  0
XRECORD
  5
12795
102
{ACAD_REACTORS
330
12794
102
}
330
12794
100
AcDbXrecord
280
     1
102
RTVSPost2010Prop28
280
     0
102
RTVSPost2010PropOp28
 70
     1
102
RTVSPost2010Prop29
280
     1
102
RTVSPost2010PropOp29
 70
     1
102
RTVSPost2010Prop30
280
     1
102
RTVSPost2010PropOp30
 70
     1
102
RTVSPost2010Prop31
280
     0
102
RTVSPost2010PropOp31
 70
     1
102
RTVSPost2010Prop32
280
     0
102
RTVSPost2010PropOp32
 70
     1
102
RTVSPost2010Prop33
280
     0
102
RTVSPost2010PropOp33
 70
     1
102
RTVSPost2010Prop34
280
     0
102
RTVSPost2010PropOp34
 70
     1
102
RTVSPost2010Prop35
280
     0
102
RTVSPost2010PropOp35
 70
     1
102
RTVSPost2010Prop36
280
     0
102
RTVSPost2010PropOp36
 70
     1
102
RTVSPost2010Prop37
 90
       50
102
RTVSPost2010PropOp37
 70
     1
102
RTVSPost2010Prop38
140
0.0
102
RTVSPost2010PropOp38
 70
     1
102
RTVSPost2010Prop39
140
1.0
102
RTVSPost2010PropOp39
 70
     1
102
RTVSPost2010Prop40
 90
        0
102
RTVSPost2010PropOp40
 70
     1
102
RTVSPost2010Prop41ColorIndex
 90
       18
102
RTVSPost2010Prop41ColorRGB
 90
        0
102
RTVSPost2010PropOp41
 70
     1
102
RTVSPost2010Prop42
 90
       50
102
RTVSPost2010PropOp42
 70
     1
102
RTVSPost2010Prop43
 90
        3
102
RTVSPost2010PropOp43
 70
     1
102
RTVSPost2010Prop44ColorIndex
 90
        5
102
RTVSPost2010Prop44ColorRGB
 90
      255
102
RTVSPost2010PropOp44
 70
     1
102
RTVSPost2010Prop45
280
     0
102
RTVSPost2010PropOp45
 70
     1
102
RTVSPost2010Prop46
 90
       50
102
RTVSPost2010PropOp46
 70
     1
102
RTVSPost2010Prop47
 90
       50
102
RTVSPost2010PropOp47
 70
     1
102
RTVSPost2010Prop48
 90
       50
102
RTVSPost2010PropOp48
 70
     1
102
RTVSPost2010Prop49
280
     0
102
RTVSPost2010PropOp49
 70
     1
102
RTVSPost2010Prop50
 90
       50
102
RTVSPost2010PropOp50
 70
     1
102
RTVSPost2010Prop51ColorIndex
 90
      256
102
RTVSPost2010Prop51ColorRGB
 90
-16777216
102
RTVSPost2010PropOp51
 70
     0
102
RTVSPost2010Prop52
140
1.0
102
RTVSPost2010PropOp52
 70
     0
102
RTVSPost2010Prop53
 90
        2
102
RTVSPost2010PropOp53
 70
     1
102
RTVSPost2010Prop54
  1
strokes_ogs.tif
102
RTVSPost2010PropOp54
 70
     1
102
RTVSPost2010Prop55
280
     0
102
RTVSPost2010PropOp55
 70
     1
102
RTVSPost2010Prop56
140
1.0
102
RTVSPost2010PropOp56
 70
     1
102
RTVSPost2010Prop57
140
1.0
102
RTVSPost2010PropOp57
 70
     1
102
RTVSPropertyOp0
 70
     1
102
RTVSPropertyOp1
 70
     1
102
RTVSPropertyOp2
 70
     1
102
RTVSPropertyOp3
 70
     1
102
RTVSPropertyOp4
 70
     1
102
RTVSPropertyOp5
 70
     1
102
RTVSPropertyOp6
 70
     1
102
RTVSPropertyOp7
 70
     1
102
RTVSPropertyOp8
 70
     1
102
RTVSPropertyOp9
 70
     1
102
RTVSPropertyOp10
 70
     1
102
RTVSPropertyOp11
 70
     1
102
RTVSPropertyOp12
 70
     1
102
RTVSPropertyOp13
 70
     1
102
RTVSPropertyOp14
 70
     1
102
RTVSPropertyOp15
 70
     1
102
RTVSPropertyOp16
 70
     1
102
RTVSPropertyOp17
 70
     1
102
RTVSPropertyOp18
 70
     1
102
RTVSPropertyOp19
 70
     1
102
RTVSPropertyOp20
 70
     1
102
RTVSPropertyOp21
 70
     1
102
RTVSPropertyOp22
 70
     1
102
RTVSPropertyOp23
 70
     1
102
RTVSPropertyOp24
 70
     1
102
RTVSPropertyOp25
 70
     1
102
RTVSPropertyOp26
 70
     1
102
RTVSPropertyOp27
 70
     1
102
RTVSPropertyOp28
 70
     1
102
RTVSPropertyOp29
 70
     1
102
RTVSPropertyOp30
 70
     1
102
RTVSPropertyOp31
 70
     1
102
RTVSPropertyOp32
 70
     1
102
RTVSPropertyOp33
 70
     1
102
RTVSPropertyOp34
 70
     1
102
RTVSPropertyOp35
 70
     1
102
RTVSPropertyOp36
 70
     1
102
RTVSPropertyOp37
 70
     1
102
RTVSPropertyOp38
 70
     1
102
RTVSPropertyOp39
 70
     1
102
RTVSPropertyOp40
 70
     1
102
RTVSPropertyOp41
 70
     1
102
RTVSPropertyOp42
 70
     1
102
RTVSPropertyOp43
 70
     1
102
RTVSPropertyOp44
 70
     1
102
RTVSPropertyOp45
 70
     1
102
RTVSPropertyOp46
 70
     1
102
RTVSPropertyOp47
 70
     1
102
RTVSPropertyOp48
 70
     1
102
RTVSPropertyOp49
 70
     1
102
RTVSPropertyOp50
 70
     1
102
RTVSPropertyOp51
 70
     0
102
RTVSPropertyOp52
 70
     0
102
RTVSPropertyOp53
 70
     1
102
RTVSPropertyOp54
 70
     1
102
RTVSPropertyOp55
 70
     1
102
RTVSPropertyOp56
 70
     1
102
RTVSPropertyOp57
 70
     1
102
RTVSPropertyOp58
 70
     1
102
RTVSPropertyOp59
 70
     1
102
RTVSPropertyOp60
 70
     1
102
RTVSPropertyOp61
 70
     1
102
RTVSPropertyOp62
 70
     1
  0
XRECORD
  5
12799
102
{ACAD_REACTORS
330
12798
102
}
330
12798
100
AcDbXrecord
280
     1
102
RTVSPost2010Prop28
280
     0
102
RTVSPost2010PropOp28
 70
     1
102
RTVSPost2010Prop29
280
     1
102
RTVSPost2010PropOp29
 70
     1
102
RTVSPost2010Prop30
280
     1
102
RTVSPost2010PropOp30
 70
     1
102
RTVSPost2010Prop31
280
     0
102
RTVSPost2010PropOp31
 70
     1
102
RTVSPost2010Prop32
280
     0
102
RTVSPost2010PropOp32
 70
     1
102
RTVSPost2010Prop33
280
     0
102
RTVSPost2010PropOp33
 70
     1
102
RTVSPost2010Prop34
280
     0
102
RTVSPost2010PropOp34
 70
     1
102
RTVSPost2010Prop35
280
     0
102
RTVSPost2010PropOp35
 70
     1
102
RTVSPost2010Prop36
280
     0
102
RTVSPost2010PropOp36
 70
     1
102
RTVSPost2010Prop37
 90
       50
102
RTVSPost2010PropOp37
 70
     1
102
RTVSPost2010Prop38
140
0.0
102
RTVSPost2010PropOp38
 70
     1
102
RTVSPost2010Prop39
140
1.0
102
RTVSPost2010PropOp39
 70
     1
102
RTVSPost2010Prop40
 90
        0
102
RTVSPost2010PropOp40
 70
     1
102
RTVSPost2010Prop41ColorIndex
 90
       18
102
RTVSPost2010Prop41ColorRGB
 90
        0
102
RTVSPost2010PropOp41
 70
     1
102
RTVSPost2010Prop42
 90
       50
102
RTVSPost2010PropOp42
 70
     1
102
RTVSPost2010Prop43
 90
        3
102
RTVSPost2010PropOp43
 70
     1
102
RTVSPost2010Prop44ColorIndex
 90
        5
102
RTVSPost2010Prop44ColorRGB
 90
      255
102
RTVSPost2010PropOp44
 70
     1
102
RTVSPost2010Prop45
280
     0
102
RTVSPost2010PropOp45
 70
     1
102
RTVSPost2010Prop46
 90
       50
102
RTVSPost2010PropOp46
 70
     1
102
RTVSPost2010Prop47
 90
       50
102
RTVSPost2010PropOp47
 70
     1
102
RTVSPost2010Prop48
 90
       50
102
RTVSPost2010PropOp48
 70
     1
102
RTVSPost2010Prop49
280
     0
102
RTVSPost2010PropOp49
 70
     1
102
RTVSPost2010Prop50
 90
       50
102
RTVSPost2010PropOp50
 70
     1
102
RTVSPost2010Prop51ColorIndex
 90
      256
102
RTVSPost2010Prop51ColorRGB
 90
-16777216
102
RTVSPost2010PropOp51
 70
     0
102
RTVSPost2010Prop52
140
1.0
102
RTVSPost2010PropOp52
 70
     0
102
RTVSPost2010Prop53
 90
        2
102
RTVSPost2010PropOp53
 70
     1
102
RTVSPost2010Prop54
  1
strokes_ogs.tif
102
RTVSPost2010PropOp54
 70
     1
102
RTVSPost2010Prop55
280
     0
102
RTVSPost2010PropOp55
 70
     1
102
RTVSPost2010Prop56
140
1.0
102
RTVSPost2010PropOp56
 70
     1
102
RTVSPost2010Prop57
140
1.0
102
RTVSPost2010PropOp57
 70
     1
102
RTVSPropertyOp0
 70
     1
102
RTVSPropertyOp1
 70
     1
102
RTVSPropertyOp2
 70
     1
102
RTVSPropertyOp3
 70
     1
102
RTVSPropertyOp4
 70
     1
102
RTVSPropertyOp5
 70
     1
102
RTVSPropertyOp6
 70
     1
102
RTVSPropertyOp7
 70
     1
102
RTVSPropertyOp8
 70
     1
102
RTVSPropertyOp9
 70
     1
102
RTVSPropertyOp10
 70
     1
102
RTVSPropertyOp11
 70
     1
102
RTVSPropertyOp12
 70
     1
102
RTVSPropertyOp13
 70
     1
102
RTVSPropertyOp14
 70
     1
102
RTVSPropertyOp15
 70
     1
102
RTVSPropertyOp16
 70
     1
102
RTVSPropertyOp17
 70
     1
102
RTVSPropertyOp18
 70
     1
102
RTVSPropertyOp19
 70
     1
102
RTVSPropertyOp20
 70
     1
102
RTVSPropertyOp21
 70
     1
102
RTVSPropertyOp22
 70
     1
102
RTVSPropertyOp23
 70
     1
102
RTVSPropertyOp24
 70
     1
102
RTVSPropertyOp25
 70
     1
102
RTVSPropertyOp26
 70
     1
102
RTVSPropertyOp27
 70
     1
102
RTVSPropertyOp28
 70
     1
102
RTVSPropertyOp29
 70
     1
102
RTVSPropertyOp30
 70
     1
102
RTVSPropertyOp31
 70
     1
102
RTVSPropertyOp32
 70
     1
102
RTVSPropertyOp33
 70
     1
102
RTVSPropertyOp34
 70
     1
102
RTVSPropertyOp35
 70
     1
102
RTVSPropertyOp36
 70
     1
102
RTVSPropertyOp37
 70
     1
102
RTVSPropertyOp38
 70
     1
102
RTVSPropertyOp39
 70
     1
102
RTVSPropertyOp40
 70
     1
102
RTVSPropertyOp41
 70
     1
102
RTVSPropertyOp42
 70
     1
102
RTVSPropertyOp43
 70
     1
102
RTVSPropertyOp44
 70
     1
102
RTVSPropertyOp45
 70
     1
102
RTVSPropertyOp46
 70
     1
102
RTVSPropertyOp47
 70
     1
102
RTVSPropertyOp48
 70
     1
102
RTVSPropertyOp49
 70
     1
102
RTVSPropertyOp50
 70
     1
102
RTVSPropertyOp51
 70
     0
102
RTVSPropertyOp52
 70
     0
102
RTVSPropertyOp53
 70
     1
102
RTVSPropertyOp54
 70
     1
102
RTVSPropertyOp55
 70
     1
102
RTVSPropertyOp56
 70
     1
102
RTVSPropertyOp57
 70
     1
102
RTVSPropertyOp58
 70
     1
102
RTVSPropertyOp59
 70
     1
102
RTVSPropertyOp60
 70
     1
102
RTVSPropertyOp61
 70
     1
102
RTVSPropertyOp62
 70
     1
  0
XRECORD
  5
127A9
102
{ACAD_REACTORS
330
127A8
102
}
330
127A8
100
AcDbXrecord
280
     1
102
RTVSPost2010Prop28
280
     0
102
RTVSPost2010PropOp28
 70
     1
102
RTVSPost2010Prop29
280
     1
102
RTVSPost2010PropOp29
 70
     1
102
RTVSPost2010Prop30
280
     1
102
RTVSPost2010PropOp30
 70
     1
102
RTVSPost2010Prop31
280
     0
102
RTVSPost2010PropOp31
 70
     1
102
RTVSPost2010Prop32
280
     0
102
RTVSPost2010PropOp32
 70
     1
102
RTVSPost2010Prop33
280
     0
102
RTVSPost2010PropOp33
 70
     1
102
RTVSPost2010Prop34
280
     0
102
RTVSPost2010PropOp34
 70
     1
102
RTVSPost2010Prop35
280
     0
102
RTVSPost2010PropOp35
 70
     1
102
RTVSPost2010Prop36
280
     0
102
RTVSPost2010PropOp36
 70
     1
102
RTVSPost2010Prop37
 90
       50
102
RTVSPost2010PropOp37
 70
     1
102
RTVSPost2010Prop38
140
0.0
102
RTVSPost2010PropOp38
 70
     1
102
RTVSPost2010Prop39
140
1.0
102
RTVSPost2010PropOp39
 70
     1
102
RTVSPost2010Prop40
 90
        0
102
RTVSPost2010PropOp40
 70
     1
102
RTVSPost2010Prop41ColorIndex
 90
       18
102
RTVSPost2010Prop41ColorRGB
 90
        0
102
RTVSPost2010PropOp41
 70
     1
102
RTVSPost2010Prop42
 90
       50
102
RTVSPost2010PropOp42
 70
     1
102
RTVSPost2010Prop43
 90
        3
102
RTVSPost2010PropOp43
 70
     1
102
RTVSPost2010Prop44ColorIndex
 90
        5
102
RTVSPost2010Prop44ColorRGB
 90
      255
102
RTVSPost2010PropOp44
 70
     1
102
RTVSPost2010Prop45
280
     0
102
RTVSPost2010PropOp45
 70
     1
102
RTVSPost2010Prop46
 90
       50
102
RTVSPost2010PropOp46
 70
     1
102
RTVSPost2010Prop47
 90
       50
102
RTVSPost2010PropOp47
 70
     1
102
RTVSPost2010Prop48
 90
       50
102
RTVSPost2010PropOp48
 70
     1
102
RTVSPost2010Prop49
280
     0
102
RTVSPost2010PropOp49
 70
     1
102
RTVSPost2010Prop50
 90
       50
102
RTVSPost2010PropOp50
 70
     1
102
RTVSPost2010Prop51ColorIndex
 90
      256
102
RTVSPost2010Prop51ColorRGB
 90
-16777216
102
RTVSPost2010PropOp51
 70
     0
102
RTVSPost2010Prop52
140
1.0
102
RTVSPost2010PropOp52
 70
     0
102
RTVSPost2010Prop53
 90
        2
102
RTVSPost2010PropOp53
 70
     1
102
RTVSPost2010Prop54
  1
strokes_ogs.tif
102
RTVSPost2010PropOp54
 70
     1
102
RTVSPost2010Prop55
280
     0
102
RTVSPost2010PropOp55
 70
     1
102
RTVSPost2010Prop56
140
1.0
102
RTVSPost2010PropOp56
 70
     1
102
RTVSPost2010Prop57
140
1.0
102
RTVSPost2010PropOp57
 70
     1
102
RTVSPropertyOp0
 70
     0
102
RTVSPropertyOp1
 70
     0
102
RTVSPropertyOp2
 70
     0
102
RTVSPropertyOp3
 70
     0
102
RTVSPropertyOp4
 70
     0
102
RTVSPropertyOp5
 70
     0
102
RTVSPropertyOp6
 70
     0
102
RTVSPropertyOp7
 70
     0
102
RTVSPropertyOp8
 70
     0
102
RTVSPropertyOp9
 70
     0
102
RTVSPropertyOp10
 70
     0
102
RTVSPropertyOp11
 70
     0
102
RTVSPropertyOp12
 70
     0
102
RTVSPropertyOp13
 70
     0
102
RTVSPropertyOp14
 70
     2
102
RTVSPropertyOp15
 70
     0
102
RTVSPropertyOp16
 70
     0
102
RTVSPropertyOp17
 70
     0
102
RTVSPropertyOp18
 70
     0
102
RTVSPropertyOp19
 70
     0
102
RTVSPropertyOp20
 70
     0
102
RTVSPropertyOp21
 70
     0
102
RTVSPropertyOp22
 70
     0
102
RTVSPropertyOp23
 70
     0
102
RTVSPropertyOp24
 70
     0
102
RTVSPropertyOp25
 70
     0
102
RTVSPropertyOp26
 70
     0
102
RTVSPropertyOp27
 70
     0
102
RTVSPropertyOp28
 70
     1
102
RTVSPropertyOp29
 70
     1
102
RTVSPropertyOp30
 70
     1
102
RTVSPropertyOp31
 70
     1
102
RTVSPropertyOp32
 70
     1
102
RTVSPropertyOp33
 70
     1
102
RTVSPropertyOp34
 70
     1
102
RTVSPropertyOp35
 70
     1
102
RTVSPropertyOp36
 70
     1
102
RTVSPropertyOp37
 70
     1
102
RTVSPropertyOp38
 70
     1
102
RTVSPropertyOp39
 70
     1
102
RTVSPropertyOp40
 70
     1
102
RTVSPropertyOp41
 70
     1
102
RTVSPropertyOp42
 70
     1
102
RTVSPropertyOp43
 70
     1
102
RTVSPropertyOp44
 70
     1
102
RTVSPropertyOp45
 70
     1
102
RTVSPropertyOp46
 70
     1
102
RTVSPropertyOp47
 70
     1
102
RTVSPropertyOp48
 70
     1
102
RTVSPropertyOp49
 70
     1
102
RTVSPropertyOp50
 70
     1
102
RTVSPropertyOp51
 70
     0
102
RTVSPropertyOp52
 70
     0
102
RTVSPropertyOp53
 70
     1
102
RTVSPropertyOp54
 70
     1
102
RTVSPropertyOp55
 70
     1
102
RTVSPropertyOp56
 70
     1
102
RTVSPropertyOp57
 70
     1
102
RTVSPropertyOp58
 70
     1
102
RTVSPropertyOp59
 70
     1
102
RTVSPropertyOp60
 70
     1
102
RTVSPropertyOp61
 70
     1
102
RTVSPropertyOp62
 70
     1
  0
XRECORD
  5
127A1
102
{ACAD_REACTORS
330
127A0
102
}
330
127A0
100
AcDbXrecord
280
     1
102
RTVSPost2010Prop28
280
     0
102
RTVSPost2010PropOp28
 70
     1
102
RTVSPost2010Prop29
280
     1
102
RTVSPost2010PropOp29
 70
     1
102
RTVSPost2010Prop30
280
     1
102
RTVSPost2010PropOp30
 70
     1
102
RTVSPost2010Prop31
280
     0
102
RTVSPost2010PropOp31
 70
     1
102
RTVSPost2010Prop32
280
     0
102
RTVSPost2010PropOp32
 70
     1
102
RTVSPost2010Prop33
280
     0
102
RTVSPost2010PropOp33
 70
     1
102
RTVSPost2010Prop34
280
     0
102
RTVSPost2010PropOp34
 70
     1
102
RTVSPost2010Prop35
280
     0
102
RTVSPost2010PropOp35
 70
     1
102
RTVSPost2010Prop36
280
     0
102
RTVSPost2010PropOp36
 70
     1
102
RTVSPost2010Prop37
 90
       50
102
RTVSPost2010PropOp37
 70
     1
102
RTVSPost2010Prop38
140
0.0
102
RTVSPost2010PropOp38
 70
     1
102
RTVSPost2010Prop39
140
1.0
102
RTVSPost2010PropOp39
 70
     1
102
RTVSPost2010Prop40
 90
        0
102
RTVSPost2010PropOp40
 70
     1
102
RTVSPost2010Prop41ColorIndex
 90
       18
102
RTVSPost2010Prop41ColorRGB
 90
        0
102
RTVSPost2010PropOp41
 70
     1
102
RTVSPost2010Prop42
 90
       50
102
RTVSPost2010PropOp42
 70
     1
102
RTVSPost2010Prop43
 90
        3
102
RTVSPost2010PropOp43
 70
     1
102
RTVSPost2010Prop44ColorIndex
 90
        5
102
RTVSPost2010Prop44ColorRGB
 90
      255
102
RTVSPost2010PropOp44
 70
     1
102
RTVSPost2010Prop45
280
     0
102
RTVSPost2010PropOp45
 70
     1
102
RTVSPost2010Prop46
 90
       50
102
RTVSPost2010PropOp46
 70
     1
102
RTVSPost2010Prop47
 90
       50
102
RTVSPost2010PropOp47
 70
     1
102
RTVSPost2010Prop48
 90
       50
102
RTVSPost2010PropOp48
 70
     1
102
RTVSPost2010Prop49
280
     0
102
RTVSPost2010PropOp49
 70
     1
102
RTVSPost2010Prop50
 90
       50
102
RTVSPost2010PropOp50
 70
     1
102
RTVSPost2010Prop51ColorIndex
 90
      256
102
RTVSPost2010Prop51ColorRGB
 90
-16777216
102
RTVSPost2010PropOp51
 70
     0
102
RTVSPost2010Prop52
140
1.0
102
RTVSPost2010PropOp52
 70
     0
102
RTVSPost2010Prop53
 90
        2
102
RTVSPost2010PropOp53
 70
     1
102
RTVSPost2010Prop54
  1
strokes_ogs.tif
102
RTVSPost2010PropOp54
 70
     1
102
RTVSPost2010Prop55
280
     0
102
RTVSPost2010PropOp55
 70
     1
102
RTVSPost2010Prop56
140
1.0
102
RTVSPost2010PropOp56
 70
     1
102
RTVSPost2010Prop57
140
1.0
102
RTVSPost2010PropOp57
 70
     1
102
RTVSPropertyOp0
 70
     1
102
RTVSPropertyOp1
 70
     1
102
RTVSPropertyOp2
 70
     1
102
RTVSPropertyOp3
 70
     1
102
RTVSPropertyOp4
 70
     1
102
RTVSPropertyOp5
 70
     1
102
RTVSPropertyOp6
 70
     1
102
RTVSPropertyOp7
 70
     1
102
RTVSPropertyOp8
 70
     1
102
RTVSPropertyOp9
 70
     1
102
RTVSPropertyOp10
 70
     1
102
RTVSPropertyOp11
 70
     1
102
RTVSPropertyOp12
 70
     1
102
RTVSPropertyOp13
 70
     1
102
RTVSPropertyOp14
 70
     1
102
RTVSPropertyOp15
 70
     1
102
RTVSPropertyOp16
 70
     1
102
RTVSPropertyOp17
 70
     1
102
RTVSPropertyOp18
 70
     1
102
RTVSPropertyOp19
 70
     1
102
RTVSPropertyOp20
 70
     1
102
RTVSPropertyOp21
 70
     1
102
RTVSPropertyOp22
 70
     1
102
RTVSPropertyOp23
 70
     1
102
RTVSPropertyOp24
 70
     1
102
RTVSPropertyOp25
 70
     1
102
RTVSPropertyOp26
 70
     1
102
RTVSPropertyOp27
 70
     1
102
RTVSPropertyOp28
 70
     1
102
RTVSPropertyOp29
 70
     1
102
RTVSPropertyOp30
 70
     1
102
RTVSPropertyOp31
 70
     1
102
RTVSPropertyOp32
 70
     1
102
RTVSPropertyOp33
 70
     1
102
RTVSPropertyOp34
 70
     1
102
RTVSPropertyOp35
 70
     1
102
RTVSPropertyOp36
 70
     1
102
RTVSPropertyOp37
 70
     1
102
RTVSPropertyOp38
 70
     1
102
RTVSPropertyOp39
 70
     1
102
RTVSPropertyOp40
 70
     1
102
RTVSPropertyOp41
 70
     1
102
RTVSPropertyOp42
 70
     1
102
RTVSPropertyOp43
 70
     1
102
RTVSPropertyOp44
 70
     1
102
RTVSPropertyOp45
 70
     1
102
RTVSPropertyOp46
 70
     1
102
RTVSPropertyOp47
 70
     1
102
RTVSPropertyOp48
 70
     1
102
RTVSPropertyOp49
 70
     1
102
RTVSPropertyOp50
 70
     1
102
RTVSPropertyOp51
 70
     0
102
RTVSPropertyOp52
 70
     0
102
RTVSPropertyOp53
 70
     1
102
RTVSPropertyOp54
 70
     1
102
RTVSPropertyOp55
 70
     1
102
RTVSPropertyOp56
 70
     1
102
RTVSPropertyOp57
 70
     1
102
RTVSPropertyOp58
 70
     1
102
RTVSPropertyOp59
 70
     1
102
RTVSPropertyOp60
 70
     1
102
RTVSPropertyOp61
 70
     1
102
RTVSPropertyOp62
 70
     1
  0
XRECORD
  5
12785
102
{ACAD_REACTORS
330
12784
102
}
330
12784
100
AcDbXrecord
280
     1
102
RTVSPost2010Prop28
280
     0
102
RTVSPost2010PropOp28
 70
     1
102
RTVSPost2010Prop29
280
     1
102
RTVSPost2010PropOp29
 70
     1
102
RTVSPost2010Prop30
280
     1
102
RTVSPost2010PropOp30
 70
     1
102
RTVSPost2010Prop31
280
     0
102
RTVSPost2010PropOp31
 70
     1
102
RTVSPost2010Prop32
280
     0
102
RTVSPost2010PropOp32
 70
     1
102
RTVSPost2010Prop33
280
     0
102
RTVSPost2010PropOp33
 70
     1
102
RTVSPost2010Prop34
280
     0
102
RTVSPost2010PropOp34
 70
     1
102
RTVSPost2010Prop35
280
     0
102
RTVSPost2010PropOp35
 70
     1
102
RTVSPost2010Prop36
280
     0
102
RTVSPost2010PropOp36
 70
     1
102
RTVSPost2010Prop37
 90
       50
102
RTVSPost2010PropOp37
 70
     1
102
RTVSPost2010Prop38
140
0.0
102
RTVSPost2010PropOp38
 70
     1
102
RTVSPost2010Prop39
140
1.0
102
RTVSPost2010PropOp39
 70
     1
102
RTVSPost2010Prop40
 90
        0
102
RTVSPost2010PropOp40
 70
     1
102
RTVSPost2010Prop41ColorIndex
 90
       18
102
RTVSPost2010Prop41ColorRGB
 90
        0
102
RTVSPost2010PropOp41
 70
     1
102
RTVSPost2010Prop42
 90
       50
102
RTVSPost2010PropOp42
 70
     1
102
RTVSPost2010Prop43
 90
        3
102
RTVSPost2010PropOp43
 70
     1
102
RTVSPost2010Prop44ColorIndex
 90
        5
102
RTVSPost2010Prop44ColorRGB
 90
      255
102
RTVSPost2010PropOp44
 70
     1
102
RTVSPost2010Prop45
280
     0
102
RTVSPost2010PropOp45
 70
     1
102
RTVSPost2010Prop46
 90
       50
102
RTVSPost2010PropOp46
 70
     1
102
RTVSPost2010Prop47
 90
       50
102
RTVSPost2010PropOp47
 70
     1
102
RTVSPost2010Prop48
 90
       50
102
RTVSPost2010PropOp48
 70
     1
102
RTVSPost2010Prop49
280
     0
102
RTVSPost2010PropOp49
 70
     1
102
RTVSPost2010Prop50
 90
       50
102
RTVSPost2010PropOp50
 70
     1
102
RTVSPost2010Prop51ColorIndex
 90
      256
102
RTVSPost2010Prop51ColorRGB
 90
-16777216
102
RTVSPost2010PropOp51
 70
     0
102
RTVSPost2010Prop52
140
1.0
102
RTVSPost2010PropOp52
 70
     0
102
RTVSPost2010Prop53
 90
        2
102
RTVSPost2010PropOp53
 70
     1
102
RTVSPost2010Prop54
  1
strokes_ogs.tif
102
RTVSPost2010PropOp54
 70
     1
102
RTVSPost2010Prop55
280
     0
102
RTVSPost2010PropOp55
 70
     1
102
RTVSPost2010Prop56
140
1.0
102
RTVSPost2010PropOp56
 70
     1
102
RTVSPost2010Prop57
140
1.0
102
RTVSPost2010PropOp57
 70
     1
102
RTVSPropertyOp0
 70
     1
102
RTVSPropertyOp1
 70
     1
102
RTVSPropertyOp2
 70
     1
102
RTVSPropertyOp3
 70
     1
102
RTVSPropertyOp4
 70
     1
102
RTVSPropertyOp5
 70
     1
102
RTVSPropertyOp6
 70
     1
102
RTVSPropertyOp7
 70
     1
102
RTVSPropertyOp8
 70
     1
102
RTVSPropertyOp9
 70
     1
102
RTVSPropertyOp10
 70
     1
102
RTVSPropertyOp11
 70
     1
102
RTVSPropertyOp12
 70
     1
102
RTVSPropertyOp13
 70
     1
102
RTVSPropertyOp14
 70
     1
102
RTVSPropertyOp15
 70
     1
102
RTVSPropertyOp16
 70
     1
102
RTVSPropertyOp17
 70
     1
102
RTVSPropertyOp18
 70
     1
102
RTVSPropertyOp19
 70
     1
102
RTVSPropertyOp20
 70
     1
102
RTVSPropertyOp21
 70
     1
102
RTVSPropertyOp22
 70
     1
102
RTVSPropertyOp23
 70
     1
102
RTVSPropertyOp24
 70
     1
102
RTVSPropertyOp25
 70
     1
102
RTVSPropertyOp26
 70
     1
102
RTVSPropertyOp27
 70
     1
102
RTVSPropertyOp28
 70
     1
102
RTVSPropertyOp29
 70
     1
102
RTVSPropertyOp30
 70
     1
102
RTVSPropertyOp31
 70
     1
102
RTVSPropertyOp32
 70
     1
102
RTVSPropertyOp33
 70
     1
102
RTVSPropertyOp34
 70
     1
102
RTVSPropertyOp35
 70
     1
102
RTVSPropertyOp36
 70
     1
102
RTVSPropertyOp37
 70
     1
102
RTVSPropertyOp38
 70
     1
102
RTVSPropertyOp39
 70
     1
102
RTVSPropertyOp40
 70
     1
102
RTVSPropertyOp41
 70
     1
102
RTVSPropertyOp42
 70
     1
102
RTVSPropertyOp43
 70
     1
102
RTVSPropertyOp44
 70
     1
102
RTVSPropertyOp45
 70
     1
102
RTVSPropertyOp46
 70
     1
102
RTVSPropertyOp47
 70
     1
102
RTVSPropertyOp48
 70
     1
102
RTVSPropertyOp49
 70
     1
102
RTVSPropertyOp50
 70
     1
102
RTVSPropertyOp51
 70
     0
102
RTVSPropertyOp52
 70
     0
102
RTVSPropertyOp53
 70
     1
102
RTVSPropertyOp54
 70
     1
102
RTVSPropertyOp55
 70
     1
102
RTVSPropertyOp56
 70
     1
102
RTVSPropertyOp57
 70
     1
102
RTVSPropertyOp58
 70
     1
102
RTVSPropertyOp59
 70
     1
102
RTVSPropertyOp60
 70
     1
102
RTVSPropertyOp61
 70
     1
102
RTVSPropertyOp62
 70
     1
  0
XRECORD
  5
12787
102
{ACAD_REACTORS
330
12786
102
}
330
12786
100
AcDbXrecord
280
     1
102
RTVSPost2010Prop28
280
     0
102
RTVSPost2010PropOp28
 70
     1
102
RTVSPost2010Prop29
280
     1
102
RTVSPost2010PropOp29
 70
     1
102
RTVSPost2010Prop30
280
     1
102
RTVSPost2010PropOp30
 70
     1
102
RTVSPost2010Prop31
280
     0
102
RTVSPost2010PropOp31
 70
     1
102
RTVSPost2010Prop32
280
     0
102
RTVSPost2010PropOp32
 70
     1
102
RTVSPost2010Prop33
280
     0
102
RTVSPost2010PropOp33
 70
     1
102
RTVSPost2010Prop34
280
     0
102
RTVSPost2010PropOp34
 70
     1
102
RTVSPost2010Prop35
280
     0
102
RTVSPost2010PropOp35
 70
     1
102
RTVSPost2010Prop36
280
     0
102
RTVSPost2010PropOp36
 70
     1
102
RTVSPost2010Prop37
 90
       50
102
RTVSPost2010PropOp37
 70
     1
102
RTVSPost2010Prop38
140
0.0
102
RTVSPost2010PropOp38
 70
     1
102
RTVSPost2010Prop39
140
1.0
102
RTVSPost2010PropOp39
 70
     1
102
RTVSPost2010Prop40
 90
        0
102
RTVSPost2010PropOp40
 70
     1
102
RTVSPost2010Prop41ColorIndex
 90
       18
102
RTVSPost2010Prop41ColorRGB
 90
        0
102
RTVSPost2010PropOp41
 70
     1
102
RTVSPost2010Prop42
 90
       50
102
RTVSPost2010PropOp42
 70
     1
102
RTVSPost2010Prop43
 90
        3
102
RTVSPost2010PropOp43
 70
     1
102
RTVSPost2010Prop44ColorIndex
 90
        5
102
RTVSPost2010Prop44ColorRGB
 90
      255
102
RTVSPost2010PropOp44
 70
     1
102
RTVSPost2010Prop45
280
     0
102
RTVSPost2010PropOp45
 70
     1
102
RTVSPost2010Prop46
 90
       50
102
RTVSPost2010PropOp46
 70
     1
102
RTVSPost2010Prop47
 90
       50
102
RTVSPost2010PropOp47
 70
     1
102
RTVSPost2010Prop48
 90
       50
102
RTVSPost2010PropOp48
 70
     1
102
RTVSPost2010Prop49
280
     0
102
RTVSPost2010PropOp49
 70
     1
102
RTVSPost2010Prop50
 90
       50
102
RTVSPost2010PropOp50
 70
     1
102
RTVSPost2010Prop51ColorIndex
 90
      256
102
RTVSPost2010Prop51ColorRGB
 90
-16777216
102
RTVSPost2010PropOp51
 70
     0
102
RTVSPost2010Prop52
140
1.0
102
RTVSPost2010PropOp52
 70
     0
102
RTVSPost2010Prop53
 90
        2
102
RTVSPost2010PropOp53
 70
     1
102
RTVSPost2010Prop54
  1
strokes_ogs.tif
102
RTVSPost2010PropOp54
 70
     1
102
RTVSPost2010Prop55
280
     0
102
RTVSPost2010PropOp55
 70
     1
102
RTVSPost2010Prop56
140
1.0
102
RTVSPost2010PropOp56
 70
     1
102
RTVSPost2010Prop57
140
1.0
102
RTVSPost2010PropOp57
 70
     1
102
RTVSPropertyOp0
 70
     1
102
RTVSPropertyOp1
 70
     1
102
RTVSPropertyOp2
 70
     1
102
RTVSPropertyOp3
 70
     1
102
RTVSPropertyOp4
 70
     1
102
RTVSPropertyOp5
 70
     1
102
RTVSPropertyOp6
 70
     1
102
RTVSPropertyOp7
 70
     1
102
RTVSPropertyOp8
 70
     1
102
RTVSPropertyOp9
 70
     1
102
RTVSPropertyOp10
 70
     1
102
RTVSPropertyOp11
 70
     1
102
RTVSPropertyOp12
 70
     1
102
RTVSPropertyOp13
 70
     1
102
RTVSPropertyOp14
 70
     1
102
RTVSPropertyOp15
 70
     1
102
RTVSPropertyOp16
 70
     1
102
RTVSPropertyOp17
 70
     1
102
RTVSPropertyOp18
 70
     1
102
RTVSPropertyOp19
 70
     1
102
RTVSPropertyOp20
 70
     1
102
RTVSPropertyOp21
 70
     1
102
RTVSPropertyOp22
 70
     1
102
RTVSPropertyOp23
 70
     1
102
RTVSPropertyOp24
 70
     1
102
RTVSPropertyOp25
 70
     1
102
RTVSPropertyOp26
 70
     1
102
RTVSPropertyOp27
 70
     1
102
RTVSPropertyOp28
 70
     1
102
RTVSPropertyOp29
 70
     1
102
RTVSPropertyOp30
 70
     1
102
RTVSPropertyOp31
 70
     1
102
RTVSPropertyOp32
 70
     1
102
RTVSPropertyOp33
 70
     1
102
RTVSPropertyOp34
 70
     1
102
RTVSPropertyOp35
 70
     1
102
RTVSPropertyOp36
 70
     1
102
RTVSPropertyOp37
 70
     1
102
RTVSPropertyOp38
 70
     1
102
RTVSPropertyOp39
 70
     1
102
RTVSPropertyOp40
 70
     1
102
RTVSPropertyOp41
 70
     1
102
RTVSPropertyOp42
 70
     1
102
RTVSPropertyOp43
 70
     1
102
RTVSPropertyOp44
 70
     1
102
RTVSPropertyOp45
 70
     1
102
RTVSPropertyOp46
 70
     1
102
RTVSPropertyOp47
 70
     1
102
RTVSPropertyOp48
 70
     1
102
RTVSPropertyOp49
 70
     1
102
RTVSPropertyOp50
 70
     1
102
RTVSPropertyOp51
 70
     0
102
RTVSPropertyOp52
 70
     0
102
RTVSPropertyOp53
 70
     1
102
RTVSPropertyOp54
 70
     1
102
RTVSPropertyOp55
 70
     1
102
RTVSPropertyOp56
 70
     1
102
RTVSPropertyOp57
 70
     1
102
RTVSPropertyOp58
 70
     1
102
RTVSPropertyOp59
 70
     1
102
RTVSPropertyOp60
 70
     1
102
RTVSPropertyOp61
 70
     1
102
RTVSPropertyOp62
 70
     1
  0
XRECORD
  5
12789
102
{ACAD_REACTORS
330
12788
102
}
330
12788
100
AcDbXrecord
280
     1
102
RTVSPost2010Prop28
280
     0
102
RTVSPost2010PropOp28
 70
     1
102
RTVSPost2010Prop29
280
     1
102
RTVSPost2010PropOp29
 70
     1
102
RTVSPost2010Prop30
280
     1
102
RTVSPost2010PropOp30
 70
     1
102
RTVSPost2010Prop31
280
     0
102
RTVSPost2010PropOp31
 70
     1
102
RTVSPost2010Prop32
280
     0
102
RTVSPost2010PropOp32
 70
     1
102
RTVSPost2010Prop33
280
     0
102
RTVSPost2010PropOp33
 70
     1
102
RTVSPost2010Prop34
280
     0
102
RTVSPost2010PropOp34
 70
     1
102
RTVSPost2010Prop35
280
     0
102
RTVSPost2010PropOp35
 70
     1
102
RTVSPost2010Prop36
280
     0
102
RTVSPost2010PropOp36
 70
     1
102
RTVSPost2010Prop37
 90
       50
102
RTVSPost2010PropOp37
 70
     1
102
RTVSPost2010Prop38
140
0.0
102
RTVSPost2010PropOp38
 70
     1
102
RTVSPost2010Prop39
140
1.0
102
RTVSPost2010PropOp39
 70
     1
102
RTVSPost2010Prop40
 90
        0
102
RTVSPost2010PropOp40
 70
     1
102
RTVSPost2010Prop41ColorIndex
 90
       18
102
RTVSPost2010Prop41ColorRGB
 90
        0
102
RTVSPost2010PropOp41
 70
     1
102
RTVSPost2010Prop42
 90
       50
102
RTVSPost2010PropOp42
 70
     1
102
RTVSPost2010Prop43
 90
        3
102
RTVSPost2010PropOp43
 70
     1
102
RTVSPost2010Prop44ColorIndex
 90
        5
102
RTVSPost2010Prop44ColorRGB
 90
      255
102
RTVSPost2010PropOp44
 70
     1
102
RTVSPost2010Prop45
280
     0
102
RTVSPost2010PropOp45
 70
     1
102
RTVSPost2010Prop46
 90
       50
102
RTVSPost2010PropOp46
 70
     1
102
RTVSPost2010Prop47
 90
       50
102
RTVSPost2010PropOp47
 70
     1
102
RTVSPost2010Prop48
 90
       50
102
RTVSPost2010PropOp48
 70
     1
102
RTVSPost2010Prop49
280
     0
102
RTVSPost2010PropOp49
 70
     1
102
RTVSPost2010Prop50
 90
       50
102
RTVSPost2010PropOp50
 70
     1
102
RTVSPost2010Prop51ColorIndex
 90
      256
102
RTVSPost2010Prop51ColorRGB
 90
-16777216
102
RTVSPost2010PropOp51
 70
     0
102
RTVSPost2010Prop52
140
1.0
102
RTVSPost2010PropOp52
 70
     0
102
RTVSPost2010Prop53
 90
        2
102
RTVSPost2010PropOp53
 70
     1
102
RTVSPost2010Prop54
  1
strokes_ogs.tif
102
RTVSPost2010PropOp54
 70
     1
102
RTVSPost2010Prop55
280
     0
102
RTVSPost2010PropOp55
 70
     1
102
RTVSPost2010Prop56
140
1.0
102
RTVSPost2010PropOp56
 70
     1
102
RTVSPost2010Prop57
140
1.0
102
RTVSPost2010PropOp57
 70
     1
102
RTVSPropertyOp0
 70
     1
102
RTVSPropertyOp1
 70
     1
102
RTVSPropertyOp2
 70
     1
102
RTVSPropertyOp3
 70
     1
102
RTVSPropertyOp4
 70
     1
102
RTVSPropertyOp5
 70
     1
102
RTVSPropertyOp6
 70
     1
102
RTVSPropertyOp7
 70
     1
102
RTVSPropertyOp8
 70
     1
102
RTVSPropertyOp9
 70
     1
102
RTVSPropertyOp10
 70
     1
102
RTVSPropertyOp11
 70
     1
102
RTVSPropertyOp12
 70
     1
102
RTVSPropertyOp13
 70
     1
102
RTVSPropertyOp14
 70
     1
102
RTVSPropertyOp15
 70
     1
102
RTVSPropertyOp16
 70
     1
102
RTVSPropertyOp17
 70
     1
102
RTVSPropertyOp18
 70
     1
102
RTVSPropertyOp19
 70
     1
102
RTVSPropertyOp20
 70
     1
102
RTVSPropertyOp21
 70
     1
102
RTVSPropertyOp22
 70
     1
102
RTVSPropertyOp23
 70
     1
102
RTVSPropertyOp24
 70
     1
102
RTVSPropertyOp25
 70
     1
102
RTVSPropertyOp26
 70
     1
102
RTVSPropertyOp27
 70
     1
102
RTVSPropertyOp28
 70
     1
102
RTVSPropertyOp29
 70
     1
102
RTVSPropertyOp30
 70
     1
102
RTVSPropertyOp31
 70
     1
102
RTVSPropertyOp32
 70
     1
102
RTVSPropertyOp33
 70
     1
102
RTVSPropertyOp34
 70
     1
102
RTVSPropertyOp35
 70
     1
102
RTVSPropertyOp36
 70
     1
102
RTVSPropertyOp37
 70
     1
102
RTVSPropertyOp38
 70
     1
102
RTVSPropertyOp39
 70
     1
102
RTVSPropertyOp40
 70
     1
102
RTVSPropertyOp41
 70
     1
102
RTVSPropertyOp42
 70
     1
102
RTVSPropertyOp43
 70
     1
102
RTVSPropertyOp44
 70
     1
102
RTVSPropertyOp45
 70
     1
102
RTVSPropertyOp46
 70
     1
102
RTVSPropertyOp47
 70
     1
102
RTVSPropertyOp48
 70
     1
102
RTVSPropertyOp49
 70
     1
102
RTVSPropertyOp50
 70
     1
102
RTVSPropertyOp51
 70
     0
102
RTVSPropertyOp52
 70
     0
102
RTVSPropertyOp53
 70
     1
102
RTVSPropertyOp54
 70
     1
102
RTVSPropertyOp55
 70
     1
102
RTVSPropertyOp56
 70
     1
102
RTVSPropertyOp57
 70
     1
102
RTVSPropertyOp58
 70
     1
102
RTVSPropertyOp59
 70
     1
102
RTVSPropertyOp60
 70
     1
102
RTVSPropertyOp61
 70
     1
102
RTVSPropertyOp62
 70
     1
  0
XRECORD
  5
1278B
102
{ACAD_REACTORS
330
1278A
102
}
330
1278A
100
AcDbXrecord
280
     1
102
RTVSPost2010Prop28
280
     0
102
RTVSPost2010PropOp28
 70
     1
102
RTVSPost2010Prop29
280
     1
102
RTVSPost2010PropOp29
 70
     1
102
RTVSPost2010Prop30
280
     1
102
RTVSPost2010PropOp30
 70
     1
102
RTVSPost2010Prop31
280
     0
102
RTVSPost2010PropOp31
 70
     1
102
RTVSPost2010Prop32
280
     0
102
RTVSPost2010PropOp32
 70
     1
102
RTVSPost2010Prop33
280
     0
102
RTVSPost2010PropOp33
 70
     1
102
RTVSPost2010Prop34
280
     0
102
RTVSPost2010PropOp34
 70
     1
102
RTVSPost2010Prop35
280
     0
102
RTVSPost2010PropOp35
 70
     1
102
RTVSPost2010Prop36
280
     0
102
RTVSPost2010PropOp36
 70
     1
102
RTVSPost2010Prop37
 90
       50
102
RTVSPost2010PropOp37
 70
     1
102
RTVSPost2010Prop38
140
0.0
102
RTVSPost2010PropOp38
 70
     1
102
RTVSPost2010Prop39
140
1.0
102
RTVSPost2010PropOp39
 70
     1
102
RTVSPost2010Prop40
 90
        0
102
RTVSPost2010PropOp40
 70
     1
102
RTVSPost2010Prop41ColorIndex
 90
       18
102
RTVSPost2010Prop41ColorRGB
 90
        0
102
RTVSPost2010PropOp41
 70
     1
102
RTVSPost2010Prop42
 90
       50
102
RTVSPost2010PropOp42
 70
     1
102
RTVSPost2010Prop43
 90
        3
102
RTVSPost2010PropOp43
 70
     1
102
RTVSPost2010Prop44ColorIndex
 90
        5
102
RTVSPost2010Prop44ColorRGB
 90
      255
102
RTVSPost2010PropOp44
 70
     1
102
RTVSPost2010Prop45
280
     0
102
RTVSPost2010PropOp45
 70
     1
102
RTVSPost2010Prop46
 90
       50
102
RTVSPost2010PropOp46
 70
     1
102
RTVSPost2010Prop47
 90
       50
102
RTVSPost2010PropOp47
 70
     1
102
RTVSPost2010Prop48
 90
       50
102
RTVSPost2010PropOp48
 70
     1
102
RTVSPost2010Prop49
280
     0
102
RTVSPost2010PropOp49
 70
     1
102
RTVSPost2010Prop50
 90
       50
102
RTVSPost2010PropOp50
 70
     1
102
RTVSPost2010Prop51ColorIndex
 90
      256
102
RTVSPost2010Prop51ColorRGB
 90
-16777216
102
RTVSPost2010PropOp51
 70
     0
102
RTVSPost2010Prop52
140
1.0
102
RTVSPost2010PropOp52
 70
     0
102
RTVSPost2010Prop53
 90
        2
102
RTVSPost2010PropOp53
 70
     1
102
RTVSPost2010Prop54
  1
strokes_ogs.tif
102
RTVSPost2010PropOp54
 70
     1
102
RTVSPost2010Prop55
280
     0
102
RTVSPost2010PropOp55
 70
     1
102
RTVSPost2010Prop56
140
1.0
102
RTVSPost2010PropOp56
 70
     1
102
RTVSPost2010Prop57
140
1.0
102
RTVSPost2010PropOp57
 70
     1
102
RTVSPropertyOp0
 70
     1
102
RTVSPropertyOp1
 70
     1
102
RTVSPropertyOp2
 70
     1
102
RTVSPropertyOp3
 70
     1
102
RTVSPropertyOp4
 70
     1
102
RTVSPropertyOp5
 70
     1
102
RTVSPropertyOp6
 70
     1
102
RTVSPropertyOp7
 70
     1
102
RTVSPropertyOp8
 70
     1
102
RTVSPropertyOp9
 70
     1
102
RTVSPropertyOp10
 70
     1
102
RTVSPropertyOp11
 70
     1
102
RTVSPropertyOp12
 70
     1
102
RTVSPropertyOp13
 70
     1
102
RTVSPropertyOp14
 70
     1
102
RTVSPropertyOp15
 70
     1
102
RTVSPropertyOp16
 70
     1
102
RTVSPropertyOp17
 70
     1
102
RTVSPropertyOp18
 70
     1
102
RTVSPropertyOp19
 70
     1
102
RTVSPropertyOp20
 70
     1
102
RTVSPropertyOp21
 70
     1
102
RTVSPropertyOp22
 70
     1
102
RTVSPropertyOp23
 70
     1
102
RTVSPropertyOp24
 70
     1
102
RTVSPropertyOp25
 70
     1
102
RTVSPropertyOp26
 70
     1
102
RTVSPropertyOp27
 70
     1
102
RTVSPropertyOp28
 70
     1
102
RTVSPropertyOp29
 70
     1
102
RTVSPropertyOp30
 70
     1
102
RTVSPropertyOp31
 70
     1
102
RTVSPropertyOp32
 70
     1
102
RTVSPropertyOp33
 70
     1
102
RTVSPropertyOp34
 70
     1
102
RTVSPropertyOp35
 70
     1
102
RTVSPropertyOp36
 70
     1
102
RTVSPropertyOp37
 70
     1
102
RTVSPropertyOp38
 70
     1
102
RTVSPropertyOp39
 70
     1
102
RTVSPropertyOp40
 70
     1
102
RTVSPropertyOp41
 70
     1
102
RTVSPropertyOp42
 70
     1
102
RTVSPropertyOp43
 70
     1
102
RTVSPropertyOp44
 70
     1
102
RTVSPropertyOp45
 70
     1
102
RTVSPropertyOp46
 70
     1
102
RTVSPropertyOp47
 70
     1
102
RTVSPropertyOp48
 70
     1
102
RTVSPropertyOp49
 70
     1
102
RTVSPropertyOp50
 70
     1
102
RTVSPropertyOp51
 70
     0
102
RTVSPropertyOp52
 70
     0
102
RTVSPropertyOp53
 70
     1
102
RTVSPropertyOp54
 70
     1
102
RTVSPropertyOp55
 70
     1
102
RTVSPropertyOp56
 70
     1
102
RTVSPropertyOp57
 70
     1
102
RTVSPropertyOp58
 70
     1
102
RTVSPropertyOp59
 70
     1
102
RTVSPropertyOp60
 70
     1
102
RTVSPropertyOp61
 70
     1
102
RTVSPropertyOp62
 70
     1
  0
XRECORD
  5
127AE
102
{ACAD_REACTORS
330
127AD
102
}
330
127AD
100
AcDbXrecord
280
     1
102
RTVSPost2010Prop28
280
     0
102
RTVSPost2010PropOp28
 70
     1
102
RTVSPost2010Prop29
280
     1
102
RTVSPost2010PropOp29
 70
     1
102
RTVSPost2010Prop30
280
     1
102
RTVSPost2010PropOp30
 70
     1
102
RTVSPost2010Prop31
280
     0
102
RTVSPost2010PropOp31
 70
     1
102
RTVSPost2010Prop32
280
     0
102
RTVSPost2010PropOp32
 70
     1
102
RTVSPost2010Prop33
280
     0
102
RTVSPost2010PropOp33
 70
     1
102
RTVSPost2010Prop34
280
     0
102
RTVSPost2010PropOp34
 70
     1
102
RTVSPost2010Prop35
280
     0
102
RTVSPost2010PropOp35
 70
     1
102
RTVSPost2010Prop36
280
     0
102
RTVSPost2010PropOp36
 70
     1
102
RTVSPost2010Prop37
 90
       50
102
RTVSPost2010PropOp37
 70
     1
102
RTVSPost2010Prop38
140
0.0
102
RTVSPost2010PropOp38
 70
     1
102
RTVSPost2010Prop39
140
1.0
102
RTVSPost2010PropOp39
 70
     1
102
RTVSPost2010Prop40
 90
        0
102
RTVSPost2010PropOp40
 70
     1
102
RTVSPost2010Prop41ColorIndex
 90
       18
102
RTVSPost2010Prop41ColorRGB
 90
        0
102
RTVSPost2010PropOp41
 70
     1
102
RTVSPost2010Prop42
 90
       50
102
RTVSPost2010PropOp42
 70
     1
102
RTVSPost2010Prop43
 90
        3
102
RTVSPost2010PropOp43
 70
     1
102
RTVSPost2010Prop44ColorIndex
 90
        5
102
RTVSPost2010Prop44ColorRGB
 90
      255
102
RTVSPost2010PropOp44
 70
     1
102
RTVSPost2010Prop45
280
     0
102
RTVSPost2010PropOp45
 70
     1
102
RTVSPost2010Prop46
 90
       50
102
RTVSPost2010PropOp46
 70
     1
102
RTVSPost2010Prop47
 90
       50
102
RTVSPost2010PropOp47
 70
     1
102
RTVSPost2010Prop48
 90
       50
102
RTVSPost2010PropOp48
 70
     1
102
RTVSPost2010Prop49
280
     0
102
RTVSPost2010PropOp49
 70
     1
102
RTVSPost2010Prop50
 90
       50
102
RTVSPost2010PropOp50
 70
     1
102
RTVSPost2010Prop51ColorIndex
 90
      256
102
RTVSPost2010Prop51ColorRGB
 90
-16777216
102
RTVSPost2010PropOp51
 70
     0
102
RTVSPost2010Prop52
140
1.0
102
RTVSPost2010PropOp52
 70
     0
102
RTVSPost2010Prop53
 90
        2
102
RTVSPost2010PropOp53
 70
     1
102
RTVSPost2010Prop54
  1
strokes_ogs.tif
102
RTVSPost2010PropOp54
 70
     1
102
RTVSPost2010Prop55
280
     0
102
RTVSPost2010PropOp55
 70
     1
102
RTVSPost2010Prop56
140
1.0
102
RTVSPost2010PropOp56
 70
     1
102
RTVSPost2010Prop57
140
1.0
102
RTVSPost2010PropOp57
 70
     1
102
RTVSPropertyOp0
 70
     1
102
RTVSPropertyOp1
 70
     1
102
RTVSPropertyOp2
 70
     1
102
RTVSPropertyOp3
 70
     1
102
RTVSPropertyOp4
 70
     1
102
RTVSPropertyOp5
 70
     1
102
RTVSPropertyOp6
 70
     1
102
RTVSPropertyOp7
 70
     1
102
RTVSPropertyOp8
 70
     1
102
RTVSPropertyOp9
 70
     1
102
RTVSPropertyOp10
 70
     1
102
RTVSPropertyOp11
 70
     1
102
RTVSPropertyOp12
 70
     1
102
RTVSPropertyOp13
 70
     1
102
RTVSPropertyOp14
 70
     1
102
RTVSPropertyOp15
 70
     1
102
RTVSPropertyOp16
 70
     1
102
RTVSPropertyOp17
 70
     1
102
RTVSPropertyOp18
 70
     1
102
RTVSPropertyOp19
 70
     1
102
RTVSPropertyOp20
 70
     1
102
RTVSPropertyOp21
 70
     1
102
RTVSPropertyOp22
 70
     1
102
RTVSPropertyOp23
 70
     1
102
RTVSPropertyOp24
 70
     1
102
RTVSPropertyOp25
 70
     1
102
RTVSPropertyOp26
 70
     1
102
RTVSPropertyOp27
 70
     1
102
RTVSPropertyOp28
 70
     1
102
RTVSPropertyOp29
 70
     1
102
RTVSPropertyOp30
 70
     1
102
RTVSPropertyOp31
 70
     1
102
RTVSPropertyOp32
 70
     1
102
RTVSPropertyOp33
 70
     1
102
RTVSPropertyOp34
 70
     1
102
RTVSPropertyOp35
 70
     1
102
RTVSPropertyOp36
 70
     1
102
RTVSPropertyOp37
 70
     1
102
RTVSPropertyOp38
 70
     1
102
RTVSPropertyOp39
 70
     1
102
RTVSPropertyOp40
 70
     1
102
RTVSPropertyOp41
 70
     1
102
RTVSPropertyOp42
 70
     1
102
RTVSPropertyOp43
 70
     1
102
RTVSPropertyOp44
 70
     1
102
RTVSPropertyOp45
 70
     1
102
RTVSPropertyOp46
 70
     1
102
RTVSPropertyOp47
 70
     1
102
RTVSPropertyOp48
 70
     1
102
RTVSPropertyOp49
 70
     1
102
RTVSPropertyOp50
 70
     1
102
RTVSPropertyOp51
 70
     0
102
RTVSPropertyOp52
 70
     0
102
RTVSPropertyOp53
 70
     1
102
RTVSPropertyOp54
 70
     1
102
RTVSPropertyOp55
 70
     1
102
RTVSPropertyOp56
 70
     1
102
RTVSPropertyOp57
 70
     1
102
RTVSPropertyOp58
 70
     1
102
RTVSPropertyOp59
 70
     1
102
RTVSPropertyOp60
 70
     1
102
RTVSPropertyOp61
 70
     1
102
RTVSPropertyOp62
 70
     1
  0
XRECORD
  5
127A5
102
{ACAD_REACTORS
330
127A4
102
}
330
127A4
100
AcDbXrecord
280
     1
102
RTVSPost2010Prop28
280
     0
102
RTVSPost2010PropOp28
 70
     1
102
RTVSPost2010Prop29
280
     1
102
RTVSPost2010PropOp29
 70
     1
102
RTVSPost2010Prop30
280
     1
102
RTVSPost2010PropOp30
 70
     1
102
RTVSPost2010Prop31
280
     0
102
RTVSPost2010PropOp31
 70
     1
102
RTVSPost2010Prop32
280
     0
102
RTVSPost2010PropOp32
 70
     1
102
RTVSPost2010Prop33
280
     0
102
RTVSPost2010PropOp33
 70
     1
102
RTVSPost2010Prop34
280
     0
102
RTVSPost2010PropOp34
 70
     1
102
RTVSPost2010Prop35
280
     0
102
RTVSPost2010PropOp35
 70
     1
102
RTVSPost2010Prop36
280
     0
102
RTVSPost2010PropOp36
 70
     1
102
RTVSPost2010Prop37
 90
       50
102
RTVSPost2010PropOp37
 70
     1
102
RTVSPost2010Prop38
140
0.0
102
RTVSPost2010PropOp38
 70
     1
102
RTVSPost2010Prop39
140
1.0
102
RTVSPost2010PropOp39
 70
     1
102
RTVSPost2010Prop40
 90
        0
102
RTVSPost2010PropOp40
 70
     1
102
RTVSPost2010Prop41ColorIndex
 90
       18
102
RTVSPost2010Prop41ColorRGB
 90
        0
102
RTVSPost2010PropOp41
 70
     1
102
RTVSPost2010Prop42
 90
       50
102
RTVSPost2010PropOp42
 70
     1
102
RTVSPost2010Prop43
 90
        3
102
RTVSPost2010PropOp43
 70
     1
102
RTVSPost2010Prop44ColorIndex
 90
        5
102
RTVSPost2010Prop44ColorRGB
 90
      255
102
RTVSPost2010PropOp44
 70
     1
102
RTVSPost2010Prop45
280
     0
102
RTVSPost2010PropOp45
 70
     1
102
RTVSPost2010Prop46
 90
       50
102
RTVSPost2010PropOp46
 70
     1
102
RTVSPost2010Prop47
 90
       50
102
RTVSPost2010PropOp47
 70
     1
102
RTVSPost2010Prop48
 90
       50
102
RTVSPost2010PropOp48
 70
     1
102
RTVSPost2010Prop49
280
     0
102
RTVSPost2010PropOp49
 70
     1
102
RTVSPost2010Prop50
 90
       50
102
RTVSPost2010PropOp50
 70
     1
102
RTVSPost2010Prop51ColorIndex
 90
      256
102
RTVSPost2010Prop51ColorRGB
 90
-16777216
102
RTVSPost2010PropOp51
 70
     0
102
RTVSPost2010Prop52
140
1.0
102
RTVSPost2010PropOp52
 70
     0
102
RTVSPost2010Prop53
 90
        2
102
RTVSPost2010PropOp53
 70
     1
102
RTVSPost2010Prop54
  1
strokes_ogs.tif
102
RTVSPost2010PropOp54
 70
     1
102
RTVSPost2010Prop55
280
     0
102
RTVSPost2010PropOp55
 70
     1
102
RTVSPost2010Prop56
140
1.0
102
RTVSPost2010PropOp56
 70
     1
102
RTVSPost2010Prop57
140
1.0
102
RTVSPost2010PropOp57
 70
     1
102
RTVSPropertyOp0
 70
     0
102
RTVSPropertyOp1
 70
     0
102
RTVSPropertyOp2
 70
     0
102
RTVSPropertyOp3
 70
     0
102
RTVSPropertyOp4
 70
     0
102
RTVSPropertyOp5
 70
     0
102
RTVSPropertyOp6
 70
     0
102
RTVSPropertyOp7
 70
     0
102
RTVSPropertyOp8
 70
     0
102
RTVSPropertyOp9
 70
     0
102
RTVSPropertyOp10
 70
     0
102
RTVSPropertyOp11
 70
     0
102
RTVSPropertyOp12
 70
     0
102
RTVSPropertyOp13
 70
     0
102
RTVSPropertyOp14
 70
     2
102
RTVSPropertyOp15
 70
     0
102
RTVSPropertyOp16
 70
     0
102
RTVSPropertyOp17
 70
     0
102
RTVSPropertyOp18
 70
     0
102
RTVSPropertyOp19
 70
     0
102
RTVSPropertyOp20
 70
     0
102
RTVSPropertyOp21
 70
     0
102
RTVSPropertyOp22
 70
     0
102
RTVSPropertyOp23
 70
     0
102
RTVSPropertyOp24
 70
     0
102
RTVSPropertyOp25
 70
     0
102
RTVSPropertyOp26
 70
     0
102
RTVSPropertyOp27
 70
     0
102
RTVSPropertyOp28
 70
     1
102
RTVSPropertyOp29
 70
     1
102
RTVSPropertyOp30
 70
     1
102
RTVSPropertyOp31
 70
     1
102
RTVSPropertyOp32
 70
     1
102
RTVSPropertyOp33
 70
     1
102
RTVSPropertyOp34
 70
     1
102
RTVSPropertyOp35
 70
     1
102
RTVSPropertyOp36
 70
     1
102
RTVSPropertyOp37
 70
     1
102
RTVSPropertyOp38
 70
     1
102
RTVSPropertyOp39
 70
     1
102
RTVSPropertyOp40
 70
     1
102
RTVSPropertyOp41
 70
     1
102
RTVSPropertyOp42
 70
     1
102
RTVSPropertyOp43
 70
     1
102
RTVSPropertyOp44
 70
     1
102
RTVSPropertyOp45
 70
     1
102
RTVSPropertyOp46
 70
     1
102
RTVSPropertyOp47
 70
     1
102
RTVSPropertyOp48
 70
     1
102
RTVSPropertyOp49
 70
     1
102
RTVSPropertyOp50
 70
     1
102
RTVSPropertyOp51
 70
     0
102
RTVSPropertyOp52
 70
     0
102
RTVSPropertyOp53
 70
     1
102
RTVSPropertyOp54
 70
     1
102
RTVSPropertyOp55
 70
     1
102
RTVSPropertyOp56
 70
     1
102
RTVSPropertyOp57
 70
     1
102
RTVSPropertyOp58
 70
     1
102
RTVSPropertyOp59
 70
     1
102
RTVSPropertyOp60
 70
     1
102
RTVSPropertyOp61
 70
     1
102
RTVSPropertyOp62
 70
     1
  0
XRECORD
  5
1279F
102
{ACAD_REACTORS
330
1279E
102
}
330
1279E
100
AcDbXrecord
280
     1
102
RTVSPost2010Prop28
280
     0
102
RTVSPost2010PropOp28
 70
     1
102
RTVSPost2010Prop29
280
     1
102
RTVSPost2010PropOp29
 70
     1
102
RTVSPost2010Prop30
280
     1
102
RTVSPost2010PropOp30
 70
     1
102
RTVSPost2010Prop31
280
     0
102
RTVSPost2010PropOp31
 70
     1
102
RTVSPost2010Prop32
280
     0
102
RTVSPost2010PropOp32
 70
     1
102
RTVSPost2010Prop33
280
     0
102
RTVSPost2010PropOp33
 70
     1
102
RTVSPost2010Prop34
280
     0
102
RTVSPost2010PropOp34
 70
     1
102
RTVSPost2010Prop35
280
     0
102
RTVSPost2010PropOp35
 70
     1
102
RTVSPost2010Prop36
280
     0
102
RTVSPost2010PropOp36
 70
     1
102
RTVSPost2010Prop37
 90
       50
102
RTVSPost2010PropOp37
 70
     1
102
RTVSPost2010Prop38
140
0.0
102
RTVSPost2010PropOp38
 70
     1
102
RTVSPost2010Prop39
140
1.0
102
RTVSPost2010PropOp39
 70
     1
102
RTVSPost2010Prop40
 90
        0
102
RTVSPost2010PropOp40
 70
     1
102
RTVSPost2010Prop41ColorIndex
 90
       18
102
RTVSPost2010Prop41ColorRGB
 90
        0
102
RTVSPost2010PropOp41
 70
     1
102
RTVSPost2010Prop42
 90
       50
102
RTVSPost2010PropOp42
 70
     1
102
RTVSPost2010Prop43
 90
        3
102
RTVSPost2010PropOp43
 70
     1
102
RTVSPost2010Prop44ColorIndex
 90
        5
102
RTVSPost2010Prop44ColorRGB
 90
      255
102
RTVSPost2010PropOp44
 70
     1
102
RTVSPost2010Prop45
280
     0
102
RTVSPost2010PropOp45
 70
     1
102
RTVSPost2010Prop46
 90
       50
102
RTVSPost2010PropOp46
 70
     1
102
RTVSPost2010Prop47
 90
       50
102
RTVSPost2010PropOp47
 70
     1
102
RTVSPost2010Prop48
 90
       50
102
RTVSPost2010PropOp48
 70
     1
102
RTVSPost2010Prop49
280
     0
102
RTVSPost2010PropOp49
 70
     1
102
RTVSPost2010Prop50
 90
       50
102
RTVSPost2010PropOp50
 70
     1
102
RTVSPost2010Prop51ColorIndex
 90
      256
102
RTVSPost2010Prop51ColorRGB
 90
-16777216
102
RTVSPost2010PropOp51
 70
     0
102
RTVSPost2010Prop52
140
1.0
102
RTVSPost2010PropOp52
 70
     0
102
RTVSPost2010Prop53
 90
        2
102
RTVSPost2010PropOp53
 70
     1
102
RTVSPost2010Prop54
  1
strokes_ogs.tif
102
RTVSPost2010PropOp54
 70
     1
102
RTVSPost2010Prop55
280
     0
102
RTVSPost2010PropOp55
 70
     1
102
RTVSPost2010Prop56
140
1.0
102
RTVSPost2010PropOp56
 70
     1
102
RTVSPost2010Prop57
140
1.0
102
RTVSPost2010PropOp57
 70
     1
102
RTVSPropertyOp0
 70
     1
102
RTVSPropertyOp1
 70
     1
102
RTVSPropertyOp2
 70
     1
102
RTVSPropertyOp3
 70
     1
102
RTVSPropertyOp4
 70
     1
102
RTVSPropertyOp5
 70
     1
102
RTVSPropertyOp6
 70
     1
102
RTVSPropertyOp7
 70
     1
102
RTVSPropertyOp8
 70
     1
102
RTVSPropertyOp9
 70
     1
102
RTVSPropertyOp10
 70
     1
102
RTVSPropertyOp11
 70
     1
102
RTVSPropertyOp12
 70
     1
102
RTVSPropertyOp13
 70
     1
102
RTVSPropertyOp14
 70
     1
102
RTVSPropertyOp15
 70
     1
102
RTVSPropertyOp16
 70
     1
102
RTVSPropertyOp17
 70
     1
102
RTVSPropertyOp18
 70
     1
102
RTVSPropertyOp19
 70
     1
102
RTVSPropertyOp20
 70
     1
102
RTVSPropertyOp21
 70
     1
102
RTVSPropertyOp22
 70
     1
102
RTVSPropertyOp23
 70
     1
102
RTVSPropertyOp24
 70
     1
102
RTVSPropertyOp25
 70
     1
102
RTVSPropertyOp26
 70
     1
102
RTVSPropertyOp27
 70
     1
102
RTVSPropertyOp28
 70
     1
102
RTVSPropertyOp29
 70
     1
102
RTVSPropertyOp30
 70
     1
102
RTVSPropertyOp31
 70
     1
102
RTVSPropertyOp32
 70
     1
102
RTVSPropertyOp33
 70
     1
102
RTVSPropertyOp34
 70
     1
102
RTVSPropertyOp35
 70
     1
102
RTVSPropertyOp36
 70
     1
102
RTVSPropertyOp37
 70
     1
102
RTVSPropertyOp38
 70
     1
102
RTVSPropertyOp39
 70
     1
102
RTVSPropertyOp40
 70
     1
102
RTVSPropertyOp41
 70
     1
102
RTVSPropertyOp42
 70
     1
102
RTVSPropertyOp43
 70
     1
102
RTVSPropertyOp44
 70
     1
102
RTVSPropertyOp45
 70
     1
102
RTVSPropertyOp46
 70
     1
102
RTVSPropertyOp47
 70
     1
102
RTVSPropertyOp48
 70
     1
102
RTVSPropertyOp49
 70
     1
102
RTVSPropertyOp50
 70
     1
102
RTVSPropertyOp51
 70
     0
102
RTVSPropertyOp52
 70
     0
102
RTVSPropertyOp53
 70
     1
102
RTVSPropertyOp54
 70
     1
102
RTVSPropertyOp55
 70
     1
102
RTVSPropertyOp56
 70
     1
102
RTVSPropertyOp57
 70
     1
102
RTVSPropertyOp58
 70
     1
102
RTVSPropertyOp59
 70
     1
102
RTVSPropertyOp60
 70
     1
102
RTVSPropertyOp61
 70
     1
102
RTVSPropertyOp62
 70
     1
  0
XRECORD
  5
127A7
102
{ACAD_REACTORS
330
127A6
102
}
330
127A6
100
AcDbXrecord
280
     1
102
RTVSPost2010Prop28
280
     0
102
RTVSPost2010PropOp28
 70
     1
102
RTVSPost2010Prop29
280
     1
102
RTVSPost2010PropOp29
 70
     1
102
RTVSPost2010Prop30
280
     1
102
RTVSPost2010PropOp30
 70
     1
102
RTVSPost2010Prop31
280
     0
102
RTVSPost2010PropOp31
 70
     1
102
RTVSPost2010Prop32
280
     0
102
RTVSPost2010PropOp32
 70
     1
102
RTVSPost2010Prop33
280
     0
102
RTVSPost2010PropOp33
 70
     1
102
RTVSPost2010Prop34
280
     0
102
RTVSPost2010PropOp34
 70
     1
102
RTVSPost2010Prop35
280
     0
102
RTVSPost2010PropOp35
 70
     1
102
RTVSPost2010Prop36
280
     0
102
RTVSPost2010PropOp36
 70
     1
102
RTVSPost2010Prop37
 90
       50
102
RTVSPost2010PropOp37
 70
     1
102
RTVSPost2010Prop38
140
0.0
102
RTVSPost2010PropOp38
 70
     1
102
RTVSPost2010Prop39
140
1.0
102
RTVSPost2010PropOp39
 70
     1
102
RTVSPost2010Prop40
 90
        0
102
RTVSPost2010PropOp40
 70
     1
102
RTVSPost2010Prop41ColorIndex
 90
       18
102
RTVSPost2010Prop41ColorRGB
 90
        0
102
RTVSPost2010PropOp41
 70
     1
102
RTVSPost2010Prop42
 90
       50
102
RTVSPost2010PropOp42
 70
     1
102
RTVSPost2010Prop43
 90
        3
102
RTVSPost2010PropOp43
 70
     1
102
RTVSPost2010Prop44ColorIndex
 90
        5
102
RTVSPost2010Prop44ColorRGB
 90
      255
102
RTVSPost2010PropOp44
 70
     1
102
RTVSPost2010Prop45
280
     0
102
RTVSPost2010PropOp45
 70
     1
102
RTVSPost2010Prop46
 90
       50
102
RTVSPost2010PropOp46
 70
     1
102
RTVSPost2010Prop47
 90
       50
102
RTVSPost2010PropOp47
 70
     1
102
RTVSPost2010Prop48
 90
       50
102
RTVSPost2010PropOp48
 70
     1
102
RTVSPost2010Prop49
280
     0
102
RTVSPost2010PropOp49
 70
     1
102
RTVSPost2010Prop50
 90
       50
102
RTVSPost2010PropOp50
 70
     1
102
RTVSPost2010Prop51ColorIndex
 90
      256
102
RTVSPost2010Prop51ColorRGB
 90
-16777216
102
RTVSPost2010PropOp51
 70
     0
102
RTVSPost2010Prop52
140
1.0
102
RTVSPost2010PropOp52
 70
     0
102
RTVSPost2010Prop53
 90
        2
102
RTVSPost2010PropOp53
 70
     1
102
RTVSPost2010Prop54
  1
strokes_ogs.tif
102
RTVSPost2010PropOp54
 70
     1
102
RTVSPost2010Prop55
280
     0
102
RTVSPost2010PropOp55
 70
     1
102
RTVSPost2010Prop56
140
1.0
102
RTVSPost2010PropOp56
 70
     1
102
RTVSPost2010Prop57
140
1.0
102
RTVSPost2010PropOp57
 70
     1
102
RTVSPropertyOp0
 70
     0
102
RTVSPropertyOp1
 70
     0
102
RTVSPropertyOp2
 70
     0
102
RTVSPropertyOp3
 70
     0
102
RTVSPropertyOp4
 70
     0
102
RTVSPropertyOp5
 70
     0
102
RTVSPropertyOp6
 70
     0
102
RTVSPropertyOp7
 70
     0
102
RTVSPropertyOp8
 70
     0
102
RTVSPropertyOp9
 70
     0
102
RTVSPropertyOp10
 70
     0
102
RTVSPropertyOp11
 70
     0
102
RTVSPropertyOp12
 70
     0
102
RTVSPropertyOp13
 70
     0
102
RTVSPropertyOp14
 70
     2
102
RTVSPropertyOp15
 70
     0
102
RTVSPropertyOp16
 70
     0
102
RTVSPropertyOp17
 70
     0
102
RTVSPropertyOp18
 70
     0
102
RTVSPropertyOp19
 70
     0
102
RTVSPropertyOp20
 70
     0
102
RTVSPropertyOp21
 70
     0
102
RTVSPropertyOp22
 70
     0
102
RTVSPropertyOp23
 70
     0
102
RTVSPropertyOp24
 70
     0
102
RTVSPropertyOp25
 70
     0
102
RTVSPropertyOp26
 70
     0
102
RTVSPropertyOp27
 70
     0
102
RTVSPropertyOp28
 70
     1
102
RTVSPropertyOp29
 70
     1
102
RTVSPropertyOp30
 70
     1
102
RTVSPropertyOp31
 70
     1
102
RTVSPropertyOp32
 70
     1
102
RTVSPropertyOp33
 70
     1
102
RTVSPropertyOp34
 70
     1
102
RTVSPropertyOp35
 70
     1
102
RTVSPropertyOp36
 70
     1
102
RTVSPropertyOp37
 70
     1
102
RTVSPropertyOp38
 70
     1
102
RTVSPropertyOp39
 70
     1
102
RTVSPropertyOp40
 70
     1
102
RTVSPropertyOp41
 70
     1
102
RTVSPropertyOp42
 70
     1
102
RTVSPropertyOp43
 70
     1
102
RTVSPropertyOp44
 70
     1
102
RTVSPropertyOp45
 70
     1
102
RTVSPropertyOp46
 70
     1
102
RTVSPropertyOp47
 70
     1
102
RTVSPropertyOp48
 70
     1
102
RTVSPropertyOp49
 70
     1
102
RTVSPropertyOp50
 70
     1
102
RTVSPropertyOp51
 70
     0
102
RTVSPropertyOp52
 70
     0
102
RTVSPropertyOp53
 70
     1
102
RTVSPropertyOp54
 70
     1
102
RTVSPropertyOp55
 70
     1
102
RTVSPropertyOp56
 70
     1
102
RTVSPropertyOp57
 70
     1
102
RTVSPropertyOp58
 70
     1
102
RTVSPropertyOp59
 70
     1
102
RTVSPropertyOp60
 70
     1
102
RTVSPropertyOp61
 70
     1
102
RTVSPropertyOp62
 70
     1
  0
XRECORD
  5
12797
102
{ACAD_REACTORS
330
12796
102
}
330
12796
100
AcDbXrecord
280
     1
102
RTVSPost2010Prop28
280
     0
102
RTVSPost2010PropOp28
 70
     1
102
RTVSPost2010Prop29
280
     1
102
RTVSPost2010PropOp29
 70
     1
102
RTVSPost2010Prop30
280
     1
102
RTVSPost2010PropOp30
 70
     1
102
RTVSPost2010Prop31
280
     0
102
RTVSPost2010PropOp31
 70
     1
102
RTVSPost2010Prop32
280
     0
102
RTVSPost2010PropOp32
 70
     1
102
RTVSPost2010Prop33
280
     0
102
RTVSPost2010PropOp33
 70
     1
102
RTVSPost2010Prop34
280
     0
102
RTVSPost2010PropOp34
 70
     1
102
RTVSPost2010Prop35
280
     0
102
RTVSPost2010PropOp35
 70
     1
102
RTVSPost2010Prop36
280
     0
102
RTVSPost2010PropOp36
 70
     1
102
RTVSPost2010Prop37
 90
       50
102
RTVSPost2010PropOp37
 70
     1
102
RTVSPost2010Prop38
140
0.0
102
RTVSPost2010PropOp38
 70
     1
102
RTVSPost2010Prop39
140
1.0
102
RTVSPost2010PropOp39
 70
     1
102
RTVSPost2010Prop40
 90
        0
102
RTVSPost2010PropOp40
 70
     1
102
RTVSPost2010Prop41ColorIndex
 90
       18
102
RTVSPost2010Prop41ColorRGB
 90
        0
102
RTVSPost2010PropOp41
 70
     1
102
RTVSPost2010Prop42
 90
       50
102
RTVSPost2010PropOp42
 70
     1
102
RTVSPost2010Prop43
 90
        3
102
RTVSPost2010PropOp43
 70
     1
102
RTVSPost2010Prop44ColorIndex
 90
        5
102
RTVSPost2010Prop44ColorRGB
 90
      255
102
RTVSPost2010PropOp44
 70
     1
102
RTVSPost2010Prop45
280
     0
102
RTVSPost2010PropOp45
 70
     1
102
RTVSPost2010Prop46
 90
       50
102
RTVSPost2010PropOp46
 70
     1
102
RTVSPost2010Prop47
 90
       50
102
RTVSPost2010PropOp47
 70
     1
102
RTVSPost2010Prop48
 90
       50
102
RTVSPost2010PropOp48
 70
     1
102
RTVSPost2010Prop49
280
     0
102
RTVSPost2010PropOp49
 70
     1
102
RTVSPost2010Prop50
 90
       50
102
RTVSPost2010PropOp50
 70
     1
102
RTVSPost2010Prop51ColorIndex
 90
      256
102
RTVSPost2010Prop51ColorRGB
 90
-16777216
102
RTVSPost2010PropOp51
 70
     0
102
RTVSPost2010Prop52
140
1.0
102
RTVSPost2010PropOp52
 70
     0
102
RTVSPost2010Prop53
 90
        2
102
RTVSPost2010PropOp53
 70
     1
102
RTVSPost2010Prop54
  1
strokes_ogs.tif
102
RTVSPost2010PropOp54
 70
     1
102
RTVSPost2010Prop55
280
     0
102
RTVSPost2010PropOp55
 70
     1
102
RTVSPost2010Prop56
140
1.0
102
RTVSPost2010PropOp56
 70
     1
102
RTVSPost2010Prop57
140
1.0
102
RTVSPost2010PropOp57
 70
     1
102
RTVSPropertyOp0
 70
     1
102
RTVSPropertyOp1
 70
     1
102
RTVSPropertyOp2
 70
     1
102
RTVSPropertyOp3
 70
     1
102
RTVSPropertyOp4
 70
     1
102
RTVSPropertyOp5
 70
     1
102
RTVSPropertyOp6
 70
     1
102
RTVSPropertyOp7
 70
     1
102
RTVSPropertyOp8
 70
     1
102
RTVSPropertyOp9
 70
     1
102
RTVSPropertyOp10
 70
     1
102
RTVSPropertyOp11
 70
     1
102
RTVSPropertyOp12
 70
     1
102
RTVSPropertyOp13
 70
     1
102
RTVSPropertyOp14
 70
     1
102
RTVSPropertyOp15
 70
     1
102
RTVSPropertyOp16
 70
     1
102
RTVSPropertyOp17
 70
     1
102
RTVSPropertyOp18
 70
     1
102
RTVSPropertyOp19
 70
     1
102
RTVSPropertyOp20
 70
     1
102
RTVSPropertyOp21
 70
     1
102
RTVSPropertyOp22
 70
     1
102
RTVSPropertyOp23
 70
     1
102
RTVSPropertyOp24
 70
     1
102
RTVSPropertyOp25
 70
     1
102
RTVSPropertyOp26
 70
     1
102
RTVSPropertyOp27
 70
     1
102
RTVSPropertyOp28
 70
     1
102
RTVSPropertyOp29
 70
     1
102
RTVSPropertyOp30
 70
     1
102
RTVSPropertyOp31
 70
     1
102
RTVSPropertyOp32
 70
     1
102
RTVSPropertyOp33
 70
     1
102
RTVSPropertyOp34
 70
     1
102
RTVSPropertyOp35
 70
     1
102
RTVSPropertyOp36
 70
     1
102
RTVSPropertyOp37
 70
     1
102
RTVSPropertyOp38
 70
     1
102
RTVSPropertyOp39
 70
     1
102
RTVSPropertyOp40
 70
     1
102
RTVSPropertyOp41
 70
     1
102
RTVSPropertyOp42
 70
     1
102
RTVSPropertyOp43
 70
     1
102
RTVSPropertyOp44
 70
     1
102
RTVSPropertyOp45
 70
     1
102
RTVSPropertyOp46
 70
     1
102
RTVSPropertyOp47
 70
     1
102
RTVSPropertyOp48
 70
     1
102
RTVSPropertyOp49
 70
     1
102
RTVSPropertyOp50
 70
     1
102
RTVSPropertyOp51
 70
     0
102
RTVSPropertyOp52
 70
     0
102
RTVSPropertyOp53
 70
     1
102
RTVSPropertyOp54
 70
     1
102
RTVSPropertyOp55
 70
     1
102
RTVSPropertyOp56
 70
     1
102
RTVSPropertyOp57
 70
     1
102
RTVSPropertyOp58
 70
     1
102
RTVSPropertyOp59
 70
     1
102
RTVSPropertyOp60
 70
     1
102
RTVSPropertyOp61
 70
     1
102
RTVSPropertyOp62
 70
     1
  0
XRECORD
  5
127B8
102
{ACAD_REACTORS
330
127B7
102
}
330
127B7
100
AcDbXrecord
280
     1
102
RTVSPost2010Prop28
280
     0
102
RTVSPost2010PropOp28
 70
     1
102
RTVSPost2010Prop29
280
     1
102
RTVSPost2010PropOp29
 70
     1
102
RTVSPost2010Prop30
280
     1
102
RTVSPost2010PropOp30
 70
     1
102
RTVSPost2010Prop31
280
     0
102
RTVSPost2010PropOp31
 70
     1
102
RTVSPost2010Prop32
280
     0
102
RTVSPost2010PropOp32
 70
     1
102
RTVSPost2010Prop33
280
     0
102
RTVSPost2010PropOp33
 70
     1
102
RTVSPost2010Prop34
280
     0
102
RTVSPost2010PropOp34
 70
     1
102
RTVSPost2010Prop35
280
     0
102
RTVSPost2010PropOp35
 70
     1
102
RTVSPost2010Prop36
280
     0
102
RTVSPost2010PropOp36
 70
     1
102
RTVSPost2010Prop37
 90
       50
102
RTVSPost2010PropOp37
 70
     1
102
RTVSPost2010Prop38
140
0.0
102
RTVSPost2010PropOp38
 70
     1
102
RTVSPost2010Prop39
140
1.0
102
RTVSPost2010PropOp39
 70
     1
102
RTVSPost2010Prop40
 90
        0
102
RTVSPost2010PropOp40
 70
     1
102
RTVSPost2010Prop41ColorIndex
 90
       18
102
RTVSPost2010Prop41ColorRGB
 90
        0
102
RTVSPost2010PropOp41
 70
     1
102
RTVSPost2010Prop42
 90
       50
102
RTVSPost2010PropOp42
 70
     1
102
RTVSPost2010Prop43
 90
        3
102
RTVSPost2010PropOp43
 70
     1
102
RTVSPost2010Prop44ColorIndex
 90
        5
102
RTVSPost2010Prop44ColorRGB
 90
      255
102
RTVSPost2010PropOp44
 70
     1
102
RTVSPost2010Prop45
280
     0
102
RTVSPost2010PropOp45
 70
     1
102
RTVSPost2010Prop46
 90
       50
102
RTVSPost2010PropOp46
 70
     1
102
RTVSPost2010Prop47
 90
       50
102
RTVSPost2010PropOp47
 70
     1
102
RTVSPost2010Prop48
 90
       50
102
RTVSPost2010PropOp48
 70
     1
102
RTVSPost2010Prop49
280
     0
102
RTVSPost2010PropOp49
 70
     1
102
RTVSPost2010Prop50
 90
       50
102
RTVSPost2010PropOp50
 70
     1
102
RTVSPost2010Prop51ColorIndex
 90
      256
102
RTVSPost2010Prop51ColorRGB
 90
-16777216
102
RTVSPost2010PropOp51
 70
     0
102
RTVSPost2010Prop52
140
1.0
102
RTVSPost2010PropOp52
 70
     0
102
RTVSPost2010Prop53
 90
        2
102
RTVSPost2010PropOp53
 70
     1
102
RTVSPost2010Prop54
  1
strokes_ogs.tif
102
RTVSPost2010PropOp54
 70
     1
102
RTVSPost2010Prop55
280
     0
102
RTVSPost2010PropOp55
 70
     1
102
RTVSPost2010Prop56
140
1.0
102
RTVSPost2010PropOp56
 70
     1
102
RTVSPost2010Prop57
140
1.0
102
RTVSPost2010PropOp57
 70
     1
102
RTVSPropertyOp0
 70
     1
102
RTVSPropertyOp1
 70
     1
102
RTVSPropertyOp2
 70
     1
102
RTVSPropertyOp3
 70
     1
102
RTVSPropertyOp4
 70
     1
102
RTVSPropertyOp5
 70
     1
102
RTVSPropertyOp6
 70
     1
102
RTVSPropertyOp7
 70
     1
102
RTVSPropertyOp8
 70
     1
102
RTVSPropertyOp9
 70
     1
102
RTVSPropertyOp10
 70
     1
102
RTVSPropertyOp11
 70
     1
102
RTVSPropertyOp12
 70
     1
102
RTVSPropertyOp13
 70
     1
102
RTVSPropertyOp14
 70
     1
102
RTVSPropertyOp15
 70
     1
102
RTVSPropertyOp16
 70
     1
102
RTVSPropertyOp17
 70
     1
102
RTVSPropertyOp18
 70
     1
102
RTVSPropertyOp19
 70
     1
102
RTVSPropertyOp20
 70
     1
102
RTVSPropertyOp21
 70
     1
102
RTVSPropertyOp22
 70
     1
102
RTVSPropertyOp23
 70
     1
102
RTVSPropertyOp24
 70
     1
102
RTVSPropertyOp25
 70
     1
102
RTVSPropertyOp26
 70
     1
102
RTVSPropertyOp27
 70
     1
102
RTVSPropertyOp28
 70
     1
102
RTVSPropertyOp29
 70
     1
102
RTVSPropertyOp30
 70
     1
102
RTVSPropertyOp31
 70
     1
102
RTVSPropertyOp32
 70
     1
102
RTVSPropertyOp33
 70
     1
102
RTVSPropertyOp34
 70
     1
102
RTVSPropertyOp35
 70
     1
102
RTVSPropertyOp36
 70
     1
102
RTVSPropertyOp37
 70
     1
102
RTVSPropertyOp38
 70
     1
102
RTVSPropertyOp39
 70
     1
102
RTVSPropertyOp40
 70
     1
102
RTVSPropertyOp41
 70
     1
102
RTVSPropertyOp42
 70
     1
102
RTVSPropertyOp43
 70
     1
102
RTVSPropertyOp44
 70
     1
102
RTVSPropertyOp45
 70
     1
102
RTVSPropertyOp46
 70
     1
102
RTVSPropertyOp47
 70
     1
102
RTVSPropertyOp48
 70
     1
102
RTVSPropertyOp49
 70
     1
102
RTVSPropertyOp50
 70
     1
102
RTVSPropertyOp51
 70
     0
102
RTVSPropertyOp52
 70
     0
102
RTVSPropertyOp53
 70
     1
102
RTVSPropertyOp54
 70
     1
102
RTVSPropertyOp55
 70
     1
102
RTVSPropertyOp56
 70
     1
102
RTVSPropertyOp57
 70
     1
102
RTVSPropertyOp58
 70
     1
102
RTVSPropertyOp59
 70
     1
102
RTVSPropertyOp60
 70
     1
102
RTVSPropertyOp61
 70
     1
102
RTVSPropertyOp62
 70
     1
  0
XRECORD
  5
127B6
102
{ACAD_REACTORS
330
127B5
102
}
330
127B5
100
AcDbXrecord
280
     1
102
RTVSPost2010Prop28
280
     0
102
RTVSPost2010PropOp28
 70
     1
102
RTVSPost2010Prop29
280
     1
102
RTVSPost2010PropOp29
 70
     1
102
RTVSPost2010Prop30
280
     1
102
RTVSPost2010PropOp30
 70
     1
102
RTVSPost2010Prop31
280
     0
102
RTVSPost2010PropOp31
 70
     1
102
RTVSPost2010Prop32
280
     0
102
RTVSPost2010PropOp32
 70
     1
102
RTVSPost2010Prop33
280
     0
102
RTVSPost2010PropOp33
 70
     1
102
RTVSPost2010Prop34
280
     0
102
RTVSPost2010PropOp34
 70
     1
102
RTVSPost2010Prop35
280
     0
102
RTVSPost2010PropOp35
 70
     1
102
RTVSPost2010Prop36
280
     0
102
RTVSPost2010PropOp36
 70
     1
102
RTVSPost2010Prop37
 90
       50
102
RTVSPost2010PropOp37
 70
     1
102
RTVSPost2010Prop38
140
0.0
102
RTVSPost2010PropOp38
 70
     1
102
RTVSPost2010Prop39
140
1.0
102
RTVSPost2010PropOp39
 70
     1
102
RTVSPost2010Prop40
 90
        0
102
RTVSPost2010PropOp40
 70
     1
102
RTVSPost2010Prop41ColorIndex
 90
       18
102
RTVSPost2010Prop41ColorRGB
 90
        0
102
RTVSPost2010PropOp41
 70
     1
102
RTVSPost2010Prop42
 90
       50
102
RTVSPost2010PropOp42
 70
     1
102
RTVSPost2010Prop43
 90
        3
102
RTVSPost2010PropOp43
 70
     1
102
RTVSPost2010Prop44ColorIndex
 90
        5
102
RTVSPost2010Prop44ColorRGB
 90
      255
102
RTVSPost2010PropOp44
 70
     1
102
RTVSPost2010Prop45
280
     0
102
RTVSPost2010PropOp45
 70
     1
102
RTVSPost2010Prop46
 90
       50
102
RTVSPost2010PropOp46
 70
     1
102
RTVSPost2010Prop47
 90
       50
102
RTVSPost2010PropOp47
 70
     1
102
RTVSPost2010Prop48
 90
       50
102
RTVSPost2010PropOp48
 70
     1
102
RTVSPost2010Prop49
280
     0
102
RTVSPost2010PropOp49
 70
     1
102
RTVSPost2010Prop50
 90
       50
102
RTVSPost2010PropOp50
 70
     1
102
RTVSPost2010Prop51ColorIndex
 90
      256
102
RTVSPost2010Prop51ColorRGB
 90
-16777216
102
RTVSPost2010PropOp51
 70
     0
102
RTVSPost2010Prop52
140
1.0
102
RTVSPost2010PropOp52
 70
     0
102
RTVSPost2010Prop53
 90
        2
102
RTVSPost2010PropOp53
 70
     1
102
RTVSPost2010Prop54
  1
strokes_ogs.tif
102
RTVSPost2010PropOp54
 70
     1
102
RTVSPost2010Prop55
280
     0
102
RTVSPost2010PropOp55
 70
     1
102
RTVSPost2010Prop56
140
1.0
102
RTVSPost2010PropOp56
 70
     1
102
RTVSPost2010Prop57
140
1.0
102
RTVSPost2010PropOp57
 70
     1
102
RTVSPropertyOp0
 70
     1
102
RTVSPropertyOp1
 70
     1
102
RTVSPropertyOp2
 70
     1
102
RTVSPropertyOp3
 70
     1
102
RTVSPropertyOp4
 70
     1
102
RTVSPropertyOp5
 70
     1
102
RTVSPropertyOp6
 70
     1
102
RTVSPropertyOp7
 70
     1
102
RTVSPropertyOp8
 70
     1
102
RTVSPropertyOp9
 70
     1
102
RTVSPropertyOp10
 70
     1
102
RTVSPropertyOp11
 70
     1
102
RTVSPropertyOp12
 70
     1
102
RTVSPropertyOp13
 70
     1
102
RTVSPropertyOp14
 70
     1
102
RTVSPropertyOp15
 70
     1
102
RTVSPropertyOp16
 70
     1
102
RTVSPropertyOp17
 70
     1
102
RTVSPropertyOp18
 70
     1
102
RTVSPropertyOp19
 70
     1
102
RTVSPropertyOp20
 70
     1
102
RTVSPropertyOp21
 70
     1
102
RTVSPropertyOp22
 70
     1
102
RTVSPropertyOp23
 70
     1
102
RTVSPropertyOp24
 70
     1
102
RTVSPropertyOp25
 70
     1
102
RTVSPropertyOp26
 70
     1
102
RTVSPropertyOp27
 70
     1
102
RTVSPropertyOp28
 70
     1
102
RTVSPropertyOp29
 70
     1
102
RTVSPropertyOp30
 70
     1
102
RTVSPropertyOp31
 70
     1
102
RTVSPropertyOp32
 70
     1
102
RTVSPropertyOp33
 70
     1
102
RTVSPropertyOp34
 70
     1
102
RTVSPropertyOp35
 70
     1
102
RTVSPropertyOp36
 70
     1
102
RTVSPropertyOp37
 70
     1
102
RTVSPropertyOp38
 70
     1
102
RTVSPropertyOp39
 70
     1
102
RTVSPropertyOp40
 70
     1
102
RTVSPropertyOp41
 70
     1
102
RTVSPropertyOp42
 70
     1
102
RTVSPropertyOp43
 70
     1
102
RTVSPropertyOp44
 70
     1
102
RTVSPropertyOp45
 70
     1
102
RTVSPropertyOp46
 70
     1
102
RTVSPropertyOp47
 70
     1
102
RTVSPropertyOp48
 70
     1
102
RTVSPropertyOp49
 70
     1
102
RTVSPropertyOp50
 70
     1
102
RTVSPropertyOp51
 70
     0
102
RTVSPropertyOp52
 70
     0
102
RTVSPropertyOp53
 70
     1
102
RTVSPropertyOp54
 70
     1
102
RTVSPropertyOp55
 70
     1
102
RTVSPropertyOp56
 70
     1
102
RTVSPropertyOp57
 70
     1
102
RTVSPropertyOp58
 70
     1
102
RTVSPropertyOp59
 70
     1
102
RTVSPropertyOp60
 70
     1
102
RTVSPropertyOp61
 70
     1
102
RTVSPropertyOp62
 70
     1
  0
XRECORD
  5
127B0
102
{ACAD_REACTORS
330
127AF
102
}
330
127AF
100
AcDbXrecord
280
     1
102
RTVSPost2010Prop28
280
     0
102
RTVSPost2010PropOp28
 70
     1
102
RTVSPost2010Prop29
280
     1
102
RTVSPost2010PropOp29
 70
     1
102
RTVSPost2010Prop30
280
     1
102
RTVSPost2010PropOp30
 70
     1
102
RTVSPost2010Prop31
280
     0
102
RTVSPost2010PropOp31
 70
     1
102
RTVSPost2010Prop32
280
     0
102
RTVSPost2010PropOp32
 70
     1
102
RTVSPost2010Prop33
280
     0
102
RTVSPost2010PropOp33
 70
     1
102
RTVSPost2010Prop34
280
     0
102
RTVSPost2010PropOp34
 70
     1
102
RTVSPost2010Prop35
280
     0
102
RTVSPost2010PropOp35
 70
     1
102
RTVSPost2010Prop36
280
     0
102
RTVSPost2010PropOp36
 70
     1
102
RTVSPost2010Prop37
 90
       50
102
RTVSPost2010PropOp37
 70
     1
102
RTVSPost2010Prop38
140
0.0
102
RTVSPost2010PropOp38
 70
     1
102
RTVSPost2010Prop39
140
1.0
102
RTVSPost2010PropOp39
 70
     1
102
RTVSPost2010Prop40
 90
        0
102
RTVSPost2010PropOp40
 70
     1
102
RTVSPost2010Prop41ColorIndex
 90
       18
102
RTVSPost2010Prop41ColorRGB
 90
        0
102
RTVSPost2010PropOp41
 70
     1
102
RTVSPost2010Prop42
 90
       50
102
RTVSPost2010PropOp42
 70
     1
102
RTVSPost2010Prop43
 90
        3
102
RTVSPost2010PropOp43
 70
     1
102
RTVSPost2010Prop44ColorIndex
 90
        5
102
RTVSPost2010Prop44ColorRGB
 90
      255
102
RTVSPost2010PropOp44
 70
     1
102
RTVSPost2010Prop45
280
     0
102
RTVSPost2010PropOp45
 70
     1
102
RTVSPost2010Prop46
 90
       50
102
RTVSPost2010PropOp46
 70
     1
102
RTVSPost2010Prop47
 90
       50
102
RTVSPost2010PropOp47
 70
     1
102
RTVSPost2010Prop48
 90
       50
102
RTVSPost2010PropOp48
 70
     1
102
RTVSPost2010Prop49
280
     0
102
RTVSPost2010PropOp49
 70
     1
102
RTVSPost2010Prop50
 90
       50
102
RTVSPost2010PropOp50
 70
     1
102
RTVSPost2010Prop51ColorIndex
 90
      256
102
RTVSPost2010Prop51ColorRGB
 90
-16777216
102
RTVSPost2010PropOp51
 70
     0
102
RTVSPost2010Prop52
140
1.0
102
RTVSPost2010PropOp52
 70
     0
102
RTVSPost2010Prop53
 90
        2
102
RTVSPost2010PropOp53
 70
     1
102
RTVSPost2010Prop54
  1
strokes_ogs.tif
102
RTVSPost2010PropOp54
 70
     1
102
RTVSPost2010Prop55
280
     0
102
RTVSPost2010PropOp55
 70
     1
102
RTVSPost2010Prop56
140
1.0
102
RTVSPost2010PropOp56
 70
     1
102
RTVSPost2010Prop57
140
1.0
102
RTVSPost2010PropOp57
 70
     1
102
RTVSPropertyOp0
 70
     1
102
RTVSPropertyOp1
 70
     1
102
RTVSPropertyOp2
 70
     1
102
RTVSPropertyOp3
 70
     1
102
RTVSPropertyOp4
 70
     1
102
RTVSPropertyOp5
 70
     1
102
RTVSPropertyOp6
 70
     1
102
RTVSPropertyOp7
 70
     1
102
RTVSPropertyOp8
 70
     1
102
RTVSPropertyOp9
 70
     1
102
RTVSPropertyOp10
 70
     1
102
RTVSPropertyOp11
 70
     1
102
RTVSPropertyOp12
 70
     1
102
RTVSPropertyOp13
 70
     1
102
RTVSPropertyOp14
 70
     1
102
RTVSPropertyOp15
 70
     1
102
RTVSPropertyOp16
 70
     1
102
RTVSPropertyOp17
 70
     1
102
RTVSPropertyOp18
 70
     1
102
RTVSPropertyOp19
 70
     1
102
RTVSPropertyOp20
 70
     1
102
RTVSPropertyOp21
 70
     1
102
RTVSPropertyOp22
 70
     1
102
RTVSPropertyOp23
 70
     1
102
RTVSPropertyOp24
 70
     1
102
RTVSPropertyOp25
 70
     1
102
RTVSPropertyOp26
 70
     1
102
RTVSPropertyOp27
 70
     1
102
RTVSPropertyOp28
 70
     1
102
RTVSPropertyOp29
 70
     1
102
RTVSPropertyOp30
 70
     1
102
RTVSPropertyOp31
 70
     1
102
RTVSPropertyOp32
 70
     1
102
RTVSPropertyOp33
 70
     1
102
RTVSPropertyOp34
 70
     1
102
RTVSPropertyOp35
 70
     1
102
RTVSPropertyOp36
 70
     1
102
RTVSPropertyOp37
 70
     1
102
RTVSPropertyOp38
 70
     1
102
RTVSPropertyOp39
 70
     1
102
RTVSPropertyOp40
 70
     1
102
RTVSPropertyOp41
 70
     1
102
RTVSPropertyOp42
 70
     1
102
RTVSPropertyOp43
 70
     1
102
RTVSPropertyOp44
 70
     1
102
RTVSPropertyOp45
 70
     1
102
RTVSPropertyOp46
 70
     1
102
RTVSPropertyOp47
 70
     1
102
RTVSPropertyOp48
 70
     1
102
RTVSPropertyOp49
 70
     1
102
RTVSPropertyOp50
 70
     1
102
RTVSPropertyOp51
 70
     0
102
RTVSPropertyOp52
 70
     0
102
RTVSPropertyOp53
 70
     1
102
RTVSPropertyOp54
 70
     1
102
RTVSPropertyOp55
 70
     1
102
RTVSPropertyOp56
 70
     1
102
RTVSPropertyOp57
 70
     1
102
RTVSPropertyOp58
 70
     1
102
RTVSPropertyOp59
 70
     1
102
RTVSPropertyOp60
 70
     1
102
RTVSPropertyOp61
 70
     1
102
RTVSPropertyOp62
 70
     1
  0
XRECORD
  5
127B2
102
{ACAD_REACTORS
330
127B1
102
}
330
127B1
100
AcDbXrecord
280
     1
102
RTVSPost2010Prop28
280
     0
102
RTVSPost2010PropOp28
 70
     1
102
RTVSPost2010Prop29
280
     1
102
RTVSPost2010PropOp29
 70
     1
102
RTVSPost2010Prop30
280
     1
102
RTVSPost2010PropOp30
 70
     1
102
RTVSPost2010Prop31
280
     0
102
RTVSPost2010PropOp31
 70
     1
102
RTVSPost2010Prop32
280
     0
102
RTVSPost2010PropOp32
 70
     1
102
RTVSPost2010Prop33
280
     0
102
RTVSPost2010PropOp33
 70
     1
102
RTVSPost2010Prop34
280
     0
102
RTVSPost2010PropOp34
 70
     1
102
RTVSPost2010Prop35
280
     0
102
RTVSPost2010PropOp35
 70
     1
102
RTVSPost2010Prop36
280
     0
102
RTVSPost2010PropOp36
 70
     1
102
RTVSPost2010Prop37
 90
       50
102
RTVSPost2010PropOp37
 70
     1
102
RTVSPost2010Prop38
140
0.0
102
RTVSPost2010PropOp38
 70
     1
102
RTVSPost2010Prop39
140
1.0
102
RTVSPost2010PropOp39
 70
     1
102
RTVSPost2010Prop40
 90
        0
102
RTVSPost2010PropOp40
 70
     1
102
RTVSPost2010Prop41ColorIndex
 90
       18
102
RTVSPost2010Prop41ColorRGB
 90
        0
102
RTVSPost2010PropOp41
 70
     1
102
RTVSPost2010Prop42
 90
       50
102
RTVSPost2010PropOp42
 70
     1
102
RTVSPost2010Prop43
 90
        3
102
RTVSPost2010PropOp43
 70
     1
102
RTVSPost2010Prop44ColorIndex
 90
        5
102
RTVSPost2010Prop44ColorRGB
 90
      255
102
RTVSPost2010PropOp44
 70
     1
102
RTVSPost2010Prop45
280
     0
102
RTVSPost2010PropOp45
 70
     1
102
RTVSPost2010Prop46
 90
       50
102
RTVSPost2010PropOp46
 70
     1
102
RTVSPost2010Prop47
 90
       50
102
RTVSPost2010PropOp47
 70
     1
102
RTVSPost2010Prop48
 90
       50
102
RTVSPost2010PropOp48
 70
     1
102
RTVSPost2010Prop49
280
     0
102
RTVSPost2010PropOp49
 70
     1
102
RTVSPost2010Prop50
 90
       50
102
RTVSPost2010PropOp50
 70
     1
102
RTVSPost2010Prop51ColorIndex
 90
      256
102
RTVSPost2010Prop51ColorRGB
 90
-16777216
102
RTVSPost2010PropOp51
 70
     0
102
RTVSPost2010Prop52
140
1.0
102
RTVSPost2010PropOp52
 70
     0
102
RTVSPost2010Prop53
 90
        2
102
RTVSPost2010PropOp53
 70
     1
102
RTVSPost2010Prop54
  1
strokes_ogs.tif
102
RTVSPost2010PropOp54
 70
     1
102
RTVSPost2010Prop55
280
     0
102
RTVSPost2010PropOp55
 70
     1
102
RTVSPost2010Prop56
140
1.0
102
RTVSPost2010PropOp56
 70
     1
102
RTVSPost2010Prop57
140
1.0
102
RTVSPost2010PropOp57
 70
     1
102
RTVSPropertyOp0
 70
     1
102
RTVSPropertyOp1
 70
     1
102
RTVSPropertyOp2
 70
     1
102
RTVSPropertyOp3
 70
     1
102
RTVSPropertyOp4
 70
     1
102
RTVSPropertyOp5
 70
     1
102
RTVSPropertyOp6
 70
     1
102
RTVSPropertyOp7
 70
     1
102
RTVSPropertyOp8
 70
     1
102
RTVSPropertyOp9
 70
     1
102
RTVSPropertyOp10
 70
     1
102
RTVSPropertyOp11
 70
     1
102
RTVSPropertyOp12
 70
     1
102
RTVSPropertyOp13
 70
     1
102
RTVSPropertyOp14
 70
     1
102
RTVSPropertyOp15
 70
     1
102
RTVSPropertyOp16
 70
     1
102
RTVSPropertyOp17
 70
     1
102
RTVSPropertyOp18
 70
     1
102
RTVSPropertyOp19
 70
     1
102
RTVSPropertyOp20
 70
     1
102
RTVSPropertyOp21
 70
     1
102
RTVSPropertyOp22
 70
     1
102
RTVSPropertyOp23
 70
     1
102
RTVSPropertyOp24
 70
     1
102
RTVSPropertyOp25
 70
     1
102
RTVSPropertyOp26
 70
     1
102
RTVSPropertyOp27
 70
     1
102
RTVSPropertyOp28
 70
     1
102
RTVSPropertyOp29
 70
     1
102
RTVSPropertyOp30
 70
     1
102
RTVSPropertyOp31
 70
     1
102
RTVSPropertyOp32
 70
     1
102
RTVSPropertyOp33
 70
     1
102
RTVSPropertyOp34
 70
     1
102
RTVSPropertyOp35
 70
     1
102
RTVSPropertyOp36
 70
     1
102
RTVSPropertyOp37
 70
     1
102
RTVSPropertyOp38
 70
     1
102
RTVSPropertyOp39
 70
     1
102
RTVSPropertyOp40
 70
     1
102
RTVSPropertyOp41
 70
     1
102
RTVSPropertyOp42
 70
     1
102
RTVSPropertyOp43
 70
     1
102
RTVSPropertyOp44
 70
     1
102
RTVSPropertyOp45
 70
     1
102
RTVSPropertyOp46
 70
     1
102
RTVSPropertyOp47
 70
     1
102
RTVSPropertyOp48
 70
     1
102
RTVSPropertyOp49
 70
     1
102
RTVSPropertyOp50
 70
     1
102
RTVSPropertyOp51
 70
     0
102
RTVSPropertyOp52
 70
     0
102
RTVSPropertyOp53
 70
     1
102
RTVSPropertyOp54
 70
     1
102
RTVSPropertyOp55
 70
     1
102
RTVSPropertyOp56
 70
     1
102
RTVSPropertyOp57
 70
     1
102
RTVSPropertyOp58
 70
     1
102
RTVSPropertyOp59
 70
     1
102
RTVSPropertyOp60
 70
     1
102
RTVSPropertyOp61
 70
     1
102
RTVSPropertyOp62
 70
     1
  0
XRECORD
  5
1279D
102
{ACAD_REACTORS
330
1279C
102
}
330
1279C
100
AcDbXrecord
280
     1
102
RTVSPost2010Prop28
280
     0
102
RTVSPost2010PropOp28
 70
     1
102
RTVSPost2010Prop29
280
     1
102
RTVSPost2010PropOp29
 70
     1
102
RTVSPost2010Prop30
280
     1
102
RTVSPost2010PropOp30
 70
     1
102
RTVSPost2010Prop31
280
     0
102
RTVSPost2010PropOp31
 70
     1
102
RTVSPost2010Prop32
280
     0
102
RTVSPost2010PropOp32
 70
     1
102
RTVSPost2010Prop33
280
     0
102
RTVSPost2010PropOp33
 70
     1
102
RTVSPost2010Prop34
280
     0
102
RTVSPost2010PropOp34
 70
     1
102
RTVSPost2010Prop35
280
     0
102
RTVSPost2010PropOp35
 70
     1
102
RTVSPost2010Prop36
280
     0
102
RTVSPost2010PropOp36
 70
     1
102
RTVSPost2010Prop37
 90
       50
102
RTVSPost2010PropOp37
 70
     1
102
RTVSPost2010Prop38
140
0.0
102
RTVSPost2010PropOp38
 70
     1
102
RTVSPost2010Prop39
140
1.0
102
RTVSPost2010PropOp39
 70
     1
102
RTVSPost2010Prop40
 90
        0
102
RTVSPost2010PropOp40
 70
     1
102
RTVSPost2010Prop41ColorIndex
 90
       18
102
RTVSPost2010Prop41ColorRGB
 90
        0
102
RTVSPost2010PropOp41
 70
     1
102
RTVSPost2010Prop42
 90
       50
102
RTVSPost2010PropOp42
 70
     1
102
RTVSPost2010Prop43
 90
        3
102
RTVSPost2010PropOp43
 70
     1
102
RTVSPost2010Prop44ColorIndex
 90
        5
102
RTVSPost2010Prop44ColorRGB
 90
      255
102
RTVSPost2010PropOp44
 70
     1
102
RTVSPost2010Prop45
280
     0
102
RTVSPost2010PropOp45
 70
     1
102
RTVSPost2010Prop46
 90
       50
102
RTVSPost2010PropOp46
 70
     1
102
RTVSPost2010Prop47
 90
       50
102
RTVSPost2010PropOp47
 70
     1
102
RTVSPost2010Prop48
 90
       50
102
RTVSPost2010PropOp48
 70
     1
102
RTVSPost2010Prop49
280
     0
102
RTVSPost2010PropOp49
 70
     1
102
RTVSPost2010Prop50
 90
       50
102
RTVSPost2010PropOp50
 70
     1
102
RTVSPost2010Prop51ColorIndex
 90
      256
102
RTVSPost2010Prop51ColorRGB
 90
-16777216
102
RTVSPost2010PropOp51
 70
     0
102
RTVSPost2010Prop52
140
1.0
102
RTVSPost2010PropOp52
 70
     0
102
RTVSPost2010Prop53
 90
        2
102
RTVSPost2010PropOp53
 70
     1
102
RTVSPost2010Prop54
  1
strokes_ogs.tif
102
RTVSPost2010PropOp54
 70
     1
102
RTVSPost2010Prop55
280
     0
102
RTVSPost2010PropOp55
 70
     1
102
RTVSPost2010Prop56
140
1.0
102
RTVSPost2010PropOp56
 70
     1
102
RTVSPost2010Prop57
140
1.0
102
RTVSPost2010PropOp57
 70
     1
102
RTVSPropertyOp0
 70
     1
102
RTVSPropertyOp1
 70
     1
102
RTVSPropertyOp2
 70
     1
102
RTVSPropertyOp3
 70
     1
102
RTVSPropertyOp4
 70
     1
102
RTVSPropertyOp5
 70
     1
102
RTVSPropertyOp6
 70
     1
102
RTVSPropertyOp7
 70
     1
102
RTVSPropertyOp8
 70
     1
102
RTVSPropertyOp9
 70
     1
102
RTVSPropertyOp10
 70
     1
102
RTVSPropertyOp11
 70
     1
102
RTVSPropertyOp12
 70
     1
102
RTVSPropertyOp13
 70
     1
102
RTVSPropertyOp14
 70
     1
102
RTVSPropertyOp15
 70
     1
102
RTVSPropertyOp16
 70
     1
102
RTVSPropertyOp17
 70
     1
102
RTVSPropertyOp18
 70
     1
102
RTVSPropertyOp19
 70
     1
102
RTVSPropertyOp20
 70
     1
102
RTVSPropertyOp21
 70
     1
102
RTVSPropertyOp22
 70
     1
102
RTVSPropertyOp23
 70
     1
102
RTVSPropertyOp24
 70
     1
102
RTVSPropertyOp25
 70
     1
102
RTVSPropertyOp26
 70
     1
102
RTVSPropertyOp27
 70
     1
102
RTVSPropertyOp28
 70
     1
102
RTVSPropertyOp29
 70
     1
102
RTVSPropertyOp30
 70
     1
102
RTVSPropertyOp31
 70
     1
102
RTVSPropertyOp32
 70
     1
102
RTVSPropertyOp33
 70
     1
102
RTVSPropertyOp34
 70
     1
102
RTVSPropertyOp35
 70
     1
102
RTVSPropertyOp36
 70
     1
102
RTVSPropertyOp37
 70
     1
102
RTVSPropertyOp38
 70
     1
102
RTVSPropertyOp39
 70
     1
102
RTVSPropertyOp40
 70
     1
102
RTVSPropertyOp41
 70
     1
102
RTVSPropertyOp42
 70
     1
102
RTVSPropertyOp43
 70
     1
102
RTVSPropertyOp44
 70
     1
102
RTVSPropertyOp45
 70
     1
102
RTVSPropertyOp46
 70
     1
102
RTVSPropertyOp47
 70
     1
102
RTVSPropertyOp48
 70
     1
102
RTVSPropertyOp49
 70
     1
102
RTVSPropertyOp50
 70
     1
102
RTVSPropertyOp51
 70
     0
102
RTVSPropertyOp52
 70
     0
102
RTVSPropertyOp53
 70
     1
102
RTVSPropertyOp54
 70
     1
102
RTVSPropertyOp55
 70
     1
102
RTVSPropertyOp56
 70
     1
102
RTVSPropertyOp57
 70
     1
102
RTVSPropertyOp58
 70
     1
102
RTVSPropertyOp59
 70
     1
102
RTVSPropertyOp60
 70
     1
102
RTVSPropertyOp61
 70
     1
102
RTVSPropertyOp62
 70
     1
  0
XRECORD
  5
127AC
102
{ACAD_REACTORS
330
127AB
102
}
330
127AB
100
AcDbXrecord
280
     1
102
RTVSPost2010Prop28
280
     0
102
RTVSPost2010PropOp28
 70
     1
102
RTVSPost2010Prop29
280
     1
102
RTVSPost2010PropOp29
 70
     1
102
RTVSPost2010Prop30
280
     1
102
RTVSPost2010PropOp30
 70
     1
102
RTVSPost2010Prop31
280
     0
102
RTVSPost2010PropOp31
 70
     1
102
RTVSPost2010Prop32
280
     0
102
RTVSPost2010PropOp32
 70
     1
102
RTVSPost2010Prop33
280
     0
102
RTVSPost2010PropOp33
 70
     1
102
RTVSPost2010Prop34
280
     0
102
RTVSPost2010PropOp34
 70
     1
102
RTVSPost2010Prop35
280
     0
102
RTVSPost2010PropOp35
 70
     1
102
RTVSPost2010Prop36
280
     0
102
RTVSPost2010PropOp36
 70
     1
102
RTVSPost2010Prop37
 90
       50
102
RTVSPost2010PropOp37
 70
     1
102
RTVSPost2010Prop38
140
0.0
102
RTVSPost2010PropOp38
 70
     1
102
RTVSPost2010Prop39
140
1.0
102
RTVSPost2010PropOp39
 70
     1
102
RTVSPost2010Prop40
 90
        0
102
RTVSPost2010PropOp40
 70
     1
102
RTVSPost2010Prop41ColorIndex
 90
       18
102
RTVSPost2010Prop41ColorRGB
 90
        0
102
RTVSPost2010PropOp41
 70
     1
102
RTVSPost2010Prop42
 90
       50
102
RTVSPost2010PropOp42
 70
     1
102
RTVSPost2010Prop43
 90
        3
102
RTVSPost2010PropOp43
 70
     1
102
RTVSPost2010Prop44ColorIndex
 90
        5
102
RTVSPost2010Prop44ColorRGB
 90
      255
102
RTVSPost2010PropOp44
 70
     1
102
RTVSPost2010Prop45
280
     0
102
RTVSPost2010PropOp45
 70
     1
102
RTVSPost2010Prop46
 90
       50
102
RTVSPost2010PropOp46
 70
     1
102
RTVSPost2010Prop47
 90
       50
102
RTVSPost2010PropOp47
 70
     1
102
RTVSPost2010Prop48
 90
       50
102
RTVSPost2010PropOp48
 70
     1
102
RTVSPost2010Prop49
280
     0
102
RTVSPost2010PropOp49
 70
     1
102
RTVSPost2010Prop50
 90
       50
102
RTVSPost2010PropOp50
 70
     1
102
RTVSPost2010Prop51ColorIndex
 90
      256
102
RTVSPost2010Prop51ColorRGB
 90
-16777216
102
RTVSPost2010PropOp51
 70
     0
102
RTVSPost2010Prop52
140
1.0
102
RTVSPost2010PropOp52
 70
     0
102
RTVSPost2010Prop53
 90
        2
102
RTVSPost2010PropOp53
 70
     1
102
RTVSPost2010Prop54
  1
strokes_ogs.tif
102
RTVSPost2010PropOp54
 70
     1
102
RTVSPost2010Prop55
280
     0
102
RTVSPost2010PropOp55
 70
     1
102
RTVSPost2010Prop56
140
1.0
102
RTVSPost2010PropOp56
 70
     1
102
RTVSPost2010Prop57
140
1.0
102
RTVSPost2010PropOp57
 70
     1
102
RTVSPropertyOp0
 70
     1
102
RTVSPropertyOp1
 70
     1
102
RTVSPropertyOp2
 70
     1
102
RTVSPropertyOp3
 70
     1
102
RTVSPropertyOp4
 70
     1
102
RTVSPropertyOp5
 70
     1
102
RTVSPropertyOp6
 70
     1
102
RTVSPropertyOp7
 70
     1
102
RTVSPropertyOp8
 70
     1
102
RTVSPropertyOp9
 70
     1
102
RTVSPropertyOp10
 70
     1
102
RTVSPropertyOp11
 70
     1
102
RTVSPropertyOp12
 70
     1
102
RTVSPropertyOp13
 70
     1
102
RTVSPropertyOp14
 70
     1
102
RTVSPropertyOp15
 70
     1
102
RTVSPropertyOp16
 70
     1
102
RTVSPropertyOp17
 70
     1
102
RTVSPropertyOp18
 70
     1
102
RTVSPropertyOp19
 70
     1
102
RTVSPropertyOp20
 70
     1
102
RTVSPropertyOp21
 70
     1
102
RTVSPropertyOp22
 70
     1
102
RTVSPropertyOp23
 70
     1
102
RTVSPropertyOp24
 70
     1
102
RTVSPropertyOp25
 70
     1
102
RTVSPropertyOp26
 70
     1
102
RTVSPropertyOp27
 70
     1
102
RTVSPropertyOp28
 70
     1
102
RTVSPropertyOp29
 70
     1
102
RTVSPropertyOp30
 70
     1
102
RTVSPropertyOp31
 70
     1
102
RTVSPropertyOp32
 70
     1
102
RTVSPropertyOp33
 70
     1
102
RTVSPropertyOp34
 70
     1
102
RTVSPropertyOp35
 70
     1
102
RTVSPropertyOp36
 70
     1
102
RTVSPropertyOp37
 70
     1
102
RTVSPropertyOp38
 70
     1
102
RTVSPropertyOp39
 70
     1
102
RTVSPropertyOp40
 70
     1
102
RTVSPropertyOp41
 70
     1
102
RTVSPropertyOp42
 70
     1
102
RTVSPropertyOp43
 70
     1
102
RTVSPropertyOp44
 70
     1
102
RTVSPropertyOp45
 70
     1
102
RTVSPropertyOp46
 70
     1
102
RTVSPropertyOp47
 70
     1
102
RTVSPropertyOp48
 70
     1
102
RTVSPropertyOp49
 70
     1
102
RTVSPropertyOp50
 70
     1
102
RTVSPropertyOp51
 70
     0
102
RTVSPropertyOp52
 70
     0
102
RTVSPropertyOp53
 70
     1
102
RTVSPropertyOp54
 70
     1
102
RTVSPropertyOp55
 70
     1
102
RTVSPropertyOp56
 70
     1
102
RTVSPropertyOp57
 70
     1
102
RTVSPropertyOp58
 70
     1
102
RTVSPropertyOp59
 70
     1
102
RTVSPropertyOp60
 70
     1
102
RTVSPropertyOp61
 70
     1
102
RTVSPropertyOp62
 70
     1
  0
XRECORD
  5
127B4
102
{ACAD_REACTORS
330
127B3
102
}
330
127B3
100
AcDbXrecord
280
     1
102
RTVSPost2010Prop28
280
     0
102
RTVSPost2010PropOp28
 70
     1
102
RTVSPost2010Prop29
280
     1
102
RTVSPost2010PropOp29
 70
     1
102
RTVSPost2010Prop30
280
     1
102
RTVSPost2010PropOp30
 70
     1
102
RTVSPost2010Prop31
280
     0
102
RTVSPost2010PropOp31
 70
     1
102
RTVSPost2010Prop32
280
     0
102
RTVSPost2010PropOp32
 70
     1
102
RTVSPost2010Prop33
280
     0
102
RTVSPost2010PropOp33
 70
     1
102
RTVSPost2010Prop34
280
     0
102
RTVSPost2010PropOp34
 70
     1
102
RTVSPost2010Prop35
280
     0
102
RTVSPost2010PropOp35
 70
     1
102
RTVSPost2010Prop36
280
     0
102
RTVSPost2010PropOp36
 70
     1
102
RTVSPost2010Prop37
 90
       50
102
RTVSPost2010PropOp37
 70
     1
102
RTVSPost2010Prop38
140
0.0
102
RTVSPost2010PropOp38
 70
     1
102
RTVSPost2010Prop39
140
1.0
102
RTVSPost2010PropOp39
 70
     1
102
RTVSPost2010Prop40
 90
        0
102
RTVSPost2010PropOp40
 70
     1
102
RTVSPost2010Prop41ColorIndex
 90
       18
102
RTVSPost2010Prop41ColorRGB
 90
        0
102
RTVSPost2010PropOp41
 70
     1
102
RTVSPost2010Prop42
 90
       50
102
RTVSPost2010PropOp42
 70
     1
102
RTVSPost2010Prop43
 90
        3
102
RTVSPost2010PropOp43
 70
     1
102
RTVSPost2010Prop44ColorIndex
 90
        5
102
RTVSPost2010Prop44ColorRGB
 90
      255
102
RTVSPost2010PropOp44
 70
     1
102
RTVSPost2010Prop45
280
     0
102
RTVSPost2010PropOp45
 70
     1
102
RTVSPost2010Prop46
 90
       50
102
RTVSPost2010PropOp46
 70
     1
102
RTVSPost2010Prop47
 90
       50
102
RTVSPost2010PropOp47
 70
     1
102
RTVSPost2010Prop48
 90
       50
102
RTVSPost2010PropOp48
 70
     1
102
RTVSPost2010Prop49
280
     0
102
RTVSPost2010PropOp49
 70
     1
102
RTVSPost2010Prop50
 90
       50
102
RTVSPost2010PropOp50
 70
     1
102
RTVSPost2010Prop51ColorIndex
 90
      256
102
RTVSPost2010Prop51ColorRGB
 90
-16777216
102
RTVSPost2010PropOp51
 70
     0
102
RTVSPost2010Prop52
140
1.0
102
RTVSPost2010PropOp52
 70
     0
102
RTVSPost2010Prop53
 90
        2
102
RTVSPost2010PropOp53
 70
     1
102
RTVSPost2010Prop54
  1
strokes_ogs.tif
102
RTVSPost2010PropOp54
 70
     1
102
RTVSPost2010Prop55
280
     0
102
RTVSPost2010PropOp55
 70
     1
102
RTVSPost2010Prop56
140
1.0
102
RTVSPost2010PropOp56
 70
     1
102
RTVSPost2010Prop57
140
1.0
102
RTVSPost2010PropOp57
 70
     1
102
RTVSPropertyOp0
 70
     1
102
RTVSPropertyOp1
 70
     1
102
RTVSPropertyOp2
 70
     1
102
RTVSPropertyOp3
 70
     1
102
RTVSPropertyOp4
 70
     1
102
RTVSPropertyOp5
 70
     1
102
RTVSPropertyOp6
 70
     1
102
RTVSPropertyOp7
 70
     1
102
RTVSPropertyOp8
 70
     1
102
RTVSPropertyOp9
 70
     1
102
RTVSPropertyOp10
 70
     1
102
RTVSPropertyOp11
 70
     1
102
RTVSPropertyOp12
 70
     1
102
RTVSPropertyOp13
 70
     1
102
RTVSPropertyOp14
 70
     1
102
RTVSPropertyOp15
 70
     1
102
RTVSPropertyOp16
 70
     1
102
RTVSPropertyOp17
 70
     1
102
RTVSPropertyOp18
 70
     1
102
RTVSPropertyOp19
 70
     1
102
RTVSPropertyOp20
 70
     1
102
RTVSPropertyOp21
 70
     1
102
RTVSPropertyOp22
 70
     1
102
RTVSPropertyOp23
 70
     1
102
RTVSPropertyOp24
 70
     1
102
RTVSPropertyOp25
 70
     1
102
RTVSPropertyOp26
 70
     1
102
RTVSPropertyOp27
 70
     1
102
RTVSPropertyOp28
 70
     1
102
RTVSPropertyOp29
 70
     1
102
RTVSPropertyOp30
 70
     1
102
RTVSPropertyOp31
 70
     1
102
RTVSPropertyOp32
 70
     1
102
RTVSPropertyOp33
 70
     1
102
RTVSPropertyOp34
 70
     1
102
RTVSPropertyOp35
 70
     1
102
RTVSPropertyOp36
 70
     1
102
RTVSPropertyOp37
 70
     1
102
RTVSPropertyOp38
 70
     1
102
RTVSPropertyOp39
 70
     1
102
RTVSPropertyOp40
 70
     1
102
RTVSPropertyOp41
 70
     1
102
RTVSPropertyOp42
 70
     1
102
RTVSPropertyOp43
 70
     1
102
RTVSPropertyOp44
 70
     1
102
RTVSPropertyOp45
 70
     1
102
RTVSPropertyOp46
 70
     1
102
RTVSPropertyOp47
 70
     1
102
RTVSPropertyOp48
 70
     1
102
RTVSPropertyOp49
 70
     1
102
RTVSPropertyOp50
 70
     1
102
RTVSPropertyOp51
 70
     0
102
RTVSPropertyOp52
 70
     0
102
RTVSPropertyOp53
 70
     1
102
RTVSPropertyOp54
 70
     1
102
RTVSPropertyOp55
 70
     1
102
RTVSPropertyOp56
 70
     1
102
RTVSPropertyOp57
 70
     1
102
RTVSPropertyOp58
 70
     1
102
RTVSPropertyOp59
 70
     1
102
RTVSPropertyOp60
 70
     1
102
RTVSPropertyOp61
 70
     1
102
RTVSPropertyOp62
 70
     1
  0
ENDSEC
  0
EOF
