0
SECTION
2
HEADER
9
$ACADVER
1
AC1015
9
$DWGCODEPAGE
3
ANSI_1252
9
$HANDSEED
5
1e5
9
$ANGBASE
50
0
9
$ANGDIR
70
0
9
$ATTMODE
70
1
9
$AUNITS
70
0
9
$AUPREC
70
0
9
$CECOLOR
62
256
9
$CELTSCALE
40
1
9
$CELTYPE
6
ByLayer
9
$CELWEIGHT
370
18
9
$CLAYER
8
0
9
$CMLJUST
70
0
9
$CMLSCALE
40
1
9
$CMLSTYLE
2
Standard
9
$DIMSTYLE
2
Standard
9
$TEXTSIZE
40
0.2
9
$TEXTSTYLE
7
Standard
9
$LUNITS
70
2
9
$LUPREC
70
4
9
$EXTNAMES
290
1
9
$INSUNITS
70
4
9
$LTSCALE
40
1
9
$LWDISPLAY
290
1
9
$PDMODE
70
0
9
$PDSIZE
40
0
9
$PLINEGEN
70
0
0
ENDSEC
0
SECTION
2
CLASSES
0
CLASS
1
RASTERVARIABLES
2
AcDbRasterVariables
3
ISM
90
0
280
0
281
0
0
ENDSEC
0
SECTION
2
TABLES
0
TABLE
2
VPORT
5
1db
100
AcDbSymbolTable
0
VPORT
5
1
100
AcDbSymbolTableRecord
100
AcDbViewportTableRecord
2
*Active
70
0
10
0
20
0
11
1
21
1
12
-1
22
1
13
0
23
0
14
0.5
24
0.5
15
10
25
10
16
0
26
0
36
1
17
0
27
0
37
0
0
ENDTAB
0
TABLE
2
LTYPE
5
1dc
100
AcDbSymbolTable
0
LTYPE
5
14
100
AcDbSymbolTableRecord
100
AcDbLinetypeTableRecord
70
0
2
ByBlock
3

72
65
73
0
40
0
0
LTYPE
5
15
100
AcDbSymbolTableRecord
100
AcDbLinetypeTableRecord
70
0
2
ByLayer
3

72
65
73
0
40
0
0
LTYPE
5
16
100
AcDbSymbolTableRecord
100
AcDbLinetypeTableRecord
70
0
2
CONTINUOUS
3
Solid line
72
65
73
0
40
0
0
LTYPE
5
6A
100
AcDbSymbolTableRecord
100
AcDbLinetypeTableRecord
70
0
2
CENTER
3
____ _ ____ _ ____ _ ____
72
65
73
4
40
47.5
49
22
74
0
49
-8.5
74
0
49
8.5
74
0
49
-8.5
74
0
0
LTYPE
5
6B
100
AcDbSymbolTableRecord
100
AcDbLinetypeTableRecord
70
0
2
DASHED
3
__ __ __ __ __ __ __ __ __
72
65
73
2
40
25.72
49
12.86
74
0
49
-12.86
74
0
0
ENDTAB
0
TABLE
2
LAYER
5
1dd
100
AcDbSymbolTable
0
LAYER
5
10
100
AcDbSymbolTableRecord
100
AcDbLayerTableRecord
2
0
70
0
62
7
6
CONTINUOUS
290
1
370
-3
390
0
0
LAYER
5
6D
100
AcDbSymbolTableRecord
100
AcDbLayerTableRecord
2
80
70
0
62
-6
6
CONTINUOUS
290
1
370
-3
390
0
0
LAYER
5
6F
100
AcDbSymbolTableRecord
100
AcDbLayerTableRecord
2
81
70
0
62
-3
6
CONTINUOUS
290
1
370
-3
390
0
0
LAYER
5
71
100
AcDbSymbolTableRecord
100
AcDbLayerTableRecord
2
1
70
0
62
4
6
CONTINUOUS
290
1
370
-3
390
0
0
LAYER
5
138
100
AcDbSymbolTableRecord
100
AcDbLayerTableRecord
2
2
70
0
62
7
6
CONTINUOUS
290
1
370
-3
390
0
0
LAYER
5
1c8
100
AcDbSymbolTableRecord
100
AcDbLayerTableRecord
2
SK1
70
0
62
4
6
CONTINUOUS
290
1
370
-3
390
0
0
LAYER
5
1c9
100
AcDbSymbolTableRecord
100
AcDbLayerTableRecord
2
SK6
70
0
62
5
6
CONTINUOUS
290
1
370
-3
390
0
0
LAYER
5
1ca
100
AcDbSymbolTableRecord
100
AcDbLayerTableRecord
2
SK2
70
0
62
7
6
CONTINUOUS
290
1
370
-3
390
0
0
ENDTAB
0
TABLE
2
STYLE
5
1de
100
AcDbSymbolTable
0
STYLE
5
11
100
AcDbSymbolTableRecord
100
AcDbTextStyleTableRecord
2
Standard
3
txt
70
0
71
0
40
0
41
1
42
0
50
0
0
STYLE
5
11D
100
AcDbSymbolTableRecord
100
AcDbTextStyleTableRecord
2
iso_b_vert
3
simplex.shx
70
0
71
0
40
0
41
1
42
0
50
0
0
STYLE
5
11E
100
AcDbSymbolTableRecord
100
AcDbTextStyleTableRecord
2
DWGDirectTextStyle
3
simplex
70
0
71
0
40
0
41
1
42
0
50
0
0
ENDTAB
0
TABLE
2
DIMSTYLE
5
1df
100
AcDbSymbolTable
100
AcDbDimStyleTable
0
DIMSTYLE
105
27
100
AcDbSymbolTableRecord
100
AcDbDimStyleTableRecord
2
Standard
70
0
3
<>
41
0.18
42
0.0625
44
0.18
140
0.18
147
0.09
73
0
74
0
77
1
271
2
275
0
278
52
280
0
340
11
0
ENDTAB
0
TABLE
2
VIEW
5
1e0
100
AcDbSymbolTable
0
ENDTAB
0
TABLE
2
UCS
5
1e1
100
AcDbSymbolTable
0
ENDTAB
0
TABLE
2
APPID
5
1e2
100
AcDbSymbolTable
0
APPID
5
12
100
AcDbSymbolTableRecord
100
AcDbRegAppTableRecord
2
ACAD
70
0
0
ENDTAB
0
TABLE
2
BLOCK_RECORD
5
1e3
100
AcDbSymbolTable
0
BLOCK_RECORD
5
1F
100
AcDbSymbolTableRecord
100
AcDbBlockTableRecord
2
*Model_Space
340
0
70
0
0
BLOCK_RECORD
5
1B
100
AcDbSymbolTableRecord
100
AcDbBlockTableRecord
2
*Paper_Space
340
0
70
0
0
BLOCK_RECORD
5
23
100
AcDbSymbolTableRecord
100
AcDbBlockTableRecord
2
*Paper_Space0
340
0
70
0
0
BLOCK_RECORD
5
120
100
AcDbSymbolTableRecord
100
AcDbBlockTableRecord
2
DimnDraft3D1
340
0
70
0
0
BLOCK_RECORD
5
12F
100
AcDbSymbolTableRecord
100
AcDbBlockTableRecord
2
_CLOSED
340
0
70
0
0
BLOCK_RECORD
5
136
100
AcDbSymbolTableRecord
100
AcDbBlockTableRecord
2
DimnDraft3D2
340
0
70
0
0
BLOCK_RECORD
5
145
100
AcDbSymbolTableRecord
100
AcDbBlockTableRecord
2
DimnDraft3D3
340
0
70
0
0
BLOCK_RECORD
5
153
100
AcDbSymbolTableRecord
100
AcDbBlockTableRecord
2
DimnDraft3D4
340
0
70
0
0
BLOCK_RECORD
5
161
100
AcDbSymbolTableRecord
100
AcDbBlockTableRecord
2
DimnDraft3D5
340
0
70
0
0
ENDTAB
0
ENDSEC
0
SECTION
2
BLOCKS
0
BLOCK
5
20
100
AcDbEntity
8
0
100
AcDbBlockBegin
2
*Model_Space
70
0
10
0
20
0
30
0
3
*Model_Space
0
ENDBLK
5
21
100
AcDbEntity
8
0
100
AcDbBlockEnd
0
BLOCK
5
1C
100
AcDbEntity
8
0
100
AcDbBlockBegin
2
*Paper_Space
70
0
10
0
20
0
30
0
3
*Paper_Space
0
ENDBLK
5
1D
100
AcDbEntity
8
0
100
AcDbBlockEnd
0
BLOCK
5
24
100
AcDbEntity
8
0
100
AcDbBlockBegin
2
*Paper_Space0
70
0
10
0
20
0
30
0
3
*Paper_Space0
0
ENDBLK
5
25
100
AcDbEntity
8
0
100
AcDbBlockEnd
0
BLOCK
5
12C
100
AcDbEntity
8
0
100
AcDbBlockBegin
2
DimnDraft3D1
70
0
10
0
20
0
30
0
3
DimnDraft3D1
0
MTEXT
5
121
100
AcDbEntity
8
SK2
62
256
6
ByLayer
370
18
48
1
60
0
100
AcDbMText
10
28.784211
20
54.975
30
0
210
0
220
0
230
1
1
\W0.6740;60
40
3.5
41
0
44
1.084337
50
0
71
7
72
5
7
iso_b_vert
0
LINE
5
123
100
AcDbEntity
8
SK2
62
256
6
ByLayer
370
13
48
1
60
0
100
AcDbLine
10
0
20
2
30
0
11
0
21
56.1
31
0
39
0
210
0
220
0
230
1
0
LINE
5
124
100
AcDbEntity
8
SK2
62
256
6
ByLayer
370
13
48
1
60
0
100
AcDbLine
10
60
20
-43
30
0
11
60
21
56.1
31
0
39
0
210
0
220
0
230
1
0
LINE
5
125
100
AcDbEntity
8
SK2
62
256
6
ByLayer
370
13
48
1
60
0
100
AcDbLine
10
0
20
54.1
30
0
11
60
21
54.1
31
0
39
0
210
0
220
0
230
1
0
LINE
5
126
100
AcDbEntity
8
SK2
62
256
6
ByLayer
370
13
48
1
60
0
100
AcDbLine
10
0
20
54.1
30
0
11
3.174998
21
54.517997
31
0
39
0
210
0
220
0
230
1
0
LINE
5
127
100
AcDbEntity
8
SK2
62
256
6
ByLayer
370
13
48
1
60
0
100
AcDbLine
10
0
20
54.1
30
0
11
3.175002
21
53.682003
31
0
39
0
210
0
220
0
230
1
0
LINE
5
128
100
AcDbEntity
8
SK2
62
256
6
ByLayer
370
13
48
1
60
0
100
AcDbLine
10
3.174998
20
54.517997
30
0
11
3.175002
21
53.682003
31
0
39
0
210
0
220
0
230
1
0
LINE
5
129
100
AcDbEntity
8
SK2
62
256
6
ByLayer
370
13
48
1
60
0
100
AcDbLine
10
60
20
54.1
30
0
11
56.825002
21
53.682003
31
0
39
0
210
0
220
0
230
1
0
LINE
5
12A
100
AcDbEntity
8
SK2
62
256
6
ByLayer
370
13
48
1
60
0
100
AcDbLine
10
60
20
54.1
30
0
11
56.824998
21
54.517997
31
0
39
0
210
0
220
0
230
1
0
LINE
5
12B
100
AcDbEntity
8
SK2
62
256
6
ByLayer
370
13
48
1
60
0
100
AcDbLine
10
56.825002
20
53.682003
30
0
11
56.824998
21
54.517997
31
0
39
0
210
0
220
0
230
1
0
ENDBLK
5
12D
100
AcDbEntity
8
0
100
AcDbBlockEnd
0
BLOCK
5
130
100
AcDbEntity
8
0
100
AcDbBlockBegin
2
_CLOSED
70
0
10
0
20
0
30
0
3
_CLOSED
0
LINE
5
132
100
AcDbEntity
8
0
62
256
6
ByLayer
370
-2
48
1
60
0
100
AcDbLine
10
-1
20
0.166667
30
0
11
0
21
0
31
0
39
0
210
0
220
0
230
1
0
LINE
5
133
100
AcDbEntity
8
0
62
256
6
ByLayer
370
-2
48
1
60
0
100
AcDbLine
10
0
20
0
30
0
11
-1
21
-0.166667
31
0
39
0
210
0
220
0
230
1
0
LINE
5
134
100
AcDbEntity
8
0
62
256
6
ByLayer
370
-2
48
1
60
0
100
AcDbLine
10
-1
20
0.166667
30
0
11
-1
21
-0.166667
31
0
39
0
210
0
220
0
230
1
0
LINE
5
135
100
AcDbEntity
8
0
62
256
6
ByLayer
370
-2
48
1
60
0
100
AcDbLine
10
0
20
0
30
0
11
-1
21
0
31
0
39
0
210
0
220
0
230
1
0
ENDBLK
5
131
100
AcDbEntity
8
0
100
AcDbBlockEnd
0
BLOCK
5
142
100
AcDbEntity
8
0
100
AcDbBlockBegin
2
DimnDraft3D2
70
0
10
0
20
0
30
0
3
DimnDraft3D2
0
MTEXT
5
137
100
AcDbEntity
8
2
62
256
6
ByLayer
370
18
48
1
60
0
100
AcDbMText
10
51.721711
20
-57.225
30
0
210
0
220
0
230
1
1
\W0.5321;15
40
3.5
41
0
44
1.084337
50
0
71
7
72
5
7
iso_b_vert
0
LINE
5
139
100
AcDbEntity
8
2
62
256
6
ByLayer
370
13
48
1
60
0
100
AcDbLine
10
60
20
-47
30
0
11
60
21
-60.1
31
0
39
0
210
0
220
0
230
1
0
LINE
5
13A
100
AcDbEntity
8
2
62
256
6
ByLayer
370
13
48
1
60
0
100
AcDbLine
10
45
20
-33.5
30
0
11
45
21
-60.1
31
0
39
0
210
0
220
0
230
1
0
LINE
5
13B
100
AcDbEntity
8
2
62
256
6
ByLayer
370
13
48
1
60
0
100
AcDbLine
10
60
20
-58.1
30
0
11
45
21
-58.1
31
0
39
0
210
0
220
0
230
1
0
LINE
5
13C
100
AcDbEntity
8
2
62
256
6
ByLayer
370
13
48
1
60
0
100
AcDbLine
10
60
20
-58.1
30
0
11
56.825002
21
-58.517997
31
0
39
0
210
0
220
0
230
1
0
LINE
5
13D
100
AcDbEntity
8
2
62
256
6
ByLayer
370
13
48
1
60
0
100
AcDbLine
10
60
20
-58.1
30
0
11
56.824998
21
-57.682003
31
0
39
0
210
0
220
0
230
1
0
LINE
5
13E
100
AcDbEntity
8
2
62
256
6
ByLayer
370
13
48
1
60
0
100
AcDbLine
10
56.825002
20
-58.517997
30
0
11
56.824998
21
-57.682003
31
0
39
0
210
0
220
0
230
1
0
LINE
5
13F
100
AcDbEntity
8
2
62
256
6
ByLayer
370
13
48
1
60
0
100
AcDbLine
10
45
20
-58.1
30
0
11
48.174998
21
-57.682003
31
0
39
0
210
0
220
0
230
1
0
LINE
5
140
100
AcDbEntity
8
2
62
256
6
ByLayer
370
13
48
1
60
0
100
AcDbLine
10
45
20
-58.1
30
0
11
48.175002
21
-58.517997
31
0
39
0
210
0
220
0
230
1
0
LINE
5
141
100
AcDbEntity
8
2
62
256
6
ByLayer
370
13
48
1
60
0
100
AcDbLine
10
48.174998
20
-57.682003
30
0
11
48.175002
21
-58.517997
31
0
39
0
210
0
220
0
230
1
0
ENDBLK
5
143
100
AcDbEntity
8
0
100
AcDbBlockEnd
0
BLOCK
5
150
100
AcDbEntity
8
0
100
AcDbBlockBegin
2
DimnDraft3D3
70
0
10
0
20
0
30
0
3
DimnDraft3D3
0
MTEXT
5
146
100
AcDbEntity
8
SK2
62
256
6
ByLayer
370
18
48
1
60
0
100
AcDbMText
10
-48.475
20
-1.215789
30
0
210
0
220
0
230
1
1
\W0.6740;63
40
3.5
41
0
44
1.084337
50
90
71
7
72
5
7
iso_b_vert
0
LINE
5
147
100
AcDbEntity
8
SK2
62
256
6
ByLayer
370
13
48
1
60
0
100
AcDbLine
10
-2
20
-31.5
30
0
11
-49.6
21
-31.5
31
0
39
0
210
0
220
0
230
1
0
LINE
5
148
100
AcDbEntity
8
SK2
62
256
6
ByLayer
370
13
48
1
60
0
100
AcDbLine
10
-2
20
31.5
30
0
11
-49.6
21
31.5
31
0
39
0
210
0
220
0
230
1
0
LINE
5
149
100
AcDbEntity
8
SK2
62
256
6
ByLayer
370
13
48
1
60
0
100
AcDbLine
10
-47.6
20
-31.5
30
0
11
-47.6
21
31.5
31
0
39
0
210
0
220
0
230
1
0
LINE
5
14A
100
AcDbEntity
8
SK2
62
256
6
ByLayer
370
13
48
1
60
0
100
AcDbLine
10
-47.6
20
-31.5
30
0
11
-48.017997
21
-28.325002
31
0
39
0
210
0
220
0
230
1
0
LINE
5
14B
100
AcDbEntity
8
SK2
62
256
6
ByLayer
370
13
48
1
60
0
100
AcDbLine
10
-47.6
20
-31.5
30
0
11
-47.182003
21
-28.324998
31
0
39
0
210
0
220
0
230
1
0
LINE
5
14C
100
AcDbEntity
8
SK2
62
256
6
ByLayer
370
13
48
1
60
0
100
AcDbLine
10
-48.017997
20
-28.325002
30
0
11
-47.182003
21
-28.324998
31
0
39
0
210
0
220
0
230
1
0
LINE
5
14D
100
AcDbEntity
8
SK2
62
256
6
ByLayer
370
13
48
1
60
0
100
AcDbLine
10
-47.6
20
31.5
30
0
11
-47.182003
21
28.325002
31
0
39
0
210
0
220
0
230
1
0
LINE
5
14E
100
AcDbEntity
8
SK2
62
256
6
ByLayer
370
13
48
1
60
0
100
AcDbLine
10
-47.6
20
31.5
30
0
11
-48.017997
21
28.324998
31
0
39
0
210
0
220
0
230
1
0
LINE
5
14F
100
AcDbEntity
8
SK2
62
256
6
ByLayer
370
13
48
1
60
0
100
AcDbLine
10
-47.182003
20
28.325002
30
0
11
-48.017997
21
28.324998
31
0
39
0
210
0
220
0
230
1
0
ENDBLK
5
151
100
AcDbEntity
8
0
100
AcDbBlockEnd
0
BLOCK
5
15E
100
AcDbEntity
8
0
100
AcDbBlockBegin
2
DimnDraft3D4
70
0
10
0
20
0
30
0
3
DimnDraft3D4
0
MTEXT
5
154
100
AcDbEntity
8
2
62
256
6
ByLayer
370
18
48
1
60
0
100
AcDbMText
10
84.225
20
-23.9
30
0
210
0
220
0
230
1
1
\W0.7361;45
40
3.5
41
0
44
1.084337
50
90
71
7
72
5
7
iso_b_vert
0
LINE
5
155
100
AcDbEntity
8
2
62
256
6
ByLayer
370
13
48
1
60
0
100
AcDbLine
10
53
20
0
30
0
11
87.1
21
0
31
0
39
0
210
0
220
0
230
1
0
LINE
5
156
100
AcDbEntity
8
2
62
256
6
ByLayer
370
13
48
1
60
0
100
AcDbLine
10
62
20
-45
30
0
11
87.1
21
-45
31
0
39
0
210
0
220
0
230
1
0
LINE
5
157
100
AcDbEntity
8
2
62
256
6
ByLayer
370
13
48
1
60
0
100
AcDbLine
10
85.1
20
0
30
0
11
85.1
21
-45
31
0
39
0
210
0
220
0
230
1
0
LINE
5
158
100
AcDbEntity
8
2
62
256
6
ByLayer
370
13
48
1
60
0
100
AcDbLine
10
85.1
20
0
30
0
11
85.517997
21
-3.174998
31
0
39
0
210
0
220
0
230
1
0
LINE
5
159
100
AcDbEntity
8
2
62
256
6
ByLayer
370
13
48
1
60
0
100
AcDbLine
10
85.1
20
0
30
0
11
84.682003
21
-3.175002
31
0
39
0
210
0
220
0
230
1
0
LINE
5
15A
100
AcDbEntity
8
2
62
256
6
ByLayer
370
13
48
1
60
0
100
AcDbLine
10
85.517997
20
-3.174998
30
0
11
84.682003
21
-3.175002
31
0
39
0
210
0
220
0
230
1
0
LINE
5
15B
100
AcDbEntity
8
2
62
256
6
ByLayer
370
13
48
1
60
0
100
AcDbLine
10
85.1
20
-45
30
0
11
84.682003
21
-41.825002
31
0
39
0
210
0
220
0
230
1
0
LINE
5
15C
100
AcDbEntity
8
2
62
256
6
ByLayer
370
13
48
1
60
0
100
AcDbLine
10
85.1
20
-45
30
0
11
85.517997
21
-41.824998
31
0
39
0
210
0
220
0
230
1
0
LINE
5
15D
100
AcDbEntity
8
2
62
256
6
ByLayer
370
13
48
1
60
0
100
AcDbLine
10
84.682003
20
-41.825002
30
0
11
85.517997
21
-41.824998
31
0
39
0
210
0
220
0
230
1
0
ENDBLK
5
15F
100
AcDbEntity
8
0
100
AcDbBlockEnd
0
BLOCK
5
16C
100
AcDbEntity
8
0
100
AcDbBlockBegin
2
DimnDraft3D5
70
0
10
0
20
0
30
0
3
DimnDraft3D5
0
MTEXT
5
162
100
AcDbEntity
8
2
62
256
6
ByLayer
370
18
48
1
60
0
100
AcDbMText
10
77.225
20
-55.945789
30
0
210
0
220
0
230
1
1
\W0.5404;3
40
3.5
41
0
44
1.084337
50
90
71
7
72
5
7
iso_b_vert
0
LINE
5
163
100
AcDbEntity
8
2
62
256
6
ByLayer
370
13
48
1
60
0
100
AcDbLine
10
62
20
-45
30
0
11
80.1
21
-45
31
0
39
0
210
0
220
0
230
1
0
LINE
5
164
100
AcDbEntity
8
2
62
256
6
ByLayer
370
13
48
1
60
0
100
AcDbLine
10
62
20
-42
30
0
11
80.1
21
-42
31
0
39
0
210
0
220
0
230
1
0
LINE
5
165
100
AcDbEntity
8
2
62
256
6
ByLayer
370
13
48
1
60
0
100
AcDbLine
10
78.1
20
-33.25
30
0
11
78.1
21
-56.820789
31
0
39
0
210
0
220
0
230
1
0
LINE
5
166
100
AcDbEntity
8
2
62
256
6
ByLayer
370
13
48
1
60
0
100
AcDbLine
10
78.1
20
-45
30
0
11
78.517997
21
-48.174998
31
0
39
0
210
0
220
0
230
1
0
LINE
5
167
100
AcDbEntity
8
2
62
256
6
ByLayer
370
13
48
1
60
0
100
AcDbLine
10
78.1
20
-45
30
0
11
77.682003
21
-48.175002
31
0
39
0
210
0
220
0
230
1
0
LINE
5
168
100
AcDbEntity
8
2
62
256
6
ByLayer
370
13
48
1
60
0
100
AcDbLine
10
78.517997
20
-48.174998
30
0
11
77.682003
21
-48.175002
31
0
39
0
210
0
220
0
230
1
0
LINE
5
169
100
AcDbEntity
8
2
62
256
6
ByLayer
370
13
48
1
60
0
100
AcDbLine
10
78.1
20
-42
30
0
11
77.682003
21
-38.825002
31
0
39
0
210
0
220
0
230
1
0
LINE
5
16A
100
AcDbEntity
8
2
62
256
6
ByLayer
370
13
48
1
60
0
100
AcDbLine
10
78.1
20
-42
30
0
11
78.517997
21
-38.824998
31
0
39
0
210
0
220
0
230
1
0
LINE
5
16B
100
AcDbEntity
8
2
62
256
6
ByLayer
370
13
48
1
60
0
100
AcDbLine
10
77.682003
20
-38.825002
30
0
11
78.517997
21
-38.824998
31
0
39
0
210
0
220
0
230
1
0
ENDBLK
5
16D
100
AcDbEntity
8
0
100
AcDbBlockEnd
0
ENDSEC
0
SECTION
2
ENTITIES
0
ARC
5
CE
100
AcDbEntity
8
1
62
256
6
ByLayer
370
13
48
1
60
0
100
AcDbCircle
39
0
10
-22.279208
20
-32.7
30
0
40
1.2
210
0
220
0
230
-1
100
AcDbArc
50
90
51
119.313241
0
ARC
5
CF
100
AcDbEntity
8
1
62
256
6
ByLayer
370
13
48
1
60
0
100
AcDbCircle
39
0
10
29.6
20
-32.15
30
0
40
0.5
210
0
220
0
230
1
100
AcDbArc
50
0
51
84.26083
0
ARC
5
D0
100
AcDbEntity
8
1
62
256
6
ByLayer
370
18
48
1
60
0
100
AcDbCircle
39
0
10
59.8
20
-42.2
30
0
40
0.2
210
0
220
0
230
1
100
AcDbArc
50
0
51
92.5
0
ARC
5
D1
100
AcDbEntity
8
1
62
256
6
ByLayer
370
18
48
1
60
0
100
AcDbCircle
39
0
10
-53.832089
20
-43.5
30
0
40
0.500000000010874
210
0
220
0
230
-1
100
AcDbArc
50
160
51
200
0
ARC
5
D2
100
AcDbEntity
8
1
62
256
6
ByLayer
370
18
48
1
60
0
100
AcDbCircle
39
0
10
-59.8
20
-44.8
30
0
40
0.2
210
0
220
0
230
-1
100
AcDbArc
50
180
51
272.5
0
ARC
5
D3
100
AcDbEntity
8
1
62
256
6
ByLayer
370
18
48
1
60
0
100
AcDbCircle
39
0
10
40.2
20
-44.8
30
0
40
0.2
210
0
220
0
230
1
100
AcDbArc
50
180
51
272.5
0
ELLIPSE
5
D4
100
AcDbEntity
8
1
62
256
6
ByLayer
370
13
48
1
60
0
100
AcDbEllipse
10
52.566014
20
-43.5
30
0
11
3.23388367514603E-16
21
1.1416060572111
31
0
210
0
220
0
230
1
40
0.774336
41
-1.93854410778601
42
-1.20304854580378
0
ELLIPSE
5
D5
100
AcDbEntity
8
1
62
256
6
ByLayer
370
13
48
1
60
0
100
AcDbEllipse
10
-2.347154
20
0
30
0
11
14.7536831606557
21
-31.0932549155807
31
0
210
0
220
0
230
-1
40
0.341999
41
-1.09123958575283
42
-0.15780618664545
0
ELLIPSE
5
D6
100
AcDbEntity
8
1
62
256
6
ByLayer
370
13
48
1
60
0
100
AcDbEllipse
10
-2.347154
20
0
30
0
11
14.753683160656
21
31.0932549155811
31
0
210
0
220
0
230
-1
40
0.341999
41
0.157806186645448
42
1.09123958575282
0
ELLIPSE
5
D7
100
AcDbEntity
8
1
62
256
6
ByLayer
370
13
48
1
60
0
100
AcDbEllipse
10
26.347154
20
0
30
0
11
14.7536831606572
21
-31.0932549155826
31
0
210
0
220
0
230
-1
40
0.341999
41
2.05035306783701
42
2.98378646694435
0
ELLIPSE
5
D8
100
AcDbEntity
8
1
62
256
6
ByLayer
370
13
48
1
60
0
100
AcDbEllipse
10
22.274896
20
0
30
0
11
-1.92875500727024E-15
21
31.5
31
0
210
0
220
0
230
-1
40
0.008727
41
-2.63204689779454
42
-0.785398163397453
0
ELLIPSE
5
D9
100
AcDbEntity
8
1
62
256
6
ByLayer
370
13
48
1
60
0
100
AcDbEllipse
10
26.347154
20
0
30
0
11
14.753683160657
21
31.0932549155824
31
0
210
0
220
0
230
-1
40
0.341999
41
-2.98378646694435
42
-2.050353067837
0
ELLIPSE
5
DA
100
AcDbEntity
8
1
62
256
6
ByLayer
370
13
48
1
60
0
100
AcDbEllipse
10
52.006282
20
-43.5
30
0
11
1.15497422047933
21
1.16726205482972E-15
31
0
210
0
220
0
230
-1
40
0.519492
41
0
42
6.28318530717959
0
ELLIPSE
5
DB
100
AcDbEntity
8
1
62
256
6
ByLayer
370
13
48
1
60
0
100
AcDbEllipse
10
42.144771
20
-42.325
30
0
11
2.78951487299376
21
0
31
0
210
0
220
0
230
1
40
0.573576
41
1.5707963267949
42
3.14159265358979
0
ELLIPSE
5
DC
100
AcDbEntity
8
1
62
256
6
ByLayer
370
18
48
1
60
0
100
AcDbEllipse
10
54.168406
20
-42.523551
30
0
11
0.028810895724477
21
-0.147207106734302
31
0
210
0
220
0
230
-1
40
1
41
1.41500414959764
42
1.76407000009566
0
ELLIPSE
5
DD
100
AcDbEntity
8
1
62
256
6
ByLayer
370
18
48
1
60
0
100
AcDbEllipse
10
54.168406
20
-44.476449
30
0
11
0.0284612490786364
21
0.147275107429687
31
0
210
0
220
0
230
-1
40
1
41
-1.76169534762402
42
-1.41262949698502
0
POINT
5
6C
100
AcDbEntity
8
80
62
256
6
ByLayer
370
18
48
1
60
0
100
AcDbPoint
10
0
20
0
30
0
39
0
210
0
220
0
230
1
50
360
0
POINT
5
6E
100
AcDbEntity
8
81
62
256
6
ByLayer
370
18
48
1
60
0
100
AcDbPoint
10
60
20
-45
30
0
39
0
210
0
220
0
230
1
50
360
0
SPLINE
5
DE
100
AcDbEntity
8
1
62
256
6
ByLayer
370
13
48
1
60
0
100
AcDbSpline
70
4
71
2
72
6
73
3
40
0
40
0
40
0
40
1
40
1
40
1
41
1
10
-0.0999999999997101
20
-21.8971947566797
30
0
41
1
10
-0.0215334574149608
20
-21.9476462123989
30
0
41
1
10
-0.0144090440566913
20
-21.972472259
30
0
0
SPLINE
5
DF
100
AcDbEntity
8
1
62
256
6
ByLayer
370
13
48
1
60
0
100
AcDbSpline
70
4
71
2
72
6
73
3
40
0
40
0
40
0
40
1
40
1
40
1
41
1
10
-0.014357794837764
20
21.9725544699438
30
0
41
1
10
-0.0214564109289768
20
21.9477058124068
30
0
41
1
10
-0.0999999999998522
20
21.8971945972014
30
0
0
SPLINE
5
E0
100
AcDbEntity
8
SK1
62
256
6
ByLayer
370
13
48
1
60
0
100
AcDbSpline
70
4
71
2
72
6
73
3
40
0
40
0
40
0
40
1
40
1
40
1
41
1
10
-0.194976888875288
20
21.8639496970129
30
0
41
1
10
-0.995008433397771
20
21.8438664509463
30
0
41
1
10
-1.7950399779393
20
21.823783211574
30
0
0
SPLINE
5
E1
100
AcDbEntity
8
SK1
62
256
6
ByLayer
370
13
48
1
60
0
100
AcDbSpline
70
4
71
2
72
6
73
3
40
0
40
0
40
0
40
1
40
1
40
1
41
1
10
-1.7950399779393
20
-21.8237832285764
30
0
41
1
10
-0.995008433397771
20
-21.8438664676547
30
0
41
1
10
-0.194976888875317
20
-21.8639497134273
30
0
0
SPLINE
5
E2
100
AcDbEntity
8
SK1
62
256
6
ByLayer
370
13
48
1
60
0
100
AcDbSpline
70
4
71
2
72
6
73
3
40
0
40
0
40
0
40
1
40
1
40
1
41
1
10
-36.5
20
-21.1524613224032
30
0
41
1
10
-19.2499999976426
20
-21.5855495141176
30
0
41
1
10
-2
20
-22.0186362439355
30
0
0
SPLINE
5
E3
100
AcDbEntity
8
SK1
62
256
6
ByLayer
370
13
48
1
60
0
100
AcDbSpline
70
4
71
2
72
6
73
3
40
0
40
0
40
0
40
1
40
1
40
1
41
1
10
-1.99999999999997
20
22.018635875508
30
0
41
1
10
-19.2499999976431
20
21.5855491455245
30
0
41
1
10
-36.5
20
21.1524609537578
30
0
0
SPLINE
5
E4
100
AcDbEntity
8
SK1
62
256
6
ByLayer
370
13
48
1
60
0
100
AcDbSpline
70
4
71
3
72
13
73
9
40
0
40
0
40
0
40
0
40
0.239406675533109
40
0.368294170919237
40
0.49992791261141
40
0.631573622065762
40
0.760494133568919
40
1
40
1
40
1
40
1
41
1
10
-2
20
-22.0251209952818
30
0
41
1
10
-1.99909122094999
20
-21.9990737575566
30
0
41
1
10
-1.99103207881228
20
-21.9617163884141
30
0
41
1
10
-1.96563491014865
20
-21.9155180963751
30
0
41
1
10
-1.93886244237072
20
-21.8842503451972
30
0
41
1
10
-1.90627568046548
20
-21.8590943224454
30
0
41
1
10
-1.85883864366619
20
-21.8360608861174
30
0
41
1
10
-1.82110926269925
20
-21.8298912593851
30
0
41
1
10
-1.7950399779393
20
-21.8302933674113
30
0
0
SPLINE
5
E5
100
AcDbEntity
8
SK1
62
256
6
ByLayer
370
13
48
1
60
0
100
AcDbSpline
70
4
71
3
72
13
73
9
40
0
40
0
40
0
40
0
40
0.239505865890143
40
0.368426377204739
40
0.500072086585839
40
0.631705828340085
40
0.760593323909358
40
1
40
1
40
1
40
1
41
1
10
-1.7950399779393
20
21.8302932076066
30
0
41
1
10
-1.82110926271048
20
21.8298910995853
30
0
41
1
10
-1.85883864368745
20
21.8360607263469
30
0
41
1
10
-1.90627568048194
20
21.8590941627915
30
0
41
1
10
-1.93886244238612
20
21.8842501856705
30
0
41
1
10
-1.96563491016022
20
21.9155179370029
30
0
41
1
10
-1.99103207882064
20
21.9617162292748
30
0
41
1
10
-1.99909122095849
20
21.9990735985877
30
0
41
1
10
-2
20
22.0251208364275
30
0
0
SPLINE
5
E6
100
AcDbEntity
8
SK1
62
256
6
ByLayer
370
13
48
1
60
0
100
AcDbSpline
70
4
71
2
72
6
73
3
40
0
40
0
40
0
40
1
40
1
40
1
41
1
10
-38
20
-20.2898800072421
30
0
41
1
10
-37.2499998580851
20
-20.7226367943925
30
0
41
1
10
-36.5
20
-21.1553909678899
30
0
0
SPLINE
5
E7
100
AcDbEntity
8
SK1
62
256
6
ByLayer
370
13
48
1
60
0
100
AcDbSpline
70
4
71
2
72
6
73
3
40
0
40
0
40
0
40
1
40
1
40
1
41
1
10
-36.5
20
21.155390865424
30
0
41
1
10
-37.2499998580829
20
20.722636690256
30
0
41
1
10
-38
20
20.2898799013384
30
0
0
SPLINE
5
E8
100
AcDbEntity
8
SK1
62
256
6
ByLayer
370
13
48
1
60
0
100
AcDbSpline
70
4
71
2
72
6
73
3
40
0
40
0
40
0
40
1
40
1
40
1
41
1
10
-0.194976888875317
20
-21.8700250299903
30
0
41
1
10
-0.14419243169786
20
-21.8714778839667
30
0
41
1
10
-0.099999999998289
20
-21.8967449895895
30
0
0
SPLINE
5
E9
100
AcDbEntity
8
SK1
62
256
6
ByLayer
370
13
48
1
60
0
100
AcDbSpline
70
4
71
2
72
6
73
3
40
0
40
0
40
0
40
1
40
1
40
1
41
1
10
-0.0999999999982037
20
21.8967448275103
30
0
41
1
10
-0.144192431674213
20
21.8714777217788
30
0
41
1
10
-0.194976888875288
20
21.8700248677912
30
0
0
SPLINE
5
EA
100
AcDbEntity
8
1
62
256
6
ByLayer
370
13
48
1
60
0
100
AcDbSpline
70
4
71
3
72
20
73
16
40
0
40
0
40
0
40
0
40
0.0081647522010387
40
0.0753719766949689
40
0.142579201188899
40
0.209786425682829
40
0.34420087467069
40
0.41140809916462
40
0.47861532365855
40
0.61302977264641
40
0.747444221634271
40
0.814651446128201
40
0.881858670622131
40
0.949065895116061
40
1
40
1
40
1
40
1
41
0.874315756983296
10
-0.0999999999996128
20
5.93218067753224
30
0
41
0.874315756983296
10
-0.0999999999996128
20
6.01059185206915
30
0
41
0.874315756983296
10
-0.0999999999996128
20
6.73213804659135
30
0
41
0.874315756983296
10
-0.0999999999996128
20
8.05656070083071
30
0
41
0.874315756983296
10
-0.0999999999996128
20
9.82418283626003
30
0
41
0.874315756983296
10
-0.0999999999996128
20
12.0391436023147
30
0
41
0.874315756983296
10
-0.0999999999996128
20
14.0363164219539
30
0
41
0.874315756983296
10
-0.0999999999996128
20
15.8105343678305
30
0
41
0.874315756983296
10
-0.0999999999996128
20
17.4318488950201
30
0
41
0.874315756983296
10
-0.0999999999996128
20
19.1618577460513
30
0
41
0.874315756983296
10
-0.0999999999996128
20
20.4659241239112
30
0
41
0.874315756983296
10
-0.0999999999996128
20
21.2218114181416
30
0
41
0.874315756983296
10
-0.0999999999996128
20
21.63339534317
30
0
41
0.874315756983297
10
-0.0999999999996453
20
21.8552882861106
30
0
41
0.874315756983297
10
-0.0999999999996453
20
21.8986715075797
30
0
41
0.874315756983297
10
-0.0999999999996453
20
21.8971035170583
30
0
0
SPLINE
5
EB
100
AcDbEntity
8
SK1
62
256
6
ByLayer
370
13
48
1
60
0
100
AcDbSpline
70
4
71
3
72
20
73
16
40
0
40
0
40
0
40
0
40
0.0043623778724515
40
0.0722579932828341
40
0.140153608693217
40
0.208049224103599
40
0.343840454924364
40
0.411736070334747
40
0.479631685745129
40
0.615422916565894
40
0.75121414738666
40
0.819109762797042
40
0.887005378207425
40
0.954900993617807
40
1
40
1
40
1
40
1
41
1
10
-0.194976888875288
20
-6.03119623886747
30
0
41
1
10
-0.194976888875288
20
-6.07248438694879
30
0
41
1
10
-0.194976888875288
20
-6.7552262401928
30
0
41
1
10
-0.194976888875288
20
-8.04231567916284
30
0
41
1
10
-0.194976888875288
20
-9.8080168831988
30
0
41
1
10
-0.194976888875288
20
-12.0209589146812
30
0
41
1
10
-0.194976888875288
20
-14.0161341032345
30
0
41
1
10
-0.194976888875288
20
-15.788964627033
30
0
41
1
10
-0.194976888875288
20
-17.4090439325775
30
0
41
1
10
-0.194976888875317
20
-19.1375804507264
30
0
41
1
10
-0.194976888875317
20
-20.4405044941377
30
0
41
1
10
-0.194976888875317
20
-21.1957612581815
30
0
41
1
10
-0.194976888875317
20
-21.6069523286528
30
0
41
1
10
-0.194976888875317
20
-21.8210880487405
30
0
41
1
10
-0.194976888875317
20
-21.8670530081905
30
0
41
1
10
-0.194976888875317
20
-21.8700402388223
30
0
0
SPLINE
5
EC
100
AcDbEntity
8
SK1
62
256
6
ByLayer
370
13
48
1
60
0
100
AcDbSpline
70
4
71
3
72
24
73
20
40
0
40
0
40
0
40
0
40
0.0882167025504856
40
0.0882167025504856
40
0.163407185711261
40
0.163407185711261
40
0.193936204017574
40
0.193936204017574
40
0.224999210742398
40
0.224999210742398
40
0.252492596047507
40
0.252492596047507
40
0.284445117859713
40
0.284445117859713
40
0.339507625463059
40
0.339507625463059
40
0.508206772293257
40
0.508206772293257
40
1
40
1
40
1
40
1
41
1
10
-0.194976888875317
20
-6.03119623886738
30
0
41
1
10
-0.22525561739954
20
-6.09380830292869
30
0
41
1
10
-0.259090827933164
20
-6.15517981130731
30
0
41
1
10
-0.333828065101812
20
-6.26130876163614
30
0
41
1
10
-0.373313691233506
20
-6.30837086961603
30
0
41
1
10
-0.442276593128838
20
-6.36083106863131
30
0
41
1
10
-0.464228533248104
20
-6.3744716241938
30
0
41
1
10
-0.511891060090591
20
-6.39512398968853
30
0
41
1
10
-0.538407851727925
20
-6.40212601359619
30
0
41
1
10
-0.588769847053442
20
-6.40516176863196
30
0
41
1
10
-0.613175825667184
20
-6.40234161197498
30
0
41
1
10
-0.662408101361365
20
-6.38862822540173
30
0
41
1
10
-0.687472034228051
20
-6.3765085504059
30
0
41
1
10
-0.748978617614796
20
-6.33732475252921
30
0
41
1
10
-0.782291194817645
20
-6.30542438589035
30
0
41
1
10
-0.9007773568608
20
-6.1693427532189
30
0
41
1
10
-0.961154548901646
20
-6.0475751642893
30
0
41
1
10
-1.16501717694103
20
-5.5709958337352
30
0
41
1
10
-1.24739247760999
20
-5.18857253643438
30
0
41
1
10
-1.31543506509496
20
-4.80312334332302
30
0
0
SPLINE
5
ED
100
AcDbEntity
8
SK1
62
256
6
ByLayer
370
13
48
1
60
0
100
AcDbSpline
70
4
71
3
72
39
73
35
40
0
40
0
40
0
40
0
40
0.0209474906921266
40
0.0491271018814502
40
0.077306713070774
40
0.105486324260098
40
0.161845546638745
40
0.218204769017392
40
0.246384380206716
40
0.27456399139604
40
0.330923213774687
40
0.359102824964011
40
0.387282436153334
40
0.415462047342658
40
0.443641658531982
40
0.471821269721306
40
0.485911075315967
40
0.500000880910629
40
0.514090686505291
40
0.528180492099953
40
0.556360103289276
40
0.5845397144786
40
0.612719325667924
40
0.640898936857248
40
0.669078548046571
40
0.725437770425219
40
0.753617381614542
40
0.781796992803866
40
0.838156215182513
40
0.894515437561161
40
0.922695048750484
40
0.950874659939808
40
0.979054271129132
40
1
40
1
40
1
40
1
41
1
10
-38
20
20.2930915631466
30
0
41
1
10
-38
20
20.2936150969787
30
0
41
1
10
-38
20
20.2527530932816
30
0
41
1
10
-38
20
20.0459061788579
30
0
41
1
10
-38
20
19.6579418108061
30
0
41
1
10
-38
20
18.9398394400737
30
0
41
1
10
-38
20
17.7044407938013
30
0
41
1
10
-38
20
16.0627612954468
30
0
41
1
10
-38
20
14.5156411550099
30
0
41
1
10
-38
20
12.824703617907
30
0
41
1
10
-38
20
10.9474697913537
30
0
41
1
10
-38
20
8.85369717199416
30
0
41
1
10
-38
20
7.20137624192128
30
0
41
1
10
-38
20
5.46830539586298
30
0
41
1
10
-38
20
3.67033144630454
30
0
41
1
10
-38
20
2.14779050597869
30
0
41
1
10
-38
20
0.91174646316324
30
0
41
1
10
-38
20
3.12542852E-07
30
0
41
1
10
-38
20
-0.911746507027743
30
0
41
1
10
-38
20
-2.14779063761819
30
0
41
1
10
-38
20
-3.67033088291643
30
0
41
1
10
-38
20
-5.4683051517213
30
0
41
1
10
-38
20
-7.20137650942655
30
0
41
1
10
-38
20
-8.8536968073017
30
0
41
1
10
-38
20
-10.9474696029843
30
0
41
1
10
-38
20
-12.8247036249508
30
0
41
1
10
-38
20
-14.5156410584187
30
0
41
1
10
-38
20
-16.0627617322198
30
0
41
1
10
-38
20
-17.7044403459469
30
0
41
1
10
-38
20
-18.9398403790116
30
0
41
1
10
-38
20
-19.6579416385017
30
0
41
1
10
-38
20
-20.0459066437044
30
0
41
1
10
-38
20
-20.2527490576514
30
0
41
1
10
-38
20
-20.2936123960834
30
0
41
1
10
-38
20
-20.2930918592567
30
0
0
SPLINE
5
EE
100
AcDbEntity
8
SK1
62
256
6
ByLayer
370
13
48
1
60
0
100
AcDbSpline
70
4
71
3
72
20
73
16
40
0
40
0
40
0
40
0
40
0.0451025231497781
40
0.112997896767147
40
0.180893270384516
40
0.248788644001885
40
0.384579391236622
40
0.52037013847136
40
0.588265512088729
40
0.656160885706098
40
0.791951632940836
40
0.859847006558204
40
0.927742380175573
40
0.995637753792943
40
1
40
1
40
1
40
1
41
1
10
-0.194976888875317
20
21.8700407868705
30
0
41
1
10
-0.194976888875288
20
21.8670557302921
30
0
41
1
10
-0.194976888875288
20
21.8210917009025
30
0
41
1
10
-0.194976888875288
20
21.6069519109193
30
0
41
1
10
-0.194976888875288
20
21.1957614261542
30
0
41
1
10
-0.194976888875288
20
20.4405035302763
30
0
41
1
10
-0.194976888875288
20
19.1375809778665
30
0
41
1
10
-0.194976888875288
20
17.4090434636519
30
0
41
1
10
-0.194976888875288
20
15.7889648215842
30
0
41
1
10
-0.194976888875288
20
14.016134110277
30
0
41
1
10
-0.194976888875288
20
12.0209591616842
30
0
41
1
10
-0.194976888875288
20
9.80801707431962
30
0
41
1
10
-0.194976888875288
20
8.04231555647991
30
0
41
1
10
-0.194976888875288
20
6.7552275299754
30
0
41
1
10
-0.194976888875288
20
6.0724868310572
30
0
41
1
10
-0.194976888875288
20
6.03119978687548
30
0
0
SPLINE
5
EF
100
AcDbEntity
8
SK1
62
256
6
ByLayer
370
13
48
1
60
0
100
AcDbSpline
70
4
71
3
72
16
73
12
40
0
40
0
40
0
40
0
40
0.0159096422448421
40
0.0159096422448421
40
0.0961961736778303
40
0.0961961736778303
40
0.227496467329421
40
0.227496467329421
40
0.489079305589383
40
0.489079305589383
40
1
40
1
40
1
40
1
41
1
10
-0.0999999999999943
20
-5.93217709109632
30
0
41
1
10
-0.100761549829457
20
-5.93203829151548
30
0
41
1
10
-0.101524775514434
20
-5.93192820888135
30
0
41
1
10
-0.10611110299115
20
-5.93143686552816
30
0
41
1
10
-0.109953457220911
20
-5.93175809808707
30
0
41
1
10
-0.119521740108894
20
-5.93403248815548
30
0
41
1
10
-0.125085397453461
20
-5.93686267389205
30
0
41
1
10
-0.140226025322079
20
-5.94716754386775
30
0
41
1
10
-0.148822941849914
20
-5.95654506934449
30
0
41
1
10
-0.171647896181412
20
-5.98594702031684
30
0
41
1
10
-0.183906329926373
20
-6.00830391214643
30
0
41
1
10
-0.194976888875317
20
-6.03119623886738
30
0
0
SPLINE
5
F0
100
AcDbEntity
8
SK1
62
256
6
ByLayer
370
13
48
1
60
0
100
AcDbSpline
70
4
71
3
72
20
73
16
40
0
40
0
40
0
40
0
40
0.0082172539257796
40
0.0758566403658529
40
0.143496026805926
40
0.211135413245999
40
0.346414186126146
40
0.414053572566219
40
0.481692959006293
40
0.616971731886439
40
0.752250504766586
40
0.819889891206659
40
0.887529277646732
40
0.955168664086806
40
1
40
1
40
1
40
1
41
0.874315756983296
10
-0.0999999999996128
20
5.93218067753224
30
0
41
0.874315756983296
10
-0.0999999999996128
20
6.01059185206915
30
0
41
0.874315756983296
10
-0.0999999999996128
20
6.73213804659135
30
0
41
0.874315756983296
10
-0.0999999999996128
20
8.05656070083071
30
0
41
0.874315756983296
10
-0.0999999999996128
20
9.82418283626003
30
0
41
0.874315756983296
10
-0.0999999999996128
20
12.0391436023147
30
0
41
0.874315756983296
10
-0.0999999999996128
20
14.0363164219539
30
0
41
0.874315756983296
10
-0.0999999999996128
20
15.8105343678305
30
0
41
0.874315756983296
10
-0.0999999999996128
20
17.4318488950201
30
0
41
0.874315756983296
10
-0.0999999999996128
20
19.1618577460513
30
0
41
0.874315756983296
10
-0.0999999999996128
20
20.4659241239112
30
0
41
0.874315756983296
10
-0.0999999999996128
20
21.2218114181416
30
0
41
0.874315756983296
10
-0.0999999999996128
20
21.63339534317
30
0
41
0.874315756983296
10
-0.0999999999996128
20
21.8476393479213
30
0
41
0.874315756983296
10
-0.0999999999996128
20
21.8936923113175
30
0
41
0.874315756983297
10
-0.0999999999996453
20
21.8967406774944
30
0
0
SPLINE
5
F1
100
AcDbEntity
8
SK1
62
256
6
ByLayer
370
13
48
1
60
0
100
AcDbSpline
70
4
71
3
72
23
73
19
40
0
40
0
40
0
40
0
40
0.0423309035619663
40
0.099451440737977
40
0.156571977913988
40
0.213692515089998
40
0.32793358944202
40
0.442174663794041
40
0.499295200970052
40
0.556415738146062
40
0.670656812498084
40
0.727777349674095
40
0.784897886850105
40
0.842018424026116
40
0.899138961202127
40
0.956259498378138
40
0.984819766966143
40
1
40
1
40
1
40
1
41
1
10
-1.79503997793932
20
21.8302769650468
30
0
41
1
10
-1.7950399779393
20
21.8309229214713
30
0
41
1
10
-1.7950399779393
20
21.7871504521727
30
0
41
1
10
-1.7950399779393
20
21.5671864477184
30
0
41
1
10
-1.7950399779393
20
21.1565876158885
30
0
41
1
10
-1.7950399779393
20
20.4022762052017
30
0
41
1
10
-1.7950399779393
20
19.101073730141
30
0
41
1
10
-1.7950399779393
20
17.37474880276
30
0
41
1
10
-1.7950399779393
20
15.7565286767833
30
0
41
1
10
-1.7950399779393
20
13.9857840798917
30
0
41
1
10
-1.7950399779393
20
11.9936135169182
30
0
41
1
10
-1.7950399779393
20
9.78370710557343
30
0
41
1
10
-1.7950399779393
20
8.02089380010179
30
0
41
1
10
-1.7950399779393
20
6.15385433510394
30
0
41
1
10
-1.7950399779393
20
4.18621524287374
30
0
41
1
10
-1.7950399779393
20
2.47030995483453
30
0
41
1
10
-1.7950399779393
20
1.22796960685017
30
0
41
1
10
-1.7950399779393
20
0.686152378389153
30
0
41
1
10
-1.7950399779393
20
0.497941450131492
30
0
0
SPLINE
5
F2
100
AcDbEntity
8
SK1
62
256
6
ByLayer
370
13
48
1
60
0
100
AcDbSpline
70
4
71
3
72
39
73
35
40
0
40
0
40
0
40
0
40
0.0136745877897716
40
0.042281985671178
40
0.0708893835525845
40
0.0994967814339909
40
0.156711577196804
40
0.213926372959617
40
0.242533770841023
40
0.271141168722429
40
0.328355964485242
40
0.356963362366649
40
0.385570760248055
40
0.414178158129462
40
0.442785556010868
40
0.471392953892274
40
0.485696652832978
40
0.500000351773681
40
0.514304050714384
40
0.528607749655087
40
0.557215147536494
40
0.5858225454179
40
0.614429943299306
40
0.643037341180713
40
0.671644739062119
40
0.728859534824932
40
0.757466932706339
40
0.786074330587745
40
0.843289126350558
40
0.900503922113371
40
0.929111319994777
40
0.957718717876184
40
0.98632611575759
40
1
40
1
40
1
40
1
41
1
10
-1.99999999999997
20
22.0185530059378
30
0
41
1
10
-1.99999999999997
20
22.0102354347104
30
0
41
1
10
-1.99999999999997
20
21.9603732649251
30
0
41
1
10
-1.99999999999997
20
21.7599974084889
30
0
41
1
10
-1.99999999999997
20
21.3465298267009
30
0
41
1
10
-1.99999999999997
20
20.5876291894756
30
0
41
1
10
-1.99999999999997
20
19.2780865684795
30
0
41
1
10
-1.99999999999997
20
17.5410334624522
30
0
41
1
10
-1.99999999999997
20
15.9138019420577
30
0
41
1
10
-1.99999999999997
20
14.1329423938392
30
0
41
1
10
-2
20
12.1262044542747
30
0
41
1
10
-2
20
9.9015789484481
30
0
41
1
10
-2
20
8.12476155609355
30
0
41
1
10
-2
20
6.24074256492978
30
0
41
1
10
-2
20
4.25159967761499
30
0
41
1
10
-2
20
2.51118689649607
30
0
41
1
10
-2
20
1.08235400424982
30
0
41
1
10
-2
20
2.27207977E-08
30
0
41
1
10
-2
20
-1.08235390921516
30
0
41
1
10
-2
20
-2.51118690843623
30
0
41
1
10
-2
20
-4.25159964823038
30
0
41
1
10
-2
20
-6.24074217144334
30
0
41
1
10
-2
20
-8.12476166457805
30
0
41
1
10
-2
20
-9.9015787743443
30
0
41
1
10
-2
20
-12.1262042015231
30
0
41
1
10
-2
20
-14.1329423854158
30
0
41
1
10
-2
20
-15.9138017379024
30
0
41
1
10
-2
20
-17.54103393453
30
0
41
1
10
-2
20
-19.2780860335662
30
0
41
1
10
-2
20
-20.5876301557806
30
0
41
1
10
-2
20
-21.3465296591529
30
0
41
1
10
-2
20
-21.7599978216033
30
0
41
1
10
-2
20
-21.9603719598576
30
0
41
1
10
-2
20
-22.0102341345068
30
0
41
1
10
-2
20
-22.0185519938879
30
0
0
SPLINE
5
F3
100
AcDbEntity
8
SK1
62
256
6
ByLayer
370
13
48
1
60
0
100
AcDbSpline
70
4
71
3
72
8
73
4
40
0
40
0
40
0
40
0
40
1
40
1
40
1
40
1
41
1
10
-1.31543506509496
20
-4.80312334332302
30
0
41
1
10
-1.55708569514758
20
-3.43421537242608
30
0
41
1
10
-1.75811874205658
20
-1.99176847042131
30
0
41
1
10
-1.7950399779393
20
-0.497935257501865
30
0
0
SPLINE
5
F4
100
AcDbEntity
8
SK1
62
256
6
ByLayer
370
13
48
1
60
0
100
AcDbSpline
70
4
71
3
72
20
73
16
40
0
40
0
40
0
40
0
40
0.044832412041016
40
0.112471714028125
40
0.180111016015234
40
0.247750318002344
40
0.383028921976562
40
0.518307525950781
40
0.58594682793789
40
0.653586129924999
40
0.788864733899217
40
0.856504035886327
40
0.924143337873436
40
0.991782639860545
40
1
40
1
40
1
40
1
41
0.874315756983289
10
-0.0999999999995486
20
-21.8967410912545
30
0
41
0.874315756983289
10
-0.0999999999995811
20
-21.8936935088433
30
0
41
0.874315756983289
10
-0.0999999999996136
20
-21.8476413959971
30
0
41
0.874315756983289
10
-0.0999999999996136
20
-21.6333957601054
30
0
41
0.874315756983289
10
-0.0999999999996136
20
-21.2218112502424
30
0
41
0.874315756983289
10
-0.0999999999996136
20
-20.4659250881949
30
0
41
0.874315756983289
10
-0.0999999999996136
20
-19.1618572175681
30
0
41
0.874315756983289
10
-0.0999999999996136
20
-17.4318493644904
30
0
41
0.874315756983289
10
-0.0999999999996136
20
-15.8105341716198
30
0
41
0.874315756983289
10
-0.0999999999996136
20
-14.0363164146728
30
0
41
0.874315756983289
10
-0.0999999999996136
20
-12.0391433543184
30
0
41
0.874315756983289
10
-0.0999999999996136
20
-9.82418264807944
30
0
41
0.874315756983289
10
-0.0999999999996136
20
-8.05656082106044
30
0
41
0.874315756983289
10
-0.0999999999996136
20
-6.73213673632546
30
0
41
0.874315756983289
10
-0.0999999999996136
20
-6.01058938422902
30
0
41
0.874315756983289
10
-0.0999999999996136
20
-5.93217709109658
30
0
0
SPLINE
5
F5
100
AcDbEntity
8
SK1
62
256
6
ByLayer
370
13
48
1
60
0
100
AcDbSpline
70
4
71
3
72
12
73
8
40
0
40
0
40
0
40
0
40
0.499999999999999
40
0.499999999999999
40
0.75
40
0.75
40
1
40
1
40
1
40
1
41
1
10
-1.31543506509496
20
4.80312611568499
30
0
41
1
10
-1.24610370017882
20
5.19587657957675
30
0
41
1
10
-1.1641833385045
20
5.57907839838947
30
0
41
1
10
-0.929100156501107
20
6.11927416699206
30
0
41
1
10
-0.841183403184601
20
6.34397714608812
30
0
41
1
10
-0.420334197998216
20
6.45078944962845
30
0
41
1
10
-0.281070263314092
20
6.20922844998529
30
0
41
1
10
-0.194976888875288
20
6.03119978687542
30
0
0
SPLINE
5
F6
100
AcDbEntity
8
SK1
62
256
6
ByLayer
370
13
48
1
60
0
100
AcDbSpline
70
4
71
3
72
14
73
10
40
0
40
0
40
0
40
0
40
0.6147156265747
40
0.6147156265747
40
0.76580362838465
40
0.76580362838465
40
0.919654011637751
40
0.919654011637751
40
1
40
1
40
1
40
1
41
1
10
-0.194976888875317
20
6.03119978687536
30
0
41
1
10
-0.181693002446394
20
6.00373062844992
30
0
41
1
10
-0.166836124756202
20
5.97658223440186
30
0
41
1
10
-0.142050052291467
20
5.94985588030079
30
0
41
1
10
-0.136736151758868
20
5.94491338424112
30
0
41
1
10
-0.12504019048464
20
5.93673131376124
30
0
41
1
10
-0.118460637898579
20
5.93340982364469
30
0
41
1
10
-0.107726720154687
20
5.93153298269084
30
0
41
1
10
-0.103829573191092
20
5.93148270158721
30
0
41
1
10
-0.0999999999999943
20
5.93218067753213
30
0
0
SPLINE
5
F7
100
AcDbEntity
8
SK1
62
256
6
ByLayer
370
13
48
1
60
0
100
AcDbSpline
70
4
71
3
72
10
73
6
40
0
40
0
40
0
40
0
40
0.400830938784789
40
0.400830938784789
40
1
40
1
40
1
40
1
41
1
10
-1.79503997793932
20
-0.497935257500672
30
0
41
1
10
-1.79832582073132
20
-0.364990057325599
30
0
41
1
10
-1.8003922287937
20
-0.231874603744757
30
0
41
1
10
-1.8020952424169
20
0.100177528537557
30
0
41
1
10
-1.7999503081748
20
0.299269925289849
30
0
41
1
10
-1.79503997793927
20
0.497941450129076
30
0
0
SPLINE
5
F8
100
AcDbEntity
8
SK1
62
256
6
ByLayer
370
13
48
1
60
0
100
AcDbSpline
70
4
71
3
72
23
73
19
40
0
40
0
40
0
40
0
40
0.0151801832680488
40
0.0437400497311807
40
0.100859782657444
40
0.157979515583708
40
0.215099248509972
40
0.272218981436236
40
0.3293387143625
40
0.443578180215027
40
0.500697913141291
40
0.557817646067554
40
0.672057111920082
40
0.786296577772609
40
0.843416310698873
40
0.900536043625137
40
0.957655776551401
40
1
40
1
40
1
40
1
41
1
10
-1.7950399779393
20
-0.497935257505503
30
0
41
1
10
-1.7950399779393
20
-0.686148227369614
30
0
41
1
10
-1.7950399779393
20
-1.2279675200131
30
0
41
1
10
-1.7950399779393
20
-2.47030998023919
30
0
41
1
10
-1.7950399779393
20
-4.18621515342133
30
0
41
1
10
-1.7950399779393
20
-6.1538539584167
30
0
41
1
10
-1.7950399779393
20
-8.02089392647389
30
0
41
1
10
-1.7950399779393
20
-9.7837069100311
30
0
41
1
10
-1.7950399779393
20
-11.9936132714088
30
0
41
1
10
-1.7950399779393
20
-13.9857840732081
30
0
41
1
10
-1.7950399779393
20
-15.7565284847275
30
0
41
1
10
-1.7950399779393
20
-17.3747492708665
30
0
41
1
10
-1.7950399779393
20
-19.1010732050206
30
0
41
1
10
-1.7950399779393
20
-20.4022771684282
30
0
41
1
10
-1.7950399779393
20
-21.1565874478055
30
0
41
1
10
-1.7950399779393
20
-21.567186866652
30
0
41
1
10
-1.7950399779393
20
-21.7871707110338
30
0
41
1
10
-1.7950399779393
20
-21.8309353981041
30
0
41
1
10
-1.7950399779393
20
-21.8302764777034
30
0
0
SPLINE
5
F9
100
AcDbEntity
8
SK1
62
256
6
ByLayer
370
13
48
1
60
0
100
AcDbSpline
70
4
71
3
72
39
73
35
40
0
40
0
40
0
40
0
40
0.0160271542888661
40
0.0444953800680026
40
0.072963605847139
40
0.101431831626275
40
0.158368283184548
40
0.215304734742821
40
0.243772960521957
40
0.272241186301094
40
0.329177637859367
40
0.357645863638503
40
0.38611408941764
40
0.414582315196776
40
0.443050540975913
40
0.471518766755049
40
0.485752879644617
40
0.499986992534185
40
0.514221105423753
40
0.528455218313322
40
0.556923444092458
40
0.585391669871595
40
0.613859895650731
40
0.642328121429868
40
0.670796347209004
40
0.727732798767277
40
0.756201024546413
40
0.78466925032555
40
0.841605701883822
40
0.898542153442095
40
0.927010379221232
40
0.955478605000368
40
0.983946830779504
40
1
40
1
40
1
40
1
41
1
10
-36.5
20
21.155917538941
30
0
41
1
10
-36.5
20
21.1495972668636
30
0
41
1
10
-36.5
20
21.1028324835087
30
0
41
1
10
-36.5
20
20.9025884164264
30
0
41
1
10
-36.5
20
20.5018778480376
30
0
41
1
10
-36.5
20
19.7633849930511
30
0
41
1
10
-36.5
20
18.4909300775028
30
0
41
1
10
-36.5
20
16.8015839939551
30
0
41
1
10
-36.5
20
15.2144251466802
30
0
41
1
10
-36.5
20
13.4785456669564
30
0
41
1
10
-36.5
20
11.5365872380068
30
0
41
1
10
-36.5
20
9.37741591545515
30
0
41
1
10
-36.5
20
7.6628731467583
30
0
41
1
10
-36.5
20
5.85436022826514
30
0
41
1
10
-36.5
20
3.9608423365176
30
0
41
1
10
-36.5
20
2.32941166334251
30
0
41
1
10
-36.5
20
0.997014065912481
30
0
41
1
10
-36.5
20
1.676932868E-07
30
0
41
1
10
-36.5
20
-0.997014040356845
30
0
41
1
10
-36.5
20
-2.32941173515772
30
0
41
1
10
-36.5
20
-3.96084204001804
30
0
41
1
10
-36.5
20
-5.85435990948275
30
0
41
1
10
-36.5
20
-7.66287333478689
30
0
41
1
10
-36.5
20
-9.3774156460166
30
0
41
1
10
-36.5
20
-11.53658701746
30
0
41
1
10
-36.5
20
-13.4785456662698
30
0
41
1
10
-36.5
20
-15.2144249963298
30
0
41
1
10
-36.5
20
-16.801584448373
30
0
41
1
10
-36.5
20
-18.4909295861374
30
0
41
1
10
-36.5
20
-19.7633859456666
30
0
41
1
10
-36.5
20
-20.5018776781105
30
0
41
1
10
-36.5
20
-20.9025888554178
30
0
41
1
10
-36.5
20
-21.1029045585626
30
0
41
1
10
-36.5
20
-21.1496522426328
30
0
41
1
10
-36.5
20
-21.1559484612474
30
0
0
SPLINE
5
FA
100
AcDbEntity
8
SK1
62
256
6
ByLayer
370
13
48
1
60
0
100
AcDbSpline
70
4
71
3
72
8
73
4
40
0
40
0
40
0
40
0
40
1
40
1
40
1
40
1
41
1
10
-1.7950399779393
20
0.497941450130838
30
0
41
1
10
-1.75803826196614
20
1.99502758923407
30
0
41
1
10
-1.55746231783277
20
3.43208263626994
30
0
41
1
10
-1.31543506509496
20
4.80312611568499
30
0
0
SPLINE
5
FB
100
AcDbEntity
8
1
62
256
6
ByLayer
370
13
48
1
60
0
100
AcDbSpline
70
4
71
3
72
20
73
16
40
0
40
0
40
0
40
0
40
0.0509366218326186
40
0.118143659895896
40
0.185350697959173
40
0.252557736022451
40
0.386971812149005
40
0.52138588827556
40
0.588592926338837
40
0.655799964402114
40
0.790214040528669
40
0.857421078591946
40
0.924628116655223
40
0.991835154718501
40
1
40
1
40
1
40
1
41
0.874315756983289
10
-0.0999999999995811
20
-21.8971034222938
30
0
41
0.874315756983289
10
-0.0999999999996136
20
-21.8986736789558
30
0
41
0.874315756983289
10
-0.0999999999996136
20
-21.8552921800486
30
0
41
0.874315756983289
10
-0.0999999999996136
20
-21.6333957601054
30
0
41
0.874315756983289
10
-0.0999999999996136
20
-21.2218112502424
30
0
41
0.874315756983289
10
-0.0999999999996136
20
-20.4659250881949
30
0
41
0.874315756983289
10
-0.0999999999996136
20
-19.1618572175681
30
0
41
0.874315756983289
10
-0.0999999999996136
20
-17.4318493644904
30
0
41
0.874315756983289
10
-0.0999999999996136
20
-15.8105341716198
30
0
41
0.874315756983289
10
-0.0999999999996136
20
-14.0363164146728
30
0
41
0.874315756983289
10
-0.0999999999996136
20
-12.0391433543184
30
0
41
0.874315756983289
10
-0.0999999999996136
20
-9.82418264807944
30
0
41
0.874315756983289
10
-0.0999999999996136
20
-8.05656082106044
30
0
41
0.874315756983289
10
-0.0999999999996136
20
-6.73213673632526
30
0
41
0.874315756983289
10
-0.0999999999996136
20
-6.01058938422866
30
0
41
0.874315756983289
10
-0.0999999999996136
20
-5.93217709109603
30
0
0
SPLINE
5
FC
100
AcDbEntity
8
1
62
256
6
ByLayer
370
13
48
1
60
0
100
AcDbSpline
70
4
71
3
72
12
73
8
40
0
40
0
40
0
40
0
40
0.351990479393183
40
0.351990479393183
40
0.715070435854679
40
0.715070435854679
40
1
40
1
40
1
40
1
41
1
10
29.6578049547364
20
-31.6533497359656
30
0
41
1
10
29.7763044171578
20
-31.667055316372
30
0
41
1
10
29.8529619358952
20
-31.717067524339
30
0
41
1
10
29.9158051678807
20
-31.7604332700547
30
0
41
1
10
29.8991609534495
20
-31.7430259481786
30
0
41
1
10
29.7861639333061
20
-31.6825115078726
30
0
41
1
10
29.7065202391714
20
-31.65
30
0
41
1
10
29.6
20
-31.65
30
0
0
SPLINE
5
FD
100
AcDbEntity
8
1
62
256
6
ByLayer
370
13
48
1
60
0
100
AcDbSpline
70
4
71
3
72
12
73
8
40
0
40
0
40
0
40
0
40
0.5
40
0.5
40
0.75
40
0.75
40
1
40
1
40
1
40
1
41
1
10
24.15
20
0.589529378969644
30
0
41
1
10
23.525503916199
20
0.972258076901056
30
0
41
1
10
23.0759216996156
20
1.47263662376207
30
0
41
1
10
22.6069506294321
20
2.29709393249922
30
0
41
1
10
22.4852245942088
20
2.58341470824783
30
0
41
1
10
22.3054963254249
20
3.20963152629986
30
0
41
1
10
22.2438694247736
20
3.55533180738362
30
0
41
1
10
22.2402934855321
20
3.96509385800655
30
0
0
SPLINE
5
FE
100
AcDbEntity
8
1
62
256
6
ByLayer
370
13
48
1
60
0
100
AcDbSpline
70
4
71
3
72
16
73
12
40
0
40
0
40
0
40
0
40
0.113316224833466
40
0.113316224833466
40
0.252990411571484
40
0.252990411571484
40
0.473309013928313
40
0.473309013928313
40
0.89671635771898
40
0.89671635771898
40
1
40
1
40
1
40
1
41
1
10
10.5386751345946
20
-30.0805927603167
30
0
41
1
10
10.5105874404279
20
-30.0805927603167
30
0
41
1
10
10.4821506422367
20
-30.0790101689565
30
0
41
1
10
10.4232029654273
20
-30.0726712338967
30
0
41
1
10
10.3927526278709
20
-30.0672275748683
30
0
41
1
10
10.3230856363396
20
-30.0506647867051
30
0
41
1
10
10.2871733492347
20
-30.0378702684274
30
0
41
1
10
10.1985362549161
20
-29.9980833386353
30
0
41
1
10
10.1576291602467
20
-29.9679759349078
30
0
41
1
10
10.11909652624
20
-29.929419606467
30
0
41
1
10
10.1121028162028
20
-29.9217223689307
30
0
41
1
10
10.1056624327023
20
-29.9139548464689
30
0
0
SPLINE
5
FF
100
AcDbEntity
8
1
62
256
6
ByLayer
370
13
48
1
60
0
100
AcDbSpline
70
4
71
3
72
14
73
10
40
0
40
0
40
0
40
0
40
0.203400181257389
40
0.203400181257389
40
0.479269962085859
40
0.479269962085859
40
0.941100387623633
40
0.941100387623633
40
1
40
1
40
1
40
1
41
1
10
23.4383186059721
20
-29.9006726549677
30
0
41
1
10
23.394338083999
20
-29.7060920845464
30
0
41
1
10
23.3188395805774
20
-29.5231526164676
30
0
41
1
10
23.117415653863
20
-29.1437335729843
30
0
41
1
10
22.9801543593923
20
-28.9571680926373
30
0
41
1
10
22.6389865302565
20
-28.5288926223639
30
0
41
1
10
22.4474272626995
20
-28.3212612953999
30
0
41
1
10
22.3079983440229
20
-28.0908356782352
30
0
41
1
10
22.2930866126842
20
-28.0645791532971
30
0
41
1
10
22.2792076144253
20
-28.0382860574333
30
0
0
SPLINE
5
100
100
AcDbEntity
8
1
62
256
6
ByLayer
370
13
48
1
60
0
100
AcDbSpline
70
4
71
3
72
20
73
16
40
0
40
0
40
0
40
0
40
0.0008912074095907
40
0.0008912074095907
40
0.0228218466436008
40
0.0228218466436008
40
0.0494368103979572
40
0.0494368103979572
40
0.0942961377356355
40
0.0942961377356355
40
0.228604296352357
40
0.228604296352357
40
0.792194931715292
40
0.792194931715292
40
1
40
1
40
1
40
1
41
1
10
-0.0999999999996817
20
5.93218067753222
30
0
41
1
10
-0.0998347555558041
20
5.93221079489544
30
0
41
1
10
-0.0996695660888633
20
5.93224226598204
30
0
41
1
10
-0.0955006986489764
20
5.93307106226075
30
0
41
1
10
-0.0914919861690464
20
5.93472019870697
30
0
41
1
10
-0.0833557731713768
20
5.93977244020959
30
0
41
1
10
-0.0792517524983225
20
5.9435121169835
30
0
41
1
10
-0.0695520361300908
20
5.95460796353993
30
0
41
1
10
-0.0645769135488194
20
5.96283654379243
30
0
41
1
10
-0.0477164990182928
20
5.99630228539561
30
0
41
1
10
-0.0402705175320364
20
6.02401260946618
30
0
41
1
10
-0.008650436143057
20
6.16478955582332
30
0
41
1
10
-0.0045491916415017
20
6.28040085327413
30
0
41
1
10
-0.0004670060178
20
6.43515258622952
30
0
41
1
10
-2.84E-14
20
6.47681436300826
30
0
41
1
10
-2.84E-14
20
6.51833045883686
30
0
0
SPLINE
5
101
100
AcDbEntity
8
1
62
256
6
ByLayer
370
13
48
1
60
0
100
AcDbSpline
70
4
71
3
72
10
73
6
40
0
40
0
40
0
40
0
40
0.0098332535520815
40
0.0098332535520815
40
1
40
1
40
1
40
1
41
1
10
29.8933156645822
20
-31.8565053428156
30
0
41
1
10
29.8933048709578
20
-31.8565423986615
30
0
41
1
10
29.8932940640036
20
-31.8565794591095
30
0
41
1
10
29.8921787916377
20
-31.8603998417824
30
0
41
1
10
29.8909390960634
20
-31.8642400382596
30
0
41
1
10
29.8895651857753
20
-31.8681402478397
30
0
0
SPLINE
5
102
100
AcDbEntity
8
1
62
256
6
ByLayer
370
13
48
1
60
0
100
AcDbSpline
70
4
71
3
72
8
73
4
40
0
40
0
40
0
40
0
40
1
40
1
40
1
40
1
41
1
10
53.2811372307326
20
-44.2697851262737
30
0
41
1
10
53.2862486063683
20
-44.2566435394412
30
0
41
1
10
53.2908948170859
20
-44.2431824149596
30
0
41
1
10
53.295041984452
20
-44.2294860670662
30
0
0
SPLINE
5
103
100
AcDbEntity
8
1
62
256
6
ByLayer
370
13
48
1
60
0
100
AcDbSpline
70
4
71
3
72
18
73
14
40
0
40
0
40
0
40
0
40
0.0306290153034148
40
0.0306290153034148
40
0.22445983575571
40
0.22445983575571
40
0.419099853084226
40
0.419099853084226
40
0.61214536260052
40
0.61214536260052
40
0.803883857121626
40
0.803883857121626
40
1
40
1
40
1
40
1
41
1
10
44.9999999999999
20
-42.3250000000014
30
0
41
1
10
44.9648668224496
20
-42.3250000000014
30
0
41
1
10
44.9297201052791
20
-42.3238422803447
30
0
41
1
10
44.6757827175009
20
-42.3070842938482
30
0
41
1
10
44.4551214818331
20
-42.245470531712
30
0
41
1
10
44.0629330762771
20
-42.0406956544276
30
0
41
1
10
43.8878263769849
20
-41.8938880140507
30
0
41
1
10
43.6270523945639
20
-41.5720919389974
30
0
41
1
10
43.5377311551588
20
-41.3946364938855
30
0
41
1
10
43.4329865969239
20
-41.0866007567463
30
0
41
1
10
43.4137928526336
20
-40.952920718289
30
0
41
1
10
43.3981021043843
20
-40.7727422872407
30
0
41
1
10
43.4000004369808
20
-40.7249890075822
30
0
41
1
10
43.3999998113037
20
-40.7250047467258
30
0
0
SPLINE
5
104
100
AcDbEntity
8
1
62
256
6
ByLayer
370
13
48
1
60
0
100
AcDbSpline
70
4
71
3
72
8
73
4
40
0
40
0
40
0
40
0
40
1
40
1
40
1
40
1
41
1
10
22.1408071927175
20
-27.4984343324242
30
0
41
1
10
22.1437337029699
20
-27.685812463755
30
0
41
1
10
22.1893532789242
20
-27.8680613327795
30
0
41
1
10
22.2792076144253
20
-28.0382860574333
30
0
0
SPLINE
5
105
100
AcDbEntity
8
1
62
256
6
ByLayer
370
13
48
1
60
0
100
AcDbSpline
70
4
71
3
72
8
73
4
40
0
40
0
40
0
40
0
40
1
40
1
40
1
40
1
41
1
10
26.7714055786749
20
-44.6749999999999
30
0
41
1
10
26.4819042795197
20
-43.585753019852
30
0
41
1
10
26.1911332124364
20
-42.4936080949805
30
0
41
1
10
25.9
20
-41.4025173620657
30
0
0
SPLINE
5
106
100
AcDbEntity
8
1
62
256
6
ByLayer
370
13
48
1
60
0
100
AcDbSpline
70
4
71
3
72
12
73
8
40
0
40
0
40
0
40
0
40
0.180556962169273
40
0.180556962169273
40
0.733077151848129
40
0.733077151848129
40
1
40
1
40
1
40
1
41
1
10
29.9792156108742
20
-32.15
30
0
41
1
10
29.9792156108742
20
-32.1318331580368
30
0
41
1
10
29.9781928228407
20
-32.113637826592
30
0
41
1
10
29.9699965068578
20
-32.0409277985621
30
0
41
1
10
29.954196685626
20
-31.9865964013315
30
0
41
1
10
29.9185593643426
20
-31.9130950952138
30
0
41
1
10
29.9049188100019
20
-31.8899614567314
30
0
41
1
10
29.8895651857754
20
-31.8681402478396
30
0
0
SPLINE
5
107
100
AcDbEntity
8
1
62
256
6
ByLayer
370
13
48
1
60
0
100
AcDbSpline
70
4
71
3
72
20
73
16
40
0
40
0
40
0
40
0
40
0.640583359851156
40
0.640583359851156
40
0.759101824518715
40
0.759101824518715
40
0.866718478392165
40
0.866718478392165
40
0.915822063788944
40
0.915822063788944
40
0.956547844831233
40
0.956547844831233
40
0.980212390339579
40
0.980212390339579
40
1
40
1
40
1
40
1
41
1
10
0
20
-6.51832721803819
30
0
41
1
10
0
20
-6.39051441761288
30
0
41
1
10
-0.0024492443047563
20
-6.26067013501356
30
0
41
1
10
-0.0235684783978627
20
-6.10628706371008
30
0
41
1
10
-0.0275227865785723
20
-6.08204171360384
30
0
41
1
10
-0.0373581185365595
20
-6.03611892748012
30
0
41
1
10
-0.0429624475522985
20
-6.01422940095415
30
0
41
1
10
-0.0544674411239896
20
-5.98354037617918
30
0
41
1
10
-0.0585956228704845
20
-5.97402407582393
30
0
41
1
10
-0.0677536332753448
20
-5.95770574854191
30
0
41
1
10
-0.0725911733209728
20
-5.95057226823343
30
0
41
1
10
-0.0817350698633277
20
-5.94126730870906
30
0
41
1
10
-0.0854989899227689
20
-5.93823126653993
30
0
41
1
10
-0.0928516466984775
20
-5.93414644248153
30
0
41
1
10
-0.0964314327882505
20
-5.93282749585578
30
0
41
1
10
-0.0999999999951342
20
-5.93217709109717
30
0
0
SPLINE
5
108
100
AcDbEntity
8
1
62
256
6
ByLayer
370
13
48
1
60
0
100
AcDbSpline
70
4
71
3
72
8
73
4
40
0
40
0
40
0
40
0
40
1
40
1
40
1
40
1
41
1
10
53.390896167984
20
-43.0895758280092
30
0
41
1
10
53.3591385485359
20
-42.9831251111618
30
0
41
1
10
53.3272119937248
20
-42.8767579303021
30
0
41
1
10
53.2950419844519
20
-42.7705139329338
30
0
0
SPLINE
5
109
100
AcDbEntity
8
1
62
256
6
ByLayer
370
13
48
1
60
0
100
AcDbSpline
70
4
71
3
72
16
73
12
40
0
40
0
40
0
40
0
40
0.113316224833462
40
0.113316224833462
40
0.252990411571458
40
0.252990411571458
40
0.473309013928265
40
0.473309013928265
40
0.896716357718874
40
0.896716357718874
40
1
40
1
40
1
40
1
41
1
10
10.5386751345946
20
9.34922131452549
30
0
41
1
10
10.5105874404279
20
9.34922131452549
30
0
41
1
10
10.4821506422367
20
9.35431657339021
30
0
41
1
10
10.4232029654273
20
9.37467777536608
30
0
41
1
10
10.3927526278709
20
9.39213979793453
30
0
41
1
10
10.3230856363396
20
9.44503542604426
30
0
41
1
10
10.2871733492347
20
9.4856938043192
30
0
41
1
10
10.1985362549162
20
9.61105923366847
30
0
41
1
10
10.1576291602467
20
9.70465429390109
30
0
41
1
10
10.11909652624
20
9.82244573862513
30
0
41
1
10
10.1121028162028
20
9.8458694431807
30
0
41
1
10
10.1056624327023
20
9.86941261896658
30
0
0
SPLINE
5
10A
100
AcDbEntity
8
1
62
256
6
ByLayer
370
13
48
1
60
0
100
AcDbSpline
70
4
71
3
72
8
73
4
40
0
40
0
40
0
40
0
40
1
40
1
40
1
40
1
41
1
10
53.2950419844519
20
-44.2294860670661
30
0
41
1
10
53.3272119937248
20
-44.1232420696978
30
0
41
1
10
53.3591385485359
20
-44.0168748888381
30
0
41
1
10
53.390896167984
20
-43.9104241719908
30
0
0
SPLINE
5
10B
100
AcDbEntity
8
1
62
256
6
ByLayer
370
13
48
1
60
0
100
AcDbSpline
70
4
71
3
72
8
73
4
40
0
40
0
40
0
40
0
40
1
40
1
40
1
40
1
41
1
10
23.434018968338
20
-32.15
30
0
41
1
10
23.4354873422855
20
-32.1552344083981
30
0
41
1
10
23.4369206179076
20
-32.1604787898214
30
0
41
1
10
23.4383186059721
20
-32.1657324345277
30
0
0
SPLINE
5
10C
100
AcDbEntity
8
1
62
256
6
ByLayer
370
13
48
1
60
0
100
AcDbSpline
70
4
71
3
72
16
73
12
40
0
40
0
40
0
40
0
40
0.463423600832282
40
0.463423600832282
40
0.646243952932921
40
0.646243952932921
40
0.831657283224625
40
0.831657283224625
40
0.947504344290979
40
0.947504344290979
40
1
40
1
40
1
40
1
41
1
10
10.1056624327024
20
29.913954846469
30
0
41
1
10
10.1343390747263
20
29.9485407466772
30
0
41
1
10
10.1736499876089
20
29.9822690906119
30
0
41
1
10
10.2546180633466
20
30.0239686896251
30
0
41
1
10
10.2809130191139
20
30.0352936109064
30
0
41
1
10
10.3420137796673
20
30.0555697561517
30
0
41
1
10
10.3777400094531
20
30.0647246060481
30
0
41
1
10
10.4433516536448
20
30.0751823136668
30
0
41
1
10
10.4710402024011
20
30.0781795790238
30
0
41
1
10
10.5123223625247
20
30.0802576981001
30
0
41
1
10
10.5255210031397
20
30.0805927603169
30
0
41
1
10
10.5386751345946
20
30.0805927603169
30
0
0
SPLINE
5
10D
100
AcDbEntity
8
1
62
256
6
ByLayer
370
13
48
1
60
0
100
AcDbSpline
70
4
71
3
72
16
73
12
40
0
40
0
40
0
40
0
40
0.113316224833583
40
0.113316224833583
40
0.252990411571564
40
0.252990411571564
40
0.473309013928325
40
0.473309013928325
40
0.896716357718875
40
0.896716357718875
40
1
40
1
40
1
40
1
41
1
10
13.4613248654051
20
30.0805927603169
30
0
41
1
10
13.4894125595718
20
30.0805927603169
30
0
41
1
10
13.5178493577629
20
30.0790101689566
30
0
41
1
10
13.5767970345724
20
30.0726712338968
30
0
41
1
10
13.6072473721287
20
30.0672275748684
30
0
41
1
10
13.6769143636601
20
30.0506647867052
30
0
41
1
10
13.712826650765
20
30.0378702684275
30
0
41
1
10
13.8014637450835
20
29.9980833386354
30
0
41
1
10
13.842370839753
20
29.9679759349079
30
0
41
1
10
13.8809034737597
20
29.9294196064672
30
0
41
1
10
13.8878971837969
20
29.9217223689308
30
0
41
1
10
13.8943375672974
20
29.913954846469
30
0
0
SPLINE
5
10E
100
AcDbEntity
8
1
62
256
6
ByLayer
370
13
48
1
60
0
100
AcDbSpline
70
4
71
3
72
16
73
12
40
0
40
0
40
0
40
0
40
0.209828358696008
40
0.209828358696008
40
0.418428191508599
40
0.418428191508599
40
0.653307782654861
40
0.653307782654861
40
0.850736366625421
40
0.850736366625421
40
1
40
1
40
1
40
1
41
1
10
23.434018968338
20
-32.15
30
0
41
1
10
23.4178956362767
20
-32.0925241064162
30
0
41
1
10
23.3967876705799
20
-32.0356665782487
30
0
41
1
10
23.3486855137231
20
-31.9327714204657
30
0
41
1
10
23.321164779056
20
-31.8852768568491
30
0
41
1
10
23.2608750300043
20
-31.7974059266286
30
0
41
1
10
23.2270155962094
20
-31.7573704901866
30
0
41
1
10
23.1697553267636
20
-31.6995547301458
30
0
41
1
10
23.1449088814874
20
-31.6786019219945
30
0
41
1
10
23.1121547614534
20
-31.6555506251958
30
0
41
1
10
23.1014648197957
20
-31.65
30
0
41
1
10
23.0967440230754
20
-31.65
30
0
0
SPLINE
5
10F
100
AcDbEntity
8
1
62
256
6
ByLayer
370
13
48
1
60
0
100
AcDbSpline
70
4
71
3
72
16
73
12
40
0
40
0
40
0
40
0
40
0.463423600832253
40
0.463423600832253
40
0.646243952932845
40
0.646243952932845
40
0.831657283224497
40
0.831657283224497
40
0.947504344290854
40
0.947504344290854
40
1
40
1
40
1
40
1
41
1
10
13.8943375672973
20
-29.9139548464689
30
0
41
1
10
13.8656609252733
20
-29.9485407466771
30
0
41
1
10
13.8263500123908
20
-29.9822690906119
30
0
41
1
10
13.7453819366531
20
-30.023968689625
30
0
41
1
10
13.7190869808858
20
-30.0352936109063
30
0
41
1
10
13.6579862203324
20
-30.0555697561516
30
0
41
1
10
13.6222599905466
20
-30.064724606048
30
0
41
1
10
13.5566483463549
20
-30.0751823136667
30
0
41
1
10
13.5289597975986
20
-30.0781795790237
30
0
41
1
10
13.487677637475
20
-30.0802576981
30
0
41
1
10
13.4744789968599
20
-30.0805927603168
30
0
41
1
10
13.4613248654051
20
-30.0805927603168
30
0
0
SPLINE
5
110
100
AcDbEntity
8
1
62
256
6
ByLayer
370
13
48
1
60
0
100
AcDbSpline
70
4
71
3
72
8
73
4
40
0
40
0
40
0
40
0
40
1
40
1
40
1
40
1
41
1
10
23.4383186059721
20
-31.65
30
0
41
1
10
23.5379263335902
20
-31.65
30
0
41
1
10
23.6738714729606
20
-31.65
30
0
41
1
10
23.8413921037386
20
-31.65
30
0
0
SPLINE
5
111
100
AcDbEntity
8
1
62
256
6
ByLayer
370
13
48
1
60
0
100
AcDbSpline
70
4
71
3
72
8
73
4
40
0
40
0
40
0
40
0
40
1
40
1
40
1
40
1
41
1
10
53.2811372307324
20
-42.7302148737263
30
0
41
1
10
53.2283926850193
20
-42.5946061693693
30
0
41
1
10
53.1750514354768
20
-42.4593731548206
30
0
41
1
10
53.1204437640276
20
-42.325
30
0
0
SPLINE
5
112
100
AcDbEntity
8
1
62
256
6
ByLayer
370
13
48
1
60
0
100
AcDbSpline
70
4
71
3
72
16
73
12
40
0
40
0
40
0
40
0
40
0.113316224833582
40
0.113316224833582
40
0.252990411571548
40
0.252990411571548
40
0.473309013928275
40
0.473309013928275
40
0.896716357718735
40
0.896716357718735
40
1
40
1
40
1
40
1
41
1
10
13.4613248654051
20
-9.34922131452538
30
0
41
1
10
13.4894125595717
20
-9.34922131452538
30
0
41
1
10
13.5178493577629
20
-9.35431657339009
30
0
41
1
10
13.5767970345724
20
-9.37467777536594
30
0
41
1
10
13.6072473721287
20
-9.39213979793439
30
0
41
1
10
13.6769143636601
20
-9.44503542604409
30
0
41
1
10
13.7128266507649
20
-9.48569380431906
30
0
41
1
10
13.8014637450834
20
-9.6110592336683
30
0
41
1
10
13.8423708397529
20
-9.70465429390089
30
0
41
1
10
13.8809034737597
20
-9.82244573862496
30
0
41
1
10
13.8878971837968
20
-9.84586944318053
30
0
41
1
10
13.8943375672974
20
-9.86941261896646
30
0
0
SPLINE
5
113
100
AcDbEntity
8
1
62
256
6
ByLayer
370
13
48
1
60
0
100
AcDbSpline
70
4
71
3
72
8
73
4
40
0
40
0
40
0
40
0
40
1
40
1
40
1
40
1
41
1
10
25.8999999999999
20
-41.4025173620657
30
0
41
1
10
25.0785203382041
20
-38.3238275802898
30
0
41
1
10
24.2576989384009
20
-35.2449669825697
30
0
41
1
10
23.4383186059721
20
-32.1657324345277
30
0
0
SPLINE
5
114
100
AcDbEntity
8
1
62
256
6
ByLayer
370
13
48
1
60
0
100
AcDbSpline
70
4
71
3
72
8
73
4
40
0
40
0
40
0
40
0
40
1
40
1
40
1
40
1
41
1
10
23.4383186059721
20
-29.9006726549677
30
0
41
1
10
23.5698452818347
20
-30.4825787912926
30
0
41
1
10
23.7044284817979
20
-31.065744132691
30
0
41
1
10
23.8413921037386
20
-31.65
30
0
0
SPLINE
5
115
100
AcDbEntity
8
1
62
256
6
ByLayer
370
13
48
1
60
0
100
AcDbSpline
70
4
71
3
72
8
73
4
40
0
40
0
40
0
40
0
40
1
40
1
40
1
40
1
41
1
10
53.295041984452
20
-42.7705139329337
30
0
41
1
10
53.2908948170859
20
-42.7568175850402
30
0
41
1
10
53.2862486063683
20
-42.7433564605587
30
0
41
1
10
53.2811372307326
20
-42.7302148737262
30
0
0
SPLINE
5
116
100
AcDbEntity
8
1
62
256
6
ByLayer
370
13
48
1
60
0
100
AcDbSpline
70
4
71
3
72
16
73
12
40
0
40
0
40
0
40
0
40
0.463423600832246
40
0.463423600832246
40
0.646243952932833
40
0.646243952932833
40
0.831657283224501
40
0.831657283224501
40
0.947504344290827
40
0.947504344290827
40
1
40
1
40
1
40
1
41
1
10
13.8943375672973
20
9.86941261896658
30
0
41
1
10
13.8656609252733
20
9.76458357826326
30
0
41
1
10
13.8263500123908
20
9.66039292789975
30
0
41
1
10
13.7453819366531
20
9.52957658281079
30
0
41
1
10
13.7190869808858
20
9.4938015556811
30
0
41
1
10
13.6579862203324
20
9.42941539787674
30
0
41
1
10
13.6222599905466
20
9.40014891155749
30
0
41
1
10
13.5566483463549
20
9.36662118733824
30
0
41
1
10
13.5289597975987
20
9.35698328824276
30
0
41
1
10
13.487677637475
20
9.35029954873144
30
0
41
1
10
13.4744789968599
20
9.34922131452541
30
0
41
1
10
13.4613248654051
20
9.34922131452541
30
0
0
SPLINE
5
117
100
AcDbEntity
8
1
62
256
6
ByLayer
370
13
48
1
60
0
100
AcDbSpline
70
4
71
3
72
10
73
6
40
0
40
0
40
0
40
0
40
0.756194356096113
40
0.756194356096113
40
1
40
1
40
1
40
1
41
1
10
23.4383186059724
20
-31.65
30
0
41
1
10
23.3424488579939
20
-31.65
30
0
41
1
10
23.0895156240324
20
-31.65
30
0
41
1
10
22.8978937159331
20
-31.65
30
0
41
1
10
22.8774115873914
20
-31.65
30
0
41
1
10
22.8774567550358
20
-31.65
30
0
0
SPLINE
5
118
100
AcDbEntity
8
1
62
256
6
ByLayer
370
13
48
1
60
0
100
AcDbSpline
70
4
71
3
72
18
73
14
40
0
40
0
40
0
40
0
40
0.172083447732975
40
0.172083447732975
40
0.342831461641153
40
0.342831461641153
40
0.532288674240995
40
0.532288674240995
40
0.700377466883622
40
0.700377466883622
40
0.869608303808768
40
0.869608303808768
40
1
40
1
40
1
40
1
41
1
10
26.2401411777888
20
5.68E-14
30
0
41
1
10
25.9410519516201
20
5.68E-14
30
0
41
1
10
25.6487669200177
20
0.0349990153360693
30
0
41
1
10
25.1294354150096
20
0.148164979800868
30
0
41
1
10
24.8944894150608
20
0.226962535644361
30
0
41
1
10
24.47478456641
20
0.402679931494703
30
0
41
1
10
24.2919771299426
20
0.502996484774457
30
0
41
1
10
24.0403515153696
20
0.656331789683748
30
0
41
1
10
23.9584880371036
20
0.714266893203074
30
0
41
1
10
23.8857464299085
20
0.765989245911186
30
0
41
1
10
23.8951115965234
20
0.758837854757246
30
0
41
1
10
23.9905756046067
20
0.692123354374303
30
0
41
1
10
24.0591255319288
20
0.645222709548136
30
0
41
1
10
24.15
20
0.589529378969644
30
0
0
SPLINE
5
119
100
AcDbEntity
8
1
62
256
6
ByLayer
370
13
48
1
60
0
100
AcDbSpline
70
4
71
3
72
16
73
12
40
0
40
0
40
0
40
0
40
0.463423600832243
40
0.463423600832243
40
0.646243952932867
40
0.646243952932867
40
0.831657283224539
40
0.831657283224539
40
0.947504344290897
40
0.947504344290897
40
1
40
1
40
1
40
1
41
1
10
10.1056624327024
20
-9.86941261896649
30
0
41
1
10
10.1343390747263
20
-9.76458357826317
30
0
41
1
10
10.1736499876089
20
-9.66039292789969
30
0
41
1
10
10.2546180633466
20
-9.52957658281073
30
0
41
1
10
10.2809130191139
20
-9.49380155568105
30
0
41
1
10
10.3420137796673
20
-9.42941539787665
30
0
41
1
10
10.377740009453
20
-9.40014891155741
30
0
41
1
10
10.4433516536447
20
-9.36662118733815
30
0
41
1
10
10.471040202401
20
-9.35698328824267
30
0
41
1
10
10.5123223625247
20
-9.35029954873133
30
0
41
1
10
10.5255210031397
20
-9.34922131452532
30
0
41
1
10
10.5386751345946
20
-9.34922131452532
30
0
0
SPLINE
5
11A
100
AcDbEntity
8
1
62
256
6
ByLayer
370
13
48
1
60
0
100
AcDbSpline
70
4
71
3
72
20
73
16
40
0
40
0
40
0
40
0
40
0.0078056482631099
40
0.0078056482631099
40
0.0178791649910757
40
0.0178791649910757
40
0.0421325437823134
40
0.0421325437823134
40
0.134068845821247
40
0.134068845821247
40
0.486649113875957
40
0.486649113875957
40
0.838559076534424
40
0.838559076534424
40
1
40
1
40
1
40
1
41
1
10
28.569184318541
20
-32.15
30
0
41
1
10
28.569184318541
20
-32.1433851841125
30
0
41
1
10
28.5680071478996
20
-32.1366851518018
30
0
41
1
10
28.5633820944978
20
-32.1225771543723
30
0
41
1
10
28.5593818811551
20
-32.1152420578062
30
0
41
1
10
28.5439533506107
20
-32.0929174621982
30
0
41
1
10
28.5298267419237
20
-32.0804408906989
30
0
41
1
10
28.4606388573464
20
-32.0278287898485
30
0
41
1
10
28.3969206142512
20
-32.0017610563748
30
0
41
1
10
28.0891405632356
20
-31.8831567134504
30
0
41
1
10
27.8136794286947
20
-31.8236719611029
30
0
41
1
10
27.2505768813528
20
-31.7217703918825
30
0
41
1
10
26.9545865555966
20
-31.6836685477773
30
0
41
1
10
26.5300952771726
20
-31.655090481865
30
0
41
1
10
26.3962924676521
20
-31.65
30
0
41
1
10
26.2647683254899
20
-31.65
30
0
0
SPLINE
5
11B
100
AcDbEntity
8
1
62
256
6
ByLayer
370
13
48
1
60
0
100
AcDbSpline
70
4
71
3
72
8
73
4
40
0
40
0
40
0
40
0
40
1
40
1
40
1
40
1
41
1
10
53.1204437640275
20
-44.6749999999999
30
0
41
1
10
53.1750514354768
20
-44.5406268451793
30
0
41
1
10
53.2283926850193
20
-44.4053938306306
30
0
41
1
10
53.2811372307324
20
-44.2697851262736
30
0
0
LINE
5
70
100
AcDbEntity
8
1
62
256
6
ByLayer
370
13
48
1
60
0
100
AcDbLine
10
0.3
20
-31.5
30
0
11
22.279208
21
-31.5
31
0
39
0
210
0
220
0
230
1
0
LINE
5
72
100
AcDbEntity
8
1
62
256
6
ByLayer
370
13
48
1
60
0
100
AcDbLine
10
22
20
31.5
30
0
11
0.3
21
31.5
31
0
39
0
210
0
220
0
230
1
0
LINE
5
73
100
AcDbEntity
8
1
62
256
6
ByLayer
370
13
48
1
60
0
100
AcDbLine
10
0.3
20
31.5
30
0
11
0
21
31.2
31
0
39
0
210
0
220
0
230
1
0
LINE
5
74
100
AcDbEntity
8
1
62
256
6
ByLayer
370
13
48
1
60
0
100
AcDbLine
10
0
20
-31.2
30
0
11
0.3
21
-31.5
31
0
39
0
210
0
220
0
230
1
0
LINE
5
75
100
AcDbEntity
8
80
62
256
6
ByLayer
370
18
48
1
60
0
100
AcDbLine
10
0
20
0
30
0
11
-5
21
0
31
0
39
0
210
0
220
0
230
1
0
LINE
5
76
100
AcDbEntity
8
81
62
256
6
ByLayer
370
18
48
1
60
0
100
AcDbLine
10
60
20
-45
30
0
11
65
21
-45
31
0
39
0
210
0
220
0
230
1
0
LINE
5
77
100
AcDbEntity
8
SK1
62
256
6
ByLayer
370
13
48
1
60
0
100
AcDbLine
10
-0.194977
20
-21.870041
30
0
11
-0.194977
21
-21.86392
31
0
39
0
210
0
220
0
230
1
0
LINE
5
79
100
AcDbEntity
8
SK1
62
256
6
ByLayer
370
13
48
1
60
0
100
AcDbLine
10
-0.194977
20
21.86392
30
0
11
-0.194977
21
21.87004
31
0
39
0
210
0
220
0
230
1
0
LINE
5
7A
100
AcDbEntity
8
SK1
62
256
6
ByLayer
370
13
48
1
60
0
100
AcDbLine
10
-1.79504
20
21.823125
30
0
11
-1.79504
21
21.830277
31
0
39
0
210
0
220
0
230
1
0
LINE
5
7B
100
AcDbEntity
8
SK1
62
256
6
ByLayer
370
13
48
1
60
0
100
AcDbLine
10
-1.315435
20
-4.803123
30
0
11
-1.315435
21
4.803126
31
0
39
0
210
0
220
0
230
1
0
LINE
5
7C
100
AcDbEntity
8
SK1
62
256
6
ByLayer
370
13
48
1
60
0
100
AcDbLine
10
-0.1
20
5.932181
30
0
11
-0.1
21
-5.932177
31
0
39
0
210
0
220
0
230
1
0
LINE
5
7D
100
AcDbEntity
8
SK1
62
256
6
ByLayer
370
13
48
1
60
0
100
AcDbLine
10
-1.79504
20
-21.830277
30
0
11
-1.79504
21
-21.823125
31
0
39
0
210
0
220
0
230
1
0
LINE
5
7E
100
AcDbEntity
8
1
62
256
6
ByLayer
370
13
48
1
60
0
100
AcDbLine
10
53.120327
20
-44.675
30
0
11
56.186295
21
-44.675
31
0
39
0
210
0
220
0
230
1
0
LINE
5
7F
100
AcDbEntity
8
1
62
256
6
ByLayer
370
13
48
1
60
0
100
AcDbLine
10
10.105662
20
9.869413
30
0
11
10.105662
21
29.913955
31
0
39
0
210
0
220
0
230
1
0
LINE
5
80
100
AcDbEntity
8
1
62
256
6
ByLayer
370
13
48
1
60
0
100
AcDbLine
10
49.8
20
-42.325
30
0
11
45
21
-42.325
31
0
39
0
210
0
220
0
230
1
0
LINE
5
81
100
AcDbEntity
8
1
62
256
6
ByLayer
370
13
48
1
60
0
100
AcDbLine
10
49.8
20
-42.325
30
0
11
53.120444
21
-42.325
31
0
39
0
210
0
220
0
230
1
0
LINE
5
82
100
AcDbEntity
8
1
62
256
6
ByLayer
370
13
48
1
60
0
100
AcDbLine
10
22.240293
20
3.965094
30
0
11
22.140807
21
15.365094
31
0
39
0
210
0
220
0
230
1
0
LINE
5
83
100
AcDbEntity
8
1
62
256
6
ByLayer
370
13
48
1
60
0
100
AcDbLine
10
30.1
20
-44.675
30
0
11
39.355257
21
-44.675
31
0
39
0
210
0
220
0
230
1
0
LINE
5
84
100
AcDbEntity
8
1
62
256
6
ByLayer
370
13
48
1
60
0
100
AcDbLine
10
10.538675
20
-30.080593
30
0
11
10.538675
21
-9.349221
31
0
39
0
210
0
220
0
230
1
0
LINE
5
85
100
AcDbEntity
8
1
62
256
6
ByLayer
370
13
48
1
60
0
100
AcDbLine
10
10.538675
20
-9.349221
30
0
11
13.461325
21
-9.349221
31
0
39
0
210
0
220
0
230
1
0
LINE
5
86
100
AcDbEntity
8
1
62
256
6
ByLayer
370
13
48
1
60
0
100
AcDbLine
10
43.4
20
-40.725
30
0
11
42.144771
21
-40.725
31
0
39
0
210
0
220
0
230
1
0
LINE
5
87
100
AcDbEntity
8
1
62
256
6
ByLayer
370
13
48
1
60
0
100
AcDbLine
10
13.461325
20
-30.080593
30
0
11
10.538675
21
-30.080593
31
0
39
0
210
0
220
0
230
1
0
LINE
5
88
100
AcDbEntity
8
1
62
256
6
ByLayer
370
13
48
1
60
0
100
AcDbLine
10
29.649983
20
0
30
0
11
26.240141
21
0
31
0
39
0
210
0
220
0
230
1
0
LINE
5
89
100
AcDbEntity
8
1
62
256
6
ByLayer
370
13
48
1
60
0
100
AcDbLine
10
29.65
20
-31.652506
30
0
11
29.65
21
0
31
0
39
0
210
0
220
0
230
1
0
LINE
5
8A
100
AcDbEntity
8
1
62
256
6
ByLayer
370
13
48
1
60
0
100
AcDbLine
10
42.266947
20
-17.000204
30
0
11
43.4
21
-31
31
0
39
0
210
0
220
0
230
1
0
LINE
5
8B
100
AcDbEntity
8
1
62
256
6
ByLayer
370
13
48
1
60
0
100
AcDbLine
10
29.979216
20
-32.15
30
0
11
29.979216
21
-44.675
31
0
39
0
210
0
220
0
230
1
0
LINE
5
8C
100
AcDbEntity
8
1
62
256
6
ByLayer
370
13
48
1
60
0
100
AcDbLine
10
29.979216
20
-32.15
30
0
11
30.1
21
-32.15
31
0
39
0
210
0
220
0
230
1
0
LINE
5
8D
100
AcDbEntity
8
1
62
256
6
ByLayer
370
13
48
1
60
0
100
AcDbLine
10
43.4
20
-31
30
0
11
43.4
21
-40.725
31
0
39
0
210
0
220
0
230
1
0
LINE
5
8E
100
AcDbEntity
8
1
62
256
6
ByLayer
370
13
48
1
60
0
100
AcDbLine
10
10.538675
20
30.080593
30
0
11
13.461325
21
30.080593
31
0
39
0
210
0
220
0
230
1
0
LINE
5
8F
100
AcDbEntity
8
1
62
256
6
ByLayer
370
13
48
1
60
0
100
AcDbLine
10
39.355257
20
-42.325
30
0
11
45
21
-42.325
31
0
39
0
210
0
220
0
230
1
0
LINE
5
90
100
AcDbEntity
8
1
62
256
6
ByLayer
370
13
48
1
60
0
100
AcDbLine
10
29.336699
20
-44.675
30
0
11
29.336699
21
-31.649445
31
0
39
0
210
0
220
0
230
1
0
LINE
5
91
100
AcDbEntity
8
1
62
256
6
ByLayer
370
13
48
1
60
0
100
AcDbLine
10
49.8
20
-44.675
30
0
11
39.355257
21
-44.675
31
0
39
0
210
0
220
0
230
1
0
LINE
5
92
100
AcDbEntity
8
1
62
256
6
ByLayer
370
13
48
1
60
0
100
AcDbLine
10
30.1
20
-32.15
30
0
11
30.1
21
-44.675
31
0
39
0
210
0
220
0
230
1
0
LINE
5
93
100
AcDbEntity
8
1
62
256
6
ByLayer
370
13
48
1
60
0
100
AcDbLine
10
10.105662
20
-29.913955
30
0
11
10.105662
21
-9.869413
31
0
39
0
210
0
220
0
230
1
0
LINE
5
94
100
AcDbEntity
8
1
62
256
6
ByLayer
370
13
48
1
60
0
100
AcDbLine
10
39.355257
20
-44.675
30
0
11
39.355257
21
-42.325
31
0
39
0
210
0
220
0
230
1
0
LINE
5
95
100
AcDbEntity
8
1
62
256
6
ByLayer
370
13
48
1
60
0
100
AcDbLine
10
13.461325
20
9.349221
30
0
11
10.538675
21
9.349221
31
0
39
0
210
0
220
0
230
1
0
LINE
5
96
100
AcDbEntity
8
1
62
256
6
ByLayer
370
13
48
1
60
0
100
AcDbLine
10
22.279208
20
-31.5
30
0
11
22.279208
21
-28.038286
31
0
39
0
210
0
220
0
230
1
0
LINE
5
97
100
AcDbEntity
8
1
62
256
6
ByLayer
370
13
48
1
60
0
100
AcDbLine
10
49.8
20
-44.675
30
0
11
49.8
21
-42.325
31
0
39
0
210
0
220
0
230
1
0
LINE
5
98
100
AcDbEntity
8
1
62
256
6
ByLayer
370
13
48
1
60
0
100
AcDbLine
10
29.889565
20
-31.80291
30
0
11
29.889565
21
-31.86814
31
0
39
0
210
0
220
0
230
1
0
LINE
5
99
100
AcDbEntity
8
1
62
256
6
ByLayer
370
13
48
1
60
0
100
AcDbLine
10
25.9
20
-41.402517
30
0
11
25.9
21
-32.15
31
0
39
0
210
0
220
0
230
1
0
LINE
5
9A
100
AcDbEntity
8
1
62
256
6
ByLayer
370
13
48
1
60
0
100
AcDbLine
10
13.461325
20
-30.080593
30
0
11
13.461325
21
-9.349221
31
0
39
0
210
0
220
0
230
1
0
LINE
5
9B
100
AcDbEntity
8
1
62
256
6
ByLayer
370
13
48
1
60
0
100
AcDbLine
10
29.979255
20
-44.675
30
0
11
29.336699
21
-44.675
31
0
39
0
210
0
220
0
230
1
0
LINE
5
9C
100
AcDbEntity
8
1
62
256
6
ByLayer
370
13
48
1
60
0
100
AcDbLine
10
0
20
31.2
30
0
11
0
21
-31.2
31
0
39
0
210
0
220
0
230
1
0
LINE
5
9D
100
AcDbEntity
8
1
62
256
6
ByLayer
370
13
48
1
60
0
100
AcDbLine
10
24.150018
20
-31.65
30
0
11
29.6
21
-31.65
31
0
39
0
210
0
220
0
230
1
0
LINE
5
9E
100
AcDbEntity
8
1
62
256
6
ByLayer
370
13
48
1
60
0
100
AcDbLine
10
38.4
20
0
30
0
11
42.266947
21
-17.000204
31
0
39
0
210
0
220
0
230
1
0
LINE
5
9F
100
AcDbEntity
8
1
62
256
6
ByLayer
370
13
48
1
60
0
100
AcDbLine
10
22.080515
20
22.273864
30
0
11
22
21
31.5
31
0
39
0
210
0
220
0
230
1
0
LINE
5
A0
100
AcDbEntity
8
1
62
256
6
ByLayer
370
13
48
1
60
0
100
AcDbLine
10
22.140807
20
15.365094
30
0
11
22.140807
21
-27.498434
31
0
39
0
210
0
220
0
230
1
0
LINE
5
A1
100
AcDbEntity
8
1
62
256
6
ByLayer
370
13
48
1
60
0
100
AcDbLine
10
25.9
20
-32.15
30
0
11
28.569184
21
-32.15
31
0
39
0
210
0
220
0
230
1
0
LINE
5
A2
100
AcDbEntity
8
1
62
256
6
ByLayer
370
13
48
1
60
0
100
AcDbLine
10
23.438319
20
-31.65
30
0
11
23.438319
21
-29.900673
31
0
39
0
210
0
220
0
230
1
0
LINE
5
A3
100
AcDbEntity
8
1
62
256
6
ByLayer
370
13
48
1
60
0
100
AcDbLine
10
30.1
20
-44.675
30
0
11
29.979216
21
-44.675
31
0
39
0
210
0
220
0
230
1
0
LINE
5
A4
100
AcDbEntity
8
1
62
256
6
ByLayer
370
13
48
1
60
0
100
AcDbLine
10
13.894338
20
-29.913955
30
0
11
13.894338
21
-9.869413
31
0
39
0
210
0
220
0
230
1
0
LINE
5
A5
100
AcDbEntity
8
1
62
256
6
ByLayer
370
13
48
1
60
0
100
AcDbLine
10
25.9
20
-32.15
30
0
11
25.9
21
-31.65
31
0
39
0
210
0
220
0
230
1
0
LINE
5
A6
100
AcDbEntity
8
1
62
256
6
ByLayer
370
13
48
1
60
0
100
AcDbLine
10
29.65
20
0
30
0
11
38.4
21
0
31
0
39
0
210
0
220
0
230
1
0
LINE
5
A7
100
AcDbEntity
8
1
62
256
6
ByLayer
370
13
48
1
60
0
100
AcDbLine
10
22.080515
20
22.273864
30
0
11
22.140807
21
15.365094
31
0
39
0
210
0
220
0
230
1
0
LINE
5
A8
100
AcDbEntity
8
1
62
256
6
ByLayer
370
13
48
1
60
0
100
AcDbLine
10
24.15
20
-31.65
30
0
11
23.841392
21
-31.65
31
0
39
0
210
0
220
0
230
1
0
LINE
5
A9
100
AcDbEntity
8
1
62
256
6
ByLayer
370
13
48
1
60
0
100
AcDbLine
10
24.15
20
-31.65
30
0
11
24.15
21
0.589529
31
0
39
0
210
0
220
0
230
1
0
LINE
5
AA
100
AcDbEntity
8
1
62
256
6
ByLayer
370
13
48
1
60
0
100
AcDbLine
10
53.120403
20
-42.325
30
0
11
56.186272
21
-42.325
31
0
39
0
210
0
220
0
230
1
0
LINE
5
AB
100
AcDbEntity
8
1
62
256
6
ByLayer
370
13
48
1
60
0
100
AcDbLine
10
26.771406
20
-44.675
30
0
11
28.569184
21
-44.675
31
0
39
0
210
0
220
0
230
1
0
LINE
5
AC
100
AcDbEntity
8
1
62
256
6
ByLayer
370
13
48
1
60
0
100
AcDbLine
10
13.894338
20
9.869413
30
0
11
13.894338
21
29.913955
31
0
39
0
210
0
220
0
230
1
0
LINE
5
AD
100
AcDbEntity
8
1
62
256
6
ByLayer
370
13
48
1
60
0
100
AcDbLine
10
0.3
20
31.5
30
0
11
0.3
21
-31.5
31
0
39
0
210
0
220
0
230
1
0
LINE
5
AE
100
AcDbEntity
8
1
62
256
6
ByLayer
370
13
48
1
60
0
100
AcDbLine
10
28.569184
20
-44.675
30
0
11
29.336699
21
-44.675
31
0
39
0
210
0
220
0
230
1
0
LINE
5
AF
100
AcDbEntity
8
1
62
256
6
ByLayer
370
13
48
1
60
0
100
AcDbLine
10
53.120444
20
-44.675
30
0
11
49.8
21
-44.675
31
0
39
0
210
0
220
0
230
1
0
LINE
5
B0
100
AcDbEntity
8
1
62
256
6
ByLayer
370
13
48
1
60
0
100
AcDbLine
10
-0.1
20
5.932181
30
0
11
-0.1
21
-5.932177
31
0
39
0
210
0
220
0
230
1
0
LINE
5
B1
100
AcDbEntity
8
1
62
256
6
ByLayer
370
13
48
1
60
0
100
AcDbLine
10
23.434019
20
-32.15
30
0
11
25.9
21
-32.15
31
0
39
0
210
0
220
0
230
1
0
LINE
5
B2
100
AcDbEntity
8
1
62
256
6
ByLayer
370
13
48
1
60
0
100
AcDbLine
10
28.569184
20
-32.15
30
0
11
28.569184
21
-44.675
31
0
39
0
210
0
220
0
230
1
0
LINE
5
B3
100
AcDbEntity
8
1
62
256
6
ByLayer
370
13
48
1
60
0
100
AcDbLine
10
13.461325
20
9.349221
30
0
11
13.461325
21
30.080593
31
0
39
0
210
0
220
0
230
1
0
LINE
5
B4
100
AcDbEntity
8
1
62
256
6
ByLayer
370
13
48
1
60
0
100
AcDbLine
10
10.538675
20
9.349221
30
0
11
10.538675
21
30.080593
31
0
39
0
210
0
220
0
230
1
0
LINE
5
B5
100
AcDbEntity
8
1
62
256
6
ByLayer
370
18
48
1
60
0
100
AcDbLine
10
54.018406
20
-42.35
30
0
11
53.130338
21
-42.35
31
0
39
0
210
0
220
0
230
1
0
LINE
5
B6
100
AcDbEntity
8
1
62
256
6
ByLayer
370
18
48
1
60
0
100
AcDbLine
10
54.018406
20
-44.65
30
0
11
53.130338
21
-44.65
31
0
39
0
210
0
220
0
230
1
0
LINE
5
B7
100
AcDbEntity
8
1
62
256
6
ByLayer
370
18
48
1
60
0
100
AcDbLine
10
43.81369
20
-44.675
30
0
11
43.5
21
-44.856109
31
0
39
0
210
0
220
0
230
1
0
LINE
5
B8
100
AcDbEntity
8
1
62
256
6
ByLayer
370
18
48
1
60
0
100
AcDbLine
10
40
20
-44.8
30
0
11
40
21
-44.674997
31
0
39
0
210
0
220
0
230
1
0
LINE
5
B9
100
AcDbEntity
8
1
62
256
6
ByLayer
370
13
48
1
60
0
100
AcDbLine
10
53.199154
20
-42.523551
30
0
11
54.018406
21
-42.523551
31
0
39
0
210
0
220
0
230
1
0
LINE
5
BA
100
AcDbEntity
8
1
62
256
6
ByLayer
370
13
48
1
60
0
100
AcDbLine
10
53.219445
20
-42.574854
30
0
11
54.027452
21
-42.574854
31
0
39
0
210
0
220
0
230
1
0
LINE
5
BB
100
AcDbEntity
8
1
62
256
6
ByLayer
370
13
48
1
60
0
100
AcDbLine
10
53.219445
20
-44.425146
30
0
11
54.027452
21
-44.425146
31
0
39
0
210
0
220
0
230
1
0
LINE
5
BC
100
AcDbEntity
8
1
62
256
6
ByLayer
370
13
48
1
60
0
100
AcDbLine
10
53.439935
20
-43.67101
30
0
11
54.301935
21
-43.67101
31
0
39
0
210
0
220
0
230
1
0
LINE
5
BD
100
AcDbEntity
8
1
62
256
6
ByLayer
370
13
48
1
60
0
100
AcDbLine
10
53.199154
20
-44.476449
30
0
11
54.018406
21
-44.476449
31
0
39
0
210
0
220
0
230
1
0
LINE
5
BE
100
AcDbEntity
8
1
62
256
6
ByLayer
370
13
48
1
60
0
100
AcDbLine
10
53.439935
20
-43.32899
30
0
11
54.301935
21
-43.32899
31
0
39
0
210
0
220
0
230
1
0
LINE
5
BF
100
AcDbEntity
8
1
62
256
6
ByLayer
370
18
48
1
60
0
100
AcDbLine
10
54.018406
20
-42.35
30
0
11
55.2
21
-42.35
31
0
39
0
210
0
220
0
230
1
0
LINE
5
C0
100
AcDbEntity
8
1
62
256
6
ByLayer
370
18
48
1
60
0
100
AcDbLine
10
55.2
20
-42.35
30
0
11
56.143008
21
-42.35
31
0
39
0
210
0
220
0
230
1
0
LINE
5
C1
100
AcDbEntity
8
1
62
256
6
ByLayer
370
18
48
1
60
0
100
AcDbLine
10
54.018406
20
-42.523551
30
0
11
54.018406
21
-42.35
31
0
39
0
210
0
220
0
230
1
0
LINE
5
C2
100
AcDbEntity
8
1
62
256
6
ByLayer
370
18
48
1
60
0
100
AcDbLine
10
54.027452
20
-42.574854
30
0
11
54.301935
21
-43.32899
31
0
39
0
210
0
220
0
230
1
0
LINE
5
C3
100
AcDbEntity
8
1
62
256
6
ByLayer
370
18
48
1
60
0
100
AcDbLine
10
55.2
20
-42.35
30
0
11
55.2
21
-44.65
31
0
39
0
210
0
220
0
230
1
0
LINE
5
C4
100
AcDbEntity
8
1
62
256
6
ByLayer
370
18
48
1
60
0
100
AcDbLine
10
60
20
-44.8
30
0
11
60
21
-42.2
31
0
39
0
210
0
220
0
230
1
0
LINE
5
C5
100
AcDbEntity
8
1
62
256
6
ByLayer
370
18
48
1
60
0
100
AcDbLine
10
59.791276
20
-42.00019
30
0
11
56.5
21
-42.143891
31
0
39
0
210
0
220
0
230
1
0
LINE
5
C6
100
AcDbEntity
8
1
62
256
6
ByLayer
370
18
48
1
60
0
100
AcDbLine
10
56.143008
20
-42.35
30
0
11
56.5
21
-42.143891
31
0
39
0
210
0
220
0
230
1
0
LINE
5
C7
100
AcDbEntity
8
1
62
256
6
ByLayer
370
18
48
1
60
0
100
AcDbLine
10
59.791276
20
-44.99981
30
0
11
56.5
21
-44.856109
31
0
39
0
210
0
220
0
230
1
0
LINE
5
C8
100
AcDbEntity
8
1
62
256
6
ByLayer
370
18
48
1
60
0
100
AcDbLine
10
54.018406
20
-44.65
30
0
11
55.2
21
-44.65
31
0
39
0
210
0
220
0
230
1
0
LINE
5
C9
100
AcDbEntity
8
1
62
256
6
ByLayer
370
18
48
1
60
0
100
AcDbLine
10
54.018406
20
-44.476449
30
0
11
54.018406
21
-44.65
31
0
39
0
210
0
220
0
230
1
0
LINE
5
CA
100
AcDbEntity
8
1
62
256
6
ByLayer
370
18
48
1
60
0
100
AcDbLine
10
55.2
20
-44.65
30
0
11
56.143008
21
-44.65
31
0
39
0
210
0
220
0
230
1
0
LINE
5
CB
100
AcDbEntity
8
1
62
256
6
ByLayer
370
18
48
1
60
0
100
AcDbLine
10
56.143008
20
-44.65
30
0
11
56.5
21
-44.856109
31
0
39
0
210
0
220
0
230
1
0
LINE
5
CC
100
AcDbEntity
8
1
62
256
6
ByLayer
370
18
48
1
60
0
100
AcDbLine
10
54.027452
20
-44.425146
30
0
11
54.301935
21
-43.67101
31
0
39
0
210
0
220
0
230
1
0
LINE
5
CD
100
AcDbEntity
8
1
62
256
6
ByLayer
370
18
48
1
60
0
100
AcDbLine
10
40.208724
20
-44.99981
30
0
11
43.5
21
-44.856109
31
0
39
0
210
0
220
0
230
1
0
MTEXT
5
11C
100
AcDbEntity
8
SK6
62
256
6
ByLayer
370
18
48
1
60
0
100
AcDbMText
10
-20.625
20
-57.625
30
0
210
0
220
0
230
1
1
\W0.7481;C6-LF123G15C45060E
40
3.5
41
0
44
1.084337
50
0
71
7
72
5
7
iso_b_vert
0
DIMENSION
5
12E
100
AcDbEntity
8
SK2
62
256
6
ByLayer
370
13
48
1
60
0
100
AcDbDimension
2
DimnDraft3D1
10
60
20
54.1
30
0
11
27.909211
21
54.1
31
0
70
32
71
5
72
1
41
1
210
0
220
0
230
1
3
Standard
100
AcDbAlignedDimension
13
0
23
2
33
0
14
60
24
-43
34
0
50
0
100
AcDbRotatedDimension
1001
ACAD
1000
DSTYLE
1002
{
1070
   279
1070
     0
1070
   172
1070
     1
1070
   173
1070
     1
1070
   340
1005
11D
1070
   271
1070
     1
1070
    77
1070
     1
1070
    73
1070
     0
1070
   171
1070
     3
1070
   274
1070
     4
1070
   177
1070
     2
1070
   176
1070
     2
1070
   178
1070
     7
1070
    78
1070
     8
1070
    41
1041
3.175
1070
   147
1041
1.75
1070
    42
1041
2.0
1070
    44
1041
2.0
1070
   140
1041
3.5
1070
   343
1005
12F
1070
   344
1005
12F
1002
}
0
DIMENSION
5
144
100
AcDbEntity
8
2
62
256
6
ByLayer
370
13
48
1
60
0
100
AcDbDimension
2
DimnDraft3D2
10
45
20
-58.1
30
0
11
50.846711
21
-58.1
31
0
70
32
71
5
72
1
41
1
210
0
220
0
230
1
3
Standard
100
AcDbAlignedDimension
13
60
23
-47
33
0
14
45
24
-33.5
34
0
50
0
100
AcDbRotatedDimension
1001
ACAD
1000
DSTYLE
1002
{
1070
   279
1070
     0
1070
   172
1070
     1
1070
   173
1070
     1
1070
   340
1005
11D
1070
   271
1070
     1
1070
    77
1070
     1
1070
    73
1070
     0
1070
   171
1070
     3
1070
   274
1070
     4
1070
   177
1070
     2
1070
   176
1070
     2
1070
   178
1070
     7
1070
    78
1070
     8
1070
    41
1041
3.175
1070
   147
1041
1.75
1070
    42
1041
2.0
1070
    44
1041
2.0
1070
   140
1041
3.5
1070
   343
1005
12F
1070
   344
1005
12F
1002
}
0
DIMENSION
5
152
100
AcDbEntity
8
SK2
62
256
6
ByLayer
370
13
48
1
60
0
100
AcDbDimension
2
DimnDraft3D3
10
-47.6
20
31.5
30
0
11
-47.6
21
-2.090789
31
0
70
32
71
5
72
1
41
1
210
0
220
0
230
1
3
Standard
100
AcDbAlignedDimension
13
-2
23
-31.5
33
0
14
-2
24
31.5
34
0
50
90
100
AcDbRotatedDimension
1001
ACAD
1000
DSTYLE
1002
{
1070
    74
1070
     0
1070
   279
1070
     0
1070
   172
1070
     1
1070
   173
1070
     1
1070
   340
1005
11D
1070
   271
1070
     1
1070
    77
1070
     1
1070
    73
1070
     0
1070
   171
1070
     3
1070
   274
1070
     4
1070
   177
1070
     2
1070
   176
1070
     2
1070
   178
1070
     7
1070
    78
1070
     8
1070
    41
1041
3.175
1070
   147
1041
1.75
1070
    42
1041
2.0
1070
    44
1041
2.0
1070
   140
1041
3.5
1070
   343
1005
12F
1070
   344
1005
12F
1002
}
0
DIMENSION
5
160
100
AcDbEntity
8
2
62
256
6
ByLayer
370
13
48
1
60
0
100
AcDbDimension
2
DimnDraft3D4
10
85.1
20
-45
30
0
11
85.1
21
-24.775
31
0
70
32
71
5
72
1
41
1
210
0
220
0
230
1
3
Standard
100
AcDbAlignedDimension
13
53
23
0
33
0
14
62
24
-45
34
0
50
90
100
AcDbRotatedDimension
1001
ACAD
1000
DSTYLE
1002
{
1070
    74
1070
     0
1070
   279
1070
     0
1070
   172
1070
     1
1070
   173
1070
     1
1070
   340
1005
11D
1070
   271
1070
     1
1070
    77
1070
     1
1070
    73
1070
     0
1070
   171
1070
     3
1070
   274
1070
     4
1070
   177
1070
     2
1070
   176
1070
     2
1070
   178
1070
     7
1070
    78
1070
     8
1070
    41
1041
3.175
1070
   147
1041
1.75
1070
    42
1041
2.0
1070
    44
1041
2.0
1070
   140
1041
3.5
1070
   343
1005
12F
1070
   344
1005
12F
1002
}
0
DIMENSION
5
16E
100
AcDbEntity
8
2
62
256
6
ByLayer
370
13
48
1
60
0
100
AcDbDimension
2
DimnDraft3D5
10
78.1
20
-42
30
0
11
78.1
21
-56.820789
31
0
70
32
71
5
72
1
41
1
210
0
220
0
230
1
3
Standard
100
AcDbAlignedDimension
13
62
23
-45
33
0
14
62
24
-42
34
0
50
90
100
AcDbRotatedDimension
1001
ACAD
1000
DSTYLE
1002
{
1070
    74
1070
     0
1070
   279
1070
     0
1070
   172
1070
     1
1070
   173
1070
     1
1070
   340
1005
11D
1070
   271
1070
     1
1070
    77
1070
     1
1070
    73
1070
     0
1070
   171
1070
     3
1070
   274
1070
     4
1070
   177
1070
     2
1070
   176
1070
     2
1070
   178
1070
     7
1070
    78
1070
     8
1070
    41
1041
3.175
1070
   147
1041
1.75
1070
    42
1041
2.0
1070
    44
1041
2.0
1070
   140
1041
3.5
1070
   343
1005
12F
1070
   344
1005
12F
1002
}
0
ENDSEC
0
SECTION
2
OBJECTS
0
DICTIONARY
5
1d8
330
0
100
AcDbDictionary
280
0
281
1
3
ACAD_GROUP
350
1d9
3
ACAD_MLINESTYLE
350
1da
0
DICTIONARY
5
1d9
330
0
100
AcDbDictionary
280
0
281
1
0
DICTIONARY
5
1da
330
0
100
AcDbDictionary
280
0
281
1
3
Standard
350
18
0
MLINESTYLE
5
18
330
1da
100
AcDbMlineStyle
2
Standard
70
0
3

62
256
51
90
52
90
71
2
49
-0.5
62
256
6
ByLayer
49
0.5
62
256
6
ByLayer
0
RASTERVARIABLES
5
1c7
330

100
AcDbRasterVariables
90
0
70
1
71
1
72
1
0
ENDSEC
0
EOF
