0
SECTION
2
HEADER
9
$ACADVER
1
AC1015
9
$DWGCODEPAGE
3
ANSI_1252
9
$HANDSEED
5
275
9
$ANGBASE
50
0
9
$ANGDIR
70
0
9
$ATTMODE
70
1
9
$AUNITS
70
0
9
$AUPREC
70
0
9
$CECOLOR
62
256
9
$CELTSCALE
40
1
9
$CELTYPE
6
ByLayer
9
$CELWEIGHT
370
18
9
$CLAYER
8
0
9
$CMLJUST
70
0
9
$CMLSCALE
40
1
9
$CMLSTYLE
2
Standard
9
$DIMSTYLE
2
Standard
9
$TEXTSIZE
40
0.2
9
$TEXTSTYLE
7
Standard
9
$LUNITS
70
2
9
$LUPREC
70
4
9
$EXTNAMES
290
1
9
$INSUNITS
70
4
9
$LTSCALE
40
1
9
$LWDISPLAY
290
1
9
$PDMODE
70
0
9
$PDSIZE
40
0
9
$PLINEGEN
70
0
0
ENDSEC
0
SECTION
2
CLASSES
0
CLASS
1
RASTERVARIABLES
2
AcDbRasterVariables
3
ISM
90
0
280
0
281
0
0
ENDSEC
0
SECTION
2
TABLES
0
TABLE
2
VPORT
5
26b
100
AcDbSymbolTable
0
VPORT
5
1
100
AcDbSymbolTableRecord
100
AcDbViewportTableRecord
2
*Active
70
0
10
0
20
0
11
1
21
1
12
-1
22
1
13
0
23
0
14
0.5
24
0.5
15
10
25
10
16
0
26
0
36
1
17
0
27
0
37
0
0
ENDTAB
0
TABLE
2
LTYPE
5
26c
100
AcDbSymbolTable
0
LTYPE
5
14
100
AcDbSymbolTableRecord
100
AcDbLinetypeTableRecord
70
0
2
ByBlock
3

72
65
73
0
40
0
0
LTYPE
5
15
100
AcDbSymbolTableRecord
100
AcDbLinetypeTableRecord
70
0
2
ByLayer
3

72
65
73
0
40
0
0
LTYPE
5
16
100
AcDbSymbolTableRecord
100
AcDbLinetypeTableRecord
70
0
2
CONTINUOUS
3
Solid line
72
65
73
0
40
0
0
LTYPE
5
6A
100
AcDbSymbolTableRecord
100
AcDbLinetypeTableRecord
70
0
2
CENTER
3
____ _ ____ _ ____ _ ____
72
65
73
4
40
47.5
49
22
74
0
49
-8.5
74
0
49
8.5
74
0
49
-8.5
74
0
0
LTYPE
5
6B
100
AcDbSymbolTableRecord
100
AcDbLinetypeTableRecord
70
0
2
DASHED
3
__ __ __ __ __ __ __ __ __
72
65
73
2
40
25.72
49
12.86
74
0
49
-12.86
74
0
0
ENDTAB
0
TABLE
2
LAYER
5
26d
100
AcDbSymbolTable
0
LAYER
5
10
100
AcDbSymbolTableRecord
100
AcDbLayerTableRecord
2
0
70
0
62
7
6
CONTINUOUS
290
1
370
-3
390
0
0
LAYER
5
6D
100
AcDbSymbolTableRecord
100
AcDbLayerTableRecord
2
2
70
0
62
7
6
CONTINUOUS
290
1
370
-3
390
0
0
LAYER
5
6F
100
AcDbSymbolTableRecord
100
AcDbLayerTableRecord
2
80
70
0
62
-6
6
CONTINUOUS
290
1
370
-3
390
0
0
LAYER
5
71
100
AcDbSymbolTableRecord
100
AcDbLayerTableRecord
2
81
70
0
62
-3
6
CONTINUOUS
290
1
370
-3
390
0
0
LAYER
5
74
100
AcDbSymbolTableRecord
100
AcDbLayerTableRecord
2
1
70
0
62
4
6
CONTINUOUS
290
1
370
-3
390
0
0
LAYER
5
89
100
AcDbSymbolTableRecord
100
AcDbLayerTableRecord
2
4
70
0
62
-2
6
CENTER
290
1
370
-3
390
0
0
LAYER
5
257
100
AcDbSymbolTableRecord
100
AcDbLayerTableRecord
2
SK4
70
0
62
2
6
CENTER
290
1
370
-3
390
0
0
LAYER
5
258
100
AcDbSymbolTableRecord
100
AcDbLayerTableRecord
2
SK1
70
0
62
4
6
CONTINUOUS
290
1
370
-3
390
0
0
LAYER
5
259
100
AcDbSymbolTableRecord
100
AcDbLayerTableRecord
2
SK6
70
0
62
5
6
CONTINUOUS
290
1
370
-3
390
0
0
LAYER
5
25a
100
AcDbSymbolTableRecord
100
AcDbLayerTableRecord
2
SK2
70
0
62
7
6
CONTINUOUS
290
1
370
-3
390
0
0
ENDTAB
0
TABLE
2
STYLE
5
26e
100
AcDbSymbolTable
0
STYLE
5
11
100
AcDbSymbolTableRecord
100
AcDbTextStyleTableRecord
2
Standard
3
txt
70
0
71
0
40
0
41
1
42
0
50
0
0
STYLE
5
1BB
100
AcDbSymbolTableRecord
100
AcDbTextStyleTableRecord
2
iso_b_vert
3
simplex.shx
70
0
71
0
40
0
41
1
42
0
50
0
0
STYLE
5
1BC
100
AcDbSymbolTableRecord
100
AcDbTextStyleTableRecord
2
DWGDirectTextStyle
3
simplex
70
0
71
0
40
0
41
1
42
0
50
0
0
ENDTAB
0
TABLE
2
DIMSTYLE
5
26f
100
AcDbSymbolTable
100
AcDbDimStyleTable
0
DIMSTYLE
105
27
100
AcDbSymbolTableRecord
100
AcDbDimStyleTableRecord
2
Standard
70
0
3
<>
41
0.18
42
0.0625
44
0.18
140
0.18
147
0.09
73
0
74
0
77
1
271
2
275
0
278
52
280
0
340
11
0
ENDTAB
0
TABLE
2
VIEW
5
270
100
AcDbSymbolTable
0
ENDTAB
0
TABLE
2
UCS
5
271
100
AcDbSymbolTable
0
ENDTAB
0
TABLE
2
APPID
5
272
100
AcDbSymbolTable
0
APPID
5
12
100
AcDbSymbolTableRecord
100
AcDbRegAppTableRecord
2
ACAD
70
0
0
ENDTAB
0
TABLE
2
BLOCK_RECORD
5
273
100
AcDbSymbolTable
0
BLOCK_RECORD
5
1F
100
AcDbSymbolTableRecord
100
AcDbBlockTableRecord
2
*Model_Space
340
0
70
0
0
BLOCK_RECORD
5
1B
100
AcDbSymbolTableRecord
100
AcDbBlockTableRecord
2
*Paper_Space
340
0
70
0
0
BLOCK_RECORD
5
23
100
AcDbSymbolTableRecord
100
AcDbBlockTableRecord
2
*Paper_Space0
340
0
70
0
0
BLOCK_RECORD
5
1BE
100
AcDbSymbolTableRecord
100
AcDbBlockTableRecord
2
DimnDraft3D11
340
0
70
0
0
BLOCK_RECORD
5
1CC
100
AcDbSymbolTableRecord
100
AcDbBlockTableRecord
2
DimnDraft3D2
340
0
70
0
0
BLOCK_RECORD
5
1DA
100
AcDbSymbolTableRecord
100
AcDbBlockTableRecord
2
_CLOSED
340
0
70
0
0
BLOCK_RECORD
5
1E1
100
AcDbSymbolTableRecord
100
AcDbBlockTableRecord
2
DimnDraft3D3
340
0
70
0
0
BLOCK_RECORD
5
1F0
100
AcDbSymbolTableRecord
100
AcDbBlockTableRecord
2
DimnDraft3D4
340
0
70
0
0
ENDTAB
0
ENDSEC
0
SECTION
2
BLOCKS
0
BLOCK
5
20
100
AcDbEntity
8
0
100
AcDbBlockBegin
2
*Model_Space
70
0
10
0
20
0
30
0
3
*Model_Space
0
ENDBLK
5
21
100
AcDbEntity
8
0
100
AcDbBlockEnd
0
BLOCK
5
1C
100
AcDbEntity
8
0
100
AcDbBlockBegin
2
*Paper_Space
70
0
10
0
20
0
30
0
3
*Paper_Space
0
ENDBLK
5
1D
100
AcDbEntity
8
0
100
AcDbBlockEnd
0
BLOCK
5
24
100
AcDbEntity
8
0
100
AcDbBlockBegin
2
*Paper_Space0
70
0
10
0
20
0
30
0
3
*Paper_Space0
0
ENDBLK
5
25
100
AcDbEntity
8
0
100
AcDbBlockEnd
0
BLOCK
5
1BF
100
AcDbEntity
8
0
100
AcDbBlockBegin
2
DimnDraft3D11
70
0
10
0
20
0
30
0
3
DimnDraft3D11
0
LINE
5
1C1
100
AcDbEntity
8
2
62
256
6
ByLayer
370
25
48
1
60
0
100
AcDbLine
10
65
20
47
30
0
11
65
21
75.75
31
0
39
0
210
0
220
0
230
1
0
LINE
5
1C2
100
AcDbEntity
8
2
62
256
6
ByLayer
370
25
48
1
60
0
100
AcDbLine
10
0
20
33.5
30
0
11
0
21
75.75
31
0
39
0
210
0
220
0
230
1
0
LINE
5
1C3
100
AcDbEntity
8
2
62
256
6
ByLayer
370
25
48
1
60
0
100
AcDbLine
10
65
20
73.75
30
0
11
0
21
73.75
31
0
39
0
210
0
220
0
230
1
0
LINE
5
1C4
100
AcDbEntity
8
2
62
256
6
ByLayer
370
25
48
1
60
0
100
AcDbLine
10
65
20
73.75
30
0
11
61.825002
21
73.332003
31
0
39
0
210
0
220
0
230
1
0
LINE
5
1C5
100
AcDbEntity
8
2
62
256
6
ByLayer
370
25
48
1
60
0
100
AcDbLine
10
65
20
73.75
30
0
11
61.824998
21
74.167997
31
0
39
0
210
0
220
0
230
1
0
LINE
5
1C6
100
AcDbEntity
8
2
62
256
6
ByLayer
370
25
48
1
60
0
100
AcDbLine
10
61.825002
20
73.332003
30
0
11
61.824998
21
74.167997
31
0
39
0
210
0
220
0
230
1
0
LINE
5
1C7
100
AcDbEntity
8
2
62
256
6
ByLayer
370
25
48
1
60
0
100
AcDbLine
10
0
20
73.75
30
0
11
3.174998
21
74.167997
31
0
39
0
210
0
220
0
230
1
0
LINE
5
1C8
100
AcDbEntity
8
2
62
256
6
ByLayer
370
25
48
1
60
0
100
AcDbLine
10
0
20
73.75
30
0
11
3.175002
21
73.332003
31
0
39
0
210
0
220
0
230
1
0
LINE
5
1C9
100
AcDbEntity
8
2
62
256
6
ByLayer
370
25
48
1
60
0
100
AcDbLine
10
3.174998
20
74.167997
30
0
11
3.175002
21
73.332003
31
0
39
0
210
0
220
0
230
1
0
MTEXT
5
1CA
100
AcDbEntity
8
2
62
256
6
ByLayer
370
18
48
1
60
0
100
AcDbMText
10
28.343421
20
74.875
30
0
210
0
220
0
230
1
1
\W0.7346;65.0
40
4.5
41
0
44
1.084337
50
0
71
7
72
5
7
iso_b_vert
0
ENDBLK
5
1C0
100
AcDbEntity
8
0
100
AcDbBlockEnd
0
BLOCK
5
1D7
100
AcDbEntity
8
0
100
AcDbBlockBegin
2
DimnDraft3D2
70
0
10
0
20
0
30
0
3
DimnDraft3D2
0
MTEXT
5
1CD
100
AcDbEntity
8
2
62
256
6
ByLayer
370
18
48
1
60
0
100
AcDbMText
10
53.058392
20
52.100499
30
0
210
0
220
0
230
1
1
\W0.7399;95%%d
40
4.5
41
0
44
1.084337
50
47.3457231599999
71
7
72
5
7
iso_b_vert
0
LINE
5
1CE
100
AcDbEntity
8
2
62
256
6
ByLayer
370
13
48
1
60
0
100
AcDbLine
10
65
20
47
30
0
11
65
21
59.490491
31
0
39
0
210
0
220
0
230
1
0
LINE
5
1CF
100
AcDbEntity
8
2
62
256
6
ByLayer
370
13
48
1
60
0
100
AcDbLine
10
61.151381
20
44.751971
30
0
11
50.625638
21
43.88818
31
0
39
0
210
0
220
0
230
1
0
ARC
5
1D0
100
AcDbEntity
8
2
62
256
6
ByLayer
370
13
48
1
60
0
100
AcDbCircle
39
0
10
65
20
45.067807
30
0
40
12.4226837803016
210
0
220
0
230
1
100
AcDbArc
50
90
51
184.691446
0
LINE
5
1D1
100
AcDbEntity
8
2
62
256
6
ByLayer
370
13
48
1
60
0
100
AcDbLine
10
65
20
57.490491
30
0
11
61.857957
21
56.8717
31
0
39
0
210
0
220
0
230
1
0
LINE
5
1D2
100
AcDbEntity
8
2
62
256
6
ByLayer
370
13
48
1
60
0
100
AcDbLine
10
65
20
57.490491
30
0
11
61.804862
21
57.706006
31
0
39
0
210
0
220
0
230
1
0
LINE
5
1D3
100
AcDbEntity
8
2
62
256
6
ByLayer
370
13
48
1
60
0
100
AcDbLine
10
61.857957
20
56.8717
30
0
11
61.804862
21
57.706006
31
0
39
0
210
0
220
0
230
1
0
LINE
5
1D4
100
AcDbEntity
8
2
62
256
6
ByLayer
370
13
48
1
60
0
100
AcDbLine
10
52.618937
20
44.051759
30
0
11
52.142815
21
47.218563
31
0
39
0
210
0
220
0
230
1
0
LINE
5
1D5
100
AcDbEntity
8
2
62
256
6
ByLayer
370
13
48
1
60
0
100
AcDbLine
10
52.618937
20
44.051759
30
0
11
52.978668
21
47.233889
31
0
39
0
210
0
220
0
230
1
0
LINE
5
1D6
100
AcDbEntity
8
2
62
256
6
ByLayer
370
13
48
1
60
0
100
AcDbLine
10
52.142815
20
47.218563
30
0
11
52.978668
21
47.233889
31
0
39
0
210
0
220
0
230
1
0
ENDBLK
5
1D8
100
AcDbEntity
8
0
100
AcDbBlockEnd
0
BLOCK
5
1DB
100
AcDbEntity
8
0
100
AcDbBlockBegin
2
_CLOSED
70
0
10
0
20
0
30
0
3
_CLOSED
0
LINE
5
1DD
100
AcDbEntity
8
0
62
256
6
ByLayer
370
-2
48
1
60
0
100
AcDbLine
10
-1
20
0.166667
30
0
11
0
21
0
31
0
39
0
210
0
220
0
230
1
0
LINE
5
1DE
100
AcDbEntity
8
0
62
256
6
ByLayer
370
-2
48
1
60
0
100
AcDbLine
10
0
20
0
30
0
11
-1
21
-0.166667
31
0
39
0
210
0
220
0
230
1
0
LINE
5
1DF
100
AcDbEntity
8
0
62
256
6
ByLayer
370
-2
48
1
60
0
100
AcDbLine
10
-1
20
0.166667
30
0
11
-1
21
-0.166667
31
0
39
0
210
0
220
0
230
1
0
LINE
5
1E0
100
AcDbEntity
8
0
62
256
6
ByLayer
370
-2
48
1
60
0
100
AcDbLine
10
0
20
0
30
0
11
-1
21
0
31
0
39
0
210
0
220
0
230
1
0
ENDBLK
5
1DC
100
AcDbEntity
8
0
100
AcDbBlockEnd
0
BLOCK
5
1ED
100
AcDbEntity
8
0
100
AcDbBlockBegin
2
DimnDraft3D3
70
0
10
0
20
0
30
0
3
DimnDraft3D3
0
MTEXT
5
1E2
100
AcDbEntity
8
SK2
62
256
6
ByLayer
370
18
48
1
60
0
100
AcDbMText
10
-46.875
20
-1.563158
30
0
210
0
220
0
230
1
1
\W0.6740;63
40
4.5
41
0
44
1.084337
50
90
71
7
72
5
7
iso_b_vert
0
LINE
5
1E4
100
AcDbEntity
8
SK2
62
256
6
ByLayer
370
13
48
1
60
0
100
AcDbLine
10
-2
20
-31.5
30
0
11
-47.75
21
-31.5
31
0
39
0
210
0
220
0
230
1
0
LINE
5
1E5
100
AcDbEntity
8
SK2
62
256
6
ByLayer
370
13
48
1
60
0
100
AcDbLine
10
-2
20
31.5
30
0
11
-47.75
21
31.5
31
0
39
0
210
0
220
0
230
1
0
LINE
5
1E6
100
AcDbEntity
8
SK2
62
256
6
ByLayer
370
13
48
1
60
0
100
AcDbLine
10
-45.75
20
-31.5
30
0
11
-45.75
21
31.5
31
0
39
0
210
0
220
0
230
1
0
LINE
5
1E7
100
AcDbEntity
8
SK2
62
256
6
ByLayer
370
13
48
1
60
0
100
AcDbLine
10
-45.75
20
-31.5
30
0
11
-46.167997
21
-28.325002
31
0
39
0
210
0
220
0
230
1
0
LINE
5
1E8
100
AcDbEntity
8
SK2
62
256
6
ByLayer
370
13
48
1
60
0
100
AcDbLine
10
-45.75
20
-31.5
30
0
11
-45.332003
21
-28.324998
31
0
39
0
210
0
220
0
230
1
0
LINE
5
1E9
100
AcDbEntity
8
SK2
62
256
6
ByLayer
370
13
48
1
60
0
100
AcDbLine
10
-46.167997
20
-28.325002
30
0
11
-45.332003
21
-28.324998
31
0
39
0
210
0
220
0
230
1
0
LINE
5
1EA
100
AcDbEntity
8
SK2
62
256
6
ByLayer
370
13
48
1
60
0
100
AcDbLine
10
-45.75
20
31.5
30
0
11
-45.332003
21
28.325002
31
0
39
0
210
0
220
0
230
1
0
LINE
5
1EB
100
AcDbEntity
8
SK2
62
256
6
ByLayer
370
13
48
1
60
0
100
AcDbLine
10
-45.75
20
31.5
30
0
11
-46.167997
21
28.324998
31
0
39
0
210
0
220
0
230
1
0
LINE
5
1EC
100
AcDbEntity
8
SK2
62
256
6
ByLayer
370
13
48
1
60
0
100
AcDbLine
10
-45.332003
20
28.325002
30
0
11
-46.167997
21
28.324998
31
0
39
0
210
0
220
0
230
1
0
ENDBLK
5
1EE
100
AcDbEntity
8
0
100
AcDbBlockEnd
0
BLOCK
5
1FB
100
AcDbEntity
8
0
100
AcDbBlockBegin
2
DimnDraft3D4
70
0
10
0
20
0
30
0
3
DimnDraft3D4
0
MTEXT
5
1F1
100
AcDbEntity
8
2
62
256
6
ByLayer
370
18
48
1
60
0
100
AcDbMText
10
86.125
20
18.106579
30
0
210
0
220
0
230
1
1
\W0.7640;45.0
40
4.5
41
0
44
1.084337
50
90
71
7
72
5
7
iso_b_vert
0
LINE
5
1F2
100
AcDbEntity
8
2
62
256
6
ByLayer
370
13
48
1
60
0
100
AcDbLine
10
67
20
0
30
0
11
89.25
21
0
31
0
39
0
210
0
220
0
230
1
0
LINE
5
1F3
100
AcDbEntity
8
2
62
256
6
ByLayer
370
13
48
1
60
0
100
AcDbLine
10
67
20
45
30
0
11
89.25
21
45
31
0
39
0
210
0
220
0
230
1
0
LINE
5
1F4
100
AcDbEntity
8
2
62
256
6
ByLayer
370
13
48
1
60
0
100
AcDbLine
10
87.25
20
0
30
0
11
87.25
21
45
31
0
39
0
210
0
220
0
230
1
0
LINE
5
1F5
100
AcDbEntity
8
2
62
256
6
ByLayer
370
13
48
1
60
0
100
AcDbLine
10
87.25
20
0
30
0
11
86.832003
21
3.174998
31
0
39
0
210
0
220
0
230
1
0
LINE
5
1F6
100
AcDbEntity
8
2
62
256
6
ByLayer
370
13
48
1
60
0
100
AcDbLine
10
87.25
20
0
30
0
11
87.667997
21
3.175002
31
0
39
0
210
0
220
0
230
1
0
LINE
5
1F7
100
AcDbEntity
8
2
62
256
6
ByLayer
370
13
48
1
60
0
100
AcDbLine
10
86.832003
20
3.174998
30
0
11
87.667997
21
3.175002
31
0
39
0
210
0
220
0
230
1
0
LINE
5
1F8
100
AcDbEntity
8
2
62
256
6
ByLayer
370
13
48
1
60
0
100
AcDbLine
10
87.25
20
45
30
0
11
87.667997
21
41.825002
31
0
39
0
210
0
220
0
230
1
0
LINE
5
1F9
100
AcDbEntity
8
2
62
256
6
ByLayer
370
13
48
1
60
0
100
AcDbLine
10
87.25
20
45
30
0
11
86.832003
21
41.824998
31
0
39
0
210
0
220
0
230
1
0
LINE
5
1FA
100
AcDbEntity
8
2
62
256
6
ByLayer
370
13
48
1
60
0
100
AcDbLine
10
87.667997
20
41.825002
30
0
11
86.832003
21
41.824998
31
0
39
0
210
0
220
0
230
1
0
ENDBLK
5
1FC
100
AcDbEntity
8
0
100
AcDbBlockEnd
0
ENDSEC
0
SECTION
2
ENTITIES
0
ARC
5
F4
100
AcDbEntity
8
SK1
62
256
6
ByLayer
370
18
48
1
60
0
100
AcDbCircle
39
0
10
0.6
20
-23.45
30
0
40
0.999999999999999
210
0
220
0
230
-1
100
AcDbArc
50
113.578178
51
126.869898
0
ARC
5
F5
100
AcDbEntity
8
SK1
62
256
6
ByLayer
370
18
48
1
60
0
100
AcDbCircle
39
0
10
0.6
20
23.45
30
0
40
0.999999999999999
210
0
220
0
230
-1
100
AcDbArc
50
233.130102
51
246.421822
0
ELLIPSE
5
F6
100
AcDbEntity
8
1
62
256
6
ByLayer
370
18
48
1
60
0
100
AcDbEllipse
10
44.674
20
34.997759
30
0
11
0.813172798366392
21
-0.813172798362667
31
0
210
0
220
0
230
1
40
0.989133
41
0.0324014061345311
42
3.10919894175766
0
ELLIPSE
5
F7
100
AcDbEntity
8
1
62
256
6
ByLayer
370
18
48
1
60
0
100
AcDbEllipse
10
12
20
-19.981782
30
0
11
-1.64999999999999
21
2.02060048380691E-16
31
0
210
0
220
0
230
1
40
0.681998
41
-0.539372507029148
42
0
0
ELLIPSE
5
F8
100
AcDbEntity
8
1
62
256
6
ByLayer
370
18
48
1
60
0
100
AcDbEllipse
10
12
20
-19.981782
30
0
11
-1.64999999999999
21
2.02060048380691E-16
31
0
210
0
220
0
230
1
40
0.681998
41
0
42
1.57079606964742
0
ELLIPSE
5
F9
100
AcDbEntity
8
1
62
256
6
ByLayer
370
18
48
1
60
0
100
AcDbEllipse
10
12
20
-19.981782
30
0
11
-1.64999999999999
21
2.02060048380691E-16
31
0
210
0
220
0
230
1
40
0.681998
41
1.57079649217664
42
-2.60222026442106
0
ELLIPSE
5
FA
100
AcDbEntity
8
1
62
256
6
ByLayer
370
18
48
1
60
0
100
AcDbEllipse
10
12
20
-19.981782
30
0
11
-1.99999999999999
21
2.44921270764474E-16
31
0
210
0
220
0
230
1
40
0.681998
41
0.241608078834302
42
1.57079618914633
0
ELLIPSE
5
FB
100
AcDbEntity
8
1
62
256
6
ByLayer
370
18
48
1
60
0
100
AcDbEllipse
10
12
20
-19.981782
30
0
11
-1.99999999999999
21
2.44921270764474E-16
31
0
210
0
220
0
230
1
40
0.681998
41
1.57079618914633
42
2.89998418375822
0
ELLIPSE
5
FC
100
AcDbEntity
8
1
62
256
6
ByLayer
370
18
48
1
60
0
100
AcDbEllipse
10
23.896286
20
-12.365296
30
0
11
-0.43365598169019
21
34.4443280809036
31
0
210
0
220
0
230
1
40
0.115445
41
1.34012720227515
42
1.34459472423081
0
ELLIPSE
5
FD
100
AcDbEntity
8
1
62
256
6
ByLayer
370
18
48
1
60
0
100
AcDbEllipse
10
22.799229
20
-4.814645
30
0
11
1.61814516585796
21
-1.49050535799456
31
0
210
0
220
0
230
1
40
0.156833
41
3.24770621222212E-05
42
3.1415434719892
0
ELLIPSE
5
FE
100
AcDbEntity
8
1
62
256
6
ByLayer
370
18
48
1
60
0
100
AcDbEllipse
10
12
20
-16.538669
30
0
11
-1.01350369203602
21
-3.74738926438473
31
0
210
0
220
0
230
1
40
0.370101
41
0.110422484379998
42
0.148506124308007
0
ELLIPSE
5
FF
100
AcDbEntity
8
1
62
256
6
ByLayer
370
18
48
1
60
0
100
AcDbEllipse
10
9.617596
20
-19.12509
30
0
11
-1.61814516585796
21
1.49050535799456
31
0
210
0
220
0
230
1
40
0.156833
41
-2.63427171958804
42
-1.99804477812109
0
ELLIPSE
5
100
100
AcDbEntity
8
1
62
256
6
ByLayer
370
18
48
1
60
0
100
AcDbEllipse
10
22.966508
20
-4.633041
30
0
11
-1.43426503337411
21
1.32112974913155
31
0
210
0
220
0
230
1
40
0.156833
41
-2.98207997151233
42
-0.159542106357826
0
ELLIPSE
5
101
100
AcDbEntity
8
1
62
256
6
ByLayer
370
18
48
1
60
0
100
AcDbEllipse
10
59.157512
20
30.083212
30
0
11
-1.1225320151362
21
1.12253201513105
31
0
210
0
220
0
230
1
40
0.989133
41
2.49947504746996
42
2.7110960221042
0
ELLIPSE
5
102
100
AcDbEntity
8
1
62
256
6
ByLayer
370
18
48
1
60
0
100
AcDbEllipse
10
37.642884
20
38.896844
30
0
11
2.00411319484461
21
-2.23238220344316
31
0
210
0
220
0
230
1
40
0.98676
41
-0.470414656504749
42
-0.182430741910908
0
ELLIPSE
5
103
100
AcDbEntity
8
1
62
256
6
ByLayer
370
18
48
1
60
0
100
AcDbEllipse
10
43.369514
20
34.621936
30
0
11
2.77235658620171
21
-3.08812871476304
31
0
210
0
220
0
230
1
40
0.98676
41
2.67117799708505
42
2.94656018809035
0
ELLIPSE
5
104
100
AcDbEntity
8
1
62
256
6
ByLayer
370
18
48
1
60
0
100
AcDbEllipse
10
45.332001
20
35.135074
30
0
11
-2.77235658620171
21
3.08812871476303
31
0
210
0
220
0
230
1
40
0.98676
41
3.03746818403645
42
-0.470414656504749
0
ELLIPSE
5
105
100
AcDbEntity
8
1
62
256
6
ByLayer
370
18
48
1
60
0
100
AcDbEllipse
10
43.292929
20
34.601911
30
0
11
-1.73689810219866
21
1.93473124298407
31
0
210
0
220
0
230
1
40
0.98676
41
1.01590209257837
42
1.19369658223933
0
ELLIPSE
5
106
100
AcDbEntity
8
1
62
256
6
ByLayer
370
18
48
1
60
0
100
AcDbEllipse
10
58.164749
20
38.164749
30
0
11
1.82433549546547
21
-1.82433549545711
31
0
210
0
220
0
230
1
40
0.989133
41
-0.296746001436435
42
0
0
ELLIPSE
5
107
100
AcDbEntity
8
1
62
256
6
ByLayer
370
18
48
1
60
0
100
AcDbEllipse
10
58.164749
20
38.164749
30
0
11
1.82433549546547
21
-1.82433549545711
31
0
210
0
220
0
230
1
40
0.989133
41
0
42
2.37341157926565
0
ELLIPSE
5
108
100
AcDbEntity
8
1
62
256
6
ByLayer
370
18
48
1
60
0
100
AcDbEllipse
10
58.164749
20
38.164749
30
0
11
1.82433549546547
21
-1.82433549545711
31
0
210
0
220
0
230
1
40
0.989133
41
-0.790861342930605
42
-0.534524943127294
0
ELLIPSE
5
109
100
AcDbEntity
8
1
62
256
6
ByLayer
370
18
48
1
60
0
100
AcDbEllipse
10
59.940352
20
29.353574
30
0
11
0.561230652229048
21
-0.561230652226477
31
0
210
0
220
0
230
1
40
0.989133
41
-1.39626340159547
42
-5.28576560576504E-07
0
ELLIPSE
5
10A
100
AcDbEntity
8
1
62
256
6
ByLayer
370
18
48
1
60
0
100
AcDbEllipse
10
57.669891
20
37.669891
30
0
11
-1.82433549546547
21
1.82433549545711
31
0
210
0
220
0
230
1
40
0.989133
41
-3.00411323065732
42
-2.57224229648302
0
ELLIPSE
5
10B
100
AcDbEntity
8
1
62
256
6
ByLayer
370
18
48
1
60
0
100
AcDbEllipse
10
44.409515
20
33.845855
30
0
11
-0.268700576851503
21
0.268700576850273
31
0
210
0
220
0
230
1
40
0.989133
41
-2.82332222516262
42
-2.7713192601939
0
ELLIPSE
5
10C
100
AcDbEntity
8
1
62
256
6
ByLayer
370
18
48
1
60
0
100
AcDbEllipse
10
43.522096
20
34.733274
30
0
11
-0.268700576851503
21
0.268700576850273
31
0
210
0
220
0
230
1
40
0.989133
41
-0.370273393395896
42
-0.318270428427177
0
ELLIPSE
5
10D
100
AcDbEntity
8
1
62
256
6
ByLayer
370
18
48
1
60
0
100
AcDbEllipse
10
45.143905
20
33.518957
30
0
11
0.300520382004971
21
-0.300520382003594
31
0
210
0
220
0
230
1
40
0.989133
41
3.14157958277298
42
-2.77131926019392
0
ELLIPSE
5
10E
100
AcDbEntity
8
1
62
256
6
ByLayer
370
18
48
1
60
0
100
AcDbEllipse
10
43.195198
20
35.467664
30
0
11
0.300520382004971
21
-0.300520382003594
31
0
210
0
220
0
230
1
40
0.989133
41
-0.370273393395892
42
1.30708167964912E-05
0
ELLIPSE
5
10F
100
AcDbEntity
8
1
62
256
6
ByLayer
370
18
48
1
60
0
100
AcDbEllipse
10
45.6134
20
34.162321
30
0
11
-0.268700576851503
21
0.268700576850273
31
0
210
0
220
0
230
1
40
0.989133
41
-2.82332533916038
42
-1.72412170899736
0
ELLIPSE
5
110
100
AcDbEntity
8
1
62
256
6
ByLayer
370
18
48
1
60
0
100
AcDbEllipse
10
43.838562
20
35.937159
30
0
11
-0.268700576851503
21
0.268700576850273
31
0
210
0
220
0
230
1
40
0.989133
41
-1.41747094459251
42
-0.318267314429486
0
ELLIPSE
5
111
100
AcDbEntity
8
1
62
256
6
ByLayer
370
18
48
1
60
0
100
AcDbEllipse
10
46.256765
20
34.631817
30
0
11
0.300520382004971
21
-0.300520382003594
31
0
210
0
220
0
230
1
40
0.989133
41
-3.14158020237118
42
-1.72412170899727
0
ELLIPSE
5
112
100
AcDbEntity
8
1
62
256
6
ByLayer
370
18
48
1
60
0
100
AcDbEllipse
10
44.308058
20
36.580524
30
0
11
0.300520382004971
21
-0.300520382003594
31
0
210
0
220
0
230
1
40
0.989133
41
-1.41747094459251
42
-1.24512186119418E-05
0
ELLIPSE
5
113
100
AcDbEntity
8
1
62
256
6
ByLayer
370
18
48
1
60
0
100
AcDbEllipse
10
44.642812
20
34.966571
30
0
11
2.82842712475267
21
-2.82842712473971
31
0
210
0
220
0
230
1
40
0.989133
41
3.14149839445547
42
-0.790861103274136
0
ELLIPSE
5
114
100
AcDbEntity
8
1
62
256
6
ByLayer
370
18
48
1
60
0
100
AcDbEllipse
10
44.642812
20
34.966571
30
0
11
2.82842712475267
21
-2.82842712473971
31
0
210
0
220
0
230
1
40
0.989133
41
-0.79086135462117
42
0
0
ELLIPSE
5
115
100
AcDbEntity
8
1
62
256
6
ByLayer
370
18
48
1
60
0
100
AcDbEllipse
10
45.929866
20
35.366206
30
0
11
-0.268700576851503
21
0.268700576850273
31
0
210
0
220
0
230
1
40
0.989133
41
-2.82328407900603
42
-0.676924157800739
0
ELLIPSE
5
116
100
AcDbEntity
8
1
62
256
6
ByLayer
370
18
48
1
60
0
100
AcDbEllipse
10
45.042447
20
36.253625
30
0
11
-0.268700576851503
21
0.268700576850273
31
0
210
0
220
0
230
1
40
0.989133
41
-2.4646684957891
42
-0.318308574583803
0
ELLIPSE
5
117
100
AcDbEntity
8
1
62
256
6
ByLayer
370
18
48
1
60
0
100
AcDbEllipse
10
44.725981
20
35.04974
30
0
11
0.813172798366392
21
-0.813172798362667
31
0
210
0
220
0
230
1
40
0.989133
41
-1.27008360288775
42
-0.790861769890209
0
ELLIPSE
5
118
100
AcDbEntity
8
1
62
256
6
ByLayer
370
18
48
1
60
0
100
AcDbEllipse
10
44.725981
20
35.04974
30
0
11
0.813172798366392
21
-0.813172798362667
31
0
210
0
220
0
230
1
40
0.989133
41
-2.54753297383593
42
-1.87159964322448
0
ELLIPSE
5
119
100
AcDbEntity
8
1
62
256
6
ByLayer
370
18
48
1
60
0
100
AcDbEllipse
10
44.725981
20
35.04974
30
0
11
0.813172798366392
21
-0.813172798362667
31
0
210
0
220
0
230
1
40
0.989133
41
-0.18574313232288
42
0
0
ELLIPSE
5
11A
100
AcDbEntity
8
1
62
256
6
ByLayer
370
18
48
1
60
0
100
AcDbEllipse
10
44.725981
20
35.04974
30
0
11
0.813172798366392
21
-0.813172798362667
31
0
210
0
220
0
230
1
40
0.989133
41
0
42
-2.95584241843447
0
ELLIPSE
5
11B
100
AcDbEntity
8
1
62
256
6
ByLayer
370
18
48
1
60
0
100
AcDbEllipse
10
44.725981
20
35.04974
30
0
11
0.813172798366392
21
-0.813172798362667
31
0
210
0
220
0
230
1
40
0.989133
41
-0.790860895639593
42
-0.594050991144521
0
ELLIPSE
5
11C
100
AcDbEntity
8
1
62
256
6
ByLayer
370
18
48
1
60
0
100
AcDbEllipse
10
46.096205
20
35.532545
30
0
11
-0.268700576851503
21
0.268700576850273
31
0
210
0
220
0
230
1
40
0.989133
41
2.77131926019392
42
-0.676924157800739
0
ELLIPSE
5
11D
100
AcDbEntity
8
1
62
256
6
ByLayer
370
18
48
1
60
0
100
AcDbEllipse
10
45.838841
20
36.1626
30
0
11
0.300520382004971
21
-0.300520382003594
31
0
210
0
220
0
230
1
40
0.989133
41
-2.46466849578911
42
-0.676924157800744
0
ELLIPSE
5
11E
100
AcDbEntity
8
1
62
256
6
ByLayer
370
18
48
1
60
0
100
AcDbEllipse
10
44.89232
20
35.216079
30
0
11
-1.62634559673278
21
1.62634559672534
31
0
210
0
220
0
230
1
40
0.989133
41
0
42
6.28318530717959
0
ELLIPSE
5
11F
100
AcDbEntity
8
1
62
256
6
ByLayer
370
18
48
1
60
0
100
AcDbEllipse
10
44.575854
20
34.012194
30
0
11
-0.268700576851503
21
0.268700576850273
31
0
210
0
220
0
230
1
40
0.989133
41
0.676924157800698
42
-2.77131926019392
0
ELLIPSE
5
120
100
AcDbEntity
8
1
62
256
6
ByLayer
370
18
48
1
60
0
100
AcDbEllipse
10
46.00518
20
36.328939
30
0
11
0.300520382004971
21
-0.300520382003594
31
0
210
0
220
0
230
1
40
0.989133
41
-2.46466849578907
42
-0.676924157800721
0
ELLIPSE
5
121
100
AcDbEntity
8
1
62
256
6
ByLayer
370
18
48
1
60
0
100
AcDbEllipse
10
43.688435
20
34.899613
30
0
11
-0.268700576851503
21
0.268700576850273
31
0
210
0
220
0
230
1
40
0.989133
41
-0.370273393395896
42
2.46466849578905
0
ELLIPSE
5
122
100
AcDbEntity
8
1
62
256
6
ByLayer
370
18
48
1
60
0
100
AcDbEllipse
10
43.77946
20
34.103219
30
0
11
0.300520382004971
21
-0.300520382003594
31
0
210
0
220
0
230
1
40
0.989133
41
0.676924157800673
42
2.46466849578907
0
ELLIPSE
5
123
100
AcDbEntity
8
1
62
256
6
ByLayer
370
18
48
1
60
0
100
AcDbEllipse
10
44.004901
20
36.103498
30
0
11
-0.268700576851503
21
0.268700576850273
31
0
210
0
220
0
230
1
40
0.989133
41
-1.41747094459249
42
1.41747094459247
0
ELLIPSE
5
124
100
AcDbEntity
8
1
62
256
6
ByLayer
370
18
48
1
60
0
100
AcDbEllipse
10
43.361536
20
35.634002
30
0
11
0.300520382004971
21
-0.300520382003594
31
0
210
0
220
0
230
1
40
0.989133
41
-0.370273393395908
42
1.41747094459249
0
ELLIPSE
5
125
100
AcDbEntity
8
1
62
256
6
ByLayer
370
18
48
1
60
0
100
AcDbEllipse
10
45.310243
20
33.685295
30
0
11
0.300520382004971
21
-0.300520382003594
31
0
210
0
220
0
230
1
40
0.989133
41
1.72412170899729
42
-2.77131926019391
0
ELLIPSE
5
126
100
AcDbEntity
8
1
62
256
6
ByLayer
370
18
48
1
60
0
100
AcDbEllipse
10
44.816008
20
35.139767
30
0
11
-2.82842712475267
21
2.82842712473971
31
0
210
0
220
0
230
1
40
0.989133
41
0
42
6.28318530717959
0
ELLIPSE
5
127
100
AcDbEntity
8
1
62
256
6
ByLayer
370
18
48
1
60
0
100
AcDbEllipse
10
44.474396
20
36.746862
30
0
11
0.300520382004971
21
-0.300520382003594
31
0
210
0
220
0
230
1
40
0.989133
41
-1.4174709445925
42
0.370273393395908
0
ELLIPSE
5
128
100
AcDbEntity
8
1
62
256
6
ByLayer
370
18
48
1
60
0
100
AcDbEllipse
10
46.423103
20
34.798155
30
0
11
0.300520382004971
21
-0.300520382003594
31
0
210
0
220
0
230
1
40
0.989133
41
2.77131926019389
42
-1.72412170899732
0
ELLIPSE
5
129
100
AcDbEntity
8
1
62
256
6
ByLayer
370
18
48
1
60
0
100
AcDbEllipse
10
45.779739
20
34.32866
30
0
11
-0.268700576851503
21
0.268700576850273
31
0
210
0
220
0
230
1
40
0.989133
41
1.72412170899728
42
-1.72412170899732
0
ELLIPSE
5
12A
100
AcDbEntity
8
1
62
256
6
ByLayer
370
18
48
1
60
0
100
AcDbEllipse
10
45.208786
20
36.419964
30
0
11
-0.268700576851503
21
0.268700576850273
31
0
210
0
220
0
230
1
40
0.989133
41
-2.46466849578912
42
0.370273393395878
0
ELLIPSE
5
12B
100
AcDbEntity
8
1
62
256
6
ByLayer
370
18
48
1
60
0
100
AcDbEllipse
10
19.387577
20
-12.201051
30
0
11
-0.0109679315752524
21
2.87375160579052
31
0
210
0
220
0
230
1
40
0.064123
41
1.35386368179913
42
2.92466000859473
0
ELLIPSE
5
12C
100
AcDbEntity
8
1
62
256
6
ByLayer
370
18
48
1
60
0
100
AcDbEllipse
10
12
20
-18.185217
30
0
11
-1.87686272356697
21
-2.86780973812225
31
0
210
0
220
0
230
1
40
0.240927
41
-0.679241005235342
42
-0.0262290721842159
0
ELLIPSE
5
12D
100
AcDbEntity
8
1
62
256
6
ByLayer
370
18
48
1
60
0
100
AcDbEllipse
10
26.347154
20
0
30
0
11
-14.7536831606553
21
-31.0932549155799
31
0
210
0
220
0
230
1
40
0.341999
41
-1.09123958575286
42
-0.157806186645435
0
ELLIPSE
5
12E
100
AcDbEntity
8
1
62
256
6
ByLayer
370
18
48
1
60
0
100
AcDbEllipse
10
-2.347154
20
0
30
0
11
-14.7536831606537
21
-31.0932549155779
31
0
210
0
220
0
230
1
40
0.341999
41
2.05035306783689
42
2.98378646694435
0
ELLIPSE
5
12F
100
AcDbEntity
8
1
62
256
6
ByLayer
370
18
48
1
60
0
100
AcDbEllipse
10
19.646795
20
-13.079505
30
0
11
-0.0109679315751469
21
2.87375160579163
31
0
210
0
220
0
230
1
40
0.064123
41
2.92466000859464
42
-1.78772897178993
0
ELLIPSE
5
130
100
AcDbEntity
8
1
62
256
6
ByLayer
370
18
48
1
60
0
100
AcDbEllipse
10
12
20
-20.403367
30
0
11
-1.99999999999995
21
2.02127811016468E-15
31
0
210
0
220
0
230
1
40
0.707538
41
-2.3900880320975
42
-0.751504621492278
0
ELLIPSE
5
131
100
AcDbEntity
8
1
62
256
6
ByLayer
370
18
48
1
60
0
100
AcDbEllipse
10
24.494172
20
68.337981
30
0
11
-7.02934607980384E-15
21
-38.2672415935296
31
0
210
0
220
0
230
1
40
0.104528
41
-0.150033790339317
42
-0.104149827605797
0
ELLIPSE
5
132
100
AcDbEntity
8
1
62
256
6
ByLayer
370
18
48
1
60
0
100
AcDbEllipse
10
37.38447
20
23.433549
30
0
11
-5.44024475975605
21
-1.37398424405883
31
0
210
0
220
0
230
1
40
0.710883
41
2.46550916114048
42
-3.12799134007634
0
ELLIPSE
5
133
100
AcDbEntity
8
1
62
256
6
ByLayer
370
18
48
1
60
0
100
AcDbEllipse
10
12
20
-18.185217
30
0
11
-1.87686272356242
21
2.86780973811654
31
0
210
0
220
0
230
1
40
0.240927
41
-3.11536358140556
42
-2.46235164835362
0
ELLIPSE
5
134
100
AcDbEntity
8
1
62
256
6
ByLayer
370
18
48
1
60
0
100
AcDbEllipse
10
20.755893
20
0
30
0
11
1.92875500727024E-15
21
31.5
31
0
210
0
220
0
230
1
40
0.087489
41
0.311401384074101
42
2.83019126951569
0
ELLIPSE
5
135
100
AcDbEntity
8
1
62
256
6
ByLayer
370
18
48
1
60
0
100
AcDbEllipse
10
26.347154
20
0
30
0
11
-14.7536831606555
21
31.0932549155802
31
0
210
0
220
0
230
1
40
0.341999
41
0.157806186645435
42
1.09123958575285
0
ELLIPSE
5
136
100
AcDbEntity
8
1
62
256
6
ByLayer
370
18
48
1
60
0
100
AcDbEllipse
10
-2.347154
20
0
30
0
11
-14.7536831606548
21
31.0932549155792
31
0
210
0
220
0
230
1
40
0.341999
41
-2.98378646694435
42
-2.05035306783692
0
ELLIPSE
5
137
100
AcDbEntity
8
1
62
256
6
ByLayer
370
18
48
1
60
0
100
AcDbEllipse
10
12
20
-20.403367
30
0
11
-2.00000000000004
21
2.02127811016477E-15
31
0
210
0
220
0
230
1
40
0.707538
41
0.751504621492329
42
2.39008803209746
0
ELLIPSE
5
138
100
AcDbEntity
8
1
62
256
6
ByLayer
370
18
48
1
60
0
100
AcDbEllipse
10
60.43521
20
29.848431
30
0
11
-0.561230652229048
21
0.561230652226477
31
0
210
0
220
0
230
1
40
0.989133
41
1.74532925199434
42
-2.79252680319096
0
ELLIPSE
5
139
100
AcDbEntity
8
1
62
256
6
ByLayer
370
18
48
1
60
0
100
AcDbEllipse
10
64.210605
20
44.210605
30
0
11
-0.561230652229048
21
0.561230652226477
31
0
210
0
220
0
230
1
40
0.989133
41
-2.44346095279205
42
-0.698131700797734
0
ELLIPSE
5
13A
100
AcDbEntity
8
1
62
256
6
ByLayer
370
18
48
1
60
0
100
AcDbEllipse
10
58.164749
20
38.164749
30
0
11
-4.49012806054486
21
4.49012806052429
31
0
210
0
220
0
230
1
40
0.989133
41
-2.79252680319096
42
-2.44346095279206
0
ELLIPSE
5
13B
100
AcDbEntity
8
1
62
256
6
ByLayer
370
18
48
1
60
0
100
AcDbEllipse
10
58.164749
20
38.164749
30
0
11
-4.49012806054486
21
4.49012806052429
31
0
210
0
220
0
230
1
40
0.989133
41
-0.698131700797733
42
-0.349065850398872
0
ELLIPSE
5
13C
100
AcDbEntity
8
1
62
256
6
ByLayer
370
18
48
1
60
0
100
AcDbEllipse
10
42.253582
20
30.328712
30
0
11
-2.23637238442932
21
-3.84361102765183
31
0
210
0
220
0
230
1
40
0.542818
41
0.136538800039574
42
0.496154533395128
0
ELLIPSE
5
13D
100
AcDbEntity
8
1
62
256
6
ByLayer
370
18
48
1
60
0
100
AcDbEllipse
10
37.79702
20
37.390297
30
0
11
-0.385804401243363
21
-1.96243597704008
31
0
210
0
220
0
230
1
40
0.808605
41
-2.64426076054186
42
-1.23158526628227
0
ELLIPSE
5
13E
100
AcDbEntity
8
1
62
256
6
ByLayer
370
18
48
1
60
0
100
AcDbEllipse
10
37.466543
20
36.839967
30
0
11
-2.74962123692475
21
1.22304369781888
31
0
210
0
220
0
230
1
40
0.990371
41
-0.371382481434817
42
0.680306581629893
0
ELLIPSE
5
13F
100
AcDbEntity
8
1
62
256
6
ByLayer
370
18
48
1
60
0
100
AcDbEllipse
10
40.485662
20
38.584972
30
0
11
-5.35129867363692
21
-1.28168554776703
31
0
210
0
220
0
230
1
40
0.164046
41
0.542130433520025
42
0.59512273514435
0
ELLIPSE
5
140
100
AcDbEntity
8
1
62
256
6
ByLayer
370
18
48
1
60
0
100
AcDbEllipse
10
36.022296
20
25.157574
30
0
11
6.75285713546019
21
1.8436161498708
31
0
210
0
220
0
230
1
40
0.073512
41
-0.806027490339066
42
-0.791246453599078
0
ELLIPSE
5
141
100
AcDbEntity
8
1
62
256
6
ByLayer
370
18
48
1
60
0
100
AcDbEllipse
10
40.047228
20
38.410215
30
0
11
-3.84252419178746
21
0.804537860761763
31
0
210
0
220
0
230
1
40
0.467421
41
-0.751980271364112
42
-0.39236453800848
0
ELLIPSE
5
142
100
AcDbEntity
8
1
62
256
6
ByLayer
370
18
48
1
60
0
100
AcDbEllipse
10
58.578719
20
38.500937
30
0
11
-0.316650464244539
21
2.33348351425641
31
0
210
0
220
0
230
1
40
0.808181
41
-2.39819383154381
42
-1.54298249806499
0
ELLIPSE
5
143
100
AcDbEntity
8
1
62
256
6
ByLayer
370
18
48
1
60
0
100
AcDbEllipse
10
43.004918
20
29.357359
30
0
11
-5.25645095294547
21
-1.62821717519351
31
0
210
0
220
0
230
1
40
0.310906
41
-0.60049652650178
42
-0.547504225980242
0
ELLIPSE
5
144
100
AcDbEntity
8
1
62
256
6
ByLayer
370
18
48
1
60
0
100
AcDbEllipse
10
43.569821
20
27.630743
30
0
11
-3.31988062663704
21
-1.12417423859438
31
0
210
0
220
0
230
1
40
0.445779
41
-0.616728534675196
42
0.106489571724514
0
ELLIPSE
5
145
100
AcDbEntity
8
1
62
256
6
ByLayer
370
18
48
1
60
0
100
AcDbEllipse
10
58.578719
20
38.500937
30
0
11
-1.71913634001538
21
1.38067622288218
31
0
210
0
220
0
230
1
40
0.788164
41
-2.18024112508752
42
-1.32502979161114
0
ELLIPSE
5
146
100
AcDbEntity
8
1
62
256
6
ByLayer
370
18
48
1
60
0
100
AcDbEllipse
10
42.428208
20
31.469748
30
0
11
5.30581632071872
21
1.44855554632706
31
0
210
0
220
0
230
1
40
0.073512
41
1.98949778340677
42
2.4312655226928
0
ELLIPSE
5
147
100
AcDbEntity
8
1
62
256
6
ByLayer
370
18
48
1
60
0
100
AcDbEllipse
10
40.006802
20
29.296234
30
0
11
1.55136786733261
21
-1.26224313830889
31
0
210
0
220
0
230
1
40
0.761518
41
-2.11406592226321
42
-0.701390428003617
0
ELLIPSE
5
148
100
AcDbEntity
8
1
62
256
6
ByLayer
370
18
48
1
60
0
100
AcDbEllipse
10
41.062371
20
36.472583
30
0
11
5.30581632071872
21
1.44855554632706
31
0
210
0
220
0
230
1
40
0.073512
41
1.98949778340677
42
2.4312655226928
0
ELLIPSE
5
149
100
AcDbEntity
8
1
62
256
6
ByLayer
370
18
48
1
60
0
100
AcDbEllipse
10
39.672896
20
28.758464
30
0
11
-2.74962123691131
21
1.22304369785132
31
0
210
0
220
0
230
1
40
0.990371
41
0.680306581641047
42
1.73199564470585
0
ELLIPSE
5
14A
100
AcDbEntity
8
1
62
256
6
ByLayer
370
18
48
1
60
0
100
AcDbEllipse
10
40.067678
20
40.458508
30
0
11
-3.42469952284039
21
-0.743338903013975
31
0
210
0
220
0
230
1
40
0.299282
41
-0.117444394090335
42
0.605773712307928
0
POINT
5
6C
100
AcDbEntity
8
2
62
256
6
ByLayer
370
18
48
1
60
0
100
AcDbPoint
10
65
20
45
30
0
39
0
210
0
220
0
230
1
50
360
0
POINT
5
6E
100
AcDbEntity
8
80
62
256
6
ByLayer
370
18
48
1
60
0
100
AcDbPoint
10
0
20
0
30
0
39
0
210
0
220
0
230
1
50
360
0
POINT
5
70
100
AcDbEntity
8
81
62
256
6
ByLayer
370
18
48
1
60
0
100
AcDbPoint
10
65
20
45
30
0
39
0
210
0
220
0
230
1
50
360
0
SPLINE
5
14B
100
AcDbEntity
8
SK1
62
256
6
ByLayer
370
18
48
1
60
0
100
AcDbSpline
70
4
71
3
72
13
73
9
40
0
40
0
40
0
40
0
40
0.239456135763718
40
0.368359721933656
40
0.499998984021097
40
0.63163841528373
40
0.760542467778167
40
1
40
1
40
1
40
1
41
1
10
-2.19999999999999
20
-22.0200986606755
30
0
41
1
10
-2.19909198642273
20
-21.9940411845603
30
0
41
1
10
-2.19103284106941
20
-21.9566686002238
30
0
41
1
10
-2.16563592203337
20
-21.9104494263858
30
0
41
1
10
-2.1388637867926
20
-21.8791678725253
30
0
41
1
10
-2.10627712749869
20
-21.8540005023229
30
0
41
1
10
-2.05884064234078
20
-21.8309566998545
30
0
41
1
10
-2.02111030873027
20
-21.8247844448324
30
0
41
1
10
-1.99503997793928
20
-21.825186084775
30
0
0
SPLINE
5
14C
100
AcDbEntity
8
SK1
62
256
6
ByLayer
370
18
48
1
60
0
100
AcDbSpline
70
4
71
3
72
13
73
9
40
0
40
0
40
0
40
0
40
0.239457532152995
40
0.368361584623188
40
0.500001015876169
40
0.631640277971204
40
0.760543864164266
40
1
40
1
40
1
40
1
41
1
10
-1.99503997793928
20
21.8251861015554
30
0
41
1
10
-2.02111030873166
20
21.8247844616134
30
0
41
1
10
-2.05884064234343
20
21.8309567166392
30
0
41
1
10
-2.10627712750076
20
21.854000519123
30
0
41
1
10
-2.13886378679456
20
21.8791678893421
30
0
41
1
10
-2.16563592203485
20
21.9104494432231
30
0
41
1
10
-2.19103284107055
20
21.9566686170919
30
0
41
1
10
-2.19909198642387
20
21.9940412014509
30
0
41
1
10
-2.19999999999999
20
22.0200986775813
30
0
0
SPLINE
5
14D
100
AcDbEntity
8
SK1
62
256
6
ByLayer
370
18
48
1
60
0
100
AcDbSpline
70
4
71
2
72
6
73
3
40
0
40
0
40
0
40
1
40
1
40
1
41
1
10
-36.5
20
-21.1521177089669
30
0
41
1
10
-19.3499999999701
20
-21.5828554470541
30
0
41
1
10
-2.19999999999999
20
-22.0135928951589
30
0
0
SPLINE
5
14E
100
AcDbEntity
8
SK1
62
256
6
ByLayer
370
18
48
1
60
0
100
AcDbSpline
70
4
71
2
72
6
73
3
40
0
40
0
40
0
40
1
40
1
40
1
41
1
10
-2.19999999999999
20
22.0135927638551
30
0
41
1
10
-19.3499999999869
20
21.5828539542124
30
0
41
1
10
-36.5
20
21.1521149580209
30
0
0
SPLINE
5
14F
100
AcDbEntity
8
SK1
62
256
6
ByLayer
370
18
48
1
60
0
100
AcDbSpline
70
4
71
2
72
6
73
3
40
0
40
0
40
0
40
1
40
1
40
1
41
1
10
-1.99503997793928
20
-21.8251812553753
30
0
41
1
10
-1.19500843340728
20
-21.8452807024746
30
0
41
1
10
-0.394976888875277
20
-21.8653801495793
30
0
0
SPLINE
5
150
100
AcDbEntity
8
SK1
62
256
6
ByLayer
370
18
48
1
60
0
100
AcDbSpline
70
4
71
2
72
6
73
3
40
0
40
0
40
0
40
1
40
1
40
1
41
1
10
-0.394976888875277
20
21.8653802062992
30
0
41
1
10
-1.19500843340728
20
21.8452807593862
30
0
41
1
10
-1.99503997793928
20
21.8251813124779
30
0
0
SPLINE
5
151
100
AcDbEntity
8
SK1
62
256
6
ByLayer
370
18
48
1
60
0
100
AcDbSpline
70
4
71
2
72
6
73
3
40
0
40
0
40
0
40
1
40
1
40
1
41
1
10
-38
20
-20.289405225553
30
0
41
1
10
-37.2500000000012
20
-20.7223540793632
30
0
41
1
10
-36.5
20
-21.1553029418638
30
0
0
SPLINE
5
152
100
AcDbEntity
8
SK1
62
256
6
ByLayer
370
18
48
1
60
0
100
AcDbSpline
70
4
71
2
72
6
73
3
40
0
40
0
40
0
40
1
40
1
40
1
41
1
10
-36.5
20
21.155302724897
30
0
41
1
10
-37.2500000000012
20
20.7223538609616
30
0
41
1
10
-38
20
20.2894050057151
30
0
0
SPLINE
5
153
100
AcDbEntity
8
SK1
62
256
6
ByLayer
370
18
48
1
60
0
100
AcDbSpline
70
4
71
2
72
6
73
3
40
0
40
0
40
0
40
1
40
1
40
1
41
1
10
-0.394976888875277
20
-21.8653849865467
30
0
41
1
10
-0.265172990617003
20
-21.8689012906761
30
0
41
1
10
-0.240502439654279
20
-21.9465691723769
30
0
0
SPLINE
5
154
100
AcDbEntity
8
SK1
62
256
6
ByLayer
370
18
48
1
60
0
100
AcDbSpline
70
4
71
2
72
6
73
3
40
0
40
0
40
0
40
1
40
1
40
1
41
1
10
-0.239684768755779
20
21.9481214799355
30
0
41
1
10
-0.264174311740362
20
21.8692639605625
30
0
41
1
10
-0.394976888875277
20
21.865385003355
30
0
0
SPLINE
5
155
100
AcDbEntity
8
1
62
256
6
ByLayer
370
18
48
1
60
0
100
AcDbSpline
70
4
71
3
72
12
73
8
40
0
40
0
40
0
40
0
40
0.0597895013886796
40
0.0597895013886796
40
0.692601015359439
40
0.692601015359439
40
1
40
1
40
1
40
1
41
1
10
11.0683010147907
20
-20.2400781262331
30
0
41
1
10
11.0522177824992
20
-20.2436791261053
30
0
41
1
10
11.0360856069582
20
-20.2468225069225
30
0
41
1
10
10.8486178070756
20
-20.2777193313782
30
0
41
1
10
10.6697264475294
20
-20.231805058711
30
0
41
1
10
10.4853775637762
20
-19.9837900967342
30
0
41
1
10
10.4410418828626
20
-19.8796126526288
30
0
41
1
10
10.4099894036121
20
-19.7640925414105
30
0
0
SPLINE
5
156
100
AcDbEntity
8
1
62
256
6
ByLayer
370
18
48
1
60
0
100
AcDbSpline
70
4
71
3
72
14
73
10
40
0
40
0
40
0
40
0
40
0.0619846260013376
40
0.0619846260013376
40
0.374656417334225
40
0.374656417334225
40
0.687328208667113
40
0.687328208667113
40
1
40
1
40
1
40
1
41
1
10
12.652389736325
20
-16.4670529592377
30
0
41
1
10
12.7497896063596
20
-16.4984027651023
30
0
41
1
10
12.8429413349465
20
-16.5373659352293
30
0
41
1
10
13.3633535125506
20
-16.8091059341192
30
0
41
1
10
13.6415092555
20
-17.1590916718993
30
0
41
1
10
13.6580777075425
20
-17.8225838189852
30
0
41
1
10
13.363186154729
20
-18.1606911932493
30
0
41
1
10
12.641052879413
20
-18.9386801419717
30
0
41
1
10
12.3178914425739
20
-19.3089192369353
30
0
41
1
10
12
20
-19.6160609570795
30
0
0
SPLINE
5
157
100
AcDbEntity
8
SK1
62
256
6
ByLayer
370
18
48
1
60
0
100
AcDbSpline
70
4
71
3
72
299
73
295
40
0
40
0
40
0
40
0
40
0.0032948413348738
40
0.0068175683438861
40
0.0103402953528985
40
0.0138630223619108
40
0.0173857493709231
40
0.0209084763799354
40
0.0244312033889477
40
0.02795393039796
40
0.0349993844159847
40
0.0420448384340093
40
0.0490902924520339
40
0.0526130194610463
40
0.0561357464700586
40
0.0596584734790709
40
0.0631812004880832
40
0.0702266545061078
40
0.0737493815151201
40
0.0772721085241325
40
0.0807948355331448
40
0.0843175625421571
40
0.0878402895511694
40
0.0913630165601817
40
0.0984084705782064
40
0.101931197587219
40
0.105453924596231
40
0.108976651605243
40
0.112499378614256
40
0.116022105623268
40
0.11954483263228
40
0.123067559641293
40
0.126590286650305
40
0.130113013659317
40
0.13363574066833
40
0.137158467677342
40
0.140681194686354
40
0.144203921695366
40
0.147726648704379
40
0.154772102722403
40
0.158294829731416
40
0.161817556740428
40
0.163578920244934
40
0.16534028374944
40
0.168863010758453
40
0.175908464776477
40
0.17943119178549
40
0.182953918794502
40
0.186476645803514
40
0.189999372812527
40
0.197044826830551
40
0.200567553839564
40
0.204090280848576
40
0.205851644353082
40
0.207613007857588
40
0.211135734866601
40
0.218181188884625
40
0.221703915893637
40
0.22522664290265
40
0.228749369911662
40
0.232272096920674
40
0.239317550938699
40
0.242840277947711
40
0.246363004956724
40
0.24812436846123
40
0.249885731965736
40
0.253408458974748
40
0.256931185983761
40
0.260453912992773
40
0.262215276497279
40
0.263976640001785
40
0.267499367010798
40
0.27102209401981
40
0.274544821028822
40
0.278067548037835
40
0.281590275046847
40
0.285113002055859
40
0.288635729064872
40
0.292158456073884
40
0.295681183082896
40
0.299203910091908
40
0.302726637100921
40
0.306249364109933
40
0.309772091118945
40
0.313294818127958
40
0.31681754513697
40
0.323862999154995
40
0.327385726164007
40
0.330908453173019
40
0.334431180182032
40
0.337953907191044
40
0.341476634200056
40
0.344999361209068
40
0.348522088218081
40
0.352044815227093
40
0.359090269245118
40
0.366135723263142
40
0.373181177281167
40
0.376703904290179
40
0.380226631299192
40
0.383749358308204
40
0.387272085317216
40
0.390794812326229
40
0.394317539335241
40
0.397840266344253
40
0.401362993353266
40
0.404885720362278
40
0.40840844737129
40
0.411931174380303
40
0.415453901389315
40
0.418976628398327
40
0.42249935540734
40
0.426022082416352
40
0.429544809425364
40
0.433067536434377
40
0.434828899938883
40
0.436590263443389
40
0.438351626947895
40
0.440112990452401
40
0.443635717461413
40
0.447158444470426
40
0.448919807974932
40
0.450681171479438
40
0.452442534983944
40
0.45420389848845
40
0.457726625497463
40
0.459487989001969
40
0.461249352506475
40
0.463010716010981
40
0.464772079515487
40
0.466533443019994
40
0.4682948065245
40
0.470056170029006
40
0.471817533533512
40
0.473578897038018
40
0.475340260542524
40
0.47710162404703
40
0.478862987551537
40
0.480624351056043
40
0.482385714560549
40
0.484147078065055
40
0.485908441569561
40
0.487669805074067
40
0.489431168578573
40
0.49119253208308
40
0.492953895587586
40
0.494715259092092
40
0.496476622596598
40
0.498237986101104
40
0.49999934960561
40
0.501760713110117
40
0.503522076614623
40
0.505283440119129
40
0.507044803623635
40
0.508806167128141
40
0.510567530632647
40
0.512328894137154
40
0.51409025764166
40
0.515851621146166
40
0.517612984650672
40
0.519374348155178
40
0.521135711659684
40
0.52289707516419
40
0.524658438668697
40
0.526419802173203
40
0.528181165677709
40
0.529942529182215
40
0.531703892686721
40
0.533465256191227
40
0.535226619695734
40
0.53698798320024
40
0.538749346704746
40
0.540510710209252
40
0.542272073713758
40
0.545794800722771
40
0.547556164227277
40
0.549317527731783
40
0.551078891236289
40
0.552840254740795
40
0.556362981749808
40
0.55988570875882
40
0.561647072263326
40
0.563408435767832
40
0.565169799272338
40
0.566931162776845
40
0.570453889785857
40
0.573976616794869
40
0.577499343803881
40
0.581022070812894
40
0.584544797821906
40
0.588067524830918
40
0.591590251839931
40
0.595112978848943
40
0.598635705857955
40
0.602158432866968
40
0.60568115987598
40
0.609203886884992
40
0.612726613894005
40
0.616249340903017
40
0.619772067912029
40
0.623294794921042
40
0.626817521930054
40
0.633862975948079
40
0.640908429966103
40
0.647953883984128
40
0.65147661099314
40
0.654999338002152
40
0.658522065011165
40
0.662044792020177
40
0.665567519029189
40
0.669090246038202
40
0.672612973047214
40
0.676135700056226
40
0.683181154074251
40
0.686703881083263
40
0.690226608092276
40
0.693749335101288
40
0.6972720621103
40
0.700794789119313
40
0.704317516128325
40
0.707840243137337
40
0.71136297014635
40
0.714885697155362
40
0.718408424164374
40
0.721931151173386
40
0.725453878182399
40
0.732499332200423
40
0.736022059209436
40
0.739544786218448
40
0.746590240236473
40
0.750112967245485
40
0.753635694254497
40
0.75715842126351
40
0.760681148272522
40
0.767726602290546
40
0.771249329299559
40
0.774772056308571
40
0.778294783317583
40
0.781817510326596
40
0.788862964344621
40
0.792385691353633
40
0.795908418362645
40
0.799431145371657
40
0.80295387238067
40
0.809999326398694
40
0.813522053407707
40
0.817044780416719
40
0.820567507425731
40
0.824090234434744
40
0.831135688452768
40
0.834658415461781
40
0.838181142470793
40
0.841703869479805
40
0.845226596488817
40
0.852272050506842
40
0.855794777515854
40
0.859317504524867
40
0.862840231533879
40
0.866362958542891
40
0.869885685551904
40
0.873408412560916
40
0.876931139569928
40
0.880453866578941
40
0.883976593587953
40
0.887499320596965
40
0.891022047605978
40
0.89454477461499
40
0.898067501624002
40
0.901590228633015
40
0.908635682651039
40
0.912158409660051
40
0.915681136669064
40
0.919203863678076
40
0.922726590687088
40
0.926249317696101
40
0.929772044705113
40
0.936817498723138
40
0.94034022573215
40
0.943862952741163
40
0.947385679750175
40
0.950908406759187
40
0.957953860777212
40
0.961476587786224
40
0.964999314795236
40
0.968522041804249
40
0.972044768813261
40
0.975567495822273
40
0.979090222831286
40
0.982612949840298
40
0.98613567684931
40
0.989658403858322
40
0.993181130867335
40
0.996703857876347
40
1
40
1
40
1
40
1
41
1
10
-1.99503997793928
20
21.8251672812827
30
0
41
1
10
-1.99503997793928
20
21.8252770150707
30
0
41
1
10
-1.99503997793928
20
21.8245105074886
30
0
41
1
10
-1.99503997793928
20
21.8202836860757
30
0
41
1
10
-1.99503997793928
20
21.812783044142
30
0
41
1
10
-1.99503997793928
20
21.8021565364934
30
0
41
1
10
-1.99503997793928
20
21.7884557330328
30
0
41
1
10
-1.99503997793928
20
21.7717308612526
30
0
41
1
10
-1.99503997793928
20
21.7520291985819
30
0
41
1
10
-1.99503997793928
20
21.7218385059106
30
0
41
1
10
-1.99503997793928
20
21.6769140218914
30
0
41
1
10
-1.99503997793928
20
21.6117670092986
30
0
41
1
10
-1.99503997793928
20
21.5484022523455
30
0
41
1
10
-1.99503997793928
20
21.4923512863894
30
0
41
1
10
-1.99503997793928
20
21.4477036012609
30
0
41
1
10
-1.99503997793928
20
21.4004602751572
30
0
41
1
10
-1.99503997793928
20
21.3340243579833
30
0
41
1
10
-1.99503997793928
20
21.2626002065085
30
0
41
1
10
-1.99503997793928
20
21.1861355372814
30
0
41
1
10
-1.99503997793928
20
21.126355615456
30
0
41
1
10
-1.99503997793928
20
21.0641493981766
30
0
41
1
10
-1.99503997793928
20
20.9995415089612
30
0
41
1
10
-1.99503997793928
20
20.9325549476398
30
0
41
1
10
-1.99503997793928
20
20.8400664063016
30
0
41
1
10
-1.99503997793928
20
20.7430171949632
30
0
41
1
10
-1.99503997793928
20
20.6412830606924
30
0
41
1
10
-1.99503997793928
20
20.5627395849404
30
0
41
1
10
-1.99503997793928
20
20.4819464711493
30
0
41
1
10
-1.99503997793928
20
20.3989234016943
30
0
41
1
10
-1.99503997793928
20
20.3136873945745
30
0
41
1
10
-1.99503997793928
20
20.2262576082901
30
0
41
1
10
-1.99503997793928
20
20.136651569995
30
0
41
1
10
-1.99503997793928
20
20.0448848271876
30
0
41
1
10
-1.99503997793928
20
19.9509751576252
30
0
41
1
10
-1.99503997793928
20
19.8549383078336
30
0
41
1
10
-1.99503997793928
20
19.7567886026657
30
0
41
1
10
-1.99503997793928
20
19.6565424313982
30
0
41
1
10
-1.99503997793928
20
19.5542139601407
30
0
41
1
10
-1.99503997793928
20
19.4149698127943
30
0
41
1
10
-1.99503997793928
20
19.2717622924356
30
0
41
1
10
-1.99503997793928
20
19.1243520606764
30
0
41
1
10
-1.99503997793928
20
19.0305969699326
30
0
41
1
10
-1.99503997793928
20
18.9545457436666
30
0
41
1
10
-1.99503997793928
20
18.877828345234
30
0
41
1
10
-1.99503997793928
20
18.7418485706132
30
0
41
1
10
-1.99503997793928
20
18.5826225030747
30
0
41
1
10
-1.99503997793928
20
18.4193199892891
30
0
41
1
10
-1.99503997793928
20
18.2949375082747
30
0
41
1
10
-1.99503997793928
20
18.1686188381619
30
0
41
1
10
-1.99503997793928
20
17.9975681157064
30
0
41
1
10
-1.99503997793928
20
17.8228588844704
30
0
41
1
10
-1.99503997793928
20
17.6441795672679
30
0
41
1
10
-1.99503997793928
20
17.5309981410348
30
0
41
1
10
-1.99503997793928
20
17.4394590341184
30
0
41
1
10
-1.99503997793928
20
17.3472945498449
30
0
41
1
10
-1.99503997793928
20
17.1843913435575
30
0
41
1
10
-1.99503997793928
20
16.9946548235122
30
0
41
1
10
-1.99503997793928
20
16.8010333841432
30
0
41
1
10
-1.99503997793928
20
16.654027023888
30
0
41
1
10
-1.99503997793928
20
16.5051894370887
30
0
41
1
10
-1.99503997793928
20
16.3042392155796
30
0
41
1
10
-1.99503997793928
20
16.0998599858609
30
0
41
1
10
-1.99503997793928
20
15.8916662065006
30
0
41
1
10
-1.99503997793928
20
15.7601264684356
30
0
41
1
10
-1.99503997793928
20
15.6539352235828
30
0
41
1
10
-1.99503997793928
20
15.5471478788444
30
0
41
1
10
-1.99503997793928
20
15.4126292313156
30
0
41
1
10
-1.99503997793928
20
15.2493853238091
30
0
41
1
10
-1.99503997793928
20
15.1119089381336
30
0
41
1
10
-1.99503997793928
20
15.0009760777421
30
0
41
1
10
-1.99503997793928
20
14.8894548819647
30
0
41
1
10
-1.99503997793928
20
14.7490386600655
30
0
41
1
10
-1.99503997793928
20
14.578735707937
30
0
41
1
10
-1.99503997793928
20
14.4066808882548
30
0
41
1
10
-1.99503997793928
20
14.2328806917249
30
0
41
1
10
-1.99503997793928
20
14.0573388809364
30
0
41
1
10
-1.99503997793928
20
13.8800596938692
30
0
41
1
10
-1.99503997793928
20
13.7010488098078
30
0
41
1
10
-1.99503997793928
20
13.5203096364964
30
0
41
1
10
-1.99503997793928
20
13.3378467409434
30
0
41
1
10
-1.99503997793928
20
13.1536651576331
30
0
41
1
10
-1.99503997793928
20
12.967767664355
30
0
41
1
10
-1.99503997793928
20
12.7801589185361
30
0
41
1
10
-1.99503997793928
20
12.5908431445087
30
0
41
1
10
-1.99503997793928
20
12.3998230002593
30
0
41
1
10
-1.99503997793928
20
12.1427688173785
30
0
41
1
10
-1.99503997793928
20
11.8826118718573
30
0
41
1
10
-1.99503997793928
20
11.6187779306707
30
0
41
1
10
-1.99503997793928
20
11.4192921752591
30
0
41
1
10
-1.99503997793928
20
11.2181233733031
30
0
41
1
10
-1.99503997793928
20
11.0152750188843
30
0
41
1
10
-1.99503997793928
20
10.8107494713072
30
0
41
1
10
-1.99503997793928
20
10.6045508021232
30
0
41
1
10
-1.99503997793928
20
10.3966814407573
30
0
41
1
10
-1.99503997793928
20
10.1171870033238
30
0
41
1
10
-1.99503997793928
20
9.76392166117952
30
0
41
1
10
-1.99503997793928
20
9.33322608836653
30
0
41
1
10
-1.99503997793928
20
8.96893242084855
30
0
41
1
10
-1.99503997793928
20
8.67397578579323
30
0
41
1
10
-1.99503997793928
20
8.45121977200662
30
0
41
1
10
-1.99503997793928
20
8.22682776167494
30
0
41
1
10
-1.99503997793928
20
8.00080467620245
30
0
41
1
10
-1.99503997793928
20
7.77315513008728
30
0
41
1
10
-1.99503997793928
20
7.54388372935193
30
0
41
1
10
-1.99503997793928
20
7.31299637479285
30
0
41
1
10
-1.99503997793928
20
7.08049945458953
30
0
41
1
10
-1.99503997793928
20
6.8463997482805
30
0
41
1
10
-1.99503997793928
20
6.61070495432838
30
0
41
1
10
-1.99503997793928
20
6.37342319970753
30
0
41
1
10
-1.99503997793928
20
6.13456384015993
30
0
41
1
10
-1.99503997793928
20
5.89413749968628
30
0
41
1
10
-1.99503997793928
20
5.65215638001948
30
0
41
1
10
-1.99503997793928
20
5.4086336510897
30
0
41
1
10
-1.99503997793928
20
5.16358499073451
30
0
41
1
10
-1.99503997793928
20
4.95821799704331
30
0
41
1
10
-1.99503997793928
20
4.79299516838267
30
0
41
1
10
-1.99503997793928
20
4.66878842905288
30
0
41
1
10
-1.99503997793928
20
4.5442150281373
30
0
41
1
10
-1.99503997793928
20
4.37752561794156
30
0
41
1
10
-1.99503997793928
20
4.16851547631595
30
0
41
1
10
-1.99503997793928
20
3.95832363498766
30
0
41
1
10
-1.99503997793928
20
3.78926935835412
30
0
41
1
10
-1.99503997793928
20
3.66223142121836
30
0
41
1
10
-1.99503997793928
20
3.53485872774326
30
0
41
1
10
-1.99503997793928
20
3.36446603264318
30
0
41
1
10
-1.99503997793928
20
3.19381064862623
30
0
41
1
10
-1.99503997793928
20
3.02213557666008
30
0
41
1
10
-1.99503997793928
20
2.8931784837302
30
0
41
1
10
-1.99503997793928
20
2.76392442628162
30
0
41
1
10
-1.99503997793928
20
2.63438251344519
30
0
41
1
10
-1.99503997793928
20
2.50455988721876
30
0
41
1
10
-1.99503997793928
20
2.37446636334928
30
0
41
1
10
-1.99503997793928
20
2.24411116870439
30
0
41
1
10
-1.99503997793928
20
2.11350398186613
30
0
41
1
10
-1.99503997793928
20
1.98265625862297
30
0
41
1
10
-1.99503997793928
20
1.85157817347522
30
0
41
1
10
-1.99503997793928
20
1.72028262405345
30
0
41
1
10
-1.99503997793928
20
1.58878098022359
30
0
41
1
10
-1.99503997793928
20
1.45708718468359
30
0
41
1
10
-1.99503997793928
20
1.32521409071333
30
0
41
1
10
-1.99503997793928
20
1.19317647053177
30
0
41
1
10
-1.99503997793928
20
1.06098852682439
30
0
41
1
10
-1.99503997793928
20
0.928665923975672
30
0
41
1
10
-1.99503997793928
20
0.796224037396229
30
0
41
1
10
-1.99503997793928
20
0.663679321648374
30
0
41
1
10
-1.99503997793928
20
0.531048033506266
30
0
41
1
10
-1.99503997793928
20
0.398347293868937
30
0
41
1
10
-1.99503997793928
20
0.265594055935196
30
0
41
1
10
-1.99503997793928
20
0.132805828560237
30
0
41
1
10
-1.99503997793928
20
-2.0604887E-09
30
0
41
1
10
-1.99503997793928
20
-0.132805835966792
30
0
41
1
10
-1.99503997793928
20
-0.265594069601519
30
0
41
1
10
-1.99503997793928
20
-0.398347307093388
30
0
41
1
10
-1.99503997793928
20
-0.531048037421954
30
0
41
1
10
-1.99503997793928
20
-0.663679323049081
30
0
41
1
10
-1.99503997793928
20
-0.796224050825089
30
0
41
1
10
-1.99503997793928
20
-0.92866594303203
30
0
41
1
10
-1.99503997793928
20
-1.06098853158755
30
0
41
1
10
-1.99503997793928
20
-1.1931764657121
30
0
41
1
10
-1.99503997793928
20
-1.32521410103647
30
0
41
1
10
-1.99503997793928
20
-1.45708720896539
30
0
41
1
10
-1.99503997793928
20
-1.58878099035152
30
0
41
1
10
-1.99503997793928
20
-1.72028261530932
30
0
41
1
10
-1.99503997793928
20
-1.85157817419835
30
0
41
1
10
-1.99503997793928
20
-1.98265628188182
30
0
41
1
10
-1.99503997793928
20
-2.11350400419804
30
0
41
1
10
-1.99503997793928
20
-2.24411116714702
30
0
41
1
10
-1.99503997793928
20
-2.37446635053539
30
0
41
1
10
-1.99503997793928
20
-2.50455989433328
30
0
41
1
10
-1.99503997793928
20
-2.63438254221708
30
0
41
1
10
-1.99503997793928
20
-2.76392444618182
30
0
41
1
10
-1.99503997793928
20
-2.89317847799558
30
0
41
1
10
-1.99503997793928
20
-3.02213556164864
30
0
41
1
10
-1.99503997793928
20
-3.19381066067948
30
0
41
1
10
-1.99503997793928
20
-3.36446606295527
30
0
41
1
10
-1.99503997793928
20
-3.53485872835634
30
0
41
1
10
-1.99503997793928
20
-3.66223140396673
30
0
41
1
10
-1.99503997793928
20
-3.78926935085312
30
0
41
1
10
-1.99503997793928
20
-3.95832365779984
30
0
41
1
10
-1.99503997793928
20
-4.16851549788919
30
0
41
1
10
-1.99503997793928
20
-4.37752560184694
30
0
41
1
10
-1.99503997793928
20
-4.54421502107886
30
0
41
1
10
-1.99503997793928
20
-4.66878844332788
30
0
41
1
10
-1.99503997793928
20
-4.79299519854527
30
0
41
1
10
-1.99503997793928
20
-4.95821801342223
30
0
41
1
10
-1.99503997793928
20
-5.16358497720142
30
0
41
1
10
-1.99503997793928
20
-5.40863364784667
30
0
41
1
10
-1.99503997793928
20
-5.65215640891225
30
0
41
1
10
-1.99503997793928
20
-5.89413750153935
30
0
41
1
10
-1.99503997793928
20
-6.13456381441384
30
0
41
1
10
-1.99503997793928
20
-6.37342317953835
30
0
41
1
10
-1.99503997793928
20
-6.61070492919379
30
0
41
1
10
-1.99503997793928
20
-6.84639976314463
30
0
41
1
10
-1.99503997793928
20
-7.08049963775395
30
0
41
1
10
-1.99503997793928
20
-7.31299670603016
30
0
41
1
10
-1.99503997793928
20
-7.54388383469134
30
0
41
1
10
-1.99503997793928
20
-7.77315487290267
30
0
41
1
10
-1.99503997793928
20
-8.00080468509063
30
0
41
1
10
-1.99503997793928
20
-8.22682785520686
30
0
41
1
10
-1.99503997793928
20
-8.4512197921853
30
0
41
1
10
-1.99503997793928
20
-8.67397577159846
30
0
41
1
10
-1.99503997793928
20
-8.96893239301764
30
0
41
1
10
-1.99503997793928
20
-9.33322609823665
30
0
41
1
10
-1.99503997793928
20
-9.76392165975841
30
0
41
1
10
-1.99503997793928
20
-10.1171869828061
30
0
41
1
10
-1.99503997793928
20
-10.3966814549587
30
0
41
1
10
-1.99503997793928
20
-10.6045508126063
30
0
41
1
10
-1.99503997793928
20
-10.8107494592904
30
0
41
1
10
-1.99503997793928
20
-11.0152749978462
30
0
41
1
10
-1.99503997793928
20
-11.2181233670389
30
0
41
1
10
-1.99503997793928
20
-11.4192921870092
30
0
41
1
10
-1.99503997793928
20
-11.6187779427602
30
0
41
1
10
-1.99503997793928
20
-11.8826118620781
30
0
41
1
10
-1.99503997793928
20
-12.1427687977971
30
0
41
1
10
-1.99503997793928
20
-12.3998230071702
30
0
41
1
10
-1.99503997793928
20
-12.5908431584255
30
0
41
1
10
-1.99503997793928
20
-12.7801589212449
30
0
41
1
10
-1.99503997793928
20
-12.9677676529033
30
0
41
1
10
-1.99503997793928
20
-13.1536651432542
30
0
41
1
10
-1.99503997793928
20
-13.3378467396349
30
0
41
1
10
-1.99503997793928
20
-13.520309646993
30
0
41
1
10
-1.99503997793928
20
-13.7010488212408
30
0
41
1
10
-1.99503997793928
20
-13.8800597145162
30
0
41
1
10
-1.99503997793928
20
-14.0573389921213
30
0
41
1
10
-1.99503997793928
20
-14.2328810143213
30
0
41
1
10
-1.99503997793928
20
-14.4646959102749
30
0
41
1
10
-1.99503997793928
20
-14.6927797943809
30
0
41
1
10
-1.99503997793928
20
-14.9175842595472
30
0
41
1
10
-1.99503997793928
20
-15.1400402265273
30
0
41
1
10
-1.99503997793928
20
-15.3587351142266
30
0
41
1
10
-1.99503997793928
20
-15.574095422854
30
0
41
1
10
-1.99503997793928
20
-15.733775855726
30
0
41
1
10
-1.99503997793928
20
-15.8916657661057
30
0
41
1
10
-1.99503997793928
20
-16.0998603532658
30
0
41
1
10
-1.99503997793928
20
-16.3042398246232
30
0
41
1
10
-1.99503997793928
20
-16.5051894037979
30
0
41
1
10
-1.99503997793928
20
-16.6540265683948
30
0
41
1
10
-1.99503997793928
20
-16.8010329188422
30
0
41
1
10
-1.99503997793928
20
-16.9946550481209
30
0
41
1
10
-1.99503997793928
20
-17.1843924611907
30
0
41
1
10
-1.99503997793928
20
-17.3705928023913
30
0
41
1
10
-1.99503997793928
20
-17.5083251903719
30
0
41
1
10
-1.99503997793928
20
-17.6441786252734
30
0
41
1
10
-1.99503997793928
20
-17.8228590748674
30
0
41
1
10
-1.99503997793928
20
-17.9975683374733
30
0
41
1
10
-1.99503997793928
20
-18.1686188521771
30
0
41
1
10
-1.99503997793928
20
-18.2949373683468
30
0
41
1
10
-1.99503997793928
20
-18.4193198181252
30
0
41
1
10
-1.99503997793928
20
-18.5826226298873
30
0
41
1
10
-1.99503997793928
20
-18.7418497326446
30
0
41
1
10
-1.99503997793928
20
-18.8972761707097
30
0
41
1
10
-1.99503997793928
20
-19.0118150097952
30
0
41
1
10
-1.99503997793928
20
-19.1243510467918
30
0
41
1
10
-1.99503997793928
20
-19.2717625055688
30
0
41
1
10
-1.99503997793928
20
-19.414970513124
30
0
41
1
10
-1.99503997793928
20
-19.5542140249085
30
0
41
1
10
-1.99503997793928
20
-19.6565420567613
30
0
41
1
10
-1.99503997793928
20
-19.7567881415466
30
0
41
1
10
-1.99503997793928
20
-19.8549381550126
30
0
41
1
10
-1.99503997793928
20
-19.9509751416388
30
0
41
1
10
-1.99503997793928
20
-20.0448848362119
30
0
41
1
10
-1.99503997793928
20
-20.1366515718167
30
0
41
1
10
-1.99503997793928
20
-20.2262576202058
30
0
41
1
10
-1.99503997793928
20
-20.3136874196731
30
0
41
1
10
-1.99503997793928
20
-20.398923430088
30
0
41
1
10
-1.99503997793928
20
-20.4819464863244
30
0
41
1
10
-1.99503997793928
20
-20.5627395868944
30
0
41
1
10
-1.99503997793928
20
-20.6412830627252
30
0
41
1
10
-1.99503997793928
20
-20.7430172190698
30
0
41
1
10
-1.99503997793928
20
-20.8400664428987
30
0
41
1
10
-1.99503997793928
20
-20.9325549572362
30
0
41
1
10
-1.99503997793928
20
-20.9995415068112
30
0
41
1
10
-1.99503997793928
20
-21.064149408511
30
0
41
1
10
-1.99503997793928
20
-21.1263556466612
30
0
41
1
10
-1.99503997793928
20
-21.1861355753666
30
0
41
1
10
-1.99503997793928
20
-21.262600218376
30
0
41
1
10
-1.99503997793928
20
-21.3340243512753
30
0
41
1
10
-1.99503997793928
20
-21.4004603045828
30
0
41
1
10
-1.99503997793928
20
-21.4477036445725
30
0
41
1
10
-1.99503997793928
20
-21.4923513092323
30
0
41
1
10
-1.99503997793928
20
-21.5484022410126
30
0
41
1
10
-1.99503997793928
20
-21.5990695510926
30
0
41
1
10
-1.99503997793928
20
-21.6443396610233
30
0
41
1
10
-1.99503997793928
20
-21.6755105092645
30
0
41
1
10
-1.99503997793928
20
-21.7038764495607
30
0
41
1
10
-1.99503997793928
20
-21.7293964429163
30
0
41
1
10
-1.99503997793928
20
-21.7520292420694
30
0
41
1
10
-1.99503997793928
20
-21.7717309018817
30
0
41
1
10
-1.99503997793928
20
-21.7884557380592
30
0
41
1
10
-1.99503997793928
20
-21.8021565310045
30
0
41
1
10
-1.99503997793928
20
-21.8127830851058
30
0
41
1
10
-1.99503997793928
20
-21.8202838734724
30
0
41
1
10
-1.99503997793928
20
-21.8245113862044
30
0
41
1
10
-1.99503997793931
20
-21.825277372493
30
0
41
1
10
-1.99503997793931
20
-21.8251670909152
30
0
0
SPLINE
5
158
100
AcDbEntity
8
SK1
62
256
6
ByLayer
370
18
48
1
60
0
100
AcDbSpline
70
4
71
3
72
295
73
291
40
0
40
0
40
0
40
0
40
0.0029463018212573
40
0.0065222267048785
40
0.0100981515884997
40
0.013674076472121
40
0.0172500013557422
40
0.0208259262393634
40
0.0279777760066058
40
0.0351296257738481
40
0.0422814755410906
40
0.0458574004247118
40
0.049433325308333
40
0.0530092501919542
40
0.0565851750755754
40
0.0637370248428178
40
0.067312949726439
40
0.0708888746100602
40
0.0744647994936814
40
0.0780407243773026
40
0.0816166492609238
40
0.085192574144545
40
0.0923444239117874
40
0.0959203487954086
40
0.0994962736790298
40
0.103072198562651
40
0.106648123446272
40
0.110224048329893
40
0.113799973213515
40
0.117375898097136
40
0.120951822980757
40
0.124527747864378
40
0.128103672747999
40
0.131679597631621
40
0.135255522515242
40
0.138831447398863
40
0.142407372282484
40
0.149559222049727
40
0.153135146933348
40
0.156711071816969
40
0.15849903425878
40
0.16028699670059
40
0.163862921584211
40
0.171014771351454
40
0.174590696235075
40
0.178166621118696
40
0.181742546002317
40
0.185318470885939
40
0.192470320653181
40
0.196046245536802
40
0.199622170420423
40
0.201410132862234
40
0.203198095304045
40
0.206774020187666
40
0.213925869954908
40
0.217501794838529
40
0.221077719722151
40
0.224653644605772
40
0.228229569489393
40
0.235381419256635
40
0.238957344140257
40
0.242533269023878
40
0.244321231465688
40
0.246109193907499
40
0.24968511879112
40
0.253261043674741
40
0.256836968558363
40
0.258624931000173
40
0.260412893441984
40
0.263988818325605
40
0.267564743209226
40
0.271140668092847
40
0.274716592976469
40
0.27829251786009
40
0.281868442743711
40
0.285444367627332
40
0.289020292510953
40
0.292596217394575
40
0.296172142278196
40
0.299748067161817
40
0.303323992045438
40
0.306899916929059
40
0.310475841812681
40
0.314051766696302
40
0.321203616463544
40
0.324779541347165
40
0.328355466230787
40
0.331931391114408
40
0.335507315998029
40
0.33908324088165
40
0.342659165765271
40
0.346235090648893
40
0.349811015532514
40
0.356962865299756
40
0.364114715066999
40
0.371266564834241
40
0.374842489717862
40
0.378418414601483
40
0.381994339485105
40
0.385570264368726
40
0.389146189252347
40
0.392722114135968
40
0.396298039019589
40
0.399873963903211
40
0.403449888786832
40
0.407025813670453
40
0.410601738554074
40
0.414177663437695
40
0.417753588321317
40
0.421329513204938
40
0.424905438088559
40
0.42848136297218
40
0.432057287855801
40
0.433845250297612
40
0.435633212739423
40
0.437421175181233
40
0.439209137623044
40
0.442785062506665
40
0.446360987390286
40
0.448148949832097
40
0.449936912273907
40
0.451724874715718
40
0.453512837157529
40
0.45708876204115
40
0.45887672448296
40
0.460664686924771
40
0.462452649366582
40
0.464240611808392
40
0.466028574250203
40
0.467816536692014
40
0.469604499133824
40
0.471392461575635
40
0.473180424017445
40
0.474968386459256
40
0.476756348901066
40
0.478544311342877
40
0.480332273784688
40
0.482120236226498
40
0.483908198668309
40
0.485696161110119
40
0.48748412355193
40
0.489272085993741
40
0.491060048435551
40
0.492848010877362
40
0.494635973319172
40
0.496423935760983
40
0.498211898202794
40
0.499999860644604
40
0.501787823086415
40
0.503575785528225
40
0.505363747970036
40
0.507151710411847
40
0.508939672853657
40
0.510727635295468
40
0.512515597737279
40
0.514303560179089
40
0.5160915226209
40
0.51787948506271
40
0.519667447504521
40
0.521455409946331
40
0.523243372388142
40
0.525031334829953
40
0.526819297271763
40
0.528607259713574
40
0.530395222155384
40
0.532183184597195
40
0.533971147039006
40
0.535759109480816
40
0.537547071922627
40
0.539335034364437
40
0.541122996806248
40
0.542910959248059
40
0.54648688413168
40
0.54827484657349
40
0.550062809015301
40
0.551850771457112
40
0.553638733898922
40
0.557214658782543
40
0.560790583666165
40
0.562578546107975
40
0.564366508549786
40
0.566154470991596
40
0.567942433433407
40
0.571518358317028
40
0.575094283200649
40
0.578670208084271
40
0.582246132967892
40
0.585822057851513
40
0.589397982735134
40
0.592973907618755
40
0.596549832502377
40
0.600125757385998
40
0.603701682269619
40
0.60727760715324
40
0.610853532036861
40
0.614429456920483
40
0.618005381804104
40
0.621581306687725
40
0.625157231571346
40
0.628733156454968
40
0.63588500622221
40
0.643036855989452
40
0.650188705756695
40
0.653764630640316
40
0.657340555523937
40
0.660916480407558
40
0.664492405291179
40
0.668068330174801
40
0.671644255058422
40
0.675220179942043
40
0.678796104825664
40
0.685947954592907
40
0.689523879476528
40
0.693099804360149
40
0.69667572924377
40
0.700251654127391
40
0.703827579011013
40
0.707403503894634
40
0.710979428778255
40
0.714555353661876
40
0.718131278545498
40
0.721707203429119
40
0.72528312831274
40
0.728859053196361
40
0.736010902963604
40
0.739586827847225
40
0.743162752730846
40
0.750314602498088
40
0.75389052738171
40
0.757466452265331
40
0.761042377148952
40
0.764618302032573
40
0.771770151799815
40
0.775346076683437
40
0.778922001567058
40
0.782497926450679
40
0.7860738513343
40
0.793225701101543
40
0.796801625985164
40
0.800377550868785
40
0.803953475752406
40
0.807529400636028
40
0.81468125040327
40
0.818257175286891
40
0.821833100170512
40
0.825409025054133
40
0.828984949937755
40
0.836136799704997
40
0.839712724588618
40
0.84328864947224
40
0.846864574355861
40
0.850440499239482
40
0.857592349006724
40
0.861168273890345
40
0.864744198773967
40
0.868320123657588
40
0.871896048541209
40
0.87547197342483
40
0.879047898308452
40
0.882623823192073
40
0.886199748075694
40
0.889775672959315
40
0.893351597842936
40
0.896927522726558
40
0.900503447610179
40
0.9040793724938
40
0.907655297377421
40
0.914807147144664
40
0.918383072028285
40
0.921958996911906
40
0.925534921795527
40
0.929110846679148
40
0.932686771562769
40
0.936262696446391
40
0.943414546213633
40
0.946990471097254
40
0.950566395980876
40
0.954142320864497
40
0.957718245748118
40
0.96487009551536
40
0.968446020398982
40
0.972021945282603
40
0.975597870166224
40
0.979173795049845
40
0.982749719933466
40
0.986325644817088
40
0.989901569700709
40
0.99347749458433
40
0.997053419467951
40
1
40
1
40
1
40
1
41
1
10
-2.19999999999999
20
22.0135196648355
30
0
41
1
10
-2.20000000000002
20
22.0117276002818
30
0
41
1
10
-2.20000000000002
20
22.0069596841352
30
0
41
1
10
-2.19999999999999
20
21.9968726461305
30
0
41
1
10
-2.19999999999999
20
21.9830583750197
30
0
41
1
10
-2.19999999999999
20
21.9661971621578
30
0
41
1
10
-2.19999999999999
20
21.9463373083127
30
0
41
1
10
-2.19999999999999
20
21.9159230944434
30
0
41
1
10
-2.19999999999999
20
21.870633664349
30
0
41
1
10
-2.19999999999999
20
21.8049949078793
30
0
41
1
10
-2.19999999999999
20
21.7411390111089
30
0
41
1
10
-2.19999999999999
20
21.6847072709128
30
0
41
1
10
-2.19999999999999
20
21.6397397481888
30
0
41
1
10
-2.19999999999999
20
21.5921615264853
30
0
41
1
10
-2.19999999999999
20
21.5252891523049
30
0
41
1
10
-2.19999999999999
20
21.453308753177
30
0
41
1
10
-2.19999999999999
20
21.3763547276269
30
0
41
1
10
-2.19999999999999
20
21.3161703964091
30
0
41
1
10
-2.19999999999999
20
21.2535469243879
30
0
41
1
10
-2.19999999999999
20
21.1885090229233
30
0
41
1
10
-2.19999999999999
20
21.121080083473
30
0
41
1
10
-2.19999999999999
20
21.0280237507364
30
0
41
1
10
-2.19999999999999
20
20.9302657445266
30
0
41
1
10
-2.19999999999999
20
20.8279188369072
30
0
41
1
10
-2.19999999999999
20
20.7488739070252
30
0
41
1
10
-2.19999999999999
20
20.6675681841826
30
0
41
1
10
-2.19999999999999
20
20.5840212184218
30
0
41
1
10
-2.19999999999999
20
20.4982502525025
30
0
41
1
10
-2.19999999999999
20
20.4102747128949
30
0
41
1
10
-2.19999999999999
20
20.3201119071544
30
0
41
1
10
-2.19999999999999
20
20.2277776663919
30
0
41
1
10
-2.19999999999999
20
20.1332899477274
30
0
41
1
10
-2.19999999999999
20
20.0366642357894
30
0
41
1
10
-2.19999999999999
20
19.9379151599299
30
0
41
1
10
-2.19999999999999
20
19.8370591957147
30
0
41
1
10
-2.19999999999999
20
19.7341102362335
30
0
41
1
10
-2.19999999999999
20
19.5940778412012
30
0
41
1
10
-2.19999999999999
20
19.4499005336558
30
0
41
1
10
-2.19999999999999
20
19.3016622310533
30
0
41
1
10
-2.19999999999999
20
19.2073184270571
30
0
41
1
10
-2.19999999999999
20
19.1308417758755
30
0
41
1
10
-2.19999999999999
20
19.0536957086557
30
0
41
1
10
-2.19999999999999
20
18.9169360704622
30
0
41
1
10
-2.19999999999999
20
18.756645794641
30
0
41
1
10
-2.19999999999999
20
18.5924362845557
30
0
41
1
10
-2.19999999999999
20
18.4673177976698
30
0
41
1
10
-2.19999999999999
20
18.3402521463352
30
0
41
1
10
-2.19999999999999
20
18.1682545122203
30
0
41
1
10
-2.19999999999999
20
17.9923842356821
30
0
41
1
10
-2.19999999999999
20
17.8127164551587
30
0
41
1
10
-2.19999999999999
20
17.6988333809735
30
0
41
1
10
-2.19999999999999
20
17.606787767091
30
0
41
1
10
-2.19999999999999
20
17.5141131161323
30
0
41
1
10
-2.19999999999999
20
17.3502824417036
30
0
41
1
10
-2.19999999999999
20
17.1592829447589
30
0
41
1
10
-2.19999999999999
20
16.9645867974536
30
0
41
1
10
-2.19999999999999
20
16.8167088060477
30
0
41
1
10
-2.19999999999999
20
16.6669871400996
30
0
41
1
10
-2.19999999999999
20
16.4649164953067
30
0
41
1
10
-2.19999999999999
20
16.2591646002876
30
0
41
1
10
-2.19999999999999
20
16.049802831716
30
0
41
1
10
-2.19999999999999
20
15.9174340084588
30
0
41
1
10
-2.19999999999999
20
15.8106442286412
30
0
41
1
10
-2.19999999999999
20
15.7032538676567
30
0
41
1
10
-2.19999999999999
20
15.567882396309
30
0
41
1
10
-2.19999999999999
20
15.4036502143979
30
0
41
1
10
-2.19999999999999
20
15.2652965264295
30
0
41
1
10
-2.19999999999999
20
15.1537302031574
30
0
41
1
10
-2.19999999999999
20
15.0415708470876
30
0
41
1
10
-2.19999999999999
20
14.90025131083
30
0
41
1
10
-2.19999999999999
20
14.7289012367181
30
0
41
1
10
-2.19999999999999
20
14.5557843226631
30
0
41
1
10
-2.19999999999999
20
14.3809062427341
30
0
41
1
10
-2.19999999999999
20
14.2042700822291
30
0
41
1
10
-2.19999999999999
20
14.0258803741545
30
0
41
1
10
-2.19999999999999
20
13.8457420253844
30
0
41
1
10
-2.19999999999999
20
13.6638579861817
30
0
41
1
10
-2.19999999999999
20
13.4802328481714
30
0
41
1
10
-2.19999999999999
20
13.2948705974071
30
0
41
1
10
-2.19999999999999
20
13.1077737485311
30
0
41
1
10
-2.19999999999999
20
12.9189467805057
30
0
41
1
10
-2.19999999999999
20
12.728392778749
30
0
41
1
10
-2.19999999999999
20
12.5361142588231
30
0
41
1
10
-2.19999999999999
20
12.2774598592137
30
0
41
1
10
-2.19999999999999
20
12.0153352592314
30
0
41
1
10
-2.19999999999999
20
11.7498207258852
30
0
41
1
10
-2.19999999999999
20
11.5489655826483
30
0
41
1
10
-2.19999999999999
20
11.3464032807099
30
0
41
1
10
-2.19999999999999
20
11.1421359853758
30
0
41
1
10
-2.19999999999999
20
10.9361655879759
30
0
41
1
10
-2.19999999999999
20
10.7284950970913
30
0
41
1
10
-2.19999999999999
20
10.5191258614377
30
0
41
1
10
-2.19999999999999
20
10.2377184130835
30
0
41
1
10
-2.19999999999999
20
9.88169304970987
30
0
41
1
10
-2.19999999999999
20
9.44771865839311
30
0
41
1
10
-2.19999999999999
20
9.08043848955603
30
0
41
1
10
-2.19999999999999
20
8.78327689677775
30
0
41
1
10
-2.19999999999999
20
8.55871419535617
30
0
41
1
10
-2.19999999999999
20
8.33247380011301
30
0
41
1
10
-2.19999999999999
20
8.10455852701506
30
0
41
1
10
-2.19999999999999
20
7.87497060194644
30
0
41
1
10
-2.19999999999999
20
7.6437128367312
30
0
41
1
10
-2.19999999999999
20
7.41078884464241
30
0
41
1
10
-2.19999999999999
20
7.17620220160032
30
0
41
1
10
-2.19999999999999
20
6.93995692090419
30
0
41
1
10
-2.19999999999999
20
6.70205758660663
30
0
41
1
10
-2.19999999999999
20
6.46250918569618
30
0
41
1
10
-2.19999999999999
20
6.2213178400012
30
0
41
1
10
-2.19999999999999
20
5.97849049576266
30
0
41
1
10
-2.19999999999999
20
5.73403521575827
30
0
41
1
10
-2.19999999999999
20
5.48796107357256
30
0
41
1
10
-2.19999999999999
20
5.24027911118978
30
0
41
1
10
-2.19999999999999
20
5.03253661023487
30
0
41
1
10
-2.19999999999999
20
4.86557359122418
30
0
41
1
10
-2.19999999999999
20
4.73994908127321
30
0
41
1
10
-2.19999999999999
20
4.61393371339017
30
0
41
1
10
-2.19999999999999
20
4.44540774959788
30
0
41
1
10
-2.19999999999999
20
4.23375652596863
30
0
41
1
10
-2.19999999999999
20
4.02083961713782
30
0
41
1
10
-2.19999999999999
20
3.84978439152417
30
0
41
1
10
-2.19999999999999
20
3.72111342731068
30
0
41
1
10
-2.19999999999999
20
3.59207749308624
30
0
41
1
10
-2.19999999999999
20
3.41956369464535
30
0
41
1
10
-2.19999999999999
20
3.24629481959221
30
0
41
1
10
-2.19999999999999
20
3.0723836150739
30
0
41
1
10
-2.19999999999999
20
2.94160046512798
30
0
41
1
10
-2.19999999999999
20
2.81048647644627
30
0
41
1
10
-2.19999999999999
20
2.67904892732182
30
0
41
1
10
-2.19999999999999
20
2.54729562722176
30
0
41
1
10
-2.19999999999999
20
2.41523551097489
30
0
41
1
10
-2.19999999999999
20
2.28287740252156
30
0
41
1
10
-2.19999999999999
20
2.15023166945255
30
0
41
1
10
-2.19999999999999
20
2.01730873413072
30
0
41
1
10
-2.19999999999999
20
1.88412021099791
30
0
41
1
10
-2.19999999999999
20
1.75067841854351
30
0
41
1
10
-2.19999999999999
20
1.61699634722072
30
0
41
1
10
-2.19999999999999
20
1.48308821885627
30
0
41
1
10
-2.19999999999999
20
1.34896859254377
30
0
41
1
10
-2.19999999999999
20
1.21465350310541
30
0
41
1
10
-2.19999999999999
20
1.0801592162689
30
0
41
1
10
-2.19999999999999
20
0.945503442662783
30
0
41
1
10
-2.19999999999999
20
0.810704113119073
30
0
41
1
10
-2.19999999999999
20
0.675780421912322
30
0
41
1
10
-2.19999999999999
20
0.540751787789588
30
0
41
1
10
-2.19999999999999
20
0.405638599098921
30
0
41
1
10
-2.19999999999999
20
0.270461428271432
30
0
41
1
10
-2.19999999999999
20
0.135241462279822
30
0
41
1
10
-2.19999999999999
20
-5.3654787E-09
30
0
41
1
10
-2.19999999999999
20
-0.135241472589996
30
0
41
1
10
-2.19999999999999
20
-0.270461437853925
30
0
41
1
10
-2.19999999999999
20
-0.405638608907907
30
0
41
1
10
-2.19999999999999
20
-0.540751798686529
30
0
41
1
10
-2.19999999999999
20
-0.675780432522174
30
0
41
1
10
-2.19999999999999
20
-0.810704122044939
30
0
41
1
10
-2.19999999999999
20
-0.945503451789534
30
0
41
1
10
-2.19999999999999
20
-1.08015922751395
30
0
41
1
10
-2.19999999999999
20
-1.21465351395383
30
0
41
1
10
-2.19999999999999
20
-1.34896860046499
30
0
41
1
10
-2.19999999999999
20
-1.48308822685564
30
0
41
1
10
-2.19999999999999
20
-1.61699635855226
30
0
41
1
10
-2.19999999999999
20
-1.75067843002711
30
0
41
1
10
-2.19999999999999
20
-1.88412021847037
30
0
41
1
10
-2.19999999999999
20
-2.01730874020455
30
0
41
1
10
-2.19999999999999
20
-2.15023167925048
30
0
41
1
10
-2.19999999999999
20
-2.28287741514001
30
0
41
1
10
-2.19999999999999
20
-2.41523552035437
30
0
41
1
10
-2.19999999999999
20
-2.54729563151926
30
0
41
1
10
-2.19999999999999
20
-2.67904893291683
30
0
41
1
10
-2.19999999999999
20
-2.81048648769612
30
0
41
1
10
-2.19999999999999
20
-2.94160047796311
30
0
41
1
10
-2.19999999999999
20
-3.072383622975
30
0
41
1
10
-2.19999999999999
20
-3.24629481975686
30
0
41
1
10
-2.19999999999999
20
-3.41956370437865
30
0
41
1
10
-2.19999999999999
20
-3.59207750684843
30
0
41
1
10
-2.19999999999999
20
-3.72111343644576
30
0
41
1
10
-2.19999999999999
20
-3.84978439330678
30
0
41
1
10
-2.19999999999999
20
-4.020839617489
30
0
41
1
10
-2.19999999999999
20
-4.23375654375474
30
0
41
1
10
-2.19999999999999
20
-4.44540775759583
30
0
41
1
10
-2.19999999999999
20
-4.61393371339872
30
0
41
1
10
-2.19999999999999
20
-4.73994907984499
30
0
41
1
10
-2.19999999999999
20
-4.86557359653659
30
0
41
1
10
-2.19999999999999
20
-5.03253662624778
30
0
41
1
10
-2.19999999999999
20
-5.24027911954084
30
0
41
1
10
-2.19999999999999
20
-5.48796106514416
30
0
41
1
10
-2.19999999999999
20
-5.73403522651989
30
0
41
1
10
-2.19999999999999
20
-5.97849051253721
30
0
41
1
10
-2.19999999999999
20
-6.22131783489101
30
0
41
1
10
-2.19999999999999
20
-6.46250917346816
30
0
41
1
10
-2.19999999999999
20
-6.70205756880287
30
0
41
1
10
-2.19999999999999
20
-6.93995689241024
30
0
41
1
10
-2.19999999999999
20
-7.17620223308296
30
0
41
1
10
-2.19999999999999
20
-7.41078904293681
30
0
41
1
10
-2.19999999999999
20
-7.64371312168015
30
0
41
1
10
-2.19999999999999
20
-7.87497052861914
30
0
41
1
10
-2.19999999999999
20
-8.10455846042146
30
0
41
1
10
-2.19999999999999
20
-8.33247384441506
30
0
41
1
10
-2.19999999999999
20
-8.55871423477029
30
0
41
1
10
-2.19999999999999
20
-8.78327691067398
30
0
41
1
10
-2.19999999999999
20
-9.08043846702645
30
0
41
1
10
-2.19999999999999
20
-9.44771866001565
30
0
41
1
10
-2.19999999999999
20
-9.88169305528194
30
0
41
1
10
-2.19999999999999
20
-10.2377183913447
30
0
41
1
10
-2.19999999999999
20
-10.5191258633122
30
0
41
1
10
-2.19999999999999
20
-10.7284951094206
30
0
41
1
10
-2.19999999999999
20
-10.9361655882296
30
0
41
1
10
-2.19999999999999
20
-11.1421359694817
30
0
41
1
10
-2.19999999999999
20
-11.3464032666245
30
0
41
1
10
-2.19999999999999
20
-11.5489655840494
30
0
41
1
10
-2.19999999999999
20
-11.7498207382014
30
0
41
1
10
-2.19999999999999
20
-12.015335258712
30
0
41
1
10
-2.19999999999999
20
-12.277459839655
30
0
41
1
10
-2.19999999999999
20
-12.5361142561418
30
0
41
1
10
-2.19999999999999
20
-12.7283927892775
30
0
41
1
10
-2.19999999999999
20
-12.9189467887917
30
0
41
1
10
-2.19999999999999
20
-13.1077737445537
30
0
41
1
10
-2.19999999999999
20
-13.2948705838035
30
0
41
1
10
-2.19999999999999
20
-13.4802328404438
30
0
41
1
10
-2.19999999999999
20
-13.6638579908945
30
0
41
1
10
-2.19999999999999
20
-13.845742035678
30
0
41
1
10
-2.19999999999999
20
-14.0258803815961
30
0
41
1
10
-2.19999999999999
20
-14.2042701267483
30
0
41
1
10
-2.19999999999999
20
-14.3809064511142
30
0
41
1
10
-2.19999999999999
20
-14.61406817927
30
0
41
1
10
-2.19999999999999
20
-14.8437340716545
30
0
41
1
10
-2.19999999999999
20
-15.069828938707
30
0
41
1
10
-2.19999999999999
20
-15.2935559429894
30
0
41
1
10
-2.19999999999999
20
-15.513744330902
30
0
41
1
10
-2.19999999999999
20
-15.7303232767805
30
0
41
1
10
-2.19999999999999
20
-15.8909649274654
30
0
41
1
10
-2.19999999999999
20
-16.0498023362736
30
0
41
1
10
-2.19999999999999
20
-16.2591647559547
30
0
41
1
10
-2.19999999999999
20
-16.4649171124643
30
0
41
1
10
-2.19999999999999
20
-16.666987304737
30
0
41
1
10
-2.19999999999999
20
-16.8167085043733
30
0
41
1
10
-2.19999999999999
20
-16.9645862898264
30
0
41
1
10
-2.19999999999999
20
-17.1592828976246
30
0
41
1
10
-2.19999999999999
20
-17.3502835148979
30
0
41
1
10
-2.19999999999999
20
-17.5375147595292
30
0
41
1
10
-2.19999999999999
20
-17.676060438985
30
0
41
1
10
-2.19999999999999
20
-17.8127154575359
30
0
41
1
10
-2.19999999999999
20
-17.9923842415009
30
0
41
1
10
-2.19999999999999
20
-18.1682547291306
30
0
41
1
10
-2.19999999999999
20
-18.3402522143585
30
0
41
1
10
-2.19999999999999
20
-18.4673177032107
30
0
41
1
10
-2.19999999999999
20
-18.5924361073221
30
0
41
1
10
-2.19999999999999
20
-18.7566457425986
30
0
41
1
10
-2.19999999999999
20
-18.9169371900015
30
0
41
1
10
-2.19999999999999
20
-19.0732305996174
30
0
41
1
10
-2.19999999999999
20
-19.1884526890887
30
0
41
1
10
-2.19999999999999
20
-19.3016611759423
30
0
41
1
10
-2.19999999999999
20
-19.4499005391959
30
0
41
1
10
-2.19999999999999
20
-19.5940785255289
30
0
41
1
10
-2.19999999999999
20
-19.7341104289282
30
0
41
1
10
-2.19999999999999
20
-19.8370589164793
30
0
41
1
10
-2.19999999999999
20
-19.9379146863563
30
0
41
1
10
-2.19999999999999
20
-20.0366640227898
30
0
41
1
10
-2.19999999999999
20
-20.133289903145
30
0
41
1
10
-2.19999999999999
20
-20.2277776697998
30
0
41
1
10
-2.19999999999999
20
-20.3201119082527
30
0
41
1
10
-2.19999999999999
20
-20.4102747220553
30
0
41
1
10
-2.19999999999999
20
-20.4982502752196
30
0
41
1
10
-2.19999999999999
20
-20.5840212474559
30
0
41
1
10
-2.19999999999999
20
-20.6675682022903
30
0
41
1
10
-2.19999999999999
20
-20.7488739108727
30
0
41
1
10
-2.19999999999999
20
-20.82791883753
30
0
41
1
10
-2.19999999999999
20
-20.9302657657864
30
0
41
1
10
-2.19999999999999
20
-21.0280237880878
30
0
41
1
10
-2.19999999999999
20
-21.1210800961781
30
0
41
1
10
-2.19999999999999
20
-21.1885090211437
30
0
41
1
10
-2.19999999999999
20
-21.2535469320083
30
0
41
1
10
-2.19999999999999
20
-21.3161704250344
30
0
41
1
10
-2.19999999999999
20
-21.3763547664481
30
0
41
1
10
-2.19999999999999
20
-21.4533087676779
30
0
41
1
10
-2.19999999999999
20
-21.5252891448141
30
0
41
1
10
-2.19999999999999
20
-21.5921615531195
30
0
41
1
10
-2.19999999999999
20
-21.6397397916631
30
0
41
1
10
-2.19999999999999
20
-21.6847072964973
30
0
41
1
10
-2.19999999999999
20
-21.7411389990572
30
0
41
1
10
-2.19999999999999
20
-21.7922265879071
30
0
41
1
10
-2.19999999999999
20
-21.8378144981283
30
0
41
1
10
-2.19999999999999
20
-21.8692221254414
30
0
41
1
10
-2.19999999999999
20
-21.8978063777089
30
0
41
1
10
-2.19999999999999
20
-21.9235254752891
30
0
41
1
10
-2.19999999999999
20
-21.9463373508774
30
0
41
1
10
-2.19999999999999
20
-21.9661972037607
30
0
41
1
10
-2.19999999999999
20
-21.9830583809744
30
0
41
1
10
-2.19999999999999
20
-21.9968726399857
30
0
41
1
10
-2.19999999999999
20
-22.0069599983393
30
0
41
1
10
-2.19999999999999
20
-22.011728127151
30
0
41
1
10
-2.19999999999999
20
-22.0135203345847
30
0
0
SPLINE
5
159
100
AcDbEntity
8
SK1
62
256
6
ByLayer
370
18
48
1
60
0
100
AcDbSpline
70
4
71
3
72
303
73
299
40
0
40
0
40
0
40
0
40
0.0005133422244753
40
0.0040062586104044
40
0.0074991749963334
40
0.0109920913822624
40
0.0144850077681915
40
0.0179779241541206
40
0.0214708405400496
40
0.0249637569259787
40
0.0284566733119077
40
0.0319495896978367
40
0.0389354224696949
40
0.045921255241553
40
0.052907088013411
40
0.0564000043993402
40
0.0598929207852692
40
0.0633858371711982
40
0.0668787535571273
40
0.0738645863289854
40
0.0773575027149144
40
0.0808504191008436
40
0.0843433354867726
40
0.0878362518727016
40
0.0913291682586306
40
0.0948220846445597
40
0.101807917416418
40
0.105300833802347
40
0.108793750188276
40
0.112286666574205
40
0.115779582960134
40
0.119272499346063
40
0.122765415731992
40
0.126258332117921
40
0.12975124850385
40
0.133244164889779
40
0.136737081275708
40
0.140229997661637
40
0.143722914047566
40
0.147215830433496
40
0.150708746819424
40
0.157694579591283
40
0.161187495977212
40
0.164680412363141
40
0.166426870556105
40
0.16817332874907
40
0.171666245134999
40
0.178652077906857
40
0.182144994292786
40
0.185637910678715
40
0.189130827064644
40
0.192623743450573
40
0.199609576222431
40
0.20310249260836
40
0.206595408994289
40
0.208341867187254
40
0.210088325380218
40
0.213581241766147
40
0.220567074538006
40
0.224059990923935
40
0.227552907309864
40
0.231045823695793
40
0.234538740081722
40
0.24152457285358
40
0.245017489239509
40
0.248510405625438
40
0.250256863818403
40
0.252003322011367
40
0.255496238397296
40
0.258989154783225
40
0.262482071169154
40
0.264228529362119
40
0.265974987555083
40
0.269467903941012
40
0.272960820326941
40
0.27645373671287
40
0.2799466530988
40
0.283439569484728
40
0.286932485870658
40
0.290425402256587
40
0.293918318642516
40
0.297411235028445
40
0.300904151414374
40
0.304397067800303
40
0.307889984186232
40
0.311382900572161
40
0.31487581695809
40
0.318368733344019
40
0.325354566115877
40
0.328847482501806
40
0.332340398887735
40
0.335833315273664
40
0.339326231659593
40
0.342819148045522
40
0.346312064431451
40
0.34980498081738
40
0.35329789720331
40
0.360283729975168
40
0.367269562747026
40
0.374255395518884
40
0.377748311904813
40
0.381241228290742
40
0.384734144676671
40
0.3882270610626
40
0.391719977448529
40
0.395212893834458
40
0.398705810220387
40
0.402198726606316
40
0.405691642992245
40
0.409184559378174
40
0.412677475764104
40
0.416170392150032
40
0.419663308535962
40
0.423156224921891
40
0.42664914130782
40
0.430142057693749
40
0.433634974079678
40
0.435381432272642
40
0.437127890465607
40
0.438874348658571
40
0.440620806851536
40
0.444113723237465
40
0.447606639623394
40
0.449353097816359
40
0.451099556009323
40
0.452846014202287
40
0.454592472395252
40
0.458085388781181
40
0.459831846974146
40
0.46157830516711
40
0.463324763360075
40
0.465071221553039
40
0.466817679746004
40
0.468564137938968
40
0.470310596131933
40
0.472057054324897
40
0.473803512517862
40
0.475549970710826
40
0.477296428903791
40
0.479042887096755
40
0.48078934528972
40
0.482535803482684
40
0.484282261675649
40
0.486028719868614
40
0.487775178061578
40
0.489521636254543
40
0.491268094447507
40
0.493014552640472
40
0.494761010833436
40
0.496507469026401
40
0.498253927219365
40
0.50000038541233
40
0.501746843605294
40
0.503493301798259
40
0.505239759991223
40
0.506986218184188
40
0.508732676377152
40
0.510479134570117
40
0.512225592763081
40
0.513972050956046
40
0.51571850914901
40
0.517464967341975
40
0.51921142553494
40
0.520957883727904
40
0.522704341920868
40
0.524450800113833
40
0.526197258306798
40
0.527943716499762
40
0.529690174692727
40
0.531436632885691
40
0.533183091078656
40
0.53492954927162
40
0.536676007464585
40
0.538422465657549
40
0.540168923850514
40
0.541915382043478
40
0.545408298429408
40
0.547154756622372
40
0.548901214815336
40
0.550647673008301
40
0.552394131201265
40
0.555887047587195
40
0.559379963973124
40
0.561126422166088
40
0.562872880359053
40
0.564619338552017
40
0.566365796744982
40
0.569858713130911
40
0.57335162951684
40
0.576844545902769
40
0.580337462288698
40
0.583830378674627
40
0.587323295060556
40
0.590816211446485
40
0.594309127832414
40
0.597802044218343
40
0.601294960604273
40
0.604787876990201
40
0.60828079337613
40
0.61177370976206
40
0.615266626147989
40
0.618759542533918
40
0.622252458919847
40
0.625745375305776
40
0.632731208077634
40
0.639717040849492
40
0.64670287362135
40
0.650195790007279
40
0.653688706393208
40
0.657181622779137
40
0.660674539165066
40
0.664167455550995
40
0.667660371936924
40
0.671153288322853
40
0.674646204708782
40
0.681632037480641
40
0.68512495386657
40
0.688617870252499
40
0.692110786638428
40
0.695603703024357
40
0.699096619410286
40
0.702589535796215
40
0.706082452182144
40
0.709575368568073
40
0.713068284954002
40
0.716561201339931
40
0.72005411772586
40
0.723547034111789
40
0.730532866883647
40
0.734025783269576
40
0.737518699655505
40
0.744504532427364
40
0.747997448813292
40
0.751490365199222
40
0.754983281585151
40
0.75847619797108
40
0.765462030742938
40
0.768954947128867
40
0.772447863514796
40
0.775940779900725
40
0.779433696286654
40
0.786419529058512
40
0.789912445444441
40
0.79340536183037
40
0.796898278216299
40
0.800391194602228
40
0.807377027374086
40
0.810869943760015
40
0.814362860145945
40
0.817855776531874
40
0.821348692917803
40
0.828334525689661
40
0.83182744207559
40
0.835320358461519
40
0.838813274847448
40
0.842306191233377
40
0.849292024005235
40
0.852784940391164
40
0.856277856777093
40
0.859770773163022
40
0.863263689548951
40
0.86675660593488
40
0.870249522320809
40
0.873742438706738
40
0.877235355092667
40
0.880728271478597
40
0.884221187864526
40
0.887714104250455
40
0.891207020636384
40
0.894699937022313
40
0.898192853408242
40
0.9051786861801
40
0.908671602566029
40
0.912164518951958
40
0.915657435337887
40
0.919150351723816
40
0.922643268109745
40
0.926136184495674
40
0.933122017267532
40
0.936614933653461
40
0.94010785003939
40
0.94360076642532
40
0.947093682811249
40
0.954079515583107
40
0.957572431969036
40
0.961065348354965
40
0.964558264740894
40
0.968051181126823
40
0.971544097512752
40
0.975037013898681
40
0.97852993028461
40
0.982022846670539
40
0.985515763056468
40
0.989008679442397
40
0.992501595828326
40
0.995994512214255
40
0.999487428600184
40
1
40
1
40
1
40
1
41
1
10
-36.5
20
21.1555776083981
30
0
41
1
10
-36.5
20
21.1557858217063
30
0
41
1
10
-36.5
20
21.1573191512909
30
0
41
1
10
-36.5
20
21.1588544331657
30
0
41
1
10
-36.5
20
21.1578038223016
30
0
41
1
10
-36.5
20
21.1536126358382
30
0
41
1
10
-36.5
20
21.1463317213717
30
0
41
1
10
-36.5
20
21.1360112678938
30
0
41
1
10
-36.5
20
21.1226986497682
30
0
41
1
10
-36.5
20
21.1064402158535
30
0
41
1
10
-36.5
20
21.0872797426226
30
0
41
1
10
-36.5
20
21.0578537406018
30
0
41
1
10
-36.5
20
21.0141777773224
30
0
41
1
10
-36.5
20
20.950713074722
30
0
41
1
10
-36.5
20
20.8890285612071
30
0
41
1
10
-36.5
20
20.8342802658871
30
0
41
1
10
-36.5
20
20.7907267804185
30
0
41
1
10
-36.5
20
20.7446291690672
30
0
41
1
10
-36.5
20
20.6796864194097
30
0
41
1
10
-36.5
20
20.6101652524536
30
0
41
1
10
-36.5
20
20.5353747251341
30
0
41
1
10
-36.5
20
20.4769783324059
30
0
41
1
10
-36.5
20
20.4161995895793
30
0
41
1
10
-36.5
20
20.3530628196555
30
0
41
1
10
-36.5
20
20.2875896826626
30
0
41
1
10
-36.5
20
20.1970436182683
30
0
41
1
10
-36.5
20
20.1024192722933
30
0
41
1
10
-36.5
20
20.0027815031752
30
0
41
1
10
-36.5
20
19.9259535572617
30
0
41
1
10
-36.5
20
19.8469141355251
30
0
41
1
10
-36.5
20
19.7656833730651
30
0
41
1
10
-36.5
20
19.6822775189499
30
0
41
1
10
-36.5
20
19.5967148149262
30
0
41
1
10
-36.5
20
19.5090135394173
30
0
41
1
10
-36.5
20
19.4191882696517
30
0
41
1
10
-36.5
20
19.3272561697677
30
0
41
1
10
-36.5
20
19.2332338822713
30
0
41
1
10
-36.5
20
19.1371346902893
30
0
41
1
10
-36.5
20
19.0389746878943
30
0
41
1
10
-36.5
20
18.9387689752275
30
0
41
1
10
-36.5
20
18.8022215100789
30
0
41
1
10
-36.5
20
18.6623317385554
30
0
41
1
10
-36.5
20
18.5177544284038
30
0
41
1
10
-36.5
20
18.4260133905722
30
0
41
1
10
-36.5
20
18.3514175898237
30
0
41
1
10
-36.5
20
18.2761667145511
30
0
41
1
10
-36.5
20
18.1428549391526
30
0
41
1
10
-36.5
20
17.987269645424
30
0
41
1
10
-36.5
20
17.8270700659299
30
0
41
1
10
-36.5
20
17.705205542109
30
0
41
1
10
-36.5
20
17.5814423770725
30
0
41
1
10
-36.5
20
17.4136311437529
30
0
41
1
10
-36.5
20
17.2428939764416
30
0
41
1
10
-36.5
20
17.0675963011876
30
0
41
1
10
-36.5
20
16.9568152899196
30
0
41
1
10
-36.5
20
16.867008999151
30
0
41
1
10
-36.5
20
16.7765898513273
30
0
41
1
10
-36.5
20
16.6168596157572
30
0
41
1
10
-36.5
20
16.4314438788638
30
0
41
1
10
-36.5
20
16.2414991337765
30
0
41
1
10
-36.5
20
16.097474719741
30
0
41
1
10
-36.5
20
15.9516616651348
30
0
41
1
10
-36.5
20
15.7545445351489
30
0
41
1
10
-36.5
20
15.5548613446891
30
0
41
1
10
-36.5
20
15.350663385132
30
0
41
1
10
-36.5
20
15.2219600388738
30
0
41
1
10
-36.5
20
15.1178164480938
30
0
41
1
10
-36.5
20
15.0130920883853
30
0
41
1
10
-36.5
20
14.8814910451208
30
0
41
1
10
-36.5
20
14.7216281332594
30
0
41
1
10
-36.5
20
14.5871530954062
30
0
41
1
10
-36.5
20
14.4783873813363
30
0
41
1
10
-36.5
20
14.3690494022437
30
0
41
1
10
-36.5
20
14.2317235183089
30
0
41
1
10
-36.5
20
14.0650028858775
30
0
41
1
10
-36.5
20
13.8965816080865
30
0
41
1
10
-36.5
20
13.7264689694465
30
0
41
1
10
-36.5
20
13.5546710496343
30
0
41
1
10
-36.5
20
13.3811910773122
30
0
41
1
10
-36.5
20
13.2060373742644
30
0
41
1
10
-36.5
20
13.0292149133303
30
0
41
1
10
-36.5
20
12.850728177302
30
0
41
1
10
-36.5
20
12.6705857874604
30
0
41
1
10
-36.5
20
12.4887914218501
30
0
41
1
10
-36.5
20
12.3053503484466
30
0
41
1
10
-36.5
20
12.1202706879328
30
0
41
1
10
-36.5
20
11.9335555855444
30
0
41
1
10
-36.5
20
11.6819759204348
30
0
41
1
10
-36.5
20
11.4285505376587
30
0
41
1
10
-36.5
20
11.1704660874499
30
0
41
1
10
-36.5
20
10.9756651586938
30
0
41
1
10
-36.5
20
10.7792636737398
30
0
41
1
10
-36.5
20
10.5812696725585
30
0
41
1
10
-36.5
20
10.3816871154457
30
0
41
1
10
-36.5
20
10.180523710493
30
0
41
1
10
-36.5
20
9.9777855843503
30
0
41
1
10
-36.5
20
9.70483576808863
30
0
41
1
10
-36.5
20
9.36101276272154
30
0
41
1
10
-36.5
20
8.94153438933262
30
0
41
1
10
-36.5
20
8.58745787193689
30
0
41
1
10
-36.5
20
8.30004464023602
30
0
41
1
10
-36.5
20
8.08346950394392
30
0
41
1
10
-36.5
20
7.86540102208474
30
0
41
1
10
-36.5
20
7.64585131899614
30
0
41
1
10
-36.5
20
7.42483318088833
30
0
41
1
10
-36.5
20
7.20235735193418
30
0
41
1
10
-36.5
20
6.97843755879967
30
0
41
1
10
-36.5
20
6.75308981071325
30
0
41
1
10
-36.5
20
6.52633035082275
30
0
41
1
10
-36.5
20
6.29817753233076
30
0
41
1
10
-36.5
20
6.06865022444896
30
0
41
1
10
-36.5
20
5.83776884649418
30
0
41
1
10
-36.5
20
5.60555660448861
30
0
41
1
10
-36.5
20
5.37203985998678
30
0
41
1
10
-36.5
20
5.13724579696884
30
0
41
1
10
-36.5
20
4.90120595303733
30
0
41
1
10
-36.5
20
4.70396583147405
30
0
41
1
10
-36.5
20
4.54469638576828
30
0
41
1
10
-36.5
20
4.42533999597057
30
0
41
1
10
-36.5
20
4.30569972295402
30
0
41
1
10
-36.5
20
4.14529336499854
30
0
41
1
10
-36.5
20
3.94531865595207
30
0
41
1
10
-36.5
20
3.74444957084984
30
0
41
1
10
-36.5
20
3.58224076117995
30
0
41
1
10
-36.5
20
3.46078958963511
30
0
41
1
10
-36.5
20
3.33910702605107
30
0
41
1
10
-36.5
20
3.17597085922344
30
0
41
1
10
-36.5
20
3.01425651604552
30
0
41
1
10
-36.5
20
2.85023149996007
30
0
41
1
10
-36.5
20
2.72752154931175
30
0
41
1
10
-36.5
20
2.60463052157442
30
0
41
1
10
-36.5
20
2.48157378937663
30
0
41
1
10
-36.5
20
2.35835621123036
30
0
41
1
10
-36.5
20
2.23499061660055
30
0
41
1
10
-36.5
20
2.11148761081347
30
0
41
1
10
-36.5
20
1.9878545152765
30
0
41
1
10
-36.5
20
1.86410632124097
30
0
41
1
10
-36.5
20
1.74024827700825
30
0
41
1
10
-36.5
20
1.61629526151512
30
0
41
1
10
-36.5
20
1.49225310041959
30
0
41
1
10
-36.5
20
1.3681347814894
30
0
41
1
10
-36.5
20
1.2439473222278
30
0
41
1
10
-36.5
20
1.11970117534864
30
0
41
1
10
-36.5
20
0.995403485642782
30
0
41
1
10
-36.5
20
0.8710629170684
30
0
41
1
10
-36.5
20
0.746686102657719
30
0
41
1
10
-36.5
20
0.622280124115576
30
0
41
1
10
-36.5
20
0.497850420758397
30
0
41
1
10
-36.5
20
0.373402935182185
30
0
41
1
10
-36.5
20
0.248942238793177
30
0
41
1
10
-36.5
20
0.124473257200918
30
0
41
1
10
-36.5
20
9.2462358E-09
30
0
41
1
10
-36.5
20
-0.124473254673973
30
0
41
1
10
-36.5
20
-0.248942266430618
30
0
41
1
10
-36.5
20
-0.373402960091397
30
0
41
1
10
-36.5
20
-0.497850400790554
30
0
41
1
10
-36.5
20
-0.622280094010847
30
0
41
1
10
-36.5
20
-0.746686131491799
30
0
41
1
10
-36.5
20
-0.871062970095124
30
0
41
1
10
-36.5
20
-0.995403468230791
30
0
41
1
10
-36.5
20
-1.11970111692671
30
0
41
1
10
-36.5
20
-1.2439473407681
30
0
41
1
10
-36.5
20
-1.36813486147517
30
0
41
1
10
-36.5
20
-1.49225310642996
30
0
41
1
10
-36.5
20
-1.61629518356963
30
0
41
1
10
-36.5
20
-1.74024825464127
30
0
41
1
10
-36.5
20
-1.86410640329151
30
0
41
1
10
-36.5
20
-1.98785458048855
30
0
41
1
10
-36.5
20
-2.11148756075909
30
0
41
1
10
-36.5
20
-2.2349905278607
30
0
41
1
10
-36.5
20
-2.3583562279822
30
0
41
1
10
-36.5
20
-2.48157389743915
30
0
41
1
10
-36.5
20
-2.60463057106841
30
0
41
1
10
-36.5
20
-2.72752148004804
30
0
41
1
10
-36.5
20
-2.8502314065623
30
0
41
1
10
-36.5
20
-3.01425656877106
30
0
41
1
10
-36.5
20
-3.17597095993784
30
0
41
1
10
-36.5
20
-3.33910698167958
30
0
41
1
10
-36.5
20
-3.46078948211164
30
0
41
1
10
-36.5
20
-3.58224072191865
30
0
41
1
10
-36.5
20
-3.74444967050349
30
0
41
1
10
-36.5
20
-3.94531869048151
30
0
41
1
10
-36.5
20
-4.14529326648051
30
0
41
1
10
-36.5
20
-4.30569969171859
30
0
41
1
10
-36.5
20
-4.42534006396792
30
0
41
1
10
-36.5
20
-4.54469650094606
30
0
41
1
10
-36.5
20
-4.70396584910503
30
0
41
1
10
-36.5
20
-4.90120586463618
30
0
41
1
10
-36.5
20
-5.1372458114655
30
0
41
1
10
-36.5
20
-5.37203995090806
30
0
41
1
10
-36.5
20
-5.6055565552935
30
0
41
1
10
-36.5
20
-5.83776875015036
30
0
41
1
10
-36.5
20
-6.06865017711209
30
0
41
1
10
-36.5
20
-6.29817748211653
30
0
41
1
10
-36.5
20
-6.52633051401983
30
0
41
1
10
-36.5
20
-6.75309051279777
30
0
41
1
10
-36.5
20
-6.97843834484934
30
0
41
1
10
-36.5
20
-7.20235684280951
30
0
41
1
10
-36.5
20
-7.42483229470756
30
0
41
1
10
-36.5
20
-7.64585158611578
30
0
41
1
10
-36.5
20
-7.86540128403743
30
0
41
1
10
-36.5
20
-8.08346945831602
30
0
41
1
10
-36.5
20
-8.3000445299389
30
0
41
1
10
-36.5
20
-8.58745782596952
30
0
41
1
10
-36.5
20
-8.94153442741853
30
0
41
1
10
-36.5
20
-9.36101273737586
30
0
41
1
10
-36.5
20
-9.70483575174822
30
0
41
1
10
-36.5
20
-9.97778564072317
30
0
41
1
10
-36.5
20
-10.18052371466
30
0
41
1
10
-36.5
20
-10.3816870614505
30
0
41
1
10
-36.5
20
-10.5812696339219
30
0
41
1
10
-36.5
20
-10.7792636942327
30
0
41
1
10
-36.5
20
-10.9756652058486
30
0
41
1
10
-36.5
20
-11.1704660987636
30
0
41
1
10
-36.5
20
-11.4285504962004
30
0
41
1
10
-36.5
20
-11.6819759007756
30
0
41
1
10
-36.5
20
-11.9335556252714
30
0
41
1
10
-36.5
20
-12.1202707134412
30
0
41
1
10
-36.5
20
-12.3053503320752
30
0
41
1
10
-36.5
20
-12.4887913848281
30
0
41
1
10
-36.5
20
-12.6705857704289
30
0
41
1
10
-36.5
20
-12.8507281979538
30
0
41
1
10
-36.5
20
-13.0292149436136
30
0
41
1
10
-36.5
20
-13.2060373895955
30
0
41
1
10
-36.5
20
-13.3811911431361
30
0
41
1
10
-36.5
20
-13.5546713888901
30
0
41
1
10
-36.5
20
-13.7264696827893
30
0
41
1
10
-36.5
20
-13.9536769173599
30
0
41
1
10
-36.5
20
-14.176348576809
30
0
41
1
10
-36.5
20
-14.3967384349213
30
0
41
1
10
-36.5
20
-14.6148460432235
30
0
41
1
10
-36.5
20
-14.8284315021107
30
0
41
1
10
-36.5
20
-15.0396227184095
30
0
41
1
10
-36.5
20
-15.1960147192182
30
0
41
1
10
-36.5
20
-15.3506631330603
30
0
41
1
10
-36.5
20
-15.5548624364723
30
0
41
1
10
-36.5
20
-15.7545451164335
30
0
41
1
10
-36.5
20
-15.9516609547094
30
0
41
1
10
-36.5
20
-16.0974737380165
30
0
41
1
10
-36.5
20
-16.241498813278
30
0
41
1
10
-36.5
20
-16.4314450331352
30
0
41
1
10
-36.5
20
-16.6168608854212
30
0
41
1
10
-36.5
20
-16.7995343923805
30
0
41
1
10
-36.5
20
-16.9344844206004
30
0
41
1
10
-36.5
20
-17.0675955495037
30
0
41
1
10
-36.5
20
-17.2428947983014
30
0
41
1
10
-36.5
20
-17.4136313821348
30
0
41
1
10
-36.5
20
-17.5814422063202
30
0
41
1
10
-36.5
20
-17.7052052466277
30
0
41
1
10
-36.5
20
-17.827069915531
30
0
41
1
10
-36.5
20
-17.9872703841193
30
0
41
1
10
-36.5
20
-18.1428562465544
30
0
41
1
10
-36.5
20
-18.2953166794047
30
0
41
1
10
-36.5
20
-18.4075180436267
30
0
41
1
10
-36.5
20
-18.5177535555592
30
0
41
1
10
-36.5
20
-18.6623326618876
30
0
41
1
10
-36.5
20
-18.8022222651529
30
0
41
1
10
-36.5
20
-18.9387686023437
30
0
41
1
10
-36.5
20
-19.0389739868785
30
0
41
1
10
-36.5
20
-19.1371342717784
30
0
41
1
10
-36.5
20
-19.2332339353276
30
0
41
1
10
-36.5
20
-19.3272562516113
30
0
41
1
10
-36.5
20
-19.4191882978898
30
0
41
1
10
-36.5
20
-19.5090135437133
30
0
41
1
10
-36.5
20
-19.5967148362678
30
0
41
1
10
-36.5
20
-19.6822775521962
30
0
41
1
10
-36.5
20
-19.7656833992675
30
0
41
1
10
-36.5
20
-19.8469141406672
30
0
41
1
10
-36.5
20
-19.9259535527381
30
0
41
1
10
-36.5
20
-20.0027815100322
30
0
41
1
10
-36.5
20
-20.1024193061391
30
0
41
1
10
-36.5
20
-20.1970436522849
30
0
41
1
10
-36.5
20
-20.287589681624
30
0
41
1
10
-36.5
20
-20.353062816238
30
0
41
1
10
-36.5
20
-20.4161996091986
30
0
41
1
10
-36.5
20
-20.4769783724375
30
0
41
1
10
-36.5
20
-20.5353747607017
30
0
41
1
10
-36.5
20
-20.6101652553123
30
0
41
1
10
-36.5
20
-20.6796864153796
30
0
41
1
10
-36.5
20
-20.7446292080422
30
0
41
1
10
-36.5
20
-20.7907268231738
30
0
41
1
10
-36.5
20
-20.8342802793506
30
0
41
1
10
-36.5
20
-20.8890285523336
30
0
41
1
10
-36.5
20
-20.9382580424269
30
0
41
1
10
-36.5
20
-20.9824409225429
30
0
41
1
10
-36.5
20
-21.0128017234864
30
0
41
1
10
-36.5
20
-21.0404207944711
30
0
41
1
10
-36.5
20
-21.0652596303332
30
0
41
1
10
-36.5
20
-21.0872797892674
30
0
41
1
10
-36.5
20
-21.1064402531507
30
0
41
1
10
-36.5
20
-21.1226986516191
30
0
41
1
10
-36.5
20
-21.1360112646484
30
0
41
1
10
-36.5
20
-21.1463317710584
30
0
41
1
10
-36.5
20
-21.1536128319466
30
0
41
1
10
-36.5
20
-21.1578041644649
30
0
41
1
10
-36.5
20
-21.1588543296933
30
0
41
1
10
-36.5
20
-21.1573189709812
30
0
41
1
10
-36.5
20
-21.1557860279496
30
0
41
1
10
-36.5
20
-21.1555781580345
30
0
0
SPLINE
5
15A
100
AcDbEntity
8
SK1
62
256
6
ByLayer
370
18
48
1
60
0
100
AcDbSpline
70
4
71
3
72
111
73
107
40
0
40
0
40
0
40
0
40
0.0023113641392943
40
0.0108556431406921
40
0.0193999221420899
40
0.0279442011434878
40
0.0364884801448856
40
0.0450327591462834
40
0.0535770381476812
40
0.062121317149079
40
0.0706655961504768
40
0.0792098751518746
40
0.0877541541532724
40
0.0962984331546703
40
0.113386991157466
40
0.130475549160261
40
0.147564107163057
40
0.156108386164455
40
0.164652665165853
40
0.173196944167251
40
0.181741223168648
40
0.190285502170046
40
0.198829781171444
40
0.207374060172842
40
0.21591833917424
40
0.233006897177035
40
0.241551176178433
40
0.250095455179831
40
0.258639734181229
40
0.267184013182627
40
0.275728292184024
40
0.284272571185422
40
0.29281685018682
40
0.301361129188218
40
0.309905408189616
40
0.318449687191013
40
0.326993966192411
40
0.335538245193809
40
0.352626803196605
40
0.361171082198002
40
0.3697153611994
40
0.386803919202196
40
0.395348198203594
40
0.403892477204992
40
0.412436756206389
40
0.420981035207787
40
0.438069593210583
40
0.446613872211981
40
0.455158151213378
40
0.463702430214776
40
0.472246709216174
40
0.48933526721897
40
0.497879546220368
40
0.506423825221765
40
0.514968104223163
40
0.523512383224561
40
0.540600941227357
40
0.549145220228754
40
0.557689499230152
40
0.56623377823155
40
0.574778057232948
40
0.591866615235743
40
0.600410894237141
40
0.608955173238539
40
0.617499452239937
40
0.626043731241335
40
0.64313228924413
40
0.651676568245528
40
0.660220847246926
40
0.668765126248324
40
0.677309405249722
40
0.685853684251119
40
0.694397963252517
40
0.702942242253915
40
0.711486521255313
40
0.720030800256711
40
0.728575079258108
40
0.737119358259506
40
0.745663637260904
40
0.754207916262302
40
0.7627521952637
40
0.779840753266495
40
0.788385032267893
40
0.796929311269291
40
0.805473590270689
40
0.814017869272087
40
0.822562148273484
40
0.831106427274882
40
0.848194985277678
40
0.856739264279076
40
0.865283543280473
40
0.873827822281871
40
0.882372101283269
40
0.899460659286065
40
0.908004938287462
40
0.91654921728886
40
0.925093496290258
40
0.933637775291656
40
0.942182054293054
40
0.950726333294452
40
0.959270612295849
40
0.967814891297247
40
0.976359170298645
40
0.984903449300043
40
0.993447728301441
40
1
40
1
40
1
40
1
41
1
10
-0.394976888875277
20
-6.32694279392976
30
0
41
1
10
-0.394976888875277
20
-6.3484916311391
30
0
41
1
10
-0.394976888875277
20
-6.44960775400912
30
0
41
1
10
-0.394976888875277
20
-6.62954555948869
30
0
41
1
10
-0.394976888875277
20
-6.8656950488801
30
0
41
1
10
-0.394976888875277
20
-7.10023740586411
30
0
41
1
10
-0.394976888875277
20
-7.33316546385933
30
0
41
1
10
-0.394976888875277
20
-7.56447269448574
30
0
41
1
10
-0.394976888875277
20
-7.79415340272945
30
0
41
1
10
-0.394976888875277
20
-8.02220293401996
30
0
41
1
10
-0.394976888875277
20
-8.24861635560848
30
0
41
1
10
-0.394976888875277
20
-8.47338951886385
30
0
41
1
10
-0.394976888875277
20
-8.69651811258549
30
0
41
1
10
-0.394976888875277
20
-8.99192948127941
30
0
41
1
10
-0.394976888875277
20
-9.35683912175983
30
0
41
1
10
-0.394976888875277
20
-9.78821091217483
30
0
41
1
10
-0.394976888875277
20
-10.142045462177
30
0
41
1
10
-0.394976888875277
20
-10.4219344727077
30
0
41
1
10
-0.394976888875277
20
-10.6301131683678
30
0
41
1
10
-0.394976888875277
20
-10.8366153667066
30
0
41
1
10
-0.394976888875277
20
-11.0414388905992
30
0
41
1
10
-0.394976888875277
20
-11.2445799004538
30
0
41
1
10
-0.394976888875277
20
-11.4460361162834
30
0
41
1
10
-0.394976888875277
20
-11.6458042976885
30
0
41
1
10
-0.394976888875277
20
-11.9099848253352
30
0
41
1
10
-0.394976888875277
20
-12.1705475695385
30
0
41
1
10
-0.394976888875277
20
-12.4279318067111
30
0
41
1
10
-0.394976888875277
20
-12.6192114874981
30
0
41
1
10
-0.394976888875277
20
-12.8087826250924
30
0
41
1
10
-0.394976888875277
20
-12.9966426041155
30
0
41
1
10
-0.394976888875277
20
-13.182787448996
30
0
41
1
10
-0.394976888875277
20
-13.3672125455487
30
0
41
1
10
-0.394976888875277
20
-13.5499151547097
30
0
41
1
10
-0.394976888875277
20
-13.7308904478326
30
0
41
1
10
-0.394976888875277
20
-13.910133867705
30
0
41
1
10
-0.394976888875277
20
-14.0876421688895
30
0
41
1
10
-0.394976888875277
20
-14.2634098807097
30
0
41
1
10
-0.394976888875277
20
-14.4955025482493
30
0
41
1
10
-0.394976888875277
20
-14.7239127068147
30
0
41
1
10
-0.394976888875277
20
-14.9489833053404
30
0
41
1
10
-0.394976888875277
20
-15.171701411915
30
0
41
1
10
-0.394976888875277
20
-15.3907043201103
30
0
41
1
10
-0.394976888875277
20
-15.6063159613101
30
0
41
1
10
-0.394976888875277
20
-15.7661946363952
30
0
41
1
10
-0.394976888875277
20
-15.9242799594928
30
0
41
1
10
-0.394976888875277
20
-16.1327154012234
30
0
41
1
10
-0.394976888875277
20
-16.3373780173449
30
0
41
1
10
-0.394976888875277
20
-16.5385587125243
30
0
41
1
10
-0.394976888875277
20
-16.6875782011067
30
0
41
1
10
-0.394976888875277
20
-16.8347642769002
30
0
41
1
10
-0.394976888875277
20
-17.0286080073569
30
0
41
1
10
-0.394976888875277
20
-17.2186059445175
30
0
41
1
10
-0.394976888875277
20
-17.4050188999402
30
0
41
1
10
-0.394976888875277
20
-17.5429190217058
30
0
41
1
10
-0.394976888875277
20
-17.6789377757623
30
0
41
1
10
-0.394976888875277
20
-17.8578220601067
30
0
41
1
10
-0.394976888875277
20
-18.0327708145484
30
0
41
1
10
-0.394976888875277
20
-18.2040166330947
30
0
41
1
10
-0.394976888875277
20
-18.3304892054167
30
0
41
1
10
-0.394976888875277
20
-18.4550234389153
30
0
41
1
10
-0.394976888875277
20
-18.6185132745736
30
0
41
1
10
-0.394976888875277
20
-18.7779598884918
30
0
41
1
10
-0.394976888875277
20
-18.933565131357
30
0
41
1
10
-0.394976888875277
20
-19.048244884465
30
0
41
1
10
-0.394976888875277
20
-19.1609196079758
30
0
41
1
10
-0.394976888875277
20
-19.3085018143331
30
0
41
1
10
-0.394976888875277
20
-19.4519098709686
30
0
41
1
10
-0.394976888875277
20
-19.5913159811741
30
0
41
1
10
-0.394976888875277
20
-19.6937719762305
30
0
41
1
10
-0.394976888875277
20
-19.7941438028822
30
0
41
1
10
-0.394976888875277
20
-19.8924174211231
30
0
41
1
10
-0.394976888875277
20
-19.988575861591
30
0
41
1
10
-0.394976888875277
20
-20.082604778142
30
0
41
1
10
-0.394976888875277
20
-20.1744885559187
30
0
41
1
10
-0.394976888875277
20
-20.264209431984
30
0
41
1
10
-0.394976888875277
20
-20.3517517880635
30
0
41
1
10
-0.394976888875277
20
-20.437098129367
30
0
41
1
10
-0.394976888875277
20
-20.5202292348052
30
0
41
1
10
-0.394976888875277
20
-20.6011280559991
30
0
41
1
10
-0.394976888875277
20
-20.6797749513881
30
0
41
1
10
-0.394976888875277
20
-20.781635486227
30
0
41
1
10
-0.394976888875277
20
-20.8788308931333
30
0
41
1
10
-0.394976888875277
20
-20.9714365096391
30
0
41
1
10
-0.394976888875277
20
-21.0385142950144
30
0
41
1
10
-0.394976888875277
20
-21.1032108820957
30
0
41
1
10
-0.394976888875277
20
-21.1655031751743
30
0
41
1
10
-0.394976888875277
20
-21.2253665102307
30
0
41
1
10
-0.394976888875277
20
-21.301932078811
30
0
41
1
10
-0.394976888875277
20
-21.3734709318986
30
0
41
1
10
-0.394976888875277
20
-21.4399968999807
30
0
41
1
10
-0.394976888875277
20
-21.4873093096751
30
0
41
1
10
-0.394976888875277
20
-21.5320229383892
30
0
41
1
10
-0.394976888875277
20
-21.5881524005931
30
0
41
1
10
-0.394976888875277
20
-21.6389063892513
30
0
41
1
10
-0.394976888875277
20
-21.6842420425293
30
0
41
1
10
-0.394976888875277
20
-21.7154617242468
30
0
41
1
10
-0.394976888875277
20
-21.7438726893518
30
0
41
1
10
-0.394976888875277
20
-21.7694337460976
30
0
41
1
10
-0.394976888875277
20
-21.7921034780961
30
0
41
1
10
-0.394976888875277
20
-21.8118377637545
30
0
41
1
10
-0.394976888875277
20
-21.8285907189997
30
0
41
1
10
-0.394976888875277
20
-21.8423149132633
30
0
41
1
10
-0.394976888875277
20
-21.8529599173647
30
0
41
1
10
-0.394976888875277
20
-21.8604739519412
30
0
41
1
10
-0.394976888875249
20
-21.8644655199238
30
0
41
1
10
-0.394976888875277
20
-21.8653271916469
30
0
41
1
10
-0.394976888875249
20
-21.8653787940692
30
0
0
SPLINE
5
15B
100
AcDbEntity
8
SK1
62
256
6
ByLayer
370
18
48
1
60
0
100
AcDbSpline
70
4
71
3
72
115
73
111
40
0
40
0
40
0
40
0
40
0.0065652287864338
40
0.0151093964338518
40
0.0236535640812699
40
0.0321977317286879
40
0.040741899376106
40
0.049286067023524
40
0.057830234670942
40
0.0663744023183601
40
0.0834627376131962
40
0.100551072908032
40
0.117639408202868
40
0.126183575850286
40
0.134727743497705
40
0.143271911145123
40
0.151816078792541
40
0.168904414087377
40
0.177448581734795
40
0.185992749382213
40
0.194536917029631
40
0.203081084677049
40
0.211625252324467
40
0.220169419971885
40
0.237257755266721
40
0.245801922914139
40
0.254346090561557
40
0.262890258208975
40
0.271434425856393
40
0.279978593503811
40
0.288522761151229
40
0.297066928798647
40
0.305611096446065
40
0.314155264093483
40
0.322699431740901
40
0.33124359938832
40
0.339787767035738
40
0.348331934683156
40
0.356876102330574
40
0.37396443762541
40
0.382508605272828
40
0.391052772920246
40
0.395324856743955
40
0.399596940567664
40
0.408141108215082
40
0.425229443509918
40
0.433773611157336
40
0.442317778804754
40
0.450861946452172
40
0.45940611409959
40
0.476494449394426
40
0.485038617041844
40
0.493582784689263
40
0.497854868512972
40
0.502126952336681
40
0.510671119984099
40
0.527759455278935
40
0.536303622926353
40
0.544847790573771
40
0.553391958221189
40
0.561936125868607
40
0.579024461163443
40
0.587568628810861
40
0.596112796458279
40
0.600384880281988
40
0.604656964105697
40
0.613201131753115
40
0.621745299400533
40
0.630289467047951
40
0.63456155087166
40
0.638833634695369
40
0.647377802342787
40
0.655921969990205
40
0.664466137637624
40
0.673010305285041
40
0.68155447293246
40
0.690098640579878
40
0.698642808227296
40
0.707186975874714
40
0.715731143522132
40
0.72427531116955
40
0.732819478816968
40
0.741363646464386
40
0.749907814111804
40
0.758451981759222
40
0.76699614940664
40
0.784084484701476
40
0.792628652348894
40
0.801172819996312
40
0.80971698764373
40
0.818261155291148
40
0.826805322938566
40
0.835349490585985
40
0.843893658233402
40
0.852437825880821
40
0.869526161175657
40
0.886614496470493
40
0.903702831765329
40
0.912246999412747
40
0.920791167060165
40
0.929335334707583
40
0.937879502355001
40
0.946423670002419
40
0.954967837649837
40
0.963512005297255
40
0.972056172944673
40
0.980600340592091
40
0.989144508239509
40
0.997688675886927
40
1
40
1
40
1
40
1
41
1
10
-0.394976888875277
20
21.8653790909359
30
0
41
1
10
-0.394976888875277
20
21.8653285682849
30
0
41
1
10
-0.394976888875277
20
21.8644673837547
30
0
41
1
10
-0.394976888875277
20
21.8604737650697
30
0
41
1
10
-0.394976888875277
20
21.8529598769268
30
0
41
1
10
-0.394976888875277
20
21.8423149188875
30
0
41
1
10
-0.394976888875277
20
21.8285907137819
30
0
41
1
10
-0.394976888875277
20
21.8118377229246
30
0
41
1
10
-0.394976888875277
20
21.7921034347989
30
0
41
1
10
-0.394976888875277
20
21.7618666429643
30
0
41
1
10
-0.394976888875277
20
21.7168668922192
30
0
41
1
10
-0.394976888875277
20
21.651618462036
30
0
41
1
10
-0.394976888875277
20
21.5881524120742
30
0
41
1
10
-0.394976888875277
20
21.5320229149808
30
0
41
1
10
-0.394976888875277
20
21.4873092663299
30
0
41
1
10
-0.394976888875277
20
21.4399968711307
30
0
41
1
10
-0.394976888875277
20
21.3734709387681
30
0
41
1
10
-0.394976888875277
20
21.3019320664004
30
0
41
1
10
-0.394976888875277
20
21.2253664719936
30
0
41
1
10
-0.394976888875277
20
21.1655031445011
30
0
41
1
10
-0.394976888875277
20
21.1032108723211
30
0
41
1
10
-0.394976888875277
20
21.038514297088
30
0
41
1
10
-0.394976888875277
20
20.9714364994015
30
0
41
1
10
-0.394976888875277
20
20.8788308563806
30
0
41
1
10
-0.394976888875277
20
20.7816354627076
30
0
41
1
10
-0.394976888875277
20
20.6797749496461
30
0
41
1
10
-0.394976888875277
20
20.6011280536546
30
0
41
1
10
-0.394976888875277
20
20.5202292190253
30
0
41
1
10
-0.394976888875277
20
20.4370981008412
30
0
41
1
10
-0.394976888875277
20
20.3517517634561
30
0
41
1
10
-0.394976888875277
20
20.2642094206366
30
0
41
1
10
-0.394976888875277
20
20.1744885542463
30
0
41
1
10
-0.394976888875277
20
20.082604770276
30
0
41
1
10
-0.394976888875277
20
19.9885758834751
30
0
41
1
10
-0.394976888875277
20
19.8924175863555
30
0
41
1
10
-0.394976888875277
20
19.79414426657
30
0
41
1
10
-0.394976888875277
20
19.6937723311917
30
0
41
1
10
-0.394976888875277
20
19.5913158900225
30
0
41
1
10
-0.394976888875277
20
19.4519091739392
30
0
41
1
10
-0.394976888875277
20
19.308501644014
30
0
41
1
10
-0.394976888875277
20
19.160920630363
30
0
41
1
10
-0.394976888875277
20
19.0670441229991
30
0
41
1
10
-0.394976888875277
20
18.9909051568102
30
0
41
1
10
-0.394976888875277
20
18.9140993494365
30
0
41
1
10
-0.394976888875277
20
18.777958735224
30
0
41
1
10
-0.394976888875277
20
18.6185131846482
30
0
41
1
10
-0.394976888875277
20
18.4550236113311
30
0
41
1
10
-0.394976888875277
20
18.330489335967
30
0
41
1
10
-0.394976888875277
20
18.2040166079408
30
0
41
1
10
-0.394976888875277
20
18.0327705937831
30
0
41
1
10
-0.394976888875277
20
17.8578219077773
30
0
41
1
10
-0.394976888875277
20
17.6789387292296
30
0
41
1
10
-0.394976888875277
20
17.5656125946474
30
0
41
1
10
-0.394976888875277
20
17.4739690253912
30
0
41
1
10
-0.394976888875277
20
17.3816993239948
30
0
41
1
10
-0.394976888875277
20
17.2186048360495
30
0
41
1
10
-0.394976888875277
20
17.0286078387926
30
0
41
1
10
-0.394976888875277
20
16.8347647509306
30
0
41
1
10
-0.394976888875277
20
16.6875786248762
30
0
41
1
10
-0.394976888875277
20
16.5385587049943
30
0
41
1
10
-0.394976888875277
20
16.3373774066279
30
0
41
1
10
-0.394976888875277
20
16.1327150774874
30
0
41
1
10
-0.394976888875277
20
15.9242804112408
30
0
41
1
10
-0.394976888875277
20
15.7925696820839
30
0
41
1
10
-0.394976888875277
20
15.6862549949744
30
0
41
1
10
-0.394976888875277
20
15.5793432837569
30
0
41
1
10
-0.394976888875277
20
15.4446487492657
30
0
41
1
10
-0.394976888875277
20
15.2812010193763
30
0
41
1
10
-0.394976888875277
20
15.1435436982815
30
0
41
1
10
-0.394976888875277
20
15.0324801920763
30
0
41
1
10
-0.394976888875277
20
14.9208273816877
30
0
41
1
10
-0.394976888875277
20
14.7802248596231
30
0
41
1
10
-0.394976888875277
20
14.6097059483473
30
0
41
1
10
-0.394976888875277
20
14.4374320816019
30
0
41
1
10
-0.394976888875277
20
14.2634095816694
30
0
41
1
10
-0.394976888875277
20
14.0876420714538
30
0
41
1
10
-0.394976888875277
20
13.9101338497815
30
0
41
1
10
-0.394976888875277
20
13.7308904366346
30
0
41
1
10
-0.394976888875277
20
13.549915145406
30
0
41
1
10
-0.394976888875277
20
13.3672125481811
30
0
41
1
10
-0.394976888875277
20
13.182787463215
30
0
41
1
10
-0.394976888875277
20
12.9966426140257
30
0
41
1
10
-0.394976888875277
20
12.8087826212334
30
0
41
1
10
-0.394976888875277
20
12.6192114742801
30
0
41
1
10
-0.394976888875277
20
12.4279318017785
30
0
41
1
10
-0.394976888875277
20
12.1705475891153
30
0
41
1
10
-0.394976888875277
20
11.9099848332047
30
0
41
1
10
-0.394976888875277
20
11.6458042855523
30
0
41
1
10
-0.394976888875277
20
11.4460361066677
30
0
41
1
10
-0.394976888875277
20
11.2445799083311
30
0
41
1
10
-0.394976888875277
20
11.0414389105764
30
0
41
1
10
-0.394976888875277
20
10.8366153761928
30
0
41
1
10
-0.394976888875277
20
10.630113157504
30
0
41
1
10
-0.394976888875277
20
10.4219344610486
30
0
41
1
10
-0.394976888875277
20
10.1420454829465
30
0
41
1
10
-0.394976888875277
20
9.78821091215369
30
0
41
1
10
-0.394976888875277
20
9.3568391135907
30
0
41
1
10
-0.394976888875277
20
8.99192950801697
30
0
41
1
10
-0.394976888875277
20
8.69651812098675
30
0
41
1
10
-0.394976888875277
20
8.47338949471808
30
0
41
1
10
-0.394976888875277
20
8.24861627222975
30
0
41
1
10
-0.394976888875277
20
8.0222029406992
30
0
41
1
10
-0.394976888875277
20
7.79415362199521
30
0
41
1
10
-0.394976888875277
20
7.56447255210355
30
0
41
1
10
-0.394976888875277
20
7.33316516004027
30
0
41
1
10
-0.394976888875277
20
7.10023725398264
30
0
41
1
10
-0.394976888875277
20
6.86569504295815
30
0
41
1
10
-0.394976888875277
20
6.62954558311137
30
0
41
1
10
-0.394976888875277
20
6.44960786563362
30
0
41
1
10
-0.394976888875277
20
6.34849183540922
30
0
41
1
10
-0.394976888875277
20
6.32694309067119
30
0
0
SPLINE
5
15C
100
AcDbEntity
8
SK1
62
256
6
ByLayer
370
18
48
1
60
0
100
AcDbSpline
70
4
71
3
72
299
73
295
40
0
40
0
40
0
40
0
40
0.0029476568722173
40
0.0064727286914932
40
0.0099978005107691
40
0.013522872330045
40
0.0170479441493208
40
0.0205730159685967
40
0.0240980877878726
40
0.0276231596071485
40
0.0346733032457002
40
0.0417234468842519
40
0.0487735905228036
40
0.0522986623420795
40
0.0558237341613554
40
0.0593488059806313
40
0.0628738777999071
40
0.0699240214384589
40
0.0734490932577348
40
0.0769741650770106
40
0.0804992368962864
40
0.0840243087155623
40
0.0875493805348382
40
0.0910744523541141
40
0.0981245959926658
40
0.101649667811942
40
0.105174739631218
40
0.108699811450493
40
0.112224883269769
40
0.115749955089045
40
0.119275026908321
40
0.122800098727597
40
0.126325170546873
40
0.129850242366149
40
0.133375314185425
40
0.1369003860047
40
0.140425457823976
40
0.143950529643252
40
0.147475601462528
40
0.15452574510108
40
0.158050816920356
40
0.161575888739631
40
0.163338424649269
40
0.165100960558907
40
0.168626032378183
40
0.175676176016735
40
0.179201247836011
40
0.182726319655287
40
0.186251391474563
40
0.189776463293838
40
0.19682660693239
40
0.200351678751666
40
0.203876750570942
40
0.20563928648058
40
0.207401822390218
40
0.210926894209494
40
0.217977037848045
40
0.221502109667321
40
0.225027181486597
40
0.228552253305873
40
0.232077325125149
40
0.239127468763701
40
0.242652540582977
40
0.246177612402252
40
0.24794014831189
40
0.249702684221528
40
0.253227756040804
40
0.25675282786008
40
0.260277899679356
40
0.262040435588994
40
0.263802971498632
40
0.267328043317907
40
0.270853115137184
40
0.274378186956459
40
0.277903258775735
40
0.281428330595011
40
0.284953402414287
40
0.288478474233563
40
0.292003546052839
40
0.295528617872114
40
0.29905368969139
40
0.302578761510666
40
0.306103833329942
40
0.309628905149218
40
0.313153976968494
40
0.31667904878777
40
0.323729192426321
40
0.327254264245597
40
0.330779336064873
40
0.334304407884149
40
0.337829479703425
40
0.341354551522701
40
0.344879623341977
40
0.348404695161253
40
0.351929766980528
40
0.35897991061908
40
0.366030054257632
40
0.373080197896184
40
0.376605269715459
40
0.380130341534735
40
0.383655413354011
40
0.387180485173287
40
0.390705556992563
40
0.394230628811839
40
0.397755700631115
40
0.401280772450391
40
0.404805844269666
40
0.408330916088942
40
0.411855987908218
40
0.415381059727494
40
0.41890613154677
40
0.422431203366046
40
0.425956275185322
40
0.429481347004598
40
0.433006418823873
40
0.434768954733511
40
0.436531490643149
40
0.438294026552787
40
0.440056562462425
40
0.443581634281701
40
0.447106706100977
40
0.448869242010615
40
0.450631777920253
40
0.452394313829891
40
0.454156849739529
40
0.457681921558804
40
0.459444457468442
40
0.46120699337808
40
0.462969529287718
40
0.464732065197356
40
0.466494601106994
40
0.468257137016632
40
0.47001967292627
40
0.471782208835908
40
0.473544744745546
40
0.475307280655184
40
0.477069816564822
40
0.47883235247446
40
0.480594888384098
40
0.482357424293736
40
0.484119960203374
40
0.485882496113011
40
0.487645032022649
40
0.489407567932287
40
0.491170103841925
40
0.492932639751563
40
0.494695175661201
40
0.496457711570839
40
0.498220247480477
40
0.499982783390115
40
0.501745319299753
40
0.503507855209391
40
0.505270391119029
40
0.507032927028667
40
0.508795462938305
40
0.510557998847942
40
0.51232053475758
40
0.514083070667218
40
0.515845606576856
40
0.517608142486494
40
0.519370678396132
40
0.52113321430577
40
0.522895750215408
40
0.524658286125046
40
0.526420822034684
40
0.528183357944322
40
0.52994589385396
40
0.531708429763598
40
0.533470965673236
40
0.535233501582874
40
0.536996037492512
40
0.538758573402149
40
0.540521109311788
40
0.542283645221425
40
0.545808717040701
40
0.547571252950339
40
0.549333788859977
40
0.551096324769615
40
0.552858860679253
40
0.556383932498529
40
0.559909004317805
40
0.561671540227443
40
0.563434076137081
40
0.565196612046718
40
0.566959147956356
40
0.570484219775632
40
0.574009291594908
40
0.577534363414184
40
0.58105943523346
40
0.584584507052736
40
0.588109578872012
40
0.591634650691287
40
0.595159722510563
40
0.598684794329839
40
0.602209866149115
40
0.605734937968391
40
0.609260009787667
40
0.612785081606943
40
0.616310153426219
40
0.619835225245494
40
0.62336029706477
40
0.626885368884046
40
0.633935512522598
40
0.64098565616115
40
0.648035799799701
40
0.651560871618977
40
0.655085943438253
40
0.658611015257529
40
0.662136087076805
40
0.665661158896081
40
0.669186230715357
40
0.672711302534632
40
0.676236374353908
40
0.68328651799246
40
0.686811589811736
40
0.690336661631012
40
0.693861733450288
40
0.697386805269563
40
0.70091187708884
40
0.704436948908115
40
0.707962020727391
40
0.711487092546667
40
0.715012164365943
40
0.718537236185219
40
0.722062308004495
40
0.72558737982377
40
0.732637523462322
40
0.736162595281598
40
0.739687667100874
40
0.746737810739426
40
0.750262882558702
40
0.753787954377977
40
0.757313026197253
40
0.760838098016529
40
0.767888241655081
40
0.771413313474357
40
0.774938385293633
40
0.778463457112909
40
0.781988528932185
40
0.789038672570736
40
0.792563744390012
40
0.796088816209288
40
0.799613888028564
40
0.80313895984784
40
0.810189103486391
40
0.813714175305667
40
0.817239247124943
40
0.820764318944219
40
0.824289390763495
40
0.831339534402047
40
0.834864606221323
40
0.838389678040598
40
0.841914749859874
40
0.84543982167915
40
0.852489965317702
40
0.856015037136978
40
0.859540108956254
40
0.86306518077553
40
0.866590252594805
40
0.870115324414081
40
0.873640396233357
40
0.877165468052633
40
0.880690539871909
40
0.884215611691185
40
0.88774068351046
40
0.891265755329737
40
0.894790827149012
40
0.898315898968288
40
0.901840970787564
40
0.908891114426116
40
0.912416186245391
40
0.915941258064668
40
0.919466329883943
40
0.922991401703219
40
0.926516473522495
40
0.930041545341771
40
0.937091688980323
40
0.940616760799598
40
0.944141832618874
40
0.94766690443815
40
0.951191976257426
40
0.958242119895978
40
0.961767191715254
40
0.96529226353453
40
0.968817335353806
40
0.972342407173081
40
0.975867478992357
40
0.979392550811633
40
0.982917622630909
40
0.986442694450185
40
0.989967766269461
40
0.993492838088737
40
0.997017909908012
40
1
40
1
40
1
40
1
41
1
10
-38
20
20.2923486476266
30
0
41
1
10
-38
20
20.2923550387491
30
0
41
1
10
-38
20
20.2915869566901
30
0
41
1
10
-38
20
20.2877827415225
30
0
41
1
10
-38
20
20.2807871950942
30
0
41
1
10
-38
20
20.270864225278
30
0
41
1
10
-38
20
20.2580557575388
30
0
41
1
10
-38
20
20.2424031034125
30
0
41
1
10
-38
20
20.2239454925533
30
0
41
1
10
-38
20
20.19551262204
30
0
41
1
10
-38
20
20.153458157969
30
0
41
1
10
-38
20
20.0921783324266
30
0
41
1
10
-38
20
20.0326760120608
30
0
41
1
10
-38
20
19.9796195423852
30
0
41
1
10
-38
20
19.9374871337363
30
0
41
1
10
-38
20
19.8928775037255
30
0
41
1
10
-38
20
19.8298739849263
30
0
41
1
10
-38
20
19.7628242930463
30
0
41
1
10
-38
20
19.6902080345968
30
0
41
1
10
-38
20
19.6336084813315
30
0
41
1
10
-38
20
19.5746836513967
30
0
41
1
10
-38
20
19.5134574775013
30
0
41
1
10
-38
20
19.4499498796239
30
0
41
1
10
-38
20
19.361926580552
30
0
41
1
10
-38
20
19.2704514952516
30
0
41
1
10
-38
20
19.1735363516591
30
0
41
1
10
-38
20
19.0989364266239
30
0
41
1
10
-38
20
19.0221745884206
30
0
41
1
10
-38
20
18.9432715601189
30
0
41
1
10
-38
20
18.8622425921487
30
0
41
1
10
-38
20
18.7791047356355
30
0
41
1
10
-38
20
18.6938772447032
30
0
41
1
10
-38
20
18.6065734364562
30
0
41
1
10
-38
20
18.5172096781029
30
0
41
1
10
-38
20
18.4258037757915
30
0
41
1
10
-38
20
18.3323676597213
30
0
41
1
10
-38
20
18.236917040573
30
0
41
1
10
-38
20
18.1394682315479
30
0
41
1
10
-38
20
18.006423045464
30
0
41
1
10
-38
20
17.870842154793
30
0
41
1
10
-38
20
17.7299440627733
30
0
41
1
10
-38
20
17.6408187485726
30
0
41
1
10
-38
20
17.5681131617785
30
0
41
1
10
-38
20
17.4947669133713
30
0
41
1
10
-38
20
17.3649201654158
30
0
41
1
10
-38
20
17.2140632768009
30
0
41
1
10
-38
20
17.0578935907134
30
0
41
1
10
-38
20
16.9392992293059
30
0
41
1
10
-38
20
16.8188549914818
30
0
41
1
10
-38
20
16.6552510003021
30
0
41
1
10
-38
20
16.489672496603
30
0
41
1
10
-38
20
16.3187666825072
30
0
41
1
10
-38
20
16.2111031772939
30
0
41
1
10
-38
20
16.1235473577608
30
0
41
1
10
-38
20
16.0353949417433
30
0
41
1
10
-38
20
15.8797855584285
30
0
41
1
10
-38
20
15.6999813794666
30
0
41
1
10
-38
20
15.5148116907138
30
0
41
1
10
-38
20
15.3746600384839
30
0
41
1
10
-38
20
15.2327750536327
30
0
41
1
10
-38
20
15.0406360987563
30
0
41
1
10
-38
20
14.8470518249568
30
0
41
1
10
-38
20
14.6480433816337
30
0
41
1
10
-38
20
14.5230237603812
30
0
41
1
10
-38
20
14.4215395322791
30
0
41
1
10
-38
20
14.319494446119
30
0
41
1
10
-38
20
14.1916826014269
30
0
41
1
10
-38
20
14.0362107113462
30
0
41
1
10
-38
20
13.905633632864
30
0
41
1
10
-38
20
13.7996824703933
30
0
41
1
10
-38
20
13.6931799140641
30
0
41
1
10
-38
20
13.5598675642285
30
0
41
1
10
-38
20
13.3977994204325
30
0
41
1
10
-38
20
13.2340971553998
30
0
41
1
10
-38
20
13.0687736820565
30
0
41
1
10
-38
20
12.9018380893652
30
0
41
1
10
-38
20
12.7332922951509
30
0
41
1
10
-38
20
12.5631480531082
30
0
41
1
10
-38
20
12.3914123687224
30
0
41
1
10
-38
20
12.2180896154105
30
0
41
1
10
-38
20
12.0431930727568
30
0
41
1
10
-38
20
11.8667275879997
30
0
41
1
10
-38
20
11.6886992220563
30
0
41
1
10
-38
20
11.5091211559413
30
0
41
1
10
-38
20
11.3279971676986
30
0
41
1
10
-38
20
11.0835274575533
30
0
41
1
10
-38
20
10.8388445996823
30
0
41
1
10
-38
20
10.5882272221232
30
0
41
1
10
-38
20
10.3995106478125
30
0
41
1
10
-38
20
10.2093006505112
30
0
41
1
10
-38
20
10.0176111741013
30
0
41
1
10
-38
20
9.82444825814403
30
0
41
1
10
-38
20
9.62982433363783
30
0
41
1
10
-38
20
9.43375032895256
30
0
41
1
10
-38
20
9.16930024978848
30
0
41
1
10
-38
20
8.83774034996793
30
0
41
1
10
-38
20
8.43283016067576
30
0
41
1
10
-38
20
8.09202302704495
30
0
41
1
10
-38
20
7.81440668711983
30
0
41
1
10
-38
20
7.60585888080689
30
0
41
1
10
-38
20
7.39600299493051
30
0
41
1
10
-38
20
7.18486050853949
30
0
41
1
10
-38
20
6.972454820743
30
0
41
1
10
-38
20
6.75880464755275
30
0
41
1
10
-38
20
6.54393387937549
30
0
41
1
10
-38
20
6.32787102064523
30
0
41
1
10
-38
20
6.11064460524281
30
0
41
1
10
-38
20
5.89228682406826
30
0
41
1
10
-38
20
5.67283049766701
30
0
41
1
10
-38
20
5.45231041402207
30
0
41
1
10
-38
20
5.2307661198837
30
0
41
1
10
-38
20
5.00824236668089
30
0
41
1
10
-38
20
4.78478453894905
30
0
41
1
10
-38
20
4.56044477194348
30
0
41
1
10
-38
20
4.3737593142329
30
0
41
1
10
-38
20
4.22222174308931
30
0
41
1
10
-38
20
4.10916467830541
30
0
41
1
10
-38
20
3.99593123757288
30
0
41
1
10
-38
20
3.84368490764803
30
0
41
1
10
-38
20
3.65544484289478
30
0
41
1
10
-38
20
3.46668355973628
30
0
41
1
10
-38
20
3.31336520651504
30
0
41
1
10
-38
20
3.19916977025284
30
0
41
1
10
-38
20
3.0848771849204
30
0
41
1
10
-38
20
2.93116533478539
30
0
41
1
10
-38
20
2.7810630459212
30
0
41
1
10
-38
20
2.62697343511894
30
0
41
1
10
-38
20
2.51237687493429
30
0
41
1
10
-38
20
2.39774974487253
30
0
41
1
10
-38
20
2.28311555219403
30
0
41
1
10
-38
20
2.16847618976473
30
0
41
1
10
-38
20
2.05384840107453
30
0
41
1
10
-38
20
1.93924458170406
30
0
41
1
10
-38
20
1.82466899171223
30
0
41
1
10
-38
20
1.71014121398446
30
0
41
1
10
-38
20
1.59566009898879
30
0
41
1
10
-38
20
1.48124309885608
30
0
41
1
10
-38
20
1.36688883878045
30
0
41
1
10
-38
20
1.25260906632701
30
0
41
1
10
-38
20
1.13840321986405
30
0
41
1
10
-38
20
1.02427614220741
30
0
41
1
10
-38
20
0.910225811803912
30
0
41
1
10
-38
20
0.796251800903974
30
0
41
1
10
-38
20
0.682349388495624
30
0
41
1
10
-38
20
0.568513483413511
30
0
41
1
10
-38
20
0.454735475948979
30
0
41
1
10
-38
20
0.341006791030111
30
0
41
1
10
-38
20
0.227315919379521
30
0
41
1
10
-38
20
0.113651444289076
30
0
41
1
10
-38
20
2.39307099E-08
30
0
41
1
10
-38
20
-0.113651428861147
30
0
41
1
10
-38
20
-0.227315965161807
30
0
41
1
10
-38
20
-0.341006831114754
30
0
41
1
10
-38
20
-0.454735424962735
30
0
41
1
10
-38
20
-0.568513412391525
30
0
41
1
10
-38
20
-0.682349437337052
30
0
41
1
10
-38
20
-0.796251898049235
30
0
41
1
10
-38
20
-0.910225765592202
30
0
41
1
10
-38
20
-1.02427601417025
30
0
41
1
10
-38
20
-1.13840324907633
30
0
41
1
10
-38
20
-1.25260921865757
30
0
41
1
10
-38
20
-1.36688883944314
30
0
41
1
10
-38
20
-1.48124293103632
30
0
41
1
10
-38
20
-1.59566004663384
30
0
41
1
10
-38
20
-1.71014137238996
30
0
41
1
10
-38
20
-1.82466911261432
30
0
41
1
10
-38
20
-1.93924446866484
30
0
41
1
10
-38
20
-2.05384821372689
30
0
41
1
10
-38
20
-2.16847621903287
30
0
41
1
10
-38
20
-2.28311576323418
30
0
41
1
10
-38
20
-2.39774983280105
30
0
41
1
10
-38
20
-2.51237672316307
30
0
41
1
10
-38
20
-2.62697323991799
30
0
41
1
10
-38
20
-2.78106315146928
30
0
41
1
10
-38
20
-2.93116552693385
30
0
41
1
10
-38
20
-3.08487708212581
30
0
41
1
10
-38
20
-3.19916954549007
30
0
41
1
10
-38
20
-3.31336512600546
30
0
41
1
10
-38
20
-3.46668375918677
30
0
41
1
10
-38
20
-3.65544489425085
30
0
41
1
10
-38
20
-3.84368470208372
30
0
41
1
10
-38
20
-3.99593117493791
30
0
41
1
10
-38
20
-4.10916481607396
30
0
41
1
10
-38
20
-4.22222196867938
30
0
41
1
10
-38
20
-4.37375933349006
30
0
41
1
10
-38
20
-4.56044458630845
30
0
41
1
10
-38
20
-4.78478457648492
30
0
41
1
10
-38
20
-5.00824253816086
30
0
41
1
10
-38
20
-5.23076600439052
30
0
41
1
10
-38
20
-5.45231022599046
30
0
41
1
10
-38
20
-5.67283041504652
30
0
41
1
10
-38
20
-5.89228674128222
30
0
41
1
10
-38
20
-6.11064496108523
30
0
41
1
10
-38
20
-6.32787239667013
30
0
41
1
10
-38
20
-6.54393525610644
30
0
41
1
10
-38
20
-6.75880334040127
30
0
41
1
10
-38
20
-6.97245311766207
30
0
41
1
10
-38
20
-7.18486111103374
30
0
41
1
10
-38
20
-7.39600347561742
30
0
41
1
10
-38
20
-7.60585874971361
30
0
41
1
10
-38
20
-7.8144064520111
30
0
41
1
10
-38
20
-8.09202295752311
30
0
41
1
10
-38
20
-8.43283023540656
30
0
41
1
10
-38
20
-8.83774029355055
30
0
41
1
10
-38
20
-9.16930023887323
30
0
41
1
10
-38
20
-9.43375044009511
30
0
41
1
10
-38
20
-9.62982432960192
30
0
41
1
10
-38
20
-9.82444814962994
30
0
41
1
10
-38
20
-10.0176111126089
30
0
41
1
10
-38
20
-10.2093007057547
30
0
41
1
10
-38
20
-10.3995107409486
30
0
41
1
10
-38
20
-10.5882272324294
30
0
41
1
10
-38
20
-10.8388445170812
30
0
41
1
10
-38
20
-11.0835274377931
30
0
41
1
10
-38
20
-11.327997250045
30
0
41
1
10
-38
20
-11.5091211965041
30
0
41
1
10
-38
20
-11.6886991809046
30
0
41
1
10
-38
20
-11.8667275177687
30
0
41
1
10
-38
20
-12.0431930522803
30
0
41
1
10
-38
20
-12.2180896645831
30
0
41
1
10
-38
20
-12.3914124247035
30
0
41
1
10
-38
20
-12.5631480735019
30
0
41
1
10
-38
20
-12.7332924196477
30
0
41
1
10
-38
20
-12.9018387248249
30
0
41
1
10
-38
20
-13.068774902876
30
0
41
1
10
-38
20
-13.2899980003418
30
0
41
1
10
-38
20
-13.5056406071554
30
0
41
1
10
-38
20
-13.7202970548285
30
0
41
1
10
-38
20
-13.9327572918622
30
0
41
1
10
-38
20
-14.1397069500695
30
0
41
1
10
-38
20
-14.3454836148157
30
0
41
1
10
-38
20
-14.4976048095277
30
0
41
1
10
-38
20
-14.6480433741443
30
0
41
1
10
-38
20
-14.8470538575164
30
0
41
1
10
-38
20
-15.0406366439893
30
0
41
1
10
-38
20
-15.2327734637881
30
0
41
1
10
-38
20
-15.3746583733236
30
0
41
1
10
-38
20
-15.5148115582755
30
0
41
1
10
-38
20
-15.6999837411247
30
0
41
1
10
-38
20
-15.8797870255403
30
0
41
1
10
-38
20
-16.0578801048401
30
0
41
1
10
-38
20
-16.189216581434
30
0
41
1
10
-38
20
-16.3187661779867
30
0
41
1
10
-38
20
-16.4896741385663
30
0
41
1
10
-38
20
-16.6552512602625
30
0
41
1
10
-38
20
-16.8188545807649
30
0
41
1
10
-38
20
-16.9392987318018
30
0
41
1
10
-38
20
-17.0578934672827
30
0
41
1
10
-38
20
-17.2140648101705
30
0
41
1
10
-38
20
-17.3649216616153
30
0
41
1
10
-38
20
-17.513530035822
30
0
41
1
10
-38
20
-17.6226956365842
30
0
41
1
10
-38
20
-17.7299433731025
30
0
41
1
10
-38
20
-17.8708440004863
30
0
41
1
10
-38
20
-18.0064238716364
30
0
41
1
10
-38
20
-18.1394672902698
30
0
41
1
10
-38
20
-18.236915915677
30
0
41
1
10
-38
20
-18.3323672965474
30
0
41
1
10
-38
20
-18.4258040962282
30
0
41
1
10
-38
20
-18.517209887002
30
0
41
1
10
-38
20
-18.6065734896479
30
0
41
1
10
-38
20
-18.6938772522127
30
0
41
1
10
-38
20
-18.7791047692188
30
0
41
1
10
-38
20
-18.8622426359768
30
0
41
1
10
-38
20
-18.9432715834756
30
0
41
1
10
-38
20
-19.0221745805325
30
0
41
1
10
-38
20
-19.0989364136873
30
0
41
1
10
-38
20
-19.1735363647814
30
0
41
1
10
-38
20
-19.2704515417461
30
0
41
1
10
-38
20
-19.3619266112172
30
0
41
1
10
-38
20
-19.4499498647732
30
0
41
1
10
-38
20
-19.5134574724377
30
0
41
1
10
-38
20
-19.5746836830748
30
0
41
1
10
-38
20
-19.6336085328263
30
0
41
1
10
-38
20
-19.6902080668946
30
0
41
1
10
-38
20
-19.7628242842049
30
0
41
1
10
-38
20
-19.829873984374
30
0
41
1
10
-38
20
-19.8928775551026
30
0
41
1
10
-38
20
-19.9374871757691
30
0
41
1
10
-38
20
-19.9796195436673
30
0
41
1
10
-38
20
-20.0326760063813
30
0
41
1
10
-38
20
-20.0800381474625
30
0
41
1
10
-38
20
-20.1228090027496
30
0
41
1
10
-38
20
-20.1521177658612
30
0
41
1
10
-38
20
-20.1787668505585
30
0
41
1
10
-38
20
-20.2027210424566
30
0
41
1
10
-38
20
-20.2239455432986
30
0
41
1
10
-38
20
-20.2424031363825
30
0
41
1
10
-38
20
-20.2580557552655
30
0
41
1
10
-38
20
-20.2708642249464
30
0
41
1
10
-38
20
-20.2807872561095
30
0
41
1
10
-38
20
-20.2877829489451
30
0
41
1
10
-38
20
-20.2916003836995
30
0
41
1
10
-38
20
-20.2923632489216
30
0
41
1
10
-38
20
-20.2923482553595
30
0
0
SPLINE
5
15D
100
AcDbEntity
8
1
62
256
6
ByLayer
370
18
48
1
60
0
100
AcDbSpline
70
4
71
3
72
8
73
4
40
0
40
0
40
0
40
0
40
1
40
1
40
1
40
1
41
1
10
23.6555406100844
20
34.2314263924313
30
0
41
1
10
23.655432064958
20
34.2313784366338
30
0
41
1
10
23.6998876279299
20
34.2510191339686
30
0
41
1
10
23.7912815657757
20
34.2913974477601
30
0
0
SPLINE
5
15E
100
AcDbEntity
8
1
62
256
6
ByLayer
370
18
48
1
60
0
100
AcDbSpline
70
4
71
3
72
10
73
6
40
0
40
0
40
0
40
0
40
0.45040176785352
40
0.45040176785352
40
1
40
1
40
1
40
1
41
1
10
10.4749722789331
20
-19.565313028476
30
0
41
1
10
10.5613332908986
20
-19.7110440017202
30
0
41
1
10
10.6553051210732
20
-19.8441203639474
30
0
41
1
10
10.8773154049998
20
-20.0997676861195
30
0
41
1
10
11.009715246598
20
-20.2152965554242
30
0
41
1
10
11.1455042964761
20
-20.3045700779159
30
0
0
SPLINE
5
15F
100
AcDbEntity
8
1
62
256
6
ByLayer
370
18
48
1
60
0
100
AcDbSpline
70
4
71
3
72
10
73
6
40
0
40
0
40
0
40
0
40
0.130194232554531
40
0.130194232554531
40
1
40
1
40
1
40
1
41
1
10
36.0044459515282
20
39.4620312744254
30
0
41
1
10
35.9753090048869
20
39.4443749798442
30
0
41
1
10
35.9462049400717
20
39.4262902629753
30
0
41
1
10
35.7214958718234
20
39.282981861593
30
0
41
1
10
35.5264812678987
20
39.1366435637993
30
0
41
1
10
35.3439465157432
20
38.9678718551732
30
0
0
SPLINE
5
160
100
AcDbEntity
8
1
62
256
6
ByLayer
370
18
48
1
60
0
100
AcDbSpline
70
4
71
2
72
11
73
8
40
0
40
0
40
0
40
0.0353878362392784
40
0.324771485367495
40
0.517693918119639
40
0.710616350871784
40
0.807077567247856
40
1
40
1
40
1
41
1
10
37.9825872126455
20
20.4438973366575
30
0
41
1
10
37.8937592397501
20
20.4793685400542
30
0
41
1
10
37.0794729563494
20
20.8451892346974
30
0
41
1
10
36.0008168043609
20
21.8236196152709
30
0
41
1
10
35.1598679882696
20
23.0847351143557
30
0
41
1
10
34.9340737680598
20
23.5902888445137
30
0
41
1
10
34.6937460601674
20
24.1823912362055
30
0
41
1
10
34.5774674629929
20
24.6081422236849
30
0
0
SPLINE
5
161
100
AcDbEntity
8
1
62
256
6
ByLayer
370
18
48
1
60
0
100
AcDbSpline
70
4
71
2
72
7
73
4
40
0
40
0
40
0
40
0.675705501065077
40
1
40
1
40
1
41
1.02613459695995
10
34.6236020936599
20
39.0771726061032
30
0
41
1.02613459695995
10
34.5064170909167
20
38.7731355416262
30
0
41
1.02613459695995
10
34.3725084518785
20
38.2890316444767
30
0
41
1.02613459695995
10
34.3381836929713
20
38.1184476493102
30
0
0
SPLINE
5
162
100
AcDbEntity
8
1
62
256
6
ByLayer
370
18
48
1
60
0
100
AcDbSpline
70
4
71
2
72
6
73
3
40
0
40
0
40
0
40
1
40
1
40
1
41
1
10
34.5774674629929
20
24.6081422236849
30
0
41
1
10
34.5321078273781
20
24.60028258807
30
0
41
1
10
34.4867481917633
20
24.592422952455
30
0
0
SPLINE
5
163
100
AcDbEntity
8
1
62
256
6
ByLayer
370
18
48
1
60
0
100
AcDbSpline
70
4
71
3
72
15
73
11
40
0
40
0
40
0
40
0
40
0.287801217906045
40
0.287801217906045
40
0.580633313242722
40
0.580633313242722
40
0.871071532394733
40
0.871071532394733
40
0.871071532394733
40
1
40
1
40
1
40
1
41
1
10
42.2392111494298
20
22.0853114093396
30
0
41
1
10
41.9919689387728
20
21.7229534175601
30
0
41
1
10
41.679865060038
20
21.3980058688471
30
0
41
1
10
40.9685484350312
20
20.8721402031177
30
0
41
1
10
40.5577814794921
20
20.6669762006925
30
0
41
1
10
39.7052006582572
20
20.408198920593
30
0
41
1
10
39.2534888766547
20
20.3485558053577
30
0
41
1
10
38.8080936445663
20
20.3571415817328
30
0
41
1
10
38.6084167884976
20
20.3609907042872
30
0
41
1
10
38.4084860972412
20
20.3782156778579
30
0
41
1
10
38.2106421428314
20
20.4074200851761
30
0
0
SPLINE
5
164
100
AcDbEntity
8
1
62
256
6
ByLayer
370
18
48
1
60
0
100
AcDbSpline
70
4
71
3
72
44
73
40
40
0
40
0
40
0
40
0
40
0.005194014862283
40
0.005194014862283
40
0.01990088271157
40
0.01990088271157
40
0.129752186647394
40
0.129752186647394
40
0.239839563384952
40
0.239839563384952
40
0.428838224946044
40
0.428838224946044
40
0.549630953104622
40
0.549630953104622
40
0.669782983877052
40
0.669782983877052
40
0.866798478992824
40
0.866798478992824
40
0.966549501298351
40
0.966549501298351
40
0.991441203840381
40
0.991441203840381
40
0.997663557394972
40
0.997663557394972
40
0.999220062095411
40
0.999220062095411
40
0.999613367461781
40
0.999613367461781
40
0.999703345383678
40
0.999703345383678
40
0.99974117607705
40
0.99974117607705
40
0.999773455101578
40
0.999773455101578
40
0.999805393877035
40
0.999805393877035
40
0.999853555583401
40
0.999853555583401
40
1
40
1
40
1
40
1
41
1
10
34.3381836929713
20
38.1184476493102
30
0
41
1
10
34.3356239986709
20
38.1190001263081
30
0
41
1
10
34.3330576317721
20
38.1195666845569
30
0
41
1
10
34.3230692765417
20
38.1216381540202
30
0
41
1
10
34.3155822237846
20
38.1230357263081
30
0
41
1
10
34.252232916345
20
38.1335196065109
30
0
41
1
10
34.1915754260869
20
38.13454460642
30
0
41
1
10
34.0682310431561
20
38.1164445723518
30
0
41
1
10
34.0041247381382
20
38.0969205253829
30
0
41
1
10
33.8377904784636
20
38.0230544817919
30
0
41
1
10
33.7335576071303
20
37.9610903619691
30
0
41
1
10
33.5666748399274
20
37.8685124376473
30
0
41
1
10
33.5002739549781
20
37.8328018054872
30
0
41
1
10
33.3992364281283
20
37.734064940759
30
0
41
1
10
33.3752230536349
20
37.6638957695127
30
0
41
1
10
33.2931724254768
20
37.5040791664542
30
0
41
1
10
33.2443155906251
20
37.408841700613
30
0
41
1
10
33.1958202499381
20
37.2582563483153
30
0
41
1
10
33.1823580897687
20
37.2070362930001
30
0
41
1
10
33.1686804526338
20
37.1428526974405
30
0
41
1
10
33.1661049756005
20
37.1300113281546
30
0
41
1
10
33.1630682347186
20
37.1139532833095
30
0
41
1
10
33.1624747840231
20
37.1107377389745
30
0
41
1
10
33.1617233833114
20
37.1067335102925
30
0
41
1
10
33.1615806103837
20
37.1059261586751
30
0
41
1
10
33.1613597636045
20
37.1049500958899
30
0
41
1
10
33.1613178420948
20
37.1047478098408
30
0
41
1
10
33.1612265165579
20
37.1045425731194
30
0
41
1
10
33.1612070577112
20
37.1045056813462
30
0
41
1
10
33.1611699453297
20
37.1044700529599
30
0
41
1
10
33.161157382982
20
37.1044616910068
30
0
41
1
10
33.1611316173378
20
37.1044547621289
30
0
41
1
10
33.161118457286
20
37.1044550545098
30
0
41
1
10
33.1610921405048
20
37.1044630527863
30
0
41
1
10
33.16107869644
20
37.1044706569843
30
0
41
1
10
33.1610464902435
20
37.1044948888116
30
0
41
1
10
33.161027917409
20
37.1045142006725
30
0
41
1
10
33.1609575355072
20
37.1045977420334
30
0
41
1
10
33.16091137515
20
37.1046740531212
30
0
41
1
10
33.160867193453
20
37.104750214715
30
0
0
SPLINE
5
165
100
AcDbEntity
8
1
62
256
6
ByLayer
370
18
48
1
60
0
100
AcDbSpline
70
4
71
3
72
12
73
8
40
0
40
0
40
0
40
0
40
0.319932000007846
40
0.319932000007846
40
0.659954096648668
40
0.659954096648668
40
1
40
1
40
1
40
1
41
1
10
37.982587212177
20
20.4438973370359
30
0
41
1
10
37.9580403023739
20
20.4481280976656
30
0
41
1
10
37.933508760471
20
20.4524550838989
30
0
41
1
10
37.8829393417156
20
20.4615791480666
30
0
41
1
10
37.8569031642836
20
20.4663887623284
30
0
41
1
10
37.8048682274901
20
20.476225552875
30
0
41
1
10
37.7788690153326
20
20.4812528305076
30
0
41
1
10
37.7528903615026
20
20.4863886836066
30
0
0
SPLINE
5
166
100
AcDbEntity
8
1
62
256
6
ByLayer
370
18
48
1
60
0
100
AcDbSpline
70
4
71
3
72
8
73
4
40
0
40
0
40
0
40
0
40
1
40
1
40
1
40
1
41
1
10
22.92079238
20
30.8996141556632
30
0
41
1
10
22.9876698367429
20
31.1573850932431
30
0
41
1
10
23.0547179109423
20
31.4152349416224
30
0
41
1
10
23.121914163947
20
31.6731305073564
30
0
0
SPLINE
5
167
100
AcDbEntity
8
1
62
256
6
ByLayer
370
18
48
1
60
0
100
AcDbSpline
70
4
71
3
72
8
73
4
40
0
40
0
40
0
40
0
40
1
40
1
40
1
40
1
41
1
10
22.9609847588646
20
-31.0544615075761
30
0
41
1
10
22.9475806244986
20
-31.0028429217618
30
0
41
1
10
22.9341831017393
20
-30.9512270468484
30
0
41
1
10
22.92079238
20
-30.8996141556632
30
0
0
SPLINE
5
168
100
AcDbEntity
8
1
62
256
6
ByLayer
370
18
48
1
60
0
100
AcDbSpline
70
4
71
3
72
16
73
12
40
0
40
0
40
0
40
0
40
0.113316224833596
40
0.113316224833596
40
0.252990411571581
40
0.252990411571581
40
0.473309013928343
40
0.473309013928343
40
0.896716357718895
40
0.896716357718895
40
1
40
1
40
1
40
1
41
1
10
13.4613248654052
20
-30.0805927603169
30
0
41
1
10
13.4894125595718
20
-30.0805927603169
30
0
41
1
10
13.517849357763
20
-30.0790101689567
30
0
41
1
10
13.5767970345725
20
-30.0726712338969
30
0
41
1
10
13.6072473721288
20
-30.0672275748685
30
0
41
1
10
13.6769143636602
20
-30.0506647867052
30
0
41
1
10
13.7128266507651
20
-30.0378702684275
30
0
41
1
10
13.8014637450836
20
-29.9980833386355
30
0
41
1
10
13.842370839753
20
-29.967975934908
30
0
41
1
10
13.8809034737598
20
-29.9294196064672
30
0
41
1
10
13.8878971837969
20
-29.9217223689309
30
0
41
1
10
13.8943375672975
20
-29.9139548464691
30
0
0
SPLINE
5
169
100
AcDbEntity
8
1
62
256
6
ByLayer
370
18
48
1
60
0
100
AcDbSpline
70
4
71
3
72
10
73
6
40
0
40
0
40
0
40
0
40
0.406434782913203
40
0.406434782913203
40
1
40
1
40
1
40
1
41
1
10
13.4613248654052
20
-19.4372396071259
30
0
41
1
10
13.5445600082495
20
-19.5002654265816
30
0
41
1
10
13.6195895752656
20
-19.5840144784503
30
0
41
1
10
13.7747384129069
20
-19.8110073784322
30
0
41
1
10
13.8452864320335
20
-19.9677891804822
30
0
41
1
10
13.8943375672975
20
-20.1324515831234
30
0
0
SPLINE
5
16A
100
AcDbEntity
8
1
62
256
6
ByLayer
370
18
48
1
60
0
100
AcDbSpline
70
4
71
2
72
7
73
4
40
0
40
0
40
0
40
0.142552273657343
40
1
40
1
40
1
41
1
10
33.1609250772664
20
37.1048455967032
30
0
41
1
10
33.086487560837
20
37.185981971842
30
0
41
1
10
32.544854223942
20
37.721266683705
30
0
41
1
10
32.0473680301605
20
37.9389908812958
30
0
0
SPLINE
5
16B
100
AcDbEntity
8
1
62
256
6
ByLayer
370
18
48
1
60
0
100
AcDbSpline
70
4
71
3
72
15
73
11
40
0
40
0
40
0
40
0
40
0.28103962914102
40
0.28103962914102
40
0.562712048900373
40
0.562712048900373
40
0.835250831097508
40
0.835250831097508
40
0.835250831097508
40
1
40
1
40
1
40
1
41
1
10
19.9115068236138
20
-29.9850116132027
30
0
41
1
10
19.9505361776874
20
-30.1286017607468
30
0
41
1
10
20.0674973665296
20
-30.2617723075542
30
0
41
1
10
20.4463314652044
20
-30.489895050164
30
0
41
1
10
20.7141452574929
20
-30.5880850478212
30
0
41
1
10
21.3538238361363
20
-30.741378992888
30
0
41
1
10
21.7310620960588
20
-30.8001569918553
30
0
41
1
10
22.1388781334302
20
-30.8415901871074
30
0
41
1
10
22.3877509516846
20
-30.8668751075782
30
0
41
1
10
22.6513106929054
20
-30.88619079412
30
0
41
1
10
22.92079238
20
-30.8996141556632
30
0
0
SPLINE
5
16C
100
AcDbEntity
8
1
62
256
6
ByLayer
370
18
48
1
60
0
100
AcDbSpline
70
4
71
2
72
11
73
8
40
0
40
0
40
0
40
0.0610623745695833
40
0.342743662198708
40
0.530531187284792
40
0.718318712370875
40
0.812212474913917
40
1
40
1
40
1
41
1
10
38.2106421428272
20
20.4074200851777
30
0
41
1
10
38.0530376141691
20
20.4642874167987
30
0
41
1
10
37.170192227579
20
20.8609085059273
30
0
41
1
10
36.0915360755905
20
21.8393388865008
30
0
41
1
10
35.2505872594992
20
23.1004543855856
30
0
41
1
10
35.0247930392894
20
23.6060081157436
30
0
41
1
10
34.784465331397
20
24.1981105074354
30
0
41
1
10
34.6681867342226
20
24.6238614949148
30
0
0
SPLINE
5
16D
100
AcDbEntity
8
1
62
256
6
ByLayer
370
18
48
1
60
0
100
AcDbSpline
70
4
71
3
72
16
73
12
40
0
40
0
40
0
40
0
40
0.463423600832241
40
0.463423600832241
40
0.646243952932834
40
0.646243952932834
40
0.831657283224497
40
0.831657283224497
40
0.947504344290847
40
0.947504344290847
40
1
40
1
40
1
40
1
41
1
10
13.8943375672974
20
29.9139548464691
30
0
41
1
10
13.8656609252734
20
29.9485407466772
30
0
41
1
10
13.8263500123909
20
29.982269090612
30
0
41
1
10
13.7453819366532
20
30.0239686896252
30
0
41
1
10
13.7190869808859
20
30.0352936109065
30
0
41
1
10
13.6579862203325
20
30.0555697561518
30
0
41
1
10
13.6222599905467
20
30.0647246060481
30
0
41
1
10
13.556648346355
20
30.0751823136668
30
0
41
1
10
13.5289597975987
20
30.0781795790239
30
0
41
1
10
13.4876776374751
20
30.0802576981002
30
0
41
1
10
13.47447899686
20
30.0805927603169
30
0
41
1
10
13.4613248654052
20
30.0805927603169
30
0
0
SPLINE
5
16E
100
AcDbEntity
8
1
62
256
6
ByLayer
370
18
48
1
60
0
100
AcDbSpline
70
4
71
3
72
42
73
38
40
0
40
0
40
0
40
0
40
0.0001456802934352
40
0.0001456802934352
40
0.0001937816064013
40
0.0001937816064013
40
0.0002315127793563
40
0.0002315127793563
40
0.0002608510270237
40
0.0002608510270237
40
0.0002901053632398
40
0.0002901053632398
40
0.0003386248153252
40
0.0003386248153252
40
0.0004943091243362
40
0.0004943091243362
40
0.0012382898398541
40
0.0012382898398541
40
0.0042003692276226
40
0.0042003692276226
40
0.0160477539324632
40
0.0160477539324632
40
0.0634549272051988
40
0.0634549272051988
40
0.254713638626954
40
0.254713638626954
40
0.445726722868723
40
0.445726722868723
40
0.588325438261165
40
0.588325438261165
40
0.775840394026641
40
0.775840394026641
40
0.886032134455526
40
0.886032134455526
40
0.99482673329574
40
0.99482673329574
40
1
40
1
40
1
40
1
41
1
10
36.126841027006
20
26.2408564024076
30
0
41
1
10
36.1268408213878
20
26.2409405005608
30
0
41
1
10
36.1268423130963
20
26.2410248962795
30
0
41
1
10
36.1268584641233
20
26.2411274145145
30
0
41
1
10
36.1268638313879
20
26.2411522244315
30
0
41
1
10
36.1268780158525
20
26.2411915251579
30
0
41
1
10
36.1268860319109
20
26.2412073235979
30
0
41
1
10
36.1269043568225
20
26.2412283279716
30
0
41
1
10
36.1269139841127
20
26.2412351706304
30
0
41
1
10
36.1269351068909
20
26.2412424503436
30
0
41
1
10
36.1269467919476
20
26.2412430335191
30
0
41
1
10
36.1269781875853
20
26.2412383741997
30
0
41
1
10
36.1269986210884
20
26.2412293848031
30
0
41
1
10
36.1270817898199
20
26.2411817594677
30
0
41
1
10
36.1271429306146
20
26.2411237916703
30
0
41
1
10
36.1274851733259
20
26.2407861477448
30
0
41
1
10
36.1277498956954
20
26.2404552135731
30
0
41
1
10
36.1290806927327
20
26.2388577899462
30
0
41
1
10
36.13013211808
20
26.2375527454457
30
0
41
1
10
36.1354144121373
20
26.2310702797546
30
0
41
1
10
36.1396630079882
20
26.2258936336097
30
0
41
1
10
36.1610585122203
20
26.2001244867042
30
0
41
1
10
36.1786329844415
20
26.1798305305688
30
0
41
1
10
36.2691925520126
20
26.0798859014382
30
0
41
1
10
36.3498543353924
20
26.005247382086
30
0
41
1
10
36.5289651682704
20
25.8761021329839
30
0
41
1
10
36.6172874822926
20
25.7923759910504
30
0
41
1
10
36.8079225184331
20
25.732678551597
30
0
41
1
10
36.8983732134183
20
25.7359509926693
30
0
41
1
10
37.1025628252555
20
25.7400223144882
30
0
41
1
10
37.2225697476176
20
25.7393223999512
30
0
41
1
10
37.3983989024505
20
25.7723723768856
30
0
41
1
10
37.4611969449145
20
25.7941126367475
30
0
41
1
10
37.5701262268213
20
25.8536832721019
30
0
41
1
10
37.6178019164531
20
25.8917993459349
30
0
41
1
10
37.6592253278903
20
25.9363715753111
30
0
41
1
10
37.6610788513319
20
25.938416043224
30
0
41
1
10
37.6629332352903
20
25.940446999858
30
0
0
SPLINE
5
16F
100
AcDbEntity
8
1
62
256
6
ByLayer
370
18
48
1
60
0
100
AcDbSpline
70
4
71
2
72
11
73
8
40
0
40
0
40
0
40
0.0079111861631843
40
0.305537830314229
40
0.503955593081592
40
0.702373355848955
40
0.801582237232637
40
1
40
1
40
1
41
1.02613459695995
10
37.7528903627629
20
20.4863886833575
30
0
41
1.02613459695995
10
37.7335995295382
20
20.4948456062092
30
0
41
1.02613459695995
10
36.9887536851197
20
20.8294699634675
30
0
41
1.02613459695995
10
35.9100975331312
20
21.8079003440411
30
0
41
1.02613459695995
10
35.0691487170399
20
23.0690158431258
30
0
41
1.02613459695995
10
34.8433544968301
20
23.5745695732838
30
0
41
1.02613459695995
10
34.6030267889377
20
24.1666719649756
30
0
41
1.02613459695995
10
34.4867481917632
20
24.592422952455
30
0
0
SPLINE
5
170
100
AcDbEntity
8
1
62
256
6
ByLayer
370
18
48
1
60
0
100
AcDbSpline
70
4
71
2
72
8
73
5
40
0
40
0
40
0
40
0.451218356373182
40
0.451218356373182
40
1
40
1
40
1
41
1
10
32.6502747048199
20
25.2537601232689
30
0
41
1
10
33.0736059057415
20
24.8831740672026
30
0
41
1
10
33.5224930859531
20
24.7083229385086
30
0
41
1
10
34.0253050545161
20
24.5124669548677
30
0
41
1
10
34.4867481917632
20
24.592422952455
30
0
0
SPLINE
5
171
100
AcDbEntity
8
1
62
256
6
ByLayer
370
18
48
1
60
0
100
AcDbSpline
70
4
71
2
72
9
73
6
40
0
40
0
40
0
40
0.419655468653539
40
0.629483202980308
40
0.944224804470462
40
1
40
1
40
1
41
1.02613459695995
10
42.1236041936194
20
24.6297892115456
30
0
41
1.02613459695995
10
41.2081637894252
20
24.3246081254681
30
0
41
1.02613459695995
10
39.7479946007795
20
24.5851572809112
30
0
41
1.02613459695995
10
38.5387282563787
20
25.1284240203063
30
0
41
1.02613459695995
10
37.7768457077201
20
25.8195145320158
30
0
41
1.02613459695995
10
37.6629332352903
20
25.9404469998581
30
0
0
SPLINE
5
172
100
AcDbEntity
8
1
62
256
6
ByLayer
370
18
48
1
60
0
100
AcDbSpline
70
4
71
3
72
16
73
12
40
0
40
0
40
0
40
0
40
0.113316224833592
40
0.113316224833592
40
0.252990411571568
40
0.252990411571568
40
0.473309013928318
40
0.473309013928318
40
0.896716357718825
40
0.896716357718825
40
1
40
1
40
1
40
1
41
1
10
13.4613248654052
20
9.3492213145251
30
0
41
1
10
13.4894125595718
20
9.3492213145251
30
0
41
1
10
13.517849357763
20
9.35431657338981
30
0
41
1
10
13.5767970345725
20
9.37467777536565
30
0
41
1
10
13.6072473721288
20
9.39213979793414
30
0
41
1
10
13.6769143636602
20
9.44503542604383
30
0
41
1
10
13.7128266507651
20
9.4856938043188
30
0
41
1
10
13.8014637450836
20
9.61105923366807
30
0
41
1
10
13.842370839753
20
9.70465429390066
30
0
41
1
10
13.8809034737598
20
9.82244573862474
30
0
41
1
10
13.8878971837969
20
9.84586944318031
30
0
41
1
10
13.8943375672975
20
9.86941261896621
30
0
0
SPLINE
5
173
100
AcDbEntity
8
1
62
256
6
ByLayer
370
18
48
1
60
0
100
AcDbSpline
70
4
71
3
72
18
73
14
40
0
40
0
40
0
40
0
40
0.312043212401464
40
0.312043212401464
40
0.477662351337334
40
0.477662351337334
40
0.646213058657955
40
0.646213058657955
40
0.755778685652462
40
0.755778685652462
40
0.901995662779992
40
0.901995662779992
40
1
40
1
40
1
40
1
41
1
10
32.0473546045779
20
37.9389731590288
30
0
41
1
10
32.2472770240583
20
38.027299916558
30
0
41
1
10
32.4533611837706
20
38.1183489627821
30
0
41
1
10
32.815080043231
20
38.2781582231759
30
0
41
1
10
32.9454233725464
20
38.335744579293
30
0
41
1
10
33.2532742063204
20
38.4717546677092
30
0
41
1
10
33.4275571656066
20
38.5487537792964
30
0
41
1
10
33.7170680245401
20
38.6766611721019
30
0
41
1
10
33.8352127086675
20
38.7288581037687
30
0
41
1
10
34.0955446958255
20
38.8438741203143
30
0
41
1
10
34.2362445210148
20
38.9060360298
30
0
41
1
10
34.455722257516
20
39.0030024273926
30
0
41
1
10
34.5409416810501
20
39.0406528088697
30
0
41
1
10
34.6236020936599
20
39.0771726061032
30
0
0
SPLINE
5
174
100
AcDbEntity
8
1
62
256
6
ByLayer
370
18
48
1
60
0
100
AcDbSpline
70
4
71
3
72
16
73
12
40
0
40
0
40
0
40
0
40
0.463423600832209
40
0.463423600832209
40
0.646243952932815
40
0.646243952932815
40
0.831657283224495
40
0.831657283224495
40
0.947504344290837
40
0.947504344290837
40
1
40
1
40
1
40
1
41
1
10
13.8943375672974
20
-9.86941261896621
30
0
41
1
10
13.8656609252734
20
-9.76458357826289
30
0
41
1
10
13.8263500123909
20
-9.66039292789941
30
0
41
1
10
13.7453819366532
20
-9.52957658281042
30
0
41
1
10
13.7190869808859
20
-9.49380155568073
30
0
41
1
10
13.6579862203325
20
-9.42941539787637
30
0
41
1
10
13.6222599905468
20
-9.40014891155712
30
0
41
1
10
13.556648346355
20
-9.36662118733784
30
0
41
1
10
13.5289597975987
20
-9.35698328824239
30
0
41
1
10
13.4876776374751
20
-9.35029954873104
30
0
41
1
10
13.4744789968601
20
-9.34922131452501
30
0
41
1
10
13.4613248654052
20
-9.34922131452501
30
0
0
SPLINE
5
175
100
AcDbEntity
8
1
62
256
6
ByLayer
370
18
48
1
60
0
100
AcDbSpline
70
4
71
3
72
10
73
6
40
0
40
0
40
0
40
0
40
0.41566530777211
40
0.41566530777211
40
1
40
1
40
1
40
1
41
1
10
10.5386751345948
20
-21.3694939161262
30
0
41
1
10
10.4549244770343
20
-21.3060777478789
30
0
41
1
10
10.3787459731137
20
-21.2515288076611
30
0
41
1
10
10.2245337544041
20
-21.1373152812055
30
0
41
1
10
10.1545345289015
20
-21.0803509409494
30
0
41
1
10
10.1056624327025
20
-21.0401816871769
30
0
0
SPLINE
5
176
100
AcDbEntity
8
1
62
256
6
ByLayer
370
18
48
1
60
0
100
AcDbSpline
70
4
71
3
72
14
73
10
40
0
40
0
40
0
40
0
40
0.264682281129105
40
0.264682281129105
40
0.529206797196864
40
0.529206797196864
40
0.796215005013496
40
0.796215005013496
40
1
40
1
40
1
40
1
41
1
10
22.92079238
20
30.8996141556632
30
0
41
1
10
22.4918347090298
20
30.8782470120691
30
0
41
1
10
22.0760939855286
20
30.8416690423415
30
0
41
1
10
21.3399746287024
20
30.7377355602684
30
0
41
1
10
21.0095242838747
20
30.6687823920308
30
0
41
1
10
20.4724242383792
20
30.4990243000185
30
0
41
1
10
20.2597267854547
20
30.3955004707743
30
0
41
1
10
20.0093210835962
20
30.1888506958789
30
0
41
1
10
19.9399854717531
20
30.0897854016817
30
0
41
1
10
19.9115068236138
20
29.9850116132027
30
0
0
SPLINE
5
177
100
AcDbEntity
8
1
62
256
6
ByLayer
370
18
48
1
60
0
100
AcDbSpline
70
4
71
3
72
16
73
12
40
0
40
0
40
0
40
0
40
0.113316224833594
40
0.113316224833594
40
0.252990411571577
40
0.252990411571577
40
0.473309013928351
40
0.473309013928351
40
0.896716357718897
40
0.896716357718897
40
1
40
1
40
1
40
1
41
1
10
10.5386751345948
20
30.0805927603169
30
0
41
1
10
10.5105874404281
20
30.0805927603169
30
0
41
1
10
10.482150642237
20
30.0790101689566
30
0
41
1
10
10.4232029654275
20
30.0726712338969
30
0
41
1
10
10.3927526278712
20
30.0672275748685
30
0
41
1
10
10.3230856363398
20
30.0506647867052
30
0
41
1
10
10.2871733492349
20
30.0378702684275
30
0
41
1
10
10.1985362549164
20
29.9980833386355
30
0
41
1
10
10.1576291602469
20
29.967975934908
30
0
41
1
10
10.1190965262402
20
29.9294196064672
30
0
41
1
10
10.112102816203
20
29.9217223689309
30
0
41
1
10
10.1056624327025
20
29.9139548464691
30
0
0
SPLINE
5
178
100
AcDbEntity
8
1
62
256
6
ByLayer
370
18
48
1
60
0
100
AcDbSpline
70
4
71
3
72
10
73
6
40
0
40
0
40
0
40
0
40
0.573565230694858
40
0.573565230694858
40
1
40
1
40
1
40
1
41
1
10
13.8943375672974
20
-21.0401816871777
30
0
41
1
10
13.8463445787262
20
-21.0796283794037
30
0
41
1
10
13.7780102352029
20
-21.1353313584606
30
0
41
1
10
13.6250883068771
20
-21.2487586970678
30
0
41
1
10
13.5471921982104
20
-21.3044749970785
30
0
41
1
10
13.4613248654052
20
-21.3694939161262
30
0
0
SPLINE
5
179
100
AcDbEntity
8
1
62
256
6
ByLayer
370
18
48
1
60
0
100
AcDbSpline
70
4
71
3
72
10
73
6
40
0
40
0
40
0
40
0
40
0.5
40
0.5
40
1
40
1
40
1
40
1
41
1
10
37.7528903627629
20
20.4863886833575
30
0
41
1
10
36.5535054320255
20
20.7235012315838
30
0
41
1
10
35.4687683479577
20
21.348360561944
30
0
41
1
10
33.7337629504049
20
23.0572576074607
30
0
41
1
10
32.9746485459927
20
24.0666433635308
30
0
41
1
10
32.6502522685232
20
25.2540716600377
30
0
0
SPLINE
5
17A
100
AcDbEntity
8
1
62
256
6
ByLayer
370
18
48
1
60
0
100
AcDbSpline
70
4
71
3
72
12
73
8
40
0
40
0
40
0
40
0
40
0.323508413868196
40
0.323508413868196
40
0.661742854657644
40
0.661742854657644
40
1
40
1
40
1
40
1
41
1
10
38.2106421396479
20
20.4074200865071
30
0
41
1
10
38.1860065180831
20
20.4110566329522
30
0
41
1
10
38.1613838522171
20
20.4147892133675
30
0
41
1
10
38.1110465865496
20
20.4226207779698
30
0
41
1
10
38.0853328798427
20
20.4267287715162
30
0
41
1
10
38.0339363975887
20
20.4351551896105
30
0
41
1
10
38.0082531928493
20
20.4394736990161
30
0
41
1
10
37.9825872121497
20
20.4438973361029
30
0
0
SPLINE
5
17B
100
AcDbEntity
8
1
62
256
6
ByLayer
370
18
48
1
60
0
100
AcDbSpline
70
4
71
3
72
8
73
4
40
0
40
0
40
0
40
0
40
1
40
1
40
1
40
1
41
1
10
23.8962856159808
20
-31.0760760071151
30
0
41
1
10
23.5776018829067
20
-31.0760760071151
30
0
41
1
10
23.2659394678548
20
-31.0688931604307
30
0
41
1
10
22.9609847588647
20
-31.0544615075761
30
0
0
SPLINE
5
17C
100
AcDbEntity
8
1
62
256
6
ByLayer
370
18
48
1
60
0
100
AcDbSpline
70
4
71
2
72
6
73
3
40
0
40
0
40
0
40
1
40
1
40
1
41
1
10
34.6681867342226
20
24.6238614949148
30
0
41
1
10
34.6228270986077
20
24.6160018592999
30
0
41
1
10
34.5774674629929
20
24.6081422236849
30
0
0
SPLINE
5
17D
100
AcDbEntity
8
1
62
256
6
ByLayer
370
18
48
1
60
0
100
AcDbSpline
70
4
71
3
72
10
73
6
40
0
40
0
40
0
40
0
40
0.563253738015378
40
0.563253738015378
40
1
40
1
40
1
40
1
41
1
10
10.1056624327026
20
-20.1324515831236
30
0
41
1
10
10.1522667730003
20
-19.9760029585275
30
0
41
1
10
10.2181997150426
20
-19.8269086326718
30
0
41
1
10
10.3695745193898
20
-19.5962808154733
30
0
41
1
10
10.4493853955874
20
-19.5048499791108
30
0
41
1
10
10.5386751345948
20
-19.4372396071259
30
0
0
SPLINE
5
17E
100
AcDbEntity
8
1
62
256
6
ByLayer
370
18
48
1
60
0
100
AcDbSpline
70
4
71
3
72
8
73
4
40
0
40
0
40
0
40
0
40
1
40
1
40
1
40
1
41
1
10
42.1236041936194
20
24.6297892115456
30
0
41
1
10
42.3651420515735
20
23.7450764975226
30
0
41
1
10
42.4067572114664
20
22.8291380936392
30
0
41
1
10
42.2392111494298
20
22.0853114093396
30
0
0
SPLINE
5
17F
100
AcDbEntity
8
1
62
256
6
ByLayer
370
18
48
1
60
0
100
AcDbSpline
70
4
71
3
72
16
73
12
40
0
40
0
40
0
40
0
40
0.113316224833593
40
0.113316224833593
40
0.252990411571579
40
0.252990411571579
40
0.473309013928354
40
0.473309013928354
40
0.896716357718913
40
0.896716357718913
40
1
40
1
40
1
40
1
41
1
10
10.5386751345948
20
-9.34922131452512
30
0
41
1
10
10.5105874404281
20
-9.34922131452512
30
0
41
1
10
10.482150642237
20
-9.35431657338984
30
0
41
1
10
10.4232029654275
20
-9.37467777536568
30
0
41
1
10
10.3927526278712
20
-9.39213979793414
30
0
41
1
10
10.3230856363398
20
-9.44503542604386
30
0
41
1
10
10.2871733492349
20
-9.48569380431883
30
0
41
1
10
10.1985362549164
20
-9.6110592336681
30
0
41
1
10
10.1576291602469
20
-9.70465429390072
30
0
41
1
10
10.1190965262402
20
-9.82244573862477
30
0
41
1
10
10.112102816203
20
-9.84586944318031
30
0
41
1
10
10.1056624327025
20
-9.86941261896618
30
0
0
SPLINE
5
180
100
AcDbEntity
8
1
62
256
6
ByLayer
370
18
48
1
60
0
100
AcDbSpline
70
4
71
3
72
16
73
12
40
0
40
0
40
0
40
0
40
0.463423600832241
40
0.463423600832241
40
0.646243952932837
40
0.646243952932837
40
0.831657283224505
40
0.831657283224505
40
0.947504344290848
40
0.947504344290848
40
1
40
1
40
1
40
1
41
1
10
10.1056624327026
20
9.86941261896621
30
0
41
1
10
10.1343390747265
20
9.76458357826289
30
0
41
1
10
10.1736499876091
20
9.66039292789938
30
0
41
1
10
10.2546180633468
20
9.52957658281042
30
0
41
1
10
10.2809130191141
20
9.49380155568073
30
0
41
1
10
10.3420137796675
20
9.42941539787637
30
0
41
1
10
10.3777400094532
20
9.40014891155712
30
0
41
1
10
10.4433516536449
20
9.36662118733787
30
0
41
1
10
10.4710402024013
20
9.35698328824239
30
0
41
1
10
10.5123223625249
20
9.35029954873107
30
0
41
1
10
10.5255210031399
20
9.34922131452504
30
0
41
1
10
10.5386751345948
20
9.34922131452504
30
0
0
SPLINE
5
181
100
AcDbEntity
8
1
62
256
6
ByLayer
370
18
48
1
60
0
100
AcDbSpline
70
4
71
3
72
8
73
4
40
0
40
0
40
0
40
0
40
1
40
1
40
1
40
1
41
1
10
23.7912815657757
20
34.2913974477601
30
0
41
1
10
23.5655281949869
20
33.415921340736
30
0
41
1
10
23.3421643562498
20
32.5431586088358
30
0
41
1
10
23.1219141639471
20
31.6731305073564
30
0
0
SPLINE
5
182
100
AcDbEntity
8
1
62
256
6
ByLayer
370
18
48
1
60
0
100
AcDbSpline
70
4
71
3
72
8
73
4
40
0
40
0
40
0
40
0
40
1
40
1
40
1
40
1
41
1
10
23.1219141639471
20
31.6731305073564
30
0
41
1
10
23.366872042097
20
31.2771209679198
30
0
41
1
10
23.6291197467588
20
30.887011030072
30
0
41
1
10
23.8962856159808
20
30.5006323764651
30
0
0
SPLINE
5
183
100
AcDbEntity
8
1
62
256
6
ByLayer
370
18
48
1
60
0
100
AcDbSpline
70
4
71
3
72
16
73
12
40
0
40
0
40
0
40
0
40
0.463423600832262
40
0.463423600832262
40
0.646243952932856
40
0.646243952932856
40
0.831657283224518
40
0.831657283224518
40
0.94750434429086
40
0.94750434429086
40
1
40
1
40
1
40
1
41
1
10
10.1056624327026
20
-29.9139548464691
30
0
41
1
10
10.1343390747265
20
-29.9485407466772
30
0
41
1
10
10.1736499876091
20
-29.982269090612
30
0
41
1
10
10.2546180633468
20
-30.0239686896252
30
0
41
1
10
10.2809130191141
20
-30.0352936109065
30
0
41
1
10
10.3420137796675
20
-30.0555697561518
30
0
41
1
10
10.3777400094532
20
-30.0647246060481
30
0
41
1
10
10.4433516536449
20
-30.0751823136668
30
0
41
1
10
10.4710402024013
20
-30.0781795790239
30
0
41
1
10
10.5123223625249
20
-30.0802576981002
30
0
41
1
10
10.5255210031399
20
-30.0805927603169
30
0
41
1
10
10.5386751345948
20
-30.0805927603169
30
0
0
SPLINE
5
184
100
AcDbEntity
8
1
62
256
6
ByLayer
370
18
48
1
60
0
100
AcDbSpline
70
4
71
2
72
9
73
6
40
0
40
0
40
0
40
0.464691154464288
40
0.464691154464288
40
0.929382308928576
40
1
40
1
40
1
41
1
10
34.6681867342226
20
24.6238614949148
30
0
41
1
10
35.1296298714697
20
24.7038174925021
30
0
41
1
10
35.4849067641427
20
25.048357778456
30
0
41
1
10
35.8706615958092
20
25.4224549481607
30
0
41
1
10
36.1015358846487
20
26.1423918652455
30
0
41
1
10
36.1269510882577
20
26.2407846503681
30
0
0
SPLINE
5
185
100
AcDbEntity
8
SK1
62
256
6
ByLayer
370
18
48
1
60
0
100
AcDbSpline
70
4
71
3
72
22
73
18
40
0
40
0
40
0
40
0
40
0.038427246458711
40
0.038427246458711
40
0.0775026456766427
40
0.0775026456766427
40
0.106475059033524
40
0.106475059033524
40
0.135305917881828
40
0.135305917881828
40
0.182167074412018
40
0.182167074412018
40
0.275660663800869
40
0.275660663800869
40
0.616530102228659
40
0.616530102228659
40
1
40
1
40
1
40
1
41
1
10
-0.394976888875306
20
-6.32694279392757
30
0
41
1
10
-0.414867561016194
20
-6.34445862132063
30
0
41
1
10
-0.436644357284194
20
-6.36058691921457
30
0
41
1
10
-0.484524151203374
20
-6.3868168818706
30
0
41
1
10
-0.511419954277358
20
-6.39702622866628
30
0
41
1
10
-0.560078773491597
20
-6.40490957850619
30
0
41
1
10
-0.58185248496946
20
-6.40512642059926
30
0
41
1
10
-0.623683911276856
20
-6.39912423041605
30
0
41
1
10
-0.644207278837683
20
-6.39293597600829
30
0
41
1
10
-0.694134540330907
20
-6.37121870092642
30
0
41
1
10
-0.722113964046542
20
-6.35215911803172
30
0
41
1
10
-0.796598131612939
20
-6.28903777408343
30
0
41
1
10
-0.836555557792792
20
-6.23798237717094
30
0
41
1
10
-0.997773060879837
20
-5.995390913813
30
0
41
1
10
-1.07178904300878
20
-5.77805690787602
30
0
41
1
10
-1.20827315239353
20
-5.31693201445015
30
0
41
1
10
-1.26212533694985
20
-5.06551762472202
30
0
41
1
10
-1.30710678118655
20
-4.81101321788441
30
0
0
SPLINE
5
186
100
AcDbEntity
8
SK1
62
256
6
ByLayer
370
18
48
1
60
0
100
AcDbSpline
70
4
71
3
72
26
73
22
40
0
40
0
40
0
40
0
40
0.462420532187944
40
0.462420532187944
40
0.662465761698283
40
0.662465761698283
40
0.830433309169693
40
0.830433309169693
40
0.87601894963741
40
0.87601894963741
40
0.905535493032455
40
0.905535493032455
40
0.92577818311669
40
0.92577818311669
40
0.946307111163799
40
0.946307111163799
40
0.963675313617857
40
0.963675313617857
40
0.991859972782862
40
0.991859972782862
40
1
40
1
40
1
40
1
41
1
10
-0.199999999999989
20
-7.05951749342083
30
0
41
1
10
-0.199999999999989
20
-6.93273416480454
30
0
41
1
10
-0.203968014086513
20
-6.80463429773329
30
0
41
1
10
-0.223222206303944
20
-6.62063667774228
30
0
41
1
10
-0.230822389897867
20
-6.56482953243432
30
0
41
1
10
-0.252035566714568
20
-6.46316921019911
30
0
41
1
10
-0.263798801619998
20
-6.41617607028249
30
0
41
1
10
-0.290531391619595
20
-6.36108887379029
30
0
41
1
10
-0.29710300077241
20
-6.34947181616241
30
0
41
1
10
-0.310313928765424
20
-6.33213067856883
30
0
41
1
10
-0.316208846631128
20
-6.32567949173321
30
0
41
1
10
-0.327595492701022
20
-6.31681373578161
30
0
41
1
10
-0.332739264568545
20
-6.31372817209197
30
0
41
1
10
-0.343644708736434
20
-6.30958040401461
30
0
41
1
10
-0.349575964479982
20
-6.30853210514005
30
0
41
1
10
-0.360183897281416
20
-6.30881607347521
30
0
41
1
10
-0.365032052617437
20
-6.30978620719449
30
0
41
1
10
-0.376922909163994
20
-6.31387292952667
30
0
41
1
10
-0.383695246431131
20
-6.3179475897727
30
0
41
1
10
-0.39156461480826
20
-6.32402624429125
30
0
41
1
10
-0.393293161608796
20
-6.32546009510432
30
0
41
1
10
-0.394976888875277
20
-6.32694279392757
30
0
0
SPLINE
5
187
100
AcDbEntity
8
SK1
62
256
6
ByLayer
370
18
48
1
60
0
100
AcDbSpline
70
4
71
3
72
22
73
18
40
0
40
0
40
0
40
0
40
0.366862607601256
40
0.366862607601256
40
0.737339621375052
40
0.737339621375052
40
0.838459586400285
40
0.838459586400285
40
0.872990642836393
40
0.872990642836393
40
0.908114554314301
40
0.908114554314301
40
0.93841147631739
40
0.93841147631739
40
0.978567405872927
40
0.978567405872927
40
1
40
1
40
1
40
1
41
1
10
-1.30710678118655
20
4.81101329740289
30
0
41
1
10
-1.26411319574365
20
5.05427021725674
30
0
41
1
10
-1.21291926611929
20
5.29463858107241
30
0
41
1
10
-1.07751639291712
20
5.76447191425098
30
0
41
1
10
-0.99999394263088
20
6.0024064332149
30
0
41
1
10
-0.818580317119483
20
6.26150782359156
30
0
41
1
10
-0.772786229091963
20
6.31609141287933
30
0
41
1
10
-0.693958175551444
20
6.37002132562083
30
0
41
1
10
-0.67174289599555
20
6.38213989760789
30
0
41
1
10
-0.624176343099663
20
6.39933264200099
30
0
41
1
10
-0.598041368844491
20
6.40433410743103
30
0
41
1
10
-0.550095873812666
20
6.4042038836908
30
0
41
1
10
-0.52764508925199
20
6.40038614973912
30
0
41
1
10
-0.479150674129698
20
6.38487542657816
30
0
41
1
10
-0.453444961156862
20
6.37100758594852
30
0
41
1
10
-0.417985764291785
20
6.34622757774423
30
0
41
1
10
-0.406197231050186
20
6.33682378409867
30
0
41
1
10
-0.394976888874737
20
6.32694309068151
30
0
0
SPLINE
5
188
100
AcDbEntity
8
SK1
62
256
6
ByLayer
370
18
48
1
60
0
100
AcDbSpline
70
4
71
3
72
10
73
6
40
0
40
0
40
0
40
0
40
0.5
40
0.5
40
1
40
1
40
1
40
1
41
1
10
-1.30710678118655
20
4.81101329740289
30
0
41
1
10
-1.57713284158248
20
3.28321078789992
30
0
41
1
10
-1.79449339715788
20
1.64680798700616
30
0
41
1
10
-1.79438545511854
20
-1.6481258022005
30
0
41
1
10
-1.57704898370505
20
-3.28368386467716
30
0
41
1
10
-1.30710678118663
20
-4.81101321788435
30
0
0
SPLINE
5
189
100
AcDbEntity
8
SK1
62
256
6
ByLayer
370
18
48
1
60
0
100
AcDbSpline
70
4
71
3
72
22
73
18
40
0
40
0
40
0
40
0
40
0.025518692999354
40
0.025518692999354
40
0.0515625307794633
40
0.0515625307794633
40
0.0689220502117165
40
0.0689220502117165
40
0.0862030429090035
40
0.0862030429090035
40
0.113761926258803
40
0.113761926258803
40
0.167639902693809
40
0.167639902693809
40
0.357269752158031
40
0.357269752158031
40
1
40
1
40
1
40
1
41
1
10
-0.394976888875277
20
6.326943090669
30
0
41
1
10
-0.389699799773268
20
6.32229605774103
30
0
41
1
10
-0.38394554029108
20
6.31808234313019
30
0
41
1
10
-0.371336208800898
20
6.31155719556298
30
0
41
1
10
-0.364237316839024
20
6.30923328231674
30
0
41
1
10
-0.35209572007625
20
6.30844589498398
30
0
41
1
10
-0.347038791108759
20
6.3089739150856
30
0
41
1
10
-0.337436838154161
20
6.31166640764118
30
0
41
1
10
-0.332782752688161
20
6.31383711710231
30
0
41
1
10
-0.321723955926899
20
6.32078578121266
30
0
41
1
10
-0.315689795621665
20
6.32640446307903
30
0
41
1
10
-0.300083216036057
20
6.3442802085479
30
0
41
1
10
-0.292057158925616
20
6.35806878925098
30
0
41
1
10
-0.261294067338724
20
6.42092251611513
30
0
41
1
10
-0.248999237994838
20
6.47445017323312
30
0
41
1
10
-0.204624309665832
20
6.70435570668306
30
0
41
1
10
-0.200000000000955
20
6.88379158154922
30
0
41
1
10
-0.200000000000955
20
7.05951756777665
30
0
0
SPLINE
5
18A
100
AcDbEntity
8
1
62
256
6
ByLayer
370
18
48
1
60
0
100
AcDbSpline
70
4
71
3
72
8
73
4
40
0
40
0
40
0
40
0
40
1
40
1
40
1
40
1
41
1
10
59.010906318593
20
40.2582330815172
30
0
41
1
10
58.931947279283
20
40.2942171868344
30
0
41
1
10
58.8530498646878
20
40.3261992396096
30
0
41
1
10
58.7756462055135
20
40.3537584306172
30
0
0
SPLINE
5
18B
100
AcDbEntity
8
1
62
256
6
ByLayer
370
18
48
1
60
0
100
AcDbSpline
70
4
71
3
72
8
73
4
40
0
40
0
40
0
40
0
40
1
40
1
40
1
40
1
41
1
10
54.2569459454758
20
42.1104657286073
30
0
41
1
10
54.3635317835913
20
42.1177064945476
30
0
41
1
10
54.47057255447
20
42.1224537107104
30
0
41
1
10
54.577924440363
20
42.1249170507186
30
0
0
SPLINE
5
18C
100
AcDbEntity
8
1
62
256
6
ByLayer
370
18
48
1
60
0
100
AcDbSpline
70
4
71
2
72
6
73
3
40
0
40
0
40
0
40
1
40
1
40
1
41
0.937301687603847
10
47.6211366839663
20
31.6888596293543
30
0
41
0.930554446910518
10
47.9014613032056
20
30.2285274479638
30
0
41
1.02805999725225
10
47.8939749898282
20
29.4944282110376
30
0
0
SPLINE
5
18D
100
AcDbEntity
8
1
62
256
6
ByLayer
370
18
48
1
60
0
100
AcDbSpline
70
4
71
3
72
20
73
16
40
0
40
0
40
0
40
0
40
0.110576036200127
40
0.110576036200127
40
0.197179369122807
40
0.197179369122807
40
0.284291117387372
40
0.284291117387372
40
0.365904217918085
40
0.365904217918085
40
0.49727023339208
40
0.49727023339208
40
0.733496364826724
40
0.733496364826724
40
1
40
1
40
1
40
1
41
1
10
55.1674829683802
20
39.8065175532492
30
0
41
1
10
55.1528493098119
20
39.7709965019815
30
0
41
1
10
55.146238763243
20
39.7298356408703
30
0
41
1
10
55.1573627485868
20
39.6470505449088
30
0
41
1
10
55.170518581488
20
39.6065927902289
30
0
41
1
10
55.2150237962641
20
39.5224466422832
30
0
41
1
10
55.2471444734771
20
39.4776747950473
30
0
41
1
10
55.3220128596726
20
39.3937830749687
30
0
41
1
10
55.3646563999314
20
39.3535362552861
30
0
41
1
10
55.4825965611734
20
39.2553537600296
30
0
41
1
10
55.5637768803041
20
39.1996623757256
30
0
41
1
10
55.7918300400491
20
39.061202561755
30
0
41
1
10
55.9443276300576
20
38.9880960876839
30
0
41
1
10
56.2612177642993
20
38.8529492662952
30
0
41
1
10
56.4281073105687
20
38.7924724964303
30
0
41
1
10
56.5919653964295
20
38.7388648162715
30
0
0
SPLINE
5
18E
100
AcDbEntity
8
1
62
256
6
ByLayer
370
18
48
1
60
0
100
AcDbSpline
70
4
71
3
72
8
73
4
40
0
40
0
40
0
40
0
40
1
40
1
40
1
40
1
41
1
10
59.8051479978608
20
36.5828658156295
30
0
41
1
10
59.8594682400497
20
36.6398573143693
30
0
41
1
10
59.9126347598483
20
36.7021232190874
30
0
41
1
10
59.9635920983074
20
36.768704653462
30
0
0
SPLINE
5
18F
100
AcDbEntity
8
1
62
256
6
ByLayer
370
18
48
1
60
0
100
AcDbSpline
70
4
71
3
72
8
73
4
40
0
40
0
40
0
40
0
40
1
40
1
40
1
40
1
41
1
10
40.8956375047102
20
31.3810467144652
30
0
41
1
10
40.6433214104263
20
31.3583929124029
30
0
41
1
10
40.4030893992832
20
31.3079097092026
30
0
41
1
10
40.1737115606227
20
31.23715079352
30
0
0
SPLINE
5
190
100
AcDbEntity
8
1
62
256
6
ByLayer
370
18
48
1
60
0
100
AcDbSpline
70
4
71
3
72
20
73
16
40
0
40
0
40
0
40
0
40
0.332873226652392
40
0.332873226652392
40
0.501657261698204
40
0.501657261698204
40
0.631212321676503
40
0.631212321676503
40
0.72254232363766
40
0.72254232363766
40
0.814765347404182
40
0.814765347404182
40
0.896421359038791
40
0.896421359038791
40
1
40
1
40
1
40
1
41
1
10
56.9187880109187
20
37.541768324987
30
0
41
1
10
56.7720568663059
20
37.397658114064
30
0
41
1
10
56.6263834732661
20
37.2404409965521
30
0
41
1
10
56.4226414388147
20
36.9700883023842
30
0
41
1
10
56.356106208537
20
36.8721005970226
30
0
41
1
10
56.2521453625804
20
36.685603925204
30
0
41
1
10
56.2108351976881
20
36.5985583431435
30
0
41
1
10
56.1573907502823
20
36.4464098372508
30
0
41
1
10
56.1399729605191
20
36.381074104252
30
0
41
1
10
56.120326264109
20
36.2552532046416
30
0
41
1
10
56.1181735475497
20
36.1931818357348
30
0
41
1
10
56.1294008581428
20
36.0900825749367
30
0
41
1
10
56.1410345958203
20
36.0461975529858
30
0
41
1
10
56.1773985925905
20
35.9611379563957
30
0
41
1
10
56.2050480518345
20
35.9225014442325
30
0
41
1
10
56.2362998070752
20
35.8916205091242
30
0
0
SPLINE
5
191
100
AcDbEntity
8
1
62
256
6
ByLayer
370
18
48
1
60
0
100
AcDbSpline
70
4
71
3
72
8
73
4
40
0
40
0
40
0
40
0
40
1
40
1
40
1
40
1
41
1
10
42.0351325929173
20
31.2335130096245
30
0
41
1
10
42.103779194104
20
31.2061926470724
30
0
41
1
10
42.1710327421017
20
31.1759562018778
30
0
41
1
10
42.2364338263806
20
31.1430203730201
30
0
0
SPLINE
5
192
100
AcDbEntity
8
1
62
256
6
ByLayer
370
18
48
1
60
0
100
AcDbSpline
70
4
71
3
72
15
73
11
40
0
40
0
40
0
40
0
40
0.227604479949748
40
0.227604479949748
40
0.479423709218442
40
0.479423709218442
40
0.785574270382839
40
0.785574270382839
40
0.785574270382839
40
1
40
1
40
1
40
1
41
1
10
49.9979924124711
20
35.3016889431853
30
0
41
1
10
49.9912224184384
20
34.9620965503221
30
0
41
1
10
49.9334880516501
20
34.6164568658121
30
0
41
1
10
49.7220054336994
20
33.9249418658702
30
0
41
1
10
49.5570874130105
20
33.5746108047409
30
0
41
1
10
49.104300584981
20
32.8668835099203
30
0
41
1
10
48.7914123762886
20
32.5138078998881
30
0
41
1
10
48.4362183771724
20
32.2206988031471
30
0
41
1
10
48.1859106303054
20
32.014142730201
30
0
41
1
10
47.9110112785502
20
31.834510648693
30
0
41
1
10
47.6211366791816
20
31.6888596542794
30
0
0
SPLINE
5
193
100
AcDbEntity
8
1
62
256
6
ByLayer
370
18
48
1
60
0
100
AcDbSpline
70
4
71
3
72
8
73
4
40
0
40
0
40
0
40
0
40
1
40
1
40
1
40
1
41
1
10
39.4924629589987
20
36.520640031636
30
0
41
1
10
38.1760898765644
20
36.8208361780859
30
0
41
1
10
36.9660922497314
20
37.029392260774
30
0
41
1
10
36.1722318374823
20
37.0314964070565
30
0
0
SPLINE
5
194
100
AcDbEntity
8
1
62
256
6
ByLayer
370
18
48
1
60
0
100
AcDbSpline
70
4
71
3
72
8
73
4
40
0
40
0
40
0
40
0
40
1
40
1
40
1
40
1
41
1
10
56.4970178376027
20
41.5081148853961
30
0
41
1
10
56.8668746664159
20
41.3386497180676
30
0
41
1
10
57.2383110984648
20
41.165815079978
30
0
41
1
10
57.6093882707938
20
40.9904772492235
30
0
0
SPLINE
5
195
100
AcDbEntity
8
1
62
256
6
ByLayer
370
18
48
1
60
0
100
AcDbSpline
70
4
71
3
72
8
73
4
40
0
40
0
40
0
40
0
40
1
40
1
40
1
40
1
41
1
10
45.486737555541
20
39.5068060572669
30
0
41
1
10
45.1976583642199
20
39.4873832788061
30
0
41
1
10
44.9149709062368
20
39.4418936405041
30
0
41
1
10
44.6391210865976
20
39.3693807831047
30
0
0
SPLINE
5
196
100
AcDbEntity
8
1
62
256
6
ByLayer
370
18
48
1
60
0
100
AcDbSpline
70
4
71
3
72
8
73
4
40
0
40
0
40
0
40
0
40
1
40
1
40
1
40
1
41
1
10
38.3820142577255
20
28.9374335592129
30
0
41
1
10
39.0144773767754
20
29.499496144724
30
0
41
1
10
39.9284016915327
20
30.406528983653
30
0
41
1
10
40.8956375047102
20
31.3810467144652
30
0
0
SPLINE
5
197
100
AcDbEntity
8
1
62
256
6
ByLayer
370
18
48
1
60
0
100
AcDbSpline
70
4
71
3
72
8
73
4
40
0
40
0
40
0
40
0
40
1
40
1
40
1
40
1
41
1
10
42.0351325929173
20
31.2335130096245
30
0
41
1
10
41.5210442757034
20
29.7416593427338
30
0
41
1
10
40.9928769645225
20
28.3541094412398
30
0
41
1
10
40.5717056529627
20
27.5696175551558
30
0
0
SPLINE
5
198
100
AcDbEntity
8
1
62
256
6
ByLayer
370
18
48
1
60
0
100
AcDbSpline
70
4
71
3
72
10
73
6
40
0
40
0
40
0
40
0
40
0.5
40
0.5
40
1
40
1
40
1
40
1
41
1
10
40.3220111418724
20
26.3556370493168
30
0
41
1
10
39.8813743091365
20
26.4818936204551
30
0
41
1
10
39.5654780176576
20
26.7301682273889
30
0
41
1
10
38.8560180939222
20
27.5199033025418
30
0
41
1
10
38.4717725268221
20
28.1336294952316
30
0
41
1
10
38.2533037592141
20
28.8178724086986
30
0
0
SPLINE
5
199
100
AcDbEntity
8
1
62
256
6
ByLayer
370
18
48
1
60
0
100
AcDbSpline
70
4
71
3
72
12
73
8
40
0
40
0
40
0
40
0
40
0.108854002841678
40
0.502629245107338
40
0.699516866240167
40
0.896404487372997
40
1
40
1
40
1
40
1
41
1.0244126255267
10
49.3642417180321
20
37.6230110112104
30
0
41
1.02394775696077
10
49.7006300424304
20
37.6794440642713
30
0
41
1.02173322391444
10
51.2950806909743
20
37.9378691834988
30
0
41
1.01876555595691
10
53.5528239433092
20
38.2418563339009
30
0
41
1.01610930227499
10
55.0753714478315
20
38.4073924475153
30
0
41
1.01814069306376
10
55.7558672757121
20
38.5714350115627
30
0
41
1.0200519600697
10
56.3676250144088
20
38.6959562541832
30
0
41
1.02076673234771
10
56.5919653964116
20
38.7388648162681
30
0
0
SPLINE
5
19A
100
AcDbEntity
8
1
62
256
6
ByLayer
370
18
48
1
60
0
100
AcDbSpline
70
4
71
3
72
8
73
4
40
0
40
0
40
0
40
0
40
1
40
1
40
1
40
1
41
1
10
40.5289527741136
20
37.3972374497539
30
0
41
1
10
41.0232963373634
20
38.1024806404051
30
0
41
1
10
41.7736180045955
20
38.6161237513085
30
0
41
1
10
42.6687007753354
20
38.8514148578978
30
0
0
SPLINE
5
19B
100
AcDbEntity
8
1
62
256
6
ByLayer
370
18
48
1
60
0
100
AcDbSpline
70
4
71
3
72
8
73
4
40
0
40
0
40
0
40
0
40
1
40
1
40
1
40
1
41
1.01923193622652
10
57.0719739088405
20
32.9898045121908
30
0
41
1.02059843499303
10
57.4747345309587
20
33.3924129353693
30
0
41
1.02233811057541
10
57.9605660895843
20
33.9096961181613
30
0
41
1.02417041321379
10
58.4197062651495
20
34.4652607734659
30
0
0
SPLINE
5
19C
100
AcDbEntity
8
1
62
256
6
ByLayer
370
18
48
1
60
0
100
AcDbSpline
70
4
71
3
72
12
73
8
40
0
40
0
40
0
40
0
40
0.471343086678522
40
0.471343086678522
40
0.892619726108223
40
0.892619726108223
40
1
40
1
40
1
40
1
41
1
10
40.8956375047102
20
31.3810467144652
30
0
41
1
10
41.071309655346
20
31.3968191610848
30
0
41
1
10
41.2557912613815
20
31.3976015063296
30
0
41
1
10
41.6010772678277
20
31.3606990214554
30
0
41
1
10
41.7658969341037
20
31.326335328749
30
0
41
1
10
41.9582524532575
20
31.2627756596553
30
0
41
1
10
41.9971280096074
20
31.2486382886145
30
0
41
1
10
42.0351325929173
20
31.2335130096245
30
0
0
SPLINE
5
19D
100
AcDbEntity
8
1
62
256
6
ByLayer
370
18
48
1
60
0
100
AcDbSpline
70
4
71
3
72
10
73
6
40
0
40
0
40
0
40
0
40
0.5
40
0.5
40
1
40
1
40
1
40
1
41
1
10
36.0101625978318
20
37.0341227374597
30
0
41
1
10
35.8482509929011
20
37.7434273420292
30
0
41
1
10
35.8819670445681
20
38.4049098729701
30
0
41
1
10
36.1333128782387
20
39.3081805537198
30
0
41
1
10
36.3043994503531
20
39.5902754740505
30
0
41
1
10
36.640502060175
20
39.8403881312296
30
0
0
SPLINE
5
19E
100
AcDbEntity
8
1
62
256
6
ByLayer
370
18
48
1
60
0
100
AcDbSpline
70
4
71
1
72
4
73
2
40
0
40
0
40
1
40
1
41
1
10
44.7013050735076
20
41.1886433149276
30
0
41
1
10
44.0986348330921
20
41.9580891478194
30
0
0
SPLINE
5
19F
100
AcDbEntity
8
1
62
256
6
ByLayer
370
18
48
1
60
0
100
AcDbSpline
70
4
71
3
72
10
73
6
40
0
40
0
40
0
40
0
40
0.655488757716275
40
0.655488757716275
40
1
40
1
40
1
40
1
41
1
10
40.7955622551446
20
26.075853829167
30
0
41
1
10
40.4505910951298
20
25.9550108533516
30
0
41
1
10
40.0519043885131
20
25.8590768639882
30
0
41
1
10
39.3952304051685
20
25.8267076479913
30
0
41
1
10
39.157603077886
20
25.8364526178605
30
0
41
1
10
38.9186527917652
20
25.8743215600634
30
0
0
SPLINE
5
1A0
100
AcDbEntity
8
1
62
256
6
ByLayer
370
18
48
1
60
0
100
AcDbSpline
70
4
71
3
72
8
73
4
40
0
40
0
40
0
40
0
40
1
40
1
40
1
40
1
41
1
10
38.2335313270473
20
28.8846800742478
30
0
41
1
10
38.2397093435566
20
28.8620510346449
30
0
41
1
10
38.2463065420259
20
28.8397876523623
30
0
41
1
10
38.2533037592141
20
28.8178724086986
30
0
0
SPLINE
5
1A1
100
AcDbEntity
8
1
62
256
6
ByLayer
370
18
48
1
60
0
100
AcDbSpline
70
4
71
3
72
12
73
8
40
0
40
0
40
0
40
0
40
0.286978363858295
40
0.286978363858295
40
0.569998995185617
40
0.569998995185617
40
1
40
1
40
1
40
1
41
1
10
49.3642418660574
20
37.6230110360437
30
0
41
1
10
49.4866041387431
20
37.423360364669
30
0
41
1
10
49.5930143427602
20
37.212942600489
30
0
41
1
10
49.7684074675672
20
36.7825621650011
30
0
41
1
10
49.8384891900614
20
36.5612939404474
30
0
41
1
10
49.9682568244473
20
35.9978233353583
30
0
41
1
10
50.0048668722907
20
35.6472848541913
30
0
41
1
10
49.9979924124711
20
35.3016889431853
30
0
0
SPLINE
5
1A2
100
AcDbEntity
8
1
62
256
6
ByLayer
370
18
48
1
60
0
100
AcDbSpline
70
4
71
3
72
15
73
11
40
0
40
0
40
0
40
0
40
0.322163720426458
40
0.322163720426458
40
0.644833452600232
40
0.644833452600232
40
0.912233455904557
40
0.912233455904557
40
0.912233455904557
40
1
40
1
40
1
40
1
41
1
10
45.4867375707553
20
39.5068060582891
30
0
41
1
10
45.9701915878473
20
39.5384216544631
30
0
41
1
10
46.4657041869402
20
39.4867306115068
30
0
41
1
10
47.399691431338
20
39.2385224019905
30
0
41
1
10
47.8515961028596
20
39.0382695341327
30
0
41
1
10
48.5830934153462
20
38.5469116096275
30
0
41
1
10
48.8871685329658
20
38.2703040994794
30
0
41
1
10
49.1351020581834
20
37.953045406898
30
0
41
1
10
49.2174962758399
20
37.8476127843955
30
0
41
1
10
49.2942344321563
20
37.7372244416528
30
0
41
1
10
49.3642418660583
20
37.6230110360436
30
0
0
SPLINE
5
1A3
100
AcDbEntity
8
1
62
256
6
ByLayer
370
18
48
1
60
0
100
AcDbSpline
70
4
71
3
72
8
73
4
40
0
40
0
40
0
40
0
40
1
40
1
40
1
40
1
41
1
10
39.4924629589987
20
36.520640031636
30
0
41
1
10
39.2663804190404
20
36.4018971144245
30
0
41
1
10
39.0372515007616
20
36.3107451419255
30
0
41
1
10
38.8078736621011
20
36.2399862262429
30
0
0
SPLINE
5
1A4
100
AcDbEntity
8
1
62
256
6
ByLayer
370
18
48
1
60
0
100
AcDbSpline
70
4
71
3
72
10
73
6
40
0
40
0
40
0
40
0
40
0.264715639145586
40
0.264715639145586
40
1
40
1
40
1
40
1
41
1
10
57.8161466151651
20
38.3705975997643
30
0
41
1
10
57.7362178113715
20
38.3020567462654
30
0
41
1
10
57.6564828245329
20
38.2320616474012
30
0
41
1
10
57.3560706914319
20
37.9630286151249
30
0
41
1
10
57.1366208277566
20
37.7558055815799
30
0
41
1
10
56.9187880109187
20
37.5417683249869
30
0
0
SPLINE
5
1A5
100
AcDbEntity
8
1
62
256
6
ByLayer
370
18
48
1
60
0
100
AcDbSpline
70
4
71
3
72
10
73
6
40
0
40
0
40
0
40
0
40
0.5
40
0.5
40
1
40
1
40
1
40
1
41
1
10
54.8503055607093
20
31.7562600291076
30
0
41
1
10
53.8096157534233
20
30.9524522392991
30
0
41
1
10
52.710798796631
20
30.235137123387
30
0
41
1
10
50.3746254920435
20
29.0066522551227
30
0
41
1
10
49.1637530045564
20
28.4586628213592
30
0
41
1
10
47.8798380393529
20
28.108175187252
30
0
0
SPLINE
5
1A6
100
AcDbEntity
8
1
62
256
6
ByLayer
370
18
48
1
60
0
100
AcDbSpline
70
4
71
3
72
12
73
8
40
0
40
0
40
0
40
0
40
0.466938972358619
40
0.466938972358619
40
0.928803236876548
40
0.928803236876548
40
1
40
1
40
1
40
1
41
1
10
40.3986977419644
20
37.2274997519
30
0
41
1
10
40.2893308790477
20
37.0969133053642
30
0
41
1
10
40.1558602195247
20
36.9688974046107
30
0
41
1
10
39.8720737350552
20
36.7446546006283
30
0
41
1
10
39.7184050729915
20
36.6446863871872
30
0
41
1
10
39.5405451162138
20
36.5462246968717
30
0
41
1
10
39.5165183831169
20
36.5332744050603
30
0
41
1
10
39.4924629589987
20
36.520640031636
30
0
0
SPLINE
5
1A7
100
AcDbEntity
8
1
62
256
6
ByLayer
370
18
48
1
60
0
100
AcDbSpline
70
4
71
3
72
8
73
4
40
0
40
0
40
0
40
0
40
1
40
1
40
1
40
1
41
1
10
57.0719368275361
20
32.9897674449884
30
0
41
1
10
56.9751483236894
20
32.9486122059954
30
0
41
1
10
56.8774583200079
20
32.9096146959159
30
0
41
1
10
56.7788866033017
20
32.8730195456803
30
0
0
SPLINE
5
1A8
100
AcDbEntity
8
1
62
256
6
ByLayer
370
18
48
1
60
0
100
AcDbSpline
70
4
71
3
72
12
73
8
40
0
40
0
40
0
40
0
40
0.108853988607132
40
0.502629237162306
40
0.699516861439892
40
0.896404485717479
40
1
40
1
40
1
40
1
41
1.02441262532206
10
49.9979924124713
20
35.3016889431853
30
0
41
1.02394775682001
10
50.3198832116019
20
35.41122382263
30
0
41
1.02173322384668
10
51.8424146752476
20
35.9330766774862
30
0
41
1.01876555595691
10
53.9785921353331
20
36.682338766352
30
0
41
1.01610930227499
10
55.4063968332335
20
37.1949019103778
30
0
41
1.01814069306376
10
56.0918130444832
20
37.3409219343549
30
0
41
1.02005196006971
10
56.697780722801
20
37.4866511982726
30
0
41
1.02076673234773
10
56.9187880109083
20
37.5417683249844
30
0
0
SPLINE
5
1A9
100
AcDbEntity
8
1
62
256
6
ByLayer
370
18
48
1
60
0
100
AcDbSpline
70
4
71
3
72
11
73
7
40
0
40
0
40
0
40
0
40
0.423407924939465
40
0.740963868644064
40
0.899741840496363
40
1
40
1
40
1
40
1
41
1.02805999725225
10
47.8939749898282
20
29.4944282110376
30
0
41
1.02767136955277
10
48.6925329585536
20
29.8227106039118
30
0
41
1.02349884684923
10
51.2766381486024
20
31.8320030629401
30
0
41
1.01876555595691
10
54.3929400234648
20
34.6452706942475
30
0
41
1.01635405201137
10
55.576373227754
20
35.6823743525688
30
0
41
1.01722454828226
10
56.0408350527777
20
35.8367967395628
30
0
41
1.01774327987904
10
56.2362998070757
20
35.8916205091243
30
0
0
SPLINE
5
1AA
100
AcDbEntity
8
1
62
256
6
ByLayer
370
18
48
1
60
0
100
AcDbSpline
70
4
71
3
72
8
73
4
40
0
40
0
40
0
40
0
40
1
40
1
40
1
40
1
41
1
10
47.6211366715917
20
31.6888596504628
30
0
41
1
10
47.367388667137
20
31.5612617140339
30
0
41
1
10
47.096701086391
20
31.4570304578605
30
0
41
1
10
46.8192085015458
20
31.3840857654892
30
0
0
SPLINE
5
1AB
100
AcDbEntity
8
1
62
256
6
ByLayer
370
18
48
1
60
0
100
AcDbSpline
70
4
71
3
72
8
73
4
40
0
40
0
40
0
40
0
40
1
40
1
40
1
40
1
41
1
10
36.0271777986661
20
36.9661834655695
30
0
41
1
10
36.0209997821568
20
36.9888125051725
30
0
41
1
10
36.0153359782487
20
37.011459120775
30
0
41
1
10
36.0101625978318
20
37.0341227374597
30
0
0
SPLINE
5
1AC
100
AcDbEntity
8
1
62
256
6
ByLayer
370
18
48
1
60
0
100
AcDbSpline
70
4
71
3
72
8
73
4
40
0
40
0
40
0
40
0
40
1
40
1
40
1
40
1
41
1
10
40.5289527741137
20
37.3972374497539
30
0
41
1
10
40.4885368369142
20
37.3395790384329
30
0
41
1
10
40.4451426323885
20
37.2829559754623
30
0
41
1
10
40.3986977419644
20
37.2274997519
30
0
0
SPLINE
5
1AD
100
AcDbEntity
8
1
62
256
6
ByLayer
370
18
48
1
60
0
100
AcDbSpline
70
4
71
3
72
11
73
7
40
0
40
0
40
0
40
0
40
0.564783939443775
40
0.564783939443775
40
0.564783939443775
40
1
40
1
40
1
40
1
41
1
10
54.2569459454758
20
42.1104657286073
30
0
41
1
10
53.8888899757747
20
42.0854623400087
30
0
41
1
10
53.4689985955668
20
42.0731900002975
30
0
41
1
10
53.0342598137743
20
42.1033523622099
30
0
41
1
10
52.6964913928021
20
42.1267868791719
30
0
41
1
10
52.3449988767692
20
42.1681477772568
30
0
41
1
10
51.9941608614458
20
42.2178396337781
30
0
0
SPLINE
5
1AE
100
AcDbEntity
8
1
62
256
6
ByLayer
370
18
48
1
60
0
100
AcDbSpline
70
4
71
3
72
8
73
4
40
0
40
0
40
0
40
0
40
1
40
1
40
1
40
1
41
1
10
54.8503055607095
20
31.7562600291078
30
0
41
1
10
55.493584287605
20
32.2531155263718
30
0
41
1
10
56.1665623390794
20
32.6456916752641
30
0
41
1
10
56.7788866033017
20
32.8730195456803
30
0
0
SPLINE
5
1AF
100
AcDbEntity
8
1
62
256
6
ByLayer
370
18
48
1
60
0
100
AcDbSpline
70
4
71
3
72
8
73
4
40
0
40
0
40
0
40
0
40
1
40
1
40
1
40
1
41
1
10
58.4197818822126
20
34.465352271581
30
0
41
1
10
58.6506332705823
20
34.8050407477745
30
0
41
1
10
58.8817886824489
20
35.1460319881148
30
0
41
1
10
59.112032254977
20
35.4865440423733
30
0
0
SPLINE
5
1B0
100
AcDbEntity
8
1
62
256
6
ByLayer
370
18
48
1
60
0
100
AcDbSpline
70
4
71
2
72
6
73
3
40
0
40
0
40
0
40
1
40
1
40
1
41
1.02805999725224
10
44.7013050735076
20
41.1886433149276
30
0
41
0.93055444607248
10
45.0204529925505
20
40.7811783035238
30
0
41
0.937301687719828
10
45.4867375707542
20
39.5068060582921
30
0
0
SPLINE
5
1B1
100
AcDbEntity
8
1
62
256
6
ByLayer
370
18
48
1
60
0
100
AcDbSpline
70
4
71
3
72
8
73
4
40
0
40
0
40
0
40
0
40
1
40
1
40
1
40
1
41
1
10
44.8487881902834
20
30.8661198402823
30
0
41
1
10
43.9564372444268
20
30.6315468506323
30
0
41
1
10
43.0298455757318
20
30.743460122935
30
0
41
1
10
42.2364338263806
20
31.1430203730201
30
0
0
SPLINE
5
1B2
100
AcDbEntity
8
1
62
256
6
ByLayer
370
18
48
1
60
0
100
AcDbSpline
70
4
71
3
72
8
73
4
40
0
40
0
40
0
40
0
40
1
40
1
40
1
40
1
41
1
10
37.3790357366422
20
39.2638326590458
30
0
41
1
10
38.0860505554237
20
38.9981138412278
30
0
41
1
10
39.2127614389885
20
38.1995962682456
30
0
41
1
10
40.3986977419581
20
37.227499751894
30
0
0
SPLINE
5
1B3
100
AcDbEntity
8
1
62
256
6
ByLayer
370
18
48
1
60
0
100
AcDbSpline
70
4
71
3
72
10
73
6
40
0
40
0
40
0
40
0
40
0.5
40
0.5
40
1
40
1
40
1
40
1
41
1
10
44.0986348330921
20
41.9580891478194
30
0
41
1
10
45.3930110845511
20
42.2853202392856
30
0
41
1
10
46.7049975905278
20
42.4021484442778
30
0
41
1
10
49.3414953446886
20
42.4861623882703
30
0
41
1
10
50.6771118599734
20
42.4043833010954
30
0
41
1
10
51.9941608614455
20
42.2178396337782
30
0
0
SPLINE
5
1B4
100
AcDbEntity
8
1
62
256
6
ByLayer
370
18
48
1
60
0
100
AcDbSpline
70
4
71
2
72
6
73
3
40
0
40
0
40
0
40
1
40
1
40
1
41
1.02805999725224
10
47.8939749898282
20
29.4944282110376
30
0
41
1.02805999725224
10
47.8869065145906
20
28.8013016991448
30
0
41
1.02805999725224
10
47.8798380393528
20
28.108175187252
30
0
0
SPLINE
5
1B5
100
AcDbEntity
8
1
62
256
6
ByLayer
370
18
48
1
60
0
100
AcDbSpline
70
4
71
3
72
8
73
4
40
0
40
0
40
0
40
0
40
1
40
1
40
1
40
1
41
1.02417048357497
10
56.4969318251962
20
41.5081472260821
30
0
41
1.02233815524058
10
55.8162329214754
20
41.7640881753942
30
0
41
1.02059845272928
10
55.1319184067066
20
41.9737802852882
30
0
41
1.01923193651505
10
54.5779755571505
20
42.1249031054589
30
0
0
SPLINE
5
1B6
100
AcDbEntity
8
1
62
256
6
ByLayer
370
18
48
1
60
0
100
AcDbSpline
70
4
71
3
72
10
73
6
40
0
40
0
40
0
40
0
40
0.5
40
0.5
40
1
40
1
40
1
40
1
41
1
10
57.6093882707701
20
40.9904772492295
30
0
41
1
10
56.8744567258664
20
41.1749085746556
30
0
41
1
10
56.3059250736003
20
41.0629179347067
30
0
41
1
10
55.5555979281665
20
40.5729969238805
30
0
41
1
10
55.3318462872339
20
40.2055956355994
30
0
41
1
10
55.1674829683789
20
39.806517553249
30
0
0
SPLINE
5
1B7
100
AcDbEntity
8
1
62
256
6
ByLayer
370
18
48
1
60
0
100
AcDbSpline
70
4
71
3
72
10
73
6
40
0
40
0
40
0
40
0
40
0.5
40
0.5
40
1
40
1
40
1
40
1
41
1
10
56.2362998070752
20
35.8916205091242
30
0
41
1
10
56.6101694677956
20
35.522130422161
30
0
41
1
10
57.0105723158995
20
35.211587026332
30
0
41
1
10
57.9714528082337
20
34.9461257925539
30
0
41
1
10
58.5428480468494
20
35.0203305356941
30
0
41
1
10
59.112032254977
20
35.4865440423733
30
0
0
SPLINE
5
1B8
100
AcDbEntity
8
1
62
256
6
ByLayer
370
18
48
1
60
0
100
AcDbSpline
70
4
71
3
72
11
73
7
40
0
40
0
40
0
40
0
40
0.423407924946042
40
0.740963868655573
40
0.899741840510338
40
1
40
1
40
1
40
1
41
1.02805999725224
10
44.7013050735076
20
41.1886433149276
30
0
41
1.02767136955277
10
45.5566184656812
20
41.3090400986172
30
0
41
1.02349884684923
10
48.7903268821543
20
40.9389447532122
30
0
41
1.01876555595691
10
52.9173933018541
20
40.0499511686979
30
0
41
1.01635405201144
10
54.4781249825795
20
39.7050737084975
30
0
41
1.01722454828215
10
54.9666665731623
20
39.7712959477469
30
0
41
1.0177432798788
10
55.1674829682967
20
39.8065175532345
30
0
0
SPLINE
5
1B9
100
AcDbEntity
8
1
62
256
6
ByLayer
370
18
48
1
60
0
100
AcDbSpline
70
4
71
3
72
10
73
6
40
0
40
0
40
0
40
0
40
0.967465556419477
40
0.967465556419477
40
1
40
1
40
1
40
1
41
1
10
56.5919653964295
20
38.7388648162715
30
0
41
1
10
56.9910818685229
20
38.6082131303741
30
0
41
1
10
57.3873042834496
20
38.4872442388719
30
0
41
1
10
57.7899472929881
20
38.3776800544788
30
0
41
1
10
57.8030508952102
20
38.3741298710482
30
0
41
1
10
57.8161466151811
20
38.37059759976
30
0
0
INSERT
5
1CB
100
AcDbEntity
8
2
62
256
6
ByLayer
370
25
48
1
60
0
100
AcDbBlockReference
2
DimnDraft3D11
10
0
20
0
30
0
41
1
42
1
43
1
50
0
210
0
220
0
230
1
0
LINE
5
72
100
AcDbEntity
8
80
62
256
6
ByLayer
370
18
48
1
60
0
100
AcDbLine
10
0
20
0
30
0
11
-5
21
0
31
0
39
0
210
0
220
0
230
1
0
LINE
5
73
100
AcDbEntity
8
1
62
256
6
ByLayer
370
18
48
1
60
0
100
AcDbLine
10
0.3
20
31.5
30
0
11
0
21
31.2
31
0
39
0
210
0
220
0
230
1
0
LINE
5
75
100
AcDbEntity
8
1
62
256
6
ByLayer
370
18
48
1
60
0
100
AcDbLine
10
0
20
-31.2
30
0
11
0.3
21
-31.5
31
0
39
0
210
0
220
0
230
1
0
LINE
5
76
100
AcDbEntity
8
1
62
256
6
ByLayer
370
18
48
1
60
0
100
AcDbLine
10
0.3
20
-31.5
30
0
11
22.920792
21
-31.5
31
0
39
0
210
0
220
0
230
1
0
LINE
5
77
100
AcDbEntity
8
1
62
256
6
ByLayer
370
18
48
1
60
0
100
AcDbLine
10
22.920792
20
31.5
30
0
11
0.3
21
31.5
31
0
39
0
210
0
220
0
230
1
0
LINE
5
78
100
AcDbEntity
8
1
62
256
6
ByLayer
370
18
48
1
60
0
100
AcDbLine
10
22.960985
20
-31.65
30
0
11
31.591974
21
-31.65
31
0
39
0
210
0
220
0
230
1
0
LINE
5
79
100
AcDbEntity
8
1
62
256
6
ByLayer
370
18
48
1
60
0
100
AcDbLine
10
22.920792
20
-31.5
30
0
11
22.960985
21
-31.65
31
0
39
0
210
0
220
0
230
1
0
LINE
5
7A
100
AcDbEntity
8
1
62
256
6
ByLayer
370
18
48
1
60
0
100
AcDbLine
10
19.202956
20
-11.966107
30
0
11
24.417374
21
-6.305151
31
0
39
0
210
0
220
0
230
1
0
LINE
5
7B
100
AcDbEntity
8
1
62
256
6
ByLayer
370
18
48
1
60
0
100
AcDbLine
10
21.583345
20
-3.292954
30
0
11
21.238737
21
-3.302753
31
0
39
0
210
0
220
0
230
1
0
LINE
5
7C
100
AcDbEntity
8
1
62
256
6
ByLayer
370
18
48
1
60
0
100
AcDbLine
10
36.776445
20
39.931768
30
0
11
35.999148
21
39.458813
31
0
39
0
210
0
220
0
230
1
0
LINE
5
7D
100
AcDbEntity
8
1
62
256
6
ByLayer
370
18
48
1
60
0
100
AcDbLine
10
60.501583
20
28.792343
30
0
11
60.99644
21
29.287201
31
0
39
0
210
0
220
0
230
1
0
LINE
5
7E
100
AcDbEntity
8
1
62
256
6
ByLayer
370
18
48
1
60
0
100
AcDbLine
10
44.608578
20
36.280003
30
0
11
44.774917
21
36.446342
31
0
39
0
210
0
220
0
230
1
0
LINE
5
7F
100
AcDbEntity
8
1
62
256
6
ByLayer
370
18
48
1
60
0
100
AcDbLine
10
23.655227
20
34.240947
30
0
11
22.920792
21
31.5
31
0
39
0
210
0
220
0
230
1
0
LINE
5
80
100
AcDbEntity
8
1
62
256
6
ByLayer
370
18
48
1
60
0
100
AcDbLine
10
39.213632
20
36.342447
30
0
11
39.688009
21
36.631087
31
0
39
0
210
0
220
0
230
1
0
LINE
5
81
100
AcDbEntity
8
1
62
256
6
ByLayer
370
18
48
1
60
0
100
AcDbLine
10
45.009723
20
33.985816
30
0
11
44.843384
21
33.819477
31
0
39
0
210
0
220
0
230
1
0
LINE
5
82
100
AcDbEntity
8
1
62
256
6
ByLayer
370
18
48
1
60
0
100
AcDbLine
10
43.495718
20
35.167143
30
0
11
43.662057
21
35.333482
31
0
39
0
210
0
220
0
230
1
0
LINE
5
83
100
AcDbEntity
8
1
62
256
6
ByLayer
370
18
48
1
60
0
100
AcDbLine
10
46.122583
20
35.098676
30
0
11
45.956244
21
34.932337
31
0
39
0
210
0
220
0
230
1
0
LINE
5
84
100
AcDbEntity
8
1
62
256
6
ByLayer
370
18
48
1
60
0
100
AcDbLine
10
47.471239
20
32.138144
30
0
11
47.644435
21
32.311339
31
0
39
0
210
0
220
0
230
1
0
LINE
5
85
100
AcDbEntity
8
1
62
256
6
ByLayer
370
18
48
1
60
0
100
AcDbLine
10
41.98758
20
37.968194
30
0
11
41.814385
21
37.794998
31
0
39
0
210
0
220
0
230
1
0
LINE
5
86
100
AcDbEntity
8
1
62
256
6
ByLayer
370
18
48
1
60
0
100
AcDbLine
10
21.181084
20
-3.32414
30
0
11
19.269026
21
-5.399936
31
0
39
0
210
0
220
0
230
1
0
LINE
5
87
100
AcDbEntity
8
1
62
256
6
ByLayer
370
18
48
1
60
0
100
AcDbLine
10
24.433962
20
-6.245938
30
0
11
24.415477
21
-5.901686
31
0
39
0
210
0
220
0
230
1
0
LINE
5
88
100
AcDbEntity
8
4
62
256
6
ByLayer
370
18
48
0.05
60
0
100
AcDbLine
10
0
20
0
30
0
11
65
21
0
31
0
39
0
210
0
220
0
230
1
0
LINE
5
8A
100
AcDbEntity
8
81
62
256
6
ByLayer
370
18
48
1
60
0
100
AcDbLine
10
65
20
45
30
0
11
75
21
45
31
0
39
0
210
0
220
0
230
1
0
LINE
5
8B
100
AcDbEntity
8
SK4
62
256
6
ByLayer
370
18
48
0.05
60
0
100
AcDbLine
10
-43
20
0
30
0
11
65
21
0
31
0
39
0
210
0
220
0
230
1
0
LINE
5
8D
100
AcDbEntity
8
1
62
256
6
ByLayer
370
13
48
0.05
60
0
100
AcDbLine
10
0
20
-0.447214
30
0
11
0
21
3.622214
31
0
39
0
210
0
220
0
230
1
0
LINE
5
8E
100
AcDbEntity
8
1
62
256
6
ByLayer
370
18
48
1
60
0
100
AcDbLine
10
0.3
20
-31.5
30
0
11
0.3
21
31.5
31
0
39
0
210
0
220
0
230
1
0
LINE
5
8F
100
AcDbEntity
8
1
62
256
6
ByLayer
370
18
48
1
60
0
100
AcDbLine
10
0
20
-31.2
30
0
11
0
21
31.2
31
0
39
0
210
0
220
0
230
1
0
LINE
5
90
100
AcDbEntity
8
1
62
256
6
ByLayer
370
18
48
1
60
0
100
AcDbLine
10
22.920792
20
31.5
30
0
11
22.920792
21
30.899614
31
0
39
0
210
0
220
0
230
1
0
LINE
5
91
100
AcDbEntity
8
1
62
256
6
ByLayer
370
18
48
1
60
0
100
AcDbLine
10
22.920792
20
-30.899614
30
0
11
22.920792
21
-31.5
31
0
39
0
210
0
220
0
230
1
0
LINE
5
92
100
AcDbEntity
8
1
62
256
6
ByLayer
370
18
48
1
60
0
100
AcDbLine
10
19.911507
20
-11.19694
30
0
11
19.911507
21
-29.985012
31
0
39
0
210
0
220
0
230
1
0
LINE
5
93
100
AcDbEntity
8
1
62
256
6
ByLayer
370
18
48
1
60
0
100
AcDbLine
10
19.829112
20
-13.69735
30
0
11
19.854266
21
-11.258974
31
0
39
0
210
0
220
0
230
1
0
LINE
5
94
100
AcDbEntity
8
SK1
62
256
6
ByLayer
370
18
48
1
60
0
100
AcDbLine
10
-0.2
20
7.059518
30
0
11
-0.2
21
22.533485
31
0
39
0
210
0
220
0
230
1
0
LINE
5
96
100
AcDbEntity
8
SK1
62
256
6
ByLayer
370
18
48
1
60
0
100
AcDbLine
10
-0.2
20
-22.533485
30
0
11
-0.2
21
-7.059517
31
0
39
0
210
0
220
0
230
1
0
LINE
5
97
100
AcDbEntity
8
1
62
256
6
ByLayer
370
18
48
1
60
0
100
AcDbLine
10
19.829112
20
-13.69735
30
0
11
19.216774
21
-13.133314
31
0
39
0
210
0
220
0
230
1
0
LINE
5
98
100
AcDbEntity
8
1
62
256
6
ByLayer
370
18
48
1
60
0
100
AcDbLine
10
23.896286
20
30.500632
30
0
11
23.896286
21
-5.134963
31
0
39
0
210
0
220
0
230
1
0
LINE
5
99
100
AcDbEntity
8
1
62
256
6
ByLayer
370
18
48
1
60
0
100
AcDbLine
10
23.896286
20
-6.870657
30
0
11
23.896286
21
-31.076076
31
0
39
0
210
0
220
0
230
1
0
LINE
5
9A
100
AcDbEntity
8
1
62
256
6
ByLayer
370
18
48
1
60
0
100
AcDbLine
10
31.591974
20
-31.65
30
0
11
31.857139
21
-31.076076
31
0
39
0
210
0
220
0
230
1
0
LINE
5
9B
100
AcDbEntity
8
1
62
256
6
ByLayer
370
18
48
1
60
0
100
AcDbLine
10
22.960985
20
-31.65
30
0
11
22.960985
21
-31.054462
31
0
39
0
210
0
220
0
230
1
0
LINE
5
9C
100
AcDbEntity
8
1
62
256
6
ByLayer
370
18
48
1
60
0
100
AcDbLine
10
55.116954
20
43.941852
30
0
11
51.461154
21
42.272272
31
0
39
0
210
0
220
0
230
1
0
LINE
5
9D
100
AcDbEntity
8
1
62
256
6
ByLayer
370
18
48
1
60
0
100
AcDbLine
10
55.466993
20
32.199502
30
0
11
59.712806
21
29.214774
31
0
39
0
210
0
220
0
230
1
0
LINE
5
9E
100
AcDbEntity
8
1
62
256
6
ByLayer
370
18
48
1
60
0
100
AcDbLine
10
42.331144
20
26.617372
30
0
11
42.810927
21
24.860006
31
0
39
0
210
0
220
0
230
1
0
LINE
5
9F
100
AcDbEntity
8
1
62
256
6
ByLayer
370
18
48
1
60
0
100
AcDbLine
10
38.465996
20
40.774762
30
0
11
38.541304
21
40.498921
31
0
39
0
210
0
220
0
230
1
0
LINE
5
A0
100
AcDbEntity
8
1
62
256
6
ByLayer
370
18
48
1
60
0
100
AcDbLine
10
37.662933
20
25.940447
30
0
11
37.432123
21
26.785867
31
0
39
0
210
0
220
0
230
1
0
LINE
5
A1
100
AcDbEntity
8
1
62
256
6
ByLayer
370
18
48
1
60
0
100
AcDbLine
10
34.520889
20
37.449228
30
0
11
34.338184
21
38.118448
31
0
39
0
210
0
220
0
230
1
0
LINE
5
A2
100
AcDbEntity
8
1
62
256
6
ByLayer
370
18
48
1
60
0
100
AcDbLine
10
55.544864
20
32.246621
30
0
11
59.74833
21
29.291662
31
0
39
0
210
0
220
0
230
1
0
LINE
5
A3
100
AcDbEntity
8
1
62
256
6
ByLayer
370
18
48
1
60
0
100
AcDbLine
10
55.116954
20
43.941852
30
0
11
55.178154
21
43.770848
31
0
39
0
210
0
220
0
230
1
0
LINE
5
A4
100
AcDbEntity
8
1
62
256
6
ByLayer
370
18
48
1
60
0
100
AcDbLine
10
59.985968
20
29.204277
30
0
11
55.605775
21
32.283472
31
0
39
0
210
0
220
0
230
1
0
LINE
5
A5
100
AcDbEntity
8
1
62
256
6
ByLayer
370
18
48
1
60
0
100
AcDbLine
10
51.848972
20
42.232694
30
0
11
55.464434
21
43.903114
31
0
39
0
210
0
220
0
230
1
0
LINE
5
A6
100
AcDbEntity
8
1
62
256
6
ByLayer
370
18
48
1
60
0
100
AcDbLine
10
59.491111
20
28.709419
30
0
11
59.482142
21
28.715724
31
0
39
0
210
0
220
0
230
1
0
LINE
5
A7
100
AcDbEntity
8
1
62
256
6
ByLayer
370
18
48
1
60
0
100
AcDbLine
10
45.9171
20
34.383946
30
0
11
46.083439
21
34.550285
31
0
39
0
210
0
220
0
230
1
0
LINE
5
A8
100
AcDbEntity
8
1
62
256
6
ByLayer
370
18
48
1
60
0
100
AcDbLine
10
45.418385
20
36.210657
30
0
11
45.584723
21
36.376996
31
0
39
0
210
0
220
0
230
1
0
LINE
5
A9
100
AcDbEntity
8
1
62
256
6
ByLayer
370
18
48
1
60
0
100
AcDbLine
10
44.060187
20
36.240859
30
0
11
44.226526
21
36.407198
31
0
39
0
210
0
220
0
230
1
0
LINE
5
AA
100
AcDbEntity
8
1
62
256
6
ByLayer
370
18
48
1
60
0
100
AcDbLine
10
43.367784
20
35.079942
30
0
11
43.534122
21
35.246281
31
0
39
0
210
0
220
0
230
1
0
LINE
5
AB
100
AcDbEntity
8
1
62
256
6
ByLayer
370
18
48
1
60
0
100
AcDbLine
10
44.756183
20
33.691543
30
0
11
44.922522
21
33.857881
31
0
39
0
210
0
220
0
230
1
0
LINE
5
AC
100
AcDbEntity
8
1
62
256
6
ByLayer
370
18
48
1
60
0
100
AcDbLine
10
45.886898
20
35.742144
30
0
11
46.053237
21
35.908483
31
0
39
0
210
0
220
0
230
1
0
LINE
5
AD
100
AcDbEntity
8
1
62
256
6
ByLayer
370
18
48
1
60
0
100
AcDbLine
10
29.494976
20
36.811319
30
0
11
24.078325
21
34.418215
31
0
39
0
210
0
220
0
230
1
0
LINE
5
AE
100
AcDbEntity
8
1
62
256
6
ByLayer
370
18
48
1
60
0
100
AcDbLine
10
10.538675
20
-30.080593
30
0
11
13.461325
21
-30.080593
31
0
39
0
210
0
220
0
230
1
0
LINE
5
AF
100
AcDbEntity
8
1
62
256
6
ByLayer
370
18
48
1
60
0
100
AcDbLine
10
19.926037
20
-4.539062
30
0
11
19.911507
21
-4.554836
31
0
39
0
210
0
220
0
230
1
0
LINE
5
B0
100
AcDbEntity
8
1
62
256
6
ByLayer
370
18
48
1
60
0
100
AcDbLine
10
13.461325
20
9.349221
30
0
11
13.461325
21
30.080593
31
0
39
0
210
0
220
0
230
1
0
LINE
5
B1
100
AcDbEntity
8
1
62
256
6
ByLayer
370
18
48
1
60
0
100
AcDbLine
10
10.538675
20
9.349221
30
0
11
13.461325
21
9.349221
31
0
39
0
210
0
220
0
230
1
0
LINE
5
B2
100
AcDbEntity
8
1
62
256
6
ByLayer
370
18
48
1
60
0
100
AcDbLine
10
38.465996
20
40.774762
30
0
11
34.623602
21
39.077173
31
0
39
0
210
0
220
0
230
1
0
LINE
5
B3
100
AcDbEntity
8
1
62
256
6
ByLayer
370
18
48
1
60
0
100
AcDbLine
10
19.911507
20
-4.554836
30
0
11
19.270586
21
-5.250643
31
0
39
0
210
0
220
0
230
1
0
LINE
5
B4
100
AcDbEntity
8
1
62
256
6
ByLayer
370
18
48
1
60
0
100
AcDbLine
10
54.908208
20
44.525132
30
0
11
55.116954
21
43.941852
31
0
39
0
210
0
220
0
230
1
0
LINE
5
B5
100
AcDbEntity
8
1
62
256
6
ByLayer
370
18
48
1
60
0
100
AcDbLine
10
54.908208
20
44.525132
30
0
11
46.954738
21
44.525132
31
0
39
0
210
0
220
0
230
1
0
LINE
5
B6
100
AcDbEntity
8
1
62
256
6
ByLayer
370
18
48
1
60
0
100
AcDbLine
10
19.911507
20
29.985012
30
0
11
19.911507
21
-4.554836
31
0
39
0
210
0
220
0
230
1
0
LINE
5
B7
100
AcDbEntity
8
1
62
256
6
ByLayer
370
18
48
1
60
0
100
AcDbLine
10
29.494976
20
36.811319
30
0
11
32.047381
21
37.938985
31
0
39
0
210
0
220
0
230
1
0
LINE
5
B8
100
AcDbEntity
8
1
62
256
6
ByLayer
370
18
48
1
60
0
100
AcDbLine
10
10.538675
20
9.349221
30
0
11
10.538675
21
30.080593
31
0
39
0
210
0
220
0
230
1
0
LINE
5
B9
100
AcDbEntity
8
1
62
256
6
ByLayer
370
18
48
1
60
0
100
AcDbLine
10
10.105662
20
-20.132452
30
0
11
10.105662
21
-9.869413
31
0
39
0
210
0
220
0
230
1
0
LINE
5
BA
100
AcDbEntity
8
1
62
256
6
ByLayer
370
18
48
1
60
0
100
AcDbLine
10
13.894338
20
9.869413
30
0
11
13.894338
21
29.913955
31
0
39
0
210
0
220
0
230
1
0
LINE
5
BB
100
AcDbEntity
8
1
62
256
6
ByLayer
370
18
48
1
60
0
100
AcDbLine
10
19.270586
20
-5.250643
30
0
11
19.205261
21
-11.583206
31
0
39
0
210
0
220
0
230
1
0
LINE
5
BC
100
AcDbEntity
8
1
62
256
6
ByLayer
370
18
48
1
60
0
100
AcDbLine
10
10.105662
20
-29.913955
30
0
11
10.105662
21
-21.040182
31
0
39
0
210
0
220
0
230
1
0
LINE
5
BD
100
AcDbEntity
8
1
62
256
6
ByLayer
370
18
48
1
60
0
100
AcDbLine
10
19.358626
20
-15.0076
30
0
11
19.617844
21
-15.886053
31
0
39
0
210
0
220
0
230
1
0
LINE
5
BE
100
AcDbEntity
8
1
62
256
6
ByLayer
370
18
48
1
60
0
100
AcDbLine
10
48.787784
20
5.568639
30
0
11
31.857139
21
-31.076076
31
0
39
0
210
0
220
0
230
1
0
LINE
5
BF
100
AcDbEntity
8
1
62
256
6
ByLayer
370
18
48
1
60
0
100
AcDbLine
10
42.810927
20
24.860006
30
0
11
42.123604
21
24.629789
31
0
39
0
210
0
220
0
230
1
0
LINE
5
C0
100
AcDbEntity
8
1
62
256
6
ByLayer
370
18
48
1
60
0
100
AcDbLine
10
13.894338
20
-29.913955
30
0
11
13.894338
21
-21.040182
31
0
39
0
210
0
220
0
230
1
0
LINE
5
C1
100
AcDbEntity
8
1
62
256
6
ByLayer
370
18
48
1
60
0
100
AcDbLine
10
59.712806
20
29.214774
30
0
11
59.74833
21
29.291662
31
0
39
0
210
0
220
0
230
1
0
LINE
5
C2
100
AcDbEntity
8
1
62
256
6
ByLayer
370
18
48
1
60
0
100
AcDbLine
10
13.461325
20
-19.43724
30
0
11
13.461325
21
-9.349221
31
0
39
0
210
0
220
0
230
1
0
LINE
5
C3
100
AcDbEntity
8
1
62
256
6
ByLayer
370
18
48
1
60
0
100
AcDbLine
10
33.16094
20
37.104829
30
0
11
36.126957
21
26.240807
31
0
39
0
210
0
220
0
230
1
0
LINE
5
C4
100
AcDbEntity
8
1
62
256
6
ByLayer
370
18
48
1
60
0
100
AcDbLine
10
13.461325
20
-9.349221
30
0
11
10.538675
21
-9.349221
31
0
39
0
210
0
220
0
230
1
0
LINE
5
C5
100
AcDbEntity
8
1
62
256
6
ByLayer
370
18
48
1
60
0
100
AcDbLine
10
48.787784
20
5.568639
30
0
11
59.712806
21
29.214774
31
0
39
0
210
0
220
0
230
1
0
LINE
5
C6
100
AcDbEntity
8
1
62
256
6
ByLayer
370
18
48
1
60
0
100
AcDbLine
10
24.078325
20
34.418215
30
0
11
23.791282
21
34.291397
31
0
39
0
210
0
220
0
230
1
0
LINE
5
C7
100
AcDbEntity
8
1
62
256
6
ByLayer
370
18
48
1
60
0
100
AcDbLine
10
46.954738
20
44.525132
30
0
11
38.465996
21
40.774762
31
0
39
0
210
0
220
0
230
1
0
LINE
5
C8
100
AcDbEntity
8
1
62
256
6
ByLayer
370
18
48
1
60
0
100
AcDbLine
10
31.857139
20
-31.076076
30
0
11
23.896286
21
-31.076076
31
0
39
0
210
0
220
0
230
1
0
LINE
5
C9
100
AcDbEntity
8
1
62
256
6
ByLayer
370
18
48
1
60
0
100
AcDbLine
10
13.461325
20
-30.080593
30
0
11
13.461325
21
-21.369494
31
0
39
0
210
0
220
0
230
1
0
LINE
5
CA
100
AcDbEntity
8
1
62
256
6
ByLayer
370
18
48
1
60
0
100
AcDbLine
10
13.894338
20
-20.132452
30
0
11
13.894338
21
-9.869413
31
0
39
0
210
0
220
0
230
1
0
LINE
5
CB
100
AcDbEntity
8
1
62
256
6
ByLayer
370
18
48
1
60
0
100
AcDbLine
10
10.538675
20
-30.080593
30
0
11
10.538675
21
-21.369494
31
0
39
0
210
0
220
0
230
1
0
LINE
5
CC
100
AcDbEntity
8
1
62
256
6
ByLayer
370
18
48
1
60
0
100
AcDbLine
10
24.078325
20
30.278098
30
0
11
48.787784
21
5.568639
31
0
39
0
210
0
220
0
230
1
0
LINE
5
CD
100
AcDbEntity
8
1
62
256
6
ByLayer
370
18
48
1
60
0
100
AcDbLine
10
10.538675
20
-19.43724
30
0
11
10.538675
21
-9.349221
31
0
39
0
210
0
220
0
230
1
0
LINE
5
CE
100
AcDbEntity
8
1
62
256
6
ByLayer
370
18
48
1
60
0
100
AcDbLine
10
13.461325
20
30.080593
30
0
11
10.538675
21
30.080593
31
0
39
0
210
0
220
0
230
1
0
LINE
5
CF
100
AcDbEntity
8
1
62
256
6
ByLayer
370
18
48
1
60
0
100
AcDbLine
10
24.078325
20
30.278098
30
0
11
24.078325
21
34.418215
31
0
39
0
210
0
220
0
230
1
0
LINE
5
D0
100
AcDbEntity
8
1
62
256
6
ByLayer
370
18
48
1
60
0
100
AcDbLine
10
10.105662
20
9.869413
30
0
11
10.105662
21
29.913955
31
0
39
0
210
0
220
0
230
1
0
LINE
5
D1
100
AcDbEntity
8
1
62
256
6
ByLayer
370
18
48
1
60
0
100
AcDbLine
10
32.650357
20
25.253688
30
0
11
29.494976
21
36.811319
31
0
39
0
210
0
220
0
230
1
0
LINE
5
D2
100
AcDbEntity
8
SK1
62
256
6
ByLayer
370
18
48
1
60
0
100
AcDbLine
10
-1.307107
20
-4.811013
30
0
11
-1.307107
21
4.811013
31
0
39
0
210
0
220
0
230
1
0
LINE
5
D3
100
AcDbEntity
8
1
62
256
6
ByLayer
370
18
48
1
60
0
100
AcDbLine
10
64.997365
20
44.13751
30
0
11
64.459221
21
37.579945
31
0
39
0
210
0
220
0
230
1
0
LINE
5
D4
100
AcDbEntity
8
1
62
256
6
ByLayer
370
18
48
1
60
0
100
AcDbLine
10
59.491111
20
28.709419
30
0
11
59.985968
21
29.204277
31
0
39
0
210
0
220
0
230
1
0
LINE
5
D5
100
AcDbEntity
8
1
62
256
6
ByLayer
370
18
48
1
60
0
100
AcDbLine
10
63.903114
20
35.464434
30
0
11
61.15246
21
29.510913
31
0
39
0
210
0
220
0
230
1
0
LINE
5
D6
100
AcDbEntity
8
1
62
256
6
ByLayer
370
18
48
1
60
0
100
AcDbLine
10
57.579945
20
44.459221
30
0
11
64.13751
21
44.997365
31
0
39
0
210
0
220
0
230
1
0
LINE
5
D7
100
AcDbEntity
8
1
62
256
6
ByLayer
370
18
48
1
60
0
100
AcDbLine
10
42.66128
20
26.733745
30
0
11
42.665527
21
26.737485
31
0
39
0
210
0
220
0
230
1
0
LINE
5
D8
100
AcDbEntity
8
1
62
256
6
ByLayer
370
18
48
1
60
0
100
AcDbLine
10
42.66128
20
26.733745
30
0
11
40.865671
21
26.100495
31
0
39
0
210
0
220
0
230
1
0
LINE
5
D9
100
AcDbEntity
8
1
62
256
6
ByLayer
370
18
48
1
60
0
100
AcDbLine
10
59.215954
20
40.151103
30
0
11
59.010906
21
40.258233
31
0
39
0
210
0
220
0
230
1
0
LINE
5
DA
100
AcDbEntity
8
1
62
256
6
ByLayer
370
18
48
1
60
0
100
AcDbLine
10
38.430868
20
36.010592
30
0
11
36.970336
21
35.628702
31
0
39
0
210
0
220
0
230
1
0
LINE
5
DB
100
AcDbEntity
8
1
62
256
6
ByLayer
370
18
48
1
60
0
100
AcDbLine
10
44.639121
20
39.369381
30
0
11
44.241957
21
39.127722
31
0
39
0
210
0
220
0
230
1
0
LINE
5
DC
100
AcDbEntity
8
1
62
256
6
ByLayer
370
18
48
1
60
0
100
AcDbLine
10
46.819209
20
31.384086
30
0
11
44.848788
21
30.86612
31
0
39
0
210
0
220
0
230
1
0
LINE
5
DD
100
AcDbEntity
8
1
62
256
6
ByLayer
370
18
48
1
60
0
100
AcDbLine
10
36.970336
20
35.628702
30
0
11
38.336174
21
30.625866
31
0
39
0
210
0
220
0
230
1
0
LINE
5
DE
100
AcDbEntity
8
1
62
256
6
ByLayer
370
18
48
1
60
0
100
AcDbLine
10
44.098635
20
41.958089
30
0
11
38.884324
21
40.587399
31
0
39
0
210
0
220
0
230
1
0
LINE
5
DF
100
AcDbEntity
8
1
62
256
6
ByLayer
370
18
48
1
60
0
100
AcDbLine
10
58.775646
20
40.353758
30
0
11
58.574756
21
40.486106
31
0
39
0
210
0
220
0
230
1
0
LINE
5
E0
100
AcDbEntity
8
1
62
256
6
ByLayer
370
18
48
1
60
0
100
AcDbLine
10
36.773471
20
27.996289
30
0
11
34.567118
21
36.077793
31
0
39
0
210
0
220
0
230
1
0
LINE
5
E1
100
AcDbEntity
8
1
62
256
6
ByLayer
370
18
48
1
60
0
100
AcDbLine
10
38.807874
20
36.239986
30
0
11
38.430868
21
36.010592
31
0
39
0
210
0
220
0
230
1
0
LINE
5
E2
100
AcDbEntity
8
1
62
256
6
ByLayer
370
18
48
1
60
0
100
AcDbLine
10
60.088179
20
36.95629
30
0
11
59.963592
21
36.768705
31
0
39
0
210
0
220
0
230
1
0
LINE
5
E3
100
AcDbEntity
8
1
62
256
6
ByLayer
370
18
48
1
60
0
100
AcDbLine
10
41.280089
20
26.37067
30
0
11
42.66128
21
26.733745
31
0
39
0
210
0
220
0
230
1
0
LINE
5
E4
100
AcDbEntity
8
1
62
256
6
ByLayer
370
18
48
1
60
0
100
AcDbLine
10
47.879838
20
28.108175
30
0
11
42.665527
21
26.737485
31
0
39
0
210
0
220
0
230
1
0
LINE
5
E5
100
AcDbEntity
8
1
62
256
6
ByLayer
370
18
48
1
60
0
100
AcDbLine
10
38.87896
20
40.58775
30
0
11
37.497769
21
40.224676
31
0
39
0
210
0
220
0
230
1
0
LINE
5
E6
100
AcDbEntity
8
1
62
256
6
ByLayer
370
18
48
1
60
0
100
AcDbLine
10
36.027178
20
36.966183
30
0
11
34.567118
21
36.077793
31
0
39
0
210
0
220
0
230
1
0
LINE
5
E7
100
AcDbEntity
8
1
62
256
6
ByLayer
370
18
48
1
60
0
100
AcDbLine
10
38.87896
20
40.58775
30
0
11
38.884324
21
40.587399
31
0
39
0
210
0
220
0
230
1
0
LINE
5
E8
100
AcDbEntity
8
1
62
256
6
ByLayer
370
18
48
1
60
0
100
AcDbLine
10
42.668701
20
38.851415
30
0
11
44.639121
21
39.369381
31
0
39
0
210
0
220
0
230
1
0
LINE
5
E9
100
AcDbEntity
8
1
62
256
6
ByLayer
370
18
48
1
60
0
100
AcDbLine
10
40.571706
20
27.569618
30
0
11
47.893975
21
29.494428
31
0
39
0
210
0
220
0
230
1
0
LINE
5
EA
100
AcDbEntity
8
1
62
256
6
ByLayer
370
18
48
1
60
0
100
AcDbLine
10
42.279471
20
38.614583
30
0
11
44.241957
21
39.127722
31
0
39
0
210
0
220
0
230
1
0
LINE
5
EB
100
AcDbEntity
8
1
62
256
6
ByLayer
370
18
48
1
60
0
100
AcDbLine
10
41.280089
20
26.37067
30
0
11
40.795562
21
26.075854
31
0
39
0
210
0
220
0
230
1
0
LINE
5
EC
100
AcDbEntity
8
1
62
256
6
ByLayer
370
18
48
1
60
0
100
AcDbLine
10
42.668701
20
38.851415
30
0
11
42.279471
21
38.614583
31
0
39
0
210
0
220
0
230
1
0
LINE
5
ED
100
AcDbEntity
8
1
62
256
6
ByLayer
370
18
48
1
60
0
100
AcDbLine
10
58.574756
20
40.486106
30
0
11
57.609388
21
40.990477
31
0
39
0
210
0
220
0
230
1
0
LINE
5
EE
100
AcDbEntity
8
1
62
256
6
ByLayer
370
18
48
1
60
0
100
AcDbLine
10
37.379036
20
39.263833
30
0
11
44.701305
21
41.188643
31
0
39
0
210
0
220
0
230
1
0
LINE
5
EF
100
AcDbEntity
8
1
62
256
6
ByLayer
370
18
48
1
60
0
100
AcDbLine
10
59.698588
20
36.369698
30
0
11
59.112032
21
35.486544
31
0
39
0
210
0
220
0
230
1
0
LINE
5
F0
100
AcDbEntity
8
1
62
256
6
ByLayer
370
18
48
1
60
0
100
AcDbLine
10
59.698588
20
36.369698
30
0
11
59.805148
21
36.582866
31
0
39
0
210
0
220
0
230
1
0
LINE
5
F1
100
AcDbEntity
8
1
62
256
6
ByLayer
370
18
48
1
60
0
100
AcDbLine
10
38.233531
20
28.88468
30
0
11
36.773471
21
27.996289
31
0
39
0
210
0
220
0
230
1
0
LINE
5
F2
100
AcDbEntity
8
1
62
256
6
ByLayer
370
18
48
1
60
0
100
AcDbLine
10
36.027178
20
36.966183
30
0
11
38.233531
21
28.88468
31
0
39
0
210
0
220
0
230
1
0
LINE
5
F3
100
AcDbEntity
8
1
62
256
6
ByLayer
370
18
48
1
60
0
100
AcDbLine
10
57.816147
20
38.370598
30
0
11
60.455061
21
38.821644
31
0
39
0
210
0
220
0
230
1
0
MTEXT
5
1BA
100
AcDbEntity
8
SK6
62
256
6
ByLayer
370
18
48
1
60
0
100
AcDbMText
10
-8.124998
20
-42.449998
30
0
210
0
220
0
230
1
1
\W0.7717;C6-DWLNR-45065-08
40
3.5
41
0
44
1.084337
50
0
71
7
72
5
7
iso_b_vert
0
DIMENSION
5
1D9
100
AcDbEntity
8
2
62
256
6
ByLayer
370
13
48
1
60
0
100
AcDbDimension
2
DimnDraft3D2
10
63.14468
20
44.915551
30
0
11
52.554118
21
56.53416
31
0
70
34
71
5
72
1
41
1
210
0
220
0
230
1
3
Standard
100
AcDb2LineAngularDimension
13
65
23
45
33
0
14
65
24
43.4125
34
0
15
64.141329
25
44.997341
35
0
16
55.863668
26
53.485082
36
0
40
0
0
DIMENSION
5
1EF
100
AcDbEntity
8
SK2
62
256
6
ByLayer
370
13
48
1
60
0
100
AcDbDimension
2
DimnDraft3D3
10
-45.75
20
31.5
30
0
11
-45.75
21
-2.688158
31
0
70
32
71
5
72
1
41
1
210
0
220
0
230
1
3
Standard
100
AcDbAlignedDimension
13
-2
23
-31.5
33
0
14
-2
24
31.5
34
0
50
90
100
AcDbRotatedDimension
1001
ACAD
1000
DSTYLE
1002
{
1070
    74
1070
     0
1070
   279
1070
     0
1070
   172
1070
     1
1070
   173
1070
     1
1070
   340
1005
1BB
1070
    77
1070
     1
1070
    73
1070
     0
1070
   171
1070
     3
1070
   274
1070
     4
1070
   177
1070
     2
1070
   176
1070
     2
1070
   178
1070
     7
1070
    78
1070
     8
1070
    41
1041
3.175
1070
   147
1041
2.25
1070
    42
1041
2.0
1070
    44
1041
2.0
1070
   140
1041
4.5
1070
   343
1005
1DA
1070
   344
1005
1DA
1002
}
0
DIMENSION
5
1FD
100
AcDbEntity
8
2
62
256
6
ByLayer
370
13
48
1
60
0
100
AcDbDimension
2
DimnDraft3D4
10
87.25
20
45
30
0
11
87.25
21
16.981579
31
0
70
32
71
5
72
1
41
1
210
0
220
0
230
1
3
Standard
100
AcDbAlignedDimension
13
67
23
0
33
0
14
67
24
45
34
0
50
90
100
AcDbRotatedDimension
1001
ACAD
1000
DSTYLE
1002
{
1070
    74
1070
     0
1070
   279
1070
     0
1070
   172
1070
     1
1070
   173
1070
     1
1070
   340
1005
1BB
1070
    77
1070
     1
1070
    73
1070
     0
1070
   171
1070
     3
1070
   274
1070
     4
1070
   177
1070
     2
1070
   176
1070
     2
1070
   178
1070
     7
1070
    78
1070
     8
1070
    41
1041
3.175
1070
   147
1041
2.25
1070
    42
1041
2.0
1070
    44
1041
2.0
1070
   140
1041
4.5
1070
   343
1005
1DA
1070
   344
1005
1DA
1002
}
0
ENDSEC
0
SECTION
2
OBJECTS
0
DICTIONARY
5
268
330
0
100
AcDbDictionary
280
0
281
1
3
ACAD_GROUP
350
269
3
ACAD_MLINESTYLE
350
26a
0
DICTIONARY
5
269
330
0
100
AcDbDictionary
280
0
281
1
0
DICTIONARY
5
26a
330
0
100
AcDbDictionary
280
0
281
1
3
Standard
350
18
0
MLINESTYLE
5
18
330
26a
100
AcDbMlineStyle
2
Standard
70
0
3

62
256
51
90
52
90
71
2
49
-0.5
62
256
6
ByLayer
49
0.5
62
256
6
ByLayer
0
RASTERVARIABLES
5
256
330

100
AcDbRasterVariables
90
0
70
1
71
1
72
1
0
ENDSEC
0
EOF
