0
SECTION
2
HEADER
9
$ACADVER
1
AC1015
9
$DWGCODEPAGE
3
ANSI_1252
9
$HANDSEED
5
290
9
$ANGBASE
50
0
9
$ANGDIR
70
0
9
$ATTMODE
70
1
9
$AUNITS
70
0
9
$AUPREC
70
0
9
$CECOLOR
62
256
9
$CELTSCALE
40
1
9
$CELTYPE
6
ByLayer
9
$CELWEIGHT
370
18
9
$CLAYER
8
0
9
$CMLJUST
70
0
9
$CMLSCALE
40
1
9
$CMLSTYLE
2
Standard
9
$DIMSTYLE
2
Standard
9
$TEXTSIZE
40
0.2
9
$TEXTSTYLE
7
Standard
9
$LUNITS
70
2
9
$LUPREC
70
4
9
$EXTNAMES
290
1
9
$INSUNITS
70
4
9
$LTSCALE
40
1
9
$LWDISPLAY
290
1
9
$PDMODE
70
0
9
$PDSIZE
40
0
9
$PLINEGEN
70
0
0
ENDSEC
0
SECTION
2
CLASSES
0
CLASS
1
RASTERVARIABLES
2
AcDbRasterVariables
3
ISM
90
0
280
0
281
0
0
ENDSEC
0
SECTION
2
TABLES
0
TABLE
2
VPORT
5
286
100
AcDbSymbolTable
0
VPORT
5
1
100
AcDbSymbolTableRecord
100
AcDbViewportTableRecord
2
*Active
70
0
10
0
20
0
11
1
21
1
12
-1
22
1
13
0
23
0
14
0.5
24
0.5
15
10
25
10
16
0
26
0
36
1
17
0
27
0
37
0
0
ENDTAB
0
TABLE
2
LTYPE
5
287
100
AcDbSymbolTable
0
LTYPE
5
14
100
AcDbSymbolTableRecord
100
AcDbLinetypeTableRecord
70
0
2
ByBlock
3

72
65
73
0
40
0
0
LTYPE
5
15
100
AcDbSymbolTableRecord
100
AcDbLinetypeTableRecord
70
0
2
ByLayer
3

72
65
73
0
40
0
0
LTYPE
5
16
100
AcDbSymbolTableRecord
100
AcDbLinetypeTableRecord
70
0
2
CONTINUOUS
3
Solid line
72
65
73
0
40
0
0
LTYPE
5
6A
100
AcDbSymbolTableRecord
100
AcDbLinetypeTableRecord
70
0
2
CENTER
3
____ _ ____ _ ____ _ ____
72
65
73
4
40
47.5
49
22
74
0
49
-8.5
74
0
49
8.5
74
0
49
-8.5
74
0
0
LTYPE
5
6B
100
AcDbSymbolTableRecord
100
AcDbLinetypeTableRecord
70
0
2
DASHED
3
__ __ __ __ __ __ __ __ __
72
65
73
2
40
25.72
49
12.86
74
0
49
-12.86
74
0
0
ENDTAB
0
TABLE
2
LAYER
5
288
100
AcDbSymbolTable
0
LAYER
5
10
100
AcDbSymbolTableRecord
100
AcDbLayerTableRecord
2
0
70
0
62
7
6
CONTINUOUS
290
1
370
-3
390
0
0
LAYER
5
6D
100
AcDbSymbolTableRecord
100
AcDbLayerTableRecord
2
2
70
0
62
7
6
CONTINUOUS
290
1
370
-3
390
0
0
LAYER
5
6F
100
AcDbSymbolTableRecord
100
AcDbLayerTableRecord
2
80
70
0
62
-6
6
CONTINUOUS
290
1
370
-3
390
0
0
LAYER
5
71
100
AcDbSymbolTableRecord
100
AcDbLayerTableRecord
2
81
70
0
62
-3
6
CONTINUOUS
290
1
370
-3
390
0
0
LAYER
5
74
100
AcDbSymbolTableRecord
100
AcDbLayerTableRecord
2
1
70
0
62
4
6
CONTINUOUS
290
1
370
-3
390
0
0
LAYER
5
85
100
AcDbSymbolTableRecord
100
AcDbLayerTableRecord
2
4
70
0
62
-2
6
CENTER
290
1
370
-3
390
0
0
LAYER
5
272
100
AcDbSymbolTableRecord
100
AcDbLayerTableRecord
2
SK4
70
0
62
2
6
CENTER
290
1
370
-3
390
0
0
LAYER
5
273
100
AcDbSymbolTableRecord
100
AcDbLayerTableRecord
2
SK1
70
0
62
4
6
CONTINUOUS
290
1
370
-3
390
0
0
LAYER
5
274
100
AcDbSymbolTableRecord
100
AcDbLayerTableRecord
2
SK6
70
0
62
5
6
CONTINUOUS
290
1
370
-3
390
0
0
LAYER
5
275
100
AcDbSymbolTableRecord
100
AcDbLayerTableRecord
2
SK2
70
0
62
7
6
CONTINUOUS
290
1
370
-3
390
0
0
ENDTAB
0
TABLE
2
STYLE
5
289
100
AcDbSymbolTable
0
STYLE
5
11
100
AcDbSymbolTableRecord
100
AcDbTextStyleTableRecord
2
Standard
3
txt
70
0
71
0
40
0
41
1
42
0
50
0
0
STYLE
5
1D6
100
AcDbSymbolTableRecord
100
AcDbTextStyleTableRecord
2
iso_b_vert
3
simplex.shx
70
0
71
0
40
0
41
1
42
0
50
0
0
STYLE
5
1D7
100
AcDbSymbolTableRecord
100
AcDbTextStyleTableRecord
2
DWGDirectTextStyle
3
simplex
70
0
71
0
40
0
41
1
42
0
50
0
0
ENDTAB
0
TABLE
2
DIMSTYLE
5
28a
100
AcDbSymbolTable
100
AcDbDimStyleTable
0
DIMSTYLE
105
27
100
AcDbSymbolTableRecord
100
AcDbDimStyleTableRecord
2
Standard
70
0
3
<>
41
0.18
42
0.0625
44
0.18
140
0.18
147
0.09
73
0
74
0
77
1
271
2
275
0
278
52
280
0
340
11
0
ENDTAB
0
TABLE
2
VIEW
5
28b
100
AcDbSymbolTable
0
ENDTAB
0
TABLE
2
UCS
5
28c
100
AcDbSymbolTable
0
ENDTAB
0
TABLE
2
APPID
5
28d
100
AcDbSymbolTable
0
APPID
5
12
100
AcDbSymbolTableRecord
100
AcDbRegAppTableRecord
2
ACAD
70
0
0
ENDTAB
0
TABLE
2
BLOCK_RECORD
5
28e
100
AcDbSymbolTable
0
BLOCK_RECORD
5
1F
100
AcDbSymbolTableRecord
100
AcDbBlockTableRecord
2
*Model_Space
340
0
70
0
0
BLOCK_RECORD
5
1B
100
AcDbSymbolTableRecord
100
AcDbBlockTableRecord
2
*Paper_Space
340
0
70
0
0
BLOCK_RECORD
5
23
100
AcDbSymbolTableRecord
100
AcDbBlockTableRecord
2
*Paper_Space0
340
0
70
0
0
BLOCK_RECORD
5
1D9
100
AcDbSymbolTableRecord
100
AcDbBlockTableRecord
2
DimnDraft3D1
340
0
70
0
0
BLOCK_RECORD
5
1E7
100
AcDbSymbolTableRecord
100
AcDbBlockTableRecord
2
_CLOSED
340
0
70
0
0
BLOCK_RECORD
5
1EE
100
AcDbSymbolTableRecord
100
AcDbBlockTableRecord
2
DimnDraft3D2
340
0
70
0
0
BLOCK_RECORD
5
1FC
100
AcDbSymbolTableRecord
100
AcDbBlockTableRecord
2
DimnDraft3D3
340
0
70
0
0
BLOCK_RECORD
5
20B
100
AcDbSymbolTableRecord
100
AcDbBlockTableRecord
2
DimnDraft3D4
340
0
70
0
0
ENDTAB
0
ENDSEC
0
SECTION
2
BLOCKS
0
BLOCK
5
20
100
AcDbEntity
8
0
100
AcDbBlockBegin
2
*Model_Space
70
0
10
0
20
0
30
0
3
*Model_Space
0
ENDBLK
5
21
100
AcDbEntity
8
0
100
AcDbBlockEnd
0
BLOCK
5
1C
100
AcDbEntity
8
0
100
AcDbBlockBegin
2
*Paper_Space
70
0
10
0
20
0
30
0
3
*Paper_Space
0
ENDBLK
5
1D
100
AcDbEntity
8
0
100
AcDbBlockEnd
0
BLOCK
5
24
100
AcDbEntity
8
0
100
AcDbBlockBegin
2
*Paper_Space0
70
0
10
0
20
0
30
0
3
*Paper_Space0
0
ENDBLK
5
25
100
AcDbEntity
8
0
100
AcDbBlockEnd
0
BLOCK
5
1E4
100
AcDbEntity
8
0
100
AcDbBlockBegin
2
DimnDraft3D1
70
0
10
0
20
0
30
0
3
DimnDraft3D1
0
MTEXT
5
1DA
100
AcDbEntity
8
2
62
256
6
ByLayer
370
18
48
1
60
0
100
AcDbMText
10
48.094067
20
-56.674116
30
0
210
0
220
0
230
1
1
\W0.7399;95%%d
40
4.5
41
0
44
1.084337
50
312.65427684
71
7
72
5
7
iso_b_vert
0
LINE
5
1DB
100
AcDbEntity
8
2
62
256
6
ByLayer
370
13
48
1
60
0
100
AcDbLine
10
56.168133
20
-44.343023
30
0
11
41.655791
21
-43.152072
31
0
39
0
210
0
220
0
230
1
0
LINE
5
1DC
100
AcDbEntity
8
2
62
256
6
ByLayer
370
13
48
1
60
0
100
AcDbLine
10
65
20
-47
30
0
11
65
21
-68.490491
31
0
39
0
210
0
220
0
230
1
0
ARC
5
1DD
100
AcDbEntity
8
2
62
256
6
ByLayer
370
13
48
1
60
0
100
AcDbCircle
39
0
10
65
20
-45.067807
30
0
40
21.4226837810116
210
0
220
0
230
1
100
AcDbArc
50
175.308554
51
270
0
LINE
5
1DE
100
AcDbEntity
8
2
62
256
6
ByLayer
370
13
48
1
60
0
100
AcDbLine
10
43.649091
20
-43.315652
30
0
11
43.924166
21
-46.506211
31
0
39
0
210
0
220
0
230
1
0
LINE
5
1DF
100
AcDbEntity
8
2
62
256
6
ByLayer
370
13
48
1
60
0
100
AcDbLine
10
43.649091
20
-43.315652
30
0
11
43.089015
21
-46.468693
31
0
39
0
210
0
220
0
230
1
0
LINE
5
1E0
100
AcDbEntity
8
2
62
256
6
ByLayer
370
13
48
1
60
0
100
AcDbLine
10
43.924166
20
-46.506211
30
0
11
43.089015
21
-46.468693
31
0
39
0
210
0
220
0
230
1
0
LINE
5
1E1
100
AcDbEntity
8
2
62
256
6
ByLayer
370
13
48
1
60
0
100
AcDbLine
10
65
20
-66.490491
30
0
11
61.811717
21
-66.790804
31
0
39
0
210
0
220
0
230
1
0
LINE
5
1E2
100
AcDbEntity
8
2
62
256
6
ByLayer
370
13
48
1
60
0
100
AcDbLine
10
65
20
-66.490491
30
0
11
61.842625
21
-65.955382
31
0
39
0
210
0
220
0
230
1
0
LINE
5
1E3
100
AcDbEntity
8
2
62
256
6
ByLayer
370
13
48
1
60
0
100
AcDbLine
10
61.811717
20
-66.790804
30
0
11
61.842625
21
-65.955382
31
0
39
0
210
0
220
0
230
1
0
ENDBLK
5
1E5
100
AcDbEntity
8
0
100
AcDbBlockEnd
0
BLOCK
5
1E8
100
AcDbEntity
8
0
100
AcDbBlockBegin
2
_CLOSED
70
0
10
0
20
0
30
0
3
_CLOSED
0
LINE
5
1EA
100
AcDbEntity
8
0
62
256
6
ByLayer
370
-2
48
1
60
0
100
AcDbLine
10
-1
20
0.166667
30
0
11
0
21
0
31
0
39
0
210
0
220
0
230
1
0
LINE
5
1EB
100
AcDbEntity
8
0
62
256
6
ByLayer
370
-2
48
1
60
0
100
AcDbLine
10
0
20
0
30
0
11
-1
21
-0.166667
31
0
39
0
210
0
220
0
230
1
0
LINE
5
1EC
100
AcDbEntity
8
0
62
256
6
ByLayer
370
-2
48
1
60
0
100
AcDbLine
10
-1
20
0.166667
30
0
11
-1
21
-0.166667
31
0
39
0
210
0
220
0
230
1
0
LINE
5
1ED
100
AcDbEntity
8
0
62
256
6
ByLayer
370
-2
48
1
60
0
100
AcDbLine
10
0
20
0
30
0
11
-1
21
0
31
0
39
0
210
0
220
0
230
1
0
ENDBLK
5
1E9
100
AcDbEntity
8
0
100
AcDbBlockEnd
0
BLOCK
5
1F9
100
AcDbEntity
8
0
100
AcDbBlockBegin
2
DimnDraft3D2
70
0
10
0
20
0
30
0
3
DimnDraft3D2
0
MTEXT
5
1EF
100
AcDbEntity
8
2
62
256
6
ByLayer
370
18
48
1
60
0
100
AcDbMText
10
28.343421
20
-71.125
30
0
210
0
220
0
230
1
1
\W0.7346;65.0
40
4.5
41
0
44
1.084337
50
0
71
7
72
5
7
iso_b_vert
0
LINE
5
1F0
100
AcDbEntity
8
2
62
256
6
ByLayer
370
13
48
1
60
0
100
AcDbLine
10
0
20
-33.5
30
0
11
0
21
-74.25
31
0
39
0
210
0
220
0
230
1
0
LINE
5
1F1
100
AcDbEntity
8
2
62
256
6
ByLayer
370
13
48
1
60
0
100
AcDbLine
10
65
20
-47
30
0
11
65
21
-74.25
31
0
39
0
210
0
220
0
230
1
0
LINE
5
1F2
100
AcDbEntity
8
2
62
256
6
ByLayer
370
13
48
1
60
0
100
AcDbLine
10
0
20
-72.25
30
0
11
65
21
-72.25
31
0
39
0
210
0
220
0
230
1
0
LINE
5
1F3
100
AcDbEntity
8
2
62
256
6
ByLayer
370
13
48
1
60
0
100
AcDbLine
10
0
20
-72.25
30
0
11
3.174998
21
-71.832003
31
0
39
0
210
0
220
0
230
1
0
LINE
5
1F4
100
AcDbEntity
8
2
62
256
6
ByLayer
370
13
48
1
60
0
100
AcDbLine
10
0
20
-72.25
30
0
11
3.175002
21
-72.667997
31
0
39
0
210
0
220
0
230
1
0
LINE
5
1F5
100
AcDbEntity
8
2
62
256
6
ByLayer
370
13
48
1
60
0
100
AcDbLine
10
3.174998
20
-71.832003
30
0
11
3.175002
21
-72.667997
31
0
39
0
210
0
220
0
230
1
0
LINE
5
1F6
100
AcDbEntity
8
2
62
256
6
ByLayer
370
13
48
1
60
0
100
AcDbLine
10
65
20
-72.25
30
0
11
61.825002
21
-72.667997
31
0
39
0
210
0
220
0
230
1
0
LINE
5
1F7
100
AcDbEntity
8
2
62
256
6
ByLayer
370
13
48
1
60
0
100
AcDbLine
10
65
20
-72.25
30
0
11
61.824998
21
-71.832003
31
0
39
0
210
0
220
0
230
1
0
LINE
5
1F8
100
AcDbEntity
8
2
62
256
6
ByLayer
370
13
48
1
60
0
100
AcDbLine
10
61.825002
20
-72.667997
30
0
11
61.824998
21
-71.832003
31
0
39
0
210
0
220
0
230
1
0
ENDBLK
5
1FA
100
AcDbEntity
8
0
100
AcDbBlockEnd
0
BLOCK
5
208
100
AcDbEntity
8
0
100
AcDbBlockBegin
2
DimnDraft3D3
70
0
10
0
20
0
30
0
3
DimnDraft3D3
0
MTEXT
5
1FD
100
AcDbEntity
8
SK2
62
256
6
ByLayer
370
18
48
1
60
0
100
AcDbMText
10
-46.875
20
-1.563158
30
0
210
0
220
0
230
1
1
\W0.6740;63
40
4.5
41
0
44
1.084337
50
90
71
7
72
5
7
iso_b_vert
0
LINE
5
1FF
100
AcDbEntity
8
SK2
62
256
6
ByLayer
370
13
48
1
60
0
100
AcDbLine
10
-2
20
-31.5
30
0
11
-47.75
21
-31.5
31
0
39
0
210
0
220
0
230
1
0
LINE
5
200
100
AcDbEntity
8
SK2
62
256
6
ByLayer
370
13
48
1
60
0
100
AcDbLine
10
-2
20
31.5
30
0
11
-47.75
21
31.5
31
0
39
0
210
0
220
0
230
1
0
LINE
5
201
100
AcDbEntity
8
SK2
62
256
6
ByLayer
370
13
48
1
60
0
100
AcDbLine
10
-45.75
20
-31.5
30
0
11
-45.75
21
31.5
31
0
39
0
210
0
220
0
230
1
0
LINE
5
202
100
AcDbEntity
8
SK2
62
256
6
ByLayer
370
13
48
1
60
0
100
AcDbLine
10
-45.75
20
-31.5
30
0
11
-46.167997
21
-28.325002
31
0
39
0
210
0
220
0
230
1
0
LINE
5
203
100
AcDbEntity
8
SK2
62
256
6
ByLayer
370
13
48
1
60
0
100
AcDbLine
10
-45.75
20
-31.5
30
0
11
-45.332003
21
-28.324998
31
0
39
0
210
0
220
0
230
1
0
LINE
5
204
100
AcDbEntity
8
SK2
62
256
6
ByLayer
370
13
48
1
60
0
100
AcDbLine
10
-46.167997
20
-28.325002
30
0
11
-45.332003
21
-28.324998
31
0
39
0
210
0
220
0
230
1
0
LINE
5
205
100
AcDbEntity
8
SK2
62
256
6
ByLayer
370
13
48
1
60
0
100
AcDbLine
10
-45.75
20
31.5
30
0
11
-45.332003
21
28.325002
31
0
39
0
210
0
220
0
230
1
0
LINE
5
206
100
AcDbEntity
8
SK2
62
256
6
ByLayer
370
13
48
1
60
0
100
AcDbLine
10
-45.75
20
31.5
30
0
11
-46.167997
21
28.324998
31
0
39
0
210
0
220
0
230
1
0
LINE
5
207
100
AcDbEntity
8
SK2
62
256
6
ByLayer
370
13
48
1
60
0
100
AcDbLine
10
-45.332003
20
28.325002
30
0
11
-46.167997
21
28.324998
31
0
39
0
210
0
220
0
230
1
0
ENDBLK
5
209
100
AcDbEntity
8
0
100
AcDbBlockEnd
0
BLOCK
5
216
100
AcDbEntity
8
0
100
AcDbBlockBegin
2
DimnDraft3D4
70
0
10
0
20
0
30
0
3
DimnDraft3D4
0
MTEXT
5
20C
100
AcDbEntity
8
2
62
256
6
ByLayer
370
18
48
1
60
0
100
AcDbMText
10
86.125
20
-26.893421
30
0
210
0
220
0
230
1
1
\W0.7640;45.0
40
4.5
41
0
44
1.084337
50
90
71
7
72
5
7
iso_b_vert
0
LINE
5
20D
100
AcDbEntity
8
2
62
256
6
ByLayer
370
13
48
1
60
0
100
AcDbLine
10
67
20
0
30
0
11
89.25
21
0
31
0
39
0
210
0
220
0
230
1
0
LINE
5
20E
100
AcDbEntity
8
2
62
256
6
ByLayer
370
13
48
1
60
0
100
AcDbLine
10
67
20
-45
30
0
11
89.25
21
-45
31
0
39
0
210
0
220
0
230
1
0
LINE
5
20F
100
AcDbEntity
8
2
62
256
6
ByLayer
370
13
48
1
60
0
100
AcDbLine
10
87.25
20
0
30
0
11
87.25
21
-45
31
0
39
0
210
0
220
0
230
1
0
LINE
5
210
100
AcDbEntity
8
2
62
256
6
ByLayer
370
13
48
1
60
0
100
AcDbLine
10
87.25
20
0
30
0
11
87.667997
21
-3.174998
31
0
39
0
210
0
220
0
230
1
0
LINE
5
211
100
AcDbEntity
8
2
62
256
6
ByLayer
370
13
48
1
60
0
100
AcDbLine
10
87.25
20
0
30
0
11
86.832003
21
-3.175002
31
0
39
0
210
0
220
0
230
1
0
LINE
5
212
100
AcDbEntity
8
2
62
256
6
ByLayer
370
13
48
1
60
0
100
AcDbLine
10
87.667997
20
-3.174998
30
0
11
86.832003
21
-3.175002
31
0
39
0
210
0
220
0
230
1
0
LINE
5
213
100
AcDbEntity
8
2
62
256
6
ByLayer
370
13
48
1
60
0
100
AcDbLine
10
87.25
20
-45
30
0
11
86.832003
21
-41.825002
31
0
39
0
210
0
220
0
230
1
0
LINE
5
214
100
AcDbEntity
8
2
62
256
6
ByLayer
370
13
48
1
60
0
100
AcDbLine
10
87.25
20
-45
30
0
11
87.667997
21
-41.824998
31
0
39
0
210
0
220
0
230
1
0
LINE
5
215
100
AcDbEntity
8
2
62
256
6
ByLayer
370
13
48
1
60
0
100
AcDbLine
10
86.832003
20
-41.825002
30
0
11
87.667997
21
-41.824998
31
0
39
0
210
0
220
0
230
1
0
ENDBLK
5
217
100
AcDbEntity
8
0
100
AcDbBlockEnd
0
ENDSEC
0
SECTION
2
ENTITIES
0
ARC
5
F9
100
AcDbEntity
8
SK1
62
256
6
ByLayer
370
18
48
1
60
0
100
AcDbCircle
39
0
10
0.6
20
-23.45
30
0
40
0.999999999999999
210
0
220
0
230
-1
100
AcDbArc
50
113.578178
51
126.869898
0
ARC
5
FA
100
AcDbEntity
8
SK1
62
256
6
ByLayer
370
18
48
1
60
0
100
AcDbCircle
39
0
10
0.6
20
23.45
30
0
40
0.999999999999999
210
0
220
0
230
-1
100
AcDbArc
50
233.130102
51
246.421822
0
ELLIPSE
5
FB
100
AcDbEntity
8
1
62
256
6
ByLayer
370
18
48
1
60
0
100
AcDbEllipse
10
49.593591
20
-36.535422
30
0
11
-0.205060966544568
21
-0.20506096654363
31
0
210
0
220
0
230
1
40
0.989133
41
2.22523715338506
42
2.78835038881802
0
ELLIPSE
5
FC
100
AcDbEntity
8
1
62
256
6
ByLayer
370
18
48
1
60
0
100
AcDbEllipse
10
48.417836
20
-37.711177
30
0
11
-0.205060966544568
21
-0.20506096654363
31
0
210
0
220
0
230
1
40
0.989133
41
0.353242264771833
42
0.9163555002048
0
ELLIPSE
5
FD
100
AcDbEntity
8
1
62
256
6
ByLayer
370
18
48
1
60
0
100
AcDbEllipse
10
49.30505
20
-37.422636
30
0
11
0.63639610306935
21
0.636396103066435
31
0
210
0
220
0
230
1
40
0.989133
41
-3.04813623094157
42
-0.0934683133249899
0
ELLIPSE
5
FE
100
AcDbEntity
8
1
62
256
6
ByLayer
370
18
48
1
60
0
100
AcDbEllipse
10
49.341437
20
-37.459022
30
0
11
0.63639610306935
21
0.636396103066435
31
0
210
0
220
0
230
1
40
0.989133
41
1.26281339097144
42
1.87877998801342
0
ELLIPSE
5
FF
100
AcDbEntity
8
1
62
256
6
ByLayer
370
18
48
1
60
0
100
AcDbEllipse
10
49.341437
20
-37.459022
30
0
11
0.63639610306935
21
0.636396103066435
31
0
210
0
220
0
230
1
40
0.989133
41
0.0934920250935547
42
0.651058630376991
0
ELLIPSE
5
100
100
AcDbEntity
8
1
62
256
6
ByLayer
370
18
48
1
60
0
100
AcDbEllipse
10
49.341437
20
-37.459022
30
0
11
0.63639610306935
21
0.636396103066435
31
0
210
0
220
0
230
1
40
0.989133
41
2.4905340232128
42
3.04810062849624
0
ELLIPSE
5
101
100
AcDbEntity
8
1
62
256
6
ByLayer
370
18
48
1
60
0
100
AcDbEllipse
10
49.263465
20
-37.381051
30
0
11
2.26274169980214
21
2.26274169979177
31
0
210
0
220
0
230
1
40
0.989133
41
0.790861447994068
42
3.14158704533069
0
ELLIPSE
5
102
100
AcDbEntity
8
1
62
256
6
ByLayer
370
18
48
1
60
0
100
AcDbEllipse
10
49.263465
20
-37.381051
30
0
11
2.26274169980214
21
2.26274169979177
31
0
210
0
220
0
230
1
40
0.989133
41
9.24095939355794E-05
42
0.790861133810253
0
ELLIPSE
5
103
100
AcDbEntity
8
1
62
256
6
ByLayer
370
18
48
1
60
0
100
AcDbEllipse
10
50.265037
20
-37.206868
30
0
11
-0.205060966544568
21
-0.20506096654363
31
0
210
0
220
0
230
1
40
0.989133
41
1.17803960218845
42
2.78831280022441
0
ELLIPSE
5
104
100
AcDbEntity
8
1
62
256
6
ByLayer
370
18
48
1
60
0
100
AcDbEllipse
10
49.089282
20
-38.382623
30
0
11
-0.205060966544568
21
-0.20506096654363
31
0
210
0
220
0
230
1
40
0.989133
41
0.353279853365407
42
1.96355305140137
0
ELLIPSE
5
105
100
AcDbEntity
8
1
62
256
6
ByLayer
370
18
48
1
60
0
100
AcDbEllipse
10
9.658656
20
19.168867
30
0
11
-1.64324839203878
21
-1.46278321089011
31
0
210
0
220
0
230
1
40
0.147927
41
1.97123251968304
42
2.62131217512957
0
ELLIPSE
5
106
100
AcDbEntity
8
1
62
256
6
ByLayer
370
18
48
1
60
0
100
AcDbEllipse
10
12
20
16.538669
30
0
11
-0.976998250139495
21
3.7611141513101
31
0
210
0
220
0
230
1
40
0.377339
41
-0.174466243749807
42
-0.114825115478177
0
ELLIPSE
5
107
100
AcDbEntity
8
1
62
256
6
ByLayer
370
18
48
1
60
0
100
AcDbEllipse
10
22.613109
20
4.616209
30
0
11
1.64324839203875
21
1.46278321089014
31
0
210
0
220
0
230
1
40
0.147927
41
-3.14159124873432
42
-6.78962710833595E-06
0
ELLIPSE
5
108
100
AcDbEntity
8
1
62
256
6
ByLayer
370
18
48
1
60
0
100
AcDbEllipse
10
22.777505
20
4.431531
30
0
11
-1.45651562021619
21
-1.29655784601623
31
0
210
0
220
0
230
1
40
0.147927
41
0.150206706884312
42
2.99141867462236
0
ELLIPSE
5
109
100
AcDbEntity
8
1
62
256
6
ByLayer
370
18
48
1
60
0
100
AcDbEllipse
10
59.892121
20
-39.892121
30
0
11
1.34703841816346
21
1.34703841815729
31
0
210
0
220
0
230
1
40
0.989133
41
-2.51681411120253
42
0
0
ELLIPSE
5
10A
100
AcDbEntity
8
1
62
256
6
ByLayer
370
18
48
1
60
0
100
AcDbEllipse
10
59.892121
20
-39.892121
30
0
11
1.34703841816346
21
1.34703841815729
31
0
210
0
220
0
230
1
40
0.989133
41
0
42
0.431079735436963
0
ELLIPSE
5
10B
100
AcDbEntity
8
1
62
256
6
ByLayer
370
18
48
1
60
0
100
AcDbEllipse
10
61.019027
20
-33.457015
30
0
11
0.561230652229048
21
0.561230652226477
31
0
210
0
220
0
230
1
40
0.989133
41
5.28576560576504E-07
42
1.30714335385627
0
ELLIPSE
5
10C
100
AcDbEntity
8
1
62
256
6
ByLayer
370
18
48
1
60
0
100
AcDbEllipse
10
59.397263
20
-39.397263
30
0
11
-1.34703841816345
21
-1.34703841815729
31
0
210
0
220
0
230
1
40
0.989133
41
2.60781091674701
42
2.95476081083988
0
ELLIPSE
5
10D
100
AcDbEntity
8
1
62
256
6
ByLayer
370
18
48
1
60
0
100
AcDbEllipse
10
43.486114
20
-41.229685
30
0
11
2.00411319484461
21
2.23238220344316
31
0
210
0
220
0
230
1
40
0.98676
41
0.182392924462525
42
0.47041465650475
0
ELLIPSE
5
10E
100
AcDbEntity
8
1
62
256
6
ByLayer
370
18
48
1
60
0
100
AcDbEllipse
10
48.340886
20
-37.139114
30
0
11
2.23792640090982
21
2.49282679384486
31
0
210
0
220
0
230
1
40
0.98676
41
-2.95919026972489
42
-2.67117799708504
0
ELLIPSE
5
10F
100
AcDbEntity
8
1
62
256
6
ByLayer
370
18
48
1
60
0
100
AcDbEllipse
10
49.920449
20
-37.552128
30
0
11
-2.23792640090982
21
-2.49282679384486
31
0
210
0
220
0
230
1
40
0.98676
41
0.470414656504751
42
-3.03010495957257
0
ELLIPSE
5
110
100
AcDbEntity
8
1
62
256
6
ByLayer
370
18
48
1
60
0
100
AcDbEllipse
10
12
20
19.981782
30
0
11
-1.99999999999999
21
2.44921270764474E-16
31
0
210
0
220
0
230
1
40
0.681998
41
-1.57079637267777
42
-0.241510339410152
0
ELLIPSE
5
111
100
AcDbEntity
8
1
62
256
6
ByLayer
370
18
48
1
60
0
100
AcDbEllipse
10
12
20
19.981782
30
0
11
-1.99999999999999
21
2.44921270764474E-16
31
0
210
0
220
0
230
1
40
0.681998
41
-2.89998444442312
42
-1.57079637267779
0
ELLIPSE
5
112
100
AcDbEntity
8
1
62
256
6
ByLayer
370
18
48
1
60
0
100
AcDbEllipse
10
12
20
19.981782
30
0
11
-1.64999999999999
21
2.02060048380691E-16
31
0
210
0
220
0
230
1
40
0.681998
41
-1.57079606964747
42
0
0
ELLIPSE
5
113
100
AcDbEntity
8
1
62
256
6
ByLayer
370
18
48
1
60
0
100
AcDbEllipse
10
12
20
19.981782
30
0
11
-1.64999999999999
21
2.02060048380691E-16
31
0
210
0
220
0
230
1
40
0.681998
41
0
42
0.53927364821774
0
ELLIPSE
5
114
100
AcDbEntity
8
1
62
256
6
ByLayer
370
18
48
1
60
0
100
AcDbEllipse
10
12
20
19.981782
30
0
11
-1.64999999999999
21
2.02060048380691E-16
31
0
210
0
220
0
230
1
40
0.681998
41
2.60222080710129
42
-1.57079606964749
0
ELLIPSE
5
115
100
AcDbEntity
8
1
62
256
6
ByLayer
370
18
48
1
60
0
100
AcDbEllipse
10
26.347154
20
0
30
0
11
-14.7536831606553
21
31.09325491558
31
0
210
0
220
0
230
1
40
0.341999
41
0.157806186645436
42
1.09123958575285
0
ELLIPSE
5
116
100
AcDbEntity
8
1
62
256
6
ByLayer
370
18
48
1
60
0
100
AcDbEllipse
10
12
20
18.185217
30
0
11
-1.87686272355921
21
-2.86780973811241
31
0
210
0
220
0
230
1
40
0.240927
41
2.46235164835305
42
3.11536358140552
0
ELLIPSE
5
117
100
AcDbEntity
8
1
62
256
6
ByLayer
370
18
48
1
60
0
100
AcDbEllipse
10
42.495895
20
-27.339401
30
0
11
-5.44024475995159
21
1.37398424407402
31
0
210
0
220
0
230
1
40
0.710883
41
3.12799134007237
42
-2.80877962940354
0
ELLIPSE
5
118
100
AcDbEntity
8
1
62
256
6
ByLayer
370
18
48
1
60
0
100
AcDbEllipse
10
19.640695
20
12.96521
30
0
11
-0.0107660334581989
21
-2.82966792465414
31
0
210
0
220
0
230
1
40
0.065127
41
1.77762149897532
42
-2.93476748140937
0
ELLIPSE
5
119
100
AcDbEntity
8
1
62
256
6
ByLayer
370
18
48
1
60
0
100
AcDbEllipse
10
12
20
20.403367
30
0
11
-2.00000000000004
21
2.02127811016477E-15
31
0
210
0
220
0
230
1
40
0.707538
41
-2.39008803209745
42
-0.751504621492326
0
ELLIPSE
5
11A
100
AcDbEntity
8
1
62
256
6
ByLayer
370
18
48
1
60
0
100
AcDbEllipse
10
-2.347154
20
0
30
0
11
-14.7536831606537
21
31.0932549155779
31
0
210
0
220
0
230
1
40
0.341999
41
-2.98378646694435
42
-2.05035306783689
0
ELLIPSE
5
11B
100
AcDbEntity
8
1
62
256
6
ByLayer
370
18
48
1
60
0
100
AcDbEllipse
10
19.381116
20
12.140001
30
0
11
-0.0107660334581903
21
-2.82966792465452
31
0
210
0
220
0
230
1
40
0.065127
41
-2.93476748140939
42
-1.36397115461461
0
ELLIPSE
5
11C
100
AcDbEntity
8
1
62
256
6
ByLayer
370
18
48
1
60
0
100
AcDbEllipse
10
12
20
20.403367
30
0
11
-1.99999999999995
21
2.02127811016468E-15
31
0
210
0
220
0
230
1
40
0.707538
41
0.751504621492281
42
2.3900880320975
0
ELLIPSE
5
11D
100
AcDbEntity
8
1
62
256
6
ByLayer
370
18
48
1
60
0
100
AcDbEllipse
10
24.494172
20
-68.337981
30
0
11
-2.34311535993462E-15
21
38.2672415935297
31
0
210
0
220
0
230
-1
40
0.104528
41
-0.15003379082993
42
-0.104149827605797
0
ELLIPSE
5
11E
100
AcDbEntity
8
1
62
256
6
ByLayer
370
18
48
1
60
0
100
AcDbEllipse
10
26.347154
20
0
30
0
11
-14.7536831606555
21
-31.0932549155802
31
0
210
0
220
0
230
1
40
0.341999
41
-1.09123958575285
42
-0.157806186645435
0
ELLIPSE
5
11F
100
AcDbEntity
8
1
62
256
6
ByLayer
370
18
48
1
60
0
100
AcDbEllipse
10
-2.347154
20
0
30
0
11
-14.7536831606548
21
-31.0932549155792
31
0
210
0
220
0
230
1
40
0.341999
41
2.05035306783692
42
2.98378646694436
0
ELLIPSE
5
120
100
AcDbEntity
8
1
62
256
6
ByLayer
370
18
48
1
60
0
100
AcDbEllipse
10
20.755893
20
0
30
0
11
1.92875500727024E-15
21
31.5
31
0
210
0
220
0
230
1
40
0.087489
41
0.311401384074102
42
2.8301912695157
0
ELLIPSE
5
121
100
AcDbEntity
8
1
62
256
6
ByLayer
370
18
48
1
60
0
100
AcDbEllipse
10
12
20
18.185217
30
0
11
-1.87686272356697
21
2.86780973812225
31
0
210
0
220
0
230
1
40
0.240927
41
0.0262290721842245
42
0.679241005235341
0
ELLIPSE
5
122
100
AcDbEntity
8
1
62
256
6
ByLayer
370
18
48
1
60
0
100
AcDbEllipse
10
61.513884
20
-33.951873
30
0
11
-0.561230652229047
21
-0.561230652226479
31
0
210
0
220
0
230
1
40
0.989133
41
2.79252680319094
42
-1.74532925199433
0
ELLIPSE
5
123
100
AcDbEntity
8
1
62
256
6
ByLayer
370
18
48
1
60
0
100
AcDbEllipse
10
59.892121
20
-39.892121
30
0
11
-3.36759604540864
21
-3.36759604539323
31
0
210
0
220
0
230
1
40
0.989133
41
0.34906585039887
42
0.698131700797733
0
ELLIPSE
5
124
100
AcDbEntity
8
1
62
256
6
ByLayer
370
18
48
1
60
0
100
AcDbEllipse
10
59.892121
20
-39.892121
30
0
11
-3.36759604540864
21
-3.36759604539323
31
0
210
0
220
0
230
1
40
0.989133
41
2.44346095279206
42
2.79252680319096
0
ELLIPSE
5
125
100
AcDbEntity
8
1
62
256
6
ByLayer
370
18
48
1
60
0
100
AcDbEllipse
10
64.210605
20
-44.210605
30
0
11
-0.561230652229047
21
-0.561230652226479
31
0
210
0
220
0
230
1
40
0.989133
41
0.698131700797727
42
2.44346095279206
0
ELLIPSE
5
126
100
AcDbEntity
8
1
62
256
6
ByLayer
370
18
48
1
60
0
100
AcDbEllipse
10
43.765502
20
-39.019646
30
0
11
-0.247184512010694
21
1.78294694733804
31
0
210
0
220
0
230
1
40
0.816684
41
1.27645530837015
42
2.70668511481895
0
ELLIPSE
5
127
100
AcDbEntity
8
1
62
256
6
ByLayer
370
18
48
1
60
0
100
AcDbEllipse
10
45.387192
20
-33.079667
30
0
11
1.34291647595085
21
1.19857220834614
31
0
210
0
220
0
230
1
40
0.774573
41
0.64969275613916
42
2.07992256258796
0
ELLIPSE
5
128
100
AcDbEntity
8
1
62
256
6
ByLayer
370
18
48
1
60
0
100
AcDbEllipse
10
45.75371
20
-39.948691
30
0
11
-3.3391127087974
21
-0.617089188643547
31
0
210
0
220
0
230
1
40
0.419778
41
0.436824619953887
42
0.728448483462061
0
ELLIPSE
5
129
100
AcDbEntity
8
1
62
256
6
ByLayer
370
18
48
1
60
0
100
AcDbEllipse
10
47.351991
20
-34.419162
30
0
11
4.34112244422441
21
-1.18518181063122
31
0
210
0
220
0
230
1
40
0.073512
41
-2.40105709263897
42
-1.96218052381015
0
ELLIPSE
5
12A
100
AcDbEntity
8
1
62
256
6
ByLayer
370
18
48
1
60
0
100
AcDbEllipse
10
45.858554
20
-39.889372
30
0
11
-4.37176403458589
21
1.07285754507674
31
0
210
0
220
0
230
1
40
0.124294
41
-0.590094901466627
42
-0.52844672204112
0
ELLIPSE
5
12B
100
AcDbEntity
8
1
62
256
6
ByLayer
370
18
48
1
60
0
100
AcDbEllipse
10
48.197426
20
-31.598481
30
0
11
-2.56809873138067
21
0.842944249135933
31
0
210
0
220
0
230
1
40
0.402459
41
-0.134217186607352
42
0.607273697121041
0
ELLIPSE
5
12C
100
AcDbEntity
8
1
62
256
6
ByLayer
370
18
48
1
60
0
100
AcDbEllipse
10
41.806445
20
-29.614402
30
0
11
5.78816325896588
21
-1.58024241417496
31
0
210
0
220
0
230
1
40
0.073512
41
0.79124645359908
42
0.793135574676271
0
ELLIPSE
5
12D
100
AcDbEntity
8
1
62
256
6
ByLayer
370
18
48
1
60
0
100
AcDbEllipse
10
43.425941
20
-38.532333
30
0
11
-2.29135103077849
21
-1.01920308150208
31
0
210
0
220
0
230
1
40
0.990371
41
-0.680306581623469
42
0.433487814488323
0
ELLIPSE
5
12E
100
AcDbEntity
8
1
62
256
6
ByLayer
370
18
48
1
60
0
100
AcDbEllipse
10
46.196282
20
-38.65233
30
0
11
4.34112244422441
21
-1.18518181063122
31
0
210
0
220
0
230
1
40
0.073512
41
-2.40105709263897
42
-1.96218052381015
0
ELLIPSE
5
12F
100
AcDbEntity
8
1
62
256
6
ByLayer
370
18
48
1
60
0
100
AcDbEllipse
10
60.15118
20
-40.091076
30
0
11
-1.31499034226716
21
-1.00450433123438
31
0
210
0
220
0
230
1
40
0.820784
41
1.92274213370034
42
2.20382581864528
0
ELLIPSE
5
130
100
AcDbEntity
8
1
62
256
6
ByLayer
370
18
48
1
60
0
100
AcDbEllipse
10
60.15118
20
-40.091076
30
0
11
-0.212188270488736
21
-1.73934239213597
31
0
210
0
220
0
230
1
40
0.837681
41
1.51414874586066
42
1.79523243078359
0
ELLIPSE
5
131
100
AcDbEntity
8
1
62
256
6
ByLayer
370
18
48
1
60
0
100
AcDbEllipse
10
45.028174
20
-32.663622
30
0
11
-2.29135103078641
21
-1.01920308148654
31
0
210
0
220
0
230
1
40
0.990371
41
-1.79410097772805
42
-0.680306581616567
0
ELLIPSE
5
132
100
AcDbEntity
8
1
62
256
6
ByLayer
370
18
48
1
60
0
100
AcDbEllipse
10
47.355943
20
-34.07998
30
0
11
-2.0077918371949
21
3.32412133805671
31
0
210
0
220
0
230
1
40
0.505057
41
-0.479880756443799
42
-0.188256892929078
0
ELLIPSE
5
133
100
AcDbEntity
8
1
62
256
6
ByLayer
370
18
48
1
60
0
100
AcDbEllipse
10
47.689719
20
-33.18212
30
0
11
-4.30841316686396
21
1.30451406861285
31
0
210
0
220
0
230
1
40
0.27121
41
0.532688226599005
42
0.594336406750054
0
ELLIPSE
5
134
100
AcDbEntity
8
1
62
256
6
ByLayer
370
18
48
1
60
0
100
AcDbEllipse
10
45.469233
20
-41.591396
30
0
11
-2.63680403954996
21
0.592727853622863
31
0
210
0
220
0
230
1
40
0.255808
41
-0.598500912874522
42
0.142989970854347
0
ELLIPSE
5
135
100
AcDbEntity
8
1
62
256
6
ByLayer
370
18
48
1
60
0
100
AcDbEllipse
10
49.477283
20
-37.594869
30
0
11
0.63639610306935
21
0.636396103066435
31
0
210
0
220
0
230
1
40
0.989133
41
3.04810062848653
42
-3.04810062849606
0
ELLIPSE
5
136
100
AcDbEntity
8
1
62
256
6
ByLayer
370
18
48
1
60
0
100
AcDbEllipse
10
49.341437
20
-37.459022
30
0
11
0.63639610306935
21
0.636396103066435
31
0
210
0
220
0
230
1
40
0.989133
41
-3.04810062849623
42
-2.18788712748674
0
ELLIPSE
5
137
100
AcDbEntity
8
1
62
256
6
ByLayer
370
18
48
1
60
0
100
AcDbEllipse
10
49.481785
20
-37.599371
30
0
11
0.654073772599054
21
0.654073772596059
31
0
210
0
220
0
230
1
40
0.989133
41
2.99504762280163
42
-2.99504762280159
0
ELLIPSE
5
138
100
AcDbEntity
8
1
62
256
6
ByLayer
370
18
48
1
60
0
100
AcDbEllipse
10
49.481785
20
-37.599371
30
0
11
0.654073772599054
21
0.654073772596059
31
0
210
0
220
0
230
1
40
0.989133
41
-1.19374258198475
42
-0.900652520408409
0
ELLIPSE
5
139
100
AcDbEntity
8
1
62
256
6
ByLayer
370
18
48
1
60
0
100
AcDbEllipse
10
49.643947
20
-38.609819
30
0
11
0.222738636074273
21
0.222738636073252
31
0
210
0
220
0
230
1
40
0.989133
41
0.130842050991832
42
0.777197897382878
0
ELLIPSE
5
13A
100
AcDbEntity
8
1
62
256
6
ByLayer
370
18
48
1
60
0
100
AcDbEllipse
10
49.643947
20
-38.609819
30
0
11
0.222738636074273
21
0.222738636073252
31
0
210
0
220
0
230
1
40
0.989133
41
1.31719720501034
42
1.96355305140137
0
ELLIPSE
5
13B
100
AcDbEntity
8
1
62
256
6
ByLayer
370
18
48
1
60
0
100
AcDbEllipse
10
49.477283
20
-37.594869
30
0
11
0.63639610306935
21
0.636396103066435
31
0
210
0
220
0
230
1
40
0.989133
41
2.00090307729966
42
2.18788712748676
0
ELLIPSE
5
13C
100
AcDbEntity
8
1
62
256
6
ByLayer
370
18
48
1
60
0
100
AcDbEllipse
10
49.477283
20
-37.594869
30
0
11
0.63639610306935
21
0.636396103066435
31
0
210
0
220
0
230
1
40
0.989133
41
-2.18788712749455
42
-2.00090307729456
0
ELLIPSE
5
13D
100
AcDbEntity
8
1
62
256
6
ByLayer
370
18
48
1
60
0
100
AcDbEllipse
10
49.481785
20
-37.599371
30
0
11
0.654073772599054
21
0.654073772596059
31
0
210
0
220
0
230
1
40
0.989133
41
0.900652520408426
42
1.19374258198478
0
ELLIPSE
5
13E
100
AcDbEntity
8
1
62
256
6
ByLayer
370
18
48
1
60
0
100
AcDbEllipse
10
48.633499
20
-38.447656
30
0
11
0.222738636074273
21
0.222738636073252
31
0
210
0
220
0
230
1
40
0.989133
41
-0.916355500204742
42
-0.443155232439529
0
ELLIPSE
5
13F
100
AcDbEntity
8
1
62
256
6
ByLayer
370
18
48
1
60
0
100
AcDbEllipse
10
50.492233
20
-37.761533
30
0
11
0.222738636074273
21
0.222738636073252
31
0
210
0
220
0
230
1
40
0.989133
41
1.17803960218843
42
1.82439544857948
0
ELLIPSE
5
140
100
AcDbEntity
8
1
62
256
6
ByLayer
370
18
48
1
60
0
100
AcDbEllipse
10
50.330071
20
-36.751085
30
0
11
0.222738636074273
21
0.222738636073252
31
0
210
0
220
0
230
1
40
0.989133
41
2.22523715338505
42
2.69843742115031
0
ELLIPSE
5
141
100
AcDbEntity
8
1
62
256
6
ByLayer
370
18
48
1
60
0
100
AcDbEllipse
10
49.784296
20
-38.750167
30
0
11
0.222738636074273
21
0.222738636073252
31
0
210
0
220
0
230
1
40
0.989133
41
1.49035278363615
42
1.96355305140137
0
ELLIPSE
5
142
100
AcDbEntity
8
1
62
256
6
ByLayer
370
18
48
1
60
0
100
AcDbEllipse
10
49.481785
20
-37.599371
30
0
11
0.654073772599054
21
0.654073772596059
31
0
210
0
220
0
230
1
40
0.989133
41
1.94785007160503
42
2.24094013318138
0
ELLIPSE
5
143
100
AcDbEntity
8
1
62
256
6
ByLayer
370
18
48
1
60
0
100
AcDbEllipse
10
49.733939
20
-36.67577
30
0
11
-0.205060966544568
21
-0.20506096654363
31
0
210
0
220
0
230
1
40
0.989133
41
2.22523715338506
42
-1.17803960218845
0
ELLIPSE
5
144
100
AcDbEntity
8
1
62
256
6
ByLayer
370
18
48
1
60
0
100
AcDbEllipse
10
50.15323
20
-38.270816
30
0
11
-0.205060966544568
21
-0.20506096654363
31
0
210
0
220
0
230
1
40
0.989133
41
0.130842050991834
42
3.01075060259796
0
ELLIPSE
5
145
100
AcDbEntity
8
1
62
256
6
ByLayer
370
18
48
1
60
0
100
AcDbEllipse
10
48.633499
20
-38.447656
30
0
11
0.222738636074273
21
0.222738636073252
31
0
210
0
220
0
230
1
40
0.989133
41
0.44315523243955
42
0.916355500204805
0
ELLIPSE
5
146
100
AcDbEntity
8
1
62
256
6
ByLayer
370
18
48
1
60
0
100
AcDbEllipse
10
49.477283
20
-37.594869
30
0
11
0.63639610306935
21
0.636396103066435
31
0
210
0
220
0
230
1
40
0.989133
41
-0.0934920251032789
42
0.0934920250937071
0
ELLIPSE
5
147
100
AcDbEntity
8
1
62
256
6
ByLayer
370
18
48
1
60
0
100
AcDbEllipse
10
49.179274
20
-36.448574
30
0
11
0.222738636074273
21
0.222738636073252
31
0
210
0
220
0
230
1
40
0.989133
41
-3.01075060259792
42
-2.53755033483269
0
ELLIPSE
5
148
100
AcDbEntity
8
1
62
256
6
ByLayer
370
18
48
1
60
0
100
AcDbEllipse
10
49.436148
20
-37.553734
30
0
11
-2.26274169980213
21
-2.26274169979178
31
0
210
0
220
0
230
1
40
0.989133
41
0
42
6.28318530717959
0
ELLIPSE
5
149
100
AcDbEntity
8
1
62
256
6
ByLayer
370
18
48
1
60
0
100
AcDbEllipse
10
50.012882
20
-38.130468
30
0
11
-0.205060966544568
21
-0.20506096654363
31
0
210
0
220
0
230
1
40
0.989133
41
0.130842050991886
42
3.01075060259793
0
ELLIPSE
5
14A
100
AcDbEntity
8
1
62
256
6
ByLayer
370
18
48
1
60
0
100
AcDbEllipse
10
50.492233
20
-37.761533
30
0
11
0.222738636074273
21
0.222738636073252
31
0
210
0
220
0
230
1
40
0.989133
41
2.36439475620695
42
3.01075060259801
0
ELLIPSE
5
14B
100
AcDbEntity
8
1
62
256
6
ByLayer
370
18
48
1
60
0
100
AcDbEllipse
10
49.22963
20
-38.522971
30
0
11
-0.205060966544568
21
-0.20506096654363
31
0
210
0
220
0
230
1
40
0.989133
41
-0.9163555002048
42
1.96355305140137
0
ELLIPSE
5
14C
100
AcDbEntity
8
1
62
256
6
ByLayer
370
18
48
1
60
0
100
AcDbEllipse
10
49.481785
20
-37.599371
30
0
11
-1.34350288425751
21
-1.34350288425137
31
0
210
0
220
0
230
1
40
0.989133
41
0
42
6.28318530717959
0
ELLIPSE
5
14D
100
AcDbEntity
8
1
62
256
6
ByLayer
370
18
48
1
60
0
100
AcDbEllipse
10
50.189722
20
-36.610736
30
0
11
0.222738636074273
21
0.222738636073252
31
0
210
0
220
0
230
1
40
0.989133
41
2.22523715338505
42
2.87159299977607
0
ELLIPSE
5
14E
100
AcDbEntity
8
1
62
256
6
ByLayer
370
18
48
1
60
0
100
AcDbEllipse
10
50.330071
20
-36.751085
30
0
11
0.222738636074273
21
0.222738636073252
31
0
210
0
220
0
230
1
40
0.989133
41
-2.69843742115024
42
-2.22523715338502
0
ELLIPSE
5
14F
100
AcDbEntity
8
1
62
256
6
ByLayer
370
18
48
1
60
0
100
AcDbEllipse
10
48.493151
20
-38.307308
30
0
11
0.222738636074273
21
0.222738636073252
31
0
210
0
220
0
230
1
40
0.989133
41
0.269999653813776
42
0.916355500204773
0
ELLIPSE
5
150
100
AcDbEntity
8
1
62
256
6
ByLayer
370
18
48
1
60
0
100
AcDbEllipse
10
49.477283
20
-37.594869
30
0
11
0.63639610306935
21
0.636396103066435
31
0
210
0
220
0
230
1
40
0.989133
41
-1.14068957629014
42
-0.953705526103065
0
ELLIPSE
5
151
100
AcDbEntity
8
1
62
256
6
ByLayer
370
18
48
1
60
0
100
AcDbEllipse
10
50.405385
20
-37.347216
30
0
11
-0.205060966544568
21
-0.20506096654363
31
0
210
0
220
0
230
1
40
0.989133
41
1.17803960218842
42
-2.22523715338503
0
ELLIPSE
5
152
100
AcDbEntity
8
1
62
256
6
ByLayer
370
18
48
1
60
0
100
AcDbEllipse
10
49.477283
20
-37.594869
30
0
11
0.63639610306935
21
0.636396103066435
31
0
210
0
220
0
230
1
40
0.989133
41
0.953705526103047
42
1.14068957629015
0
ELLIPSE
5
153
100
AcDbEntity
8
1
62
256
6
ByLayer
370
18
48
1
60
0
100
AcDbEllipse
10
48.810339
20
-36.927925
30
0
11
-0.205060966544568
21
-0.20506096654363
31
0
210
0
220
0
230
1
40
0.989133
41
-3.01075060259796
42
-0.130842050991785
0
ELLIPSE
5
154
100
AcDbEntity
8
1
62
256
6
ByLayer
370
18
48
1
60
0
100
AcDbEllipse
10
48.558184
20
-37.851525
30
0
11
-0.205060966544568
21
-0.20506096654363
31
0
210
0
220
0
230
1
40
0.989133
41
-1.96355305140137
42
0.9163555002048
0
ELLIPSE
5
155
100
AcDbEntity
8
1
62
256
6
ByLayer
370
18
48
1
60
0
100
AcDbEllipse
10
50.632581
20
-37.901881
30
0
11
0.222738636074273
21
0.222738636073252
31
0
210
0
220
0
230
1
40
0.989133
41
2.53755033483271
42
3.01075060259796
0
ELLIPSE
5
156
100
AcDbEntity
8
1
62
256
6
ByLayer
370
18
48
1
60
0
100
AcDbEllipse
10
49.784296
20
-38.750167
30
0
11
0.222738636074273
21
0.222738636073252
31
0
210
0
220
0
230
1
40
0.989133
41
0.130842050991832
42
0.604042318757067
0
ELLIPSE
5
157
100
AcDbEntity
8
1
62
256
6
ByLayer
370
18
48
1
60
0
100
AcDbEllipse
10
49.179274
20
-36.448574
30
0
11
0.222738636074273
21
0.222738636073252
31
0
210
0
220
0
230
1
40
0.989133
41
-1.65123986995367
42
-1.1780396021884
0
ELLIPSE
5
158
100
AcDbEntity
8
1
62
256
6
ByLayer
370
18
48
1
60
0
100
AcDbEllipse
10
48.330988
20
-37.29686
30
0
11
0.222738636074273
21
0.222738636073252
31
0
210
0
220
0
230
1
40
0.989133
41
-1.96355305140134
42
-1.49035278363608
0
ELLIPSE
5
159
100
AcDbEntity
8
1
62
256
6
ByLayer
370
18
48
1
60
0
100
AcDbEllipse
10
49.481785
20
-37.599371
30
0
11
0.654073772599054
21
0.654073772596059
31
0
210
0
220
0
230
1
40
0.989133
41
-0.146545030788179
42
0.146545030788171
0
ELLIPSE
5
15A
100
AcDbEntity
8
1
62
256
6
ByLayer
370
18
48
1
60
0
100
AcDbEllipse
10
50.632581
20
-37.901881
30
0
11
0.222738636074273
21
0.222738636073252
31
0
210
0
220
0
230
1
40
0.989133
41
1.1780396021885
42
1.65123986995373
0
ELLIPSE
5
15B
100
AcDbEntity
8
1
62
256
6
ByLayer
370
18
48
1
60
0
100
AcDbEllipse
10
48.330988
20
-37.29686
30
0
11
0.222738636074273
21
0.222738636073252
31
0
210
0
220
0
230
1
40
0.989133
41
-0.604042318757117
42
-0.130842050991878
0
ELLIPSE
5
15C
100
AcDbEntity
8
1
62
256
6
ByLayer
370
18
48
1
60
0
100
AcDbEllipse
10
49.481785
20
-37.599371
30
0
11
0.654073772599054
21
0.654073772596059
31
0
210
0
220
0
230
1
40
0.989133
41
-2.24094013318137
42
-1.94785007160501
0
ELLIPSE
5
15D
100
AcDbEntity
8
1
62
256
6
ByLayer
370
18
48
1
60
0
100
AcDbEllipse
10
49.341437
20
-37.459022
30
0
11
0.63639610306935
21
0.636396103066435
31
0
210
0
220
0
230
1
40
0.989133
41
-0.953705526103036
42
-0.0934920250935547
0
ELLIPSE
5
15E
100
AcDbEntity
8
1
62
256
6
ByLayer
370
18
48
1
60
0
100
AcDbEllipse
10
49.341437
20
-37.459022
30
0
11
0.63639610306935
21
0.636396103066435
31
0
210
0
220
0
230
1
40
0.989133
41
-2.00090307729965
42
-1.14068957629014
0
POINT
5
6C
100
AcDbEntity
8
2
62
256
6
ByLayer
370
18
48
1
60
0
100
AcDbPoint
10
65
20
45
30
0
39
0
210
0
220
0
230
1
50
360
0
POINT
5
6E
100
AcDbEntity
8
80
62
256
6
ByLayer
370
18
48
1
60
0
100
AcDbPoint
10
0
20
0
30
0
39
0
210
0
220
0
230
1
50
360
0
POINT
5
70
100
AcDbEntity
8
81
62
256
6
ByLayer
370
18
48
1
60
0
100
AcDbPoint
10
65
20
-45
30
0
39
0
210
0
220
0
230
1
50
360
0
SPLINE
5
15F
100
AcDbEntity
8
SK1
62
256
6
ByLayer
370
18
48
1
60
0
100
AcDbSpline
70
4
71
3
72
13
73
9
40
0
40
0
40
0
40
0
40
0.239456135835734
40
0.368359722028796
40
0.499998984123831
40
0.631638415376812
40
0.760542467847005
40
1
40
1
40
1
40
1
41
1
10
-2.19999999999999
20
-22.0200986775813
30
0
41
1
10
-2.19909198642387
20
-21.9940412014509
30
0
41
1
10
-2.19103284107055
20
-21.9566686170919
30
0
41
1
10
-2.16563592203485
20
-21.9104494432231
30
0
41
1
10
-2.13886378679456
20
-21.8791678893422
30
0
41
1
10
-2.10627712750076
20
-21.854000519123
30
0
41
1
10
-2.05884064234343
20
-21.8309567166392
30
0
41
1
10
-2.02111030873166
20
-21.8247844616134
30
0
41
1
10
-1.99503997793928
20
-21.8251861015554
30
0
0
SPLINE
5
160
100
AcDbEntity
8
SK1
62
256
6
ByLayer
370
18
48
1
60
0
100
AcDbSpline
70
4
71
3
72
13
73
9
40
0
40
0
40
0
40
0
40
0.239457532221833
40
0.36836158471627
40
0.500001015978903
40
0.631640278066344
40
0.760543864236282
40
1
40
1
40
1
40
1
41
1
10
-1.99503997793928
20
21.825186084775
30
0
41
1
10
-2.02111030873024
20
21.8247844448324
30
0
41
1
10
-2.05884064234078
20
21.8309566998545
30
0
41
1
10
-2.10627712749869
20
21.8540005023229
30
0
41
1
10
-2.1388637867926
20
21.8791678725253
30
0
41
1
10
-2.16563592203337
20
21.9104494263858
30
0
41
1
10
-2.19103284106941
20
21.9566686002238
30
0
41
1
10
-2.19909198642273
20
21.9940411845603
30
0
41
1
10
-2.19999999999999
20
22.0200986606755
30
0
0
SPLINE
5
161
100
AcDbEntity
8
SK1
62
256
6
ByLayer
370
18
48
1
60
0
100
AcDbSpline
70
4
71
2
72
6
73
3
40
0
40
0
40
0
40
1
40
1
40
1
41
1
10
-36.5
20
-21.1521149580209
30
0
41
1
10
-19.3499999999869
20
-21.5828539542124
30
0
41
1
10
-2.19999999999999
20
-22.0135927638551
30
0
0
SPLINE
5
162
100
AcDbEntity
8
SK1
62
256
6
ByLayer
370
18
48
1
60
0
100
AcDbSpline
70
4
71
2
72
6
73
3
40
0
40
0
40
0
40
1
40
1
40
1
41
1
10
-2.19999999999999
20
22.0135928951589
30
0
41
1
10
-19.34999999997
20
21.5828554470541
30
0
41
1
10
-36.5
20
21.1521177089669
30
0
0
SPLINE
5
163
100
AcDbEntity
8
SK1
62
256
6
ByLayer
370
18
48
1
60
0
100
AcDbSpline
70
4
71
2
72
6
73
3
40
0
40
0
40
0
40
1
40
1
40
1
41
1
10
-1.99503997793928
20
-21.8251813124779
30
0
41
1
10
-1.19500843340728
20
-21.8452807593862
30
0
41
1
10
-0.394976888875277
20
-21.8653802062992
30
0
0
SPLINE
5
164
100
AcDbEntity
8
SK1
62
256
6
ByLayer
370
18
48
1
60
0
100
AcDbSpline
70
4
71
2
72
6
73
3
40
0
40
0
40
0
40
1
40
1
40
1
41
1
10
-0.394976888875277
20
21.8653801495793
30
0
41
1
10
-1.19500843340728
20
21.8452807024746
30
0
41
1
10
-1.99503997793928
20
21.8251812553753
30
0
0
SPLINE
5
165
100
AcDbEntity
8
SK1
62
256
6
ByLayer
370
18
48
1
60
0
100
AcDbSpline
70
4
71
2
72
6
73
3
40
0
40
0
40
0
40
1
40
1
40
1
41
1
10
-36.5
20
21.1553029418638
30
0
41
1
10
-37.2500000000012
20
20.7223540793632
30
0
41
1
10
-38
20
20.289405225553
30
0
0
SPLINE
5
166
100
AcDbEntity
8
SK1
62
256
6
ByLayer
370
18
48
1
60
0
100
AcDbSpline
70
4
71
2
72
6
73
3
40
0
40
0
40
0
40
1
40
1
40
1
41
1
10
-38
20
-20.2894050057151
30
0
41
1
10
-37.2500000000012
20
-20.7223538609616
30
0
41
1
10
-36.5
20
-21.155302724897
30
0
0
SPLINE
5
167
100
AcDbEntity
8
SK1
62
256
6
ByLayer
370
18
48
1
60
0
100
AcDbSpline
70
4
71
2
72
6
73
3
40
0
40
0
40
0
40
1
40
1
40
1
41
1
10
-0.240502439654279
20
21.9465691723769
30
0
41
1
10
-0.265172990617003
20
21.8689012906761
30
0
41
1
10
-0.394976888875277
20
21.8653849865467
30
0
0
SPLINE
5
168
100
AcDbEntity
8
SK1
62
256
6
ByLayer
370
18
48
1
60
0
100
AcDbSpline
70
4
71
2
72
6
73
3
40
0
40
0
40
0
40
1
40
1
40
1
41
1
10
-0.394976888875277
20
-21.865385003355
30
0
41
1
10
-0.264174311740362
20
-21.8692639605625
30
0
41
1
10
-0.239684768755779
20
-21.9481214799355
30
0
0
SPLINE
5
169
100
AcDbEntity
8
1
62
256
6
ByLayer
370
18
48
1
60
0
100
AcDbSpline
70
4
71
3
72
10
73
6
40
0
40
0
40
0
40
0
40
0.467403496721567
40
0.467403496721567
40
1
40
1
40
1
40
1
41
1
10
10.4836806762405
20
19.5725222687281
30
0
41
1
10
10.5789033213207
20
19.7258839412495
30
0
41
1
10
10.6826517052664
20
19.8652502692866
30
0
41
1
10
10.9183749881541
20
20.12017753968
30
0
41
1
10
11.0537379712966
20
20.2314787043774
30
0
41
1
10
11.1920390385362
20
20.3172535622925
30
0
0
SPLINE
5
16A
100
AcDbEntity
8
1
62
256
6
ByLayer
370
18
48
1
60
0
100
AcDbSpline
70
4
71
3
72
10
73
6
40
0
40
0
40
0
40
0
40
0.131076473002633
40
0.131076473002633
40
1
40
1
40
1
40
1
41
1
10
42.1873143961469
20
-40.7050891007851
30
0
41
1
10
42.1690296842089
20
-40.6940018287313
30
0
41
1
10
42.1507570698849
20
-40.6827129656866
30
0
41
1
10
42.0103015546262
20
-40.594258551318
30
0
41
1
10
41.8883551268868
20
-40.5075506818425
30
0
41
1
10
41.7705084039904
20
-40.410454132848
30
0
0
SPLINE
5
16B
100
AcDbEntity
8
SK1
62
256
6
ByLayer
370
18
48
1
60
0
100
AcDbSpline
70
4
71
3
72
299
73
295
40
0
40
0
40
0
40
0
40
0.0032948406291646
40
0.0068175676355681
40
0.0103402946419716
40
0.0138630216483751
40
0.0173857486547787
40
0.0209084756611822
40
0.0244312026675857
40
0.0279539296739892
40
0.0349993836867963
40
0.0420448376996033
40
0.0490902917124104
40
0.0526130187188139
40
0.0561357457252174
40
0.0596584727316209
40
0.0631811997380245
40
0.0702266537508315
40
0.073749380757235
40
0.0772721077636385
40
0.0807948347700421
40
0.0843175617764456
40
0.0878402887828491
40
0.0913630157892526
40
0.0984084698020597
40
0.101931196808463
40
0.105453923814867
40
0.10897665082127
40
0.112499377827674
40
0.116022104834077
40
0.119544831840481
40
0.123067558846884
40
0.126590285853288
40
0.130113012859691
40
0.133635739866095
40
0.137158466872498
40
0.140681193878902
40
0.144203920885305
40
0.147726647891709
40
0.154772101904516
40
0.15829482891092
40
0.161817555917323
40
0.163578919420525
40
0.165340282923727
40
0.16886300993013
40
0.175908463942937
40
0.179431190949341
40
0.182953917955744
40
0.186476644962148
40
0.189999371968551
40
0.197044825981358
40
0.200567552987762
40
0.204090279994165
40
0.205851643497367
40
0.207613007000569
40
0.211135734006972
40
0.218181188019779
40
0.221703915026183
40
0.225226642032586
40
0.22874936903899
40
0.232272096045394
40
0.2393175500582
40
0.242840277064604
40
0.246363004071008
40
0.248124367574209
40
0.249885731077411
40
0.253408458083815
40
0.256931185090218
40
0.260453912096622
40
0.262215275599823
40
0.263976639103025
40
0.267499366109429
40
0.271022093115832
40
0.274544820122236
40
0.278067547128639
40
0.281590274135043
40
0.285113001141446
40
0.28863572814785
40
0.292158455154253
40
0.295681182160657
40
0.29920390916706
40
0.302726636173464
40
0.306249363179867
40
0.309772090186271
40
0.313294817192674
40
0.316817544199078
40
0.323862998211885
40
0.327385725218289
40
0.330908452224692
40
0.334431179231096
40
0.337953906237499
40
0.341476633243903
40
0.344999360250306
40
0.34852208725671
40
0.352044814263113
40
0.35909026827592
40
0.366135722288727
40
0.373181176301534
40
0.376703903307938
40
0.380226630314341
40
0.383749357320745
40
0.387272084327148
40
0.390794811333552
40
0.394317538339955
40
0.397840265346359
40
0.401362992352763
40
0.404885719359166
40
0.40840844636557
40
0.411931173371973
40
0.415453900378377
40
0.41897662738478
40
0.422499354391184
40
0.426022081397587
40
0.429544808403991
40
0.433067535410394
40
0.434828898913596
40
0.436590262416798
40
0.438351625919999
40
0.440112989423201
40
0.443635716429605
40
0.447158443436008
40
0.44891980693921
40
0.450681170442412
40
0.452442533945614
40
0.454203897448815
40
0.457726624455219
40
0.459487987958421
40
0.461249351461622
40
0.463010714964824
40
0.464772078468026
40
0.466533441971228
40
0.468294805474429
40
0.470056168977631
40
0.471817532480833
40
0.473578895984035
40
0.475340259487237
40
0.477101622990438
40
0.47886298649364
40
0.480624349996842
40
0.482385713500044
40
0.484147077003245
40
0.485908440506447
40
0.487669804009649
40
0.489431167512851
40
0.491192531016052
40
0.492953894519254
40
0.494715258022456
40
0.496476621525658
40
0.498237985028859
40
0.499999348532061
40
0.501760712035263
40
0.503522075538465
40
0.505283439041666
40
0.507044802544868
40
0.50880616604807
40
0.510567529551272
40
0.512328893054473
40
0.514090256557675
40
0.515851620060877
40
0.517612983564079
40
0.51937434706728
40
0.521135710570482
40
0.522897074073684
40
0.524658437576886
40
0.526419801080087
40
0.528181164583289
40
0.529942528086491
40
0.531703891589693
40
0.533465255092895
40
0.535226618596096
40
0.536987982099298
40
0.5387493456025
40
0.540510709105702
40
0.542272072608903
40
0.545794799615307
40
0.547556163118509
40
0.54931752662171
40
0.551078890124912
40
0.552840253628114
40
0.556362980634518
40
0.559885707640921
40
0.561647071144123
40
0.563408434647324
40
0.565169798150526
40
0.566931161653728
40
0.570453888660132
40
0.573976615666535
40
0.577499342672939
40
0.581022069679342
40
0.584544796685746
40
0.588067523692149
40
0.591590250698553
40
0.595112977704956
40
0.59863570471136
40
0.602158431717763
40
0.605681158724167
40
0.60920388573057
40
0.612726612736974
40
0.616249339743377
40
0.619772066749781
40
0.623294793756184
40
0.626817520762588
40
0.633862974775395
40
0.640908428788202
40
0.647953882801009
40
0.651476609807413
40
0.654999336813816
40
0.65852206382022
40
0.662044790826623
40
0.665567517833027
40
0.66909024483943
40
0.672612971845834
40
0.676135698852237
40
0.683181152865044
40
0.686703879871448
40
0.690226606877851
40
0.693749333884255
40
0.697272060890658
40
0.700794787897062
40
0.704317514903465
40
0.707840241909869
40
0.711362968916272
40
0.714885695922676
40
0.718408422929079
40
0.721931149935483
40
0.725453876941886
40
0.732499330954694
40
0.736022057961097
40
0.739544784967501
40
0.746590238980308
40
0.750112965986711
40
0.753635692993115
40
0.757158419999518
40
0.760681147005922
40
0.767726601018729
40
0.771249328025132
40
0.774772055031536
40
0.778294782037939
40
0.781817509044343
40
0.78886296305715
40
0.792385690063553
40
0.795908417069957
40
0.79943114407636
40
0.802953871082764
40
0.809999325095571
40
0.813522052101975
40
0.817044779108378
40
0.820567506114781
40
0.824090233121185
40
0.831135687133992
40
0.834658414140396
40
0.838181141146799
40
0.841703868153203
40
0.845226595159606
40
0.852272049172413
40
0.855794776178817
40
0.85931750318522
40
0.862840230191624
40
0.866362957198027
40
0.869885684204431
40
0.873408411210834
40
0.876931138217238
40
0.880453865223641
40
0.883976592230045
40
0.887499319236448
40
0.891022046242852
40
0.894544773249256
40
0.898067500255659
40
0.901590227262063
40
0.90863568127487
40
0.912158408281273
40
0.915681135287677
40
0.91920386229408
40
0.922726589300484
40
0.926249316306887
40
0.929772043313291
40
0.936817497326098
40
0.940340224332501
40
0.943862951338905
40
0.947385678345308
40
0.950908405351712
40
0.957953859364519
40
0.961476586370922
40
0.964999313377326
40
0.968522040383729
40
0.972044767390133
40
0.975567494396537
40
0.97909022140294
40
0.982612948409344
40
0.986135675415747
40
0.989658402422151
40
0.993181129428554
40
0.996703856434958
40
1
40
1
40
1
40
1
41
1
10
-1.99503997793931
20
-21.825167281353
30
0
41
1
10
-1.99503997793931
20
-21.8252770149126
30
0
41
1
10
-1.99503997793931
20
-21.8245105072012
30
0
41
1
10
-1.99503997793928
20
-21.8202836860757
30
0
41
1
10
-1.99503997793928
20
-21.812783044142
30
0
41
1
10
-1.99503997793928
20
-21.8021565364934
30
0
41
1
10
-1.99503997793928
20
-21.7884557330328
30
0
41
1
10
-1.99503997793928
20
-21.7717308612526
30
0
41
1
10
-1.99503997793928
20
-21.7520291985819
30
0
41
1
10
-1.99503997793928
20
-21.7218385059106
30
0
41
1
10
-1.99503997793928
20
-21.6769140218914
30
0
41
1
10
-1.99503997793928
20
-21.6117670092986
30
0
41
1
10
-1.99503997793928
20
-21.5484022523455
30
0
41
1
10
-1.99503997793928
20
-21.4923512863894
30
0
41
1
10
-1.99503997793928
20
-21.4477036012609
30
0
41
1
10
-1.99503997793928
20
-21.4004602751572
30
0
41
1
10
-1.99503997793928
20
-21.3340243579833
30
0
41
1
10
-1.99503997793928
20
-21.2626002065085
30
0
41
1
10
-1.99503997793928
20
-21.1861355372814
30
0
41
1
10
-1.99503997793928
20
-21.126355615456
30
0
41
1
10
-1.99503997793928
20
-21.0641493981766
30
0
41
1
10
-1.99503997793928
20
-20.9995415089612
30
0
41
1
10
-1.99503997793928
20
-20.9325549476398
30
0
41
1
10
-1.99503997793928
20
-20.8400664063016
30
0
41
1
10
-1.99503997793928
20
-20.7430171949632
30
0
41
1
10
-1.99503997793928
20
-20.6412830606924
30
0
41
1
10
-1.99503997793928
20
-20.5627395849404
30
0
41
1
10
-1.99503997793928
20
-20.4819464711493
30
0
41
1
10
-1.99503997793928
20
-20.3989234016943
30
0
41
1
10
-1.99503997793928
20
-20.3136873945745
30
0
41
1
10
-1.99503997793928
20
-20.2262576082901
30
0
41
1
10
-1.99503997793928
20
-20.136651569995
30
0
41
1
10
-1.99503997793928
20
-20.0448848271876
30
0
41
1
10
-1.99503997793928
20
-19.9509751576252
30
0
41
1
10
-1.99503997793928
20
-19.8549383078336
30
0
41
1
10
-1.99503997793928
20
-19.7567886026657
30
0
41
1
10
-1.99503997793928
20
-19.6565424313982
30
0
41
1
10
-1.99503997793928
20
-19.5542139601407
30
0
41
1
10
-1.99503997793928
20
-19.4149698127943
30
0
41
1
10
-1.99503997793928
20
-19.2717622924356
30
0
41
1
10
-1.99503997793928
20
-19.1243520606764
30
0
41
1
10
-1.99503997793928
20
-19.0305969699326
30
0
41
1
10
-1.99503997793928
20
-18.9545457436666
30
0
41
1
10
-1.99503997793928
20
-18.877828345234
30
0
41
1
10
-1.99503997793928
20
-18.7418485706132
30
0
41
1
10
-1.99503997793928
20
-18.5826225030747
30
0
41
1
10
-1.99503997793928
20
-18.4193199892891
30
0
41
1
10
-1.99503997793928
20
-18.2949375082747
30
0
41
1
10
-1.99503997793928
20
-18.1686188381619
30
0
41
1
10
-1.99503997793928
20
-17.9975681157064
30
0
41
1
10
-1.99503997793928
20
-17.8228588844704
30
0
41
1
10
-1.99503997793928
20
-17.6441795672679
30
0
41
1
10
-1.99503997793928
20
-17.5309981410348
30
0
41
1
10
-1.99503997793928
20
-17.4394590341184
30
0
41
1
10
-1.99503997793928
20
-17.3472945498449
30
0
41
1
10
-1.99503997793928
20
-17.1843913435575
30
0
41
1
10
-1.99503997793928
20
-16.9946548235122
30
0
41
1
10
-1.99503997793928
20
-16.8010333841432
30
0
41
1
10
-1.99503997793928
20
-16.654027023888
30
0
41
1
10
-1.99503997793928
20
-16.5051894370887
30
0
41
1
10
-1.99503997793928
20
-16.3042392155796
30
0
41
1
10
-1.99503997793928
20
-16.0998599858609
30
0
41
1
10
-1.99503997793928
20
-15.8916662065006
30
0
41
1
10
-1.99503997793928
20
-15.7601264684356
30
0
41
1
10
-1.99503997793928
20
-15.6539352235828
30
0
41
1
10
-1.99503997793928
20
-15.5471478788444
30
0
41
1
10
-1.99503997793928
20
-15.4126292313156
30
0
41
1
10
-1.99503997793928
20
-15.2493853238091
30
0
41
1
10
-1.99503997793928
20
-15.1119089381336
30
0
41
1
10
-1.99503997793928
20
-15.0009760777421
30
0
41
1
10
-1.99503997793928
20
-14.8894548819647
30
0
41
1
10
-1.99503997793928
20
-14.7490386600655
30
0
41
1
10
-1.99503997793928
20
-14.578735707937
30
0
41
1
10
-1.99503997793928
20
-14.4066808882548
30
0
41
1
10
-1.99503997793928
20
-14.2328806917249
30
0
41
1
10
-1.99503997793928
20
-14.0573388809364
30
0
41
1
10
-1.99503997793928
20
-13.8800596938692
30
0
41
1
10
-1.99503997793928
20
-13.7010488098078
30
0
41
1
10
-1.99503997793928
20
-13.5203096364964
30
0
41
1
10
-1.99503997793928
20
-13.3378467409434
30
0
41
1
10
-1.99503997793928
20
-13.1536651576331
30
0
41
1
10
-1.99503997793928
20
-12.967767664355
30
0
41
1
10
-1.99503997793928
20
-12.7801589185361
30
0
41
1
10
-1.99503997793928
20
-12.5908431445087
30
0
41
1
10
-1.99503997793928
20
-12.3998230002593
30
0
41
1
10
-1.99503997793928
20
-12.1427688173785
30
0
41
1
10
-1.99503997793928
20
-11.8826118718573
30
0
41
1
10
-1.99503997793928
20
-11.6187779306707
30
0
41
1
10
-1.99503997793928
20
-11.4192921752591
30
0
41
1
10
-1.99503997793928
20
-11.2181233733031
30
0
41
1
10
-1.99503997793928
20
-11.0152750188843
30
0
41
1
10
-1.99503997793928
20
-10.8107494713072
30
0
41
1
10
-1.99503997793928
20
-10.6045508021232
30
0
41
1
10
-1.99503997793928
20
-10.3966814407573
30
0
41
1
10
-1.99503997793928
20
-10.1171870033238
30
0
41
1
10
-1.99503997793928
20
-9.76392166117952
30
0
41
1
10
-1.99503997793928
20
-9.33322608836653
30
0
41
1
10
-1.99503997793928
20
-8.96893242084855
30
0
41
1
10
-1.99503997793928
20
-8.67397578579323
30
0
41
1
10
-1.99503997793928
20
-8.45121977200662
30
0
41
1
10
-1.99503997793928
20
-8.22682776167494
30
0
41
1
10
-1.99503997793928
20
-8.00080467620245
30
0
41
1
10
-1.99503997793928
20
-7.77315513008728
30
0
41
1
10
-1.99503997793928
20
-7.54388372935193
30
0
41
1
10
-1.99503997793928
20
-7.31299637479285
30
0
41
1
10
-1.99503997793928
20
-7.08049945458953
30
0
41
1
10
-1.99503997793928
20
-6.8463997482805
30
0
41
1
10
-1.99503997793928
20
-6.61070495432838
30
0
41
1
10
-1.99503997793928
20
-6.37342319970753
30
0
41
1
10
-1.99503997793928
20
-6.13456384015993
30
0
41
1
10
-1.99503997793928
20
-5.89413749968628
30
0
41
1
10
-1.99503997793928
20
-5.65215638001948
30
0
41
1
10
-1.99503997793928
20
-5.4086336510897
30
0
41
1
10
-1.99503997793928
20
-5.16358499073451
30
0
41
1
10
-1.99503997793928
20
-4.95821799704331
30
0
41
1
10
-1.99503997793928
20
-4.79299516838267
30
0
41
1
10
-1.99503997793928
20
-4.66878842905288
30
0
41
1
10
-1.99503997793928
20
-4.5442150281373
30
0
41
1
10
-1.99503997793928
20
-4.37752561794156
30
0
41
1
10
-1.99503997793928
20
-4.16851547631595
30
0
41
1
10
-1.99503997793928
20
-3.95832363498766
30
0
41
1
10
-1.99503997793928
20
-3.78926935835412
30
0
41
1
10
-1.99503997793928
20
-3.66223142121836
30
0
41
1
10
-1.99503997793928
20
-3.53485872774326
30
0
41
1
10
-1.99503997793928
20
-3.36446603264318
30
0
41
1
10
-1.99503997793928
20
-3.19381064862623
30
0
41
1
10
-1.99503997793928
20
-3.02213557666008
30
0
41
1
10
-1.99503997793928
20
-2.8931784837302
30
0
41
1
10
-1.99503997793928
20
-2.76392442628162
30
0
41
1
10
-1.99503997793928
20
-2.63438251344519
30
0
41
1
10
-1.99503997793928
20
-2.50455988721876
30
0
41
1
10
-1.99503997793928
20
-2.37446636334928
30
0
41
1
10
-1.99503997793928
20
-2.24411116870439
30
0
41
1
10
-1.99503997793928
20
-2.11350398186613
30
0
41
1
10
-1.99503997793928
20
-1.98265625862297
30
0
41
1
10
-1.99503997793928
20
-1.85157817347522
30
0
41
1
10
-1.99503997793928
20
-1.72028262405345
30
0
41
1
10
-1.99503997793928
20
-1.58878098022359
30
0
41
1
10
-1.99503997793928
20
-1.45708718468359
30
0
41
1
10
-1.99503997793928
20
-1.32521409071333
30
0
41
1
10
-1.99503997793928
20
-1.19317647053177
30
0
41
1
10
-1.99503997793928
20
-1.06098852682439
30
0
41
1
10
-1.99503997793928
20
-0.928665923975672
30
0
41
1
10
-1.99503997793928
20
-0.796224037396229
30
0
41
1
10
-1.99503997793928
20
-0.663679321648374
30
0
41
1
10
-1.99503997793928
20
-0.531048033506266
30
0
41
1
10
-1.99503997793928
20
-0.398347293868937
30
0
41
1
10
-1.99503997793928
20
-0.265594055935196
30
0
41
1
10
-1.99503997793928
20
-0.132805828560237
30
0
41
1
10
-1.99503997793928
20
2.0604887E-09
30
0
41
1
10
-1.99503997793928
20
0.132805835966792
30
0
41
1
10
-1.99503997793928
20
0.265594069601519
30
0
41
1
10
-1.99503997793928
20
0.398347307093388
30
0
41
1
10
-1.99503997793928
20
0.531048037421954
30
0
41
1
10
-1.99503997793928
20
0.663679323049081
30
0
41
1
10
-1.99503997793928
20
0.796224050825089
30
0
41
1
10
-1.99503997793928
20
0.92866594303203
30
0
41
1
10
-1.99503997793928
20
1.06098853158755
30
0
41
1
10
-1.99503997793928
20
1.1931764657121
30
0
41
1
10
-1.99503997793928
20
1.32521410103647
30
0
41
1
10
-1.99503997793928
20
1.45708720896539
30
0
41
1
10
-1.99503997793928
20
1.58878099035152
30
0
41
1
10
-1.99503997793928
20
1.72028261530932
30
0
41
1
10
-1.99503997793928
20
1.85157817419838
30
0
41
1
10
-1.99503997793928
20
1.98265628188182
30
0
41
1
10
-1.99503997793928
20
2.11350400419804
30
0
41
1
10
-1.99503997793928
20
2.24411116714702
30
0
41
1
10
-1.99503997793928
20
2.37446635053539
30
0
41
1
10
-1.99503997793928
20
2.50455989433328
30
0
41
1
10
-1.99503997793928
20
2.63438254221708
30
0
41
1
10
-1.99503997793928
20
2.76392444618182
30
0
41
1
10
-1.99503997793928
20
2.89317847799558
30
0
41
1
10
-1.99503997793928
20
3.02213556164864
30
0
41
1
10
-1.99503997793928
20
3.19381066067948
30
0
41
1
10
-1.99503997793928
20
3.36446606295527
30
0
41
1
10
-1.99503997793928
20
3.53485872835634
30
0
41
1
10
-1.99503997793928
20
3.66223140396673
30
0
41
1
10
-1.99503997793928
20
3.78926935085312
30
0
41
1
10
-1.99503997793928
20
3.95832365779984
30
0
41
1
10
-1.99503997793928
20
4.16851549788919
30
0
41
1
10
-1.99503997793928
20
4.37752560184694
30
0
41
1
10
-1.99503997793928
20
4.54421502107886
30
0
41
1
10
-1.99503997793928
20
4.66878844332788
30
0
41
1
10
-1.99503997793928
20
4.79299519854527
30
0
41
1
10
-1.99503997793928
20
4.95821801342223
30
0
41
1
10
-1.99503997793928
20
5.16358497720142
30
0
41
1
10
-1.99503997793928
20
5.40863364784667
30
0
41
1
10
-1.99503997793928
20
5.65215640891225
30
0
41
1
10
-1.99503997793928
20
5.89413750153935
30
0
41
1
10
-1.99503997793928
20
6.13456381441384
30
0
41
1
10
-1.99503997793928
20
6.37342317953835
30
0
41
1
10
-1.99503997793928
20
6.61070492919379
30
0
41
1
10
-1.99503997793928
20
6.84639976314463
30
0
41
1
10
-1.99503997793928
20
7.08049963775395
30
0
41
1
10
-1.99503997793928
20
7.31299670603016
30
0
41
1
10
-1.99503997793928
20
7.54388383469134
30
0
41
1
10
-1.99503997793928
20
7.77315487290267
30
0
41
1
10
-1.99503997793928
20
8.00080468509063
30
0
41
1
10
-1.99503997793928
20
8.22682785520686
30
0
41
1
10
-1.99503997793928
20
8.4512197921853
30
0
41
1
10
-1.99503997793928
20
8.67397577159846
30
0
41
1
10
-1.99503997793928
20
8.96893239301764
30
0
41
1
10
-1.99503997793928
20
9.33322609823665
30
0
41
1
10
-1.99503997793928
20
9.76392165975841
30
0
41
1
10
-1.99503997793928
20
10.1171869828061
30
0
41
1
10
-1.99503997793928
20
10.3966814549587
30
0
41
1
10
-1.99503997793928
20
10.6045508126063
30
0
41
1
10
-1.99503997793928
20
10.8107494592904
30
0
41
1
10
-1.99503997793928
20
11.0152749978462
30
0
41
1
10
-1.99503997793928
20
11.2181233670389
30
0
41
1
10
-1.99503997793928
20
11.4192921870092
30
0
41
1
10
-1.99503997793928
20
11.6187779427602
30
0
41
1
10
-1.99503997793928
20
11.8826118620781
30
0
41
1
10
-1.99503997793928
20
12.1427687977971
30
0
41
1
10
-1.99503997793928
20
12.3998230071702
30
0
41
1
10
-1.99503997793928
20
12.5908431584255
30
0
41
1
10
-1.99503997793928
20
12.7801589212449
30
0
41
1
10
-1.99503997793928
20
12.9677676529033
30
0
41
1
10
-1.99503997793928
20
13.1536651432542
30
0
41
1
10
-1.99503997793928
20
13.3378467396349
30
0
41
1
10
-1.99503997793928
20
13.520309646993
30
0
41
1
10
-1.99503997793928
20
13.7010488212408
30
0
41
1
10
-1.99503997793928
20
13.8800597145162
30
0
41
1
10
-1.99503997793928
20
14.0573389921213
30
0
41
1
10
-1.99503997793928
20
14.2328810143213
30
0
41
1
10
-1.99503997793928
20
14.4646959102749
30
0
41
1
10
-1.99503997793928
20
14.6927797943809
30
0
41
1
10
-1.99503997793928
20
14.9175842595472
30
0
41
1
10
-1.99503997793928
20
15.1400402265273
30
0
41
1
10
-1.99503997793928
20
15.3587351142266
30
0
41
1
10
-1.99503997793928
20
15.574095422854
30
0
41
1
10
-1.99503997793928
20
15.733775855726
30
0
41
1
10
-1.99503997793928
20
15.8916657661057
30
0
41
1
10
-1.99503997793928
20
16.0998603532658
30
0
41
1
10
-1.99503997793928
20
16.3042398246232
30
0
41
1
10
-1.99503997793928
20
16.5051894037979
30
0
41
1
10
-1.99503997793928
20
16.6540265683948
30
0
41
1
10
-1.99503997793928
20
16.8010329188422
30
0
41
1
10
-1.99503997793928
20
16.9946550481209
30
0
41
1
10
-1.99503997793928
20
17.1843924611907
30
0
41
1
10
-1.99503997793928
20
17.3705928023913
30
0
41
1
10
-1.99503997793928
20
17.5083251903719
30
0
41
1
10
-1.99503997793928
20
17.6441786252734
30
0
41
1
10
-1.99503997793928
20
17.8228590748674
30
0
41
1
10
-1.99503997793928
20
17.9975683374733
30
0
41
1
10
-1.99503997793928
20
18.1686188521771
30
0
41
1
10
-1.99503997793928
20
18.2949373683468
30
0
41
1
10
-1.99503997793928
20
18.4193198181252
30
0
41
1
10
-1.99503997793928
20
18.5826226298873
30
0
41
1
10
-1.99503997793928
20
18.7418497326446
30
0
41
1
10
-1.99503997793928
20
18.8972761707097
30
0
41
1
10
-1.99503997793928
20
19.0118150097952
30
0
41
1
10
-1.99503997793928
20
19.1243510467918
30
0
41
1
10
-1.99503997793928
20
19.2717625055688
30
0
41
1
10
-1.99503997793928
20
19.414970513124
30
0
41
1
10
-1.99503997793928
20
19.5542140249085
30
0
41
1
10
-1.99503997793928
20
19.6565420567613
30
0
41
1
10
-1.99503997793928
20
19.7567881415466
30
0
41
1
10
-1.99503997793928
20
19.8549381550126
30
0
41
1
10
-1.99503997793928
20
19.9509751416388
30
0
41
1
10
-1.99503997793928
20
20.0448848362119
30
0
41
1
10
-1.99503997793928
20
20.1366515718167
30
0
41
1
10
-1.99503997793928
20
20.2262576202058
30
0
41
1
10
-1.99503997793928
20
20.3136874196731
30
0
41
1
10
-1.99503997793928
20
20.398923430088
30
0
41
1
10
-1.99503997793928
20
20.4819464863244
30
0
41
1
10
-1.99503997793928
20
20.5627395868944
30
0
41
1
10
-1.99503997793928
20
20.6412830627252
30
0
41
1
10
-1.99503997793928
20
20.7430172190698
30
0
41
1
10
-1.99503997793928
20
20.8400664428987
30
0
41
1
10
-1.99503997793928
20
20.9325549572362
30
0
41
1
10
-1.99503997793928
20
20.9995415068112
30
0
41
1
10
-1.99503997793928
20
21.064149408511
30
0
41
1
10
-1.99503997793928
20
21.1263556466612
30
0
41
1
10
-1.99503997793928
20
21.1861355753666
30
0
41
1
10
-1.99503997793928
20
21.262600218376
30
0
41
1
10
-1.99503997793928
20
21.3340243512753
30
0
41
1
10
-1.99503997793928
20
21.4004603045828
30
0
41
1
10
-1.99503997793928
20
21.4477036445725
30
0
41
1
10
-1.99503997793928
20
21.4923513092323
30
0
41
1
10
-1.99503997793928
20
21.5484022410126
30
0
41
1
10
-1.99503997793928
20
21.5990695510926
30
0
41
1
10
-1.99503997793928
20
21.6443396610233
30
0
41
1
10
-1.99503997793928
20
21.6755105092645
30
0
41
1
10
-1.99503997793928
20
21.7038764495607
30
0
41
1
10
-1.99503997793928
20
21.7293964429163
30
0
41
1
10
-1.99503997793928
20
21.7520292420694
30
0
41
1
10
-1.99503997793928
20
21.7717309018817
30
0
41
1
10
-1.99503997793928
20
21.7884557380592
30
0
41
1
10
-1.99503997793928
20
21.8021565310045
30
0
41
1
10
-1.99503997793928
20
21.8127830851058
30
0
41
1
10
-1.99503997793928
20
21.8202838734724
30
0
41
1
10
-1.99503997793926
20
21.8245113867947
30
0
41
1
10
-1.99503997793926
20
21.8252773728174
30
0
41
1
10
-1.99503997793928
20
21.8251670907702
30
0
0
SPLINE
5
16C
100
AcDbEntity
8
SK1
62
256
6
ByLayer
370
18
48
1
60
0
100
AcDbSpline
70
4
71
3
72
295
73
291
40
0
40
0
40
0
40
0
40
0.0029463037228762
40
0.0065222286042256
40
0.010098153485575
40
0.0136740783669244
40
0.0172500032482738
40
0.0208259281296232
40
0.027977777892322
40
0.0351296276550208
40
0.0422814774177195
40
0.0458574022990689
40
0.0494333271804183
40
0.0530092520617677
40
0.0565851769431171
40
0.0637370267058159
40
0.0673129515871653
40
0.0708888764685147
40
0.0744648013498641
40
0.0780407262312134
40
0.0816166511125628
40
0.0851925759939122
40
0.092344425756611
40
0.0959203506379604
40
0.0994962755193098
40
0.103072200400659
40
0.106648125282009
40
0.110224050163358
40
0.113799975044707
40
0.117375899926057
40
0.120951824807406
40
0.124527749688756
40
0.128103674570105
40
0.131679599451454
40
0.135255524332804
40
0.138831449214153
40
0.142407374095502
40
0.149559223858201
40
0.153135148739551
40
0.1567110736209
40
0.158499036061575
40
0.160286998502249
40
0.163862923383599
40
0.171014773146298
40
0.174590698027647
40
0.178166622908996
40
0.181742547790346
40
0.185318472671695
40
0.192470322434394
40
0.196046247315743
40
0.199622172197093
40
0.201410134637767
40
0.203198097078442
40
0.206774021959791
40
0.21392587172249
40
0.21750179660384
40
0.221077721485189
40
0.224653646366539
40
0.228229571247888
40
0.235381421010587
40
0.238957345891936
40
0.242533270773285
40
0.24432123321396
40
0.246109195654635
40
0.249685120535984
40
0.253261045417334
40
0.256836970298683
40
0.258624932739358
40
0.260412895180032
40
0.263988820061382
40
0.267564744942731
40
0.271140669824081
40
0.27471659470543
40
0.278292519586779
40
0.281868444468129
40
0.285444369349478
40
0.289020294230827
40
0.292596219112177
40
0.296172143993526
40
0.299748068874876
40
0.303323993756225
40
0.306899918637574
40
0.310475843518924
40
0.314051768400273
40
0.321203618162972
40
0.324779543044321
40
0.328355467925671
40
0.33193139280702
40
0.33550731768837
40
0.339083242569719
40
0.342659167451068
40
0.346235092332418
40
0.349811017213767
40
0.356962866976466
40
0.364114716739165
40
0.371266566501864
40
0.374842491383213
40
0.378418416264562
40
0.381994341145912
40
0.385570266027261
40
0.38914619090861
40
0.39272211578996
40
0.396298040671309
40
0.399873965552659
40
0.403449890434008
40
0.407025815315357
40
0.410601740196707
40
0.414177665078056
40
0.417753589959405
40
0.421329514840755
40
0.424905439722104
40
0.428481364603454
40
0.432057289484803
40
0.433845251925478
40
0.435633214366152
40
0.437421176806827
40
0.439209139247502
40
0.442785064128851
40
0.446360989010201
40
0.448148951450875
40
0.44993691389155
40
0.451724876332225
40
0.453512838772899
40
0.457088763654249
40
0.458876726094924
40
0.460664688535598
40
0.462452650976273
40
0.464240613416948
40
0.466028575857622
40
0.467816538298297
40
0.469604500738972
40
0.471392463179646
40
0.473180425620321
40
0.474968388060996
40
0.47675635050167
40
0.478544312942345
40
0.48033227538302
40
0.482120237823695
40
0.483908200264369
40
0.485696162705044
40
0.487484125145719
40
0.489272087586393
40
0.491060050027068
40
0.492848012467743
40
0.494635974908417
40
0.496423937349092
40
0.498211899789767
40
0.499999862230442
40
0.501787824671116
40
0.503575787111791
40
0.505363749552466
40
0.50715171199314
40
0.508939674433815
40
0.51072763687449
40
0.512515599315164
40
0.514303561755839
40
0.516091524196514
40
0.517879486637189
40
0.519667449077863
40
0.521455411518538
40
0.523243373959213
40
0.525031336399887
40
0.526819298840562
40
0.528607261281237
40
0.530395223721911
40
0.532183186162586
40
0.533971148603261
40
0.535759111043935
40
0.53754707348461
40
0.539335035925285
40
0.54112299836596
40
0.542910960806634
40
0.546486885687984
40
0.548274848128658
40
0.550062810569333
40
0.551850773010008
40
0.553638735450682
40
0.557214660332032
40
0.560790585213381
40
0.562578547654056
40
0.56436651009473
40
0.566154472535405
40
0.56794243497608
40
0.571518359857429
40
0.575094284738779
40
0.578670209620128
40
0.582246134501477
40
0.585822059382827
40
0.589397984264176
40
0.592973909145526
40
0.596549834026875
40
0.600125758908225
40
0.603701683789574
40
0.607277608670923
40
0.610853533552273
40
0.614429458433622
40
0.618005383314971
40
0.621581308196321
40
0.62515723307767
40
0.62873315795902
40
0.635885007721718
40
0.643036857484417
40
0.650188707247116
40
0.653764632128465
40
0.657340557009815
40
0.660916481891164
40
0.664492406772514
40
0.668068331653863
40
0.671644256535212
40
0.675220181416562
40
0.678796106297911
40
0.68594795606061
40
0.689523880941959
40
0.693099805823309
40
0.696675730704658
40
0.700251655586007
40
0.703827580467357
40
0.707403505348706
40
0.710979430230056
40
0.714555355111405
40
0.718131279992754
40
0.721707204874104
40
0.725283129755453
40
0.728859054636803
40
0.736010904399501
40
0.739586829280851
40
0.7431627541622
40
0.750314603924899
40
0.753890528806248
40
0.757466453687598
40
0.761042378568947
40
0.764618303450296
40
0.771770153212995
40
0.775346078094345
40
0.778922002975694
40
0.782497927857043
40
0.786073852738393
40
0.793225702501091
40
0.796801627382441
40
0.80037755226379
40
0.80395347714514
40
0.807529402026489
40
0.814681251789188
40
0.818257176670537
40
0.821833101551887
40
0.825409026433236
40
0.828984951314585
40
0.836136801077284
40
0.839712725958634
40
0.843288650839983
40
0.846864575721332
40
0.850440500602682
40
0.857592350365381
40
0.86116827524673
40
0.864744200128079
40
0.868320125009429
40
0.871896049890778
40
0.875471974772128
40
0.879047899653477
40
0.882623824534826
40
0.886199749416176
40
0.889775674297525
40
0.893351599178875
40
0.896927524060224
40
0.900503448941573
40
0.904079373822923
40
0.907655298704272
40
0.914807148466971
40
0.91838307334832
40
0.92195899822967
40
0.925534923111019
40
0.929110847992368
40
0.932686772873718
40
0.936262697755067
40
0.943414547517766
40
0.946990472399115
40
0.950566397280465
40
0.954142322161814
40
0.957718247043164
40
0.964870096805862
40
0.968446021687212
40
0.972021946568561
40
0.975597871449911
40
0.97917379633126
40
0.982749721212609
40
0.986325646093959
40
0.989901570975308
40
0.993477495856657
40
0.997053420738007
40
1
40
1
40
1
40
1
41
1
10
-2.19999999999996
20
-22.0135196683089
30
0
41
1
10
-2.19999999999996
20
-22.0117276030648
30
0
41
1
10
-2.19999999999996
20
-22.0069596860366
30
0
41
1
10
-2.19999999999999
20
-21.9968726461305
30
0
41
1
10
-2.19999999999999
20
-21.9830583750197
30
0
41
1
10
-2.19999999999999
20
-21.9661971621578
30
0
41
1
10
-2.19999999999999
20
-21.9463373083127
30
0
41
1
10
-2.19999999999999
20
-21.9159230944434
30
0
41
1
10
-2.19999999999999
20
-21.870633664349
30
0
41
1
10
-2.19999999999999
20
-21.8049949078793
30
0
41
1
10
-2.19999999999999
20
-21.7411390111089
30
0
41
1
10
-2.19999999999999
20
-21.6847072709128
30
0
41
1
10
-2.19999999999999
20
-21.6397397481888
30
0
41
1
10
-2.19999999999999
20
-21.5921615264853
30
0
41
1
10
-2.19999999999999
20
-21.5252891523049
30
0
41
1
10
-2.19999999999999
20
-21.453308753177
30
0
41
1
10
-2.19999999999999
20
-21.3763547276269
30
0
41
1
10
-2.19999999999999
20
-21.3161703964091
30
0
41
1
10
-2.19999999999999
20
-21.2535469243879
30
0
41
1
10
-2.19999999999999
20
-21.1885090229233
30
0
41
1
10
-2.19999999999999
20
-21.121080083473
30
0
41
1
10
-2.19999999999999
20
-21.0280237507364
30
0
41
1
10
-2.19999999999999
20
-20.9302657445266
30
0
41
1
10
-2.19999999999999
20
-20.8279188369072
30
0
41
1
10
-2.19999999999999
20
-20.7488739070252
30
0
41
1
10
-2.19999999999999
20
-20.6675681841826
30
0
41
1
10
-2.19999999999999
20
-20.5840212184218
30
0
41
1
10
-2.19999999999999
20
-20.4982502525025
30
0
41
1
10
-2.19999999999999
20
-20.4102747128949
30
0
41
1
10
-2.19999999999999
20
-20.3201119071544
30
0
41
1
10
-2.19999999999999
20
-20.2277776663919
30
0
41
1
10
-2.19999999999999
20
-20.1332899477274
30
0
41
1
10
-2.19999999999999
20
-20.0366642357894
30
0
41
1
10
-2.19999999999999
20
-19.9379151599299
30
0
41
1
10
-2.19999999999999
20
-19.8370591957147
30
0
41
1
10
-2.19999999999999
20
-19.7341102362335
30
0
41
1
10
-2.19999999999999
20
-19.5940778412012
30
0
41
1
10
-2.19999999999999
20
-19.4499005336558
30
0
41
1
10
-2.19999999999999
20
-19.3016622310533
30
0
41
1
10
-2.19999999999999
20
-19.2073184270571
30
0
41
1
10
-2.19999999999999
20
-19.1308417758755
30
0
41
1
10
-2.19999999999999
20
-19.0536957086557
30
0
41
1
10
-2.19999999999999
20
-18.9169360704622
30
0
41
1
10
-2.19999999999999
20
-18.756645794641
30
0
41
1
10
-2.19999999999999
20
-18.5924362845557
30
0
41
1
10
-2.19999999999999
20
-18.4673177976698
30
0
41
1
10
-2.19999999999999
20
-18.3402521463352
30
0
41
1
10
-2.19999999999999
20
-18.1682545122203
30
0
41
1
10
-2.19999999999999
20
-17.9923842356821
30
0
41
1
10
-2.19999999999999
20
-17.8127164551587
30
0
41
1
10
-2.19999999999999
20
-17.6988333809735
30
0
41
1
10
-2.19999999999999
20
-17.606787767091
30
0
41
1
10
-2.19999999999999
20
-17.5141131161323
30
0
41
1
10
-2.19999999999999
20
-17.3502824417036
30
0
41
1
10
-2.19999999999999
20
-17.1592829447589
30
0
41
1
10
-2.19999999999999
20
-16.9645867974536
30
0
41
1
10
-2.19999999999999
20
-16.8167088060477
30
0
41
1
10
-2.19999999999999
20
-16.6669871400996
30
0
41
1
10
-2.19999999999999
20
-16.4649164953067
30
0
41
1
10
-2.19999999999999
20
-16.2591646002876
30
0
41
1
10
-2.19999999999999
20
-16.049802831716
30
0
41
1
10
-2.19999999999999
20
-15.9174340084588
30
0
41
1
10
-2.19999999999999
20
-15.8106442286412
30
0
41
1
10
-2.19999999999999
20
-15.7032538676567
30
0
41
1
10
-2.19999999999999
20
-15.567882396309
30
0
41
1
10
-2.19999999999999
20
-15.4036502143979
30
0
41
1
10
-2.19999999999999
20
-15.2652965264295
30
0
41
1
10
-2.19999999999999
20
-15.1537302031574
30
0
41
1
10
-2.19999999999999
20
-15.0415708470876
30
0
41
1
10
-2.19999999999999
20
-14.90025131083
30
0
41
1
10
-2.19999999999999
20
-14.7289012367181
30
0
41
1
10
-2.19999999999999
20
-14.5557843226631
30
0
41
1
10
-2.19999999999999
20
-14.3809062427341
30
0
41
1
10
-2.19999999999999
20
-14.2042700822291
30
0
41
1
10
-2.19999999999999
20
-14.0258803741545
30
0
41
1
10
-2.19999999999999
20
-13.8457420253844
30
0
41
1
10
-2.19999999999999
20
-13.6638579861817
30
0
41
1
10
-2.19999999999999
20
-13.4802328481714
30
0
41
1
10
-2.19999999999999
20
-13.2948705974071
30
0
41
1
10
-2.19999999999999
20
-13.1077737485311
30
0
41
1
10
-2.19999999999999
20
-12.9189467805057
30
0
41
1
10
-2.19999999999999
20
-12.728392778749
30
0
41
1
10
-2.19999999999999
20
-12.5361142588231
30
0
41
1
10
-2.19999999999999
20
-12.2774598592137
30
0
41
1
10
-2.19999999999999
20
-12.0153352592314
30
0
41
1
10
-2.19999999999999
20
-11.7498207258852
30
0
41
1
10
-2.19999999999999
20
-11.5489655826483
30
0
41
1
10
-2.19999999999999
20
-11.3464032807099
30
0
41
1
10
-2.19999999999999
20
-11.1421359853758
30
0
41
1
10
-2.19999999999999
20
-10.9361655879759
30
0
41
1
10
-2.19999999999999
20
-10.7284950970913
30
0
41
1
10
-2.19999999999999
20
-10.5191258614377
30
0
41
1
10
-2.19999999999999
20
-10.2377184130835
30
0
41
1
10
-2.19999999999999
20
-9.88169304970987
30
0
41
1
10
-2.19999999999999
20
-9.44771865839311
30
0
41
1
10
-2.19999999999999
20
-9.08043848955603
30
0
41
1
10
-2.19999999999999
20
-8.78327689677775
30
0
41
1
10
-2.19999999999999
20
-8.55871419535617
30
0
41
1
10
-2.19999999999999
20
-8.33247380011301
30
0
41
1
10
-2.19999999999999
20
-8.10455852701506
30
0
41
1
10
-2.19999999999999
20
-7.87497060194644
30
0
41
1
10
-2.19999999999999
20
-7.6437128367312
30
0
41
1
10
-2.19999999999999
20
-7.41078884464241
30
0
41
1
10
-2.19999999999999
20
-7.17620220160032
30
0
41
1
10
-2.19999999999999
20
-6.93995692090419
30
0
41
1
10
-2.19999999999999
20
-6.70205758660663
30
0
41
1
10
-2.19999999999999
20
-6.46250918569618
30
0
41
1
10
-2.19999999999999
20
-6.2213178400012
30
0
41
1
10
-2.19999999999999
20
-5.97849049576266
30
0
41
1
10
-2.19999999999999
20
-5.73403521575827
30
0
41
1
10
-2.19999999999999
20
-5.48796107357256
30
0
41
1
10
-2.19999999999999
20
-5.24027911118978
30
0
41
1
10
-2.19999999999999
20
-5.03253661023487
30
0
41
1
10
-2.19999999999999
20
-4.86557359122418
30
0
41
1
10
-2.19999999999999
20
-4.73994908127321
30
0
41
1
10
-2.19999999999999
20
-4.61393371339017
30
0
41
1
10
-2.19999999999999
20
-4.44540774959788
30
0
41
1
10
-2.19999999999999
20
-4.23375652596863
30
0
41
1
10
-2.19999999999999
20
-4.02083961713782
30
0
41
1
10
-2.19999999999999
20
-3.84978439152417
30
0
41
1
10
-2.19999999999999
20
-3.72111342731068
30
0
41
1
10
-2.19999999999999
20
-3.59207749308624
30
0
41
1
10
-2.19999999999999
20
-3.41956369464535
30
0
41
1
10
-2.19999999999999
20
-3.24629481959221
30
0
41
1
10
-2.19999999999999
20
-3.0723836150739
30
0
41
1
10
-2.19999999999999
20
-2.94160046512798
30
0
41
1
10
-2.19999999999999
20
-2.81048647644627
30
0
41
1
10
-2.19999999999999
20
-2.67904892732182
30
0
41
1
10
-2.19999999999999
20
-2.54729562722176
30
0
41
1
10
-2.19999999999999
20
-2.41523551097489
30
0
41
1
10
-2.19999999999999
20
-2.28287740252156
30
0
41
1
10
-2.19999999999999
20
-2.15023166945255
30
0
41
1
10
-2.19999999999999
20
-2.01730873413072
30
0
41
1
10
-2.19999999999999
20
-1.88412021099791
30
0
41
1
10
-2.19999999999999
20
-1.75067841854351
30
0
41
1
10
-2.19999999999999
20
-1.61699634722072
30
0
41
1
10
-2.19999999999999
20
-1.48308821885627
30
0
41
1
10
-2.19999999999999
20
-1.34896859254377
30
0
41
1
10
-2.19999999999999
20
-1.21465350310541
30
0
41
1
10
-2.19999999999999
20
-1.0801592162689
30
0
41
1
10
-2.19999999999999
20
-0.945503442662783
30
0
41
1
10
-2.19999999999999
20
-0.810704113119073
30
0
41
1
10
-2.19999999999999
20
-0.675780421912322
30
0
41
1
10
-2.19999999999999
20
-0.540751787789588
30
0
41
1
10
-2.19999999999999
20
-0.405638599098921
30
0
41
1
10
-2.19999999999999
20
-0.270461428271432
30
0
41
1
10
-2.19999999999999
20
-0.135241462279822
30
0
41
1
10
-2.19999999999999
20
5.3654787E-09
30
0
41
1
10
-2.19999999999999
20
0.135241472589996
30
0
41
1
10
-2.19999999999999
20
0.270461437853925
30
0
41
1
10
-2.19999999999999
20
0.405638608907907
30
0
41
1
10
-2.19999999999999
20
0.540751798686529
30
0
41
1
10
-2.19999999999999
20
0.675780432522174
30
0
41
1
10
-2.19999999999999
20
0.810704122044939
30
0
41
1
10
-2.19999999999999
20
0.945503451789534
30
0
41
1
10
-2.19999999999999
20
1.08015922751395
30
0
41
1
10
-2.19999999999999
20
1.21465351395383
30
0
41
1
10
-2.19999999999999
20
1.34896860046499
30
0
41
1
10
-2.19999999999999
20
1.48308822685564
30
0
41
1
10
-2.19999999999999
20
1.61699635855226
30
0
41
1
10
-2.19999999999999
20
1.75067843002711
30
0
41
1
10
-2.19999999999999
20
1.88412021847037
30
0
41
1
10
-2.19999999999999
20
2.01730874020455
30
0
41
1
10
-2.19999999999999
20
2.15023167925048
30
0
41
1
10
-2.19999999999999
20
2.28287741514001
30
0
41
1
10
-2.19999999999999
20
2.41523552035437
30
0
41
1
10
-2.19999999999999
20
2.54729563151926
30
0
41
1
10
-2.19999999999999
20
2.67904893291683
30
0
41
1
10
-2.19999999999999
20
2.81048648769612
30
0
41
1
10
-2.19999999999999
20
2.94160047796311
30
0
41
1
10
-2.19999999999999
20
3.072383622975
30
0
41
1
10
-2.19999999999999
20
3.24629481975686
30
0
41
1
10
-2.19999999999999
20
3.41956370437865
30
0
41
1
10
-2.19999999999999
20
3.59207750684843
30
0
41
1
10
-2.19999999999999
20
3.72111343644576
30
0
41
1
10
-2.19999999999999
20
3.84978439330678
30
0
41
1
10
-2.19999999999999
20
4.020839617489
30
0
41
1
10
-2.19999999999999
20
4.23375654375474
30
0
41
1
10
-2.19999999999999
20
4.44540775759583
30
0
41
1
10
-2.19999999999999
20
4.61393371339872
30
0
41
1
10
-2.19999999999999
20
4.73994907984499
30
0
41
1
10
-2.19999999999999
20
4.86557359653659
30
0
41
1
10
-2.19999999999999
20
5.03253662624778
30
0
41
1
10
-2.19999999999999
20
5.24027911954084
30
0
41
1
10
-2.19999999999999
20
5.48796106514416
30
0
41
1
10
-2.19999999999999
20
5.73403522651989
30
0
41
1
10
-2.19999999999999
20
5.97849051253721
30
0
41
1
10
-2.19999999999999
20
6.22131783489101
30
0
41
1
10
-2.19999999999999
20
6.46250917346816
30
0
41
1
10
-2.19999999999999
20
6.70205756880287
30
0
41
1
10
-2.19999999999999
20
6.93995689241024
30
0
41
1
10
-2.19999999999999
20
7.17620223308296
30
0
41
1
10
-2.19999999999999
20
7.41078904293681
30
0
41
1
10
-2.19999999999999
20
7.64371312168015
30
0
41
1
10
-2.19999999999999
20
7.87497052861914
30
0
41
1
10
-2.19999999999999
20
8.10455846042146
30
0
41
1
10
-2.19999999999999
20
8.33247384441506
30
0
41
1
10
-2.19999999999999
20
8.55871423477029
30
0
41
1
10
-2.19999999999999
20
8.78327691067398
30
0
41
1
10
-2.19999999999999
20
9.08043846702645
30
0
41
1
10
-2.19999999999999
20
9.44771866001565
30
0
41
1
10
-2.19999999999999
20
9.88169305528194
30
0
41
1
10
-2.19999999999999
20
10.2377183913447
30
0
41
1
10
-2.19999999999999
20
10.5191258633122
30
0
41
1
10
-2.19999999999999
20
10.7284951094206
30
0
41
1
10
-2.19999999999999
20
10.9361655882296
30
0
41
1
10
-2.19999999999999
20
11.1421359694817
30
0
41
1
10
-2.19999999999999
20
11.3464032666245
30
0
41
1
10
-2.19999999999999
20
11.5489655840494
30
0
41
1
10
-2.19999999999999
20
11.7498207382014
30
0
41
1
10
-2.19999999999999
20
12.015335258712
30
0
41
1
10
-2.19999999999999
20
12.277459839655
30
0
41
1
10
-2.19999999999999
20
12.5361142561418
30
0
41
1
10
-2.19999999999999
20
12.7283927892775
30
0
41
1
10
-2.19999999999999
20
12.9189467887917
30
0
41
1
10
-2.19999999999999
20
13.1077737445537
30
0
41
1
10
-2.19999999999999
20
13.2948705838035
30
0
41
1
10
-2.19999999999999
20
13.4802328404438
30
0
41
1
10
-2.19999999999999
20
13.6638579908945
30
0
41
1
10
-2.19999999999999
20
13.845742035678
30
0
41
1
10
-2.19999999999999
20
14.0258803815961
30
0
41
1
10
-2.19999999999999
20
14.2042701267483
30
0
41
1
10
-2.19999999999999
20
14.3809064511142
30
0
41
1
10
-2.19999999999999
20
14.61406817927
30
0
41
1
10
-2.19999999999999
20
14.8437340716545
30
0
41
1
10
-2.19999999999999
20
15.069828938707
30
0
41
1
10
-2.19999999999999
20
15.2935559429894
30
0
41
1
10
-2.19999999999999
20
15.513744330902
30
0
41
1
10
-2.19999999999999
20
15.7303232767805
30
0
41
1
10
-2.19999999999999
20
15.8909649274654
30
0
41
1
10
-2.19999999999999
20
16.0498023362736
30
0
41
1
10
-2.19999999999999
20
16.2591647559547
30
0
41
1
10
-2.19999999999999
20
16.4649171124643
30
0
41
1
10
-2.19999999999999
20
16.666987304737
30
0
41
1
10
-2.19999999999999
20
16.8167085043733
30
0
41
1
10
-2.19999999999999
20
16.9645862898264
30
0
41
1
10
-2.19999999999999
20
17.1592828976246
30
0
41
1
10
-2.19999999999999
20
17.3502835148979
30
0
41
1
10
-2.19999999999999
20
17.5375147595292
30
0
41
1
10
-2.19999999999999
20
17.676060438985
30
0
41
1
10
-2.19999999999999
20
17.8127154575359
30
0
41
1
10
-2.19999999999999
20
17.9923842415009
30
0
41
1
10
-2.19999999999999
20
18.1682547291306
30
0
41
1
10
-2.19999999999999
20
18.3402522143585
30
0
41
1
10
-2.19999999999999
20
18.4673177032107
30
0
41
1
10
-2.19999999999999
20
18.5924361073221
30
0
41
1
10
-2.19999999999999
20
18.7566457425986
30
0
41
1
10
-2.19999999999999
20
18.9169371900015
30
0
41
1
10
-2.19999999999999
20
19.0732305996174
30
0
41
1
10
-2.19999999999999
20
19.1884526890887
30
0
41
1
10
-2.19999999999999
20
19.3016611759423
30
0
41
1
10
-2.19999999999999
20
19.4499005391959
30
0
41
1
10
-2.19999999999999
20
19.5940785255289
30
0
41
1
10
-2.19999999999999
20
19.7341104289282
30
0
41
1
10
-2.19999999999999
20
19.8370589164793
30
0
41
1
10
-2.19999999999999
20
19.9379146863563
30
0
41
1
10
-2.19999999999999
20
20.0366640227898
30
0
41
1
10
-2.19999999999999
20
20.133289903145
30
0
41
1
10
-2.19999999999999
20
20.2277776697998
30
0
41
1
10
-2.19999999999999
20
20.3201119082527
30
0
41
1
10
-2.19999999999999
20
20.4102747220553
30
0
41
1
10
-2.19999999999999
20
20.4982502752196
30
0
41
1
10
-2.19999999999999
20
20.5840212474559
30
0
41
1
10
-2.19999999999999
20
20.6675682022903
30
0
41
1
10
-2.19999999999999
20
20.7488739108727
30
0
41
1
10
-2.19999999999999
20
20.82791883753
30
0
41
1
10
-2.19999999999999
20
20.9302657657864
30
0
41
1
10
-2.19999999999999
20
21.0280237880878
30
0
41
1
10
-2.19999999999999
20
21.1210800961781
30
0
41
1
10
-2.19999999999999
20
21.1885090211437
30
0
41
1
10
-2.19999999999999
20
21.2535469320083
30
0
41
1
10
-2.19999999999999
20
21.3161704250344
30
0
41
1
10
-2.19999999999999
20
21.3763547664481
30
0
41
1
10
-2.19999999999999
20
21.4533087676779
30
0
41
1
10
-2.19999999999999
20
21.5252891448141
30
0
41
1
10
-2.19999999999999
20
21.5921615531195
30
0
41
1
10
-2.19999999999999
20
21.6397397916631
30
0
41
1
10
-2.19999999999999
20
21.6847072964973
30
0
41
1
10
-2.19999999999999
20
21.7411389990572
30
0
41
1
10
-2.19999999999999
20
21.7922265879071
30
0
41
1
10
-2.19999999999999
20
21.8378144981283
30
0
41
1
10
-2.19999999999999
20
21.8692221254414
30
0
41
1
10
-2.19999999999999
20
21.8978063777089
30
0
41
1
10
-2.19999999999999
20
21.9235254752891
30
0
41
1
10
-2.19999999999999
20
21.9463373508774
30
0
41
1
10
-2.19999999999999
20
21.9661972037607
30
0
41
1
10
-2.19999999999999
20
21.9830583809744
30
0
41
1
10
-2.19999999999999
20
21.9968726399857
30
0
41
1
10
-2.19999999999999
20
22.0069599970725
30
0
41
1
10
-2.19999999999999
20
22.0117281252968
30
0
41
1
10
-2.19999999999999
20
22.0135203322706
30
0
0
SPLINE
5
16D
100
AcDbEntity
8
SK1
62
256
6
ByLayer
370
18
48
1
60
0
100
AcDbSpline
70
4
71
3
72
303
73
299
40
0
40
0
40
0
40
0
40
0.0005133406834152
40
0.004006257067685
40
0.0074991734519549
40
0.0109920898362247
40
0.0144850062204946
40
0.0179779226047646
40
0.0214708389890344
40
0.0249637553733043
40
0.0284566717575742
40
0.031949588141844
40
0.0389354209103839
40
0.0459212536789236
40
0.0529070864474634
40
0.0564000028317333
40
0.0598929192160032
40
0.063385835600273
40
0.0668787519845429
40
0.0738645847530827
40
0.0773575011373526
40
0.0808504175216225
40
0.0843433339058924
40
0.0878362502901622
40
0.0913291666744321
40
0.094822083058702
40
0.101807915827242
40
0.105300832211512
40
0.108793748595782
40
0.112286664980051
40
0.115779581364321
40
0.119272497748591
40
0.122765414132861
40
0.126258330517131
40
0.129751246901401
40
0.133244163285671
40
0.136737079669941
40
0.14022999605421
40
0.14372291243848
40
0.14721582882275
40
0.15070874520702
40
0.15769457797556
40
0.16118749435983
40
0.1646804107441
40
0.166426868936235
40
0.168173327128369
40
0.171666243512639
40
0.178652076281179
40
0.182144992665449
40
0.185637909049719
40
0.189130825433989
40
0.192623741818259
40
0.199609574586799
40
0.203102490971068
40
0.206595407355338
40
0.208341865547473
40
0.210088323739608
40
0.213581240123878
40
0.220567072892418
40
0.224059989276688
40
0.227552905660958
40
0.231045822045227
40
0.234538738429497
40
0.241524571198037
40
0.245017487582307
40
0.248510403966577
40
0.250256862158712
40
0.252003320350847
40
0.255496236735117
40
0.258989153119386
40
0.262482069503656
40
0.264228527695791
40
0.265974985887926
40
0.269467902272196
40
0.272960818656466
40
0.276453735040736
40
0.279946651425006
40
0.283439567809276
40
0.286932484193546
40
0.290425400577816
40
0.293918316962085
40
0.297411233346355
40
0.300904149730625
40
0.304397066114895
40
0.307889982499165
40
0.311382898883435
40
0.314875815267705
40
0.318368731651974
40
0.325354564420514
40
0.328847480804784
40
0.332340397189054
40
0.335833313573324
40
0.339326229957594
40
0.342819146341864
40
0.346312062726134
40
0.349804979110403
40
0.353297895494673
40
0.360283728263213
40
0.367269561031753
40
0.374255393800293
40
0.377748310184563
40
0.381241226568833
40
0.384734142953102
40
0.388227059337372
40
0.391719975721642
40
0.395212892105912
40
0.398705808490182
40
0.402198724874452
40
0.405691641258722
40
0.409184557642991
40
0.412677474027261
40
0.416170390411531
40
0.419663306795801
40
0.423156223180071
40
0.426649139564341
40
0.430142055948611
40
0.433634972332881
40
0.435381430525016
40
0.437127888717151
40
0.438874346909286
40
0.44062080510142
40
0.44411372148569
40
0.44760663786996
40
0.449353096062095
40
0.45109955425423
40
0.452846012446365
40
0.4545924706385
40
0.45808538702277
40
0.459831845214905
40
0.46157830340704
40
0.463324761599175
40
0.46507121979131
40
0.466817677983444
40
0.46856413617558
40
0.470310594367715
40
0.472057052559849
40
0.473803510751984
40
0.475549968944119
40
0.477296427136254
40
0.479042885328389
40
0.480789343520524
40
0.482535801712659
40
0.484282259904794
40
0.486028718096929
40
0.487775176289064
40
0.489521634481199
40
0.491268092673334
40
0.493014550865469
40
0.494761009057604
40
0.496507467249738
40
0.498253925441874
40
0.500000383634008
40
0.501746841826143
40
0.503493300018278
40
0.505239758210413
40
0.506986216402548
40
0.508732674594683
40
0.510479132786818
40
0.512225590978953
40
0.513972049171088
40
0.515718507363223
40
0.517464965555358
40
0.519211423747493
40
0.520957881939628
40
0.522704340131763
40
0.524450798323898
40
0.526197256516033
40
0.527943714708167
40
0.529690172900303
40
0.531436631092437
40
0.533183089284572
40
0.534929547476707
40
0.536676005668842
40
0.538422463860977
40
0.540168922053112
40
0.541915380245247
40
0.545408296629517
40
0.547154754821652
40
0.548901213013787
40
0.550647671205922
40
0.552394129398057
40
0.555887045782327
40
0.559379962166597
40
0.561126420358732
40
0.562872878550866
40
0.564619336743001
40
0.566365794935136
40
0.569858711319406
40
0.573351627703676
40
0.576844544087946
40
0.580337460472216
40
0.583830376856486
40
0.587323293240756
40
0.590816209625026
40
0.594309126009296
40
0.597802042393565
40
0.601294958777835
40
0.604787875162105
40
0.608280791546375
40
0.611773707930645
40
0.615266624314915
40
0.618759540699185
40
0.622252457083455
40
0.625745373467725
40
0.632731206236264
40
0.639717039004804
40
0.646702871773344
40
0.650195788157614
40
0.653688704541883
40
0.657181620926153
40
0.660674537310423
40
0.664167453694693
40
0.667660370078963
40
0.671153286463233
40
0.674646202847503
40
0.681632035616042
40
0.685124952000312
40
0.688617868384582
40
0.692110784768852
40
0.695603701153122
40
0.699096617537392
40
0.702589533921662
40
0.706082450305932
40
0.709575366690202
40
0.713068283074471
40
0.716561199458741
40
0.720054115843011
40
0.723547032227281
40
0.730532864995821
40
0.734025781380091
40
0.737518697764361
40
0.744504530532901
40
0.74799744691717
40
0.75149036330144
40
0.75498327968571
40
0.75847619606998
40
0.76546202883852
40
0.76895494522279
40
0.77244786160706
40
0.775940777991329
40
0.779433694375599
40
0.786419527144139
40
0.789912443528409
40
0.793405359912679
40
0.796898276296949
40
0.800391192681219
40
0.807377025449758
40
0.810869941834028
40
0.814362858218298
40
0.817855774602568
40
0.821348690986838
40
0.828334523755378
40
0.831827440139647
40
0.835320356523917
40
0.838813272908187
40
0.842306189292457
40
0.849292022060997
40
0.852784938445267
40
0.856277854829537
40
0.859770771213807
40
0.863263687598077
40
0.866756603982347
40
0.870249520366616
40
0.873742436750886
40
0.877235353135156
40
0.880728269519426
40
0.884221185903696
40
0.887714102287966
40
0.891207018672236
40
0.894699935056505
40
0.898192851440775
40
0.905178684209315
40
0.908671600593585
40
0.912164516977855
40
0.915657433362125
40
0.919150349746395
40
0.922643266130665
40
0.926136182514934
40
0.933122015283474
40
0.936614931667744
40
0.940107848052014
40
0.943600764436284
40
0.947093680820554
40
0.954079513589094
40
0.957572429973363
40
0.961065346357633
40
0.964558262741903
40
0.968051179126173
40
0.971544095510443
40
0.975037011894713
40
0.978529928278983
40
0.982022844663253
40
0.985515761047522
40
0.989008677431792
40
0.992501593816062
40
0.995994510200332
40
0.999487426584602
40
1
40
1
40
1
40
1
41
1
10
-36.5
20
-21.1555776102729
30
0
41
1
10
-36.5
20
-21.1557858228858
30
0
41
1
10
-36.5
20
-21.1573191516063
30
0
41
1
10
-36.5
20
-21.1588544331657
30
0
41
1
10
-36.5
20
-21.1578038223016
30
0
41
1
10
-36.5
20
-21.1536126358382
30
0
41
1
10
-36.5
20
-21.1463317213717
30
0
41
1
10
-36.5
20
-21.1360112678938
30
0
41
1
10
-36.5
20
-21.1226986497682
30
0
41
1
10
-36.5
20
-21.1064402158535
30
0
41
1
10
-36.5
20
-21.0872797426226
30
0
41
1
10
-36.5
20
-21.0578537406018
30
0
41
1
10
-36.5
20
-21.0141777773224
30
0
41
1
10
-36.5
20
-20.950713074722
30
0
41
1
10
-36.5
20
-20.8890285612071
30
0
41
1
10
-36.5
20
-20.8342802658871
30
0
41
1
10
-36.5
20
-20.7907267804185
30
0
41
1
10
-36.5
20
-20.7446291690672
30
0
41
1
10
-36.5
20
-20.6796864194097
30
0
41
1
10
-36.5
20
-20.6101652524536
30
0
41
1
10
-36.5
20
-20.5353747251341
30
0
41
1
10
-36.5
20
-20.4769783324059
30
0
41
1
10
-36.5
20
-20.4161995895792
30
0
41
1
10
-36.5
20
-20.3530628196555
30
0
41
1
10
-36.5
20
-20.2875896826626
30
0
41
1
10
-36.5
20
-20.1970436182683
30
0
41
1
10
-36.5
20
-20.1024192722933
30
0
41
1
10
-36.5
20
-20.0027815031752
30
0
41
1
10
-36.5
20
-19.9259535572617
30
0
41
1
10
-36.5
20
-19.8469141355251
30
0
41
1
10
-36.5
20
-19.7656833730651
30
0
41
1
10
-36.5
20
-19.6822775189499
30
0
41
1
10
-36.5
20
-19.5967148149262
30
0
41
1
10
-36.5
20
-19.5090135394173
30
0
41
1
10
-36.5
20
-19.4191882696517
30
0
41
1
10
-36.5
20
-19.3272561697677
30
0
41
1
10
-36.5
20
-19.2332338822713
30
0
41
1
10
-36.5
20
-19.1371346902892
30
0
41
1
10
-36.5
20
-19.0389746878943
30
0
41
1
10
-36.5
20
-18.9387689752275
30
0
41
1
10
-36.5
20
-18.8022215100789
30
0
41
1
10
-36.5
20
-18.6623317385554
30
0
41
1
10
-36.5
20
-18.5177544284038
30
0
41
1
10
-36.5
20
-18.4260133905722
30
0
41
1
10
-36.5
20
-18.3514175898237
30
0
41
1
10
-36.5
20
-18.2761667145511
30
0
41
1
10
-36.5
20
-18.1428549391526
30
0
41
1
10
-36.5
20
-17.987269645424
30
0
41
1
10
-36.5
20
-17.8270700659299
30
0
41
1
10
-36.5
20
-17.705205542109
30
0
41
1
10
-36.5
20
-17.5814423770725
30
0
41
1
10
-36.5
20
-17.4136311437529
30
0
41
1
10
-36.5
20
-17.2428939764416
30
0
41
1
10
-36.5
20
-17.0675963011875
30
0
41
1
10
-36.5
20
-16.9568152899196
30
0
41
1
10
-36.5
20
-16.867008999151
30
0
41
1
10
-36.5
20
-16.7765898513273
30
0
41
1
10
-36.5
20
-16.6168596157572
30
0
41
1
10
-36.5
20
-16.4314438788638
30
0
41
1
10
-36.5
20
-16.2414991337765
30
0
41
1
10
-36.5
20
-16.097474719741
30
0
41
1
10
-36.5
20
-15.9516616651348
30
0
41
1
10
-36.5
20
-15.7545445351489
30
0
41
1
10
-36.5
20
-15.5548613446891
30
0
41
1
10
-36.5
20
-15.350663385132
30
0
41
1
10
-36.5
20
-15.2219600388738
30
0
41
1
10
-36.5
20
-15.1178164480938
30
0
41
1
10
-36.5
20
-15.0130920883853
30
0
41
1
10
-36.5
20
-14.8814910451208
30
0
41
1
10
-36.5
20
-14.7216281332594
30
0
41
1
10
-36.5
20
-14.5871530954062
30
0
41
1
10
-36.5
20
-14.4783873813363
30
0
41
1
10
-36.5
20
-14.3690494022437
30
0
41
1
10
-36.5
20
-14.2317235183089
30
0
41
1
10
-36.5
20
-14.0650028858775
30
0
41
1
10
-36.5
20
-13.8965816080865
30
0
41
1
10
-36.5
20
-13.7264689694465
30
0
41
1
10
-36.5
20
-13.5546710496343
30
0
41
1
10
-36.5
20
-13.3811910773122
30
0
41
1
10
-36.5
20
-13.2060373742643
30
0
41
1
10
-36.5
20
-13.0292149133303
30
0
41
1
10
-36.5
20
-12.850728177302
30
0
41
1
10
-36.5
20
-12.6705857874604
30
0
41
1
10
-36.5
20
-12.4887914218501
30
0
41
1
10
-36.5
20
-12.3053503484466
30
0
41
1
10
-36.5
20
-12.1202706879328
30
0
41
1
10
-36.5
20
-11.9335555855444
30
0
41
1
10
-36.5
20
-11.6819759204348
30
0
41
1
10
-36.5
20
-11.4285505376587
30
0
41
1
10
-36.5
20
-11.1704660874499
30
0
41
1
10
-36.5
20
-10.9756651586938
30
0
41
1
10
-36.5
20
-10.7792636737398
30
0
41
1
10
-36.5
20
-10.5812696725585
30
0
41
1
10
-36.5
20
-10.3816871154457
30
0
41
1
10
-36.5
20
-10.180523710493
30
0
41
1
10
-36.5
20
-9.97778558435027
30
0
41
1
10
-36.5
20
-9.70483576808863
30
0
41
1
10
-36.5
20
-9.36101276272154
30
0
41
1
10
-36.5
20
-8.94153438933262
30
0
41
1
10
-36.5
20
-8.58745787193689
30
0
41
1
10
-36.5
20
-8.30004464023602
30
0
41
1
10
-36.5
20
-8.08346950394389
30
0
41
1
10
-36.5
20
-7.86540102208471
30
0
41
1
10
-36.5
20
-7.64585131899614
30
0
41
1
10
-36.5
20
-7.42483318088833
30
0
41
1
10
-36.5
20
-7.20235735193418
30
0
41
1
10
-36.5
20
-6.97843755879967
30
0
41
1
10
-36.5
20
-6.75308981071325
30
0
41
1
10
-36.5
20
-6.52633035082275
30
0
41
1
10
-36.5
20
-6.29817753233076
30
0
41
1
10
-36.5
20
-6.06865022444896
30
0
41
1
10
-36.5
20
-5.83776884649416
30
0
41
1
10
-36.5
20
-5.60555660448858
30
0
41
1
10
-36.5
20
-5.37203985998678
30
0
41
1
10
-36.5
20
-5.13724579696881
30
0
41
1
10
-36.5
20
-4.90120595303733
30
0
41
1
10
-36.5
20
-4.70396583147402
30
0
41
1
10
-36.5
20
-4.54469638576828
30
0
41
1
10
-36.5
20
-4.42533999597055
30
0
41
1
10
-36.5
20
-4.30569972295402
30
0
41
1
10
-36.5
20
-4.14529336499854
30
0
41
1
10
-36.5
20
-3.94531865595207
30
0
41
1
10
-36.5
20
-3.74444957084984
30
0
41
1
10
-36.5
20
-3.58224076117995
30
0
41
1
10
-36.5
20
-3.46078958963508
30
0
41
1
10
-36.5
20
-3.33910702605104
30
0
41
1
10
-36.5
20
-3.17597085922341
30
0
41
1
10
-36.5
20
-3.01425651604552
30
0
41
1
10
-36.5
20
-2.85023149996007
30
0
41
1
10
-36.5
20
-2.72752154931175
30
0
41
1
10
-36.5
20
-2.60463052157442
30
0
41
1
10
-36.5
20
-2.48157378937663
30
0
41
1
10
-36.5
20
-2.35835621123036
30
0
41
1
10
-36.5
20
-2.23499061660053
30
0
41
1
10
-36.5
20
-2.11148761081347
30
0
41
1
10
-36.5
20
-1.9878545152765
30
0
41
1
10
-36.5
20
-1.86410632124094
30
0
41
1
10
-36.5
20
-1.74024827700825
30
0
41
1
10
-36.5
20
-1.61629526151512
30
0
41
1
10
-36.5
20
-1.49225310041959
30
0
41
1
10
-36.5
20
-1.3681347814894
30
0
41
1
10
-36.5
20
-1.2439473222278
30
0
41
1
10
-36.5
20
-1.11970117534864
30
0
41
1
10
-36.5
20
-0.995403485642782
30
0
41
1
10
-36.5
20
-0.8710629170684
30
0
41
1
10
-36.5
20
-0.746686102657719
30
0
41
1
10
-36.5
20
-0.622280124115576
30
0
41
1
10
-36.5
20
-0.497850420758397
30
0
41
1
10
-36.5
20
-0.373402935182185
30
0
41
1
10
-36.5
20
-0.248942238793148
30
0
41
1
10
-36.5
20
-0.124473257200918
30
0
41
1
10
-36.5
20
-9.2462358E-09
30
0
41
1
10
-36.5
20
0.124473254673973
30
0
41
1
10
-36.5
20
0.248942266430618
30
0
41
1
10
-36.5
20
0.373402960091425
30
0
41
1
10
-36.5
20
0.497850400790554
30
0
41
1
10
-36.5
20
0.622280094010847
30
0
41
1
10
-36.5
20
0.746686131491799
30
0
41
1
10
-36.5
20
0.871062970095124
30
0
41
1
10
-36.5
20
0.995403468230791
30
0
41
1
10
-36.5
20
1.11970111692671
30
0
41
1
10
-36.5
20
1.24394734076813
30
0
41
1
10
-36.5
20
1.36813486147517
30
0
41
1
10
-36.5
20
1.49225310642996
30
0
41
1
10
-36.5
20
1.61629518356963
30
0
41
1
10
-36.5
20
1.7402482546413
30
0
41
1
10
-36.5
20
1.86410640329151
30
0
41
1
10
-36.5
20
1.98785458048855
30
0
41
1
10
-36.5
20
2.11148756075909
30
0
41
1
10
-36.5
20
2.2349905278607
30
0
41
1
10
-36.5
20
2.3583562279822
30
0
41
1
10
-36.5
20
2.48157389743918
30
0
41
1
10
-36.5
20
2.60463057106841
30
0
41
1
10
-36.5
20
2.72752148004804
30
0
41
1
10
-36.5
20
2.8502314065623
30
0
41
1
10
-36.5
20
3.01425656877106
30
0
41
1
10
-36.5
20
3.17597095993784
30
0
41
1
10
-36.5
20
3.33910698167958
30
0
41
1
10
-36.5
20
3.46078948211164
30
0
41
1
10
-36.5
20
3.58224072191865
30
0
41
1
10
-36.5
20
3.74444967050349
30
0
41
1
10
-36.5
20
3.94531869048151
30
0
41
1
10
-36.5
20
4.14529326648051
30
0
41
1
10
-36.5
20
4.30569969171862
30
0
41
1
10
-36.5
20
4.42534006396792
30
0
41
1
10
-36.5
20
4.54469650094606
30
0
41
1
10
-36.5
20
4.70396584910503
30
0
41
1
10
-36.5
20
4.90120586463618
30
0
41
1
10
-36.5
20
5.1372458114655
30
0
41
1
10
-36.5
20
5.37203995090806
30
0
41
1
10
-36.5
20
5.6055565552935
30
0
41
1
10
-36.5
20
5.83776875015039
30
0
41
1
10
-36.5
20
6.06865017711209
30
0
41
1
10
-36.5
20
6.29817748211653
30
0
41
1
10
-36.5
20
6.52633051401983
30
0
41
1
10
-36.5
20
6.75309051279777
30
0
41
1
10
-36.5
20
6.97843834484934
30
0
41
1
10
-36.5
20
7.20235684280954
30
0
41
1
10
-36.5
20
7.42483229470756
30
0
41
1
10
-36.5
20
7.64585158611581
30
0
41
1
10
-36.5
20
7.86540128403743
30
0
41
1
10
-36.5
20
8.08346945831602
30
0
41
1
10
-36.5
20
8.30004452993893
30
0
41
1
10
-36.5
20
8.58745782596952
30
0
41
1
10
-36.5
20
8.94153442741853
30
0
41
1
10
-36.5
20
9.36101273737586
30
0
41
1
10
-36.5
20
9.70483575174822
30
0
41
1
10
-36.5
20
9.97778564072317
30
0
41
1
10
-36.5
20
10.18052371466
30
0
41
1
10
-36.5
20
10.3816870614505
30
0
41
1
10
-36.5
20
10.5812696339219
30
0
41
1
10
-36.5
20
10.7792636942327
30
0
41
1
10
-36.5
20
10.9756652058486
30
0
41
1
10
-36.5
20
11.1704660987636
30
0
41
1
10
-36.5
20
11.4285504962004
30
0
41
1
10
-36.5
20
11.6819759007756
30
0
41
1
10
-36.5
20
11.9335556252714
30
0
41
1
10
-36.5
20
12.1202707134412
30
0
41
1
10
-36.5
20
12.3053503320752
30
0
41
1
10
-36.5
20
12.4887913848281
30
0
41
1
10
-36.5
20
12.6705857704289
30
0
41
1
10
-36.5
20
12.8507281979538
30
0
41
1
10
-36.5
20
13.0292149436137
30
0
41
1
10
-36.5
20
13.2060373895955
30
0
41
1
10
-36.5
20
13.3811911431361
30
0
41
1
10
-36.5
20
13.5546713888901
30
0
41
1
10
-36.5
20
13.7264696827894
30
0
41
1
10
-36.5
20
13.9536769173599
30
0
41
1
10
-36.5
20
14.176348576809
30
0
41
1
10
-36.5
20
14.3967384349214
30
0
41
1
10
-36.5
20
14.6148460432235
30
0
41
1
10
-36.5
20
14.8284315021107
30
0
41
1
10
-36.5
20
15.0396227184095
30
0
41
1
10
-36.5
20
15.1960147192182
30
0
41
1
10
-36.5
20
15.3506631330604
30
0
41
1
10
-36.5
20
15.5548624364723
30
0
41
1
10
-36.5
20
15.7545451164335
30
0
41
1
10
-36.5
20
15.9516609547094
30
0
41
1
10
-36.5
20
16.0974737380165
30
0
41
1
10
-36.5
20
16.241498813278
30
0
41
1
10
-36.5
20
16.4314450331352
30
0
41
1
10
-36.5
20
16.6168608854212
30
0
41
1
10
-36.5
20
16.7995343923806
30
0
41
1
10
-36.5
20
16.9344844206004
30
0
41
1
10
-36.5
20
17.0675955495038
30
0
41
1
10
-36.5
20
17.2428947983014
30
0
41
1
10
-36.5
20
17.4136313821348
30
0
41
1
10
-36.5
20
17.5814422063202
30
0
41
1
10
-36.5
20
17.7052052466277
30
0
41
1
10
-36.5
20
17.827069915531
30
0
41
1
10
-36.5
20
17.9872703841193
30
0
41
1
10
-36.5
20
18.1428562465544
30
0
41
1
10
-36.5
20
18.2953166794047
30
0
41
1
10
-36.5
20
18.4075180436267
30
0
41
1
10
-36.5
20
18.5177535555592
30
0
41
1
10
-36.5
20
18.6623326618876
30
0
41
1
10
-36.5
20
18.8022222651529
30
0
41
1
10
-36.5
20
18.9387686023437
30
0
41
1
10
-36.5
20
19.0389739868785
30
0
41
1
10
-36.5
20
19.1371342717784
30
0
41
1
10
-36.5
20
19.2332339353276
30
0
41
1
10
-36.5
20
19.3272562516113
30
0
41
1
10
-36.5
20
19.4191882978898
30
0
41
1
10
-36.5
20
19.5090135437133
30
0
41
1
10
-36.5
20
19.5967148362678
30
0
41
1
10
-36.5
20
19.6822775521962
30
0
41
1
10
-36.5
20
19.7656833992675
30
0
41
1
10
-36.5
20
19.8469141406672
30
0
41
1
10
-36.5
20
19.9259535527381
30
0
41
1
10
-36.5
20
20.0027815100322
30
0
41
1
10
-36.5
20
20.1024193061391
30
0
41
1
10
-36.5
20
20.1970436522849
30
0
41
1
10
-36.5
20
20.287589681624
30
0
41
1
10
-36.5
20
20.353062816238
30
0
41
1
10
-36.5
20
20.4161996091987
30
0
41
1
10
-36.5
20
20.4769783724375
30
0
41
1
10
-36.5
20
20.5353747607017
30
0
41
1
10
-36.5
20
20.6101652553123
30
0
41
1
10
-36.5
20
20.6796864153796
30
0
41
1
10
-36.5
20
20.7446292080422
30
0
41
1
10
-36.5
20
20.7907268231739
30
0
41
1
10
-36.5
20
20.8342802793506
30
0
41
1
10
-36.5
20
20.8890285523336
30
0
41
1
10
-36.5
20
20.9382580424269
30
0
41
1
10
-36.5
20
20.9824409225429
30
0
41
1
10
-36.5
20
21.0128017234864
30
0
41
1
10
-36.5
20
21.0404207944711
30
0
41
1
10
-36.5
20
21.0652596303332
30
0
41
1
10
-36.5
20
21.0872797892674
30
0
41
1
10
-36.5
20
21.1064402531507
30
0
41
1
10
-36.5
20
21.1226986516191
30
0
41
1
10
-36.5
20
21.1360112646484
30
0
41
1
10
-36.5
20
21.1463317710584
30
0
41
1
10
-36.5
20
21.1536128319466
30
0
41
1
10
-36.5
20
21.1578041644649
30
0
41
1
10
-36.5
20
21.1588543296933
30
0
41
1
10
-36.5
20
21.1573189705684
30
0
41
1
10
-36.5
20
21.1557860264066
30
0
41
1
10
-36.5
20
21.155578155582
30
0
0
SPLINE
5
16E
100
AcDbEntity
8
SK1
62
256
6
ByLayer
370
18
48
1
60
0
100
AcDbSpline
70
4
71
3
72
115
73
111
40
0
40
0
40
0
40
0
40
0.0065652094043376
40
0.0151093772184539
40
0.0236535450325702
40
0.0321977128466866
40
0.0407418806608029
40
0.0492860484749192
40
0.0578302162890356
40
0.0663743841031519
40
0.0834627197313846
40
0.100551055359617
40
0.11763939098785
40
0.126183558801966
40
0.134727726616083
40
0.143271894430199
40
0.151816062244315
40
0.168904397872548
40
0.177448565686664
40
0.185992733500781
40
0.194536901314897
40
0.203081069129013
40
0.21162523694313
40
0.220169404757246
40
0.237257740385479
40
0.245801908199595
40
0.254346076013711
40
0.262890243827828
40
0.271434411641944
40
0.27997857945606
40
0.288522747270177
40
0.297066915084293
40
0.305611082898409
40
0.314155250712526
40
0.322699418526642
40
0.331243586340759
40
0.339787754154875
40
0.348331921968991
40
0.356876089783107
40
0.37396442541134
40
0.382508593225456
40
0.391052761039573
40
0.395324844946631
40
0.399596928853689
40
0.408141096667806
40
0.425229432296038
40
0.433773600110154
40
0.442317767924271
40
0.450861935738387
40
0.459406103552504
40
0.476494439180736
40
0.485038606994853
40
0.493582774808969
40
0.497854858716027
40
0.502126942623085
40
0.510671110437201
40
0.527759446065434
40
0.536303613879551
40
0.544847781693667
40
0.553391949507783
40
0.5619361173219
40
0.579024452950132
40
0.587568620764249
40
0.596112788578365
40
0.600384872485423
40
0.604656956392481
40
0.613201124206598
40
0.621745292020714
40
0.63028945983483
40
0.634561543741888
40
0.638833627648947
40
0.647377795463063
40
0.655921963277179
40
0.664466131091296
40
0.673010298905412
40
0.681554466719528
40
0.690098634533645
40
0.698642802347761
40
0.707186970161877
40
0.715731137975994
40
0.72427530579011
40
0.732819473604226
40
0.741363641418343
40
0.749907809232459
40
0.758451977046575
40
0.766996144860692
40
0.784084480488924
40
0.792628648303041
40
0.801172816117157
40
0.809716983931273
40
0.81826115174539
40
0.826805319559506
40
0.835349487373622
40
0.843893655187739
40
0.852437823001855
40
0.869526158630088
40
0.88661449425832
40
0.903702829886553
40
0.91224699770067
40
0.920791165514786
40
0.929335333328902
40
0.937879501143019
40
0.946423668957135
40
0.954967836771251
40
0.963512004585367
40
0.972056172399484
40
0.9806003402136
40
0.989144508027717
40
0.997688675841833
40
1
40
1
40
1
40
1
41
1
10
-0.394976888875249
20
-21.8653790904854
30
0
41
1
10
-0.394976888875249
20
-21.8653285660608
30
0
41
1
10
-0.394976888875277
20
-21.8644673804606
30
0
41
1
10
-0.394976888875277
20
-21.8604737650697
30
0
41
1
10
-0.394976888875277
20
-21.8529598769268
30
0
41
1
10
-0.394976888875277
20
-21.8423149188875
30
0
41
1
10
-0.394976888875277
20
-21.8285907137819
30
0
41
1
10
-0.394976888875277
20
-21.8118377229246
30
0
41
1
10
-0.394976888875277
20
-21.7921034347989
30
0
41
1
10
-0.394976888875277
20
-21.7618666429643
30
0
41
1
10
-0.394976888875277
20
-21.7168668922192
30
0
41
1
10
-0.394976888875277
20
-21.651618462036
30
0
41
1
10
-0.394976888875277
20
-21.5881524120742
30
0
41
1
10
-0.394976888875277
20
-21.5320229149808
30
0
41
1
10
-0.394976888875277
20
-21.4873092663299
30
0
41
1
10
-0.394976888875277
20
-21.4399968711307
30
0
41
1
10
-0.394976888875277
20
-21.3734709387681
30
0
41
1
10
-0.394976888875277
20
-21.3019320664004
30
0
41
1
10
-0.394976888875277
20
-21.2253664719936
30
0
41
1
10
-0.394976888875277
20
-21.1655031445011
30
0
41
1
10
-0.394976888875277
20
-21.1032108723211
30
0
41
1
10
-0.394976888875277
20
-21.038514297088
30
0
41
1
10
-0.394976888875277
20
-20.9714364994015
30
0
41
1
10
-0.394976888875277
20
-20.8788308563806
30
0
41
1
10
-0.394976888875277
20
-20.7816354627076
30
0
41
1
10
-0.394976888875277
20
-20.6797749496461
30
0
41
1
10
-0.394976888875277
20
-20.6011280536546
30
0
41
1
10
-0.394976888875277
20
-20.5202292190253
30
0
41
1
10
-0.394976888875277
20
-20.4370981008412
30
0
41
1
10
-0.394976888875277
20
-20.3517517634561
30
0
41
1
10
-0.394976888875277
20
-20.2642094206366
30
0
41
1
10
-0.394976888875277
20
-20.1744885542463
30
0
41
1
10
-0.394976888875277
20
-20.082604770276
30
0
41
1
10
-0.394976888875277
20
-19.9885758834751
30
0
41
1
10
-0.394976888875277
20
-19.8924175863555
30
0
41
1
10
-0.394976888875277
20
-19.79414426657
30
0
41
1
10
-0.394976888875277
20
-19.6937723311917
30
0
41
1
10
-0.394976888875277
20
-19.5913158900225
30
0
41
1
10
-0.394976888875277
20
-19.4519091739392
30
0
41
1
10
-0.394976888875277
20
-19.308501644014
30
0
41
1
10
-0.394976888875277
20
-19.160920630363
30
0
41
1
10
-0.394976888875277
20
-19.0670441229991
30
0
41
1
10
-0.394976888875277
20
-18.9909051568102
30
0
41
1
10
-0.394976888875277
20
-18.9140993494365
30
0
41
1
10
-0.394976888875277
20
-18.777958735224
30
0
41
1
10
-0.394976888875277
20
-18.6185131846482
30
0
41
1
10
-0.394976888875277
20
-18.4550236113311
30
0
41
1
10
-0.394976888875277
20
-18.330489335967
30
0
41
1
10
-0.394976888875277
20
-18.2040166079408
30
0
41
1
10
-0.394976888875277
20
-18.0327705937831
30
0
41
1
10
-0.394976888875277
20
-17.8578219077773
30
0
41
1
10
-0.394976888875277
20
-17.6789387292296
30
0
41
1
10
-0.394976888875277
20
-17.5656125946474
30
0
41
1
10
-0.394976888875277
20
-17.4739690253912
30
0
41
1
10
-0.394976888875277
20
-17.3816993239948
30
0
41
1
10
-0.394976888875277
20
-17.2186048360495
30
0
41
1
10
-0.394976888875277
20
-17.0286078387926
30
0
41
1
10
-0.394976888875277
20
-16.8347647509306
30
0
41
1
10
-0.394976888875277
20
-16.6875786248762
30
0
41
1
10
-0.394976888875277
20
-16.5385587049943
30
0
41
1
10
-0.394976888875277
20
-16.3373774066279
30
0
41
1
10
-0.394976888875277
20
-16.1327150774874
30
0
41
1
10
-0.394976888875277
20
-15.9242804112408
30
0
41
1
10
-0.394976888875277
20
-15.7925696820839
30
0
41
1
10
-0.394976888875277
20
-15.6862549949744
30
0
41
1
10
-0.394976888875277
20
-15.5793432837569
30
0
41
1
10
-0.394976888875277
20
-15.4446487492657
30
0
41
1
10
-0.394976888875277
20
-15.2812010193763
30
0
41
1
10
-0.394976888875277
20
-15.1435436982815
30
0
41
1
10
-0.394976888875277
20
-15.0324801920763
30
0
41
1
10
-0.394976888875277
20
-14.9208273816877
30
0
41
1
10
-0.394976888875277
20
-14.7802248596231
30
0
41
1
10
-0.394976888875277
20
-14.6097059483473
30
0
41
1
10
-0.394976888875277
20
-14.4374320816019
30
0
41
1
10
-0.394976888875277
20
-14.2634095816694
30
0
41
1
10
-0.394976888875277
20
-14.0876420714538
30
0
41
1
10
-0.394976888875277
20
-13.9101338497815
30
0
41
1
10
-0.394976888875277
20
-13.7308904366346
30
0
41
1
10
-0.394976888875277
20
-13.549915145406
30
0
41
1
10
-0.394976888875277
20
-13.3672125481811
30
0
41
1
10
-0.394976888875277
20
-13.182787463215
30
0
41
1
10
-0.394976888875277
20
-12.9966426140257
30
0
41
1
10
-0.394976888875277
20
-12.8087826212334
30
0
41
1
10
-0.394976888875277
20
-12.6192114742801
30
0
41
1
10
-0.394976888875277
20
-12.4279318017785
30
0
41
1
10
-0.394976888875277
20
-12.1705475891153
30
0
41
1
10
-0.394976888875277
20
-11.9099848332047
30
0
41
1
10
-0.394976888875277
20
-11.6458042855523
30
0
41
1
10
-0.394976888875277
20
-11.4460361066677
30
0
41
1
10
-0.394976888875277
20
-11.2445799083311
30
0
41
1
10
-0.394976888875277
20
-11.0414389105764
30
0
41
1
10
-0.394976888875277
20
-10.8366153761928
30
0
41
1
10
-0.394976888875277
20
-10.630113157504
30
0
41
1
10
-0.394976888875277
20
-10.4219344610486
30
0
41
1
10
-0.394976888875277
20
-10.1420454829465
30
0
41
1
10
-0.394976888875277
20
-9.78821091215369
30
0
41
1
10
-0.394976888875277
20
-9.3568391135907
30
0
41
1
10
-0.394976888875277
20
-8.99192950801697
30
0
41
1
10
-0.394976888875277
20
-8.69651812098675
30
0
41
1
10
-0.394976888875277
20
-8.47338949471808
30
0
41
1
10
-0.394976888875277
20
-8.24861627222975
30
0
41
1
10
-0.394976888875277
20
-8.0222029406992
30
0
41
1
10
-0.394976888875277
20
-7.79415362199521
30
0
41
1
10
-0.394976888875277
20
-7.56447255210355
30
0
41
1
10
-0.394976888875277
20
-7.33316516004027
30
0
41
1
10
-0.394976888875277
20
-7.10023725398264
30
0
41
1
10
-0.394976888875277
20
-6.86569504295815
30
0
41
1
10
-0.394976888875277
20
-6.62954558311137
30
0
41
1
10
-0.394976888875277
20
-6.44960786563362
30
0
41
1
10
-0.394976888875277
20
-6.34849183540922
30
0
41
1
10
-0.394976888875277
20
-6.32694309067119
30
0
0
SPLINE
5
16F
100
AcDbEntity
8
SK1
62
256
6
ByLayer
370
18
48
1
60
0
100
AcDbSpline
70
4
71
3
72
111
73
107
40
0
40
0
40
0
40
0
40
0.0023113641695553
40
0.0108556432828171
40
0.0193999223960788
40
0.0279442015093406
40
0.0364884806226024
40
0.0450327597358642
40
0.0535770388491259
40
0.0621213179623877
40
0.0706655970756495
40
0.0792098761889112
40
0.087754155302173
40
0.0962984344154348
40
0.113386992641958
40
0.130475550868482
40
0.147564109095005
40
0.156108388208267
40
0.164652667321529
40
0.173196946434791
40
0.181741225548052
40
0.190285504661314
40
0.198829783774576
40
0.207374062887838
40
0.215918342001099
40
0.233006900227623
40
0.241551179340885
40
0.250095458454147
40
0.258639737567408
40
0.26718401668067
40
0.275728295793932
40
0.284272574907194
40
0.292816854020455
40
0.301361133133717
40
0.309905412246979
40
0.318449691360241
40
0.326993970473502
40
0.335538249586764
40
0.352626807813288
40
0.36117108692655
40
0.369715366039811
40
0.386803924266335
40
0.395348203379597
40
0.403892482492858
40
0.41243676160612
40
0.420981040719382
40
0.438069598945906
40
0.446613878059167
40
0.455158157172429
40
0.463702436285691
40
0.472246715398953
40
0.489335273625476
40
0.497879552738738
40
0.506423831852
40
0.514968110965261
40
0.523512390078523
40
0.540600948305047
40
0.549145227418309
40
0.55768950653157
40
0.566233785644832
40
0.574778064758094
40
0.591866622984617
40
0.600410902097879
40
0.608955181211141
40
0.617499460324403
40
0.626043739437664
40
0.643132297664188
40
0.65167657677745
40
0.660220855890712
40
0.668765135003973
40
0.677309414117235
40
0.685853693230497
40
0.694397972343759
40
0.70294225145702
40
0.711486530570282
40
0.720030809683544
40
0.728575088796806
40
0.737119367910067
40
0.745663647023329
40
0.754207926136591
40
0.762752205249853
40
0.779840763476376
40
0.788385042589638
40
0.7969293217029
40
0.805473600816161
40
0.814017879929423
40
0.822562159042685
40
0.831106438155947
40
0.84819499638247
40
0.856739275495732
40
0.865283554608994
40
0.873827833722256
40
0.882372112835518
40
0.899460671062041
40
0.908004950175303
40
0.916549229288565
40
0.925093508401826
40
0.933637787515088
40
0.94218206662835
40
0.950726345741612
40
0.959270624854873
40
0.967814903968135
40
0.976359183081397
40
0.984903462194659
40
0.993447741307921
40
1
40
1
40
1
40
1
41
1
10
-0.394976888875277
20
6.32694279392976
30
0
41
1
10
-0.394976888875277
20
6.3484916311391
30
0
41
1
10
-0.394976888875277
20
6.44960775400912
30
0
41
1
10
-0.394976888875277
20
6.62954555948869
30
0
41
1
10
-0.394976888875277
20
6.8656950488801
30
0
41
1
10
-0.394976888875277
20
7.10023740586411
30
0
41
1
10
-0.394976888875277
20
7.33316546385933
30
0
41
1
10
-0.394976888875277
20
7.56447269448574
30
0
41
1
10
-0.394976888875277
20
7.79415340272945
30
0
41
1
10
-0.394976888875277
20
8.02220293401996
30
0
41
1
10
-0.394976888875277
20
8.24861635560848
30
0
41
1
10
-0.394976888875277
20
8.47338951886385
30
0
41
1
10
-0.394976888875277
20
8.69651811258549
30
0
41
1
10
-0.394976888875277
20
8.99192948127941
30
0
41
1
10
-0.394976888875277
20
9.35683912175983
30
0
41
1
10
-0.394976888875277
20
9.78821091217483
30
0
41
1
10
-0.394976888875277
20
10.142045462177
30
0
41
1
10
-0.394976888875277
20
10.4219344727077
30
0
41
1
10
-0.394976888875277
20
10.6301131683678
30
0
41
1
10
-0.394976888875277
20
10.8366153667066
30
0
41
1
10
-0.394976888875277
20
11.0414388905992
30
0
41
1
10
-0.394976888875277
20
11.2445799004538
30
0
41
1
10
-0.394976888875277
20
11.4460361162834
30
0
41
1
10
-0.394976888875277
20
11.6458042976885
30
0
41
1
10
-0.394976888875277
20
11.9099848253352
30
0
41
1
10
-0.394976888875277
20
12.1705475695385
30
0
41
1
10
-0.394976888875277
20
12.4279318067111
30
0
41
1
10
-0.394976888875277
20
12.6192114874981
30
0
41
1
10
-0.394976888875277
20
12.8087826250924
30
0
41
1
10
-0.394976888875277
20
12.9966426041155
30
0
41
1
10
-0.394976888875277
20
13.182787448996
30
0
41
1
10
-0.394976888875277
20
13.3672125455487
30
0
41
1
10
-0.394976888875277
20
13.5499151547097
30
0
41
1
10
-0.394976888875277
20
13.7308904478326
30
0
41
1
10
-0.394976888875277
20
13.910133867705
30
0
41
1
10
-0.394976888875277
20
14.0876421688895
30
0
41
1
10
-0.394976888875277
20
14.2634098807097
30
0
41
1
10
-0.394976888875277
20
14.4955025482493
30
0
41
1
10
-0.394976888875277
20
14.7239127068147
30
0
41
1
10
-0.394976888875277
20
14.9489833053404
30
0
41
1
10
-0.394976888875277
20
15.171701411915
30
0
41
1
10
-0.394976888875277
20
15.3907043201103
30
0
41
1
10
-0.394976888875277
20
15.6063159613101
30
0
41
1
10
-0.394976888875277
20
15.7661946363952
30
0
41
1
10
-0.394976888875277
20
15.9242799594928
30
0
41
1
10
-0.394976888875277
20
16.1327154012234
30
0
41
1
10
-0.394976888875277
20
16.3373780173449
30
0
41
1
10
-0.394976888875277
20
16.5385587125243
30
0
41
1
10
-0.394976888875277
20
16.6875782011067
30
0
41
1
10
-0.394976888875277
20
16.8347642769002
30
0
41
1
10
-0.394976888875277
20
17.0286080073569
30
0
41
1
10
-0.394976888875277
20
17.2186059445175
30
0
41
1
10
-0.394976888875277
20
17.4050188999402
30
0
41
1
10
-0.394976888875277
20
17.5429190217058
30
0
41
1
10
-0.394976888875277
20
17.6789377757623
30
0
41
1
10
-0.394976888875277
20
17.8578220601067
30
0
41
1
10
-0.394976888875277
20
18.0327708145484
30
0
41
1
10
-0.394976888875277
20
18.2040166330947
30
0
41
1
10
-0.394976888875277
20
18.3304892054167
30
0
41
1
10
-0.394976888875277
20
18.4550234389153
30
0
41
1
10
-0.394976888875277
20
18.6185132745736
30
0
41
1
10
-0.394976888875277
20
18.7779598884918
30
0
41
1
10
-0.394976888875277
20
18.933565131357
30
0
41
1
10
-0.394976888875277
20
19.048244884465
30
0
41
1
10
-0.394976888875277
20
19.1609196079758
30
0
41
1
10
-0.394976888875277
20
19.3085018143331
30
0
41
1
10
-0.394976888875277
20
19.4519098709686
30
0
41
1
10
-0.394976888875277
20
19.5913159811741
30
0
41
1
10
-0.394976888875277
20
19.6937719762305
30
0
41
1
10
-0.394976888875277
20
19.7941438028822
30
0
41
1
10
-0.394976888875277
20
19.8924174211231
30
0
41
1
10
-0.394976888875277
20
19.988575861591
30
0
41
1
10
-0.394976888875277
20
20.082604778142
30
0
41
1
10
-0.394976888875277
20
20.1744885559187
30
0
41
1
10
-0.394976888875277
20
20.264209431984
30
0
41
1
10
-0.394976888875277
20
20.3517517880635
30
0
41
1
10
-0.394976888875277
20
20.437098129367
30
0
41
1
10
-0.394976888875277
20
20.5202292348052
30
0
41
1
10
-0.394976888875277
20
20.6011280559991
30
0
41
1
10
-0.394976888875277
20
20.6797749513881
30
0
41
1
10
-0.394976888875277
20
20.781635486227
30
0
41
1
10
-0.394976888875277
20
20.8788308931333
30
0
41
1
10
-0.394976888875277
20
20.9714365096391
30
0
41
1
10
-0.394976888875277
20
21.0385142950144
30
0
41
1
10
-0.394976888875277
20
21.1032108820957
30
0
41
1
10
-0.394976888875277
20
21.1655031751743
30
0
41
1
10
-0.394976888875277
20
21.2253665102307
30
0
41
1
10
-0.394976888875277
20
21.301932078811
30
0
41
1
10
-0.394976888875277
20
21.3734709318986
30
0
41
1
10
-0.394976888875277
20
21.4399968999807
30
0
41
1
10
-0.394976888875277
20
21.4873093096751
30
0
41
1
10
-0.394976888875277
20
21.5320229383892
30
0
41
1
10
-0.394976888875277
20
21.5881524005931
30
0
41
1
10
-0.394976888875277
20
21.6389063892513
30
0
41
1
10
-0.394976888875277
20
21.6842420425293
30
0
41
1
10
-0.394976888875277
20
21.7154617242468
30
0
41
1
10
-0.394976888875277
20
21.7438726893518
30
0
41
1
10
-0.394976888875277
20
21.7694337460976
30
0
41
1
10
-0.394976888875277
20
21.7921034780961
30
0
41
1
10
-0.394976888875277
20
21.8118377637545
30
0
41
1
10
-0.394976888875277
20
21.8285907189997
30
0
41
1
10
-0.394976888875277
20
21.8423149132633
30
0
41
1
10
-0.394976888875277
20
21.8529599173647
30
0
41
1
10
-0.394976888875277
20
21.8604739519412
30
0
41
1
10
-0.394976888875277
20
21.8644655177132
30
0
41
1
10
-0.394976888875277
20
21.8653271901524
30
0
41
1
10
-0.394976888875277
20
21.8653787937598
30
0
0
SPLINE
5
170
100
AcDbEntity
8
SK1
62
256
6
ByLayer
370
18
48
1
60
0
100
AcDbSpline
70
4
71
3
72
299
73
295
40
0
40
0
40
0
40
0
40
0.0029456227442696
40
0.006470699236861
40
0.0099957757294525
40
0.013520852222044
40
0.0170459287146354
40
0.0205710052072269
40
0.0240960816998183
40
0.0276211581924097
40
0.0346713111775926
40
0.0417214641627755
40
0.0487716171479584
40
0.0522966936405499
40
0.0558217701331414
40
0.0593468466257328
40
0.0628719231183242
40
0.0699220761035071
40
0.0734471525960986
40
0.07697222908869
40
0.0804973055812815
40
0.0840223820738729
40
0.0875474585664644
40
0.0910725350590559
40
0.0981226880442387
40
0.10164776453683
40
0.105172841029422
40
0.108697917522013
40
0.112222994014605
40
0.115748070507196
40
0.119273146999787
40
0.122798223492379
40
0.12632329998497
40
0.129848376477562
40
0.133373452970153
40
0.136898529462745
40
0.140423605955336
40
0.143948682447928
40
0.147473758940519
40
0.154523911925702
40
0.158048988418293
40
0.161574064910885
40
0.163336603157181
40
0.165099141403476
40
0.168624217896068
40
0.175674370881251
40
0.179199447373842
40
0.182724523866434
40
0.186249600359025
40
0.189774676851617
40
0.196824829836799
40
0.200349906329391
40
0.203874982821982
40
0.205637521068278
40
0.207400059314574
40
0.210925135807165
40
0.217975288792348
40
0.22150036528494
40
0.225025441777531
40
0.228550518270122
40
0.232075594762714
40
0.239125747747897
40
0.242650824240488
40
0.24617590073308
40
0.247938438979376
40
0.249700977225671
40
0.253226053718263
40
0.256751130210854
40
0.260276206703445
40
0.262038744949741
40
0.263801283196037
40
0.267326359688628
40
0.27085143618122
40
0.274376512673811
40
0.277901589166403
40
0.281426665658994
40
0.284951742151586
40
0.288476818644177
40
0.292001895136769
40
0.29552697162936
40
0.299052048121952
40
0.302577124614543
40
0.306102201107134
40
0.309627277599726
40
0.313152354092317
40
0.316677430584909
40
0.323727583570092
40
0.327252660062683
40
0.330777736555274
40
0.334302813047866
40
0.337827889540457
40
0.341352966033049
40
0.34487804252564
40
0.348403119018232
40
0.351928195510823
40
0.358978348496006
40
0.366028501481189
40
0.373078654466372
40
0.376603730958963
40
0.380128807451555
40
0.383653883944146
40
0.387178960436738
40
0.390704036929329
40
0.394229113421921
40
0.397754189914512
40
0.401279266407104
40
0.404804342899695
40
0.408329419392287
40
0.411854495884878
40
0.415379572377469
40
0.418904648870061
40
0.422429725362652
40
0.425954801855244
40
0.429479878347835
40
0.433004954840427
40
0.434767493086722
40
0.436530031333018
40
0.438292569579314
40
0.44005510782561
40
0.443580184318201
40
0.447105260810792
40
0.448867799057088
40
0.450630337303384
40
0.45239287554968
40
0.454155413795975
40
0.457680490288567
40
0.459443028534863
40
0.461205566781158
40
0.462968105027454
40
0.46473064327375
40
0.466493181520045
40
0.468255719766341
40
0.470018258012637
40
0.471780796258933
40
0.473543334505228
40
0.475305872751524
40
0.47706841099782
40
0.478830949244116
40
0.480593487490411
40
0.482356025736707
40
0.484118563983003
40
0.485881102229298
40
0.487643640475594
40
0.48940617872189
40
0.491168716968185
40
0.492931255214481
40
0.494693793460777
40
0.496456331707073
40
0.498218869953369
40
0.499981408199664
40
0.50174394644596
40
0.503506484692256
40
0.505269022938551
40
0.507031561184847
40
0.508794099431143
40
0.510556637677438
40
0.512319175923734
40
0.51408171417003
40
0.515844252416326
40
0.517606790662621
40
0.519369328908917
40
0.521131867155213
40
0.522894405401509
40
0.524656943647804
40
0.5264194818941
40
0.528182020140396
40
0.529944558386692
40
0.531707096632987
40
0.533469634879283
40
0.535232173125579
40
0.536994711371874
40
0.53875724961817
40
0.540519787864466
40
0.542282326110762
40
0.545807402603353
40
0.547569940849649
40
0.549332479095945
40
0.55109501734224
40
0.552857555588536
40
0.556382632081127
40
0.559907708573719
40
0.561670246820015
40
0.56343278506631
40
0.565195323312606
40
0.566957861558902
40
0.570482938051493
40
0.574008014544085
40
0.577533091036676
40
0.581058167529268
40
0.584583244021859
40
0.58810832051445
40
0.591633397007042
40
0.595158473499633
40
0.598683549992225
40
0.602208626484816
40
0.605733702977408
40
0.609258779469999
40
0.612783855962591
40
0.616308932455182
40
0.619834008947773
40
0.623359085440365
40
0.626884161932956
40
0.633934314918139
40
0.640984467903322
40
0.648034620888505
40
0.651559697381097
40
0.655084773873688
40
0.65860985036628
40
0.662134926858871
40
0.665660003351462
40
0.669185079844054
40
0.672710156336645
40
0.676235232829237
40
0.68328538581442
40
0.686810462307011
40
0.690335538799602
40
0.693860615292194
40
0.697385691784785
40
0.700910768277377
40
0.704435844769968
40
0.70796092126256
40
0.711485997755151
40
0.715011074247743
40
0.718536150740334
40
0.722061227232926
40
0.725586303725517
40
0.7326364567107
40
0.736161533203291
40
0.739686609695883
40
0.746736762681066
40
0.750261839173657
40
0.753786915666249
40
0.75731199215884
40
0.760837068651432
40
0.767887221636615
40
0.771412298129206
40
0.774937374621797
40
0.778462451114389
40
0.78198752760698
40
0.789037680592163
40
0.792562757084755
40
0.796087833577346
40
0.799612910069938
40
0.803137986562529
40
0.810188139547712
40
0.813713216040303
40
0.817238292532895
40
0.820763369025486
40
0.824288445518078
40
0.831338598503261
40
0.834863674995852
40
0.838388751488444
40
0.841913827981035
40
0.845438904473627
40
0.852489057458809
40
0.856014133951401
40
0.859539210443992
40
0.863064286936584
40
0.866589363429175
40
0.870114439921767
40
0.873639516414358
40
0.877164592906949
40
0.880689669399541
40
0.884214745892132
40
0.887739822384724
40
0.891264898877315
40
0.894789975369907
40
0.898315051862498
40
0.90184012835509
40
0.908890281340273
40
0.912415357832864
40
0.915940434325456
40
0.919465510818047
40
0.922990587310638
40
0.92651566380323
40
0.930040740295821
40
0.937090893281004
40
0.940615969773596
40
0.944141046266187
40
0.947666122758778
40
0.95119119925137
40
0.958241352236553
40
0.961766428729144
40
0.965291505221736
40
0.968816581714327
40
0.972341658206919
40
0.97586673469951
40
0.979391811192102
40
0.982916887684693
40
0.986441964177284
40
0.989967040669876
40
0.993492117162467
40
0.997017193655059
40
1
40
1
40
1
40
1
41
1
10
-38
20
-20.2923486603724
30
0
41
1
10
-38
20
-20.2923545548973
30
0
41
1
10
-38
20
-20.2915861812079
30
0
41
1
10
-38
20
-20.2877827415225
30
0
41
1
10
-38
20
-20.2807871950941
30
0
41
1
10
-38
20
-20.270864225278
30
0
41
1
10
-38
20
-20.2580557575388
30
0
41
1
10
-38
20
-20.2424031034125
30
0
41
1
10
-38
20
-20.2239454925533
30
0
41
1
10
-38
20
-20.19551262204
30
0
41
1
10
-38
20
-20.153458157969
30
0
41
1
10
-38
20
-20.0921783324266
30
0
41
1
10
-38
20
-20.0326760120608
30
0
41
1
10
-38
20
-19.9796195423852
30
0
41
1
10
-38
20
-19.9374871337362
30
0
41
1
10
-38
20
-19.8928775037255
30
0
41
1
10
-38
20
-19.8298739849262
30
0
41
1
10
-38
20
-19.7628242930463
30
0
41
1
10
-38
20
-19.6902080345968
30
0
41
1
10
-38
20
-19.6336084813315
30
0
41
1
10
-38
20
-19.5746836513967
30
0
41
1
10
-38
20
-19.5134574775013
30
0
41
1
10
-38
20
-19.4499498796239
30
0
41
1
10
-38
20
-19.361926580552
30
0
41
1
10
-38
20
-19.2704514952516
30
0
41
1
10
-38
20
-19.1735363516591
30
0
41
1
10
-38
20
-19.0989364266239
30
0
41
1
10
-38
20
-19.0221745884206
30
0
41
1
10
-38
20
-18.9432715601189
30
0
41
1
10
-38
20
-18.8622425921487
30
0
41
1
10
-38
20
-18.7791047356355
30
0
41
1
10
-38
20
-18.6938772447032
30
0
41
1
10
-38
20
-18.6065734364562
30
0
41
1
10
-38
20
-18.5172096781029
30
0
41
1
10
-38
20
-18.4258037757915
30
0
41
1
10
-38
20
-18.3323676597213
30
0
41
1
10
-38
20
-18.236917040573
30
0
41
1
10
-38
20
-18.1394682315479
30
0
41
1
10
-38
20
-18.006423045464
30
0
41
1
10
-38
20
-17.870842154793
30
0
41
1
10
-38
20
-17.7299440627733
30
0
41
1
10
-38
20
-17.6408187485726
30
0
41
1
10
-38
20
-17.5681131617785
30
0
41
1
10
-38
20
-17.4947669133713
30
0
41
1
10
-38
20
-17.3649201654158
30
0
41
1
10
-38
20
-17.2140632768009
30
0
41
1
10
-38
20
-17.0578935907134
30
0
41
1
10
-38
20
-16.9392992293059
30
0
41
1
10
-38
20
-16.8188549914818
30
0
41
1
10
-38
20
-16.6552510003021
30
0
41
1
10
-38
20
-16.489672496603
30
0
41
1
10
-38
20
-16.3187666825072
30
0
41
1
10
-38
20
-16.2111031772939
30
0
41
1
10
-38
20
-16.1235473577608
30
0
41
1
10
-38
20
-16.0353949417433
30
0
41
1
10
-38
20
-15.8797855584285
30
0
41
1
10
-38
20
-15.6999813794666
30
0
41
1
10
-38
20
-15.5148116907138
30
0
41
1
10
-38
20
-15.3746600384839
30
0
41
1
10
-38
20
-15.2327750536327
30
0
41
1
10
-38
20
-15.0406360987563
30
0
41
1
10
-38
20
-14.8470518249568
30
0
41
1
10
-38
20
-14.6480433816337
30
0
41
1
10
-38
20
-14.5230237603812
30
0
41
1
10
-38
20
-14.4215395322791
30
0
41
1
10
-38
20
-14.319494446119
30
0
41
1
10
-38
20
-14.1916826014269
30
0
41
1
10
-38
20
-14.0362107113462
30
0
41
1
10
-38
20
-13.905633632864
30
0
41
1
10
-38
20
-13.7996824703933
30
0
41
1
10
-38
20
-13.6931799140641
30
0
41
1
10
-38
20
-13.5598675642285
30
0
41
1
10
-38
20
-13.3977994204325
30
0
41
1
10
-38
20
-13.2340971553998
30
0
41
1
10
-38
20
-13.0687736820565
30
0
41
1
10
-38
20
-12.9018380893652
30
0
41
1
10
-38
20
-12.7332922951509
30
0
41
1
10
-38
20
-12.5631480531082
30
0
41
1
10
-38
20
-12.3914123687224
30
0
41
1
10
-38
20
-12.2180896154105
30
0
41
1
10
-38
20
-12.0431930727568
30
0
41
1
10
-38
20
-11.8667275879997
30
0
41
1
10
-38
20
-11.6886992220563
30
0
41
1
10
-38
20
-11.5091211559413
30
0
41
1
10
-38
20
-11.3279971676986
30
0
41
1
10
-38
20
-11.0835274575533
30
0
41
1
10
-38
20
-10.8388445996823
30
0
41
1
10
-38
20
-10.5882272221232
30
0
41
1
10
-38
20
-10.3995106478125
30
0
41
1
10
-38
20
-10.2093006505112
30
0
41
1
10
-38
20
-10.0176111741013
30
0
41
1
10
-38
20
-9.82444825814403
30
0
41
1
10
-38
20
-9.62982433363783
30
0
41
1
10
-38
20
-9.43375032895256
30
0
41
1
10
-38
20
-9.16930024978845
30
0
41
1
10
-38
20
-8.83774034996793
30
0
41
1
10
-38
20
-8.43283016067576
30
0
41
1
10
-38
20
-8.09202302704495
30
0
41
1
10
-38
20
-7.81440668711983
30
0
41
1
10
-38
20
-7.60585888080686
30
0
41
1
10
-38
20
-7.39600299493051
30
0
41
1
10
-38
20
-7.18486050853949
30
0
41
1
10
-38
20
-6.972454820743
30
0
41
1
10
-38
20
-6.75880464755275
30
0
41
1
10
-38
20
-6.54393387937549
30
0
41
1
10
-38
20
-6.3278710206452
30
0
41
1
10
-38
20
-6.11064460524278
30
0
41
1
10
-38
20
-5.89228682406826
30
0
41
1
10
-38
20
-5.67283049766698
30
0
41
1
10
-38
20
-5.45231041402207
30
0
41
1
10
-38
20
-5.2307661198837
30
0
41
1
10
-38
20
-5.00824236668089
30
0
41
1
10
-38
20
-4.78478453894905
30
0
41
1
10
-38
20
-4.56044477194348
30
0
41
1
10
-38
20
-4.3737593142329
30
0
41
1
10
-38
20
-4.22222174308928
30
0
41
1
10
-38
20
-4.10916467830538
30
0
41
1
10
-38
20
-3.99593123757285
30
0
41
1
10
-38
20
-3.84368490764803
30
0
41
1
10
-38
20
-3.65544484289478
30
0
41
1
10
-38
20
-3.46668355973628
30
0
41
1
10
-38
20
-3.31336520651502
30
0
41
1
10
-38
20
-3.19916977025284
30
0
41
1
10
-38
20
-3.0848771849204
30
0
41
1
10
-38
20
-2.93116533478539
30
0
41
1
10
-38
20
-2.7810630459212
30
0
41
1
10
-38
20
-2.62697343511894
30
0
41
1
10
-38
20
-2.51237687493429
30
0
41
1
10
-38
20
-2.39774974487253
30
0
41
1
10
-38
20
-2.28311555219403
30
0
41
1
10
-38
20
-2.16847618976473
30
0
41
1
10
-38
20
-2.05384840107453
30
0
41
1
10
-38
20
-1.93924458170406
30
0
41
1
10
-38
20
-1.82466899171223
30
0
41
1
10
-38
20
-1.71014121398446
30
0
41
1
10
-38
20
-1.59566009898879
30
0
41
1
10
-38
20
-1.48124309885608
30
0
41
1
10
-38
20
-1.36688883878045
30
0
41
1
10
-38
20
-1.25260906632701
30
0
41
1
10
-38
20
-1.13840321986402
30
0
41
1
10
-38
20
-1.02427614220741
30
0
41
1
10
-38
20
-0.910225811803912
30
0
41
1
10
-38
20
-0.796251800903974
30
0
41
1
10
-38
20
-0.682349388495624
30
0
41
1
10
-38
20
-0.568513483413511
30
0
41
1
10
-38
20
-0.454735475948979
30
0
41
1
10
-38
20
-0.341006791030083
30
0
41
1
10
-38
20
-0.227315919379521
30
0
41
1
10
-38
20
-0.113651444289076
30
0
41
1
10
-38
20
-2.39306814E-08
30
0
41
1
10
-38
20
0.113651428861147
30
0
41
1
10
-38
20
0.227315965161836
30
0
41
1
10
-38
20
0.341006831114754
30
0
41
1
10
-38
20
0.454735424962735
30
0
41
1
10
-38
20
0.568513412391525
30
0
41
1
10
-38
20
0.682349437337052
30
0
41
1
10
-38
20
0.796251898049235
30
0
41
1
10
-38
20
0.910225765592202
30
0
41
1
10
-38
20
1.02427601417025
30
0
41
1
10
-38
20
1.13840324907633
30
0
41
1
10
-38
20
1.25260921865757
30
0
41
1
10
-38
20
1.36688883944316
30
0
41
1
10
-38
20
1.48124293103632
30
0
41
1
10
-38
20
1.59566004663384
30
0
41
1
10
-38
20
1.71014137238998
30
0
41
1
10
-38
20
1.82466911261432
30
0
41
1
10
-38
20
1.93924446866484
30
0
41
1
10
-38
20
2.05384821372689
30
0
41
1
10
-38
20
2.1684762190329
30
0
41
1
10
-38
20
2.28311576323421
30
0
41
1
10
-38
20
2.39774983280105
30
0
41
1
10
-38
20
2.51237672316307
30
0
41
1
10
-38
20
2.62697323991799
30
0
41
1
10
-38
20
2.78106315146928
30
0
41
1
10
-38
20
2.93116552693385
30
0
41
1
10
-38
20
3.08487708212581
30
0
41
1
10
-38
20
3.19916954549007
30
0
41
1
10
-38
20
3.31336512600546
30
0
41
1
10
-38
20
3.46668375918677
30
0
41
1
10
-38
20
3.65544489425088
30
0
41
1
10
-38
20
3.84368470208372
30
0
41
1
10
-38
20
3.99593117493794
30
0
41
1
10
-38
20
4.10916481607396
30
0
41
1
10
-38
20
4.22222196867938
30
0
41
1
10
-38
20
4.37375933349006
30
0
41
1
10
-38
20
4.56044458630845
30
0
41
1
10
-38
20
4.78478457648492
30
0
41
1
10
-38
20
5.00824253816086
30
0
41
1
10
-38
20
5.23076600439055
30
0
41
1
10
-38
20
5.45231022599046
30
0
41
1
10
-38
20
5.67283041504652
30
0
41
1
10
-38
20
5.89228674128222
30
0
41
1
10
-38
20
6.11064496108523
30
0
41
1
10
-38
20
6.32787239667013
30
0
41
1
10
-38
20
6.54393525610644
30
0
41
1
10
-38
20
6.75880334040127
30
0
41
1
10
-38
20
6.97245311766207
30
0
41
1
10
-38
20
7.18486111103374
30
0
41
1
10
-38
20
7.39600347561742
30
0
41
1
10
-38
20
7.60585874971361
30
0
41
1
10
-38
20
7.8144064520111
30
0
41
1
10
-38
20
8.09202295752311
30
0
41
1
10
-38
20
8.43283023540656
30
0
41
1
10
-38
20
8.83774029355055
30
0
41
1
10
-38
20
9.16930023887323
30
0
41
1
10
-38
20
9.43375044009511
30
0
41
1
10
-38
20
9.62982432960192
30
0
41
1
10
-38
20
9.82444814962994
30
0
41
1
10
-38
20
10.0176111126089
30
0
41
1
10
-38
20
10.2093007057547
30
0
41
1
10
-38
20
10.3995107409486
30
0
41
1
10
-38
20
10.5882272324294
30
0
41
1
10
-38
20
10.8388445170812
30
0
41
1
10
-38
20
11.0835274377931
30
0
41
1
10
-38
20
11.327997250045
30
0
41
1
10
-38
20
11.5091211965041
30
0
41
1
10
-38
20
11.6886991809046
30
0
41
1
10
-38
20
11.8667275177687
30
0
41
1
10
-38
20
12.0431930522803
30
0
41
1
10
-38
20
12.2180896645831
30
0
41
1
10
-38
20
12.3914124247035
30
0
41
1
10
-38
20
12.5631480735019
30
0
41
1
10
-38
20
12.7332924196477
30
0
41
1
10
-38
20
12.9018387248249
30
0
41
1
10
-38
20
13.068774902876
30
0
41
1
10
-38
20
13.2899980003418
30
0
41
1
10
-38
20
13.5056406071554
30
0
41
1
10
-38
20
13.7202970548285
30
0
41
1
10
-38
20
13.9327572918622
30
0
41
1
10
-38
20
14.1397069500695
30
0
41
1
10
-38
20
14.3454836148157
30
0
41
1
10
-38
20
14.4976048095277
30
0
41
1
10
-38
20
14.6480433741443
30
0
41
1
10
-38
20
14.8470538575164
30
0
41
1
10
-38
20
15.0406366439893
30
0
41
1
10
-38
20
15.2327734637881
30
0
41
1
10
-38
20
15.3746583733236
30
0
41
1
10
-38
20
15.5148115582755
30
0
41
1
10
-38
20
15.6999837411247
30
0
41
1
10
-38
20
15.8797870255403
30
0
41
1
10
-38
20
16.0578801048401
30
0
41
1
10
-38
20
16.189216581434
30
0
41
1
10
-38
20
16.3187661779867
30
0
41
1
10
-38
20
16.4896741385663
30
0
41
1
10
-38
20
16.6552512602625
30
0
41
1
10
-38
20
16.8188545807649
30
0
41
1
10
-38
20
16.9392987318018
30
0
41
1
10
-38
20
17.0578934672827
30
0
41
1
10
-38
20
17.2140648101705
30
0
41
1
10
-38
20
17.3649216616153
30
0
41
1
10
-38
20
17.513530035822
30
0
41
1
10
-38
20
17.6226956365842
30
0
41
1
10
-38
20
17.7299433731025
30
0
41
1
10
-38
20
17.8708440004863
30
0
41
1
10
-38
20
18.0064238716364
30
0
41
1
10
-38
20
18.1394672902699
30
0
41
1
10
-38
20
18.236915915677
30
0
41
1
10
-38
20
18.3323672965474
30
0
41
1
10
-38
20
18.4258040962282
30
0
41
1
10
-38
20
18.517209887002
30
0
41
1
10
-38
20
18.6065734896479
30
0
41
1
10
-38
20
18.6938772522127
30
0
41
1
10
-38
20
18.7791047692188
30
0
41
1
10
-38
20
18.8622426359768
30
0
41
1
10
-38
20
18.9432715834756
30
0
41
1
10
-38
20
19.0221745805325
30
0
41
1
10
-38
20
19.0989364136873
30
0
41
1
10
-38
20
19.1735363647814
30
0
41
1
10
-38
20
19.2704515417461
30
0
41
1
10
-38
20
19.3619266112172
30
0
41
1
10
-38
20
19.4499498647732
30
0
41
1
10
-38
20
19.5134574724377
30
0
41
1
10
-38
20
19.5746836830748
30
0
41
1
10
-38
20
19.6336085328263
30
0
41
1
10
-38
20
19.6902080668946
30
0
41
1
10
-38
20
19.7628242842049
30
0
41
1
10
-38
20
19.829873984374
30
0
41
1
10
-38
20
19.8928775551026
30
0
41
1
10
-38
20
19.9374871757691
30
0
41
1
10
-38
20
19.9796195436674
30
0
41
1
10
-38
20
20.0326760063813
30
0
41
1
10
-38
20
20.0800381474625
30
0
41
1
10
-38
20
20.1228090027496
30
0
41
1
10
-38
20
20.1521177658612
30
0
41
1
10
-38
20
20.1787668505585
30
0
41
1
10
-38
20
20.2027210424566
30
0
41
1
10
-38
20
20.2239455432986
30
0
41
1
10
-38
20
20.2424031363825
30
0
41
1
10
-38
20
20.2580557552655
30
0
41
1
10
-38
20
20.2708642249464
30
0
41
1
10
-38
20
20.2807872561095
30
0
41
1
10
-38
20
20.2877829489452
30
0
41
1
10
-38
20
20.2916006547412
30
0
41
1
10
-38
20
20.2923634159133
30
0
41
1
10
-38
20
20.2923482445531
30
0
0
SPLINE
5
171
100
AcDbEntity
8
1
62
256
6
ByLayer
370
18
48
1
60
0
100
AcDbSpline
70
4
71
3
72
16
73
12
40
0
40
0
40
0
40
0
40
0.263910141213615
40
0.263910141213615
40
0.480874792261459
40
0.480874792261459
40
0.700367114785085
40
0.700367114785085
40
0.897422503094237
40
0.897422503094237
40
1
40
1
40
1
40
1
41
1
10
11.134024575235
20
20.2591909196422
30
0
41
1
10
11.0557001694516
20
20.282217631784
30
0
41
1
10
10.9766260567424
20
20.2935907787297
30
0
41
1
10
10.8344694163384
20
20.2823498626206
30
0
41
1
10
10.7699257846946
20
20.2644780528766
30
0
41
1
10
10.6501226227169
20
20.1963489522003
30
0
41
1
10
10.5935700788063
20
20.1443105704906
30
0
41
1
10
10.50455659477
20
20.0190921135045
30
0
41
1
10
10.4691178191166
20
19.947378640612
30
0
41
1
10
10.4273625295671
20
19.8302155453493
30
0
41
1
10
10.4150394225423
20
19.7883941647402
30
0
41
1
10
10.4044795775837
20
19.7453767722569
30
0
0
SPLINE
5
172
100
AcDbEntity
8
1
62
256
6
ByLayer
370
18
48
1
60
0
100
AcDbSpline
70
4
71
3
72
8
73
4
40
0
40
0
40
0
40
0
40
1
40
1
40
1
40
1
41
1
10
23.6255445252828
20
-34.0934016085752
30
0
41
1
10
23.6256808431605
20
-34.0934513711296
30
0
41
1
10
23.6664412737373
20
-34.1083308805459
30
0
41
1
10
23.7521617819852
20
-34.1396229717134
30
0
0
SPLINE
5
173
100
AcDbEntity
8
1
62
256
6
ByLayer
370
18
48
1
60
0
100
AcDbSpline
70
4
71
3
72
16
73
12
40
0
40
0
40
0
40
0
40
0.113316224833596
40
0.113316224833596
40
0.252990411571581
40
0.252990411571581
40
0.473309013928343
40
0.473309013928343
40
0.896716357718895
40
0.896716357718895
40
1
40
1
40
1
40
1
41
1
10
13.4613248654052
20
30.0805927603169
30
0
41
1
10
13.4894125595718
20
30.0805927603169
30
0
41
1
10
13.517849357763
20
30.0790101689567
30
0
41
1
10
13.5767970345725
20
30.0726712338969
30
0
41
1
10
13.6072473721288
20
30.0672275748685
30
0
41
1
10
13.6769143636602
20
30.0506647867052
30
0
41
1
10
13.7128266507651
20
30.0378702684275
30
0
41
1
10
13.8014637450836
20
29.9980833386355
30
0
41
1
10
13.8423708397531
20
29.967975934908
30
0
41
1
10
13.8809034737598
20
29.9294196064672
30
0
41
1
10
13.8878971837969
20
29.9217223689309
30
0
41
1
10
13.8943375672975
20
29.9139548464691
30
0
0
SPLINE
5
174
100
AcDbEntity
8
1
62
256
6
ByLayer
370
18
48
1
60
0
100
AcDbSpline
70
4
71
3
72
26
73
22
40
0
40
0
40
0
40
0
40
0.0621074607050307
40
0.0621074607050307
40
0.101296177862838
40
0.101296177862838
40
0.140967258313853
40
0.140967258313853
40
0.187913002669454
40
0.187913002669454
40
0.386009855283698
40
0.386009855283698
40
0.582507180868774
40
0.582507180868774
40
0.753480587644249
40
0.753480587644249
40
0.886994016642592
40
0.886994016642592
40
0.993958864043795
40
0.993958864043795
40
1
40
1
40
1
40
1
41
1
10
41.9810568159353
20
-29.6102329956936
30
0
41
1
10
41.9879247850567
20
-29.6369851961605
30
0
41
1
10
41.997501483136
20
-29.6625679764712
30
0
41
1
10
42.0206678738861
20
-29.6966068970141
30
0
41
1
10
42.0317461574803
20
-29.7080363436021
30
0
41
1
10
42.0580373846205
20
-29.7241449975614
30
0
41
1
10
42.0737195924912
20
-29.7288357926311
30
0
41
1
10
42.1099780128083
20
-29.7303320486336
30
0
41
1
10
42.1312029254429
20
-29.7258778147109
30
0
41
1
10
42.2410226279873
20
-29.6948028706368
30
0
41
1
10
42.3401412695043
20
-29.67069929358
30
0
41
1
10
42.544932598138
20
-29.6766179353835
30
0
41
1
10
42.6534216436727
20
-29.686995960526
30
0
41
1
10
42.8535119996857
20
-29.7106958757938
30
0
41
1
10
42.9478003489033
20
-29.725844972351
30
0
41
1
10
43.1019386952148
20
-29.7735613561713
30
0
41
1
10
43.1660982712076
20
-29.8027329686407
30
0
41
1
10
43.2643794137572
20
-29.8713236203862
30
0
41
1
10
43.3029742655971
20
-29.9075382205244
30
0
41
1
10
43.3378224592528
20
-29.948656642442
30
0
41
1
10
43.3396343835097
20
-29.9508431258299
30
0
41
1
10
43.3414467269876
20
-29.9530176113551
30
0
0
SPLINE
5
175
100
AcDbEntity
8
1
62
256
6
ByLayer
370
18
48
1
60
0
100
AcDbSpline
70
4
71
3
72
8
73
4
40
0
40
0
40
0
40
0
40
1
40
1
40
1
40
1
41
1
10
22.92079238
20
-30.8996141556632
30
0
41
1
10
22.9876698370372
20
-31.1573850943776
30
0
41
1
10
23.0547179115325
20
-31.4152349438921
30
0
41
1
10
23.1219141648343
20
-31.6731305107616
30
0
0
SPLINE
5
176
100
AcDbEntity
8
1
62
256
6
ByLayer
370
18
48
1
60
0
100
AcDbSpline
70
4
71
3
72
8
73
4
40
0
40
0
40
0
40
0
40
1
40
1
40
1
40
1
41
1
10
23.1219141648344
20
-31.6731305107616
30
0
41
1
10
23.3668720426899
20
-31.2771209705087
30
0
41
1
10
23.629119747053
20
-30.887011031795
30
0
41
1
10
23.8962856159808
20
-30.5006323773309
30
0
0
SPLINE
5
177
100
AcDbEntity
8
1
62
256
6
ByLayer
370
18
48
1
60
0
100
AcDbSpline
70
4
71
2
72
6
73
3
40
0
40
0
40
0
40
1
40
1
40
1
41
1.02613459695995
10
40.3409413456821
20
-27.9615083890846
30
0
41
0.929569363111738
10
39.7342288143216
20
-27.8563810141645
30
0
41
0.895056437550169
10
39.0749769365624
20
-28.219145847242
30
0
0
SPLINE
5
178
100
AcDbEntity
8
1
62
256
6
ByLayer
370
18
48
1
60
0
100
AcDbSpline
70
4
71
3
72
8
73
4
40
0
40
0
40
0
40
0
40
1
40
1
40
1
40
1
41
1
10
22.9609847588647
20
31.0544615075762
30
0
41
1
10
22.9475806244986
20
31.0028429217618
30
0
41
1
10
22.9341831017393
20
30.9512270468484
30
0
41
1
10
22.92079238
20
30.8996141556632
30
0
0
SPLINE
5
179
100
AcDbEntity
8
1
62
256
6
ByLayer
370
18
48
1
60
0
100
AcDbSpline
70
4
71
3
72
16
73
12
40
0
40
0
40
0
40
0
40
0.113316224833593
40
0.113316224833593
40
0.252990411571579
40
0.252990411571579
40
0.473309013928354
40
0.473309013928354
40
0.896716357718913
40
0.896716357718913
40
1
40
1
40
1
40
1
41
1
10
10.5386751345948
20
9.34922131452512
30
0
41
1
10
10.5105874404281
20
9.34922131452512
30
0
41
1
10
10.482150642237
20
9.35431657338984
30
0
41
1
10
10.4232029654275
20
9.37467777536568
30
0
41
1
10
10.3927526278712
20
9.39213979793414
30
0
41
1
10
10.3230856363398
20
9.44503542604386
30
0
41
1
10
10.2871733492349
20
9.48569380431883
30
0
41
1
10
10.1985362549164
20
9.6110592336681
30
0
41
1
10
10.1576291602469
20
9.70465429390072
30
0
41
1
10
10.1190965262402
20
9.82244573862477
30
0
41
1
10
10.112102816203
20
9.84586944318031
30
0
41
1
10
10.1056624327025
20
9.86941261896618
30
0
0
SPLINE
5
17A
100
AcDbEntity
8
1
62
256
6
ByLayer
370
18
48
1
60
0
100
AcDbSpline
70
4
71
3
72
8
73
4
40
0
40
0
40
0
40
0
40
1
40
1
40
1
40
1
41
1
10
23.8962856159808
20
31.0760760071151
30
0
41
1
10
23.5776018829067
20
31.0760760071151
30
0
41
1
10
23.2659394678548
20
31.0688931604307
30
0
41
1
10
22.9609847588647
20
31.0544615075762
30
0
0
SPLINE
5
17B
100
AcDbEntity
8
1
62
256
6
ByLayer
370
18
48
1
60
0
100
AcDbSpline
70
4
71
3
72
16
73
12
40
0
40
0
40
0
40
0
40
0.246060262390532
40
0.246060262390532
40
0.415464025799534
40
0.415464025799534
40
0.584075425643728
40
0.584075425643728
40
0.770308475111329
40
0.770308475111329
40
1
40
1
40
1
40
1
41
1
10
40.7558811140903
20
-40.3467949360345
30
0
41
1
10
40.6317475917976
20
-40.3014802549164
30
0
41
1
10
40.4977628901452
20
-40.2525694210955
30
0
41
1
10
40.2508891797092
20
-40.1624486925586
30
0
41
1
10
40.1421992845647
20
-40.1227716750353
30
0
41
1
10
39.9272430655132
20
-40.0443023595694
30
0
41
1
10
39.8186347809092
20
-40.0046551338021
30
0
41
1
10
39.6020312157101
20
-39.9255844580912
30
0
41
1
10
39.4921088351569
20
-39.8854575243635
30
0
41
1
10
39.2727464304063
20
-39.8053797400793
30
0
41
1
10
39.166838380396
20
-39.7667182292681
30
0
41
1
10
39.0621311351654
20
-39.7284950697157
30
0
0
SPLINE
5
17C
100
AcDbEntity
8
1
62
256
6
ByLayer
370
18
48
1
60
0
100
AcDbSpline
70
4
71
3
72
8
73
4
40
0
40
0
40
0
40
0
40
1
40
1
40
1
40
1
41
1
10
23.7521617819852
20
-34.1396229717135
30
0
41
1
10
23.5397218291198
20
-33.3150442769904
30
0
41
1
10
23.3294343791297
20
-32.4928728963431
30
0
41
1
10
23.1219141648344
20
-31.6731305107616
30
0
0
SPLINE
5
17D
100
AcDbEntity
8
1
62
256
6
ByLayer
370
18
48
1
60
0
100
AcDbSpline
70
4
71
3
72
10
73
6
40
0
40
0
40
0
40
0
40
0.573565230694857
40
0.573565230694857
40
1
40
1
40
1
40
1
41
1
10
13.8943375672974
20
21.0401816871777
30
0
41
1
10
13.8463445787262
20
21.0796283794037
30
0
41
1
10
13.7780102352029
20
21.1353313584606
30
0
41
1
10
13.6250883068771
20
21.2487586970678
30
0
41
1
10
13.5471921982104
20
21.3044749970785
30
0
41
1
10
13.4613248654052
20
21.3694939161262
30
0
0
SPLINE
5
17E
100
AcDbEntity
8
1
62
256
6
ByLayer
370
18
48
1
60
0
100
AcDbSpline
70
4
71
3
72
10
73
6
40
0
40
0
40
0
40
0
40
0.5
40
0.5
40
1
40
1
40
1
40
1
41
1
10
39.0749769365571
20
-28.219145847245
30
0
41
1
10
39.4338940581893
20
-27.4519112615121
30
0
41
1
10
39.9705603275397
20
-26.7870124701281
30
0
41
1
10
41.1770839211159
20
-25.6252127009469
30
0
41
1
10
41.9116524735429
20
-25.1736755376422
30
0
41
1
10
42.7224692559108
20
-24.9117999356527
30
0
0
SPLINE
5
17F
100
AcDbEntity
8
1
62
256
6
ByLayer
370
18
48
1
60
0
100
AcDbSpline
70
4
71
3
72
16
73
12
40
0
40
0
40
0
40
0
40
0.113316224833594
40
0.113316224833594
40
0.252990411571577
40
0.252990411571577
40
0.473309013928351
40
0.473309013928351
40
0.896716357718897
40
0.896716357718897
40
1
40
1
40
1
40
1
41
1
10
10.5386751345948
20
-30.0805927603169
30
0
41
1
10
10.5105874404281
20
-30.0805927603169
30
0
41
1
10
10.482150642237
20
-30.0790101689566
30
0
41
1
10
10.4232029654275
20
-30.0726712338969
30
0
41
1
10
10.3927526278712
20
-30.0672275748685
30
0
41
1
10
10.3230856363398
20
-30.0506647867052
30
0
41
1
10
10.2871733492349
20
-30.0378702684275
30
0
41
1
10
10.1985362549164
20
-29.9980833386355
30
0
41
1
10
10.1576291602469
20
-29.967975934908
30
0
41
1
10
10.1190965262402
20
-29.9294196064672
30
0
41
1
10
10.112102816203
20
-29.9217223689309
30
0
41
1
10
10.1056624327025
20
-29.9139548464691
30
0
0
SPLINE
5
180
100
AcDbEntity
8
1
62
256
6
ByLayer
370
18
48
1
60
0
100
AcDbSpline
70
4
71
3
72
10
73
6
40
0
40
0
40
0
40
0
40
0.5
40
0.5
40
1
40
1
40
1
40
1
41
1
10
43.1967365983796
20
-24.7723375485835
30
0
41
1
10
44.1898127853989
20
-24.5082189616049
30
0
41
1
10
45.2669032334828
20
-24.5530020184979
30
0
41
1
10
47.0597013309003
20
-25.507433080235
30
0
41
1
10
47.743957765392
20
-26.3694055006065
30
0
41
1
10
47.9567225702196
20
-27.3745060077741
30
0
0
SPLINE
5
181
100
AcDbEntity
8
1
62
256
6
ByLayer
370
18
48
1
60
0
100
AcDbSpline
70
4
71
3
72
14
73
10
40
0
40
0
40
0
40
0
40
0.264682281129105
40
0.264682281129105
40
0.529206797196864
40
0.529206797196864
40
0.796215005013495
40
0.796215005013495
40
1
40
1
40
1
40
1
41
1
10
22.92079238
20
-30.8996141556632
30
0
41
1
10
22.4918347090297
20
-30.8782470120691
30
0
41
1
10
22.0760939855286
20
-30.8416690423415
30
0
41
1
10
21.3399746287024
20
-30.7377355602684
30
0
41
1
10
21.0095242838746
20
-30.6687823920308
30
0
41
1
10
20.4724242383792
20
-30.4990243000185
30
0
41
1
10
20.2597267854547
20
-30.3955004707743
30
0
41
1
10
20.0093210835962
20
-30.1888506958789
30
0
41
1
10
19.9399854717531
20
-30.0897854016817
30
0
41
1
10
19.9115068236138
20
-29.9850116132027
30
0
0
SPLINE
5
182
100
AcDbEntity
8
1
62
256
6
ByLayer
370
18
48
1
60
0
100
AcDbSpline
70
4
71
2
72
6
73
3
40
0
40
0
40
0
40
1
40
1
40
1
41
1.02613459695995
10
47.7437085552711
20
-28.7060223550552
30
0
41
0.956794783770267
10
47.9275296551949
20
-28.0327164576451
30
0
41
0.919449938786724
10
47.956722545173
20
-27.3745065725004
30
0
0
SPLINE
5
183
100
AcDbEntity
8
1
62
256
6
ByLayer
370
18
48
1
60
0
100
AcDbSpline
70
4
71
2
72
6
73
3
40
0
40
0
40
0
40
1
40
1
40
1
41
0.876721052514047
10
41.9810568159289
20
-29.6102329956927
30
0
41
0.864489916912222
10
41.614437258126
20
-28.1821718422471
30
0
41
1.02613459695995
10
40.5223798881413
20
-27.9929469315449
30
0
0
SPLINE
5
184
100
AcDbEntity
8
1
62
256
6
ByLayer
370
18
48
1
60
0
100
AcDbSpline
70
4
71
3
72
12
73
8
40
0
40
0
40
0
40
0
40
0.305060769594293
40
0.305060769594293
40
0.610121492348667
40
0.610121492348667
40
1
40
1
40
1
40
1
41
1
10
42.9606054254764
20
-24.8383967726118
30
0
41
1
10
42.9845316375016
20
-24.8313688396605
30
0
41
1
10
43.0084850250482
20
-24.824435973847
30
0
41
1
10
43.0564435537142
20
-24.8107598724656
30
0
41
1
10
43.0804490726548
20
-24.8040165337331
30
0
41
1
10
43.1351912759338
20
-24.7888702796398
30
0
41
1
10
43.1659444785913
20
-24.7805270221276
30
0
41
1
10
43.1967365983783
20
-24.7723375485762
30
0
0
SPLINE
5
185
100
AcDbEntity
8
1
62
256
6
ByLayer
370
18
48
1
60
0
100
AcDbSpline
70
4
71
3
72
26
73
22
40
0
40
0
40
0
40
0
40
0.0060411359558856
40
0.0060411359558856
40
0.113005983357425
40
0.113005983357425
40
0.246519412353878
40
0.246519412353878
40
0.417492819128207
40
0.417492819128207
40
0.613990144713106
40
0.613990144713106
40
0.812086997327169
40
0.812086997327169
40
0.859032741682489
40
0.859032741682489
40
0.89870382213329
40
0.89870382213329
40
0.937892539290874
40
0.937892539290874
40
1
40
1
40
1
40
1
41
1
10
40.6317136708154
20
-39.8783158925878
30
0
41
1
10
40.6291171681133
20
-39.8790136509436
30
0
41
1
10
40.6265143840619
20
-39.879723954494
30
0
41
1
10
40.5769109401041
20
-39.8926515428853
30
0
41
1
10
40.5264340284101
20
-39.8999589375765
30
0
41
1
10
40.4092275429487
20
-39.9006886467614
30
0
41
1
10
40.3402159487144
20
-39.8892891643586
30
0
41
1
10
40.1849094528175
20
-39.8458515167984
30
0
41
1
10
40.0964580844979
20
-39.8093225369569
30
0
41
1
10
39.9119580643197
20
-39.7285178330408
30
0
41
1
10
39.8124997368946
20
-39.6850618001845
30
0
41
1
10
39.6304187387031
20
-39.5959590221433
30
0
41
1
10
39.5554172460112
20
-39.5317255228817
30
0
41
1
10
39.473803063297
20
-39.4594883724836
30
0
41
1
10
39.4571888296224
20
-39.4470544617042
30
0
41
1
10
39.4240136094328
20
-39.4342649600972
30
0
41
1
10
39.4075366792388
20
-39.4324850997752
30
0
41
1
10
39.3755766360753
20
-39.4371403693339
30
0
41
1
10
39.3596683788347
20
-39.4434023071506
30
0
41
1
10
39.32107388304
20
-39.4658739510457
30
0
41
1
10
39.2990701990985
20
-39.4858091383223
30
0
41
1
10
39.2788750906018
20
-39.5078720169769
30
0
0
SPLINE
5
186
100
AcDbEntity
8
1
62
256
6
ByLayer
370
18
48
1
60
0
100
AcDbSpline
70
4
71
3
72
12
73
8
40
0
40
0
40
0
40
0
40
0.139434664363113
40
0.412402441786117
40
0.685370219209122
40
0.958337996632126
40
1
40
1
40
1
40
1
41
1
10
42.9606054240378
20
-24.8383967742522
30
0
41
1
10
42.8013057379344
20
-24.9312907147326
30
0
41
1
10
42.3390141820131
20
-25.2332703785373
30
0
41
1
10
41.6341083427463
20
-25.853645203092
30
0
41
1
10
40.7341167156029
20
-27.2224275796797
30
0
41
1
10
40.5676443483226
20
-27.6315361120569
30
0
41
1
10
40.447756685659
20
-27.9358856325339
30
0
41
1
10
40.4316606169118
20
-27.9772276603146
30
0
0
SPLINE
5
187
100
AcDbEntity
8
1
62
256
6
ByLayer
370
18
48
1
60
0
100
AcDbSpline
70
4
71
3
72
10
73
6
40
0
40
0
40
0
40
0
40
0.406434782913203
40
0.406434782913203
40
1
40
1
40
1
40
1
41
1
10
13.4613248654052
20
19.4372396071259
30
0
41
1
10
13.5445600082496
20
19.5002654265816
30
0
41
1
10
13.6195895752656
20
19.5840144784503
30
0
41
1
10
13.7747384129069
20
19.8110073784322
30
0
41
1
10
13.8452864320335
20
19.9677891804822
30
0
41
1
10
13.8943375672975
20
20.1324515831234
30
0
0
SPLINE
5
188
100
AcDbEntity
8
1
62
256
6
ByLayer
370
18
48
1
60
0
100
AcDbSpline
70
4
71
2
72
6
73
3
40
0
40
0
40
0
40
1
40
1
40
1
41
0.876721052514089
10
39.2788750905993
20
-39.5078720169711
30
0
41
0.875498879558226
10
39.1725088739498
20
-39.6240756477291
30
0
41
0.876012791491757
10
39.0621311351786
20
-39.7284950697036
30
0
0
SPLINE
5
189
100
AcDbEntity
8
1
62
256
6
ByLayer
370
18
48
1
60
0
100
AcDbSpline
70
4
71
3
72
10
73
6
40
0
40
0
40
0
40
0
40
0.563253738015378
40
0.563253738015378
40
1
40
1
40
1
40
1
41
1
10
10.1056624327026
20
20.1324515831236
30
0
41
1
10
10.1522667730003
20
19.9760029585275
30
0
41
1
10
10.2181997150426
20
19.8269086326718
30
0
41
1
10
10.3695745193898
20
19.5962808154733
30
0
41
1
10
10.4493853955874
20
19.5048499791108
30
0
41
1
10
10.5386751345948
20
19.4372396071259
30
0
0
SPLINE
5
18A
100
AcDbEntity
8
1
62
256
6
ByLayer
370
18
48
1
60
0
100
AcDbSpline
70
4
71
3
72
12
73
8
40
0
40
0
40
0
40
0
40
0.174277649809145
40
0.436193375862979
40
0.698109101916813
40
0.960024827970648
40
1
40
1
40
1
40
1
41
1.02613459695995
10
43.196736598372
20
-24.7723375485862
30
0
41
1.02613459695995
10
42.9870274969812
20
-24.8859595381011
30
0
41
1.02613459695995
10
42.4731332002844
20
-25.2107943207504
30
0
41
1.02613459695995
10
41.724827613976
20
-25.8693644743219
30
0
41
1.02613459695995
10
40.8248359868325
20
-27.2381468509096
30
0
41
1.02613459695995
10
40.6583636195522
20
-27.6472553832867
30
0
41
1.02613459695995
10
40.5384759568887
20
-27.9516049037637
30
0
41
1.02613459695995
10
40.5223798881414
20
-27.9929469315444
30
0
0
SPLINE
5
18B
100
AcDbEntity
8
1
62
256
6
ByLayer
370
18
48
1
60
0
100
AcDbSpline
70
4
71
3
72
12
73
8
40
0
40
0
40
0
40
0
40
0.100508419385555
40
0.385823441270929
40
0.671138463156304
40
0.956453485041679
40
1
40
1
40
1
40
1
41
1
10
42.7224692526128
20
-24.9117999331562
30
0
41
1
10
42.6139844012643
20
-24.9797337453274
30
0
41
1
10
42.2037855571438
20
-25.2567229809351
30
0
41
1
10
41.5433890715167
20
-25.8379259318621
30
0
41
1
10
40.6433974443732
20
-27.2067083084498
30
0
41
1
10
40.4769250770929
20
-27.615816840827
30
0
41
1
10
40.3570374144293
20
-27.9201663613039
30
0
41
1
10
40.3409413456821
20
-27.9615083890846
30
0
0
SPLINE
5
18C
100
AcDbEntity
8
1
62
256
6
ByLayer
370
18
48
1
60
0
100
AcDbSpline
70
4
71
3
72
15
73
11
40
0
40
0
40
0
40
0
40
0.281039629141019
40
0.281039629141019
40
0.562712048900373
40
0.562712048900373
40
0.835250831097508
40
0.835250831097508
40
0.835250831097508
40
1
40
1
40
1
40
1
41
1
10
19.9115068236138
20
29.9850116132027
30
0
41
1
10
19.9505361776874
20
30.1286017607468
30
0
41
1
10
20.0674973665296
20
30.2617723075542
30
0
41
1
10
20.4463314652044
20
30.489895050164
30
0
41
1
10
20.7141452574929
20
30.5880850478213
30
0
41
1
10
21.3538238361363
20
30.741378992888
30
0
41
1
10
21.7310620960588
20
30.8001569918553
30
0
41
1
10
22.1388781334302
20
30.8415901871074
30
0
41
1
10
22.3877509516846
20
30.8668751075782
30
0
41
1
10
22.6513106929054
20
30.88619079412
30
0
41
1
10
22.92079238
20
30.8996141556632
30
0
0
SPLINE
5
18D
100
AcDbEntity
8
1
62
256
6
ByLayer
370
18
48
1
60
0
100
AcDbSpline
70
4
71
3
72
16
73
12
40
0
40
0
40
0
40
0
40
0.113316224833592
40
0.113316224833592
40
0.252990411571568
40
0.252990411571568
40
0.473309013928318
40
0.473309013928318
40
0.896716357718825
40
0.896716357718825
40
1
40
1
40
1
40
1
41
1
10
13.4613248654052
20
-9.3492213145251
30
0
41
1
10
13.4894125595718
20
-9.3492213145251
30
0
41
1
10
13.517849357763
20
-9.35431657338981
30
0
41
1
10
13.5767970345725
20
-9.37467777536565
30
0
41
1
10
13.6072473721288
20
-9.39213979793414
30
0
41
1
10
13.6769143636602
20
-9.44503542604383
30
0
41
1
10
13.7128266507651
20
-9.4856938043188
30
0
41
1
10
13.8014637450836
20
-9.61105923366807
30
0
41
1
10
13.842370839753
20
-9.70465429390066
30
0
41
1
10
13.8809034737598
20
-9.82244573862474
30
0
41
1
10
13.8878971837969
20
-9.84586944318031
30
0
41
1
10
13.8943375672975
20
-9.86941261896621
30
0
0
SPLINE
5
18E
100
AcDbEntity
8
1
62
256
6
ByLayer
370
18
48
1
60
0
100
AcDbSpline
70
4
71
3
72
16
73
12
40
0
40
0
40
0
40
0
40
0.463423600832262
40
0.463423600832262
40
0.646243952932856
40
0.646243952932856
40
0.831657283224518
40
0.831657283224518
40
0.94750434429086
40
0.94750434429086
40
1
40
1
40
1
40
1
41
1
10
10.1056624327026
20
29.9139548464691
30
0
41
1
10
10.1343390747265
20
29.9485407466772
30
0
41
1
10
10.1736499876091
20
29.982269090612
30
0
41
1
10
10.2546180633468
20
30.0239686896252
30
0
41
1
10
10.2809130191141
20
30.0352936109065
30
0
41
1
10
10.3420137796675
20
30.0555697561518
30
0
41
1
10
10.3777400094532
20
30.0647246060481
30
0
41
1
10
10.443351653645
20
30.0751823136668
30
0
41
1
10
10.4710402024013
20
30.0781795790239
30
0
41
1
10
10.5123223625249
20
30.0802576981002
30
0
41
1
10
10.5255210031399
20
30.0805927603169
30
0
41
1
10
10.5386751345948
20
30.0805927603169
30
0
0
SPLINE
5
18F
100
AcDbEntity
8
1
62
256
6
ByLayer
370
18
48
1
60
0
100
AcDbSpline
70
4
71
3
72
8
73
4
40
0
40
0
40
0
40
0
40
1
40
1
40
1
40
1
41
1
10
40.7558811100451
20
-40.346794923999
30
0
41
1
10
40.7089685454137
20
-40.198266465906
30
0
41
1
10
40.6672840944405
20
-40.0436501578874
30
0
41
1
10
40.6317136732161
20
-39.8783159037465
30
0
0
SPLINE
5
190
100
AcDbEntity
8
1
62
256
6
ByLayer
370
18
48
1
60
0
100
AcDbSpline
70
4
71
3
72
10
73
6
40
0
40
0
40
0
40
0
40
0.415665307772108
40
0.415665307772108
40
1
40
1
40
1
40
1
41
1
10
10.5386751345948
20
21.3694939161262
30
0
41
1
10
10.4549244770343
20
21.3060777478789
30
0
41
1
10
10.3787459731138
20
21.2515288076611
30
0
41
1
10
10.2245337544041
20
21.1373152812055
30
0
41
1
10
10.1545345289016
20
21.0803509409494
30
0
41
1
10
10.1056624327025
20
21.0401816871769
30
0
0
SPLINE
5
191
100
AcDbEntity
8
1
62
256
6
ByLayer
370
18
48
1
60
0
100
AcDbSpline
70
4
71
3
72
12
73
8
40
0
40
0
40
0
40
0
40
0.300242187229597
40
0.300242187229597
40
0.600484313909054
40
0.600484313909054
40
1
40
1
40
1
40
1
41
1
10
42.7224692539766
20
-24.9117999314799
30
0
41
1
10
42.7462050529563
20
-24.9041338017546
30
0
41
1
10
42.7699712857054
20
-24.8965641721408
30
0
41
1
10
42.8175618047455
20
-24.8816171939898
30
0
41
1
10
42.8413864828742
20
-24.8742397272207
30
0
41
1
10
42.8969785349909
20
-24.8572685815853
30
0
41
1
10
42.9287683179343
20
-24.8477484061312
30
0
41
1
10
42.9606054263834
20
-24.838396776891
30
0
0
SPLINE
5
192
100
AcDbEntity
8
1
62
256
6
ByLayer
370
18
48
1
60
0
100
AcDbSpline
70
4
71
3
72
10
73
6
40
0
40
0
40
0
40
0
40
0.425348967069602
40
0.850697934139204
40
1
40
1
40
1
40
1
41
1
10
47.7437085552712
20
-28.7060223550552
30
0
41
1
10
47.1345054527634
20
-28.5213874698068
30
0
41
1
10
45.8707013855587
20
-28.3817910265522
30
0
41
1
10
44.3149489637659
20
-29.1028580242546
30
0
41
1
10
43.5429093910412
20
-29.7453225734869
30
0
41
1
10
43.3414467345685
20
-29.9530176035397
30
0
0
SPLINE
5
193
100
AcDbEntity
8
1
62
256
6
ByLayer
370
18
48
1
60
0
100
AcDbSpline
70
4
71
3
72
16
73
12
40
0
40
0
40
0
40
0
40
0.463423600832241
40
0.463423600832241
40
0.646243952932834
40
0.646243952932834
40
0.831657283224497
40
0.831657283224497
40
0.947504344290847
40
0.947504344290847
40
1
40
1
40
1
40
1
41
1
10
13.8943375672974
20
-29.9139548464691
30
0
41
1
10
13.8656609252734
20
-29.9485407466772
30
0
41
1
10
13.8263500123909
20
-29.982269090612
30
0
41
1
10
13.7453819366532
20
-30.0239686896252
30
0
41
1
10
13.7190869808859
20
-30.0352936109065
30
0
41
1
10
13.6579862203325
20
-30.0555697561518
30
0
41
1
10
13.6222599905467
20
-30.0647246060481
30
0
41
1
10
13.556648346355
20
-30.0751823136668
30
0
41
1
10
13.5289597975987
20
-30.0781795790239
30
0
41
1
10
13.4876776374751
20
-30.0802576981002
30
0
41
1
10
13.47447899686
20
-30.0805927603169
30
0
41
1
10
13.4613248654052
20
-30.0805927603169
30
0
0
SPLINE
5
194
100
AcDbEntity
8
1
62
256
6
ByLayer
370
18
48
1
60
0
100
AcDbSpline
70
4
71
3
72
16
73
12
40
0
40
0
40
0
40
0
40
0.463423600832209
40
0.463423600832209
40
0.646243952932815
40
0.646243952932815
40
0.831657283224495
40
0.831657283224495
40
0.947504344290837
40
0.947504344290837
40
1
40
1
40
1
40
1
41
1
10
13.8943375672974
20
9.86941261896621
30
0
41
1
10
13.8656609252734
20
9.76458357826289
30
0
41
1
10
13.8263500123909
20
9.66039292789941
30
0
41
1
10
13.7453819366532
20
9.52957658281042
30
0
41
1
10
13.7190869808859
20
9.49380155568073
30
0
41
1
10
13.6579862203325
20
9.42941539787637
30
0
41
1
10
13.6222599905468
20
9.40014891155712
30
0
41
1
10
13.556648346355
20
9.36662118733784
30
0
41
1
10
13.5289597975987
20
9.35698328824239
30
0
41
1
10
13.4876776374751
20
9.35029954873104
30
0
41
1
10
13.4744789968601
20
9.34922131452501
30
0
41
1
10
13.4613248654052
20
9.34922131452501
30
0
0
SPLINE
5
195
100
AcDbEntity
8
1
62
256
6
ByLayer
370
18
48
1
60
0
100
AcDbSpline
70
4
71
3
72
16
73
12
40
0
40
0
40
0
40
0
40
0.463423600832241
40
0.463423600832241
40
0.646243952932837
40
0.646243952932837
40
0.831657283224505
40
0.831657283224505
40
0.947504344290848
40
0.947504344290848
40
1
40
1
40
1
40
1
41
1
10
10.1056624327026
20
-9.86941261896621
30
0
41
1
10
10.1343390747265
20
-9.76458357826289
30
0
41
1
10
10.1736499876091
20
-9.66039292789938
30
0
41
1
10
10.2546180633468
20
-9.52957658281042
30
0
41
1
10
10.2809130191141
20
-9.49380155568073
30
0
41
1
10
10.3420137796675
20
-9.42941539787637
30
0
41
1
10
10.3777400094532
20
-9.40014891155712
30
0
41
1
10
10.4433516536449
20
-9.36662118733787
30
0
41
1
10
10.4710402024013
20
-9.35698328824239
30
0
41
1
10
10.5123223625249
20
-9.35029954873107
30
0
41
1
10
10.5255210031399
20
-9.34922131452504
30
0
41
1
10
10.5386751345948
20
-9.34922131452504
30
0
0
SPLINE
5
196
100
AcDbEntity
8
SK1
62
256
6
ByLayer
370
18
48
1
60
0
100
AcDbSpline
70
4
71
3
72
22
73
18
40
0
40
0
40
0
40
0
40
0.025518692999354
40
0.025518692999354
40
0.0515625307794633
40
0.0515625307794633
40
0.0689220502117165
40
0.0689220502117165
40
0.0862030429090035
40
0.0862030429090035
40
0.113761926258803
40
0.113761926258803
40
0.167639902693809
40
0.167639902693809
40
0.357269752158031
40
0.357269752158031
40
1
40
1
40
1
40
1
41
1
10
-0.394976888875277
20
-6.326943090669
30
0
41
1
10
-0.389699799773268
20
-6.32229605774103
30
0
41
1
10
-0.38394554029108
20
-6.31808234313019
30
0
41
1
10
-0.371336208800898
20
-6.31155719556298
30
0
41
1
10
-0.364237316839024
20
-6.30923328231674
30
0
41
1
10
-0.35209572007625
20
-6.30844589498398
30
0
41
1
10
-0.347038791108759
20
-6.3089739150856
30
0
41
1
10
-0.337436838154161
20
-6.31166640764118
30
0
41
1
10
-0.332782752688161
20
-6.31383711710231
30
0
41
1
10
-0.321723955926899
20
-6.32078578121266
30
0
41
1
10
-0.315689795621665
20
-6.32640446307903
30
0
41
1
10
-0.300083216036057
20
-6.3442802085479
30
0
41
1
10
-0.292057158925616
20
-6.35806878925098
30
0
41
1
10
-0.261294067338724
20
-6.42092251611513
30
0
41
1
10
-0.248999237994838
20
-6.47445017323312
30
0
41
1
10
-0.204624309665832
20
-6.70435570668306
30
0
41
1
10
-0.200000000000955
20
-6.88379158154922
30
0
41
1
10
-0.200000000000955
20
-7.05951756777665
30
0
0
SPLINE
5
197
100
AcDbEntity
8
SK1
62
256
6
ByLayer
370
18
48
1
60
0
100
AcDbSpline
70
4
71
3
72
22
73
18
40
0
40
0
40
0
40
0
40
0.366862607601256
40
0.366862607601256
40
0.737339621375052
40
0.737339621375052
40
0.838459586400285
40
0.838459586400285
40
0.872990642836393
40
0.872990642836393
40
0.908114554314301
40
0.908114554314301
40
0.93841147631739
40
0.93841147631739
40
0.978567405872927
40
0.978567405872927
40
1
40
1
40
1
40
1
41
1
10
-1.30710678118655
20
-4.81101329740289
30
0
41
1
10
-1.26411319574365
20
-5.05427021725674
30
0
41
1
10
-1.21291926611929
20
-5.29463858107241
30
0
41
1
10
-1.07751639291712
20
-5.76447191425098
30
0
41
1
10
-0.99999394263088
20
-6.0024064332149
30
0
41
1
10
-0.818580317119483
20
-6.26150782359156
30
0
41
1
10
-0.772786229091963
20
-6.31609141287933
30
0
41
1
10
-0.693958175551444
20
-6.37002132562083
30
0
41
1
10
-0.67174289599555
20
-6.38213989760789
30
0
41
1
10
-0.624176343099663
20
-6.39933264200099
30
0
41
1
10
-0.598041368844491
20
-6.40433410743103
30
0
41
1
10
-0.550095873812666
20
-6.4042038836908
30
0
41
1
10
-0.52764508925199
20
-6.40038614973912
30
0
41
1
10
-0.479150674129698
20
-6.38487542657816
30
0
41
1
10
-0.453444961156862
20
-6.37100758594852
30
0
41
1
10
-0.417985764291785
20
-6.34622757774423
30
0
41
1
10
-0.406197231050186
20
-6.33682378409867
30
0
41
1
10
-0.394976888874737
20
-6.32694309068151
30
0
0
SPLINE
5
198
100
AcDbEntity
8
SK1
62
256
6
ByLayer
370
18
48
1
60
0
100
AcDbSpline
70
4
71
3
72
10
73
6
40
0
40
0
40
0
40
0
40
0.5
40
0.5
40
1
40
1
40
1
40
1
41
1
10
-1.30710678118655
20
-4.81101329740289
30
0
41
1
10
-1.57713284158248
20
-3.28321078789992
30
0
41
1
10
-1.79449339715788
20
-1.64680798700616
30
0
41
1
10
-1.79438545511854
20
1.6481258022005
30
0
41
1
10
-1.57704898370505
20
3.28368386467716
30
0
41
1
10
-1.30710678118663
20
4.81101321788435
30
0
0
SPLINE
5
199
100
AcDbEntity
8
SK1
62
256
6
ByLayer
370
18
48
1
60
0
100
AcDbSpline
70
4
71
3
72
22
73
18
40
0
40
0
40
0
40
0
40
0.038427246458711
40
0.038427246458711
40
0.0775026456766427
40
0.0775026456766427
40
0.106475059033524
40
0.106475059033524
40
0.135305917881828
40
0.135305917881828
40
0.182167074412018
40
0.182167074412018
40
0.275660663800869
40
0.275660663800869
40
0.616530102228659
40
0.616530102228659
40
1
40
1
40
1
40
1
41
1
10
-0.394976888875306
20
6.32694279392757
30
0
41
1
10
-0.414867561016194
20
6.34445862132063
30
0
41
1
10
-0.436644357284194
20
6.36058691921457
30
0
41
1
10
-0.484524151203374
20
6.3868168818706
30
0
41
1
10
-0.511419954277358
20
6.39702622866628
30
0
41
1
10
-0.560078773491597
20
6.40490957850619
30
0
41
1
10
-0.58185248496946
20
6.40512642059926
30
0
41
1
10
-0.623683911276828
20
6.39912423041605
30
0
41
1
10
-0.644207278837683
20
6.39293597600829
30
0
41
1
10
-0.694134540330907
20
6.37121870092642
30
0
41
1
10
-0.722113964046542
20
6.35215911803172
30
0
41
1
10
-0.796598131612939
20
6.28903777408343
30
0
41
1
10
-0.836555557792792
20
6.23798237717094
30
0
41
1
10
-0.997773060879837
20
5.995390913813
30
0
41
1
10
-1.07178904300878
20
5.77805690787602
30
0
41
1
10
-1.20827315239353
20
5.31693201445015
30
0
41
1
10
-1.26212533694985
20
5.06551762472202
30
0
41
1
10
-1.30710678118655
20
4.81101321788441
30
0
0
SPLINE
5
19A
100
AcDbEntity
8
SK1
62
256
6
ByLayer
370
18
48
1
60
0
100
AcDbSpline
70
4
71
3
72
26
73
22
40
0
40
0
40
0
40
0
40
0.462420532187944
40
0.462420532187944
40
0.662465761698283
40
0.662465761698283
40
0.830433309169693
40
0.830433309169693
40
0.87601894963741
40
0.87601894963741
40
0.905535493032455
40
0.905535493032455
40
0.92577818311669
40
0.92577818311669
40
0.946307111163799
40
0.946307111163799
40
0.963675313617857
40
0.963675313617857
40
0.991859972782862
40
0.991859972782862
40
1
40
1
40
1
40
1
41
1
10
-0.199999999999989
20
7.05951749342083
30
0
41
1
10
-0.199999999999989
20
6.93273416480454
30
0
41
1
10
-0.203968014086513
20
6.80463429773329
30
0
41
1
10
-0.223222206303944
20
6.62063667774228
30
0
41
1
10
-0.230822389897867
20
6.56482953243432
30
0
41
1
10
-0.252035566714568
20
6.46316921019911
30
0
41
1
10
-0.263798801619998
20
6.41617607028249
30
0
41
1
10
-0.290531391619595
20
6.36108887379029
30
0
41
1
10
-0.29710300077241
20
6.34947181616241
30
0
41
1
10
-0.310313928765424
20
6.33213067856883
30
0
41
1
10
-0.316208846631128
20
6.32567949173321
30
0
41
1
10
-0.327595492701022
20
6.31681373578161
30
0
41
1
10
-0.332739264568545
20
6.31372817209197
30
0
41
1
10
-0.343644708736434
20
6.30958040401461
30
0
41
1
10
-0.349575964479982
20
6.30853210514005
30
0
41
1
10
-0.360183897281416
20
6.30881607347521
30
0
41
1
10
-0.365032052617437
20
6.30978620719449
30
0
41
1
10
-0.376922909163994
20
6.31387292952667
30
0
41
1
10
-0.383695246431131
20
6.3179475897727
30
0
41
1
10
-0.39156461480826
20
6.32402624429125
30
0
41
1
10
-0.393293161608796
20
6.32546009510432
30
0
41
1
10
-0.394976888875277
20
6.32694279392757
30
0
0
SPLINE
5
19B
100
AcDbEntity
8
1
62
256
6
ByLayer
370
18
48
1
60
0
100
AcDbSpline
70
4
71
3
72
10
73
6
40
0
40
0
40
0
40
0
40
0.560518156563273
40
0.560518156563273
40
1
40
1
40
1
40
1
41
1
10
57.2079340442012
20
-34.976597497976
30
0
41
1
10
57.524892390897
20
-35.2162535142781
30
0
41
1
10
57.858626585192
20
-35.4308663420271
30
0
41
1
10
58.4425941208515
20
-35.7273469629455
30
0
41
1
10
58.7001975715617
20
-35.8296709642707
30
0
41
1
10
58.9408771441862
20
-35.9009650470939
30
0
0
SPLINE
5
19C
100
AcDbEntity
8
1
62
256
6
ByLayer
370
18
48
1
60
0
100
AcDbSpline
70
4
71
3
72
12
73
8
40
0
40
0
40
0
40
0
40
0.501637567130155
40
0.501637567130155
40
0.886957471304443
40
0.886957471304443
40
1
40
1
40
1
40
1
41
1
10
45.7428868851699
20
-34.3007627373416
30
0
41
1
10
45.9381870552803
20
-34.3597039845581
30
0
41
1
10
46.1488437782418
20
-34.4041352703468
30
0
41
1
10
46.528786395401
20
-34.4381660171149
30
0
41
1
10
46.7000439764346
20
-34.4379870641495
30
0
41
1
10
46.9126261108295
20
-34.4144123562026
30
0
41
1
10
46.9609091464739
20
-34.4074453182984
30
0
41
1
10
47.0082975353969
20
-34.3989561331948
30
0
0
SPLINE
5
19D
100
AcDbEntity
8
1
62
256
6
ByLayer
370
18
48
1
60
0
100
AcDbSpline
70
4
71
3
72
8
73
4
40
0
40
0
40
0
40
0
40
1
40
1
40
1
40
1
41
1
10
46.1272810855726
20
-39.508617150289
30
0
41
1
10
46.513716077133
20
-39.9937965512951
30
0
41
1
10
47.0829596802138
20
-40.3575810669117
30
0
41
1
10
47.7354426055263
20
-40.5290997627755
30
0
0
SPLINE
5
19E
100
AcDbEntity
8
1
62
256
6
ByLayer
370
18
48
1
60
0
100
AcDbSpline
70
4
71
3
72
16
73
12
40
0
40
0
40
0
40
0
40
0.346164403850464
40
0.346164403850464
40
0.574058138681868
40
0.574058138681868
40
0.756733946461147
40
0.756733946461147
40
0.941193093213315
40
0.941193093213315
40
1
40
1
40
1
40
1
41
1
10
45.6978205178256
20
-30.6248128574835
30
0
41
1
10
45.4240596016089
20
-30.6753798245148
30
0
41
1
10
45.2099881938618
20
-30.7918338912881
30
0
41
1
10
44.8457125181459
20
-31.068177751371
30
0
41
1
10
44.6946450585277
20
-31.2056438978229
30
0
41
1
10
44.4191390781667
20
-31.5134488459217
30
0
41
1
10
44.2938013596245
20
-31.6752898121324
30
0
41
1
10
44.0651978860079
20
-32.035491060112
30
0
41
1
10
43.9591923282408
20
-32.2404002717044
30
0
41
1
10
43.8474014919517
20
-32.5157281989704
30
0
41
1
10
43.8219295440148
20
-32.5840075195045
30
0
41
1
10
43.7985819969299
20
-32.651769182325
30
0
0
SPLINE
5
19F
100
AcDbEntity
8
1
62
256
6
ByLayer
370
18
48
1
60
0
100
AcDbSpline
70
4
71
2
72
8
73
5
40
0
40
0
40
0
40
0.58160376007072
40
0.872405640106081
40
1
40
1
40
1
41
1.02990374504916
10
51.9581731463226
20
-33.0898852094912
30
0
41
1.02669755169729
10
53.3484446636761
20
-34.1944518784833
30
0
41
1.02039724512338
10
55.2725173744686
20
-36.1653209620394
30
0
41
1.01761724169607
10
56.1313463367031
20
-37.2280973888895
30
0
41
1.01686274329306
10
56.4030013443908
20
-37.487325588207
30
0
0
SPLINE
5
1A0
100
AcDbEntity
8
1
62
256
6
ByLayer
370
18
48
1
60
0
100
AcDbSpline
70
4
71
3
72
8
73
4
40
0
40
0
40
0
40
0
40
1
40
1
40
1
40
1
41
1
10
49.43945491433
20
-42.3155281863751
30
0
41
1
10
49.5957800380814
20
-42.1385629706703
30
0
41
1
10
49.8136909721124
20
-41.6909244391102
30
0
41
1
10
50.0504920771025
20
-41.0603191281953
30
0
0
SPLINE
5
1A1
100
AcDbEntity
8
1
62
256
6
ByLayer
370
18
48
1
60
0
100
AcDbSpline
70
4
71
3
72
15
73
11
40
0
40
0
40
0
40
0
40
0.225043240787982
40
0.225043240787982
40
0.520482827227111
40
0.520482827227111
40
0.820975208236874
40
0.820975208236874
40
0.820975208236874
40
1
40
1
40
1
40
1
41
1
10
53.658794270958
20
-37.8407610847033
30
0
41
1
10
53.667897358406
20
-37.5594743311327
30
0
41
1
10
53.632940345229
20
-37.2702565164785
30
0
41
1
10
53.4667574733624
20
-36.6351602674826
30
0
41
1
10
53.3076741409155
20
-36.2882401921433
30
0
41
1
10
52.8955159775508
20
-35.6620016382465
30
0
41
1
10
52.6345949406721
20
-35.3743566101767
30
0
41
1
10
52.3391652709594
20
-35.1378788946922
30
0
41
1
10
52.1617135120682
20
-34.9958370117896
30
0
41
1
10
51.9695997964267
20
-34.8704116387697
30
0
41
1
10
51.7687328206218
20
-34.7666911047446
30
0
0
SPLINE
5
1A2
100
AcDbEntity
8
1
62
256
6
ByLayer
370
18
48
1
60
0
100
AcDbSpline
70
4
71
3
72
12
73
8
40
0
40
0
40
0
40
0
40
0.415356444741146
40
0.415356444741146
40
0.825259843212193
40
0.825259843212193
40
1
40
1
40
1
40
1
41
1
10
45.7232009483223
20
-39.1060496669498
30
0
41
1
10
45.5894360226084
20
-38.9994344626515
30
0
41
1
10
45.4348908814108
20
-38.899483165708
30
0
41
1
10
45.1201032029348
20
-38.7315535738234
30
0
41
1
10
44.9559739549769
20
-38.660530029315
30
0
41
1
10
44.725210255818
20
-38.5774622360915
30
0
41
1
10
44.6559329476422
20
-38.5546813344222
30
0
41
1
10
44.5871778941131
20
-38.5339311804148
30
0
0
SPLINE
5
1A3
100
AcDbEntity
8
1
62
256
6
ByLayer
370
18
48
1
60
0
100
AcDbSpline
70
4
71
2
72
6
73
3
40
0
40
0
40
0
40
1
40
1
40
1
41
1.02990374504916
10
49.43945491433
20
-42.3155281863751
30
0
41
1.02990374504916
10
49.2272962376328
20
-42.5556988325539
30
0
41
1.02990374504916
10
49.0151375609356
20
-42.7958694787327
30
0
0
SPLINE
5
1A4
100
AcDbEntity
8
1
62
256
6
ByLayer
370
18
48
1
60
0
100
AcDbSpline
70
4
71
2
72
6
73
3
40
0
40
0
40
0
40
1
40
1
40
1
41
1
10
57.930856539763
20
-42.7315873243205
30
0
41
1
10
57.5723735206061
20
-42.8427144347685
30
0
41
1
10
57.2085251174013
20
-42.9375163431692
30
0
0
SPLINE
5
1A5
100
AcDbEntity
8
1
62
256
6
ByLayer
370
18
48
1
60
0
100
AcDbSpline
70
4
71
3
72
10
73
6
40
0
40
0
40
0
40
0
40
0.759976532001897
40
0.759976532001897
40
1
40
1
40
1
40
1
41
1
10
56.7437211229172
20
-39.8613053028987
30
0
41
1
10
57.0344833250718
20
-39.7946266296905
30
0
41
1
10
57.3221648115701
20
-39.7386838845733
30
0
41
1
10
57.6939749585352
20
-39.6798649348942
30
0
41
1
10
57.7827859997188
20
-39.6668529083098
30
0
41
1
10
57.8710660561664
20
-39.6549594781867
30
0
0
SPLINE
5
1A6
100
AcDbEntity
8
1
62
256
6
ByLayer
370
18
48
1
60
0
100
AcDbSpline
70
4
71
3
72
8
73
4
40
0
40
0
40
0
40
0
40
1
40
1
40
1
40
1
41
1
10
47.0082975353969
20
-34.3989561331948
30
0
41
1
10
46.6231486011812
20
-33.1876883254083
30
0
41
1
10
46.2252295531828
20
-32.0842080354056
30
0
41
1
10
45.8948990601257
20
-31.4960276178447
30
0
0
SPLINE
5
1A7
100
AcDbEntity
8
1
62
256
6
ByLayer
370
18
48
1
60
0
100
AcDbSpline
70
4
71
3
72
16
73
12
40
0
40
0
40
0
40
0
40
0.151798394921706
40
0.151798394921706
40
0.302355402833642
40
0.302355402833642
40
0.469907609657965
40
0.469907609657965
40
0.750934341340612
40
0.750934341340612
40
1
40
1
40
1
40
1
41
1
10
42.1503707744403
20
-38.6888908007895
30
0
41
1
10
42.1131292775496
20
-38.870478521592
30
0
41
1
10
42.0880736511231
20
-39.0581472597395
30
0
41
1
10
42.0702311115305
20
-39.4126654767833
30
0
41
1
10
42.0765184765882
20
-39.5845083897405
30
0
41
1
10
42.114994930721
20
-39.9152081179251
30
0
41
1
10
42.1500569001362
20
-40.0740845286768
30
0
41
1
10
42.2640882196316
20
-40.4414235662887
30
0
41
1
10
42.3547752156844
20
-40.6177868519105
30
0
41
1
10
42.5612223447404
20
-40.8922269516456
30
0
41
1
10
42.6772091226793
20
-41.0025197717314
30
0
41
1
10
42.8377319709043
20
-41.1008381154977
30
0
0
SPLINE
5
1A8
100
AcDbEntity
8
1
62
256
6
ByLayer
370
18
48
1
60
0
100
AcDbSpline
70
4
71
3
72
8
73
4
40
0
40
0
40
0
40
0
40
1
40
1
40
1
40
1
41
1
10
49.0151375609356
20
-42.7958694787327
30
0
41
1
10
51.0066276077739
20
-43.1601798614158
30
0
41
1
10
53.020745045727
20
-43.2042552188485
30
0
41
1
10
55.0338502469983
20
-42.9399022694487
30
0
0
SPLINE
5
1A9
100
AcDbEntity
8
1
62
256
6
ByLayer
370
18
48
1
60
0
100
AcDbSpline
70
4
71
3
72
8
73
4
40
0
40
0
40
0
40
0
40
1
40
1
40
1
40
1
41
1
10
45.6154538607969
20
-34.2620453493903
30
0
41
1
10
45.6575361217223
20
-34.2749175820416
30
0
41
1
10
45.7000332811728
20
-34.2878295951642
30
0
41
1
10
45.7428868851699
20
-34.3007627373416
30
0
0
SPLINE
5
1AA
100
AcDbEntity
8
1
62
256
6
ByLayer
370
18
48
1
60
0
100
AcDbSpline
70
4
71
3
72
8
73
4
40
0
40
0
40
0
40
0
40
1
40
1
40
1
40
1
41
1
10
51.7687328206218
20
-34.7666911047446
30
0
41
1
10
51.5521472299498
20
-34.6542900548638
30
0
41
1
10
51.3195181922185
20
-34.5626796908674
30
0
41
1
10
51.0812202609508
20
-34.5000381276748
30
0
0
SPLINE
5
1AB
100
AcDbEntity
8
1
62
256
6
ByLayer
370
18
48
1
60
0
100
AcDbSpline
70
4
71
2
72
8
73
5
40
0
40
0
40
0
40
0.145991510275425
40
0.563470207592133
40
1
40
1
40
1
41
1.02393576174177
10
53.2345486183594
20
-39.3947018433564
30
0
41
1.02323174907605
10
53.4983793336992
20
-39.4361365343396
30
0
41
1.02039724512338
10
54.5132154196096
20
-39.5866371145367
30
0
41
1.01644464721292
10
56.0092897088467
20
-39.7295040467943
30
0
41
1.01495409538139
10
56.7437211229376
20
-39.8613053029024
30
0
0
SPLINE
5
1AC
100
AcDbEntity
8
1
62
256
6
ByLayer
370
18
48
1
60
0
100
AcDbSpline
70
4
71
3
72
24
73
20
40
0
40
0
40
0
40
0
40
0.142613444608221
40
0.142613444608221
40
0.19079521826949
40
0.19079521826949
40
0.226951176162321
40
0.226951176162321
40
0.263437466712853
40
0.263437466712853
40
0.296119365572353
40
0.296119365572353
40
0.352324850832283
40
0.352324850832283
40
0.455294648588112
40
0.455294648588112
40
0.662705158043653
40
0.662705158043653
40
1
40
1
40
1
40
1
41
1
10
55.4856308592437
20
-40.8475000084385
30
0
41
1
10
55.4005648503626
20
-40.8374164861206
30
0
41
1
10
55.3163947396954
20
-40.823215943535
30
0
41
1
10
55.2329871046464
20
-40.7775614681712
30
0
41
1
10
55.2144263454112
20
-40.7631879002321
30
0
41
1
10
55.1928223690152
20
-40.7312753842067
30
0
41
1
10
55.1870540251283
20
-40.7150535900125
30
0
41
1
10
55.1858870242787
20
-40.6785962786342
30
0
41
1
10
55.1906851200331
20
-40.6578236346656
30
0
41
1
10
55.208710344292
20
-40.6176809571598
30
0
41
1
10
55.2210836625259
20
-40.5979699150708
30
0
41
1
10
55.2607649805622
20
-40.5458538277303
30
0
41
1
10
55.2928443643696
20
-40.513504108815
30
0
41
1
10
55.3898050283804
20
-40.4280109177245
30
0
41
1
10
55.4617690456821
20
-40.3775376442595
30
0
41
1
10
55.6815414947035
20
-40.2400499367005
30
0
41
1
10
55.8386606728651
20
-40.1636357980175
30
0
41
1
10
56.2451282883527
20
-39.9940112158295
30
0
41
1
10
56.4992177739788
20
-39.9174433320683
30
0
41
1
10
56.7437211229172
20
-39.8613053028987
30
0
0
SPLINE
5
1AD
100
AcDbEntity
8
1
62
256
6
ByLayer
370
18
48
1
60
0
100
AcDbSpline
70
4
71
3
72
8
73
4
40
0
40
0
40
0
40
0
40
1
40
1
40
1
40
1
41
1
10
57.2079340442012
20
-34.9765974979759
30
0
41
1
10
55.6087311450577
20
-33.7674209608601
30
0
41
1
10
53.8255687038569
20
-32.8079971397862
30
0
41
1
10
51.9218854497589
20
-32.1489388671734
30
0
0
SPLINE
5
1AE
100
AcDbEntity
8
1
62
256
6
ByLayer
370
18
48
1
60
0
100
AcDbSpline
70
4
71
3
72
8
73
4
40
0
40
0
40
0
40
0
40
1
40
1
40
1
40
1
41
1
10
42.1707219611137
20
-38.6035921716631
30
0
41
1
10
42.1629670294465
20
-38.6319971873425
30
0
41
1
10
42.1562076723194
20
-38.6604303716733
30
0
41
1
10
42.1503707744403
20
-38.6888908007895
30
0
0
SPLINE
5
1AF
100
AcDbEntity
8
1
62
256
6
ByLayer
370
18
48
1
60
0
100
AcDbSpline
70
4
71
3
72
8
73
4
40
0
40
0
40
0
40
0
40
1
40
1
40
1
40
1
41
1
10
43.7729548805333
20
-32.7348813755843
30
0
41
1
10
43.7807098122005
20
-32.7064763599049
30
0
41
1
10
43.7892715721061
20
-32.6787908589637
30
0
41
1
10
43.7985819969299
20
-32.651769182325
30
0
0
SPLINE
5
1B0
100
AcDbEntity
8
1
62
256
6
ByLayer
370
18
48
1
60
0
100
AcDbSpline
70
4
71
3
72
8
73
4
40
0
40
0
40
0
40
0
40
1
40
1
40
1
40
1
41
1
10
56.4030013443909
20
-37.4873255882072
30
0
41
1
10
57.5787622102172
20
-37.4038866366718
30
0
41
1
10
58.4174296293206
20
-36.384855195108
30
0
41
1
10
59.6381729855852
20
-36.491352572044
30
0
0
SPLINE
5
1B1
100
AcDbEntity
8
1
62
256
6
ByLayer
370
18
48
1
60
0
100
AcDbSpline
70
4
71
3
72
12
73
8
40
0
40
0
40
0
40
0
40
0.30757327017341
40
0.30757327017341
40
0.648852820657659
40
0.648852820657659
40
1
40
1
40
1
40
1
41
1
10
53.2345486188896
20
-39.3947018434396
30
0
41
1
10
53.314408997814
20
-39.2478850489484
30
0
41
1
10
53.3839572690859
20
-39.0949388164328
30
0
41
1
10
53.5065528278438
20
-38.7648786101834
30
0
41
1
10
53.5573794387567
20
-38.5858191014423
30
0
41
1
10
53.6307356817103
20
-38.2187925735335
30
0
41
1
10
53.6526687892064
20
-38.0293972180433
30
0
41
1
10
53.658794270958
20
-37.8407610847033
30
0
0
SPLINE
5
1B2
100
AcDbEntity
8
1
62
256
6
ByLayer
370
18
48
1
60
0
100
AcDbSpline
70
4
71
2
72
8
73
5
40
0
40
0
40
0
40
0.145991510278039
40
0.56347020758608
40
1
40
1
40
1
41
1.02393576174182
10
53.6587942704884
20
-37.8407610845411
30
0
41
1.02323174907608
10
53.9102176531137
20
-37.9276417569648
30
0
41
1.02039724512338
10
54.8743277173388
20
-38.2639432575646
30
0
41
1.01644464721285
10
56.2615186414868
20
-38.8056317171478
30
0
41
1.01495409538129
10
56.9785008833118
20
-39.0013463684703
30
0
0
SPLINE
5
1B3
100
AcDbEntity
8
1
62
256
6
ByLayer
370
18
48
1
60
0
100
AcDbSpline
70
4
71
3
72
10
73
6
40
0
40
0
40
0
40
0
40
0.679966690484303
40
0.679966690484303
40
1
40
1
40
1
40
1
41
1
10
46.1272810855726
20
-39.508617150289
30
0
41
1
10
46.0488220486739
20
-39.4101097444967
30
0
41
1
10
45.9605650982522
20
-39.3154056324611
30
0
41
1
10
45.8192022867668
20
-39.18536779144
30
0
41
1
10
45.7719964588168
20
-39.1449413516903
30
0
41
1
10
45.7232009483223
20
-39.1060496669498
30
0
0
SPLINE
5
1B4
100
AcDbEntity
8
1
62
256
6
ByLayer
370
18
48
1
60
0
100
AcDbSpline
70
4
71
3
72
8
73
4
40
0
40
0
40
0
40
0
40
1
40
1
40
1
40
1
41
1
10
59.114278366178
20
-35.9547510195006
30
0
41
1
10
59.0567240439501
20
-35.9360984261298
30
0
41
1
10
58.9989208341479
20
-35.9181587440677
30
0
41
1
10
58.9408771441862
20
-35.9009650470938
30
0
0
SPLINE
5
1B5
100
AcDbEntity
8
1
62
256
6
ByLayer
370
18
48
1
60
0
100
AcDbSpline
70
4
71
3
72
8
73
4
40
0
40
0
40
0
40
0
40
1
40
1
40
1
40
1
41
1
10
50.0504920582238
20
-41.0603191271142
30
0
41
1
10
49.8027814991962
20
-41.0461345805283
30
0
41
1
10
49.5595859548601
20
-41.0086137488258
30
0
41
1
10
49.3213906609326
20
-40.9459991659909
30
0
0
SPLINE
5
1B6
100
AcDbEntity
8
1
62
256
6
ByLayer
370
18
48
1
60
0
100
AcDbSpline
70
4
71
3
72
12
73
8
40
0
40
0
40
0
40
0
40
0.391502209781613
40
0.391502209781613
40
0.886018843801027
40
0.886018843801027
40
1
40
1
40
1
40
1
41
1
10
43.921999488655
20
-32.7556074915321
30
0
41
1
10
44.0916168884642
20
-32.8915464930664
30
0
41
1
10
44.2891761033109
20
-33.0601754933568
30
0
41
1
10
44.7744785676781
20
-33.4880457438392
30
0
41
1
10
45.0778339926697
20
-33.7643441632607
30
0
41
1
10
45.4663788377187
20
-34.1235719564086
30
0
41
1
10
45.5405979578235
20
-34.1924180318268
30
0
41
1
10
45.6154538607975
20
-34.2620453493896
30
0
0
SPLINE
5
1B7
100
AcDbEntity
8
1
62
256
6
ByLayer
370
18
48
1
60
0
100
AcDbSpline
70
4
71
3
72
8
73
4
40
0
40
0
40
0
40
0
40
1
40
1
40
1
40
1
41
1
10
51.7687328302979
20
-34.7666910523643
30
0
41
1
10
51.9039830064712
20
-34.0345348425218
30
0
41
1
10
51.9715420987714
20
-33.4365444934487
30
0
41
1
10
51.9581731463226
20
-33.0898852094912
30
0
0
SPLINE
5
1B8
100
AcDbEntity
8
1
62
256
6
ByLayer
370
18
48
1
60
0
100
AcDbSpline
70
4
71
3
72
14
73
10
40
0
40
0
40
0
40
0
40
0.304391776008979
40
0.304391776008979
40
0.577373879687163
40
0.577373879687163
40
0.851610378463917
40
0.851610378463917
40
1
40
1
40
1
40
1
41
1
10
61.3784340126775
20
-40.7579633063987
30
0
41
1
10
61.2661930864183
20
-40.8782743752517
30
0
41
1
10
61.1368427414415
20
-40.995977139842
30
0
41
1
10
60.8687894297505
20
-41.196630887521
30
0
41
1
10
60.7291267359853
20
-41.2838764524182
30
0
41
1
10
60.4446490998523
20
-41.4253887977671
30
0
41
1
10
60.295950430796
20
-41.4812612087499
30
0
41
1
10
60.0775619589167
20
-41.5366304690958
30
0
41
1
10
60.0015493798007
20
-41.550640834166
30
0
41
1
10
59.928596600354
20
-41.5590895396576
30
0
0
SPLINE
5
1B9
100
AcDbEntity
8
1
62
256
6
ByLayer
370
18
48
1
60
0
100
AcDbSpline
70
4
71
2
72
6
73
3
40
0
40
0
40
0
40
1
40
1
40
1
41
1
10
59.1155317492232
20
-35.9524704907849
30
0
41
1
10
59.3823544692217
20
-36.2130574100726
30
0
41
1
10
59.6362132688589
20
-36.4851512929052
30
0
0
SPLINE
5
1BA
100
AcDbEntity
8
1
62
256
6
ByLayer
370
18
48
1
60
0
100
AcDbSpline
70
4
71
3
72
10
73
6
40
0
40
0
40
0
40
0
40
0.715855354518053
40
0.715855354518053
40
1
40
1
40
1
40
1
41
1
10
45.9502797959963
20
-30.4199302444141
30
0
41
1
10
45.6667323269243
20
-30.3200197380235
30
0
41
1
10
45.3397830468923
20
-30.2397205298263
30
0
41
1
10
44.8451873335156
20
-30.2105468109265
30
0
41
1
10
44.6992555141892
20
-30.2116934130757
30
0
41
1
10
44.5512748521874
20
-30.2249724353309
30
0
0
SPLINE
5
1BB
100
AcDbEntity
8
1
62
256
6
ByLayer
370
18
48
1
60
0
100
AcDbSpline
70
4
71
3
72
12
73
8
40
0
40
0
40
0
40
0
40
0.369659083875782
40
0.369659083875782
40
0.727704501586109
40
0.727704501586109
40
1
40
1
40
1
40
1
41
1
10
43.3761808281331
20
-40.7216705947286
30
0
41
1
10
43.5718309176459
20
-40.6574985888732
30
0
41
1
10
43.8200134760324
20
-40.5275649822524
30
0
41
1
10
44.3650644657747
20
-40.1805732767813
30
0
41
1
10
44.6666600711241
20
-39.9624622037047
30
0
41
1
10
45.2202762684
20
-39.5291197767441
30
0
41
1
10
45.4705071031786
20
-39.3228650143062
30
0
41
1
10
45.7232009483221
20
-39.1060496669496
30
0
0
SPLINE
5
1BC
100
AcDbEntity
8
1
62
256
6
ByLayer
370
18
48
1
60
0
100
AcDbSpline
70
4
71
3
72
8
73
4
40
0
40
0
40
0
40
0
40
1
40
1
40
1
40
1
41
1
10
49.4952722055446
20
-34.0831387244595
30
0
41
1
10
48.8343076954774
20
-33.909390467791
30
0
41
1
10
48.1613527781826
20
-33.9710133768889
30
0
41
1
10
47.5684013879498
20
-34.2300348826916
30
0
0
SPLINE
5
1BD
100
AcDbEntity
8
1
62
256
6
ByLayer
370
18
48
1
60
0
100
AcDbSpline
70
4
71
3
72
25
73
21
40
0
40
0
40
0
40
0
40
0.442411593548773
40
0.442411593548773
40
0.442411593548773
40
0.583396916265375
40
0.583396916265375
40
0.651602530488653
40
0.651602530488653
40
0.706341521306448
40
0.706341521306448
40
0.742475286987737
40
0.742475286987737
40
0.778972968742931
40
0.778972968742931
40
0.811539464980178
40
0.811539464980178
40
0.868309796146653
40
0.868309796146653
40
1
40
1
40
1
40
1
41
1
10
56.9785008832425
20
-39.0013463684514
30
0
41
1
10
56.7348365317923
20
-38.8015010351146
30
0
41
1
10
56.4920478769605
20
-38.5575648977255
30
0
41
1
10
56.2933437157537
20
-38.2632729009152
30
0
41
1
10
56.2288387597247
20
-38.1677374466065
30
0
41
1
10
56.1681677593119
20
-38.0654613373853
30
0
41
1
10
56.0946369255655
20
-37.9054953031383
30
0
41
1
10
56.0730247284864
20
-37.8513157113799
30
0
41
1
10
56.0434687786735
20
-37.7529254964084
30
0
41
1
10
56.0334575127275
20
-37.7079863610533
30
0
41
1
10
56.0274387939665
20
-37.6369872674258
30
0
41
1
10
56.0279175747369
20
-37.6091771815479
30
0
41
1
10
56.0365131305559
20
-37.5594458464118
30
0
41
1
10
56.0449284920257
20
-37.5370361228321
30
0
41
1
10
56.0670202965348
20
-37.5035839528998
30
0
41
1
10
56.080195043171
20
-37.4911197996535
30
0
41
1
10
56.1199249296183
20
-37.4657230510772
30
0
41
1
10
56.1496401070415
20
-37.4583729054197
30
0
41
1
10
56.250573197285
20
-37.4496751672307
30
0
41
1
10
56.3272120774216
20
-37.4662552468693
30
0
41
1
10
56.4030013443909
20
-37.4873255882072
30
0
0
SPLINE
5
1BE
100
AcDbEntity
8
1
62
256
6
ByLayer
370
18
48
1
60
0
100
AcDbSpline
70
4
71
3
72
16
73
12
40
0
40
0
40
0
40
0
40
0.283825424659828
40
0.283825424659828
40
0.572792249827486
40
0.572792249827486
40
0.572792249827486
40
0.894188232602853
40
0.894188232602853
40
0.894188232602853
40
1
40
1
40
1
40
1
41
1
10
50.0504920771025
20
-41.0603191281953
30
0
41
1
10
50.4070528752504
20
-41.0756658032449
30
0
41
1
10
50.7726398551375
20
-41.0367846405486
30
0
41
1
10
51.4713432248029
20
-40.861363713394
30
0
41
1
10
51.8129892127695
20
-40.7214568421738
30
0
41
1
10
52.1213287138946
20
-40.5353850506297
30
0
41
1
10
52.4622672347284
20
-40.3296409239562
30
0
41
1
10
52.7742601346442
20
-40.0581516572479
30
0
41
1
10
53.0153772713865
20
-39.7360073232538
30
0
41
1
10
53.0962338080961
20
-39.6279790200013
30
0
41
1
10
53.1698771794366
20
-39.5135596166704
30
0
41
1
10
53.2345486188896
20
-39.3947018434396
30
0
0
SPLINE
5
1BF
100
AcDbEntity
8
1
62
256
6
ByLayer
370
18
48
1
60
0
100
AcDbSpline
70
4
71
3
72
14
73
10
40
0
40
0
40
0
40
0
40
0.262932482489331
40
0.262932482489331
40
0.526305718382453
40
0.526305718382453
40
0.786105451116563
40
0.786105451116563
40
1
40
1
40
1
40
1
41
1
10
60.7690661191386
20
-38.4805904782012
30
0
41
1
10
60.8750277942821
20
-38.5457670461864
30
0
41
1
10
60.9805420530575
20
-38.6333348416902
30
0
41
1
10
61.1728197310185
20
-38.8426788602152
30
0
41
1
10
61.2619804526912
20
-38.9672179333288
30
0
41
1
10
61.411522844142
20
-39.2318791666997
30
0
41
1
10
61.4741907321381
20
-39.374753536541
30
0
41
1
10
61.563476744727
20
-39.6370677461368
30
0
41
1
10
61.5952722329032
20
-39.7579355344168
30
0
41
1
10
61.6188766396548
20
-39.877262239983
30
0
0
SPLINE
5
1C0
100
AcDbEntity
8
1
62
256
6
ByLayer
370
18
48
1
60
0
100
AcDbSpline
70
4
71
2
72
8
73
5
40
0
40
0
40
0
40
0.581603760044147
40
0.872405640066221
40
1
40
1
40
1
41
1.02990374504916
10
49.43945491433
20
-42.3155281863751
30
0
41
1.02669755169729
10
51.1875331852746
20
-42.1095086511143
30
0
41
1.02039724512338
10
53.8401131140552
20
-41.411977826609
30
0
41
1.01761724169577
10
55.1181186785726
20
-40.9393805762445
30
0
41
1.01686274329252
10
55.4856308592435
20
-40.8475000084385
30
0
0
SPLINE
5
1C1
100
AcDbEntity
8
1
62
256
6
ByLayer
370
18
48
1
60
0
100
AcDbSpline
70
4
71
3
72
8
73
4
40
0
40
0
40
0
40
0
40
1
40
1
40
1
40
1
41
1
10
57.0265659261208
20
-42.9127663753211
30
0
41
1
10
57.0870817054089
20
-42.9209052232009
30
0
41
1
10
57.1477683900302
20
-42.9282832199868
30
0
41
1
10
57.2086014356903
20
-42.9349263986534
30
0
0
SPLINE
5
1C2
100
AcDbEntity
8
1
62
256
6
ByLayer
370
18
48
1
60
0
100
AcDbSpline
70
4
71
1
72
4
73
2
40
0
40
0
40
1
40
1
41
1
10
51.9581731463226
20
-33.0898852094912
30
0
41
1
10
51.921885449759
20
-32.1489388671734
30
0
0
SPLINE
5
1C3
100
AcDbEntity
8
1
62
256
6
ByLayer
370
18
48
1
60
0
100
AcDbSpline
70
4
71
3
72
10
73
6
40
0
40
0
40
0
40
0
40
0.207845795367688
40
0.207845795367688
40
1
40
1
40
1
40
1
41
1
10
47.0082975353969
20
-34.3989561331948
30
0
41
1
10
47.0490172996574
20
-34.39166156961
30
0
41
1
10
47.0894952750746
20
-34.3834076817362
30
0
41
1
10
47.2812921320911
20
-34.3394649007905
30
0
41
1
10
47.4291610889925
20
-34.2908598212927
30
0
41
1
10
47.5684013879498
20
-34.2300348826916
30
0
0
SPLINE
5
1C4
100
AcDbEntity
8
1
62
256
6
ByLayer
370
18
48
1
60
0
100
AcDbSpline
70
4
71
3
72
11
73
7
40
0
40
0
40
0
40
0
40
0.559926195718574
40
0.559926195718574
40
0.559926195718574
40
1
40
1
40
1
40
1
41
1
10
57.0265659261207
20
-42.912766375321
30
0
41
1
10
56.7086802747558
20
-42.8700135100342
30
0
41
1
10
56.342376093554
20
-42.8506257327348
30
0
41
1
10
55.9624133295463
20
-42.8621895322163
30
0
41
1
10
55.6616267822858
20
-42.8713436800663
30
0
41
1
10
55.347004977232
20
-42.8987800387259
30
0
41
1
10
55.0338502469983
20
-42.9399022694487
30
0
0
SPLINE
5
1C5
100
AcDbEntity
8
1
62
256
6
ByLayer
370
18
48
1
60
0
100
AcDbSpline
70
4
71
3
72
8
73
4
40
0
40
0
40
0
40
0
40
1
40
1
40
1
40
1
41
1
10
44.5871778941131
20
-38.5339311804148
30
0
41
1
10
44.5443242901161
20
-38.5209980382375
30
0
41
1
10
44.5018271306649
20
-38.5080860251148
30
0
41
1
10
44.4597448697396
20
-38.4952137924635
30
0
0
SPLINE
5
1C6
100
AcDbEntity
8
1
62
256
6
ByLayer
370
18
48
1
60
0
100
AcDbSpline
70
4
71
3
72
8
73
4
40
0
40
0
40
0
40
0
40
1
40
1
40
1
40
1
41
1
10
57.9357131267587
20
-42.7271778524986
30
0
41
1
10
56.7814389001642
20
-42.3958798391363
30
0
41
1
10
56.5118470820986
20
-41.3133083107116
30
0
41
1
10
55.4856308592437
20
-40.8475000084385
30
0
0
SPLINE
5
1C7
100
AcDbEntity
8
1
62
256
6
ByLayer
370
18
48
1
60
0
100
AcDbSpline
70
4
71
3
72
8
73
4
40
0
40
0
40
0
40
0
40
1
40
1
40
1
40
1
41
1
10
44.4597448697402
20
-38.4952137924635
30
0
41
1
10
43.5940231739258
20
-38.6415144575746
30
0
41
1
10
42.8238798474467
20
-38.7255358290926
30
0
41
1
10
42.3003094401605
20
-38.6955864921764
30
0
0
SPLINE
5
1C8
100
AcDbEntity
8
1
62
256
6
ByLayer
370
18
48
1
60
0
100
AcDbSpline
70
4
71
3
72
10
73
6
40
0
40
0
40
0
40
0
40
0.106616270583437
40
0.106616270583437
40
1
40
1
40
1
40
1
41
1
10
57.8710660561664
20
-39.6549594781867
30
0
41
1
10
57.8389482135576
20
-39.634179778581
30
0
41
1
10
57.8068605100724
20
-39.6131305796894
30
0
41
1
10
57.5065591674348
20
-39.4134224296033
30
0
41
1
10
57.2402702219349
20
-39.215899601469
30
0
41
1
10
56.9785008832425
20
-39.0013463684514
30
0
0
SPLINE
5
1C9
100
AcDbEntity
8
1
62
256
6
ByLayer
370
18
48
1
60
0
100
AcDbSpline
70
4
71
3
72
10
73
6
40
0
40
0
40
0
40
0
40
0.516155291935507
40
0.516155291935507
40
1
40
1
40
1
40
1
41
1
10
50.2233184648044
20
-37.0467781736346
30
0
41
1
10
50.2143733565411
20
-37.0430729674552
30
0
41
1
10
50.2052604549215
20
-37.038956319187
30
0
41
1
10
50.1873538731004
20
-37.0300396503799
30
0
41
1
10
50.1785390459597
20
-37.0252793158599
30
0
41
1
10
50.1696655987343
20
-37.0200177747999
30
0
0
SPLINE
5
1CA
100
AcDbEntity
8
1
62
256
6
ByLayer
370
18
48
1
60
0
100
AcDbSpline
70
4
71
3
72
10
73
6
40
0
40
0
40
0
40
0
40
0.123732606265471
40
0.123732606265471
40
1
40
1
40
1
40
1
41
1
10
50.05213420847
20
-36.9024863845294
30
0
41
1
10
50.051094249977
20
-36.9005156320491
30
0
41
1
10
50.0500974613621
20
-36.8985588489275
30
0
41
1
10
50.0424420942968
20
-36.8830010177925
30
0
41
1
10
50.0377218592865
20
-36.8700570652117
30
0
41
1
10
50.0343771518346
20
-36.857836860664
30
0
0
SPLINE
5
1CB
100
AcDbEntity
8
1
62
256
6
ByLayer
370
18
48
1
60
0
100
AcDbSpline
70
4
71
3
72
10
73
6
40
0
40
0
40
0
40
0
40
0.123732606265493
40
0.123732606265493
40
1
40
1
40
1
40
1
41
1
10
48.9024319268168
20
-38.2872514467023
30
0
41
1
10
48.9037878343513
20
-38.2895381482242
30
0
41
1
10
48.9051100211706
20
-38.2918203295502
30
0
41
1
10
48.9154397575812
20
-38.3100525300305
30
0
41
1
10
48.9229163406962
20
-38.3257528307161
30
0
41
1
10
48.9291923256587
20
-38.3409043127743
30
0
0
SPLINE
5
1CC
100
AcDbEntity
8
1
62
256
6
ByLayer
370
18
48
1
60
0
100
AcDbSpline
70
4
71
3
72
8
73
4
40
0
40
0
40
0
40
0
40
1
40
1
40
1
40
1
41
1
10
48.5956405750747
20
-37.449746687407
30
0
41
1
10
48.5868512961687
20
-37.4679969151562
30
0
41
1
10
48.5776555249112
20
-37.4841797026653
30
0
41
1
10
48.5684922544454
20
-37.4985668410672
30
0
0
SPLINE
5
1CD
100
AcDbEntity
8
1
62
256
6
ByLayer
370
18
48
1
60
0
100
AcDbSpline
70
4
71
3
72
8
73
4
40
0
40
0
40
0
40
0
40
1
40
1
40
1
40
1
41
1
10
50.3589255602121
20
-37.7399911438247
30
0
41
1
10
50.3702438662668
20
-37.7242699432243
30
0
41
1
10
50.3825680281259
20
-37.7112155463167
30
0
41
1
10
50.3950772230479
20
-37.7001743323711
30
0
0
SPLINE
5
1CE
100
AcDbEntity
8
1
62
256
6
ByLayer
370
18
48
1
60
0
100
AcDbSpline
70
4
71
3
72
10
73
6
40
0
40
0
40
0
40
0
40
0.629893813379444
40
0.629893813379444
40
1
40
1
40
1
40
1
41
1
10
49.5825884843744
20
-38.5126630710193
30
0
41
1
10
49.5895560946664
20
-38.5047690843867
30
0
41
1
10
49.5973036177674
20
-38.4969830258206
30
0
41
1
10
49.611115957973
20
-38.4850470418664
30
0
41
1
10
49.6165744261826
20
-38.4807092788814
30
0
41
1
10
49.6224052958399
20
-38.4765114081827
30
0
0
SPLINE
5
1CF
100
AcDbEntity
8
1
62
256
6
ByLayer
370
18
48
1
60
0
100
AcDbSpline
70
4
71
3
72
10
73
6
40
0
40
0
40
0
40
0
40
0.516155291935631
40
0.516155291935631
40
1
40
1
40
1
40
1
41
1
10
48.7402510126889
20
-38.1519629998037
30
0
41
1
10
48.7474655579234
20
-38.1539376429543
30
0
41
1
10
48.7549147051099
20
-38.1563905367895
30
0
41
1
10
48.7698074376954
20
-38.1622933563609
30
0
41
1
10
48.7772531160362
20
-38.1656845420809
30
0
41
1
10
48.7849005365501
20
-38.1697200564296
30
0
0
SPLINE
5
1D0
100
AcDbEntity
8
1
62
256
6
ByLayer
370
18
48
1
60
0
100
AcDbSpline
70
4
71
3
72
10
73
6
40
0
40
0
40
0
40
0
40
0.315026012182565
40
0.315026012182565
40
1
40
1
40
1
40
1
41
1
10
49.7840744193883
20
-38.4323736749071
30
0
41
1
10
49.7906938121713
20
-38.4327910538885
30
0
41
1
10
49.7971695372123
20
-38.433423560602
30
0
41
1
10
49.8171555972949
20
-38.4359853249975
30
0
41
1
10
49.8301505880221
20
-38.4385692892586
30
0
41
1
10
49.84248480996
20
-38.4417080584263
30
0
0
SPLINE
5
1D1
100
AcDbEntity
8
1
62
256
6
ByLayer
370
18
48
1
60
0
100
AcDbSpline
70
4
71
3
72
10
73
6
40
0
40
0
40
0
40
0
40
0.629893813379279
40
0.629893813379279
40
1
40
1
40
1
40
1
41
1
10
49.3809809931158
20
-36.6860781024159
30
0
41
1
10
49.3719019213669
20
-36.6918606275917
30
0
41
1
10
49.3621401183857
20
-36.6976324062774
30
0
41
1
10
49.345409938276
20
-36.7066505503276
30
0
41
1
10
49.3389297053812
20
-36.7099665486274
30
0
41
1
10
49.3321608394449
20
-36.7132264230471
30
0
0
SPLINE
5
1D2
100
AcDbEntity
8
1
62
256
6
ByLayer
370
18
48
1
60
0
100
AcDbSpline
70
4
71
3
72
8
73
4
40
0
40
0
40
0
40
0
40
1
40
1
40
1
40
1
41
1
10
50.3241222104522
20
-37.9600706579363
30
0
41
1
10
50.3195416357247
20
-37.9420706642209
30
0
41
1
10
50.31610610951
20
-37.9225674776861
30
0
41
1
10
50.3147878269373
20
-37.9016602673616
30
0
0
SPLINE
5
1D3
100
AcDbEntity
8
1
62
256
6
ByLayer
370
18
48
1
60
0
100
AcDbSpline
70
4
71
3
72
8
73
4
40
0
40
0
40
0
40
0
40
1
40
1
40
1
40
1
41
1
10
48.6394472670411
20
-37.238670515502
30
0
41
1
10
48.6406819173123
20
-37.2533245847611
30
0
41
1
10
48.6409890529255
20
-37.2696993806944
30
0
41
1
10
48.6397783083495
20
-37.2880775638701
30
0
0
SPLINE
5
1D4
100
AcDbEntity
8
1
62
256
6
ByLayer
370
18
48
1
60
0
100
AcDbSpline
70
4
71
3
72
10
73
6
40
0
40
0
40
0
40
0
40
0.31502601218261
40
0.31502601218261
40
1
40
1
40
1
40
1
41
1
10
49.1704917158971
20
-36.7573641563233
30
0
41
1
10
49.1646730336727
20
-36.7577474879005
30
0
41
1
10
49.1590590252819
20
-36.7579766978371
30
0
41
1
10
49.1419415257166
20
-36.758283493959
30
0
41
1
10
49.1311261456245
20
-36.757879140333
30
0
41
1
10
49.1210846675334
20
-36.757033115012
30
0
0
LINE
5
72
100
AcDbEntity
8
80
62
256
6
ByLayer
370
18
48
1
60
0
100
AcDbLine
10
0
20
0
30
0
11
-5
21
0
31
0
39
0
210
0
220
0
230
1
0
LINE
5
73
100
AcDbEntity
8
1
62
256
6
ByLayer
370
18
48
1
60
0
100
AcDbLine
10
19.26238
20
5.07156
30
0
11
20.96986
21
3.153426
31
0
39
0
210
0
220
0
230
1
0
LINE
5
75
100
AcDbEntity
8
1
62
256
6
ByLayer
370
18
48
1
60
0
100
AcDbLine
10
21.02071
20
3.133523
30
0
11
21.366061
21
3.117332
31
0
39
0
210
0
220
0
230
1
0
LINE
5
76
100
AcDbEntity
8
1
62
256
6
ByLayer
370
18
48
1
60
0
100
AcDbLine
10
24.246323
20
5.681277
30
0
11
24.270237
21
6.026179
31
0
39
0
210
0
220
0
230
1
0
LINE
5
77
100
AcDbEntity
8
1
62
256
6
ByLayer
370
18
48
1
60
0
100
AcDbLine
10
62.075115
20
-33.390642
30
0
11
61.580258
21
-32.895785
31
0
39
0
210
0
220
0
230
1
0
LINE
5
78
100
AcDbEntity
8
1
62
256
6
ByLayer
370
18
48
1
60
0
100
AcDbLine
10
42.183324
20
-40.702663
30
0
11
42.841787
21
-41.103313
31
0
39
0
210
0
220
0
230
1
0
LINE
5
79
100
AcDbEntity
8
1
62
256
6
ByLayer
370
18
48
1
60
0
100
AcDbLine
10
0.3
20
31.5
30
0
11
0
21
31.2
31
0
39
0
210
0
220
0
230
1
0
LINE
5
7A
100
AcDbEntity
8
1
62
256
6
ByLayer
370
18
48
1
60
0
100
AcDbLine
10
0
20
-31.2
30
0
11
0.3
21
-31.5
31
0
39
0
210
0
220
0
230
1
0
LINE
5
7B
100
AcDbEntity
8
1
62
256
6
ByLayer
370
18
48
1
60
0
100
AcDbLine
10
22.920792
20
31.5
30
0
11
0.3
21
31.5
31
0
39
0
210
0
220
0
230
1
0
LINE
5
7C
100
AcDbEntity
8
1
62
256
6
ByLayer
370
18
48
1
60
0
100
AcDbLine
10
30.863698
20
31.65
30
0
11
22.960985
21
31.65
31
0
39
0
210
0
220
0
230
1
0
LINE
5
7D
100
AcDbEntity
8
1
62
256
6
ByLayer
370
18
48
1
60
0
100
AcDbLine
10
22.960985
20
31.65
30
0
11
22.920792
21
31.5
31
0
39
0
210
0
220
0
230
1
0
LINE
5
7E
100
AcDbEntity
8
1
62
256
6
ByLayer
370
18
48
1
60
0
100
AcDbLine
10
22.920792
20
-31.5
30
0
11
23.617223
21
-34.099114
31
0
39
0
210
0
220
0
230
1
0
LINE
5
7F
100
AcDbEntity
8
1
62
256
6
ByLayer
370
18
48
1
60
0
100
AcDbLine
10
24.256357
20
6.078992
30
0
11
19.196994
21
11.762534
31
0
39
0
210
0
220
0
230
1
0
LINE
5
80
100
AcDbEntity
8
1
62
256
6
ByLayer
370
18
48
1
60
0
100
AcDbLine
10
45.428832
20
-38.901618
30
0
11
45.056956
21
-38.675345
31
0
39
0
210
0
220
0
230
1
0
LINE
5
81
100
AcDbEntity
8
1
62
256
6
ByLayer
370
18
48
1
60
0
100
AcDbLine
10
0.3
20
-31.5
30
0
11
22.920792
21
-31.5
31
0
39
0
210
0
220
0
230
1
0
LINE
5
82
100
AcDbEntity
8
1
62
256
6
ByLayer
370
18
48
1
60
0
100
AcDbLine
10
47.002672
20
-39.645741
30
0
11
47.173406
21
-39.816475
31
0
39
0
210
0
220
0
230
1
0
LINE
5
83
100
AcDbEntity
8
1
62
256
6
ByLayer
370
18
48
1
60
0
100
AcDbLine
10
51.698889
20
-35.290992
30
0
11
51.526207
21
-35.118309
31
0
39
0
210
0
220
0
230
1
0
LINE
5
84
100
AcDbEntity
8
4
62
256
6
ByLayer
370
18
48
0.05
60
0
100
AcDbLine
10
0
20
0
30
0
11
65
21
0
31
0
39
0
210
0
220
0
230
1
0
LINE
5
86
100
AcDbEntity
8
81
62
256
6
ByLayer
370
18
48
1
60
0
100
AcDbLine
10
65
20
-45
30
0
11
75
21
-45
31
0
39
0
210
0
220
0
230
1
0
LINE
5
87
100
AcDbEntity
8
SK4
62
256
6
ByLayer
370
18
48
0.05
60
0
100
AcDbLine
10
-43
20
0
30
0
11
65
21
0
31
0
39
0
210
0
220
0
230
1
0
LINE
5
89
100
AcDbEntity
8
1
62
256
6
ByLayer
370
13
48
0.05
60
0
100
AcDbLine
10
0
20
-0.447214
30
0
11
0
21
3.622214
31
0
39
0
210
0
220
0
230
1
0
LINE
5
8A
100
AcDbEntity
8
1
62
256
6
ByLayer
370
18
48
1
60
0
100
AcDbLine
10
50.169666
20
-37.020018
30
0
11
50.052135
21
-36.902487
31
0
39
0
210
0
220
0
230
1
0
LINE
5
8B
100
AcDbEntity
8
1
62
256
6
ByLayer
370
18
48
1
60
0
100
AcDbLine
10
48.784901
20
-38.169721
30
0
11
48.902432
21
-38.287251
31
0
39
0
210
0
220
0
230
1
0
LINE
5
8C
100
AcDbEntity
8
1
62
256
6
ByLayer
370
18
48
1
60
0
100
AcDbLine
10
55.126661
20
-42.929853
30
0
11
57.866885
21
-44.195895
31
0
39
0
210
0
220
0
230
1
0
LINE
5
8D
100
AcDbEntity
8
1
62
256
6
ByLayer
370
18
48
1
60
0
100
AcDbLine
10
61.064643
20
-33.307718
30
0
11
57.977867
21
-35.477664
31
0
39
0
210
0
220
0
230
1
0
LINE
5
8E
100
AcDbEntity
8
1
62
256
6
ByLayer
370
18
48
1
60
0
100
AcDbLine
10
60.713171
20
-32.956245
30
0
11
61.064643
21
-33.307718
31
0
39
0
210
0
220
0
230
1
0
LINE
5
8F
100
AcDbEntity
8
1
62
256
6
ByLayer
370
18
48
1
60
0
100
AcDbLine
10
0.3
20
0
30
0
11
0.3
21
-31.5
31
0
39
0
210
0
220
0
230
1
0
LINE
5
90
100
AcDbEntity
8
1
62
256
6
ByLayer
370
18
48
1
60
0
100
AcDbLine
10
0.3
20
31.5
30
0
11
0.3
21
0
31
0
39
0
210
0
220
0
230
1
0
LINE
5
91
100
AcDbEntity
8
1
62
256
6
ByLayer
370
18
48
1
60
0
100
AcDbLine
10
0
20
0
30
0
11
0
21
-31.2
31
0
39
0
210
0
220
0
230
1
0
LINE
5
92
100
AcDbEntity
8
1
62
256
6
ByLayer
370
18
48
1
60
0
100
AcDbLine
10
0
20
31.2
30
0
11
0
21
0
31
0
39
0
210
0
220
0
230
1
0
LINE
5
93
100
AcDbEntity
8
1
62
256
6
ByLayer
370
18
48
1
60
0
100
AcDbLine
10
22.920792
20
-30.899614
30
0
11
22.920792
21
-31.5
31
0
39
0
210
0
220
0
230
1
0
LINE
5
94
100
AcDbEntity
8
1
62
256
6
ByLayer
370
18
48
1
60
0
100
AcDbLine
10
22.920792
20
31.5
30
0
11
22.920792
21
30.899614
31
0
39
0
210
0
220
0
230
1
0
LINE
5
95
100
AcDbEntity
8
1
62
256
6
ByLayer
370
18
48
1
60
0
100
AcDbLine
10
19.909682
20
4.344397
30
0
11
19.874726
21
4.23327
31
0
39
0
210
0
220
0
230
1
0
LINE
5
96
100
AcDbEntity
8
1
62
256
6
ByLayer
370
18
48
1
60
0
100
AcDbLine
10
19.911507
20
-29.985012
30
0
11
19.911507
21
4.342151
31
0
39
0
210
0
220
0
230
1
0
LINE
5
97
100
AcDbEntity
8
1
62
256
6
ByLayer
370
18
48
1
60
0
100
AcDbLine
10
19.911507
20
10.96004
30
0
11
19.911507
21
29.985012
31
0
39
0
210
0
220
0
230
1
0
LINE
5
98
100
AcDbEntity
8
1
62
256
6
ByLayer
370
18
48
1
60
0
100
AcDbLine
10
19.823265
20
13.545607
30
0
11
19.848058
21
11.031094
31
0
39
0
210
0
220
0
230
1
0
LINE
5
99
100
AcDbEntity
8
1
62
256
6
ByLayer
370
18
48
1
60
0
100
AcDbLine
10
57.205788
20
-43.890456
30
0
11
57.14398
21
-44.063162
31
0
39
0
210
0
220
0
230
1
0
LINE
5
9A
100
AcDbEntity
8
1
62
256
6
ByLayer
370
18
48
1
60
0
100
AcDbLine
10
57.915478
20
-35.441853
30
0
11
60.89413
21
-33.347915
31
0
39
0
210
0
220
0
230
1
0
LINE
5
9B
100
AcDbEntity
8
SK1
62
256
6
ByLayer
370
18
48
1
60
0
100
AcDbLine
10
-0.2
20
22.533485
30
0
11
-0.2
21
7.059517
31
0
39
0
210
0
220
0
230
1
0
LINE
5
9D
100
AcDbEntity
8
SK1
62
256
6
ByLayer
370
18
48
1
60
0
100
AcDbLine
10
-0.2
20
-7.059518
30
0
11
-0.2
21
-22.533485
31
0
39
0
210
0
220
0
230
1
0
LINE
5
9E
100
AcDbEntity
8
1
62
256
6
ByLayer
370
18
48
1
60
0
100
AcDbLine
10
19.823265
20
13.545607
30
0
11
19.208748
21
12.998578
31
0
39
0
210
0
220
0
230
1
0
LINE
5
9F
100
AcDbEntity
8
1
62
256
6
ByLayer
370
18
48
1
60
0
100
AcDbLine
10
19.904936
20
4.349731
30
0
11
19.830243
21
4.283241
31
0
39
0
210
0
220
0
230
1
0
LINE
5
A0
100
AcDbEntity
8
1
62
256
6
ByLayer
370
18
48
1
60
0
100
AcDbLine
10
23.896286
20
-30.500632
30
0
11
23.896286
21
5.140736
31
0
39
0
210
0
220
0
230
1
0
LINE
5
A1
100
AcDbEntity
8
1
62
256
6
ByLayer
370
18
48
1
60
0
100
AcDbLine
10
23.896286
20
6.482916
30
0
11
23.896286
21
31.076076
31
0
39
0
210
0
220
0
230
1
0
LINE
5
A2
100
AcDbEntity
8
1
62
256
6
ByLayer
370
18
48
1
60
0
100
AcDbLine
10
22.960985
20
31.65
30
0
11
22.960985
21
31.054462
31
0
39
0
210
0
220
0
230
1
0
LINE
5
A3
100
AcDbEntity
8
1
62
256
6
ByLayer
370
18
48
1
60
0
100
AcDbLine
10
30.863698
20
31.65
30
0
11
31.128863
21
31.076076
31
0
39
0
210
0
220
0
230
1
0
LINE
5
A4
100
AcDbEntity
8
1
62
256
6
ByLayer
370
18
48
1
60
0
100
AcDbLine
10
44.397659
20
-41.676218
30
0
11
44.418229
21
-41.600874
31
0
39
0
210
0
220
0
230
1
0
LINE
5
A5
100
AcDbEntity
8
1
62
256
6
ByLayer
370
18
48
1
60
0
100
AcDbLine
10
47.337229
20
-30.909069
30
0
11
47.922352
21
-28.765858
31
0
39
0
210
0
220
0
230
1
0
LINE
5
A6
100
AcDbEntity
8
1
62
256
6
ByLayer
370
18
48
1
60
0
100
AcDbLine
10
57.835702
20
-35.396073
30
0
11
60.858606
21
-33.271028
31
0
39
0
210
0
220
0
230
1
0
LINE
5
A7
100
AcDbEntity
8
1
62
256
6
ByLayer
370
18
48
1
60
0
100
AcDbLine
10
54.757038
20
-42.973061
30
0
11
57.14398
21
-44.063162
31
0
39
0
210
0
220
0
230
1
0
LINE
5
A8
100
AcDbEntity
8
1
62
256
6
ByLayer
370
18
48
1
60
0
100
AcDbLine
10
43.341447
20
-29.953018
30
0
11
42.993077
21
-31.229039
31
0
39
0
210
0
220
0
230
1
0
LINE
5
A9
100
AcDbEntity
8
1
62
256
6
ByLayer
370
18
48
1
60
0
100
AcDbLine
10
40.932536
20
-38.776453
30
0
11
40.631714
21
-39.878316
31
0
39
0
210
0
220
0
230
1
0
LINE
5
AA
100
AcDbEntity
8
1
62
256
6
ByLayer
370
18
48
1
60
0
100
AcDbLine
10
44.397659
20
-41.676218
30
0
11
43.60745
21
-41.387754
31
0
39
0
210
0
220
0
230
1
0
LINE
5
AB
100
AcDbEntity
8
1
62
256
6
ByLayer
370
18
48
1
60
0
100
AcDbLine
10
42.863048
20
-41.116012
30
0
11
40.755881
21
-40.346795
31
0
39
0
210
0
220
0
230
1
0
LINE
5
AC
100
AcDbEntity
8
1
62
256
6
ByLayer
370
18
48
1
60
0
100
AcDbLine
10
47.922352
20
-28.765858
30
0
11
47.743709
21
-28.706022
31
0
39
0
210
0
220
0
230
1
0
LINE
5
AD
100
AcDbEntity
8
1
62
256
6
ByLayer
370
18
48
1
60
0
100
AcDbLine
10
10.105662
20
-9.869413
30
0
11
10.105662
21
-29.913955
31
0
39
0
210
0
220
0
230
1
0
LINE
5
AE
100
AcDbEntity
8
1
62
256
6
ByLayer
370
18
48
1
60
0
100
AcDbLine
10
10.538675
20
19.43724
30
0
11
10.538675
21
9.349221
31
0
39
0
210
0
220
0
230
1
0
LINE
5
AF
100
AcDbEntity
8
1
62
256
6
ByLayer
370
18
48
1
60
0
100
AcDbLine
10
13.461325
20
-9.349221
30
0
11
13.461325
21
-30.080593
31
0
39
0
210
0
220
0
230
1
0
LINE
5
B0
100
AcDbEntity
8
1
62
256
6
ByLayer
370
18
48
1
60
0
100
AcDbLine
10
52.006492
20
-44.453807
30
0
11
44.397659
21
-41.676218
31
0
39
0
210
0
220
0
230
1
0
LINE
5
B1
100
AcDbEntity
8
1
62
256
6
ByLayer
370
18
48
1
60
0
100
AcDbLine
10
39.278875
20
-39.507872
30
0
11
41.981057
21
-29.610233
31
0
39
0
210
0
220
0
230
1
0
LINE
5
B2
100
AcDbEntity
8
1
62
256
6
ByLayer
370
18
48
1
60
0
100
AcDbLine
10
40.52238
20
-27.992947
30
0
11
40.431661
21
-27.977228
31
0
39
0
210
0
220
0
230
1
0
LINE
5
B3
100
AcDbEntity
8
1
62
256
6
ByLayer
370
18
48
1
60
0
100
AcDbLine
10
40.431661
20
-27.977228
30
0
11
40.340941
21
-27.961508
31
0
39
0
210
0
220
0
230
1
0
LINE
5
B4
100
AcDbEntity
8
1
62
256
6
ByLayer
370
18
48
1
60
0
100
AcDbLine
10
36.216392
20
-38.689664
30
0
11
39.062131
21
-39.728495
31
0
39
0
210
0
220
0
230
1
0
LINE
5
B5
100
AcDbEntity
8
1
62
256
6
ByLayer
370
18
48
1
60
0
100
AcDbLine
10
24.078325
20
-30.278098
30
0
11
24.078325
21
-34.258688
31
0
39
0
210
0
220
0
230
1
0
LINE
5
B6
100
AcDbEntity
8
1
62
256
6
ByLayer
370
18
48
1
60
0
100
AcDbLine
10
60.858606
20
-33.271028
30
0
11
60.89413
21
-33.347915
31
0
39
0
210
0
220
0
230
1
0
LINE
5
B7
100
AcDbEntity
8
1
62
256
6
ByLayer
370
18
48
1
60
0
100
AcDbLine
10
13.461325
20
-30.080593
30
0
11
10.538675
21
-30.080593
31
0
39
0
210
0
220
0
230
1
0
LINE
5
B8
100
AcDbEntity
8
1
62
256
6
ByLayer
370
18
48
1
60
0
100
AcDbLine
10
10.105662
20
29.913955
30
0
11
10.105662
21
21.040182
31
0
39
0
210
0
220
0
230
1
0
LINE
5
B9
100
AcDbEntity
8
1
62
256
6
ByLayer
370
18
48
1
60
0
100
AcDbLine
10
57.004174
20
-44.453807
30
0
11
57.14398
21
-44.063162
31
0
39
0
210
0
220
0
230
1
0
LINE
5
BA
100
AcDbEntity
8
1
62
256
6
ByLayer
370
18
48
1
60
0
100
AcDbLine
10
10.538675
20
30.080593
30
0
11
10.538675
21
21.369494
31
0
39
0
210
0
220
0
230
1
0
LINE
5
BB
100
AcDbEntity
8
1
62
256
6
ByLayer
370
18
48
1
60
0
100
AcDbLine
10
13.894338
20
20.132452
30
0
11
13.894338
21
9.869413
31
0
39
0
210
0
220
0
230
1
0
LINE
5
BC
100
AcDbEntity
8
1
62
256
6
ByLayer
370
18
48
1
60
0
100
AcDbLine
10
24.078325
20
-30.278098
30
0
11
48.289655
21
-6.066768
31
0
39
0
210
0
220
0
230
1
0
LINE
5
BD
100
AcDbEntity
8
1
62
256
6
ByLayer
370
18
48
1
60
0
100
AcDbLine
10
10.538675
20
-9.349221
30
0
11
13.461325
21
-9.349221
31
0
39
0
210
0
220
0
230
1
0
LINE
5
BE
100
AcDbEntity
8
1
62
256
6
ByLayer
370
18
48
1
60
0
100
AcDbLine
10
39.074977
20
-28.219146
30
0
11
36.216392
21
-38.689664
31
0
39
0
210
0
220
0
230
1
0
LINE
5
BF
100
AcDbEntity
8
1
62
256
6
ByLayer
370
18
48
1
60
0
100
AcDbLine
10
31.128863
20
31.076076
30
0
11
23.896286
21
31.076076
31
0
39
0
210
0
220
0
230
1
0
LINE
5
C0
100
AcDbEntity
8
1
62
256
6
ByLayer
370
18
48
1
60
0
100
AcDbLine
10
48.289655
20
-6.066768
30
0
11
31.128863
21
31.076076
31
0
39
0
210
0
220
0
230
1
0
LINE
5
C1
100
AcDbEntity
8
1
62
256
6
ByLayer
370
18
48
1
60
0
100
AcDbLine
10
13.894338
20
29.913955
30
0
11
13.894338
21
21.040182
31
0
39
0
210
0
220
0
230
1
0
LINE
5
C2
100
AcDbEntity
8
1
62
256
6
ByLayer
370
18
48
1
60
0
100
AcDbLine
10
10.105662
20
20.132452
30
0
11
10.105662
21
9.869413
31
0
39
0
210
0
220
0
230
1
0
LINE
5
C3
100
AcDbEntity
8
1
62
256
6
ByLayer
370
18
48
1
60
0
100
AcDbLine
10
10.538675
20
-9.349221
30
0
11
10.538675
21
-30.080593
31
0
39
0
210
0
220
0
230
1
0
LINE
5
C4
100
AcDbEntity
8
1
62
256
6
ByLayer
370
18
48
1
60
0
100
AcDbLine
10
10.538675
20
30.080593
30
0
11
13.461325
21
30.080593
31
0
39
0
210
0
220
0
230
1
0
LINE
5
C5
100
AcDbEntity
8
1
62
256
6
ByLayer
370
18
48
1
60
0
100
AcDbLine
10
19.874726
20
4.23327
30
0
11
19.26402
21
4.919319
31
0
39
0
210
0
220
0
230
1
0
LINE
5
C6
100
AcDbEntity
8
1
62
256
6
ByLayer
370
18
48
1
60
0
100
AcDbLine
10
19.26402
20
4.919319
30
0
11
19.198546
21
11.559604
31
0
39
0
210
0
220
0
230
1
0
LINE
5
C7
100
AcDbEntity
8
1
62
256
6
ByLayer
370
18
48
1
60
0
100
AcDbLine
10
57.004174
20
-44.453807
30
0
11
52.006492
21
-44.453807
31
0
39
0
210
0
220
0
230
1
0
LINE
5
C8
100
AcDbEntity
8
1
62
256
6
ByLayer
370
18
48
1
60
0
100
AcDbLine
10
24.078325
20
-34.258688
30
0
11
23.752162
21
-34.139623
31
0
39
0
210
0
220
0
230
1
0
LINE
5
C9
100
AcDbEntity
8
1
62
256
6
ByLayer
370
18
48
1
60
0
100
AcDbLine
10
48.289655
20
-6.066768
30
0
11
60.858606
21
-33.271028
31
0
39
0
210
0
220
0
230
1
0
LINE
5
CA
100
AcDbEntity
8
1
62
256
6
ByLayer
370
18
48
1
60
0
100
AcDbLine
10
36.216392
20
-38.689664
30
0
11
24.078325
21
-34.258688
31
0
39
0
210
0
220
0
230
1
0
LINE
5
CB
100
AcDbEntity
8
1
62
256
6
ByLayer
370
18
48
1
60
0
100
AcDbLine
10
13.461325
20
30.080593
30
0
11
13.461325
21
21.369494
31
0
39
0
210
0
220
0
230
1
0
LINE
5
CC
100
AcDbEntity
8
1
62
256
6
ByLayer
370
18
48
1
60
0
100
AcDbLine
10
13.461325
20
9.349221
30
0
11
10.538675
21
9.349221
31
0
39
0
210
0
220
0
230
1
0
LINE
5
CD
100
AcDbEntity
8
1
62
256
6
ByLayer
370
18
48
1
60
0
100
AcDbLine
10
13.894338
20
-9.869413
30
0
11
13.894338
21
-29.913955
31
0
39
0
210
0
220
0
230
1
0
LINE
5
CE
100
AcDbEntity
8
1
62
256
6
ByLayer
370
18
48
1
60
0
100
AcDbLine
10
19.353809
20
14.909507
30
0
11
19.613387
21
15.734715
31
0
39
0
210
0
220
0
230
1
0
LINE
5
CF
100
AcDbEntity
8
1
62
256
6
ByLayer
370
18
48
1
60
0
100
AcDbLine
10
13.461325
20
19.43724
30
0
11
13.461325
21
9.349221
31
0
39
0
210
0
220
0
230
1
0
LINE
5
D0
100
AcDbEntity
8
SK1
62
256
6
ByLayer
370
18
48
1
60
0
100
AcDbLine
10
-1.307107
20
4.811013
30
0
11
-1.307107
21
-4.811013
31
0
39
0
210
0
220
0
230
1
0
LINE
5
D1
100
AcDbEntity
8
1
62
256
6
ByLayer
370
18
48
1
60
0
100
AcDbLine
10
64.997365
20
-44.13751
30
0
11
64.612975
21
-39.453518
31
0
39
0
210
0
220
0
230
1
0
LINE
5
D2
100
AcDbEntity
8
1
62
256
6
ByLayer
370
18
48
1
60
0
100
AcDbLine
10
59.453518
20
-44.612975
30
0
11
64.13751
21
-44.997365
31
0
39
0
210
0
220
0
230
1
0
LINE
5
D3
100
AcDbEntity
8
1
62
256
6
ByLayer
370
18
48
1
60
0
100
AcDbLine
10
64.195895
20
-37.866885
30
0
11
62.231135
21
-33.614355
31
0
39
0
210
0
220
0
230
1
0
LINE
5
D4
100
AcDbEntity
8
1
62
256
6
ByLayer
370
18
48
1
60
0
100
AcDbLine
10
47.488771
20
-30.962502
30
0
11
47.527206
21
-30.993706
31
0
39
0
210
0
220
0
230
1
0
LINE
5
D5
100
AcDbEntity
8
1
62
256
6
ByLayer
370
18
48
1
60
0
100
AcDbLine
10
51.921885
20
-32.148939
30
0
11
47.527206
21
-30.993706
31
0
39
0
210
0
220
0
230
1
0
LINE
5
D6
100
AcDbEntity
8
1
62
256
6
ByLayer
370
18
48
1
60
0
100
AcDbLine
10
44.587178
20
-38.533931
30
0
11
44.274097
21
-38.343434
31
0
39
0
210
0
220
0
230
1
0
LINE
5
D7
100
AcDbEntity
8
1
62
256
6
ByLayer
370
18
48
1
60
0
100
AcDbLine
10
51.08122
20
-34.500038
30
0
11
49.495272
21
-34.083139
31
0
39
0
210
0
220
0
230
1
0
LINE
5
D8
100
AcDbEntity
8
1
62
256
6
ByLayer
370
18
48
1
60
0
100
AcDbLine
10
49.321391
20
-40.945999
30
0
11
49.040534
21
-40.775109
31
0
39
0
210
0
220
0
230
1
0
LINE
5
D9
100
AcDbEntity
8
1
62
256
6
ByLayer
370
18
48
1
60
0
100
AcDbLine
10
47.735443
20
-40.5291
30
0
11
47.460971
21
-40.362094
31
0
39
0
210
0
220
0
230
1
0
LINE
5
DA
100
AcDbEntity
8
1
62
256
6
ByLayer
370
18
48
1
60
0
100
AcDbLine
10
44.274097
20
-38.343434
30
0
11
42.933286
21
-37.992847
31
0
39
0
210
0
220
0
230
1
0
LINE
5
DB
100
AcDbEntity
8
1
62
256
6
ByLayer
370
18
48
1
60
0
100
AcDbLine
10
43.772955
20
-32.734881
30
0
11
42.611987
21
-32.028477
31
0
39
0
210
0
220
0
230
1
0
LINE
5
DC
100
AcDbEntity
8
1
62
256
6
ByLayer
370
18
48
1
60
0
100
AcDbLine
10
42.933286
20
-37.992847
30
0
11
44.088995
21
-33.759678
31
0
39
0
210
0
220
0
230
1
0
LINE
5
DD
100
AcDbEntity
8
1
62
256
6
ByLayer
370
18
48
1
60
0
100
AcDbLine
10
47.488771
20
-30.962502
30
0
11
45.95791
21
-30.42262
31
0
39
0
210
0
220
0
230
1
0
LINE
5
DE
100
AcDbEntity
8
1
62
256
6
ByLayer
370
18
48
1
60
0
100
AcDbLine
10
42.170722
20
-38.603592
30
0
11
43.772955
21
-32.734881
31
0
39
0
210
0
220
0
230
1
0
LINE
5
DF
100
AcDbEntity
8
1
62
256
6
ByLayer
370
18
48
1
60
0
100
AcDbLine
10
45.894899
20
-31.496028
30
0
11
51.958173
21
-33.089885
31
0
39
0
210
0
220
0
230
1
0
LINE
5
E0
100
AcDbEntity
8
1
62
256
6
ByLayer
370
18
48
1
60
0
100
AcDbLine
10
47.460971
20
-40.362094
30
0
11
49.040534
21
-40.775109
31
0
39
0
210
0
220
0
230
1
0
LINE
5
E1
100
AcDbEntity
8
1
62
256
6
ByLayer
370
18
48
1
60
0
100
AcDbLine
10
42.170722
20
-38.603592
30
0
11
41.009754
21
-37.897187
31
0
39
0
210
0
220
0
230
1
0
LINE
5
E2
100
AcDbEntity
8
1
62
256
6
ByLayer
370
18
48
1
60
0
100
AcDbLine
10
44.573233
20
-41.641631
30
0
11
43.434483
21
-41.342287
31
0
39
0
210
0
220
0
230
1
0
LINE
5
E3
100
AcDbEntity
8
1
62
256
6
ByLayer
370
18
48
1
60
0
100
AcDbLine
10
49.015138
20
-42.795869
30
0
11
44.620458
21
-41.640637
31
0
39
0
210
0
220
0
230
1
0
LINE
5
E4
100
AcDbEntity
8
1
62
256
6
ByLayer
370
18
48
1
60
0
100
AcDbLine
10
57.871066
20
-39.654959
30
0
11
61.593844
21
-40.367014
31
0
39
0
210
0
220
0
230
1
0
LINE
5
E5
100
AcDbEntity
8
1
62
256
6
ByLayer
370
18
48
1
60
0
100
AcDbLine
10
46.350022
20
-30.663158
30
0
11
45.95028
21
-30.41993
31
0
39
0
210
0
220
0
230
1
0
LINE
5
E6
100
AcDbEntity
8
1
62
256
6
ByLayer
370
18
48
1
60
0
100
AcDbLine
10
47.735443
20
-40.5291
30
0
11
49.321391
21
-40.945999
31
0
39
0
210
0
220
0
230
1
0
LINE
5
E7
100
AcDbEntity
8
1
62
256
6
ByLayer
370
18
48
1
60
0
100
AcDbLine
10
44.573233
20
-41.641631
30
0
11
44.620458
21
-41.640637
31
0
39
0
210
0
220
0
230
1
0
LINE
5
E8
100
AcDbEntity
8
1
62
256
6
ByLayer
370
18
48
1
60
0
100
AcDbLine
10
59.632208
20
-36.480859
30
0
11
60.769066
21
-38.48059
31
0
39
0
210
0
220
0
230
1
0
LINE
5
E9
100
AcDbEntity
8
1
62
256
6
ByLayer
370
18
48
1
60
0
100
AcDbLine
10
46.350022
20
-30.663158
30
0
11
47.488771
21
-30.962502
31
0
39
0
210
0
220
0
230
1
0
LINE
5
EA
100
AcDbEntity
8
1
62
256
6
ByLayer
370
18
48
1
60
0
100
AcDbLine
10
59.928597
20
-41.55909
30
0
11
57.925201
21
-42.733339
31
0
39
0
210
0
220
0
230
1
0
LINE
5
EB
100
AcDbEntity
8
1
62
256
6
ByLayer
370
18
48
1
60
0
100
AcDbLine
10
42.611987
20
-32.028477
30
0
11
41.009754
21
-37.897187
31
0
39
0
210
0
220
0
230
1
0
LINE
5
EC
100
AcDbEntity
8
1
62
256
6
ByLayer
370
18
48
1
60
0
100
AcDbLine
10
43.376181
20
-40.721671
30
0
11
49.439455
21
-42.315528
31
0
39
0
210
0
220
0
230
1
0
LINE
5
ED
100
AcDbEntity
8
1
62
256
6
ByLayer
370
18
48
1
60
0
100
AcDbLine
10
49.622405
20
-38.476511
30
0
11
49.486559
21
-38.340665
31
0
39
0
210
0
220
0
230
1
0
LINE
5
EE
100
AcDbEntity
8
1
62
256
6
ByLayer
370
18
48
1
60
0
100
AcDbLine
10
49.355155
20
-38.491527
30
0
11
49.495503
21
-38.631875
31
0
39
0
210
0
220
0
230
1
0
LINE
5
EF
100
AcDbEntity
8
1
62
256
6
ByLayer
370
18
48
1
60
0
100
AcDbLine
10
49.648228
20
-38.296527
30
0
11
49.784074
21
-38.432374
31
0
39
0
210
0
220
0
230
1
0
LINE
5
F0
100
AcDbEntity
8
1
62
256
6
ByLayer
370
18
48
1
60
0
100
AcDbLine
10
48.784901
20
-38.16972
30
0
11
48.649054
21
-38.033874
31
0
39
0
210
0
220
0
230
1
0
LINE
5
F1
100
AcDbEntity
8
1
62
256
6
ByLayer
370
18
48
1
60
0
100
AcDbLine
10
49.87934
20
-36.571523
30
0
11
50.019688
21
-36.711871
31
0
39
0
210
0
220
0
230
1
0
LINE
5
F2
100
AcDbEntity
8
1
62
256
6
ByLayer
370
18
48
1
60
0
100
AcDbLine
10
48.453937
20
-37.996926
30
0
11
48.594286
21
-38.137274
31
0
39
0
210
0
220
0
230
1
0
LINE
5
F3
100
AcDbEntity
8
1
62
256
6
ByLayer
370
18
48
1
60
0
100
AcDbLine
10
49.836037
20
-38.36024
30
0
11
49.976386
21
-38.500588
31
0
39
0
210
0
220
0
230
1
0
LINE
5
F4
100
AcDbEntity
8
1
62
256
6
ByLayer
370
18
48
1
60
0
100
AcDbLine
10
50.373941
20
-37.47274
30
0
11
50.514289
21
-37.613089
31
0
39
0
210
0
220
0
230
1
0
LINE
5
F5
100
AcDbEntity
8
1
62
256
6
ByLayer
370
18
48
1
60
0
100
AcDbLine
10
50.242654
20
-37.953623
30
0
11
50.383002
21
-38.093971
31
0
39
0
210
0
220
0
230
1
0
LINE
5
F6
100
AcDbEntity
8
1
62
256
6
ByLayer
370
18
48
1
60
0
100
AcDbLine
10
50.314788
20
-37.90166
30
0
11
50.178941
21
-37.765814
31
0
39
0
210
0
220
0
230
1
0
LINE
5
F7
100
AcDbEntity
8
1
62
256
6
ByLayer
370
18
48
1
60
0
100
AcDbLine
10
50.223079
20
-37.604145
30
0
11
50.358926
21
-37.739991
31
0
39
0
210
0
220
0
230
1
0
LINE
5
F8
100
AcDbEntity
8
1
62
256
6
ByLayer
370
18
48
1
60
0
100
AcDbLine
10
49.916288
20
-36.76664
30
0
11
50.052134
21
-36.902486
31
0
39
0
210
0
220
0
230
1
0
MTEXT
5
1D5
100
AcDbEntity
8
SK6
62
256
6
ByLayer
370
18
48
1
60
0
100
AcDbMText
10
-3.125
20
40.699998
30
0
210
0
220
0
230
1
1
\W0.7739;C6-DWLNL-45065-06
40
3.5
41
0
44
1.084337
50
0
71
7
72
5
7
iso_b_vert
0
DIMENSION
5
1E6
100
AcDbEntity
8
2
62
256
6
ByLayer
370
13
48
1
60
0
100
AcDbDimension
2
DimnDraft3D1
10
65
20
-43.4125
30
0
11
52.554118
21
-56.53416
31
0
70
34
71
5
72
1
41
1
210
0
220
0
230
1
3
Standard
100
AcDb2LineAngularDimension
13
58.161432
23
-44.506602
33
0
14
64.141329
24
-44.997341
34
0
15
65
25
-45
35
0
16
49.244568
26
-59.583239
36
0
40
0
0
DIMENSION
5
1FB
100
AcDbEntity
8
2
62
256
6
ByLayer
370
13
48
1
60
0
100
AcDbDimension
2
DimnDraft3D2
10
65
20
-72.25
30
0
11
27.218421
21
-72.25
31
0
70
32
71
5
72
1
41
1
210
0
220
0
230
1
3
Standard
100
AcDbAlignedDimension
13
0
23
-33.5
33
0
14
65
24
-47
34
0
50
0
100
AcDbRotatedDimension
1001
ACAD
1000
DSTYLE
1002
{
1070
   279
1070
     0
1070
   172
1070
     1
1070
   173
1070
     1
1070
   340
1005
1D6
1070
    77
1070
     1
1070
    73
1070
     0
1070
   171
1070
     3
1070
   274
1070
     4
1070
   177
1070
     2
1070
   176
1070
     2
1070
   178
1070
     7
1070
    78
1070
     8
1070
    41
1041
3.175
1070
   147
1041
2.25
1070
    42
1041
2.0
1070
    44
1041
2.0
1070
   140
1041
4.5
1070
   343
1005
1E7
1070
   344
1005
1E7
1002
}
0
DIMENSION
5
20A
100
AcDbEntity
8
SK2
62
256
6
ByLayer
370
13
48
1
60
0
100
AcDbDimension
2
DimnDraft3D3
10
-45.75
20
31.5
30
0
11
-45.75
21
-2.688158
31
0
70
32
71
5
72
1
41
1
210
0
220
0
230
1
3
Standard
100
AcDbAlignedDimension
13
-2
23
-31.5
33
0
14
-2
24
31.5
34
0
50
90
100
AcDbRotatedDimension
1001
ACAD
1000
DSTYLE
1002
{
1070
    74
1070
     0
1070
   279
1070
     0
1070
   172
1070
     1
1070
   173
1070
     1
1070
   340
1005
1D6
1070
    77
1070
     1
1070
    73
1070
     0
1070
   171
1070
     3
1070
   274
1070
     4
1070
   177
1070
     2
1070
   176
1070
     2
1070
   178
1070
     7
1070
    78
1070
     8
1070
    41
1041
3.175
1070
   147
1041
2.25
1070
    42
1041
2.0
1070
    44
1041
2.0
1070
   140
1041
4.5
1070
   343
1005
1E7
1070
   344
1005
1E7
1002
}
0
DIMENSION
5
218
100
AcDbEntity
8
2
62
256
6
ByLayer
370
13
48
1
60
0
100
AcDbDimension
2
DimnDraft3D4
10
87.25
20
-45
30
0
11
87.25
21
-28.018421
31
0
70
32
71
5
72
1
41
1
210
0
220
0
230
1
3
Standard
100
AcDbAlignedDimension
13
67
23
0
33
0
14
67
24
-45
34
0
50
90
100
AcDbRotatedDimension
1001
ACAD
1000
DSTYLE
1002
{
1070
    74
1070
     0
1070
   279
1070
     0
1070
   172
1070
     1
1070
   173
1070
     1
1070
   340
1005
1D6
1070
    77
1070
     1
1070
    73
1070
     0
1070
   171
1070
     3
1070
   274
1070
     4
1070
   177
1070
     2
1070
   176
1070
     2
1070
   178
1070
     7
1070
    78
1070
     8
1070
    41
1041
3.175
1070
   147
1041
2.25
1070
    42
1041
2.0
1070
    44
1041
2.0
1070
   140
1041
4.5
1070
   343
1005
1E7
1070
   344
1005
1E7
1002
}
0
ENDSEC
0
SECTION
2
OBJECTS
0
DICTIONARY
5
283
330
0
100
AcDbDictionary
280
0
281
1
3
ACAD_GROUP
350
284
3
ACAD_MLINESTYLE
350
285
0
DICTIONARY
5
284
330
0
100
AcDbDictionary
280
0
281
1
0
DICTIONARY
5
285
330
0
100
AcDbDictionary
280
0
281
1
3
Standard
350
18
0
MLINESTYLE
5
18
330
285
100
AcDbMlineStyle
2
Standard
70
0
3

62
256
51
90
52
90
71
2
49
-0.5
62
256
6
ByLayer
49
0.5
62
256
6
ByLayer
0
RASTERVARIABLES
5
271
330

100
AcDbRasterVariables
90
0
70
1
71
1
72
1
0
ENDSEC
0
EOF
