0
SECTION
2
HEADER
9
$ACADVER
1
AC1015
9
$DWGCODEPAGE
3
ANSI_1252
9
$HANDSEED
5
29a
9
$ANGBASE
50
0
9
$ANGDIR
70
0
9
$ATTMODE
70
1
9
$AUNITS
70
0
9
$AUPREC
70
0
9
$CECOLOR
62
256
9
$CELTSCALE
40
1
9
$CELTYPE
6
ByLayer
9
$CELWEIGHT
370
18
9
$CLAYER
8
0
9
$CMLJUST
70
0
9
$CMLSCALE
40
1
9
$CMLSTYLE
2
Standard
9
$DIMSTYLE
2
Standard
9
$TEXTSIZE
40
0.2
9
$TEXTSTYLE
7
Standard
9
$LUNITS
70
2
9
$LUPREC
70
4
9
$EXTNAMES
290
1
9
$INSUNITS
70
4
9
$LTSCALE
40
1
9
$LWDISPLAY
290
1
9
$PDMODE
70
0
9
$PDSIZE
40
0
9
$PLINEGEN
70
0
0
ENDSEC
0
SECTION
2
CLASSES
0
CLASS
1
RASTERVARIABLES
2
AcDbRasterVariables
3
ISM
90
0
280
0
281
0
0
ENDSEC
0
SECTION
2
TABLES
0
TABLE
2
VPORT
5
290
100
AcDbSymbolTable
0
VPORT
5
1
100
AcDbSymbolTableRecord
100
AcDbViewportTableRecord
2
*Active
70
0
10
0
20
0
11
1
21
1
12
-1
22
1
13
0
23
0
14
0.5
24
0.5
15
10
25
10
16
0
26
0
36
1
17
0
27
0
37
0
0
ENDTAB
0
TABLE
2
LTYPE
5
291
100
AcDbSymbolTable
0
LTYPE
5
14
100
AcDbSymbolTableRecord
100
AcDbLinetypeTableRecord
70
0
2
ByBlock
3

72
65
73
0
40
0
0
LTYPE
5
15
100
AcDbSymbolTableRecord
100
AcDbLinetypeTableRecord
70
0
2
ByLayer
3

72
65
73
0
40
0
0
LTYPE
5
16
100
AcDbSymbolTableRecord
100
AcDbLinetypeTableRecord
70
0
2
CONTINUOUS
3
Solid line
72
65
73
0
40
0
0
LTYPE
5
6A
100
AcDbSymbolTableRecord
100
AcDbLinetypeTableRecord
70
0
2
CENTER
3
____ _ ____ _ ____ _ ____
72
65
73
4
40
47.5
49
22
74
0
49
-8.5
74
0
49
8.5
74
0
49
-8.5
74
0
0
LTYPE
5
6B
100
AcDbSymbolTableRecord
100
AcDbLinetypeTableRecord
70
0
2
DASHED
3
__ __ __ __ __ __ __ __ __
72
65
73
2
40
25.72
49
12.86
74
0
49
-12.86
74
0
0
ENDTAB
0
TABLE
2
LAYER
5
292
100
AcDbSymbolTable
0
LAYER
5
10
100
AcDbSymbolTableRecord
100
AcDbLayerTableRecord
2
0
70
0
62
7
6
CONTINUOUS
290
1
370
-3
390
0
0
LAYER
5
6D
100
AcDbSymbolTableRecord
100
AcDbLayerTableRecord
2
2
70
0
62
7
6
CONTINUOUS
290
1
370
-3
390
0
0
LAYER
5
6F
100
AcDbSymbolTableRecord
100
AcDbLayerTableRecord
2
80
70
0
62
-6
6
CONTINUOUS
290
1
370
-3
390
0
0
LAYER
5
71
100
AcDbSymbolTableRecord
100
AcDbLayerTableRecord
2
81
70
0
62
-3
6
CONTINUOUS
290
1
370
-3
390
0
0
LAYER
5
73
100
AcDbSymbolTableRecord
100
AcDbLayerTableRecord
2
1
70
0
62
4
6
CONTINUOUS
290
1
370
-3
390
0
0
LAYER
5
89
100
AcDbSymbolTableRecord
100
AcDbLayerTableRecord
2
4
70
0
62
-2
6
CENTER
290
1
370
-3
390
0
0
LAYER
5
27c
100
AcDbSymbolTableRecord
100
AcDbLayerTableRecord
2
SK4
70
0
62
2
6
CENTER
290
1
370
-3
390
0
0
LAYER
5
27d
100
AcDbSymbolTableRecord
100
AcDbLayerTableRecord
2
SK1
70
0
62
4
6
CONTINUOUS
290
1
370
-3
390
0
0
LAYER
5
27e
100
AcDbSymbolTableRecord
100
AcDbLayerTableRecord
2
SK6
70
0
62
5
6
CONTINUOUS
290
1
370
-3
390
0
0
LAYER
5
27f
100
AcDbSymbolTableRecord
100
AcDbLayerTableRecord
2
SK2
70
0
62
7
6
CONTINUOUS
290
1
370
-3
390
0
0
ENDTAB
0
TABLE
2
STYLE
5
293
100
AcDbSymbolTable
0
STYLE
5
11
100
AcDbSymbolTableRecord
100
AcDbTextStyleTableRecord
2
Standard
3
txt
70
0
71
0
40
0
41
1
42
0
50
0
0
STYLE
5
1E0
100
AcDbSymbolTableRecord
100
AcDbTextStyleTableRecord
2
iso_b_vert
3
simplex.shx
70
0
71
0
40
0
41
1
42
0
50
0
0
STYLE
5
1E1
100
AcDbSymbolTableRecord
100
AcDbTextStyleTableRecord
2
DWGDirectTextStyle
3
simplex
70
0
71
0
40
0
41
1
42
0
50
0
0
ENDTAB
0
TABLE
2
DIMSTYLE
5
294
100
AcDbSymbolTable
100
AcDbDimStyleTable
0
DIMSTYLE
105
27
100
AcDbSymbolTableRecord
100
AcDbDimStyleTableRecord
2
Standard
70
0
3
<>
41
0.18
42
0.0625
44
0.18
140
0.18
147
0.09
73
0
74
0
77
1
271
2
275
0
278
52
280
0
340
11
0
ENDTAB
0
TABLE
2
VIEW
5
295
100
AcDbSymbolTable
0
ENDTAB
0
TABLE
2
UCS
5
296
100
AcDbSymbolTable
0
ENDTAB
0
TABLE
2
APPID
5
297
100
AcDbSymbolTable
0
APPID
5
12
100
AcDbSymbolTableRecord
100
AcDbRegAppTableRecord
2
ACAD
70
0
0
ENDTAB
0
TABLE
2
BLOCK_RECORD
5
298
100
AcDbSymbolTable
0
BLOCK_RECORD
5
1F
100
AcDbSymbolTableRecord
100
AcDbBlockTableRecord
2
*Model_Space
340
0
70
0
0
BLOCK_RECORD
5
1B
100
AcDbSymbolTableRecord
100
AcDbBlockTableRecord
2
*Paper_Space
340
0
70
0
0
BLOCK_RECORD
5
23
100
AcDbSymbolTableRecord
100
AcDbBlockTableRecord
2
*Paper_Space0
340
0
70
0
0
BLOCK_RECORD
5
1E3
100
AcDbSymbolTableRecord
100
AcDbBlockTableRecord
2
DimnDraft3D11
340
0
70
0
0
BLOCK_RECORD
5
1F1
100
AcDbSymbolTableRecord
100
AcDbBlockTableRecord
2
DimnDraft3D2
340
0
70
0
0
BLOCK_RECORD
5
1FF
100
AcDbSymbolTableRecord
100
AcDbBlockTableRecord
2
_CLOSED
340
0
70
0
0
BLOCK_RECORD
5
206
100
AcDbSymbolTableRecord
100
AcDbBlockTableRecord
2
DimnDraft3D3
340
0
70
0
0
BLOCK_RECORD
5
215
100
AcDbSymbolTableRecord
100
AcDbBlockTableRecord
2
DimnDraft3D4
340
0
70
0
0
ENDTAB
0
ENDSEC
0
SECTION
2
BLOCKS
0
BLOCK
5
20
100
AcDbEntity
8
0
100
AcDbBlockBegin
2
*Model_Space
70
0
10
0
20
0
30
0
3
*Model_Space
0
ENDBLK
5
21
100
AcDbEntity
8
0
100
AcDbBlockEnd
0
BLOCK
5
1C
100
AcDbEntity
8
0
100
AcDbBlockBegin
2
*Paper_Space
70
0
10
0
20
0
30
0
3
*Paper_Space
0
ENDBLK
5
1D
100
AcDbEntity
8
0
100
AcDbBlockEnd
0
BLOCK
5
24
100
AcDbEntity
8
0
100
AcDbBlockBegin
2
*Paper_Space0
70
0
10
0
20
0
30
0
3
*Paper_Space0
0
ENDBLK
5
25
100
AcDbEntity
8
0
100
AcDbBlockEnd
0
BLOCK
5
1E4
100
AcDbEntity
8
0
100
AcDbBlockBegin
2
DimnDraft3D11
70
0
10
0
20
0
30
0
3
DimnDraft3D11
0
LINE
5
1E6
100
AcDbEntity
8
2
62
256
6
ByLayer
370
25
48
1
60
0
100
AcDbLine
10
65
20
2.582
30
0
11
65
21
44.832
31
0
39
0
210
0
220
0
230
1
0
LINE
5
1E7
100
AcDbEntity
8
2
62
256
6
ByLayer
370
25
48
1
60
0
100
AcDbLine
10
0
20
33.5
30
0
11
0
21
44.832
31
0
39
0
210
0
220
0
230
1
0
LINE
5
1E8
100
AcDbEntity
8
2
62
256
6
ByLayer
370
25
48
1
60
0
100
AcDbLine
10
65
20
42.832
30
0
11
0
21
42.832
31
0
39
0
210
0
220
0
230
1
0
LINE
5
1E9
100
AcDbEntity
8
2
62
256
6
ByLayer
370
25
48
1
60
0
100
AcDbLine
10
65
20
42.832
30
0
11
61.825002
21
42.414003
31
0
39
0
210
0
220
0
230
1
0
LINE
5
1EA
100
AcDbEntity
8
2
62
256
6
ByLayer
370
25
48
1
60
0
100
AcDbLine
10
65
20
42.832
30
0
11
61.824998
21
43.249997
31
0
39
0
210
0
220
0
230
1
0
LINE
5
1EB
100
AcDbEntity
8
2
62
256
6
ByLayer
370
25
48
1
60
0
100
AcDbLine
10
61.825002
20
42.414003
30
0
11
61.824998
21
43.249997
31
0
39
0
210
0
220
0
230
1
0
LINE
5
1EC
100
AcDbEntity
8
2
62
256
6
ByLayer
370
25
48
1
60
0
100
AcDbLine
10
0
20
42.832
30
0
11
3.174998
21
43.249997
31
0
39
0
210
0
220
0
230
1
0
LINE
5
1ED
100
AcDbEntity
8
2
62
256
6
ByLayer
370
25
48
1
60
0
100
AcDbLine
10
0
20
42.832
30
0
11
3.175002
21
42.414003
31
0
39
0
210
0
220
0
230
1
0
LINE
5
1EE
100
AcDbEntity
8
2
62
256
6
ByLayer
370
25
48
1
60
0
100
AcDbLine
10
3.174998
20
43.249997
30
0
11
3.175002
21
42.414003
31
0
39
0
210
0
220
0
230
1
0
MTEXT
5
1EF
100
AcDbEntity
8
2
62
256
6
ByLayer
370
18
48
1
60
0
100
AcDbMText
10
28.343421
20
43.957
30
0
210
0
220
0
230
1
1
\W0.7346;65.0
40
4.5
41
0
44
1.084337
50
0
71
7
72
5
7
iso_b_vert
0
ENDBLK
5
1E5
100
AcDbEntity
8
0
100
AcDbBlockEnd
0
BLOCK
5
1FC
100
AcDbEntity
8
0
100
AcDbBlockBegin
2
DimnDraft3D2
70
0
10
0
20
0
30
0
3
DimnDraft3D2
0
MTEXT
5
1F2
100
AcDbEntity
8
2
62
256
6
ByLayer
370
18
48
1
60
0
100
AcDbMText
10
46.297073
20
14.287078
30
0
210
0
220
0
230
1
1
\W0.7645;72%%d30'
40
4.5
41
0
44
1.084337
50
35.9991829199999
71
7
72
5
7
iso_b_vert
0
LINE
5
1F3
100
AcDbEntity
8
2
62
256
6
ByLayer
370
13
48
1
60
0
100
AcDbLine
10
65
20
2.582
30
0
11
65
21
23.537844
31
0
39
0
210
0
220
0
230
1
0
LINE
5
1F4
100
AcDbEntity
8
2
62
256
6
ByLayer
370
13
48
1
60
0
100
AcDbLine
10
55.649076
20
3.620594
30
0
11
43.167897
21
7.676369
31
0
39
0
210
0
220
0
230
1
0
ARC
5
1F5
100
AcDbEntity
8
2
62
256
6
ByLayer
370
13
48
1
60
0
100
AcDbCircle
39
0
10
65
20
0.582
30
0
40
20.9558441220057
210
0
220
0
230
1
100
AcDbArc
50
90
51
161.998366
0
LINE
5
1F6
100
AcDbEntity
8
2
62
256
6
ByLayer
370
13
48
1
60
0
100
AcDbLine
10
65
20
21.537844
30
0
11
61.843069
21
21.000144
31
0
39
0
210
0
220
0
230
1
0
LINE
5
1F7
100
AcDbEntity
8
2
62
256
6
ByLayer
370
13
48
1
60
0
100
AcDbLine
10
65
20
21.537844
30
0
11
61.811468
21
21.83554
31
0
39
0
210
0
220
0
230
1
0
LINE
5
1F8
100
AcDbEntity
8
2
62
256
6
ByLayer
370
13
48
1
60
0
100
AcDbLine
10
61.843069
20
21.000144
30
0
11
61.811468
21
21.83554
31
0
39
0
210
0
220
0
230
1
0
LINE
5
1F9
100
AcDbEntity
8
2
62
256
6
ByLayer
370
13
48
1
60
0
100
AcDbLine
10
45.069993
20
7.05828
30
0
11
45.772266
21
10.182724
31
0
39
0
210
0
220
0
230
1
0
LINE
5
1FA
100
AcDbEntity
8
2
62
256
6
ByLayer
370
13
48
1
60
0
100
AcDbLine
10
45.069993
20
7.05828
30
0
11
46.557003
21
9.894502
31
0
39
0
210
0
220
0
230
1
0
LINE
5
1FB
100
AcDbEntity
8
2
62
256
6
ByLayer
370
13
48
1
60
0
100
AcDbLine
10
45.772266
20
10.182724
30
0
11
46.557003
21
9.894502
31
0
39
0
210
0
220
0
230
1
0
ENDBLK
5
1FD
100
AcDbEntity
8
0
100
AcDbBlockEnd
0
BLOCK
5
200
100
AcDbEntity
8
0
100
AcDbBlockBegin
2
_CLOSED
70
0
10
0
20
0
30
0
3
_CLOSED
0
LINE
5
202
100
AcDbEntity
8
0
62
256
6
ByLayer
370
-2
48
1
60
0
100
AcDbLine
10
-1
20
0.166667
30
0
11
0
21
0
31
0
39
0
210
0
220
0
230
1
0
LINE
5
203
100
AcDbEntity
8
0
62
256
6
ByLayer
370
-2
48
1
60
0
100
AcDbLine
10
0
20
0
30
0
11
-1
21
-0.166667
31
0
39
0
210
0
220
0
230
1
0
LINE
5
204
100
AcDbEntity
8
0
62
256
6
ByLayer
370
-2
48
1
60
0
100
AcDbLine
10
-1
20
0.166667
30
0
11
-1
21
-0.166667
31
0
39
0
210
0
220
0
230
1
0
LINE
5
205
100
AcDbEntity
8
0
62
256
6
ByLayer
370
-2
48
1
60
0
100
AcDbLine
10
0
20
0
30
0
11
-1
21
0
31
0
39
0
210
0
220
0
230
1
0
ENDBLK
5
201
100
AcDbEntity
8
0
100
AcDbBlockEnd
0
BLOCK
5
212
100
AcDbEntity
8
0
100
AcDbBlockBegin
2
DimnDraft3D3
70
0
10
0
20
0
30
0
3
DimnDraft3D3
0
MTEXT
5
207
100
AcDbEntity
8
SK2
62
256
6
ByLayer
370
18
48
1
60
0
100
AcDbMText
10
-46.875
20
-1.563158
30
0
210
0
220
0
230
1
1
\W0.6740;63
40
4.5
41
0
44
1.084337
50
90
71
7
72
5
7
iso_b_vert
0
LINE
5
209
100
AcDbEntity
8
SK2
62
256
6
ByLayer
370
13
48
1
60
0
100
AcDbLine
10
-2
20
-31.5
30
0
11
-47.75
21
-31.5
31
0
39
0
210
0
220
0
230
1
0
LINE
5
20A
100
AcDbEntity
8
SK2
62
256
6
ByLayer
370
13
48
1
60
0
100
AcDbLine
10
-2
20
31.5
30
0
11
-47.75
21
31.5
31
0
39
0
210
0
220
0
230
1
0
LINE
5
20B
100
AcDbEntity
8
SK2
62
256
6
ByLayer
370
13
48
1
60
0
100
AcDbLine
10
-45.75
20
-31.5
30
0
11
-45.75
21
31.5
31
0
39
0
210
0
220
0
230
1
0
LINE
5
20C
100
AcDbEntity
8
SK2
62
256
6
ByLayer
370
13
48
1
60
0
100
AcDbLine
10
-45.75
20
-31.5
30
0
11
-46.167997
21
-28.325002
31
0
39
0
210
0
220
0
230
1
0
LINE
5
20D
100
AcDbEntity
8
SK2
62
256
6
ByLayer
370
13
48
1
60
0
100
AcDbLine
10
-45.75
20
-31.5
30
0
11
-45.332003
21
-28.324998
31
0
39
0
210
0
220
0
230
1
0
LINE
5
20E
100
AcDbEntity
8
SK2
62
256
6
ByLayer
370
13
48
1
60
0
100
AcDbLine
10
-46.167997
20
-28.325002
30
0
11
-45.332003
21
-28.324998
31
0
39
0
210
0
220
0
230
1
0
LINE
5
20F
100
AcDbEntity
8
SK2
62
256
6
ByLayer
370
13
48
1
60
0
100
AcDbLine
10
-45.75
20
31.5
30
0
11
-45.332003
21
28.325002
31
0
39
0
210
0
220
0
230
1
0
LINE
5
210
100
AcDbEntity
8
SK2
62
256
6
ByLayer
370
13
48
1
60
0
100
AcDbLine
10
-45.75
20
31.5
30
0
11
-46.167997
21
28.324998
31
0
39
0
210
0
220
0
230
1
0
LINE
5
211
100
AcDbEntity
8
SK2
62
256
6
ByLayer
370
13
48
1
60
0
100
AcDbLine
10
-45.332003
20
28.325002
30
0
11
-46.167997
21
28.324998
31
0
39
0
210
0
220
0
230
1
0
ENDBLK
5
213
100
AcDbEntity
8
0
100
AcDbBlockEnd
0
BLOCK
5
220
100
AcDbEntity
8
0
100
AcDbBlockBegin
2
DimnDraft3D4
70
0
10
0
20
0
30
0
3
DimnDraft3D4
0
MTEXT
5
216
100
AcDbEntity
8
2
62
256
6
ByLayer
370
18
48
1
60
0
100
AcDbMText
10
86.125
20
11.962
30
0
210
0
220
0
230
1
1
\W0.7121;0.6
40
4.5
41
0
44
1.084337
50
90
71
7
72
5
7
iso_b_vert
0
LINE
5
217
100
AcDbEntity
8
2
62
256
6
ByLayer
370
13
48
1
60
0
100
AcDbLine
10
67
20
0
30
0
11
89.25
21
0
31
0
39
0
210
0
220
0
230
1
0
LINE
5
218
100
AcDbEntity
8
2
62
256
6
ByLayer
370
13
48
1
60
0
100
AcDbLine
10
67
20
0.582
30
0
11
89.25
21
0.582
31
0
39
0
210
0
220
0
230
1
0
LINE
5
219
100
AcDbEntity
8
2
62
256
6
ByLayer
370
13
48
1
60
0
100
AcDbLine
10
87.25
20
18.037
30
0
11
87.25
21
-11.25
31
0
39
0
210
0
220
0
230
1
0
LINE
5
21A
100
AcDbEntity
8
2
62
256
6
ByLayer
370
13
48
1
60
0
100
AcDbLine
10
87.25
20
0
30
0
11
87.667997
21
-3.174998
31
0
39
0
210
0
220
0
230
1
0
LINE
5
21B
100
AcDbEntity
8
2
62
256
6
ByLayer
370
13
48
1
60
0
100
AcDbLine
10
87.25
20
0
30
0
11
86.832003
21
-3.175002
31
0
39
0
210
0
220
0
230
1
0
LINE
5
21C
100
AcDbEntity
8
2
62
256
6
ByLayer
370
13
48
1
60
0
100
AcDbLine
10
87.667997
20
-3.174998
30
0
11
86.832003
21
-3.175002
31
0
39
0
210
0
220
0
230
1
0
LINE
5
21D
100
AcDbEntity
8
2
62
256
6
ByLayer
370
13
48
1
60
0
100
AcDbLine
10
87.25
20
0.582
30
0
11
86.832003
21
3.756998
31
0
39
0
210
0
220
0
230
1
0
LINE
5
21E
100
AcDbEntity
8
2
62
256
6
ByLayer
370
13
48
1
60
0
100
AcDbLine
10
87.25
20
0.582
30
0
11
87.667997
21
3.757002
31
0
39
0
210
0
220
0
230
1
0
LINE
5
21F
100
AcDbEntity
8
2
62
256
6
ByLayer
370
13
48
1
60
0
100
AcDbLine
10
86.832003
20
3.756998
30
0
11
87.667997
21
3.757002
31
0
39
0
210
0
220
0
230
1
0
ENDBLK
5
221
100
AcDbEntity
8
0
100
AcDbBlockEnd
0
ENDSEC
0
SECTION
2
ENTITIES
0
ARC
5
FF
100
AcDbEntity
8
SK1
62
256
6
ByLayer
370
18
48
1
60
0
100
AcDbCircle
39
0
10
0.6
20
-23.45
30
0
40
0.999999999999999
210
0
220
0
230
-1
100
AcDbArc
50
113.578178
51
126.869898
0
ARC
5
100
100
AcDbEntity
8
SK1
62
256
6
ByLayer
370
18
48
1
60
0
100
AcDbCircle
39
0
10
0.6
20
23.45
30
0
40
0.999999999999999
210
0
220
0
230
-1
100
AcDbArc
50
233.130102
51
246.421822
0
ELLIPSE
5
101
100
AcDbEntity
8
1
62
256
6
ByLayer
370
18
48
1
60
0
100
AcDbEllipse
10
26.941061
20
-11.974986
30
0
11
0.689308408085989
21
-2.08922328116024
31
0
210
0
220
0
230
1
40
0.222943
41
2.05226546984792E-06
42
3.12589813360373
0
ELLIPSE
5
102
100
AcDbEntity
8
1
62
256
6
ByLayer
370
18
48
1
60
0
100
AcDbEllipse
10
27.172497
20
-11.898627
30
0
11
-0.610977907167125
21
1.85181154466476
31
0
210
0
220
0
230
1
40
0.222943
41
-2.91079439872561
42
-0.230793790181612
0
ELLIPSE
5
103
100
AcDbEntity
8
1
62
256
6
ByLayer
370
18
48
1
60
0
100
AcDbEllipse
10
29.157616
20
8.822676
30
0
11
-0.0264182675202582
21
-2.99988367693503
31
0
210
0
220
0
230
1
40
0.965962
41
-0.12237351244729
42
-0.0344548869386324
0
ELLIPSE
5
104
100
AcDbEntity
8
1
62
256
6
ByLayer
370
18
48
1
60
0
100
AcDbEllipse
10
34.668645
20
2.422881
30
0
11
0.0365452700696956
21
4.14983908642679
31
0
210
0
220
0
230
1
40
0.965962
41
-3.04228760567054
42
-0.122373512447291
0
ELLIPSE
5
105
100
AcDbEntity
8
1
62
256
6
ByLayer
370
18
48
1
60
0
100
AcDbEllipse
10
32.628901
20
2.700859
30
0
11
0.0228958318508936
21
2.59989918667703
31
0
210
0
220
0
230
1
40
0.965962
41
1.24299194838812
42
1.65915491734252
0
ELLIPSE
5
106
100
AcDbEntity
8
1
62
256
6
ByLayer
370
18
48
1
60
0
100
AcDbEllipse
10
12
20
-19.981782
30
0
11
-1.99999999999999
21
2.44921270764474E-16
31
0
210
0
220
0
230
1
40
0.681998
41
0.241608078834302
42
1.57079618914633
0
ELLIPSE
5
107
100
AcDbEntity
8
1
62
256
6
ByLayer
370
18
48
1
60
0
100
AcDbEllipse
10
12
20
-19.981782
30
0
11
-1.99999999999999
21
2.44921270764474E-16
31
0
210
0
220
0
230
1
40
0.681998
41
1.57079618914633
42
2.89998418375822
0
ELLIPSE
5
108
100
AcDbEntity
8
1
62
256
6
ByLayer
370
18
48
1
60
0
100
AcDbEllipse
10
49.739626
20
0.049998
30
0
11
7.38743782943349E-17
21
1.2065
31
0
210
0
220
0
230
1
40
0.970296
41
-1.04859282503607
42
-0.27908747273216
0
ELLIPSE
5
109
100
AcDbEntity
8
1
62
256
6
ByLayer
370
18
48
1
60
0
100
AcDbEllipse
10
51.740751
20
-1.228217
30
0
11
-0.445620191007542
21
0.664396451951997
31
0
210
0
220
0
230
1
40
0.633245
41
3.05352087690022
42
3.13576025464842
0
ELLIPSE
5
10A
100
AcDbEntity
8
1
62
256
6
ByLayer
370
18
48
1
60
0
100
AcDbEllipse
10
52.324554
20
-0.816613
30
0
11
-0.471598809440728
21
0.646215570018309
31
0
210
0
220
0
230
1
40
0.871439
41
3.00627372660936
42
-3.14151592270471
0
ELLIPSE
5
10B
100
AcDbEntity
8
1
62
256
6
ByLayer
370
18
48
1
60
0
100
AcDbEllipse
10
12
20
-19.981782
30
0
11
-1.64999999999999
21
2.02060048380691E-16
31
0
210
0
220
0
230
1
40
0.681998
41
-0.539372507029148
42
0
0
ELLIPSE
5
10C
100
AcDbEntity
8
1
62
256
6
ByLayer
370
18
48
1
60
0
100
AcDbEllipse
10
12
20
-19.981782
30
0
11
-1.64999999999999
21
2.02060048380691E-16
31
0
210
0
220
0
230
1
40
0.681998
41
0
42
1.57079606964742
0
ELLIPSE
5
10D
100
AcDbEntity
8
1
62
256
6
ByLayer
370
18
48
1
60
0
100
AcDbEllipse
10
12
20
-19.981782
30
0
11
-1.64999999999999
21
2.02060048380691E-16
31
0
210
0
220
0
230
1
40
0.681998
41
1.57079649217664
42
-2.60222026442106
0
ELLIPSE
5
10E
100
AcDbEntity
8
1
62
256
6
ByLayer
370
18
48
1
60
0
100
AcDbEllipse
10
23.707119
20
-53.805911
30
0
11
-0.852936335487001
21
57.1231444084109
31
0
210
0
220
0
230
1
40
0.068414
41
0.858558817558891
42
0.906767107317241
0
ELLIPSE
5
10F
100
AcDbEntity
8
1
62
256
6
ByLayer
370
18
48
1
60
0
100
AcDbEllipse
10
23.707119
20
-53.805911
30
0
11
-0.852936335487001
21
57.1231444084109
31
0
210
0
220
0
230
1
40
0.068414
41
0.740942596124381
42
0.743730516041095
0
ELLIPSE
5
110
100
AcDbEntity
8
1
62
256
6
ByLayer
370
18
48
1
60
0
100
AcDbEllipse
10
33.7944
20
3.678623
30
0
11
2.32675207226252E-17
21
0.38
31
0
210
0
220
0
230
1
40
0.970296
41
-1.02477186289273
42
-0.830268359238146
0
ELLIPSE
5
111
100
AcDbEntity
8
1
62
256
6
ByLayer
370
18
48
1
60
0
100
AcDbEllipse
10
34.006383
20
2.519154
30
0
11
-7.34763812293426E-16
21
-4
31
0
210
0
220
0
230
1
40
0.970296
41
-3.14156003287518
42
-2.28842131602141E-16
0
ELLIPSE
5
112
100
AcDbEntity
8
1
62
256
6
ByLayer
370
18
48
1
60
0
100
AcDbEllipse
10
34.058889
20
0.941654
30
0
11
-7.80686550561765E-17
21
-0.425
31
0
210
0
220
0
230
1
40
0.970296
41
3.14159054897041
42
-2.43876027691068
0
ELLIPSE
5
113
100
AcDbEntity
8
1
62
256
6
ByLayer
370
18
48
1
60
0
100
AcDbEllipse
10
34.461914
20
4.096654
30
0
11
-7.80686550561765E-17
21
-0.425
31
0
210
0
220
0
230
1
40
0.970296
41
-1.02477186289273
42
-3.87335458121879E-06
0
ELLIPSE
5
114
100
AcDbEntity
8
1
62
256
6
ByLayer
370
18
48
1
60
0
100
AcDbEllipse
10
34.726403
20
1.359685
30
0
11
2.32675207226252E-17
21
0.38
31
0
210
0
220
0
230
1
40
0.970296
41
-2.31129443343939
42
-1.33142262729756
0
ELLIPSE
5
115
100
AcDbEntity
8
1
62
256
6
ByLayer
370
18
48
1
60
0
100
AcDbEllipse
10
35.001703
20
3.514812
30
0
11
2.32675207226252E-17
21
0.38
31
0
210
0
220
0
230
1
40
0.970296
41
-2.07196941408932
42
-0.826012644730264
0
ELLIPSE
5
116
100
AcDbEntity
8
1
62
256
6
ByLayer
370
18
48
1
60
0
100
AcDbEllipse
10
34.260401
20
2.519154
30
0
11
-2.1124459603436E-16
21
-1.15
31
0
210
0
220
0
230
1
40
0.970296
41
-0.531681938688674
42
-3.97986315829811E-16
0
ELLIPSE
5
117
100
AcDbEntity
8
1
62
256
6
ByLayer
370
18
48
1
60
0
100
AcDbEllipse
10
34.260401
20
2.519154
30
0
11
-2.1124459603436E-16
21
-1.15
31
0
210
0
220
0
230
1
40
0.970296
41
0
42
-2.88110191477672
0
ELLIPSE
5
118
100
AcDbEntity
8
1
62
256
6
ByLayer
370
18
48
1
60
0
100
AcDbEllipse
10
34.054768
20
2.519154
30
0
11
-2.1124459603436E-16
21
-1.15
31
0
210
0
220
0
230
1
40
0.970296
41
0.0923169644569065
42
3.04924305284735
0
ELLIPSE
5
119
100
AcDbEntity
8
1
62
256
6
ByLayer
370
18
48
1
60
0
100
AcDbEllipse
10
31.988708
20
2.519154
30
0
11
-3.58197358493045E-16
21
-1.95
31
0
210
0
220
0
230
1
40
0.970296
41
-1.81286266774118
42
-1.72970839899532
0
ELLIPSE
5
11A
100
AcDbEntity
8
1
62
256
6
ByLayer
370
18
48
1
60
0
100
AcDbEllipse
10
50.271599
20
4.161348
30
0
11
4.86015646673256E-17
21
0.79375
31
0
210
0
220
0
230
1
40
0.970296
41
-3.96722216225289E-07
42
0.305432619100073
0
ELLIPSE
5
11B
100
AcDbEntity
8
1
62
256
6
ByLayer
370
18
48
1
60
0
100
AcDbEllipse
10
50.271599
20
-4.161352
30
0
11
4.86015646673256E-17
21
0.79375
31
0
210
0
220
0
230
1
40
0.970296
41
2.83616003449185
42
-3.14159225686544
0
ELLIPSE
5
11C
100
AcDbEntity
8
1
62
256
6
ByLayer
370
18
48
1
60
0
100
AcDbEllipse
10
26.298321
20
-0.922344
30
0
11
-0.126361389006057
21
2.99784299147793
31
0
210
0
220
0
230
1
40
0.977253
41
1.39775620217092
42
2.45411771300342
0
ELLIPSE
5
11D
100
AcDbEntity
8
1
62
256
6
ByLayer
370
18
48
1
60
0
100
AcDbEllipse
10
27.362173
20
7.405792
30
0
11
-0.126361388996068
21
2.9978429914771
31
0
210
0
220
0
230
1
40
0.977253
41
0.341394691341436
42
1.39775620217429
0
ELLIPSE
5
11E
100
AcDbEntity
8
1
62
256
6
ByLayer
370
18
48
1
60
0
100
AcDbEllipse
10
31.106812
20
5.448026
30
0
11
5.45566738258141
21
-0.696917075868654
31
0
210
0
220
0
230
1
40
0.031577
41
1.86281129105338
42
2.40708334238883
0
ELLIPSE
5
11F
100
AcDbEntity
8
1
62
256
6
ByLayer
370
18
48
1
60
0
100
AcDbEllipse
10
30.952816
20
-1.129532
30
0
11
-4.5721310359362
21
-2.30831661270265
31
0
210
0
220
0
230
1
40
0.368229
41
0.171490785165009
42
0.491630528008536
0
ELLIPSE
5
120
100
AcDbEntity
8
1
62
256
6
ByLayer
370
18
48
1
60
0
100
AcDbEllipse
10
27.523491
20
-0.924229
30
0
11
0.702517939076867
21
-1.87255668679888
31
0
210
0
220
0
230
1
40
0.741673
41
-1.79872843263673
42
-0.524713612689529
0
ELLIPSE
5
121
100
AcDbEntity
8
1
62
256
6
ByLayer
370
18
48
1
60
0
100
AcDbEllipse
10
22.291224
20
-3.210871
30
0
11
6.94357666873998
21
-0.886985369287378
31
0
210
0
220
0
230
1
40
0.031577
41
-0.923633846781377
42
-0.905562010579719
0
ELLIPSE
5
122
100
AcDbEntity
8
1
62
256
6
ByLayer
370
18
48
1
60
0
100
AcDbEllipse
10
30.091033
20
-3.698542
30
0
11
-3.51037606772402
21
0.127273170300702
31
0
210
0
220
0
230
1
40
0.351554
41
-0.70033600544441
42
0.0969276675480684
0
ELLIPSE
5
123
100
AcDbEntity
8
1
62
256
6
ByLayer
370
18
48
1
60
0
100
AcDbEllipse
10
31.769257
20
9.43908
30
0
11
-3.43209894362375
21
0.745460121848647
31
0
210
0
220
0
230
1
40
0.288947
41
-0.103784397171355
42
0.693479275820623
0
ELLIPSE
5
124
100
AcDbEntity
8
1
62
256
6
ByLayer
370
18
48
1
60
0
100
AcDbEllipse
10
32.016668
20
7.198605
30
0
11
-3.9740300842677
21
2.85446143354588
31
0
210
0
220
0
230
1
40
0.331519
41
-0.558236074940573
42
-0.238096332097259
0
ELLIPSE
5
125
100
AcDbEntity
8
1
62
256
6
ByLayer
370
18
48
1
60
0
100
AcDbEllipse
10
28.599208
20
7.496793
30
0
11
-1.04270916807682
21
-1.7066802837112
31
0
210
0
220
0
230
1
40
0.75997
41
-2.70285903413489
42
-1.42884421418838
0
ELLIPSE
5
126
100
AcDbEntity
8
1
62
256
6
ByLayer
370
18
48
1
60
0
100
AcDbEllipse
10
30.448237
20
0.292513
30
0
11
5.45566738258141
21
-0.696917075868654
31
0
210
0
220
0
230
1
40
0.031577
41
1.86281129105339
42
2.40708334238884
0
ELLIPSE
5
127
100
AcDbEntity
8
1
62
256
6
ByLayer
370
18
48
1
60
0
100
AcDbEllipse
10
35.111311
20
22.039631
30
0
11
2.9919240085388
21
9.77966858722806
31
3.69951829762289E-17
210
1.2365014241888E-17
220
7.70371977754894E-34
230
-1
40
0.99735
41
3.14159265358979
42
-1.86843039905857
0
ELLIPSE
5
128
100
AcDbEntity
8
1
62
256
6
ByLayer
370
18
48
1
60
0
100
AcDbEllipse
10
53.178773
20
-14.553423
30
0
11
-1.87364772134824E-15
21
-10.2
31
0
210
0
220
0
230
1
40
0.970296
41
-2.80681440445296
42
-2.28695769252748
0
ELLIPSE
5
129
100
AcDbEntity
8
1
62
256
6
ByLayer
370
18
48
1
60
0
100
AcDbEllipse
10
12
20
-18.185217
30
0
11
-1.87686272356697
21
-2.86780973812225
31
0
210
0
220
0
230
1
40
0.240927
41
-0.679241005235342
42
-0.0262290721842159
0
ELLIPSE
5
12A
100
AcDbEntity
8
1
62
256
6
ByLayer
370
18
48
1
60
0
100
AcDbEllipse
10
12
20
-20.403367
30
0
11
-2.00000000000004
21
2.02127811016477E-15
31
0
210
0
220
0
230
1
40
0.707538
41
0.751504621492329
42
2.39008803209746
0
ELLIPSE
5
12B
100
AcDbEntity
8
1
62
256
6
ByLayer
370
18
48
1
60
0
100
AcDbEllipse
10
-2.347154
20
0
30
0
11
-14.7536831606537
21
-31.0932549155779
31
0
210
0
220
0
230
1
40
0.341999
41
2.05035306783689
42
2.98378646694435
0
ELLIPSE
5
12C
100
AcDbEntity
8
1
62
256
6
ByLayer
370
18
48
1
60
0
100
AcDbEllipse
10
12
20
-20.403367
30
0
11
-1.99999999999995
21
2.02127811016468E-15
31
0
210
0
220
0
230
1
40
0.707538
41
-2.3900880320975
42
-0.751504621492278
0
ELLIPSE
5
12D
100
AcDbEntity
8
1
62
256
6
ByLayer
370
18
48
1
60
0
100
AcDbEllipse
10
53.178773
20
14.55342
30
0
11
-1.87364772134824E-15
21
-10.2
31
0
210
0
220
0
230
1
40
0.970296
41
-0.854634961060634
42
-0.339375987100573
0
ELLIPSE
5
12E
100
AcDbEntity
8
1
62
256
6
ByLayer
370
18
48
1
60
0
100
AcDbEllipse
10
35.111311
20
-22.039634
30
0
11
-2.9919240085594
21
9.77966858722175
31
-3.69951829764836E-17
210
1.2365014241888E-17
220
-3.85185988877447E-34
230
-1
40
0.99735
41
-1.27316225453123
42
-3.4830540363012E-16
0
ELLIPSE
5
12F
100
AcDbEntity
8
1
62
256
6
ByLayer
370
18
48
1
60
0
100
AcDbEllipse
10
20.755893
20
0
30
0
11
1.92875500727024E-15
21
31.5
31
0
210
0
220
0
230
1
40
0.087489
41
0.38443325908863
42
2.75715939450117
0
ELLIPSE
5
130
100
AcDbEntity
8
1
62
256
6
ByLayer
370
18
48
1
60
0
100
AcDbEllipse
10
46.600277
20
-2.048085
30
0
11
-2.01730605013264
21
1.81951532275354
31
0
210
0
220
0
230
1
40
0.380158
41
2.44186823827852
42
2.81313925710405
0
ELLIPSE
5
131
100
AcDbEntity
8
1
62
256
6
ByLayer
370
18
48
1
60
0
100
AcDbEllipse
10
19.665106
20
-1.53249
30
0
11
-0.0297837477777559
21
-8.0954273179071
31
0
210
0
220
0
230
1
40
0.010776
41
2.80071308643702
42
-2.02717820664502
0
ELLIPSE
5
132
100
AcDbEntity
8
1
62
256
6
ByLayer
370
18
48
1
60
0
100
AcDbEllipse
10
-2.347154
20
0
30
0
11
-14.7536831606548
21
31.0932549155792
31
0
210
0
220
0
230
1
40
0.341999
41
-2.98378646694435
42
-2.05035306783692
0
ELLIPSE
5
133
100
AcDbEntity
8
1
62
256
6
ByLayer
370
18
48
1
60
0
100
AcDbEllipse
10
19.407973
20
-12.90204
30
0
11
-0.0152959483984954
21
6.7574889247688
31
0
210
0
220
0
230
1
40
0.027224
41
1.45166546568147
42
2.83380524825843
0
ELLIPSE
5
134
100
AcDbEntity
8
1
62
256
6
ByLayer
370
18
48
1
60
0
100
AcDbEllipse
10
26.347154
20
0
30
0
11
-14.7536831606553
21
-31.0932549155799
31
0
210
0
220
0
230
1
40
0.341999
41
-1.09123958575286
42
-0.157806186645435
0
ELLIPSE
5
135
100
AcDbEntity
8
1
62
256
6
ByLayer
370
18
48
1
60
0
100
AcDbEllipse
10
12
20
-18.185217
30
0
11
-1.87686272356242
21
2.86780973811654
31
0
210
0
220
0
230
1
40
0.240927
41
-3.11536358140556
42
-2.46235164835362
0
ELLIPSE
5
136
100
AcDbEntity
8
1
62
256
6
ByLayer
370
18
48
1
60
0
100
AcDbEllipse
10
19.663833
20
-15.812167
30
0
11
-0.0152959483984318
21
6.75748892475595
31
0
210
0
220
0
230
1
40
0.027224
41
2.83380524825815
42
-2.90205032774558
0
ELLIPSE
5
137
100
AcDbEntity
8
1
62
256
6
ByLayer
370
18
48
1
60
0
100
AcDbEllipse
10
23.707119
20
44.874023
30
0
11
-3.42763696691683
21
-43.1535462749621
31
0
210
0
220
0
230
1
40
0.04778
41
-0.431401920540424
42
0.669178597445386
0
ELLIPSE
5
138
100
AcDbEntity
8
1
62
256
6
ByLayer
370
18
48
1
60
0
100
AcDbEllipse
10
26.347154
20
0
30
0
11
-14.7536831606555
21
31.0932549155802
31
0
210
0
220
0
230
1
40
0.341999
41
0.157806186645435
42
1.09123958575285
0
ELLIPSE
5
139
100
AcDbEntity
8
1
62
256
6
ByLayer
370
18
48
1
60
0
100
AcDbEllipse
10
40.858861
20
0.17097
30
0
11
-2.01103447032727
21
-1.82125825073611
31
0
210
0
220
0
230
1
40
0.379276
41
-2.43979162701511
42
-2.06852060818786
0
ELLIPSE
5
13A
100
AcDbEntity
8
1
62
256
6
ByLayer
370
18
48
1
60
0
100
AcDbEllipse
10
51.423752
20
4.161348
30
0
11
4.86015646673256E-17
21
0.79375
31
0
210
0
220
0
230
1
40
0.970296
41
-0.305432619097936
42
0.305432619100066
0
ELLIPSE
5
13B
100
AcDbEntity
8
1
62
256
6
ByLayer
370
18
48
1
60
0
100
AcDbEllipse
10
64.229828
20
-2E-06
30
0
11
4.86015646673256E-17
21
0.79375
31
0
210
0
220
0
230
1
40
0.970296
41
-2.83616003448969
42
-0.30543261909792
0
ELLIPSE
5
13C
100
AcDbEntity
8
1
62
256
6
ByLayer
370
18
48
1
60
0
100
AcDbEllipse
10
51.423752
20
-4.161352
30
0
11
4.86015646673256E-17
21
0.79375
31
0
210
0
220
0
230
1
40
0.970296
41
2.83616003449185
42
-2.83616003448973
0
ELLIPSE
5
13D
100
AcDbEntity
8
1
62
256
6
ByLayer
370
18
48
1
60
0
100
AcDbEllipse
10
36.231057
20
3.128046
30
0
11
-7.80686550561765E-17
21
-0.425
31
0
210
0
220
0
230
1
40
0.970296
41
-1.00246152654671
42
-0.284225076100928
0
ELLIPSE
5
13E
100
AcDbEntity
8
1
62
256
6
ByLayer
370
18
48
1
60
0
100
AcDbEllipse
10
33.378394
20
1.910262
30
0
11
-7.80686550561765E-17
21
-0.425
31
0
210
0
220
0
230
1
40
0.970296
41
2.1391311270431
42
2.8573675774889
0
ELLIPSE
5
13F
100
AcDbEntity
8
1
62
256
6
ByLayer
370
18
48
1
60
0
100
AcDbEllipse
10
34.603213
20
0.941654
30
0
11
-7.80686550561765E-17
21
-0.425
31
0
210
0
220
0
230
1
40
0.970296
41
-3.09685662893985
42
-2.37862017849414
0
ELLIPSE
5
140
100
AcDbEntity
8
1
62
256
6
ByLayer
370
18
48
1
60
0
100
AcDbEllipse
10
33.579907
20
3.487762
30
0
11
-7.80686550561765E-17
21
-0.425
31
0
210
0
220
0
230
1
40
0.970296
41
0.0224256883039292
42
0.740662138749635
0
ELLIPSE
5
141
100
AcDbEntity
8
1
62
256
6
ByLayer
370
18
48
1
60
0
100
AcDbEllipse
10
34.804726
20
2.519154
30
0
11
-2.15836869861194E-16
21
-1.175
31
0
210
0
220
0
230
1
40
0.970296
41
0.853054005599386
42
0.979541708996751
0
ELLIPSE
5
142
100
AcDbEntity
8
1
62
256
6
ByLayer
370
18
48
1
60
0
100
AcDbEllipse
10
36.231057
20
3.128046
30
0
11
-7.80686550561765E-17
21
-0.425
31
0
210
0
220
0
230
1
40
0.970296
41
-2.07196941408933
42
-1.3537329636436
0
ELLIPSE
5
143
100
AcDbEntity
8
1
62
256
6
ByLayer
370
18
48
1
60
0
100
AcDbEllipse
10
35.546027
20
3.514812
30
0
11
2.32675207226252E-17
21
0.38
31
0
210
0
220
0
230
1
40
0.970296
41
-2.07196941408932
42
0.762972475095665
0
ELLIPSE
5
144
100
AcDbEntity
8
1
62
256
6
ByLayer
370
18
48
1
60
0
100
AcDbEllipse
10
35.467705
20
2.355344
30
0
11
2.32675207226252E-17
21
0.38
31
0
210
0
220
0
230
1
40
0.970296
41
-3.11916696528588
42
-0.284225076100899
0
ELLIPSE
5
145
100
AcDbEntity
8
1
62
256
6
ByLayer
370
18
48
1
60
0
100
AcDbEllipse
10
33.378394
20
1.910262
30
0
11
-7.80686550561765E-17
21
-0.425
31
0
210
0
220
0
230
1
40
0.970296
41
1.06962323950047
42
1.78785968994618
0
ELLIPSE
5
146
100
AcDbEntity
8
1
62
256
6
ByLayer
370
18
48
1
60
0
100
AcDbEllipse
10
34.804726
20
2.519154
30
0
11
1.40829730689573E-16
21
2.3
31
0
210
0
220
0
230
1
40
0.970296
41
0
42
6.28318530717959
0
ELLIPSE
5
147
100
AcDbEntity
8
1
62
256
6
ByLayer
370
18
48
1
60
0
100
AcDbEllipse
10
34.603213
20
0.941654
30
0
11
-7.80686550561765E-17
21
-0.425
31
0
210
0
220
0
230
1
40
0.970296
41
2.11682079069706
42
2.83505724114285
0
ELLIPSE
5
148
100
AcDbEntity
8
1
62
256
6
ByLayer
370
18
48
1
60
0
100
AcDbEllipse
10
34.804726
20
2.519154
30
0
11
-2.15836869861194E-16
21
-1.175
31
0
210
0
220
0
230
1
40
0.970296
41
2.9474491079926
42
3.07393681138999
0
ELLIPSE
5
149
100
AcDbEntity
8
1
62
256
6
ByLayer
370
18
48
1
60
0
100
AcDbEllipse
10
36.029544
20
1.550546
30
0
11
-7.80686550561765E-17
21
-0.425
31
0
210
0
220
0
230
1
40
0.970296
41
-3.1191669652859
42
-2.40093051484013
0
ELLIPSE
5
14A
100
AcDbEntity
8
1
62
256
6
ByLayer
370
18
48
1
60
0
100
AcDbEllipse
10
34.804726
20
2.519154
30
0
11
-2.15836869861194E-16
21
-1.175
31
0
210
0
220
0
230
1
40
0.970296
41
-0.19414354559718
42
-0.0676558421997851
0
ELLIPSE
5
14B
100
AcDbEntity
8
1
62
256
6
ByLayer
370
18
48
1
60
0
100
AcDbEllipse
10
34.804726
20
2.519154
30
0
11
-2.15836869861194E-16
21
-1.175
31
0
210
0
220
0
230
1
40
0.970296
41
1.90025155679595
42
2.02673926019335
0
ELLIPSE
5
14C
100
AcDbEntity
8
1
62
256
6
ByLayer
370
18
48
1
60
0
100
AcDbEllipse
10
35.686733
20
3.128046
30
0
11
-7.80686550561765E-17
21
-0.425
31
0
210
0
220
0
230
1
40
0.970296
41
-2.07196941408933
42
-0.284225076100915
0
ELLIPSE
5
14D
100
AcDbEntity
8
1
62
256
6
ByLayer
370
18
48
1
60
0
100
AcDbEllipse
10
33.597422
20
2.682964
30
0
11
2.32675207226252E-17
21
0.38
31
0
210
0
220
0
230
1
40
0.970296
41
0.0224256883039168
42
2.85736757748886
0
ELLIPSE
5
14E
100
AcDbEntity
8
1
62
256
6
ByLayer
370
18
48
1
60
0
100
AcDbEllipse
10
34.59503
20
2.519154
30
0
11
2.44921270764475E-16
21
4
31
0
210
0
220
0
230
1
40
0.970296
41
0
42
6.28318530717959
0
ELLIPSE
5
14F
100
AcDbEntity
8
1
62
256
6
ByLayer
370
18
48
1
60
0
100
AcDbEllipse
10
36.029544
20
1.550546
30
0
11
-7.80686550561765E-17
21
-0.425
31
0
210
0
220
0
230
1
40
0.970296
41
-2.04965907774334
42
-1.33142262729755
0
ELLIPSE
5
150
100
AcDbEntity
8
1
62
256
6
ByLayer
370
18
48
1
60
0
100
AcDbEllipse
10
34.338724
20
3.678623
30
0
11
2.32675207226252E-17
21
0.38
31
0
210
0
220
0
230
1
40
0.970296
41
-1.02477186289273
42
1.81017002629225
0
ELLIPSE
5
151
100
AcDbEntity
8
1
62
256
6
ByLayer
370
18
48
1
60
0
100
AcDbEllipse
10
34.804726
20
2.519154
30
0
11
-2.15836869861194E-16
21
-1.175
31
0
210
0
220
0
230
1
40
0.970296
41
-2.28853864799043
42
-2.16205094459303
0
ELLIPSE
5
152
100
AcDbEntity
8
1
62
256
6
ByLayer
370
18
48
1
60
0
100
AcDbEllipse
10
33.579907
20
3.487762
30
0
11
-7.80686550561765E-17
21
-0.425
31
0
210
0
220
0
230
1
40
0.970296
41
1.09193357584651
42
1.81017002629224
0
ELLIPSE
5
153
100
AcDbEntity
8
1
62
256
6
ByLayer
370
18
48
1
60
0
100
AcDbEllipse
10
34.063424
20
1.523495
30
0
11
2.32675207226252E-17
21
0.38
31
0
210
0
220
0
230
1
40
0.970296
41
1.06962323950045
42
-2.37862017849412
0
ELLIPSE
5
154
100
AcDbEntity
8
1
62
256
6
ByLayer
370
18
48
1
60
0
100
AcDbEllipse
10
35.48522
20
1.550546
30
0
11
-7.80686550561765E-17
21
-0.425
31
0
210
0
220
0
230
1
40
0.970296
41
-3.11916696528586
42
-1.33142262729755
0
ELLIPSE
5
155
100
AcDbEntity
8
1
62
256
6
ByLayer
370
18
48
1
60
0
100
AcDbEllipse
10
35.006238
20
4.096654
30
0
11
-7.80686550561765E-17
21
-0.425
31
0
210
0
220
0
230
1
40
0.970296
41
0.0447360246499438
42
0.76297247509567
0
ELLIPSE
5
156
100
AcDbEntity
8
1
62
256
6
ByLayer
370
18
48
1
60
0
100
AcDbEllipse
10
34.804726
20
2.519154
30
0
11
-2.15836869861194E-16
21
-1.175
31
0
210
0
220
0
230
1
40
0.970296
41
-1.24134109679385
42
-1.11485339339643
0
ELLIPSE
5
157
100
AcDbEntity
8
1
62
256
6
ByLayer
370
18
48
1
60
0
100
AcDbEllipse
10
35.270727
20
1.359685
30
0
11
2.32675207226252E-17
21
0.38
31
0
210
0
220
0
230
1
40
0.970296
41
2.11682079069707
42
-1.33142262729756
0
ELLIPSE
5
158
100
AcDbEntity
8
1
62
256
6
ByLayer
370
18
48
1
60
0
100
AcDbEllipse
10
35.006238
20
4.096654
30
0
11
-7.80686550561765E-17
21
-0.425
31
0
210
0
220
0
230
1
40
0.970296
41
-1.02477186289273
42
-0.306535412446943
0
ELLIPSE
5
159
100
AcDbEntity
8
1
62
256
6
ByLayer
370
18
48
1
60
0
100
AcDbEllipse
10
36.012029
20
2.355344
30
0
11
2.32675207226252E-17
21
0.38
31
0
210
0
220
0
230
1
40
0.970296
41
-3.11916696528586
42
-0.284225076100915
0
POINT
5
6C
100
AcDbEntity
8
2
62
256
6
ByLayer
370
18
48
1
60
0
100
AcDbPoint
10
65
20
0.582
30
0
39
0
210
0
220
0
230
1
50
360
0
POINT
5
6E
100
AcDbEntity
8
80
62
256
6
ByLayer
370
18
48
1
60
0
100
AcDbPoint
10
0
20
0
30
0
39
0
210
0
220
0
230
1
50
360
0
POINT
5
70
100
AcDbEntity
8
81
62
256
6
ByLayer
370
18
48
1
60
0
100
AcDbPoint
10
65
20
0.582
30
0
39
0
210
0
220
0
230
1
50
360
0
SPLINE
5
15A
100
AcDbEntity
8
1
62
256
6
ByLayer
370
18
48
1
60
0
100
AcDbSpline
70
4
71
3
72
12
73
8
40
0
40
0
40
0
40
0
40
0.0790935247148321
40
0.279907873561443
40
0.549662456489942
40
0.857732623573458
40
1
40
1
40
1
40
1
41
1
10
52.1838138150395
20
-1.8939776183766
30
0
41
1
10
52.2059124915259
20
-1.879297192938
30
0
41
1
10
52.2818324025667
20
-1.82857075095484
30
0
41
1
10
52.4100684374923
20
-1.73995494166795
30
0
41
1
10
52.5703601022259
20
-1.62652484408969
30
0
41
1
10
52.6984526538932
20
-1.53407297627098
30
0
41
1
10
52.7713764382896
20
-1.48075549073465
30
0
41
1
10
52.7935901852335
20
-1.4644245333001
30
0
0
SPLINE
5
15B
100
AcDbEntity
8
1
62
256
6
ByLayer
370
18
48
1
60
0
100
AcDbSpline
70
4
71
1
72
4
73
2
40
0
40
0
40
1
40
1
41
1
10
51.8133645865918
20
-2.14491174701314
30
0
41
1
10
52.1851354159201
20
-1.89411585881189
30
0
0
SPLINE
5
15C
100
AcDbEntity
8
1
62
256
6
ByLayer
370
18
48
1
60
0
100
AcDbSpline
70
4
71
3
72
13
73
9
40
0
40
0
40
0
40
0
40
0.122255228349457
40
0.319528691043945
40
0.513057854127888
40
0.705588755418709
40
0.901568006125544
40
1
40
1
40
1
40
1
41
1
10
53.0885387253094
20
-1.13259875287636
30
0
41
1
10
53.1280447166981
20
-1.06285700242924
30
0
41
1
10
53.2215474573263
20
-0.876547694443872
30
0
41
1
10
53.3263932073011
20
-0.555234061287052
30
0
41
1
10
53.3985347967716
20
-0.178201817425986
30
0
41
1
10
53.4159257518902
20
0.204310318921614
30
0
41
1
10
53.3926935739789
20
0.524667175748164
30
0
41
1
10
53.3491521111011
20
0.711934376433874
30
0
41
1
10
53.3318420259217
20
0.774120222236178
30
0
0
SPLINE
5
15D
100
AcDbEntity
8
1
62
256
6
ByLayer
370
18
48
1
60
0
100
AcDbSpline
70
4
71
3
72
12
73
8
40
0
40
0
40
0
40
0
40
0.203427039325814
40
0.466868354342672
40
0.71974452936167
40
0.991179295437434
40
1
40
1
40
1
40
1
41
1
10
52.7959675219681
20
-1.4621743404638
30
0
41
1
10
52.8152564040544
20
-1.44891933306837
30
0
41
1
10
52.8605493488069
20
-1.4144367821942
30
0
41
1
10
52.9343359258294
20
-1.35178074474274
30
0
41
1
10
53.0187625004904
20
-1.25534917398991
30
0
41
1
10
53.0741862257024
20
-1.18141326670039
30
0
41
1
10
53.0926262668385
20
-1.13659549573589
30
0
41
1
10
53.0932010283354
20
-1.13518072758379
30
0
0
SPLINE
5
15E
100
AcDbEntity
8
1
62
256
6
ByLayer
370
18
48
1
60
0
100
AcDbSpline
70
4
71
3
72
15
73
11
40
0
40
0
40
0
40
0
40
0.0722389722426888
40
0.266223150454565
40
0.432066242409053
40
0.563233837077694
40
0.661340928335711
40
0.747074714332029
40
0.905059410014252
40
1
40
1
40
1
40
1
41
1
10
53.3355897394227
20
0.775196422625498
30
0
41
1
10
53.3331875538717
20
0.790279667294271
30
0
41
1
10
53.3222480260827
20
0.845150435413331
30
0
41
1
10
53.287210139837
20
0.929790516241241
30
0
41
1
10
53.238347500691
20
1.01967729127588
30
0
41
1
10
53.1914321203284
20
1.08510264511972
30
0
41
1
10
53.1574875923544
20
1.12567193577331
30
0
41
1
10
53.129741029512
20
1.15630548849222
30
0
41
1
10
53.1093646326346
20
1.17784030588496
30
0
41
1
10
53.0875975447464
20
1.19992192527727
30
0
41
1
10
53.0791574956538
20
1.20836082911373
30
0
0
SPLINE
5
15F
100
AcDbEntity
8
SK1
62
256
6
ByLayer
370
18
48
1
60
0
100
AcDbSpline
70
4
71
3
72
13
73
9
40
0
40
0
40
0
40
0
40
0.239456135763718
40
0.368359721933656
40
0.499998984021097
40
0.63163841528373
40
0.760542467778167
40
1
40
1
40
1
40
1
41
1
10
-2.19999999999999
20
-22.0200986606755
30
0
41
1
10
-2.19909198642273
20
-21.9940411845603
30
0
41
1
10
-2.19103284106941
20
-21.9566686002238
30
0
41
1
10
-2.16563592203337
20
-21.9104494263858
30
0
41
1
10
-2.1388637867926
20
-21.8791678725253
30
0
41
1
10
-2.10627712749869
20
-21.8540005023229
30
0
41
1
10
-2.05884064234078
20
-21.8309566998545
30
0
41
1
10
-2.02111030873027
20
-21.8247844448324
30
0
41
1
10
-1.99503997793928
20
-21.825186084775
30
0
0
SPLINE
5
160
100
AcDbEntity
8
SK1
62
256
6
ByLayer
370
18
48
1
60
0
100
AcDbSpline
70
4
71
3
72
13
73
9
40
0
40
0
40
0
40
0
40
0.239457532152995
40
0.368361584623188
40
0.500001015876169
40
0.631640277971204
40
0.760543864164266
40
1
40
1
40
1
40
1
41
1
10
-1.99503997793928
20
21.8251861015554
30
0
41
1
10
-2.02111030873166
20
21.8247844616134
30
0
41
1
10
-2.05884064234343
20
21.8309567166392
30
0
41
1
10
-2.10627712750076
20
21.854000519123
30
0
41
1
10
-2.13886378679456
20
21.8791678893421
30
0
41
1
10
-2.16563592203485
20
21.9104494432231
30
0
41
1
10
-2.19103284107055
20
21.9566686170919
30
0
41
1
10
-2.19909198642387
20
21.9940412014509
30
0
41
1
10
-2.19999999999999
20
22.0200986775813
30
0
0
SPLINE
5
161
100
AcDbEntity
8
SK1
62
256
6
ByLayer
370
18
48
1
60
0
100
AcDbSpline
70
4
71
2
72
6
73
3
40
0
40
0
40
0
40
1
40
1
40
1
41
1
10
-36.5
20
-21.1521177089669
30
0
41
1
10
-19.3499999999701
20
-21.5828554470541
30
0
41
1
10
-2.19999999999999
20
-22.0135928951589
30
0
0
SPLINE
5
162
100
AcDbEntity
8
SK1
62
256
6
ByLayer
370
18
48
1
60
0
100
AcDbSpline
70
4
71
2
72
6
73
3
40
0
40
0
40
0
40
1
40
1
40
1
41
1
10
-2.19999999999999
20
22.0135927638551
30
0
41
1
10
-19.3499999999869
20
21.5828539542124
30
0
41
1
10
-36.5
20
21.1521149580209
30
0
0
SPLINE
5
163
100
AcDbEntity
8
SK1
62
256
6
ByLayer
370
18
48
1
60
0
100
AcDbSpline
70
4
71
2
72
6
73
3
40
0
40
0
40
0
40
1
40
1
40
1
41
1
10
-1.99503997793928
20
-21.8251812553753
30
0
41
1
10
-1.19500843340728
20
-21.8452807024746
30
0
41
1
10
-0.394976888875277
20
-21.8653801495793
30
0
0
SPLINE
5
164
100
AcDbEntity
8
SK1
62
256
6
ByLayer
370
18
48
1
60
0
100
AcDbSpline
70
4
71
2
72
6
73
3
40
0
40
0
40
0
40
1
40
1
40
1
41
1
10
-0.394976888875277
20
21.8653802062992
30
0
41
1
10
-1.19500843340728
20
21.8452807593862
30
0
41
1
10
-1.99503997793928
20
21.8251813124779
30
0
0
SPLINE
5
165
100
AcDbEntity
8
SK1
62
256
6
ByLayer
370
18
48
1
60
0
100
AcDbSpline
70
4
71
2
72
6
73
3
40
0
40
0
40
0
40
1
40
1
40
1
41
1
10
-38
20
-20.289405225553
30
0
41
1
10
-37.2500000000012
20
-20.7223540793632
30
0
41
1
10
-36.5
20
-21.1553029418638
30
0
0
SPLINE
5
166
100
AcDbEntity
8
SK1
62
256
6
ByLayer
370
18
48
1
60
0
100
AcDbSpline
70
4
71
2
72
6
73
3
40
0
40
0
40
0
40
1
40
1
40
1
41
1
10
-36.5
20
21.155302724897
30
0
41
1
10
-37.2500000000012
20
20.7223538609616
30
0
41
1
10
-38
20
20.2894050057151
30
0
0
SPLINE
5
167
100
AcDbEntity
8
SK1
62
256
6
ByLayer
370
18
48
1
60
0
100
AcDbSpline
70
4
71
2
72
6
73
3
40
0
40
0
40
0
40
1
40
1
40
1
41
1
10
-0.394976888875277
20
-21.8653849865467
30
0
41
1
10
-0.265172990617003
20
-21.8689012906761
30
0
41
1
10
-0.240502439654279
20
-21.9465691723769
30
0
0
SPLINE
5
168
100
AcDbEntity
8
SK1
62
256
6
ByLayer
370
18
48
1
60
0
100
AcDbSpline
70
4
71
2
72
6
73
3
40
0
40
0
40
0
40
1
40
1
40
1
41
1
10
-0.239684768755779
20
21.9481214799356
30
0
41
1
10
-0.264174311740362
20
21.8692639605625
30
0
41
1
10
-0.394976888875277
20
21.865385003355
30
0
0
SPLINE
5
169
100
AcDbEntity
8
1
62
256
6
ByLayer
370
18
48
1
60
0
100
AcDbSpline
70
4
71
3
72
8
73
4
40
0
40
0
40
0
40
0
40
1
40
1
40
1
40
1
41
1
10
26.5754691519254
20
10.275940041129
30
0
41
1
10
26.4707918077649
20
10.2515939564266
30
0
41
1
10
26.3661046016584
20
10.2228522013184
30
0
41
1
10
26.2622517628398
20
10.1892821057804
30
0
0
SPLINE
5
16A
100
AcDbEntity
8
1
62
256
6
ByLayer
370
18
48
1
60
0
100
AcDbSpline
70
4
71
3
72
8
73
4
40
0
40
0
40
0
40
0
40
1
40
1
40
1
40
1
41
1
10
24.8171718600843
20
-3.47241554896687
30
0
41
1
10
24.7223217280229
20
-3.42525698241587
30
0
41
1
10
24.6285811378443
20
-3.37371985838735
30
0
41
1
10
24.5368584284706
20
-3.31759333518735
30
0
0
SPLINE
5
16B
100
AcDbEntity
8
1
62
256
6
ByLayer
370
18
48
1
60
0
100
AcDbSpline
70
4
71
3
72
10
73
6
40
0
40
0
40
0
40
0
40
0.483322367635268
40
0.483322367635268
40
1
40
1
40
1
40
1
41
1
10
52.9619505761236
20
-1.09801450541784
30
0
41
1
10
53.0102928703938
20
-1.09329587460047
30
0
41
1
10
53.0477710942558
20
-1.09305519253783
30
0
41
1
10
53.0955450519219
20
-1.10355065451086
30
0
41
1
10
53.1041051265982
20
-1.11527160374837
30
0
41
1
10
53.0940849310186
20
-1.13443351598207
30
0
0
SPLINE
5
16C
100
AcDbEntity
8
1
62
256
6
ByLayer
370
18
48
1
60
0
100
AcDbSpline
70
4
71
3
72
16
73
12
40
0
40
0
40
0
40
0
40
0.361147841589344
40
0.361147841589344
40
0.578934074446964
40
0.578934074446964
40
0.760556434168177
40
0.760556434168177
40
0.943892111019365
40
0.943892111019365
40
1
40
1
40
1
40
1
41
1
10
19.5564334743679
20
-2.81351534483795
30
0
41
1
10
19.5526781359231
20
-3.2321911797051
30
0
41
1
10
19.5534842577304
20
-3.66462017473373
30
0
41
1
10
19.5667488351265
20
-4.32345020675956
30
0
41
1
10
19.5746471155053
20
-4.56836804088979
30
0
41
1
10
19.5952365200672
20
-4.97258536433199
30
0
41
1
10
19.6071719825535
20
-5.1431144166186
30
0
41
1
10
19.6353560788215
20
-5.42196843308804
30
0
41
1
10
19.6521082743484
20
-5.53331384432931
30
0
41
1
10
19.6752193597974
20
-5.62235205044558
30
0
41
1
10
19.6807869445685
20
-5.63966151380453
30
0
41
1
10
19.6864360977142
20
-5.65306394543103
30
0
0
SPLINE
5
16D
100
AcDbEntity
8
1
62
256
6
ByLayer
370
18
48
1
60
0
100
AcDbSpline
70
4
71
3
72
8
73
4
40
0
40
0
40
0
40
0
40
1
40
1
40
1
40
1
41
1
10
19.695643058801
20
-5.67129658635318
30
0
41
1
10
19.7045113327236
20
-5.68539222289391
30
0
41
1
10
19.7134912523001
20
-5.68965974969723
30
0
41
1
10
19.7223398537061
20
-5.68286110540447
30
0
0
SPLINE
5
16E
100
AcDbEntity
8
SK1
62
256
6
ByLayer
370
18
48
1
60
0
100
AcDbSpline
70
4
71
3
72
299
73
295
40
0
40
0
40
0
40
0
40
0.003294950812177
40
0.0068176778382409
40
0.0103404048643049
40
0.0138631318903688
40
0.0173858589164327
40
0.0209085859424966
40
0.0244313129685605
40
0.0279540399946245
40
0.0349994940467523
40
0.0420449480988801
40
0.049090402151008
40
0.0526131291770719
40
0.0561358562031358
40
0.0596585832291997
40
0.0631813102552637
40
0.0702267643073915
40
0.0737494913334554
40
0.0772722183595193
40
0.0807949453855833
40
0.0843176724116472
40
0.0878403994377111
40
0.091363126463775
40
0.0984085805159029
40
0.101931307541967
40
0.105454034568031
40
0.108976761594095
40
0.112499488620159
40
0.116022215646222
40
0.119544942672286
40
0.12306766969835
40
0.126590396724414
40
0.130113123750478
40
0.133635850776542
40
0.137158577802606
40
0.14068130482867
40
0.144204031854734
40
0.147726758880798
40
0.154772212932926
40
0.158294939958989
40
0.161817666985053
40
0.163579030498085
40
0.165340394011117
40
0.168863121037181
40
0.175908575089309
40
0.179431302115373
40
0.182954029141437
40
0.186476756167501
40
0.189999483193565
40
0.197044937245693
40
0.200567664271757
40
0.20409039129782
40
0.205851754810852
40
0.207613118323884
40
0.211135845349948
40
0.218181299402076
40
0.22170402642814
40
0.225226753454204
40
0.228749480480268
40
0.232272207506332
40
0.23931766155846
40
0.242840388584524
40
0.246363115610587
40
0.248124479123619
40
0.249885842636651
40
0.253408569662715
40
0.256931296688779
40
0.260454023714843
40
0.262215387227875
40
0.263976750740907
40
0.267499477766971
40
0.271022204793035
40
0.274544931819099
40
0.278067658845163
40
0.281590385871227
40
0.285113112897291
40
0.288635839923355
40
0.292158566949418
40
0.295681293975482
40
0.299204021001546
40
0.30272674802761
40
0.306249475053674
40
0.309772202079738
40
0.313294929105802
40
0.316817656131866
40
0.323863110183994
40
0.327385837210058
40
0.330908564236122
40
0.334431291262186
40
0.337954018288249
40
0.341476745314313
40
0.344999472340377
40
0.348522199366441
40
0.352044926392505
40
0.359090380444633
40
0.366135834496761
40
0.373181288548888
40
0.376704015574952
40
0.380226742601016
40
0.38374946962708
40
0.387272196653144
40
0.390794923679208
40
0.394317650705272
40
0.397840377731336
40
0.4013631047574
40
0.404885831783464
40
0.408408558809528
40
0.411931285835592
40
0.415454012861656
40
0.41897673988772
40
0.422499466913783
40
0.426022193939847
40
0.429544920965911
40
0.433067647991975
40
0.434829011505007
40
0.436590375018039
40
0.438351738531071
40
0.440113102044103
40
0.443635829070167
40
0.447158556096231
40
0.448919919609263
40
0.450681283122295
40
0.452442646635327
40
0.454204010148359
40
0.457726737174423
40
0.459488100687455
40
0.461249464200487
40
0.463010827713518
40
0.464772191226551
40
0.466533554739582
40
0.468294918252614
40
0.470056281765646
40
0.471817645278678
40
0.47357900879171
40
0.475340372304742
40
0.477101735817774
40
0.478863099330806
40
0.480624462843838
40
0.48238582635687
40
0.484147189869902
40
0.485908553382934
40
0.487669916895966
40
0.489431280408998
40
0.49119264392203
40
0.492954007435062
40
0.494715370948094
40
0.496476734461126
40
0.498238097974158
40
0.49999946148719
40
0.501760825000222
40
0.503522188513254
40
0.505283552026286
40
0.507044915539318
40
0.50880627905235
40
0.510567642565381
40
0.512329006078413
40
0.514090369591445
40
0.515851733104477
40
0.517613096617509
40
0.519374460130541
40
0.521135823643573
40
0.522897187156605
40
0.524658550669637
40
0.526419914182669
40
0.528181277695701
40
0.529942641208733
40
0.531704004721765
40
0.533465368234797
40
0.535226731747829
40
0.536988095260861
40
0.538749458773893
40
0.540510822286925
40
0.542272185799957
40
0.545794912826021
40
0.547556276339053
40
0.549317639852084
40
0.551079003365117
40
0.552840366878148
40
0.556363093904212
40
0.559885820930276
40
0.561647184443308
40
0.56340854795634
40
0.565169911469372
40
0.566931274982404
40
0.570454002008468
40
0.573976729034532
40
0.577499456060596
40
0.58102218308666
40
0.584544910112724
40
0.588067637138788
40
0.591590364164852
40
0.595113091190915
40
0.598635818216979
40
0.602158545243043
40
0.605681272269107
40
0.609203999295171
40
0.612726726321235
40
0.616249453347299
40
0.619772180373363
40
0.623294907399427
40
0.626817634425491
40
0.633863088477619
40
0.640908542529746
40
0.647953996581874
40
0.651476723607938
40
0.654999450634002
40
0.658522177660066
40
0.66204490468613
40
0.665567631712194
40
0.669090358738258
40
0.672613085764322
40
0.676135812790386
40
0.683181266842513
40
0.686703993868577
40
0.690226720894641
40
0.693749447920705
40
0.697272174946769
40
0.700794901972833
40
0.704317628998897
40
0.707840356024961
40
0.711363083051025
40
0.714885810077089
40
0.718408537103153
40
0.721931264129216
40
0.725453991155281
40
0.732499445207408
40
0.736022172233472
40
0.739544899259536
40
0.746590353311664
40
0.750113080337728
40
0.753635807363792
40
0.757158534389856
40
0.76068126141592
40
0.767726715468047
40
0.771249442494112
40
0.774772169520175
40
0.778294896546239
40
0.781817623572303
40
0.788863077624431
40
0.792385804650495
40
0.795908531676559
40
0.799431258702623
40
0.802953985728687
40
0.809999439780815
40
0.813522166806879
40
0.817044893832942
40
0.820567620859006
40
0.82409034788507
40
0.831135801937198
40
0.834658528963262
40
0.838181255989326
40
0.84170398301539
40
0.845226710041454
40
0.852272164093582
40
0.855794891119646
40
0.859317618145709
40
0.862840345171773
40
0.866363072197837
40
0.869885799223901
40
0.873408526249965
40
0.876931253276029
40
0.880453980302093
40
0.883976707328157
40
0.887499434354221
40
0.891022161380285
40
0.894544888406349
40
0.898067615432413
40
0.901590342458476
40
0.908635796510604
40
0.912158523536668
40
0.915681250562732
40
0.919203977588796
40
0.92272670461486
40
0.926249431640924
40
0.929772158666988
40
0.936817612719116
40
0.94034033974518
40
0.943863066771243
40
0.947385793797307
40
0.950908520823371
40
0.957953974875499
40
0.961476701901563
40
0.964999428927627
40
0.968522155953691
40
0.972044882979755
40
0.975567610005819
40
0.979090337031883
40
0.982613064057947
40
0.986135791084011
40
0.989658518110074
40
0.993181245136138
40
0.996703972162202
40
1
40
1
40
1
40
1
41
1
10
-1.99503997793928
20
21.8251672703444
30
0
41
1
10
-1.99503997793928
20
21.825277039684
30
0
41
1
10
-1.99503997793931
20
21.8245105522334
30
0
41
1
10
-1.99503997793928
20
21.8202836860757
30
0
41
1
10
-1.99503997793928
20
21.812783044142
30
0
41
1
10
-1.99503997793928
20
21.8021565364934
30
0
41
1
10
-1.99503997793928
20
21.7884557330328
30
0
41
1
10
-1.99503997793928
20
21.7717308612526
30
0
41
1
10
-1.99503997793928
20
21.7520291985819
30
0
41
1
10
-1.99503997793928
20
21.7218385059106
30
0
41
1
10
-1.99503997793928
20
21.6769140218914
30
0
41
1
10
-1.99503997793928
20
21.6117670092986
30
0
41
1
10
-1.99503997793928
20
21.5484022523455
30
0
41
1
10
-1.99503997793928
20
21.4923512863894
30
0
41
1
10
-1.99503997793928
20
21.4477036012609
30
0
41
1
10
-1.99503997793928
20
21.4004602751572
30
0
41
1
10
-1.99503997793928
20
21.3340243579833
30
0
41
1
10
-1.99503997793928
20
21.2626002065084
30
0
41
1
10
-1.99503997793928
20
21.1861355372814
30
0
41
1
10
-1.99503997793928
20
21.126355615456
30
0
41
1
10
-1.99503997793928
20
21.0641493981766
30
0
41
1
10
-1.99503997793928
20
20.9995415089612
30
0
41
1
10
-1.99503997793928
20
20.9325549476398
30
0
41
1
10
-1.99503997793928
20
20.8400664063016
30
0
41
1
10
-1.99503997793928
20
20.7430171949632
30
0
41
1
10
-1.99503997793928
20
20.6412830606924
30
0
41
1
10
-1.99503997793928
20
20.5627395849404
30
0
41
1
10
-1.99503997793928
20
20.4819464711493
30
0
41
1
10
-1.99503997793928
20
20.3989234016943
30
0
41
1
10
-1.99503997793928
20
20.3136873945745
30
0
41
1
10
-1.99503997793928
20
20.2262576082901
30
0
41
1
10
-1.99503997793928
20
20.136651569995
30
0
41
1
10
-1.99503997793928
20
20.0448848271876
30
0
41
1
10
-1.99503997793928
20
19.9509751576252
30
0
41
1
10
-1.99503997793928
20
19.8549383078336
30
0
41
1
10
-1.99503997793928
20
19.7567886026657
30
0
41
1
10
-1.99503997793928
20
19.6565424313982
30
0
41
1
10
-1.99503997793928
20
19.5542139601407
30
0
41
1
10
-1.99503997793928
20
19.4149698127943
30
0
41
1
10
-1.99503997793928
20
19.2717622924356
30
0
41
1
10
-1.99503997793928
20
19.1243520606764
30
0
41
1
10
-1.99503997793928
20
19.0305969699326
30
0
41
1
10
-1.99503997793928
20
18.9545457436666
30
0
41
1
10
-1.99503997793928
20
18.877828345234
30
0
41
1
10
-1.99503997793928
20
18.7418485706132
30
0
41
1
10
-1.99503997793928
20
18.5826225030747
30
0
41
1
10
-1.99503997793928
20
18.4193199892891
30
0
41
1
10
-1.99503997793928
20
18.2949375082747
30
0
41
1
10
-1.99503997793928
20
18.1686188381619
30
0
41
1
10
-1.99503997793928
20
17.9975681157064
30
0
41
1
10
-1.99503997793928
20
17.8228588844704
30
0
41
1
10
-1.99503997793928
20
17.6441795672679
30
0
41
1
10
-1.99503997793928
20
17.5309981410348
30
0
41
1
10
-1.99503997793928
20
17.4394590341184
30
0
41
1
10
-1.99503997793928
20
17.3472945498449
30
0
41
1
10
-1.99503997793928
20
17.1843913435575
30
0
41
1
10
-1.99503997793928
20
16.9946548235122
30
0
41
1
10
-1.99503997793928
20
16.8010333841432
30
0
41
1
10
-1.99503997793928
20
16.654027023888
30
0
41
1
10
-1.99503997793928
20
16.5051894370887
30
0
41
1
10
-1.99503997793928
20
16.3042392155796
30
0
41
1
10
-1.99503997793928
20
16.0998599858609
30
0
41
1
10
-1.99503997793928
20
15.8916662065006
30
0
41
1
10
-1.99503997793928
20
15.7601264684356
30
0
41
1
10
-1.99503997793928
20
15.6539352235828
30
0
41
1
10
-1.99503997793928
20
15.5471478788445
30
0
41
1
10
-1.99503997793928
20
15.4126292313156
30
0
41
1
10
-1.99503997793928
20
15.2493853238091
30
0
41
1
10
-1.99503997793928
20
15.1119089381336
30
0
41
1
10
-1.99503997793928
20
15.0009760777421
30
0
41
1
10
-1.99503997793928
20
14.8894548819647
30
0
41
1
10
-1.99503997793928
20
14.7490386600655
30
0
41
1
10
-1.99503997793928
20
14.578735707937
30
0
41
1
10
-1.99503997793928
20
14.4066808882548
30
0
41
1
10
-1.99503997793928
20
14.2328806917249
30
0
41
1
10
-1.99503997793928
20
14.0573388809364
30
0
41
1
10
-1.99503997793928
20
13.8800596938692
30
0
41
1
10
-1.99503997793928
20
13.7010488098078
30
0
41
1
10
-1.99503997793928
20
13.5203096364964
30
0
41
1
10
-1.99503997793928
20
13.3378467409434
30
0
41
1
10
-1.99503997793928
20
13.1536651576331
30
0
41
1
10
-1.99503997793928
20
12.967767664355
30
0
41
1
10
-1.99503997793928
20
12.7801589185361
30
0
41
1
10
-1.99503997793928
20
12.5908431445087
30
0
41
1
10
-1.99503997793928
20
12.3998230002593
30
0
41
1
10
-1.99503997793928
20
12.1427688173785
30
0
41
1
10
-1.99503997793928
20
11.8826118718573
30
0
41
1
10
-1.99503997793928
20
11.6187779306707
30
0
41
1
10
-1.99503997793928
20
11.4192921752591
30
0
41
1
10
-1.99503997793928
20
11.2181233733031
30
0
41
1
10
-1.99503997793928
20
11.0152750188843
30
0
41
1
10
-1.99503997793928
20
10.8107494713072
30
0
41
1
10
-1.99503997793928
20
10.6045508021232
30
0
41
1
10
-1.99503997793928
20
10.3966814407573
30
0
41
1
10
-1.99503997793928
20
10.1171870033238
30
0
41
1
10
-1.99503997793928
20
9.76392166117952
30
0
41
1
10
-1.99503997793928
20
9.33322608836653
30
0
41
1
10
-1.99503997793928
20
8.96893242084855
30
0
41
1
10
-1.99503997793928
20
8.67397578579323
30
0
41
1
10
-1.99503997793928
20
8.45121977200662
30
0
41
1
10
-1.99503997793928
20
8.22682776167497
30
0
41
1
10
-1.99503997793928
20
8.00080467620242
30
0
41
1
10
-1.99503997793928
20
7.77315513008728
30
0
41
1
10
-1.99503997793928
20
7.54388372935193
30
0
41
1
10
-1.99503997793928
20
7.31299637479285
30
0
41
1
10
-1.99503997793928
20
7.08049945458953
30
0
41
1
10
-1.99503997793928
20
6.8463997482805
30
0
41
1
10
-1.99503997793928
20
6.61070495432838
30
0
41
1
10
-1.99503997793928
20
6.37342319970753
30
0
41
1
10
-1.99503997793928
20
6.13456384015993
30
0
41
1
10
-1.99503997793928
20
5.89413749968631
30
0
41
1
10
-1.99503997793928
20
5.65215638001948
30
0
41
1
10
-1.99503997793928
20
5.4086336510897
30
0
41
1
10
-1.99503997793928
20
5.16358499073451
30
0
41
1
10
-1.99503997793928
20
4.95821799704331
30
0
41
1
10
-1.99503997793928
20
4.79299516838267
30
0
41
1
10
-1.99503997793928
20
4.66878842905288
30
0
41
1
10
-1.99503997793928
20
4.5442150281373
30
0
41
1
10
-1.99503997793928
20
4.37752561794156
30
0
41
1
10
-1.99503997793928
20
4.16851547631595
30
0
41
1
10
-1.99503997793928
20
3.95832363498766
30
0
41
1
10
-1.99503997793928
20
3.78926935835412
30
0
41
1
10
-1.99503997793928
20
3.66223142121836
30
0
41
1
10
-1.99503997793928
20
3.53485872774326
30
0
41
1
10
-1.99503997793928
20
3.36446603264318
30
0
41
1
10
-1.99503997793928
20
3.19381064862623
30
0
41
1
10
-1.99503997793928
20
3.02213557666008
30
0
41
1
10
-1.99503997793928
20
2.8931784837302
30
0
41
1
10
-1.99503997793928
20
2.76392442628162
30
0
41
1
10
-1.99503997793928
20
2.63438251344519
30
0
41
1
10
-1.99503997793928
20
2.50455988721876
30
0
41
1
10
-1.99503997793928
20
2.37446636334928
30
0
41
1
10
-1.99503997793928
20
2.24411116870439
30
0
41
1
10
-1.99503997793928
20
2.11350398186613
30
0
41
1
10
-1.99503997793928
20
1.98265625862297
30
0
41
1
10
-1.99503997793928
20
1.85157817347522
30
0
41
1
10
-1.99503997793928
20
1.72028262405345
30
0
41
1
10
-1.99503997793928
20
1.58878098022359
30
0
41
1
10
-1.99503997793928
20
1.45708718468359
30
0
41
1
10
-1.99503997793928
20
1.32521409071333
30
0
41
1
10
-1.99503997793928
20
1.19317647053177
30
0
41
1
10
-1.99503997793928
20
1.06098852682439
30
0
41
1
10
-1.99503997793928
20
0.928665923975672
30
0
41
1
10
-1.99503997793928
20
0.796224037396229
30
0
41
1
10
-1.99503997793928
20
0.663679321648374
30
0
41
1
10
-1.99503997793928
20
0.531048033506266
30
0
41
1
10
-1.99503997793928
20
0.398347293868937
30
0
41
1
10
-1.99503997793928
20
0.265594055935196
30
0
41
1
10
-1.99503997793928
20
0.132805828560237
30
0
41
1
10
-1.99503997793928
20
-2.0604887E-09
30
0
41
1
10
-1.99503997793928
20
-0.132805835966792
30
0
41
1
10
-1.99503997793928
20
-0.265594069601519
30
0
41
1
10
-1.99503997793928
20
-0.398347307093388
30
0
41
1
10
-1.99503997793928
20
-0.531048037421954
30
0
41
1
10
-1.99503997793928
20
-0.663679323049081
30
0
41
1
10
-1.99503997793928
20
-0.796224050825089
30
0
41
1
10
-1.99503997793928
20
-0.92866594303203
30
0
41
1
10
-1.99503997793928
20
-1.06098853158755
30
0
41
1
10
-1.99503997793928
20
-1.1931764657121
30
0
41
1
10
-1.99503997793928
20
-1.32521410103647
30
0
41
1
10
-1.99503997793928
20
-1.45708720896539
30
0
41
1
10
-1.99503997793928
20
-1.58878099035152
30
0
41
1
10
-1.99503997793928
20
-1.72028261530932
30
0
41
1
10
-1.99503997793928
20
-1.85157817419835
30
0
41
1
10
-1.99503997793928
20
-1.98265628188182
30
0
41
1
10
-1.99503997793928
20
-2.11350400419804
30
0
41
1
10
-1.99503997793928
20
-2.24411116714702
30
0
41
1
10
-1.99503997793928
20
-2.37446635053539
30
0
41
1
10
-1.99503997793928
20
-2.50455989433328
30
0
41
1
10
-1.99503997793928
20
-2.63438254221708
30
0
41
1
10
-1.99503997793928
20
-2.76392444618182
30
0
41
1
10
-1.99503997793928
20
-2.89317847799558
30
0
41
1
10
-1.99503997793928
20
-3.02213556164864
30
0
41
1
10
-1.99503997793928
20
-3.19381066067948
30
0
41
1
10
-1.99503997793928
20
-3.36446606295527
30
0
41
1
10
-1.99503997793928
20
-3.53485872835634
30
0
41
1
10
-1.99503997793928
20
-3.66223140396673
30
0
41
1
10
-1.99503997793928
20
-3.78926935085312
30
0
41
1
10
-1.99503997793928
20
-3.95832365779984
30
0
41
1
10
-1.99503997793928
20
-4.16851549788919
30
0
41
1
10
-1.99503997793928
20
-4.37752560184694
30
0
41
1
10
-1.99503997793928
20
-4.54421502107886
30
0
41
1
10
-1.99503997793928
20
-4.66878844332788
30
0
41
1
10
-1.99503997793928
20
-4.79299519854527
30
0
41
1
10
-1.99503997793928
20
-4.95821801342223
30
0
41
1
10
-1.99503997793928
20
-5.16358497720142
30
0
41
1
10
-1.99503997793928
20
-5.40863364784667
30
0
41
1
10
-1.99503997793928
20
-5.65215640891225
30
0
41
1
10
-1.99503997793928
20
-5.89413750153935
30
0
41
1
10
-1.99503997793928
20
-6.13456381441384
30
0
41
1
10
-1.99503997793928
20
-6.37342317953835
30
0
41
1
10
-1.99503997793928
20
-6.61070492919379
30
0
41
1
10
-1.99503997793928
20
-6.84639976314463
30
0
41
1
10
-1.99503997793928
20
-7.08049963775395
30
0
41
1
10
-1.99503997793928
20
-7.31299670603016
30
0
41
1
10
-1.99503997793928
20
-7.54388383469134
30
0
41
1
10
-1.99503997793928
20
-7.77315487290267
30
0
41
1
10
-1.99503997793928
20
-8.00080468509063
30
0
41
1
10
-1.99503997793928
20
-8.22682785520686
30
0
41
1
10
-1.99503997793928
20
-8.4512197921853
30
0
41
1
10
-1.99503997793928
20
-8.67397577159846
30
0
41
1
10
-1.99503997793928
20
-8.96893239301764
30
0
41
1
10
-1.99503997793928
20
-9.33322609823665
30
0
41
1
10
-1.99503997793928
20
-9.76392165975841
30
0
41
1
10
-1.99503997793928
20
-10.1171869828061
30
0
41
1
10
-1.99503997793928
20
-10.3966814549587
30
0
41
1
10
-1.99503997793928
20
-10.6045508126063
30
0
41
1
10
-1.99503997793928
20
-10.8107494592904
30
0
41
1
10
-1.99503997793928
20
-11.0152749978462
30
0
41
1
10
-1.99503997793928
20
-11.2181233670389
30
0
41
1
10
-1.99503997793928
20
-11.4192921870092
30
0
41
1
10
-1.99503997793928
20
-11.6187779427602
30
0
41
1
10
-1.99503997793928
20
-11.8826118620781
30
0
41
1
10
-1.99503997793928
20
-12.1427687977971
30
0
41
1
10
-1.99503997793928
20
-12.3998230071702
30
0
41
1
10
-1.99503997793928
20
-12.5908431584255
30
0
41
1
10
-1.99503997793928
20
-12.7801589212449
30
0
41
1
10
-1.99503997793928
20
-12.9677676529033
30
0
41
1
10
-1.99503997793928
20
-13.1536651432542
30
0
41
1
10
-1.99503997793928
20
-13.3378467396349
30
0
41
1
10
-1.99503997793928
20
-13.520309646993
30
0
41
1
10
-1.99503997793928
20
-13.7010488212408
30
0
41
1
10
-1.99503997793928
20
-13.8800597145162
30
0
41
1
10
-1.99503997793928
20
-14.0573389921213
30
0
41
1
10
-1.99503997793928
20
-14.2328810143213
30
0
41
1
10
-1.99503997793928
20
-14.4646959102749
30
0
41
1
10
-1.99503997793928
20
-14.6927797943809
30
0
41
1
10
-1.99503997793928
20
-14.9175842595472
30
0
41
1
10
-1.99503997793928
20
-15.1400402265273
30
0
41
1
10
-1.99503997793928
20
-15.3587351142266
30
0
41
1
10
-1.99503997793928
20
-15.574095422854
30
0
41
1
10
-1.99503997793928
20
-15.733775855726
30
0
41
1
10
-1.99503997793928
20
-15.8916657661057
30
0
41
1
10
-1.99503997793928
20
-16.0998603532658
30
0
41
1
10
-1.99503997793928
20
-16.3042398246232
30
0
41
1
10
-1.99503997793928
20
-16.5051894037979
30
0
41
1
10
-1.99503997793928
20
-16.6540265683948
30
0
41
1
10
-1.99503997793928
20
-16.8010329188422
30
0
41
1
10
-1.99503997793928
20
-16.9946550481209
30
0
41
1
10
-1.99503997793928
20
-17.1843924611907
30
0
41
1
10
-1.99503997793928
20
-17.3705928023913
30
0
41
1
10
-1.99503997793928
20
-17.5083251903719
30
0
41
1
10
-1.99503997793928
20
-17.6441786252734
30
0
41
1
10
-1.99503997793928
20
-17.8228590748675
30
0
41
1
10
-1.99503997793928
20
-17.9975683374733
30
0
41
1
10
-1.99503997793928
20
-18.1686188521771
30
0
41
1
10
-1.99503997793928
20
-18.2949373683468
30
0
41
1
10
-1.99503997793928
20
-18.4193198181252
30
0
41
1
10
-1.99503997793928
20
-18.5826226298873
30
0
41
1
10
-1.99503997793928
20
-18.7418497326446
30
0
41
1
10
-1.99503997793928
20
-18.8972761707097
30
0
41
1
10
-1.99503997793928
20
-19.0118150097952
30
0
41
1
10
-1.99503997793928
20
-19.1243510467918
30
0
41
1
10
-1.99503997793928
20
-19.2717625055688
30
0
41
1
10
-1.99503997793928
20
-19.414970513124
30
0
41
1
10
-1.99503997793928
20
-19.5542140249085
30
0
41
1
10
-1.99503997793928
20
-19.6565420567613
30
0
41
1
10
-1.99503997793928
20
-19.7567881415466
30
0
41
1
10
-1.99503997793928
20
-19.8549381550126
30
0
41
1
10
-1.99503997793928
20
-19.9509751416388
30
0
41
1
10
-1.99503997793928
20
-20.0448848362119
30
0
41
1
10
-1.99503997793928
20
-20.1366515718167
30
0
41
1
10
-1.99503997793928
20
-20.2262576202058
30
0
41
1
10
-1.99503997793928
20
-20.3136874196731
30
0
41
1
10
-1.99503997793928
20
-20.398923430088
30
0
41
1
10
-1.99503997793928
20
-20.4819464863244
30
0
41
1
10
-1.99503997793928
20
-20.5627395868944
30
0
41
1
10
-1.99503997793928
20
-20.6412830627252
30
0
41
1
10
-1.99503997793928
20
-20.7430172190697
30
0
41
1
10
-1.99503997793928
20
-20.8400664428987
30
0
41
1
10
-1.99503997793928
20
-20.9325549572362
30
0
41
1
10
-1.99503997793928
20
-20.9995415068112
30
0
41
1
10
-1.99503997793928
20
-21.064149408511
30
0
41
1
10
-1.99503997793928
20
-21.1263556466612
30
0
41
1
10
-1.99503997793928
20
-21.1861355753666
30
0
41
1
10
-1.99503997793928
20
-21.262600218376
30
0
41
1
10
-1.99503997793928
20
-21.3340243512753
30
0
41
1
10
-1.99503997793928
20
-21.4004603045828
30
0
41
1
10
-1.99503997793928
20
-21.4477036445725
30
0
41
1
10
-1.99503997793928
20
-21.4923513092323
30
0
41
1
10
-1.99503997793928
20
-21.5484022410126
30
0
41
1
10
-1.99503997793928
20
-21.5990695510926
30
0
41
1
10
-1.99503997793928
20
-21.6443396610233
30
0
41
1
10
-1.99503997793928
20
-21.6755105092645
30
0
41
1
10
-1.99503997793928
20
-21.7038764495607
30
0
41
1
10
-1.99503997793928
20
-21.7293964429163
30
0
41
1
10
-1.99503997793928
20
-21.7520292420694
30
0
41
1
10
-1.99503997793928
20
-21.7717309018817
30
0
41
1
10
-1.99503997793928
20
-21.7884557380592
30
0
41
1
10
-1.99503997793928
20
-21.8021565310045
30
0
41
1
10
-1.99503997793928
20
-21.8127830851058
30
0
41
1
10
-1.99503997793928
20
-21.8202838734724
30
0
41
1
10
-1.99503997793928
20
-21.8245113394793
30
0
41
1
10
-1.99503997793926
20
-21.8252773468126
30
0
41
1
10
-1.99503997793926
20
-21.8251671023863
30
0
0
SPLINE
5
16F
100
AcDbEntity
8
SK1
62
256
6
ByLayer
370
18
48
1
60
0
100
AcDbSpline
70
4
71
3
72
295
73
291
40
0
40
0
40
0
40
0
40
0.0029463113520565
40
0.0065222362335993
40
0.0100981611151421
40
0.0136740859966849
40
0.0172500108782277
40
0.0208259357597705
40
0.0279777855228561
40
0.0351296352859417
40
0.0422814850490272
40
0.04585740993057
40
0.0494333348121128
40
0.0530092596936556
40
0.0565851845751984
40
0.063737034338284
40
0.0673129592198268
40
0.0708888841013696
40
0.0744648089829124
40
0.0780407338644552
40
0.081616658745998
40
0.0851925836275408
40
0.0923444333906264
40
0.0959203582721692
40
0.099496283153712
40
0.103072208035255
40
0.106648132916798
40
0.11022405779834
40
0.113799982679883
40
0.117375907561426
40
0.120951832442969
40
0.124527757324512
40
0.128103682206054
40
0.131679607087597
40
0.13525553196914
40
0.138831456850683
40
0.142407381732226
40
0.149559231495311
40
0.153135156376854
40
0.156711081258397
40
0.158499043699168
40
0.160287006139939
40
0.163862931021482
40
0.171014780784568
40
0.174590705666111
40
0.178166630547653
40
0.181742555429196
40
0.185318480310739
40
0.192470330073825
40
0.196046254955368
40
0.19962217983691
40
0.201410142277682
40
0.203198104718453
40
0.206774029599996
40
0.213925879363081
40
0.217501804244624
40
0.221077729126167
40
0.22465365400771
40
0.228229578889253
40
0.235381428652338
40
0.238957353533881
40
0.242533278415424
40
0.244321240856195
40
0.246109203296967
40
0.249685128178509
40
0.253261053060052
40
0.256836977941595
40
0.258624940382366
40
0.260412902823138
40
0.263988827704681
40
0.267564752586223
40
0.271140677467766
40
0.274716602349309
40
0.278292527230852
40
0.281868452112395
40
0.285444376993937
40
0.28902030187548
40
0.292596226757023
40
0.296172151638566
40
0.299748076520109
40
0.303324001401651
40
0.306899926283194
40
0.310475851164737
40
0.31405177604628
40
0.321203625809365
40
0.324779550690908
40
0.328355475572451
40
0.331931400453994
40
0.335507325335537
40
0.339083250217079
40
0.342659175098622
40
0.346235099980165
40
0.349811024861708
40
0.356962874624793
40
0.364114724387879
40
0.371266574150964
40
0.374842499032507
40
0.37841842391405
40
0.381994348795593
40
0.385570273677136
40
0.389146198558678
40
0.392722123440221
40
0.396298048321764
40
0.399873973203307
40
0.40344989808485
40
0.407025822966392
40
0.410601747847935
40
0.414177672729478
40
0.417753597611021
40
0.421329522492564
40
0.424905447374106
40
0.428481372255649
40
0.432057297137192
40
0.433845259577963
40
0.435633222018735
40
0.437421184459506
40
0.439209146900278
40
0.44278507178182
40
0.446360996663363
40
0.448148959104135
40
0.449936921544906
40
0.451724883985678
40
0.453512846426449
40
0.457088771307992
40
0.458876733748763
40
0.460664696189534
40
0.462452658630306
40
0.464240621071077
40
0.466028583511849
40
0.46781654595262
40
0.469604508393391
40
0.471392470834163
40
0.473180433274934
40
0.474968395715706
40
0.476756358156477
40
0.478544320597248
40
0.48033228303802
40
0.482120245478791
40
0.483908207919563
40
0.485696170360334
40
0.487484132801105
40
0.489272095241877
40
0.491060057682648
40
0.49284802012342
40
0.494635982564191
40
0.496423945004962
40
0.498211907445734
40
0.499999869886505
40
0.501787832327277
40
0.503575794768048
40
0.505363757208819
40
0.507151719649591
40
0.508939682090362
40
0.510727644531134
40
0.512515606971905
40
0.514303569412676
40
0.516091531853448
40
0.517879494294219
40
0.519667456734991
40
0.521455419175762
40
0.523243381616533
40
0.525031344057305
40
0.526819306498076
40
0.528607268938848
40
0.530395231379619
40
0.53218319382039
40
0.533971156261162
40
0.535759118701933
40
0.537547081142705
40
0.539335043583476
40
0.541123006024247
40
0.542910968465019
40
0.546486893346562
40
0.548274855787333
40
0.550062818228104
40
0.551850780668876
40
0.553638743109647
40
0.55721466799119
40
0.560790592872733
40
0.562578555313504
40
0.564366517754275
40
0.566154480195047
40
0.567942442635818
40
0.571518367517361
40
0.575094292398904
40
0.578670217280447
40
0.582246142161989
40
0.585822067043532
40
0.589397991925075
40
0.592973916806618
40
0.596549841688161
40
0.600125766569703
40
0.603701691451246
40
0.607277616332789
40
0.610853541214332
40
0.614429466095875
40
0.618005390977417
40
0.62158131585896
40
0.625157240740503
40
0.628733165622046
40
0.635885015385131
40
0.643036865148217
40
0.650188714911303
40
0.653764639792845
40
0.657340564674388
40
0.660916489555931
40
0.664492414437474
40
0.668068339319017
40
0.671644264200559
40
0.675220189082102
40
0.678796113963645
40
0.685947963726731
40
0.689523888608273
40
0.693099813489816
40
0.696675738371359
40
0.700251663252902
40
0.703827588134445
40
0.707403513015987
40
0.71097943789753
40
0.714555362779073
40
0.718131287660616
40
0.721707212542159
40
0.725283137423701
40
0.728859062305244
40
0.73601091206833
40
0.739586836949872
40
0.743162761831415
40
0.750314611594501
40
0.753890536476044
40
0.757466461357586
40
0.761042386239129
40
0.764618311120672
40
0.771770160883758
40
0.7753460857653
40
0.778922010646843
40
0.782497935528386
40
0.786073860409929
40
0.793225710173014
40
0.796801635054557
40
0.8003775599361
40
0.803953484817643
40
0.807529409699186
40
0.814681259462271
40
0.818257184343814
40
0.821833109225357
40
0.8254090341069
40
0.828984958988442
40
0.836136808751528
40
0.839712733633071
40
0.843288658514614
40
0.846864583396156
40
0.850440508277699
40
0.857592358040785
40
0.861168282922328
40
0.86474420780387
40
0.868320132685413
40
0.871896057566956
40
0.875471982448499
40
0.879047907330042
40
0.882623832211584
40
0.886199757093127
40
0.88977568197467
40
0.893351606856213
40
0.896927531737756
40
0.900503456619298
40
0.904079381500841
40
0.907655306382384
40
0.914807156145469
40
0.918383081027012
40
0.921959005908555
40
0.925534930790098
40
0.929110855671641
40
0.932686780553183
40
0.936262705434726
40
0.943414555197812
40
0.946990480079355
40
0.950566404960897
40
0.95414232984244
40
0.957718254723983
40
0.964870104487069
40
0.968446029368611
40
0.972021954250154
40
0.975597879131697
40
0.97917380401324
40
0.982749728894783
40
0.986325653776325
40
0.989901578657868
40
0.993477503539411
40
0.997053428420954
40
1
40
1
40
1
40
1
41
1
10
-2.19999999999999
20
22.0135196822298
30
0
41
1
10
-2.20000000000002
20
22.0117276142188
30
0
41
1
10
-2.19999999999996
20
22.0069596936572
30
0
41
1
10
-2.19999999999999
20
21.9968726461305
30
0
41
1
10
-2.19999999999999
20
21.9830583750197
30
0
41
1
10
-2.19999999999999
20
21.9661971621578
30
0
41
1
10
-2.19999999999999
20
21.9463373083127
30
0
41
1
10
-2.19999999999999
20
21.9159230944434
30
0
41
1
10
-2.19999999999999
20
21.870633664349
30
0
41
1
10
-2.19999999999999
20
21.8049949078793
30
0
41
1
10
-2.19999999999999
20
21.7411390111089
30
0
41
1
10
-2.19999999999999
20
21.6847072709128
30
0
41
1
10
-2.19999999999999
20
21.6397397481888
30
0
41
1
10
-2.19999999999999
20
21.5921615264852
30
0
41
1
10
-2.19999999999999
20
21.5252891523049
30
0
41
1
10
-2.19999999999999
20
21.453308753177
30
0
41
1
10
-2.19999999999999
20
21.3763547276269
30
0
41
1
10
-2.19999999999999
20
21.3161703964091
30
0
41
1
10
-2.19999999999999
20
21.2535469243879
30
0
41
1
10
-2.19999999999999
20
21.1885090229233
30
0
41
1
10
-2.19999999999999
20
21.121080083473
30
0
41
1
10
-2.19999999999999
20
21.0280237507364
30
0
41
1
10
-2.19999999999999
20
20.9302657445266
30
0
41
1
10
-2.19999999999999
20
20.8279188369072
30
0
41
1
10
-2.19999999999999
20
20.7488739070252
30
0
41
1
10
-2.19999999999999
20
20.6675681841826
30
0
41
1
10
-2.19999999999999
20
20.5840212184218
30
0
41
1
10
-2.19999999999999
20
20.4982502525025
30
0
41
1
10
-2.19999999999999
20
20.4102747128949
30
0
41
1
10
-2.19999999999999
20
20.3201119071544
30
0
41
1
10
-2.19999999999999
20
20.2277776663919
30
0
41
1
10
-2.19999999999999
20
20.1332899477274
30
0
41
1
10
-2.19999999999999
20
20.0366642357895
30
0
41
1
10
-2.19999999999999
20
19.9379151599299
30
0
41
1
10
-2.19999999999999
20
19.8370591957147
30
0
41
1
10
-2.19999999999999
20
19.7341102362335
30
0
41
1
10
-2.19999999999999
20
19.5940778412012
30
0
41
1
10
-2.19999999999999
20
19.4499005336558
30
0
41
1
10
-2.19999999999999
20
19.3016622310533
30
0
41
1
10
-2.19999999999999
20
19.2073184270571
30
0
41
1
10
-2.19999999999999
20
19.1308417758755
30
0
41
1
10
-2.19999999999999
20
19.0536957086557
30
0
41
1
10
-2.19999999999999
20
18.9169360704622
30
0
41
1
10
-2.19999999999999
20
18.756645794641
30
0
41
1
10
-2.19999999999999
20
18.5924362845557
30
0
41
1
10
-2.19999999999999
20
18.4673177976698
30
0
41
1
10
-2.19999999999999
20
18.3402521463352
30
0
41
1
10
-2.19999999999999
20
18.1682545122203
30
0
41
1
10
-2.19999999999999
20
17.9923842356821
30
0
41
1
10
-2.19999999999999
20
17.8127164551587
30
0
41
1
10
-2.19999999999999
20
17.6988333809735
30
0
41
1
10
-2.19999999999999
20
17.606787767091
30
0
41
1
10
-2.19999999999999
20
17.5141131161323
30
0
41
1
10
-2.19999999999999
20
17.3502824417036
30
0
41
1
10
-2.19999999999999
20
17.1592829447589
30
0
41
1
10
-2.19999999999999
20
16.9645867974536
30
0
41
1
10
-2.19999999999999
20
16.8167088060477
30
0
41
1
10
-2.19999999999999
20
16.6669871400996
30
0
41
1
10
-2.19999999999999
20
16.4649164953067
30
0
41
1
10
-2.19999999999999
20
16.2591646002876
30
0
41
1
10
-2.19999999999999
20
16.049802831716
30
0
41
1
10
-2.19999999999999
20
15.9174340084588
30
0
41
1
10
-2.19999999999999
20
15.8106442286412
30
0
41
1
10
-2.19999999999999
20
15.7032538676567
30
0
41
1
10
-2.19999999999999
20
15.567882396309
30
0
41
1
10
-2.19999999999999
20
15.4036502143979
30
0
41
1
10
-2.19999999999999
20
15.2652965264295
30
0
41
1
10
-2.19999999999999
20
15.1537302031574
30
0
41
1
10
-2.19999999999999
20
15.0415708470876
30
0
41
1
10
-2.19999999999999
20
14.90025131083
30
0
41
1
10
-2.19999999999999
20
14.7289012367181
30
0
41
1
10
-2.19999999999999
20
14.5557843226631
30
0
41
1
10
-2.19999999999999
20
14.3809062427341
30
0
41
1
10
-2.19999999999999
20
14.2042700822292
30
0
41
1
10
-2.19999999999999
20
14.0258803741545
30
0
41
1
10
-2.19999999999999
20
13.8457420253844
30
0
41
1
10
-2.19999999999999
20
13.6638579861817
30
0
41
1
10
-2.19999999999999
20
13.4802328481714
30
0
41
1
10
-2.19999999999999
20
13.2948705974071
30
0
41
1
10
-2.19999999999999
20
13.1077737485311
30
0
41
1
10
-2.19999999999999
20
12.9189467805057
30
0
41
1
10
-2.19999999999999
20
12.728392778749
30
0
41
1
10
-2.19999999999999
20
12.5361142588231
30
0
41
1
10
-2.19999999999999
20
12.2774598592137
30
0
41
1
10
-2.19999999999999
20
12.0153352592314
30
0
41
1
10
-2.19999999999999
20
11.7498207258852
30
0
41
1
10
-2.19999999999999
20
11.5489655826483
30
0
41
1
10
-2.19999999999999
20
11.3464032807099
30
0
41
1
10
-2.19999999999999
20
11.1421359853758
30
0
41
1
10
-2.19999999999999
20
10.9361655879759
30
0
41
1
10
-2.19999999999999
20
10.7284950970913
30
0
41
1
10
-2.19999999999999
20
10.5191258614377
30
0
41
1
10
-2.19999999999999
20
10.2377184130835
30
0
41
1
10
-2.19999999999999
20
9.88169304970987
30
0
41
1
10
-2.19999999999999
20
9.44771865839311
30
0
41
1
10
-2.19999999999999
20
9.08043848955603
30
0
41
1
10
-2.19999999999999
20
8.78327689677775
30
0
41
1
10
-2.19999999999999
20
8.55871419535617
30
0
41
1
10
-2.19999999999999
20
8.33247380011301
30
0
41
1
10
-2.19999999999999
20
8.10455852701506
30
0
41
1
10
-2.19999999999999
20
7.87497060194644
30
0
41
1
10
-2.19999999999999
20
7.6437128367312
30
0
41
1
10
-2.19999999999999
20
7.41078884464241
30
0
41
1
10
-2.19999999999999
20
7.17620220160032
30
0
41
1
10
-2.19999999999999
20
6.93995692090419
30
0
41
1
10
-2.19999999999999
20
6.70205758660663
30
0
41
1
10
-2.19999999999999
20
6.46250918569618
30
0
41
1
10
-2.19999999999999
20
6.2213178400012
30
0
41
1
10
-2.19999999999999
20
5.97849049576266
30
0
41
1
10
-2.19999999999999
20
5.73403521575827
30
0
41
1
10
-2.19999999999999
20
5.48796107357256
30
0
41
1
10
-2.19999999999999
20
5.24027911118978
30
0
41
1
10
-2.19999999999999
20
5.03253661023487
30
0
41
1
10
-2.19999999999999
20
4.86557359122418
30
0
41
1
10
-2.19999999999999
20
4.73994908127321
30
0
41
1
10
-2.19999999999999
20
4.61393371339017
30
0
41
1
10
-2.19999999999999
20
4.44540774959788
30
0
41
1
10
-2.19999999999999
20
4.23375652596863
30
0
41
1
10
-2.19999999999999
20
4.02083961713782
30
0
41
1
10
-2.19999999999999
20
3.84978439152417
30
0
41
1
10
-2.19999999999999
20
3.72111342731068
30
0
41
1
10
-2.19999999999999
20
3.59207749308624
30
0
41
1
10
-2.19999999999999
20
3.41956369464535
30
0
41
1
10
-2.19999999999999
20
3.24629481959221
30
0
41
1
10
-2.19999999999999
20
3.0723836150739
30
0
41
1
10
-2.19999999999999
20
2.94160046512801
30
0
41
1
10
-2.19999999999999
20
2.81048647644627
30
0
41
1
10
-2.19999999999999
20
2.67904892732182
30
0
41
1
10
-2.19999999999999
20
2.54729562722176
30
0
41
1
10
-2.19999999999999
20
2.41523551097489
30
0
41
1
10
-2.19999999999999
20
2.28287740252156
30
0
41
1
10
-2.19999999999999
20
2.15023166945255
30
0
41
1
10
-2.19999999999999
20
2.01730873413072
30
0
41
1
10
-2.19999999999999
20
1.88412021099791
30
0
41
1
10
-2.19999999999999
20
1.75067841854351
30
0
41
1
10
-2.19999999999999
20
1.61699634722072
30
0
41
1
10
-2.19999999999999
20
1.48308821885627
30
0
41
1
10
-2.19999999999999
20
1.34896859254377
30
0
41
1
10
-2.19999999999999
20
1.21465350310541
30
0
41
1
10
-2.19999999999999
20
1.0801592162689
30
0
41
1
10
-2.19999999999999
20
0.945503442662783
30
0
41
1
10
-2.19999999999999
20
0.810704113119073
30
0
41
1
10
-2.19999999999999
20
0.675780421912322
30
0
41
1
10
-2.19999999999999
20
0.540751787789588
30
0
41
1
10
-2.19999999999999
20
0.405638599098921
30
0
41
1
10
-2.19999999999999
20
0.270461428271432
30
0
41
1
10
-2.19999999999999
20
0.135241462279822
30
0
41
1
10
-2.19999999999999
20
-5.3654787E-09
30
0
41
1
10
-2.19999999999999
20
-0.135241472589996
30
0
41
1
10
-2.19999999999999
20
-0.270461437853925
30
0
41
1
10
-2.19999999999999
20
-0.405638608907879
30
0
41
1
10
-2.19999999999999
20
-0.540751798686529
30
0
41
1
10
-2.19999999999999
20
-0.675780432522174
30
0
41
1
10
-2.19999999999999
20
-0.810704122044939
30
0
41
1
10
-2.19999999999999
20
-0.945503451789534
30
0
41
1
10
-2.19999999999999
20
-1.08015922751395
30
0
41
1
10
-2.19999999999999
20
-1.21465351395383
30
0
41
1
10
-2.19999999999999
20
-1.34896860046499
30
0
41
1
10
-2.19999999999999
20
-1.48308822685564
30
0
41
1
10
-2.19999999999999
20
-1.61699635855226
30
0
41
1
10
-2.19999999999999
20
-1.75067843002711
30
0
41
1
10
-2.19999999999999
20
-1.88412021847037
30
0
41
1
10
-2.19999999999999
20
-2.01730874020455
30
0
41
1
10
-2.19999999999999
20
-2.15023167925048
30
0
41
1
10
-2.19999999999999
20
-2.28287741514001
30
0
41
1
10
-2.19999999999999
20
-2.41523552035437
30
0
41
1
10
-2.19999999999999
20
-2.54729563151926
30
0
41
1
10
-2.19999999999999
20
-2.67904893291683
30
0
41
1
10
-2.19999999999999
20
-2.81048648769612
30
0
41
1
10
-2.19999999999999
20
-2.94160047796311
30
0
41
1
10
-2.19999999999999
20
-3.072383622975
30
0
41
1
10
-2.19999999999999
20
-3.24629481975686
30
0
41
1
10
-2.19999999999999
20
-3.41956370437865
30
0
41
1
10
-2.19999999999999
20
-3.59207750684843
30
0
41
1
10
-2.19999999999999
20
-3.72111343644576
30
0
41
1
10
-2.19999999999999
20
-3.84978439330678
30
0
41
1
10
-2.19999999999999
20
-4.020839617489
30
0
41
1
10
-2.19999999999999
20
-4.23375654375474
30
0
41
1
10
-2.19999999999999
20
-4.44540775759583
30
0
41
1
10
-2.19999999999999
20
-4.61393371339872
30
0
41
1
10
-2.19999999999999
20
-4.73994907984499
30
0
41
1
10
-2.19999999999999
20
-4.86557359653659
30
0
41
1
10
-2.19999999999999
20
-5.03253662624778
30
0
41
1
10
-2.19999999999999
20
-5.24027911954084
30
0
41
1
10
-2.19999999999999
20
-5.48796106514416
30
0
41
1
10
-2.19999999999999
20
-5.73403522651989
30
0
41
1
10
-2.19999999999999
20
-5.97849051253721
30
0
41
1
10
-2.19999999999999
20
-6.22131783489101
30
0
41
1
10
-2.19999999999999
20
-6.46250917346813
30
0
41
1
10
-2.19999999999999
20
-6.70205756880287
30
0
41
1
10
-2.19999999999999
20
-6.93995689241021
30
0
41
1
10
-2.19999999999999
20
-7.17620223308296
30
0
41
1
10
-2.19999999999999
20
-7.41078904293681
30
0
41
1
10
-2.19999999999999
20
-7.64371312168015
30
0
41
1
10
-2.19999999999999
20
-7.87497052861914
30
0
41
1
10
-2.19999999999999
20
-8.10455846042146
30
0
41
1
10
-2.19999999999999
20
-8.33247384441506
30
0
41
1
10
-2.19999999999999
20
-8.55871423477029
30
0
41
1
10
-2.19999999999999
20
-8.78327691067398
30
0
41
1
10
-2.19999999999999
20
-9.08043846702645
30
0
41
1
10
-2.19999999999999
20
-9.44771866001565
30
0
41
1
10
-2.19999999999999
20
-9.88169305528194
30
0
41
1
10
-2.19999999999999
20
-10.2377183913447
30
0
41
1
10
-2.19999999999999
20
-10.5191258633122
30
0
41
1
10
-2.19999999999999
20
-10.7284951094206
30
0
41
1
10
-2.19999999999999
20
-10.9361655882296
30
0
41
1
10
-2.19999999999999
20
-11.1421359694817
30
0
41
1
10
-2.19999999999999
20
-11.3464032666245
30
0
41
1
10
-2.19999999999999
20
-11.5489655840494
30
0
41
1
10
-2.19999999999999
20
-11.7498207382014
30
0
41
1
10
-2.19999999999999
20
-12.015335258712
30
0
41
1
10
-2.19999999999999
20
-12.277459839655
30
0
41
1
10
-2.19999999999999
20
-12.5361142561418
30
0
41
1
10
-2.19999999999999
20
-12.7283927892775
30
0
41
1
10
-2.19999999999999
20
-12.9189467887917
30
0
41
1
10
-2.19999999999999
20
-13.1077737445537
30
0
41
1
10
-2.19999999999999
20
-13.2948705838035
30
0
41
1
10
-2.19999999999999
20
-13.4802328404438
30
0
41
1
10
-2.19999999999999
20
-13.6638579908946
30
0
41
1
10
-2.19999999999999
20
-13.845742035678
30
0
41
1
10
-2.19999999999999
20
-14.0258803815961
30
0
41
1
10
-2.19999999999999
20
-14.2042701267483
30
0
41
1
10
-2.19999999999999
20
-14.3809064511142
30
0
41
1
10
-2.19999999999999
20
-14.61406817927
30
0
41
1
10
-2.19999999999999
20
-14.8437340716545
30
0
41
1
10
-2.19999999999999
20
-15.069828938707
30
0
41
1
10
-2.19999999999999
20
-15.2935559429894
30
0
41
1
10
-2.19999999999999
20
-15.513744330902
30
0
41
1
10
-2.19999999999999
20
-15.7303232767805
30
0
41
1
10
-2.19999999999999
20
-15.8909649274654
30
0
41
1
10
-2.19999999999999
20
-16.0498023362736
30
0
41
1
10
-2.19999999999999
20
-16.2591647559547
30
0
41
1
10
-2.19999999999999
20
-16.4649171124643
30
0
41
1
10
-2.19999999999999
20
-16.666987304737
30
0
41
1
10
-2.19999999999999
20
-16.8167085043733
30
0
41
1
10
-2.19999999999999
20
-16.9645862898264
30
0
41
1
10
-2.19999999999999
20
-17.1592828976246
30
0
41
1
10
-2.19999999999999
20
-17.3502835148979
30
0
41
1
10
-2.19999999999999
20
-17.5375147595292
30
0
41
1
10
-2.19999999999999
20
-17.676060438985
30
0
41
1
10
-2.19999999999999
20
-17.8127154575359
30
0
41
1
10
-2.19999999999999
20
-17.9923842415008
30
0
41
1
10
-2.19999999999999
20
-18.1682547291306
30
0
41
1
10
-2.19999999999999
20
-18.3402522143585
30
0
41
1
10
-2.19999999999999
20
-18.4673177032107
30
0
41
1
10
-2.19999999999999
20
-18.5924361073221
30
0
41
1
10
-2.19999999999999
20
-18.7566457425986
30
0
41
1
10
-2.19999999999999
20
-18.9169371900015
30
0
41
1
10
-2.19999999999999
20
-19.0732305996174
30
0
41
1
10
-2.19999999999999
20
-19.1884526890887
30
0
41
1
10
-2.19999999999999
20
-19.3016611759423
30
0
41
1
10
-2.19999999999999
20
-19.4499005391959
30
0
41
1
10
-2.19999999999999
20
-19.5940785255289
30
0
41
1
10
-2.19999999999999
20
-19.7341104289282
30
0
41
1
10
-2.19999999999999
20
-19.8370589164793
30
0
41
1
10
-2.19999999999999
20
-19.9379146863563
30
0
41
1
10
-2.19999999999999
20
-20.0366640227898
30
0
41
1
10
-2.19999999999999
20
-20.133289903145
30
0
41
1
10
-2.19999999999999
20
-20.2277776697998
30
0
41
1
10
-2.19999999999999
20
-20.3201119082527
30
0
41
1
10
-2.19999999999999
20
-20.4102747220553
30
0
41
1
10
-2.19999999999999
20
-20.4982502752196
30
0
41
1
10
-2.19999999999999
20
-20.5840212474559
30
0
41
1
10
-2.19999999999999
20
-20.6675682022903
30
0
41
1
10
-2.19999999999999
20
-20.7488739108727
30
0
41
1
10
-2.19999999999999
20
-20.82791883753
30
0
41
1
10
-2.19999999999999
20
-20.9302657657864
30
0
41
1
10
-2.19999999999999
20
-21.0280237880878
30
0
41
1
10
-2.19999999999999
20
-21.1210800961781
30
0
41
1
10
-2.19999999999999
20
-21.1885090211437
30
0
41
1
10
-2.19999999999999
20
-21.2535469320083
30
0
41
1
10
-2.19999999999999
20
-21.3161704250344
30
0
41
1
10
-2.19999999999999
20
-21.3763547664481
30
0
41
1
10
-2.19999999999999
20
-21.4533087676779
30
0
41
1
10
-2.19999999999999
20
-21.5252891448141
30
0
41
1
10
-2.19999999999999
20
-21.5921615531195
30
0
41
1
10
-2.19999999999999
20
-21.6397397916631
30
0
41
1
10
-2.19999999999999
20
-21.6847072964973
30
0
41
1
10
-2.19999999999999
20
-21.7411389990572
30
0
41
1
10
-2.19999999999999
20
-21.7922265879071
30
0
41
1
10
-2.19999999999999
20
-21.8378144981283
30
0
41
1
10
-2.19999999999999
20
-21.8692221254414
30
0
41
1
10
-2.19999999999999
20
-21.8978063777089
30
0
41
1
10
-2.19999999999999
20
-21.9235254752891
30
0
41
1
10
-2.19999999999999
20
-21.9463373508774
30
0
41
1
10
-2.19999999999999
20
-21.9661972037607
30
0
41
1
10
-2.19999999999999
20
-21.9830583809744
30
0
41
1
10
-2.19999999999999
20
-21.9968726399857
30
0
41
1
10
-2.19999999999999
20
-22.0069599893978
30
0
41
1
10
-2.19999999999999
20
-22.0117281140637
30
0
41
1
10
-2.20000000000002
20
-22.0135203182513
30
0
0
SPLINE
5
170
100
AcDbEntity
8
SK1
62
256
6
ByLayer
370
18
48
1
60
0
100
AcDbSpline
70
4
71
3
72
303
73
299
40
0
40
0
40
0
40
0
40
0.0005133419364496
40
0.0040062583197744
40
0.0074991747030992
40
0.010992091086424
40
0.0144850074697488
40
0.0179779238530737
40
0.0214708402363985
40
0.0249637566197233
40
0.0284566730030481
40
0.0319495893863729
40
0.0389354221530226
40
0.0459212549196723
40
0.0529070876863219
40
0.0564000040696468
40
0.0598929204529716
40
0.0633858368362964
40
0.0668787532196212
40
0.0738645859862709
40
0.0773575023695957
40
0.0808504187529206
40
0.0843433351362454
40
0.0878362515195702
40
0.091329167902895
40
0.0948220842862198
40
0.101807917052869
40
0.105300833436194
40
0.108793749819519
40
0.112286666202844
40
0.115779582586169
40
0.119272498969494
40
0.122765415352818
40
0.126258331736143
40
0.129751248119468
40
0.133244164502793
40
0.136737080886118
40
0.140229997269442
40
0.143722913652767
40
0.147215830036092
40
0.150708746419417
40
0.157694579186067
40
0.161187495569391
40
0.164680411952716
40
0.166426870144379
40
0.168173328336041
40
0.171666244719366
40
0.178652077486016
40
0.18214499386934
40
0.185637910252665
40
0.18913082663599
40
0.192623743019315
40
0.199609575785965
40
0.203102492169289
40
0.206595408552614
40
0.208341866744276
40
0.210088324935939
40
0.213581241319264
40
0.220567074085914
40
0.224059990469238
40
0.227552906852563
40
0.231045823235888
40
0.234538739619213
40
0.241524572385863
40
0.245017488769187
40
0.248510405152512
40
0.250256863344175
40
0.252003321535837
40
0.255496237919162
40
0.258989154302487
40
0.262482070685811
40
0.264228528877474
40
0.265974987069136
40
0.269467903452461
40
0.272960819835786
40
0.276453736219111
40
0.279946652602436
40
0.28343956898576
40
0.286932485369085
40
0.29042540175241
40
0.293918318135735
40
0.29741123451906
40
0.300904150902384
40
0.304397067285709
40
0.307889983669034
40
0.311382900052359
40
0.314875816435684
40
0.318368732819009
40
0.325354565585658
40
0.328847481968983
40
0.332340398352308
40
0.335833314735633
40
0.339326231118957
40
0.342819147502282
40
0.346312063885607
40
0.349804980268932
40
0.353297896652257
40
0.360283729418907
40
0.367269562185556
40
0.374255394952206
40
0.377748311335531
40
0.381241227718855
40
0.38473414410218
40
0.388227060485505
40
0.39171997686883
40
0.395212893252155
40
0.39870580963548
40
0.402198726018804
40
0.405691642402129
40
0.409184558785454
40
0.412677475168779
40
0.416170391552104
40
0.419663307935429
40
0.423156224318753
40
0.426649140702078
40
0.430142057085403
40
0.433634973468728
40
0.43538143166039
40
0.437127889852053
40
0.438874348043715
40
0.440620806235378
40
0.444113722618702
40
0.447606639002027
40
0.44935309719369
40
0.451099555385352
40
0.452846013577014
40
0.454592471768677
40
0.458085388152002
40
0.459831846343664
40
0.461578304535326
40
0.463324762726989
40
0.465071220918651
40
0.466817679110314
40
0.468564137301976
40
0.470310595493639
40
0.472057053685301
40
0.473803511876963
40
0.475549970068626
40
0.477296428260288
40
0.479042886451951
40
0.480789344643613
40
0.482535802835275
40
0.484282261026938
40
0.4860287192186
40
0.487775177410263
40
0.489521635601925
40
0.491268093793587
40
0.49301455198525
40
0.494761010176912
40
0.496507468368575
40
0.498253926560237
40
0.500000384751899
40
0.501746842943562
40
0.503493301135224
40
0.505239759326887
40
0.506986217518549
40
0.508732675710212
40
0.510479133901874
40
0.512225592093536
40
0.513972050285199
40
0.515718508476861
40
0.517464966668524
40
0.519211424860186
40
0.520957883051849
40
0.522704341243511
40
0.524450799435173
40
0.526197257626836
40
0.527943715818498
40
0.529690174010161
40
0.531436632201823
40
0.533183090393485
40
0.534929548585148
40
0.53667600677681
40
0.538422464968473
40
0.540168923160135
40
0.541915381351797
40
0.545408297735122
40
0.547154755926785
40
0.548901214118447
40
0.55064767231011
40
0.552394130501772
40
0.555887046885097
40
0.559379963268422
40
0.561126421460084
40
0.562872879651746
40
0.564619337843409
40
0.566365796035071
40
0.569858712418396
40
0.573351628801721
40
0.576844545185046
40
0.580337461568371
40
0.583830377951695
40
0.58732329433502
40
0.590816210718345
40
0.59430912710167
40
0.597802043484995
40
0.60129495986832
40
0.604787876251644
40
0.608280792634969
40
0.611773709018294
40
0.615266625401619
40
0.618759541784944
40
0.622252458168269
40
0.625745374551594
40
0.632731207318243
40
0.639717040084893
40
0.646702872851542
40
0.650195789234867
40
0.653688705618192
40
0.657181622001517
40
0.660674538384842
40
0.664167454768166
40
0.667660371151491
40
0.671153287534816
40
0.674646203918141
40
0.68163203668479
40
0.685124953068115
40
0.68861786945144
40
0.692110785834765
40
0.69560370221809
40
0.699096618601415
40
0.70258953498474
40
0.706082451368064
40
0.709575367751389
40
0.713068284134714
40
0.716561200518039
40
0.720054116901364
40
0.723547033284689
40
0.730532866051338
40
0.734025782434663
40
0.737518698817988
40
0.744504531584637
40
0.747997447967962
40
0.751490364351287
40
0.754983280734612
40
0.758476197117937
40
0.765462029884586
40
0.768954946267911
40
0.772447862651236
40
0.775940779034561
40
0.779433695417886
40
0.786419528184535
40
0.78991244456786
40
0.793405360951185
40
0.79689827733451
40
0.800391193717835
40
0.807377026484484
40
0.810869942867809
40
0.814362859251134
40
0.817855775634459
40
0.821348692017783
40
0.828334524784433
40
0.831827441167758
40
0.835320357551083
40
0.838813273934408
40
0.842306190317733
40
0.849292023084382
40
0.852784939467707
40
0.856277855851032
40
0.859770772234357
40
0.863263688617682
40
0.866756605001006
40
0.870249521384331
40
0.873742437767656
40
0.877235354150981
40
0.880728270534306
40
0.884221186917631
40
0.887714103300955
40
0.89120701968428
40
0.894699936067605
40
0.89819285245093
40
0.905178685217579
40
0.908671601600904
40
0.912164517984229
40
0.915657434367554
40
0.919150350750879
40
0.922643267134204
40
0.926136183517528
40
0.933122016284178
40
0.936614932667503
40
0.940107849050828
40
0.943600765434153
40
0.947093681817477
40
0.954079514584127
40
0.957572430967452
40
0.961065347350777
40
0.964558263734101
40
0.968051180117426
40
0.971544096500751
40
0.975037012884076
40
0.978529929267401
40
0.982022845650726
40
0.98551576203405
40
0.989008678417375
40
0.9925015948007
40
0.995994511184025
40
0.99948742756735
40
1
40
1
40
1
40
1
41
1
10
-36.5
20
21.1555776087481
30
0
41
1
10
-36.5
20
21.1557858219265
30
0
41
1
10
-36.5
20
21.1573191513498
30
0
41
1
10
-36.5
20
21.1588544331657
30
0
41
1
10
-36.5
20
21.1578038223016
30
0
41
1
10
-36.5
20
21.1536126358382
30
0
41
1
10
-36.5
20
21.1463317213718
30
0
41
1
10
-36.5
20
21.1360112678938
30
0
41
1
10
-36.5
20
21.1226986497682
30
0
41
1
10
-36.5
20
21.1064402158535
30
0
41
1
10
-36.5
20
21.0872797426226
30
0
41
1
10
-36.5
20
21.0578537406018
30
0
41
1
10
-36.5
20
21.0141777773224
30
0
41
1
10
-36.5
20
20.950713074722
30
0
41
1
10
-36.5
20
20.8890285612071
30
0
41
1
10
-36.5
20
20.8342802658871
30
0
41
1
10
-36.5
20
20.7907267804185
30
0
41
1
10
-36.5
20
20.7446291690672
30
0
41
1
10
-36.5
20
20.6796864194097
30
0
41
1
10
-36.5
20
20.6101652524536
30
0
41
1
10
-36.5
20
20.5353747251341
30
0
41
1
10
-36.5
20
20.4769783324059
30
0
41
1
10
-36.5
20
20.4161995895792
30
0
41
1
10
-36.5
20
20.3530628196555
30
0
41
1
10
-36.5
20
20.2875896826626
30
0
41
1
10
-36.5
20
20.1970436182683
30
0
41
1
10
-36.5
20
20.1024192722933
30
0
41
1
10
-36.5
20
20.0027815031752
30
0
41
1
10
-36.5
20
19.9259535572617
30
0
41
1
10
-36.5
20
19.8469141355251
30
0
41
1
10
-36.5
20
19.7656833730651
30
0
41
1
10
-36.5
20
19.6822775189499
30
0
41
1
10
-36.5
20
19.5967148149262
30
0
41
1
10
-36.5
20
19.5090135394173
30
0
41
1
10
-36.5
20
19.4191882696517
30
0
41
1
10
-36.5
20
19.3272561697677
30
0
41
1
10
-36.5
20
19.2332338822713
30
0
41
1
10
-36.5
20
19.1371346902892
30
0
41
1
10
-36.5
20
19.0389746878943
30
0
41
1
10
-36.5
20
18.9387689752275
30
0
41
1
10
-36.5
20
18.8022215100789
30
0
41
1
10
-36.5
20
18.6623317385554
30
0
41
1
10
-36.5
20
18.5177544284038
30
0
41
1
10
-36.5
20
18.4260133905722
30
0
41
1
10
-36.5
20
18.3514175898237
30
0
41
1
10
-36.5
20
18.2761667145512
30
0
41
1
10
-36.5
20
18.1428549391526
30
0
41
1
10
-36.5
20
17.987269645424
30
0
41
1
10
-36.5
20
17.8270700659299
30
0
41
1
10
-36.5
20
17.705205542109
30
0
41
1
10
-36.5
20
17.5814423770725
30
0
41
1
10
-36.5
20
17.4136311437529
30
0
41
1
10
-36.5
20
17.2428939764417
30
0
41
1
10
-36.5
20
17.0675963011876
30
0
41
1
10
-36.5
20
16.9568152899196
30
0
41
1
10
-36.5
20
16.867008999151
30
0
41
1
10
-36.5
20
16.7765898513273
30
0
41
1
10
-36.5
20
16.6168596157572
30
0
41
1
10
-36.5
20
16.4314438788638
30
0
41
1
10
-36.5
20
16.2414991337765
30
0
41
1
10
-36.5
20
16.097474719741
30
0
41
1
10
-36.5
20
15.9516616651348
30
0
41
1
10
-36.5
20
15.7545445351489
30
0
41
1
10
-36.5
20
15.5548613446891
30
0
41
1
10
-36.5
20
15.350663385132
30
0
41
1
10
-36.5
20
15.2219600388738
30
0
41
1
10
-36.5
20
15.1178164480938
30
0
41
1
10
-36.5
20
15.0130920883853
30
0
41
1
10
-36.5
20
14.8814910451208
30
0
41
1
10
-36.5
20
14.7216281332594
30
0
41
1
10
-36.5
20
14.5871530954062
30
0
41
1
10
-36.5
20
14.4783873813363
30
0
41
1
10
-36.5
20
14.3690494022437
30
0
41
1
10
-36.5
20
14.2317235183089
30
0
41
1
10
-36.5
20
14.0650028858775
30
0
41
1
10
-36.5
20
13.8965816080865
30
0
41
1
10
-36.5
20
13.7264689694465
30
0
41
1
10
-36.5
20
13.5546710496343
30
0
41
1
10
-36.5
20
13.3811910773122
30
0
41
1
10
-36.5
20
13.2060373742644
30
0
41
1
10
-36.5
20
13.0292149133303
30
0
41
1
10
-36.5
20
12.850728177302
30
0
41
1
10
-36.5
20
12.6705857874604
30
0
41
1
10
-36.5
20
12.4887914218501
30
0
41
1
10
-36.5
20
12.3053503484466
30
0
41
1
10
-36.5
20
12.1202706879328
30
0
41
1
10
-36.5
20
11.9335555855444
30
0
41
1
10
-36.5
20
11.6819759204348
30
0
41
1
10
-36.5
20
11.4285505376587
30
0
41
1
10
-36.5
20
11.1704660874499
30
0
41
1
10
-36.5
20
10.9756651586938
30
0
41
1
10
-36.5
20
10.7792636737398
30
0
41
1
10
-36.5
20
10.5812696725585
30
0
41
1
10
-36.5
20
10.3816871154457
30
0
41
1
10
-36.5
20
10.180523710493
30
0
41
1
10
-36.5
20
9.9777855843503
30
0
41
1
10
-36.5
20
9.70483576808863
30
0
41
1
10
-36.5
20
9.36101276272154
30
0
41
1
10
-36.5
20
8.94153438933262
30
0
41
1
10
-36.5
20
8.58745787193689
30
0
41
1
10
-36.5
20
8.30004464023602
30
0
41
1
10
-36.5
20
8.08346950394392
30
0
41
1
10
-36.5
20
7.86540102208474
30
0
41
1
10
-36.5
20
7.64585131899614
30
0
41
1
10
-36.5
20
7.42483318088833
30
0
41
1
10
-36.5
20
7.20235735193418
30
0
41
1
10
-36.5
20
6.97843755879967
30
0
41
1
10
-36.5
20
6.75308981071325
30
0
41
1
10
-36.5
20
6.52633035082275
30
0
41
1
10
-36.5
20
6.29817753233076
30
0
41
1
10
-36.5
20
6.06865022444896
30
0
41
1
10
-36.5
20
5.83776884649418
30
0
41
1
10
-36.5
20
5.60555660448861
30
0
41
1
10
-36.5
20
5.37203985998678
30
0
41
1
10
-36.5
20
5.13724579696884
30
0
41
1
10
-36.5
20
4.90120595303733
30
0
41
1
10
-36.5
20
4.70396583147405
30
0
41
1
10
-36.5
20
4.54469638576828
30
0
41
1
10
-36.5
20
4.42533999597057
30
0
41
1
10
-36.5
20
4.30569972295402
30
0
41
1
10
-36.5
20
4.14529336499854
30
0
41
1
10
-36.5
20
3.94531865595207
30
0
41
1
10
-36.5
20
3.74444957084984
30
0
41
1
10
-36.5
20
3.58224076117995
30
0
41
1
10
-36.5
20
3.46078958963511
30
0
41
1
10
-36.5
20
3.33910702605107
30
0
41
1
10
-36.5
20
3.17597085922344
30
0
41
1
10
-36.5
20
3.01425651604552
30
0
41
1
10
-36.5
20
2.85023149996007
30
0
41
1
10
-36.5
20
2.72752154931175
30
0
41
1
10
-36.5
20
2.60463052157442
30
0
41
1
10
-36.5
20
2.48157378937663
30
0
41
1
10
-36.5
20
2.35835621123036
30
0
41
1
10
-36.5
20
2.23499061660055
30
0
41
1
10
-36.5
20
2.11148761081347
30
0
41
1
10
-36.5
20
1.9878545152765
30
0
41
1
10
-36.5
20
1.86410632124097
30
0
41
1
10
-36.5
20
1.74024827700825
30
0
41
1
10
-36.5
20
1.61629526151512
30
0
41
1
10
-36.5
20
1.49225310041959
30
0
41
1
10
-36.5
20
1.3681347814894
30
0
41
1
10
-36.5
20
1.2439473222278
30
0
41
1
10
-36.5
20
1.11970117534864
30
0
41
1
10
-36.5
20
0.995403485642782
30
0
41
1
10
-36.5
20
0.8710629170684
30
0
41
1
10
-36.5
20
0.746686102657719
30
0
41
1
10
-36.5
20
0.622280124115576
30
0
41
1
10
-36.5
20
0.497850420758397
30
0
41
1
10
-36.5
20
0.373402935182185
30
0
41
1
10
-36.5
20
0.248942238793177
30
0
41
1
10
-36.5
20
0.124473257200918
30
0
41
1
10
-36.5
20
9.2462358E-09
30
0
41
1
10
-36.5
20
-0.124473254673973
30
0
41
1
10
-36.5
20
-0.248942266430618
30
0
41
1
10
-36.5
20
-0.373402960091397
30
0
41
1
10
-36.5
20
-0.497850400790554
30
0
41
1
10
-36.5
20
-0.622280094010847
30
0
41
1
10
-36.5
20
-0.746686131491799
30
0
41
1
10
-36.5
20
-0.871062970095124
30
0
41
1
10
-36.5
20
-0.995403468230791
30
0
41
1
10
-36.5
20
-1.11970111692671
30
0
41
1
10
-36.5
20
-1.2439473407681
30
0
41
1
10
-36.5
20
-1.36813486147517
30
0
41
1
10
-36.5
20
-1.49225310642996
30
0
41
1
10
-36.5
20
-1.61629518356963
30
0
41
1
10
-36.5
20
-1.74024825464127
30
0
41
1
10
-36.5
20
-1.86410640329151
30
0
41
1
10
-36.5
20
-1.98785458048855
30
0
41
1
10
-36.5
20
-2.11148756075909
30
0
41
1
10
-36.5
20
-2.2349905278607
30
0
41
1
10
-36.5
20
-2.3583562279822
30
0
41
1
10
-36.5
20
-2.48157389743918
30
0
41
1
10
-36.5
20
-2.60463057106841
30
0
41
1
10
-36.5
20
-2.72752148004804
30
0
41
1
10
-36.5
20
-2.8502314065623
30
0
41
1
10
-36.5
20
-3.01425656877106
30
0
41
1
10
-36.5
20
-3.17597095993784
30
0
41
1
10
-36.5
20
-3.33910698167958
30
0
41
1
10
-36.5
20
-3.46078948211164
30
0
41
1
10
-36.5
20
-3.58224072191865
30
0
41
1
10
-36.5
20
-3.74444967050349
30
0
41
1
10
-36.5
20
-3.94531869048151
30
0
41
1
10
-36.5
20
-4.14529326648051
30
0
41
1
10
-36.5
20
-4.30569969171859
30
0
41
1
10
-36.5
20
-4.42534006396792
30
0
41
1
10
-36.5
20
-4.54469650094606
30
0
41
1
10
-36.5
20
-4.70396584910503
30
0
41
1
10
-36.5
20
-4.90120586463618
30
0
41
1
10
-36.5
20
-5.1372458114655
30
0
41
1
10
-36.5
20
-5.37203995090806
30
0
41
1
10
-36.5
20
-5.6055565552935
30
0
41
1
10
-36.5
20
-5.83776875015036
30
0
41
1
10
-36.5
20
-6.06865017711209
30
0
41
1
10
-36.5
20
-6.29817748211653
30
0
41
1
10
-36.5
20
-6.52633051401983
30
0
41
1
10
-36.5
20
-6.75309051279777
30
0
41
1
10
-36.5
20
-6.97843834484934
30
0
41
1
10
-36.5
20
-7.20235684280951
30
0
41
1
10
-36.5
20
-7.42483229470756
30
0
41
1
10
-36.5
20
-7.64585158611581
30
0
41
1
10
-36.5
20
-7.86540128403743
30
0
41
1
10
-36.5
20
-8.08346945831602
30
0
41
1
10
-36.5
20
-8.3000445299389
30
0
41
1
10
-36.5
20
-8.58745782596952
30
0
41
1
10
-36.5
20
-8.94153442741853
30
0
41
1
10
-36.5
20
-9.36101273737586
30
0
41
1
10
-36.5
20
-9.70483575174822
30
0
41
1
10
-36.5
20
-9.97778564072317
30
0
41
1
10
-36.5
20
-10.18052371466
30
0
41
1
10
-36.5
20
-10.3816870614505
30
0
41
1
10
-36.5
20
-10.5812696339219
30
0
41
1
10
-36.5
20
-10.7792636942327
30
0
41
1
10
-36.5
20
-10.9756652058486
30
0
41
1
10
-36.5
20
-11.1704660987636
30
0
41
1
10
-36.5
20
-11.4285504962004
30
0
41
1
10
-36.5
20
-11.6819759007756
30
0
41
1
10
-36.5
20
-11.9335556252714
30
0
41
1
10
-36.5
20
-12.1202707134412
30
0
41
1
10
-36.5
20
-12.3053503320752
30
0
41
1
10
-36.5
20
-12.4887913848281
30
0
41
1
10
-36.5
20
-12.6705857704289
30
0
41
1
10
-36.5
20
-12.8507281979538
30
0
41
1
10
-36.5
20
-13.0292149436136
30
0
41
1
10
-36.5
20
-13.2060373895955
30
0
41
1
10
-36.5
20
-13.3811911431361
30
0
41
1
10
-36.5
20
-13.5546713888901
30
0
41
1
10
-36.5
20
-13.7264696827894
30
0
41
1
10
-36.5
20
-13.9536769173599
30
0
41
1
10
-36.5
20
-14.176348576809
30
0
41
1
10
-36.5
20
-14.3967384349213
30
0
41
1
10
-36.5
20
-14.6148460432235
30
0
41
1
10
-36.5
20
-14.8284315021107
30
0
41
1
10
-36.5
20
-15.0396227184095
30
0
41
1
10
-36.5
20
-15.1960147192182
30
0
41
1
10
-36.5
20
-15.3506631330603
30
0
41
1
10
-36.5
20
-15.5548624364723
30
0
41
1
10
-36.5
20
-15.7545451164335
30
0
41
1
10
-36.5
20
-15.9516609547094
30
0
41
1
10
-36.5
20
-16.0974737380165
30
0
41
1
10
-36.5
20
-16.241498813278
30
0
41
1
10
-36.5
20
-16.4314450331352
30
0
41
1
10
-36.5
20
-16.6168608854212
30
0
41
1
10
-36.5
20
-16.7995343923805
30
0
41
1
10
-36.5
20
-16.9344844206004
30
0
41
1
10
-36.5
20
-17.0675955495037
30
0
41
1
10
-36.5
20
-17.2428947983014
30
0
41
1
10
-36.5
20
-17.4136313821348
30
0
41
1
10
-36.5
20
-17.5814422063202
30
0
41
1
10
-36.5
20
-17.7052052466277
30
0
41
1
10
-36.5
20
-17.827069915531
30
0
41
1
10
-36.5
20
-17.9872703841193
30
0
41
1
10
-36.5
20
-18.1428562465544
30
0
41
1
10
-36.5
20
-18.2953166794047
30
0
41
1
10
-36.5
20
-18.4075180436267
30
0
41
1
10
-36.5
20
-18.5177535555592
30
0
41
1
10
-36.5
20
-18.6623326618876
30
0
41
1
10
-36.5
20
-18.8022222651529
30
0
41
1
10
-36.5
20
-18.9387686023437
30
0
41
1
10
-36.5
20
-19.0389739868785
30
0
41
1
10
-36.5
20
-19.1371342717784
30
0
41
1
10
-36.5
20
-19.2332339353276
30
0
41
1
10
-36.5
20
-19.3272562516113
30
0
41
1
10
-36.5
20
-19.4191882978898
30
0
41
1
10
-36.5
20
-19.5090135437133
30
0
41
1
10
-36.5
20
-19.5967148362678
30
0
41
1
10
-36.5
20
-19.6822775521962
30
0
41
1
10
-36.5
20
-19.7656833992675
30
0
41
1
10
-36.5
20
-19.8469141406672
30
0
41
1
10
-36.5
20
-19.9259535527381
30
0
41
1
10
-36.5
20
-20.0027815100322
30
0
41
1
10
-36.5
20
-20.1024193061391
30
0
41
1
10
-36.5
20
-20.1970436522849
30
0
41
1
10
-36.5
20
-20.287589681624
30
0
41
1
10
-36.5
20
-20.353062816238
30
0
41
1
10
-36.5
20
-20.4161996091986
30
0
41
1
10
-36.5
20
-20.4769783724375
30
0
41
1
10
-36.5
20
-20.5353747607017
30
0
41
1
10
-36.5
20
-20.6101652553123
30
0
41
1
10
-36.5
20
-20.6796864153796
30
0
41
1
10
-36.5
20
-20.7446292080422
30
0
41
1
10
-36.5
20
-20.7907268231738
30
0
41
1
10
-36.5
20
-20.8342802793506
30
0
41
1
10
-36.5
20
-20.8890285523336
30
0
41
1
10
-36.5
20
-20.9382580424269
30
0
41
1
10
-36.5
20
-20.9824409225429
30
0
41
1
10
-36.5
20
-21.0128017234864
30
0
41
1
10
-36.5
20
-21.0404207944711
30
0
41
1
10
-36.5
20
-21.0652596303332
30
0
41
1
10
-36.5
20
-21.0872797892674
30
0
41
1
10
-36.5
20
-21.1064402531507
30
0
41
1
10
-36.5
20
-21.1226986516191
30
0
41
1
10
-36.5
20
-21.1360112646484
30
0
41
1
10
-36.5
20
-21.1463317710584
30
0
41
1
10
-36.5
20
-21.1536128319466
30
0
41
1
10
-36.5
20
-21.1578041644649
30
0
41
1
10
-36.5
20
-21.1588543296933
30
0
41
1
10
-36.5
20
-21.1573189707697
30
0
41
1
10
-36.5
20
-21.1557860271587
30
0
41
1
10
-36.5
20
-21.1555781567775
30
0
0
SPLINE
5
171
100
AcDbEntity
8
SK1
62
256
6
ByLayer
370
18
48
1
60
0
100
AcDbSpline
70
4
71
3
72
111
73
107
40
0
40
0
40
0
40
0
40
0.0023113641534039
40
0.01085564320696
40
0.019399922260516
40
0.027944201314072
40
0.0364884803676281
40
0.0450327594211841
40
0.0535770384747401
40
0.0621213175282961
40
0.0706655965818522
40
0.0792098756354082
40
0.0877541546889642
40
0.0962984337425203
40
0.113386991849632
40
0.130475549956744
40
0.147564108063856
40
0.156108387117413
40
0.164652666170968
40
0.173196945224525
40
0.181741224278081
40
0.190285503331636
40
0.198829782385193
40
0.207374061438749
40
0.215918340492305
40
0.233006898599417
40
0.241551177652973
40
0.250095456706529
40
0.258639735760085
40
0.267184014813641
40
0.275728293867197
40
0.284272572920753
40
0.292816851974309
40
0.301361131027865
40
0.309905410081421
40
0.318449689134977
40
0.326993968188533
40
0.335538247242089
40
0.352626805349201
40
0.361171084402757
40
0.369715363456313
40
0.386803921563425
40
0.395348200616981
40
0.403892479670537
40
0.412436758724093
40
0.420981037777649
40
0.438069595884761
40
0.446613874938317
40
0.455158153991873
40
0.46370243304543
40
0.472246712098986
40
0.489335270206098
40
0.497879549259654
40
0.50642382831321
40
0.514968107366766
40
0.523512386420322
40
0.540600944527434
40
0.54914522358099
40
0.557689502634546
40
0.566233781688102
40
0.574778060741658
40
0.59186661884877
40
0.600410897902326
40
0.608955176955882
40
0.617499456009438
40
0.626043735062994
40
0.643132293170106
40
0.651676572223662
40
0.660220851277218
40
0.668765130330774
40
0.67730940938433
40
0.685853688437886
40
0.694397967491442
40
0.702942246544998
40
0.711486525598554
40
0.72003080465211
40
0.728575083705666
40
0.737119362759222
40
0.745663641812778
40
0.754207920866334
40
0.762752199919891
40
0.779840758027003
40
0.788385037080559
40
0.796929316134115
40
0.80547359518767
40
0.814017874241227
40
0.822562153294783
40
0.831106432348339
40
0.848194990455451
40
0.856739269509007
40
0.865283548562563
40
0.873827827616119
40
0.882372106669675
40
0.899460664776787
40
0.908004943830343
40
0.916549222883899
40
0.925093501937455
40
0.933637780991011
40
0.942182060044567
40
0.950726339098123
40
0.959270618151679
40
0.967814897205235
40
0.976359176258791
40
0.984903455312347
40
0.993447734365903
40
1
40
1
40
1
40
1
41
1
10
-0.394976888875277
20
-6.32694279392976
30
0
41
1
10
-0.394976888875277
20
-6.3484916311391
30
0
41
1
10
-0.394976888875277
20
-6.44960775400912
30
0
41
1
10
-0.394976888875277
20
-6.62954555948866
30
0
41
1
10
-0.394976888875277
20
-6.8656950488801
30
0
41
1
10
-0.394976888875277
20
-7.10023740586411
30
0
41
1
10
-0.394976888875277
20
-7.33316546385933
30
0
41
1
10
-0.394976888875277
20
-7.56447269448574
30
0
41
1
10
-0.394976888875277
20
-7.79415340272945
30
0
41
1
10
-0.394976888875277
20
-8.02220293401996
30
0
41
1
10
-0.394976888875277
20
-8.24861635560848
30
0
41
1
10
-0.394976888875277
20
-8.47338951886385
30
0
41
1
10
-0.394976888875277
20
-8.69651811258549
30
0
41
1
10
-0.394976888875277
20
-8.99192948127941
30
0
41
1
10
-0.394976888875277
20
-9.35683912175983
30
0
41
1
10
-0.394976888875277
20
-9.78821091217483
30
0
41
1
10
-0.394976888875277
20
-10.142045462177
30
0
41
1
10
-0.394976888875277
20
-10.4219344727077
30
0
41
1
10
-0.394976888875277
20
-10.6301131683678
30
0
41
1
10
-0.394976888875277
20
-10.8366153667066
30
0
41
1
10
-0.394976888875277
20
-11.0414388905992
30
0
41
1
10
-0.394976888875277
20
-11.2445799004538
30
0
41
1
10
-0.394976888875277
20
-11.4460361162834
30
0
41
1
10
-0.394976888875277
20
-11.6458042976885
30
0
41
1
10
-0.394976888875277
20
-11.9099848253352
30
0
41
1
10
-0.394976888875277
20
-12.1705475695385
30
0
41
1
10
-0.394976888875277
20
-12.4279318067111
30
0
41
1
10
-0.394976888875277
20
-12.6192114874981
30
0
41
1
10
-0.394976888875277
20
-12.8087826250924
30
0
41
1
10
-0.394976888875277
20
-12.9966426041155
30
0
41
1
10
-0.394976888875277
20
-13.182787448996
30
0
41
1
10
-0.394976888875277
20
-13.3672125455487
30
0
41
1
10
-0.394976888875277
20
-13.5499151547097
30
0
41
1
10
-0.394976888875277
20
-13.7308904478326
30
0
41
1
10
-0.394976888875277
20
-13.910133867705
30
0
41
1
10
-0.394976888875277
20
-14.0876421688895
30
0
41
1
10
-0.394976888875277
20
-14.2634098807097
30
0
41
1
10
-0.394976888875277
20
-14.4955025482493
30
0
41
1
10
-0.394976888875277
20
-14.7239127068147
30
0
41
1
10
-0.394976888875277
20
-14.9489833053404
30
0
41
1
10
-0.394976888875277
20
-15.171701411915
30
0
41
1
10
-0.394976888875277
20
-15.3907043201103
30
0
41
1
10
-0.394976888875277
20
-15.6063159613101
30
0
41
1
10
-0.394976888875277
20
-15.7661946363952
30
0
41
1
10
-0.394976888875277
20
-15.9242799594928
30
0
41
1
10
-0.394976888875277
20
-16.1327154012234
30
0
41
1
10
-0.394976888875277
20
-16.3373780173449
30
0
41
1
10
-0.394976888875277
20
-16.5385587125243
30
0
41
1
10
-0.394976888875277
20
-16.6875782011067
30
0
41
1
10
-0.394976888875277
20
-16.8347642769002
30
0
41
1
10
-0.394976888875277
20
-17.0286080073569
30
0
41
1
10
-0.394976888875277
20
-17.2186059445175
30
0
41
1
10
-0.394976888875277
20
-17.4050188999402
30
0
41
1
10
-0.394976888875277
20
-17.5429190217058
30
0
41
1
10
-0.394976888875277
20
-17.6789377757623
30
0
41
1
10
-0.394976888875277
20
-17.8578220601067
30
0
41
1
10
-0.394976888875277
20
-18.0327708145484
30
0
41
1
10
-0.394976888875277
20
-18.2040166330947
30
0
41
1
10
-0.394976888875277
20
-18.3304892054167
30
0
41
1
10
-0.394976888875277
20
-18.4550234389153
30
0
41
1
10
-0.394976888875277
20
-18.6185132745736
30
0
41
1
10
-0.394976888875277
20
-18.7779598884918
30
0
41
1
10
-0.394976888875277
20
-18.933565131357
30
0
41
1
10
-0.394976888875277
20
-19.048244884465
30
0
41
1
10
-0.394976888875277
20
-19.1609196079758
30
0
41
1
10
-0.394976888875277
20
-19.3085018143331
30
0
41
1
10
-0.394976888875277
20
-19.4519098709686
30
0
41
1
10
-0.394976888875277
20
-19.5913159811741
30
0
41
1
10
-0.394976888875277
20
-19.6937719762305
30
0
41
1
10
-0.394976888875277
20
-19.7941438028822
30
0
41
1
10
-0.394976888875277
20
-19.8924174211231
30
0
41
1
10
-0.394976888875277
20
-19.988575861591
30
0
41
1
10
-0.394976888875277
20
-20.082604778142
30
0
41
1
10
-0.394976888875277
20
-20.1744885559187
30
0
41
1
10
-0.394976888875277
20
-20.264209431984
30
0
41
1
10
-0.394976888875277
20
-20.3517517880635
30
0
41
1
10
-0.394976888875277
20
-20.437098129367
30
0
41
1
10
-0.394976888875277
20
-20.5202292348052
30
0
41
1
10
-0.394976888875277
20
-20.6011280559991
30
0
41
1
10
-0.394976888875277
20
-20.6797749513881
30
0
41
1
10
-0.394976888875277
20
-20.781635486227
30
0
41
1
10
-0.394976888875277
20
-20.8788308931333
30
0
41
1
10
-0.394976888875277
20
-20.9714365096391
30
0
41
1
10
-0.394976888875277
20
-21.0385142950144
30
0
41
1
10
-0.394976888875277
20
-21.1032108820957
30
0
41
1
10
-0.394976888875277
20
-21.1655031751743
30
0
41
1
10
-0.394976888875277
20
-21.2253665102307
30
0
41
1
10
-0.394976888875277
20
-21.301932078811
30
0
41
1
10
-0.394976888875277
20
-21.3734709318986
30
0
41
1
10
-0.394976888875277
20
-21.4399968999807
30
0
41
1
10
-0.394976888875277
20
-21.4873093096751
30
0
41
1
10
-0.394976888875277
20
-21.5320229383892
30
0
41
1
10
-0.394976888875277
20
-21.5881524005931
30
0
41
1
10
-0.394976888875277
20
-21.6389063892513
30
0
41
1
10
-0.394976888875277
20
-21.6842420425293
30
0
41
1
10
-0.394976888875277
20
-21.7154617242468
30
0
41
1
10
-0.394976888875277
20
-21.7438726893518
30
0
41
1
10
-0.394976888875277
20
-21.7694337460976
30
0
41
1
10
-0.394976888875277
20
-21.7921034780961
30
0
41
1
10
-0.394976888875277
20
-21.8118377637545
30
0
41
1
10
-0.394976888875277
20
-21.8285907189997
30
0
41
1
10
-0.394976888875277
20
-21.8423149132633
30
0
41
1
10
-0.394976888875277
20
-21.8529599173647
30
0
41
1
10
-0.394976888875277
20
-21.8604739519412
30
0
41
1
10
-0.394976888875306
20
-21.864465518893
30
0
41
1
10
-0.394976888875249
20
-21.8653271909501
30
0
41
1
10
-0.394976888875249
20
-21.865378793925
30
0
0
SPLINE
5
172
100
AcDbEntity
8
SK1
62
256
6
ByLayer
370
18
48
1
60
0
100
AcDbSpline
70
4
71
3
72
115
73
111
40
0
40
0
40
0
40
0
40
0.006565219782195
40
0.0151093875070552
40
0.0236535552319154
40
0.0321977229567756
40
0.0407418906816358
40
0.049286058406496
40
0.0578302261313562
40
0.0663743938562164
40
0.0834627293059368
40
0.100551064755657
40
0.117639400205378
40
0.126183567930238
40
0.134727735655098
40
0.143271903379958
40
0.151816071104818
40
0.168904406554539
40
0.177448574279399
40
0.185992742004259
40
0.194536909729119
40
0.20308107745398
40
0.21162524517884
40
0.2201694129037
40
0.23725774835342
40
0.245801916078281
40
0.254346083803141
40
0.262890251528001
40
0.271434419252861
40
0.279978586977721
40
0.288522754702582
40
0.297066922427442
40
0.305611090152302
40
0.314155257877162
40
0.322699425602022
40
0.331243593326883
40
0.339787761051743
40
0.348331928776603
40
0.356876096501463
40
0.373964431951184
40
0.382508599676044
40
0.391052767400904
40
0.395324851263334
40
0.399596935125764
40
0.408141102850624
40
0.425229438300345
40
0.433773606025205
40
0.442317773750065
40
0.450861941474925
40
0.459406109199786
40
0.476494444649506
40
0.485038612374366
40
0.493582780099226
40
0.497854863961657
40
0.502126947824087
40
0.510671115548947
40
0.527759450998667
40
0.536303618723527
40
0.544847786448387
40
0.553391954173248
40
0.561936121898108
40
0.579024457347828
40
0.587568625072689
40
0.596112792797549
40
0.600384876659979
40
0.604656960522409
40
0.613201128247269
40
0.621745295972129
40
0.630289463696989
40
0.63456154755942
40
0.63883363142185
40
0.64737779914671
40
0.65592196687157
40
0.66446613459643
40
0.673010302321291
40
0.681554470046151
40
0.690098637771011
40
0.698642805495871
40
0.707186973220731
40
0.715731140945591
40
0.724275308670452
40
0.732819476395312
40
0.741363644120172
40
0.749907811845032
40
0.758451979569893
40
0.766996147294753
40
0.784084482744473
40
0.792628650469333
40
0.801172818194194
40
0.809716985919054
40
0.818261153643914
40
0.826805321368774
40
0.835349489093634
40
0.843893656818494
40
0.852437824543355
40
0.869526159993075
40
0.886614495442795
40
0.903702830892516
40
0.912246998617376
40
0.920791166342236
40
0.929335334067096
40
0.937879501791957
40
0.946423669516817
40
0.954967837241677
40
0.963512004966537
40
0.972056172691397
40
0.980600340416258
40
0.989144508141118
40
0.997688675865978
40
1
40
1
40
1
40
1
41
1
10
-0.394976888875277
20
21.8653790907266
30
0
41
1
10
-0.394976888875306
20
21.8653285672517
30
0
41
1
10
-0.394976888875306
20
21.8644673822244
30
0
41
1
10
-0.394976888875277
20
21.8604737650697
30
0
41
1
10
-0.394976888875277
20
21.8529598769268
30
0
41
1
10
-0.394976888875277
20
21.8423149188875
30
0
41
1
10
-0.394976888875277
20
21.8285907137819
30
0
41
1
10
-0.394976888875277
20
21.8118377229246
30
0
41
1
10
-0.394976888875277
20
21.7921034347989
30
0
41
1
10
-0.394976888875277
20
21.7618666429643
30
0
41
1
10
-0.394976888875277
20
21.7168668922192
30
0
41
1
10
-0.394976888875277
20
21.651618462036
30
0
41
1
10
-0.394976888875277
20
21.5881524120742
30
0
41
1
10
-0.394976888875277
20
21.5320229149808
30
0
41
1
10
-0.394976888875277
20
21.4873092663299
30
0
41
1
10
-0.394976888875277
20
21.4399968711307
30
0
41
1
10
-0.394976888875277
20
21.3734709387681
30
0
41
1
10
-0.394976888875277
20
21.3019320664004
30
0
41
1
10
-0.394976888875277
20
21.2253664719936
30
0
41
1
10
-0.394976888875277
20
21.1655031445011
30
0
41
1
10
-0.394976888875277
20
21.1032108723211
30
0
41
1
10
-0.394976888875277
20
21.038514297088
30
0
41
1
10
-0.394976888875277
20
20.9714364994015
30
0
41
1
10
-0.394976888875277
20
20.8788308563806
30
0
41
1
10
-0.394976888875277
20
20.7816354627076
30
0
41
1
10
-0.394976888875277
20
20.6797749496461
30
0
41
1
10
-0.394976888875277
20
20.6011280536546
30
0
41
1
10
-0.394976888875277
20
20.5202292190253
30
0
41
1
10
-0.394976888875277
20
20.4370981008412
30
0
41
1
10
-0.394976888875277
20
20.3517517634561
30
0
41
1
10
-0.394976888875277
20
20.2642094206366
30
0
41
1
10
-0.394976888875277
20
20.1744885542463
30
0
41
1
10
-0.394976888875277
20
20.082604770276
30
0
41
1
10
-0.394976888875277
20
19.9885758834751
30
0
41
1
10
-0.394976888875277
20
19.8924175863555
30
0
41
1
10
-0.394976888875277
20
19.79414426657
30
0
41
1
10
-0.394976888875277
20
19.6937723311917
30
0
41
1
10
-0.394976888875277
20
19.5913158900225
30
0
41
1
10
-0.394976888875277
20
19.4519091739392
30
0
41
1
10
-0.394976888875277
20
19.308501644014
30
0
41
1
10
-0.394976888875277
20
19.160920630363
30
0
41
1
10
-0.394976888875277
20
19.0670441229991
30
0
41
1
10
-0.394976888875277
20
18.9909051568102
30
0
41
1
10
-0.394976888875277
20
18.9140993494365
30
0
41
1
10
-0.394976888875277
20
18.777958735224
30
0
41
1
10
-0.394976888875277
20
18.6185131846482
30
0
41
1
10
-0.394976888875277
20
18.4550236113311
30
0
41
1
10
-0.394976888875277
20
18.330489335967
30
0
41
1
10
-0.394976888875277
20
18.2040166079408
30
0
41
1
10
-0.394976888875277
20
18.0327705937831
30
0
41
1
10
-0.394976888875277
20
17.8578219077773
30
0
41
1
10
-0.394976888875277
20
17.6789387292296
30
0
41
1
10
-0.394976888875277
20
17.5656125946474
30
0
41
1
10
-0.394976888875277
20
17.4739690253912
30
0
41
1
10
-0.394976888875277
20
17.3816993239948
30
0
41
1
10
-0.394976888875277
20
17.2186048360495
30
0
41
1
10
-0.394976888875277
20
17.0286078387926
30
0
41
1
10
-0.394976888875277
20
16.8347647509306
30
0
41
1
10
-0.394976888875277
20
16.6875786248762
30
0
41
1
10
-0.394976888875277
20
16.5385587049942
30
0
41
1
10
-0.394976888875277
20
16.3373774066279
30
0
41
1
10
-0.394976888875277
20
16.1327150774874
30
0
41
1
10
-0.394976888875277
20
15.9242804112408
30
0
41
1
10
-0.394976888875277
20
15.7925696820839
30
0
41
1
10
-0.394976888875277
20
15.6862549949744
30
0
41
1
10
-0.394976888875277
20
15.5793432837569
30
0
41
1
10
-0.394976888875277
20
15.4446487492657
30
0
41
1
10
-0.394976888875277
20
15.2812010193763
30
0
41
1
10
-0.394976888875277
20
15.1435436982815
30
0
41
1
10
-0.394976888875277
20
15.0324801920763
30
0
41
1
10
-0.394976888875277
20
14.9208273816877
30
0
41
1
10
-0.394976888875277
20
14.7802248596231
30
0
41
1
10
-0.394976888875277
20
14.6097059483473
30
0
41
1
10
-0.394976888875277
20
14.4374320816019
30
0
41
1
10
-0.394976888875277
20
14.2634095816694
30
0
41
1
10
-0.394976888875277
20
14.0876420714538
30
0
41
1
10
-0.394976888875277
20
13.9101338497815
30
0
41
1
10
-0.394976888875277
20
13.7308904366346
30
0
41
1
10
-0.394976888875277
20
13.549915145406
30
0
41
1
10
-0.394976888875277
20
13.3672125481811
30
0
41
1
10
-0.394976888875277
20
13.182787463215
30
0
41
1
10
-0.394976888875277
20
12.9966426140257
30
0
41
1
10
-0.394976888875277
20
12.8087826212334
30
0
41
1
10
-0.394976888875277
20
12.6192114742801
30
0
41
1
10
-0.394976888875277
20
12.4279318017785
30
0
41
1
10
-0.394976888875277
20
12.1705475891153
30
0
41
1
10
-0.394976888875277
20
11.9099848332047
30
0
41
1
10
-0.394976888875277
20
11.6458042855523
30
0
41
1
10
-0.394976888875277
20
11.4460361066677
30
0
41
1
10
-0.394976888875277
20
11.2445799083311
30
0
41
1
10
-0.394976888875277
20
11.0414389105764
30
0
41
1
10
-0.394976888875277
20
10.8366153761928
30
0
41
1
10
-0.394976888875277
20
10.630113157504
30
0
41
1
10
-0.394976888875277
20
10.4219344610486
30
0
41
1
10
-0.394976888875277
20
10.1420454829465
30
0
41
1
10
-0.394976888875277
20
9.78821091215369
30
0
41
1
10
-0.394976888875277
20
9.3568391135907
30
0
41
1
10
-0.394976888875277
20
8.99192950801697
30
0
41
1
10
-0.394976888875277
20
8.69651812098675
30
0
41
1
10
-0.394976888875277
20
8.47338949471808
30
0
41
1
10
-0.394976888875277
20
8.24861627222975
30
0
41
1
10
-0.394976888875277
20
8.0222029406992
30
0
41
1
10
-0.394976888875277
20
7.79415362199521
30
0
41
1
10
-0.394976888875277
20
7.56447255210352
30
0
41
1
10
-0.394976888875277
20
7.33316516004027
30
0
41
1
10
-0.394976888875277
20
7.10023725398264
30
0
41
1
10
-0.394976888875277
20
6.86569504295815
30
0
41
1
10
-0.394976888875277
20
6.62954558311137
30
0
41
1
10
-0.394976888875277
20
6.44960786563362
30
0
41
1
10
-0.394976888875277
20
6.34849183540922
30
0
41
1
10
-0.394976888875277
20
6.32694309067119
30
0
0
SPLINE
5
173
100
AcDbEntity
8
SK1
62
256
6
ByLayer
370
18
48
1
60
0
100
AcDbSpline
70
4
71
3
72
299
73
295
40
0
40
0
40
0
40
0
40
0.0029474034584343
40
0.0064724753090377
40
0.0099975471596412
40
0.0135226190102447
40
0.0170476908608482
40
0.0205727627114516
40
0.0240978345620551
40
0.0276229064126586
40
0.0346730501138655
40
0.0417231938150724
40
0.0487733375162793
40
0.0522984093668828
40
0.0558234812174863
40
0.0593485530680898
40
0.0628736249186932
40
0.0699237686199002
40
0.0734488404705037
40
0.076973912321107
40
0.0804989841717105
40
0.084024056022314
40
0.0875491278729175
40
0.091074199723521
40
0.0981243434247279
40
0.101649415275331
40
0.105174487125935
40
0.108699558976538
40
0.112224630827142
40
0.115749702677745
40
0.119274774528349
40
0.122799846378952
40
0.126324918229556
40
0.129849990080159
40
0.133375061930763
40
0.136900133781366
40
0.14042520563197
40
0.143950277482573
40
0.147475349333176
40
0.154525493034383
40
0.158050564884987
40
0.16157563673559
40
0.163338172660892
40
0.165100708586194
40
0.168625780436797
40
0.175675924138004
40
0.179200995988608
40
0.182726067839211
40
0.186251139689815
40
0.189776211540418
40
0.196826355241625
40
0.200351427092229
40
0.203876498942832
40
0.205639034868134
40
0.207401570793435
40
0.210926642644039
40
0.217976786345246
40
0.221501858195849
40
0.225026930046453
40
0.228552001897056
40
0.23207707374766
40
0.239127217448867
40
0.24265228929947
40
0.246177361150074
40
0.247939897075375
40
0.249702433000677
40
0.25322750485128
40
0.256752576701884
40
0.260277648552487
40
0.262040184477789
40
0.263802720403091
40
0.267327792253694
40
0.270852864104298
40
0.274377935954901
40
0.277903007805505
40
0.281428079656108
40
0.284953151506712
40
0.288478223357315
40
0.292003295207919
40
0.295528367058522
40
0.299053438909126
40
0.302578510759729
40
0.306103582610332
40
0.309628654460936
40
0.313153726311539
40
0.316678798162143
40
0.32372894186335
40
0.327254013713953
40
0.330779085564557
40
0.33430415741516
40
0.337829229265764
40
0.341354301116367
40
0.344879372966971
40
0.348404444817574
40
0.351929516668178
40
0.358979660369385
40
0.366029804070591
40
0.373079947771798
40
0.376605019622402
40
0.380130091473005
40
0.383655163323609
40
0.387180235174212
40
0.390705307024816
40
0.394230378875419
40
0.397755450726023
40
0.401280522576626
40
0.40480559442723
40
0.408330666277833
40
0.411855738128437
40
0.41538080997904
40
0.418905881829644
40
0.422430953680247
40
0.42595602553085
40
0.429481097381454
40
0.433006169232057
40
0.434768705157359
40
0.436531241082661
40
0.438293777007963
40
0.440056312933264
40
0.443581384783868
40
0.447106456634471
40
0.448868992559773
40
0.450631528485075
40
0.452394064410376
40
0.454156600335678
40
0.457681672186282
40
0.459444208111583
40
0.461206744036885
40
0.462969279962187
40
0.464731815887489
40
0.46649435181279
40
0.468256887738092
40
0.470019423663394
40
0.471781959588696
40
0.473544495513997
40
0.475307031439299
40
0.477069567364601
40
0.478832103289902
40
0.480594639215204
40
0.482357175140506
40
0.484119711065808
40
0.485882246991109
40
0.487644782916411
40
0.489407318841713
40
0.491169854767015
40
0.492932390692316
40
0.494694926617618
40
0.49645746254292
40
0.498219998468222
40
0.499982534393523
40
0.501745070318825
40
0.503507606244127
40
0.505270142169428
40
0.50703267809473
40
0.508795214020032
40
0.510557749945334
40
0.512320285870635
40
0.514082821795937
40
0.515845357721239
40
0.517607893646541
40
0.519370429571842
40
0.521132965497144
40
0.522895501422446
40
0.524658037347748
40
0.526420573273049
40
0.528183109198351
40
0.529945645123653
40
0.531708181048955
40
0.533470716974256
40
0.535233252899558
40
0.53699578882486
40
0.538758324750161
40
0.540520860675463
40
0.542283396600765
40
0.545808468451368
40
0.54757100437667
40
0.549333540301972
40
0.551096076227274
40
0.552858612152575
40
0.556383684003179
40
0.559908755853782
40
0.561671291779084
40
0.563433827704386
40
0.565196363629688
40
0.566958899554989
40
0.570483971405593
40
0.574009043256196
40
0.5775341151068
40
0.581059186957403
40
0.584584258808007
40
0.58810933065861
40
0.591634402509213
40
0.595159474359817
40
0.59868454621042
40
0.602209618061024
40
0.605734689911627
40
0.609259761762231
40
0.612784833612834
40
0.616309905463438
40
0.619834977314041
40
0.623360049164645
40
0.626885121015248
40
0.633935264716455
40
0.640985408417662
40
0.648035552118869
40
0.651560623969472
40
0.655085695820076
40
0.658610767670679
40
0.662135839521283
40
0.665660911371886
40
0.66918598322249
40
0.672711055073093
40
0.676236126923697
40
0.683286270624904
40
0.686811342475507
40
0.69033641432611
40
0.693861486176714
40
0.697386558027317
40
0.700911629877921
40
0.704436701728524
40
0.707961773579128
40
0.711486845429731
40
0.715011917280335
40
0.718536989130938
40
0.722062060981542
40
0.725587132832145
40
0.732637276533352
40
0.736162348383955
40
0.739687420234559
40
0.746737563935766
40
0.75026263578637
40
0.753787707636973
40
0.757312779487577
40
0.76083785133818
40
0.767887995039387
40
0.77141306688999
40
0.774938138740594
40
0.778463210591197
40
0.781988282441801
40
0.789038426143008
40
0.792563497993611
40
0.796088569844215
40
0.799613641694818
40
0.803138713545422
40
0.810188857246629
40
0.813713929097232
40
0.817239000947836
40
0.820764072798439
40
0.824289144649042
40
0.831339288350249
40
0.834864360200853
40
0.838389432051456
40
0.84191450390206
40
0.845439575752663
40
0.85248971945387
40
0.856014791304474
40
0.859539863155077
40
0.863064935005681
40
0.866590006856284
40
0.870115078706887
40
0.873640150557491
40
0.877165222408094
40
0.880690294258698
40
0.884215366109301
40
0.887740437959905
40
0.891265509810508
40
0.894790581661112
40
0.898315653511715
40
0.901840725362319
40
0.908890869063526
40
0.912415940914129
40
0.915941012764733
40
0.919466084615336
40
0.92299115646594
40
0.926516228316543
40
0.930041300167146
40
0.937091443868353
40
0.940616515718957
40
0.94414158756956
40
0.947666659420164
40
0.951191731270767
40
0.958241874971974
40
0.961766946822578
40
0.965292018673181
40
0.968817090523785
40
0.972342162374388
40
0.975867234224991
40
0.979392306075595
40
0.982917377926198
40
0.986442449776802
40
0.989967521627405
40
0.993492593478009
40
0.997017665328612
40
1
40
1
40
1
40
1
41
1
10
-38
20
20.2923486492672
30
0
41
1
10
-38
20
20.2923549785979
30
0
41
1
10
-38
20
20.2915868602548
30
0
41
1
10
-38
20
20.2877827415225
30
0
41
1
10
-38
20
20.2807871950942
30
0
41
1
10
-38
20
20.270864225278
30
0
41
1
10
-38
20
20.2580557575388
30
0
41
1
10
-38
20
20.2424031034125
30
0
41
1
10
-38
20
20.2239454925533
30
0
41
1
10
-38
20
20.19551262204
30
0
41
1
10
-38
20
20.153458157969
30
0
41
1
10
-38
20
20.0921783324266
30
0
41
1
10
-38
20
20.0326760120608
30
0
41
1
10
-38
20
19.9796195423852
30
0
41
1
10
-38
20
19.9374871337363
30
0
41
1
10
-38
20
19.8928775037255
30
0
41
1
10
-38
20
19.8298739849263
30
0
41
1
10
-38
20
19.7628242930464
30
0
41
1
10
-38
20
19.6902080345968
30
0
41
1
10
-38
20
19.6336084813315
30
0
41
1
10
-38
20
19.5746836513967
30
0
41
1
10
-38
20
19.5134574775013
30
0
41
1
10
-38
20
19.4499498796239
30
0
41
1
10
-38
20
19.361926580552
30
0
41
1
10
-38
20
19.2704514952516
30
0
41
1
10
-38
20
19.1735363516591
30
0
41
1
10
-38
20
19.0989364266239
30
0
41
1
10
-38
20
19.0221745884206
30
0
41
1
10
-38
20
18.9432715601189
30
0
41
1
10
-38
20
18.8622425921488
30
0
41
1
10
-38
20
18.7791047356355
30
0
41
1
10
-38
20
18.6938772447032
30
0
41
1
10
-38
20
18.6065734364562
30
0
41
1
10
-38
20
18.5172096781029
30
0
41
1
10
-38
20
18.4258037757915
30
0
41
1
10
-38
20
18.3323676597213
30
0
41
1
10
-38
20
18.236917040573
30
0
41
1
10
-38
20
18.1394682315479
30
0
41
1
10
-38
20
18.006423045464
30
0
41
1
10
-38
20
17.870842154793
30
0
41
1
10
-38
20
17.7299440627733
30
0
41
1
10
-38
20
17.6408187485726
30
0
41
1
10
-38
20
17.5681131617785
30
0
41
1
10
-38
20
17.4947669133713
30
0
41
1
10
-38
20
17.3649201654158
30
0
41
1
10
-38
20
17.2140632768009
30
0
41
1
10
-38
20
17.0578935907134
30
0
41
1
10
-38
20
16.9392992293059
30
0
41
1
10
-38
20
16.8188549914818
30
0
41
1
10
-38
20
16.6552510003021
30
0
41
1
10
-38
20
16.489672496603
30
0
41
1
10
-38
20
16.3187666825072
30
0
41
1
10
-38
20
16.2111031772939
30
0
41
1
10
-38
20
16.1235473577608
30
0
41
1
10
-38
20
16.0353949417433
30
0
41
1
10
-38
20
15.8797855584285
30
0
41
1
10
-38
20
15.6999813794666
30
0
41
1
10
-38
20
15.5148116907138
30
0
41
1
10
-38
20
15.3746600384839
30
0
41
1
10
-38
20
15.2327750536327
30
0
41
1
10
-38
20
15.0406360987563
30
0
41
1
10
-38
20
14.8470518249568
30
0
41
1
10
-38
20
14.6480433816337
30
0
41
1
10
-38
20
14.5230237603812
30
0
41
1
10
-38
20
14.4215395322791
30
0
41
1
10
-38
20
14.319494446119
30
0
41
1
10
-38
20
14.1916826014269
30
0
41
1
10
-38
20
14.0362107113462
30
0
41
1
10
-38
20
13.905633632864
30
0
41
1
10
-38
20
13.7996824703933
30
0
41
1
10
-38
20
13.6931799140641
30
0
41
1
10
-38
20
13.5598675642285
30
0
41
1
10
-38
20
13.3977994204325
30
0
41
1
10
-38
20
13.2340971553998
30
0
41
1
10
-38
20
13.0687736820565
30
0
41
1
10
-38
20
12.9018380893652
30
0
41
1
10
-38
20
12.7332922951509
30
0
41
1
10
-38
20
12.5631480531082
30
0
41
1
10
-38
20
12.3914123687224
30
0
41
1
10
-38
20
12.2180896154105
30
0
41
1
10
-38
20
12.0431930727568
30
0
41
1
10
-38
20
11.8667275879997
30
0
41
1
10
-38
20
11.6886992220563
30
0
41
1
10
-38
20
11.5091211559413
30
0
41
1
10
-38
20
11.3279971676986
30
0
41
1
10
-38
20
11.0835274575533
30
0
41
1
10
-38
20
10.8388445996823
30
0
41
1
10
-38
20
10.5882272221232
30
0
41
1
10
-38
20
10.3995106478125
30
0
41
1
10
-38
20
10.2093006505112
30
0
41
1
10
-38
20
10.0176111741013
30
0
41
1
10
-38
20
9.82444825814403
30
0
41
1
10
-38
20
9.62982433363783
30
0
41
1
10
-38
20
9.43375032895256
30
0
41
1
10
-38
20
9.16930024978845
30
0
41
1
10
-38
20
8.83774034996796
30
0
41
1
10
-38
20
8.43283016067576
30
0
41
1
10
-38
20
8.09202302704495
30
0
41
1
10
-38
20
7.81440668711983
30
0
41
1
10
-38
20
7.60585888080689
30
0
41
1
10
-38
20
7.39600299493051
30
0
41
1
10
-38
20
7.18486050853949
30
0
41
1
10
-38
20
6.972454820743
30
0
41
1
10
-38
20
6.75880464755275
30
0
41
1
10
-38
20
6.54393387937549
30
0
41
1
10
-38
20
6.32787102064523
30
0
41
1
10
-38
20
6.11064460524281
30
0
41
1
10
-38
20
5.89228682406826
30
0
41
1
10
-38
20
5.67283049766701
30
0
41
1
10
-38
20
5.45231041402207
30
0
41
1
10
-38
20
5.2307661198837
30
0
41
1
10
-38
20
5.00824236668089
30
0
41
1
10
-38
20
4.78478453894908
30
0
41
1
10
-38
20
4.56044477194351
30
0
41
1
10
-38
20
4.3737593142329
30
0
41
1
10
-38
20
4.22222174308931
30
0
41
1
10
-38
20
4.10916467830541
30
0
41
1
10
-38
20
3.99593123757288
30
0
41
1
10
-38
20
3.84368490764803
30
0
41
1
10
-38
20
3.65544484289478
30
0
41
1
10
-38
20
3.46668355973628
30
0
41
1
10
-38
20
3.31336520651504
30
0
41
1
10
-38
20
3.19916977025284
30
0
41
1
10
-38
20
3.0848771849204
30
0
41
1
10
-38
20
2.93116533478539
30
0
41
1
10
-38
20
2.7810630459212
30
0
41
1
10
-38
20
2.62697343511894
30
0
41
1
10
-38
20
2.51237687493429
30
0
41
1
10
-38
20
2.39774974487253
30
0
41
1
10
-38
20
2.28311555219403
30
0
41
1
10
-38
20
2.16847618976473
30
0
41
1
10
-38
20
2.05384840107453
30
0
41
1
10
-38
20
1.93924458170406
30
0
41
1
10
-38
20
1.82466899171223
30
0
41
1
10
-38
20
1.71014121398446
30
0
41
1
10
-38
20
1.59566009898879
30
0
41
1
10
-38
20
1.48124309885608
30
0
41
1
10
-38
20
1.36688883878045
30
0
41
1
10
-38
20
1.25260906632701
30
0
41
1
10
-38
20
1.13840321986405
30
0
41
1
10
-38
20
1.02427614220741
30
0
41
1
10
-38
20
0.910225811803912
30
0
41
1
10
-38
20
0.796251800903974
30
0
41
1
10
-38
20
0.682349388495624
30
0
41
1
10
-38
20
0.568513483413511
30
0
41
1
10
-38
20
0.454735475948979
30
0
41
1
10
-38
20
0.341006791030111
30
0
41
1
10
-38
20
0.227315919379521
30
0
41
1
10
-38
20
0.113651444289076
30
0
41
1
10
-38
20
2.39307099E-08
30
0
41
1
10
-38
20
-0.113651428861147
30
0
41
1
10
-38
20
-0.227315965161807
30
0
41
1
10
-38
20
-0.341006831114754
30
0
41
1
10
-38
20
-0.454735424962735
30
0
41
1
10
-38
20
-0.568513412391525
30
0
41
1
10
-38
20
-0.682349437337052
30
0
41
1
10
-38
20
-0.796251898049235
30
0
41
1
10
-38
20
-0.910225765592202
30
0
41
1
10
-38
20
-1.02427601417025
30
0
41
1
10
-38
20
-1.13840324907633
30
0
41
1
10
-38
20
-1.25260921865757
30
0
41
1
10
-38
20
-1.36688883944314
30
0
41
1
10
-38
20
-1.48124293103632
30
0
41
1
10
-38
20
-1.59566004663384
30
0
41
1
10
-38
20
-1.71014137238996
30
0
41
1
10
-38
20
-1.82466911261432
30
0
41
1
10
-38
20
-1.93924446866484
30
0
41
1
10
-38
20
-2.05384821372689
30
0
41
1
10
-38
20
-2.16847621903287
30
0
41
1
10
-38
20
-2.28311576323418
30
0
41
1
10
-38
20
-2.39774983280105
30
0
41
1
10
-38
20
-2.51237672316307
30
0
41
1
10
-38
20
-2.62697323991799
30
0
41
1
10
-38
20
-2.78106315146928
30
0
41
1
10
-38
20
-2.93116552693385
30
0
41
1
10
-38
20
-3.08487708212581
30
0
41
1
10
-38
20
-3.19916954549007
30
0
41
1
10
-38
20
-3.31336512600546
30
0
41
1
10
-38
20
-3.46668375918677
30
0
41
1
10
-38
20
-3.65544489425085
30
0
41
1
10
-38
20
-3.84368470208372
30
0
41
1
10
-38
20
-3.99593117493791
30
0
41
1
10
-38
20
-4.10916481607396
30
0
41
1
10
-38
20
-4.22222196867938
30
0
41
1
10
-38
20
-4.37375933349006
30
0
41
1
10
-38
20
-4.56044458630845
30
0
41
1
10
-38
20
-4.78478457648492
30
0
41
1
10
-38
20
-5.00824253816086
30
0
41
1
10
-38
20
-5.23076600439052
30
0
41
1
10
-38
20
-5.45231022599046
30
0
41
1
10
-38
20
-5.67283041504652
30
0
41
1
10
-38
20
-5.89228674128222
30
0
41
1
10
-38
20
-6.11064496108523
30
0
41
1
10
-38
20
-6.32787239667013
30
0
41
1
10
-38
20
-6.54393525610644
30
0
41
1
10
-38
20
-6.75880334040127
30
0
41
1
10
-38
20
-6.97245311766207
30
0
41
1
10
-38
20
-7.18486111103374
30
0
41
1
10
-38
20
-7.39600347561742
30
0
41
1
10
-38
20
-7.60585874971361
30
0
41
1
10
-38
20
-7.8144064520111
30
0
41
1
10
-38
20
-8.09202295752311
30
0
41
1
10
-38
20
-8.43283023540656
30
0
41
1
10
-38
20
-8.83774029355055
30
0
41
1
10
-38
20
-9.16930023887323
30
0
41
1
10
-38
20
-9.43375044009511
30
0
41
1
10
-38
20
-9.62982432960192
30
0
41
1
10
-38
20
-9.82444814962994
30
0
41
1
10
-38
20
-10.0176111126089
30
0
41
1
10
-38
20
-10.2093007057547
30
0
41
1
10
-38
20
-10.3995107409486
30
0
41
1
10
-38
20
-10.5882272324294
30
0
41
1
10
-38
20
-10.8388445170812
30
0
41
1
10
-38
20
-11.0835274377931
30
0
41
1
10
-38
20
-11.327997250045
30
0
41
1
10
-38
20
-11.5091211965041
30
0
41
1
10
-38
20
-11.6886991809046
30
0
41
1
10
-38
20
-11.8667275177687
30
0
41
1
10
-38
20
-12.0431930522803
30
0
41
1
10
-38
20
-12.2180896645831
30
0
41
1
10
-38
20
-12.3914124247035
30
0
41
1
10
-38
20
-12.5631480735019
30
0
41
1
10
-38
20
-12.7332924196477
30
0
41
1
10
-38
20
-12.9018387248249
30
0
41
1
10
-38
20
-13.068774902876
30
0
41
1
10
-38
20
-13.2899980003418
30
0
41
1
10
-38
20
-13.5056406071554
30
0
41
1
10
-38
20
-13.7202970548285
30
0
41
1
10
-38
20
-13.9327572918622
30
0
41
1
10
-38
20
-14.1397069500695
30
0
41
1
10
-38
20
-14.3454836148157
30
0
41
1
10
-38
20
-14.4976048095277
30
0
41
1
10
-38
20
-14.6480433741443
30
0
41
1
10
-38
20
-14.8470538575164
30
0
41
1
10
-38
20
-15.0406366439893
30
0
41
1
10
-38
20
-15.2327734637881
30
0
41
1
10
-38
20
-15.3746583733236
30
0
41
1
10
-38
20
-15.5148115582755
30
0
41
1
10
-38
20
-15.6999837411247
30
0
41
1
10
-38
20
-15.8797870255403
30
0
41
1
10
-38
20
-16.0578801048401
30
0
41
1
10
-38
20
-16.189216581434
30
0
41
1
10
-38
20
-16.3187661779867
30
0
41
1
10
-38
20
-16.4896741385663
30
0
41
1
10
-38
20
-16.6552512602625
30
0
41
1
10
-38
20
-16.8188545807649
30
0
41
1
10
-38
20
-16.9392987318018
30
0
41
1
10
-38
20
-17.0578934672827
30
0
41
1
10
-38
20
-17.2140648101705
30
0
41
1
10
-38
20
-17.3649216616153
30
0
41
1
10
-38
20
-17.513530035822
30
0
41
1
10
-38
20
-17.6226956365842
30
0
41
1
10
-38
20
-17.7299433731025
30
0
41
1
10
-38
20
-17.8708440004863
30
0
41
1
10
-38
20
-18.0064238716364
30
0
41
1
10
-38
20
-18.1394672902698
30
0
41
1
10
-38
20
-18.236915915677
30
0
41
1
10
-38
20
-18.3323672965474
30
0
41
1
10
-38
20
-18.4258040962282
30
0
41
1
10
-38
20
-18.517209887002
30
0
41
1
10
-38
20
-18.6065734896479
30
0
41
1
10
-38
20
-18.6938772522127
30
0
41
1
10
-38
20
-18.7791047692188
30
0
41
1
10
-38
20
-18.8622426359768
30
0
41
1
10
-38
20
-18.9432715834756
30
0
41
1
10
-38
20
-19.0221745805325
30
0
41
1
10
-38
20
-19.0989364136873
30
0
41
1
10
-38
20
-19.1735363647814
30
0
41
1
10
-38
20
-19.2704515417461
30
0
41
1
10
-38
20
-19.3619266112172
30
0
41
1
10
-38
20
-19.4499498647732
30
0
41
1
10
-38
20
-19.5134574724377
30
0
41
1
10
-38
20
-19.5746836830748
30
0
41
1
10
-38
20
-19.6336085328262
30
0
41
1
10
-38
20
-19.6902080668946
30
0
41
1
10
-38
20
-19.7628242842049
30
0
41
1
10
-38
20
-19.829873984374
30
0
41
1
10
-38
20
-19.8928775551026
30
0
41
1
10
-38
20
-19.9374871757691
30
0
41
1
10
-38
20
-19.9796195436673
30
0
41
1
10
-38
20
-20.0326760063813
30
0
41
1
10
-38
20
-20.0800381474625
30
0
41
1
10
-38
20
-20.1228090027496
30
0
41
1
10
-38
20
-20.1521177658612
30
0
41
1
10
-38
20
-20.1787668505585
30
0
41
1
10
-38
20
-20.2027210424566
30
0
41
1
10
-38
20
-20.2239455432986
30
0
41
1
10
-38
20
-20.2424031363825
30
0
41
1
10
-38
20
-20.2580557552655
30
0
41
1
10
-38
20
-20.2708642249464
30
0
41
1
10
-38
20
-20.2807872561095
30
0
41
1
10
-38
20
-20.2877829489451
30
0
41
1
10
-38
20
-20.291600476756
30
0
41
1
10
-38
20
-20.2923633062593
30
0
41
1
10
-38
20
-20.2923482516634
30
0
0
SPLINE
5
174
100
AcDbEntity
8
1
62
256
6
ByLayer
370
18
48
1
60
0
100
AcDbSpline
70
4
71
3
72
10
73
6
40
0
40
0
40
0
40
0
40
0.332145909676188
40
0.332145909676188
40
1
40
1
40
1
40
1
41
1
10
50.5310059965258
20
-1.35233836707354
30
0
41
1
10
50.5383921487227
20
-1.35883875331112
30
0
41
1
10
50.5460906152491
20
-1.36507170327576
30
0
41
1
10
50.5699380168729
20
-1.38277636202133
30
0
41
1
10
50.5871256855131
20
-1.3934197555443
30
0
41
1
10
50.6052226472078
20
-1.40257969645103
30
0
0
SPLINE
5
175
100
AcDbEntity
8
1
62
256
6
ByLayer
370
18
48
1
60
0
100
AcDbSpline
70
4
71
2
72
6
73
3
40
0
40
0
40
0
40
1
40
1
40
1
41
1
10
19.5827905960223
20
-2.56574333350076
30
0
41
1
10
19.8655443795723
20
-2.81932609802888
30
0
41
1
10
20.1929303341653
20
-2.87867071023467
30
0
0
SPLINE
5
176
100
AcDbEntity
8
1
62
256
6
ByLayer
370
18
48
1
60
0
100
AcDbSpline
70
4
71
3
72
8
73
4
40
0
40
0
40
0
40
0
40
1
40
1
40
1
40
1
41
1
10
24.7348258629864
20
-31.6466129526811
30
0
41
1
10
24.7933273785838
20
-31.6471711115813
30
0
41
1
10
24.8518695552025
20
-31.3406640596316
30
0
41
1
10
24.9089886362582
20
-30.7244582074321
30
0
0
SPLINE
5
177
100
AcDbEntity
8
1
62
256
6
ByLayer
370
18
48
1
60
0
100
AcDbSpline
70
4
71
3
72
8
73
4
40
0
40
0
40
0
40
0
40
1
40
1
40
1
40
1
41
1
10
24.9089886361935
20
30.7244582074321
30
0
41
1
10
24.8517897799017
20
31.3415246821346
30
0
41
1
10
24.7932092162157
20
31.6484820367859
30
0
41
1
10
24.7346680506058
20
31.6475290058289
30
0
0
SPLINE
5
178
100
AcDbEntity
8
1
62
256
6
ByLayer
370
18
48
1
60
0
100
AcDbSpline
70
4
71
3
72
8
73
4
40
0
40
0
40
0
40
0
40
1
40
1
40
1
40
1
41
1
10
22.9613055955403
20
31.6488023448962
30
0
41
1
10
22.9614229102448
20
31.6483955935688
30
0
41
1
10
22.9741427464639
20
31.3364465167911
30
0
41
1
10
22.9991199873213
20
30.7098596756338
30
0
0
SPLINE
5
179
100
AcDbEntity
8
1
62
256
6
ByLayer
370
18
48
1
60
0
100
AcDbSpline
70
4
71
3
72
8
73
4
40
0
40
0
40
0
40
0
40
1
40
1
40
1
40
1
41
1
10
22.9991199873213
20
-30.7098596756338
30
0
41
1
10
22.9741836144999
20
-31.3354212885145
30
0
41
1
10
22.9615435608136
20
-31.6483246249385
30
0
41
1
10
22.9614643324434
20
-31.6485486088081
30
0
0
SPLINE
5
17A
100
AcDbEntity
8
1
62
256
6
ByLayer
370
18
48
1
60
0
100
AcDbSpline
70
4
71
3
72
8
73
4
40
0
40
0
40
0
40
0
40
1
40
1
40
1
40
1
41
1
10
48.1858914883912
20
-4.02260056193933
30
0
41
1
10
48.2194655912655
20
-4.02097315835738
30
0
41
1
10
48.2530395030589
20
-4.01934569366881
30
0
41
1
10
48.2866132230159
20
-4.0177181676321
30
0
0
SPLINE
5
17B
100
AcDbEntity
8
1
62
256
6
ByLayer
370
18
48
1
60
0
100
AcDbSpline
70
4
71
3
72
10
73
6
40
0
40
0
40
0
40
0
40
0.443943525113234
40
0.443943525113234
40
1
40
1
40
1
40
1
41
1
10
53.3393586023365
20
0.770560499079068
30
0
41
1
10
53.3410581783404
20
0.762320227227804
30
0
41
1
10
53.3321875069082
20
0.761983172122171
30
0
41
1
10
53.2905898693903
20
0.776469506663886
30
0
41
1
10
53.2520815071846
20
0.795086253725827
30
0
41
1
10
53.2023407032045
20
0.82168145786892
30
0
0
SPLINE
5
17C
100
AcDbEntity
8
1
62
256
6
ByLayer
370
18
48
1
60
0
100
AcDbSpline
70
4
71
3
72
8
73
4
40
0
40
0
40
0
40
0
40
1
40
1
40
1
40
1
41
1.03548960590947
10
52.2734109031961
20
2.04437085008796
30
0
41
1.03477250223163
10
51.5856283787322
20
2.72891424846105
30
0
41
1.03398726483063
10
50.8733196337029
20
3.35189560614949
30
0
41
1.03311206534555
10
50.0899024004754
20
3.92515286001818
30
0
0
SPLINE
5
17D
100
AcDbEntity
8
1
62
256
6
ByLayer
370
18
48
1
60
0
100
AcDbSpline
70
4
71
3
72
12
73
8
40
0
40
0
40
0
40
0
40
0.401843340305649
40
0.401843340305649
40
0.816060128109933
40
0.816060128109933
40
1
40
1
40
1
40
1
41
1
10
31.3726179117601
20
6.07661230575519
30
0
41
1
10
31.2472582257723
20
6.00865288883404
30
0
41
1
10
31.1048136168071
20
5.95068402439378
30
0
41
1
10
30.8050058742452
20
5.86117965254172
30
0
41
1
10
30.6441029526321
20
5.82926701266169
30
0
41
1
10
30.4133696654181
20
5.80114166359169
30
0
41
1
10
30.3418785233595
20
5.79482944597339
30
0
41
1
10
30.270797438815
20
5.79065717539723
30
0
0
SPLINE
5
17E
100
AcDbEntity
8
1
62
256
6
ByLayer
370
18
48
1
60
0
100
AcDbSpline
70
4
71
3
72
10
73
6
40
0
40
0
40
0
40
0
40
0.5
40
0.5
40
1
40
1
40
1
40
1
41
1
10
26.5928035688622
20
-3.6912957309996
30
0
41
1
10
26.2813035226511
20
-3.44772446736076
30
0
41
1
10
26.2224002117052
20
-3.17535641571055
30
0
41
1
10
26.0619959172577
20
-2.37651833181138
30
0
41
1
10
25.9662006670295
20
-1.75914448566545
30
0
41
1
10
26.011844065937
20
-1.00866201084437
30
0
0
SPLINE
5
17F
100
AcDbEntity
8
1
62
256
6
ByLayer
370
18
48
1
60
0
100
AcDbSpline
70
4
71
3
72
10
73
6
40
0
40
0
40
0
40
0
40
0.999906028841219
40
0.999906028841219
40
1
40
1
40
1
40
1
41
1
10
52.6086689638378
20
1.69422318815069
30
0
41
1
10
52.497719369117
20
1.8092495989481
30
0
41
1
10
52.3858361538902
20
1.92626833226035
30
0
41
1
10
52.2734287583573
20
2.04435191271153
30
0
41
1
10
52.2734181952955
20
2.04436300918206
30
0
41
1
10
52.2734076322368
20
2.04437410564196
30
0
0
SPLINE
5
180
100
AcDbEntity
8
1
62
256
6
ByLayer
370
18
48
1
60
0
100
AcDbSpline
70
4
71
3
72
8
73
4
40
0
40
0
40
0
40
0
40
1
40
1
40
1
40
1
41
1
10
36.76553154971
20
6.32176414382388
30
0
41
1
10
36.739994891171
20
7.27918597576988
30
0
41
1
10
36.6039375646198
20
8.01767901769796
30
0
41
1
10
36.3872374451541
20
8.37507190091779
30
0
0
SPLINE
5
181
100
AcDbEntity
8
1
62
256
6
ByLayer
370
18
48
1
60
0
100
AcDbSpline
70
4
71
3
72
8
73
4
40
0
40
0
40
0
40
0
40
1
40
1
40
1
40
1
41
1
10
36.7655315491798
20
6.32176416370382
30
0
41
1
10
36.512491832135
20
6.40550988418696
30
0
41
1
10
36.2520662372143
20
6.46676039364212
30
0
41
1
10
35.9939885075733
20
6.5017771176764
30
0
0
SPLINE
5
182
100
AcDbEntity
8
1
62
256
6
ByLayer
370
18
48
1
60
0
100
AcDbSpline
70
4
71
3
72
8
73
4
40
0
40
0
40
0
40
0
40
1
40
1
40
1
40
1
41
1.03311206816126
10
49.1504514505847
20
-3.4291610618077
30
0
41
1.03398726653663
10
50.0511359988937
20
-3.08440791362105
30
0
41
1.03477250303978
10
50.8956224560947
20
-2.67265745953183
30
0
41
1.03548960596306
10
51.7318785596347
20
-2.19490059499242
30
0
0
SPLINE
5
183
100
AcDbEntity
8
1
62
256
6
ByLayer
370
18
48
1
60
0
100
AcDbSpline
70
4
71
2
72
6
73
3
40
0
40
0
40
0
40
1
40
1
40
1
41
0.933477290296916
10
35.7336679316402
20
-1.75596111741214
30
0
41
0.923463989330483
10
35.3117945248506
20
-3.25113882754207
30
0
41
1.02994816993494
10
34.8307871456427
20
-3.80926885593625
30
0
0
SPLINE
5
184
100
AcDbEntity
8
1
62
256
6
ByLayer
370
18
48
1
60
0
100
AcDbSpline
70
4
71
3
72
12
73
8
40
0
40
0
40
0
40
0
40
0.264973649150345
40
0.52994729830069
40
0.662434122875862
40
0.794920947451034
40
1
40
1
40
1
40
1
41
1.02994816993494
10
34.8307871456427
20
-3.80926885593625
30
0
41
1.03004363841634
10
35.87990768935
20
-3.93022625418842
30
0
41
1.03021336426305
10
39.7340985153811
20
-4.36473099228299
30
0
41
1.0311558410484
10
45.5677460571621
20
-3.6561763239685
30
0
41
1.03077804826571
10
47.807256738125
20
-3.12000363806724
30
0
41
1.03340133735626
10
50.2566109321155
20
-2.49412283883089
30
0
41
1.03493149686168
10
51.7668585900762
20
-1.8966157773803
30
0
41
1.03576782913892
10
52.6574503469103
20
-1.48143818592182
30
0
0
SPLINE
5
185
100
AcDbEntity
8
1
62
256
6
ByLayer
370
18
48
1
60
0
100
AcDbSpline
70
4
71
3
72
10
73
6
40
0
40
0
40
0
40
0
40
0.5
40
0.5
40
1
40
1
40
1
40
1
41
1
10
27.1677108971114
20
8.03979610246017
30
0
41
1
10
27.310614694244
20
8.76689465969213
30
0
41
1
10
27.5524712372139
20
9.30398137569316
30
0
41
1
10
27.9007655727706
20
9.96324358880554
30
0
41
1
10
28.0179498782179
20
10.1655774246753
30
0
41
1
10
28.3779401481601
20
10.2832670202282
30
0
0
SPLINE
5
186
100
AcDbEntity
8
1
62
256
6
ByLayer
370
18
48
1
60
0
100
AcDbSpline
70
4
71
3
72
10
73
6
40
0
40
0
40
0
40
0
40
0.5
40
0.5
40
1
40
1
40
1
40
1
41
1
10
35.7124009170602
20
9.48804670255737
30
0
41
1
10
37.6677289707869
20
9.20636676322513
30
0
41
1
10
39.6102695833463
20
8.87590106856911
30
0
41
1
10
43.3436291796968
20
7.6361318835209
30
0
41
1
10
45.1876711251205
20
6.85217275841973
30
0
41
1
10
46.9084485511001
20
5.8541281531781
30
0
0
SPLINE
5
187
100
AcDbEntity
8
1
62
256
6
ByLayer
370
18
48
1
60
0
100
AcDbSpline
70
4
71
3
72
28
73
24
40
0
40
0
40
0
40
0
40
0.0002961516837183
40
0.0002961516837183
40
0.0005569094112255
40
0.0005569094112255
40
0.0008621321650584
40
0.0008621321650584
40
0.0052375575513423
40
0.0052375575513423
40
0.0234742370157959
40
0.0234742370157959
40
0.097161866499796
40
0.097161866499796
40
0.25093232719824
40
0.25093232719824
40
0.469025233730366
40
0.469025233730366
40
0.708581875861804
40
0.708581875861804
40
0.999960209932562
40
0.999960209932562
40
1
40
1
40
1
40
1
41
1
10
52.694196229879
20
0.463656685336218
30
0
41
1
10
52.6942893293257
20
0.463601676152024
30
0
41
1
10
52.6943860056808
20
0.463554541901118
30
0
41
1
10
52.6945740928271
20
0.463505560467212
30
0
41
1
10
52.694666606535
20
0.463500224739676
30
0
41
1
10
52.6948622116822
20
0.463543470741001
30
0
41
1
10
52.6949661816619
20
0.463601408969453
30
0
41
1
10
52.6963908959017
20
0.464702377440915
30
0
41
1
10
52.6972815183196
20
0.466653531926312
30
0
41
1
10
52.7026499670738
20
0.474852630526272
30
0
41
1
10
52.7069020141489
20
0.481514509638259
30
0
41
1
10
52.728228464571
20
0.514915520412586
30
0
41
1
10
52.7447745612989
20
0.541488231294977
30
0
41
1
10
52.7940481788834
20
0.622367469606928
30
0
41
1
10
52.8250059150014
20
0.675741647605406
30
0
41
1
10
52.8932572309072
20
0.799002569171563
30
0
41
1
10
52.9282433906429
20
0.867172442891274
30
0
41
1
10
52.9876978741998
20
0.996283804546977
30
0
41
1
10
53.0113227479644
20
1.05680425069437
30
0
41
1
10
53.0386971629672
20
1.16925321056581
30
0
41
1
10
53.0374654622926
20
1.21862651541315
30
0
41
1
10
53.0091973706559
20
1.25111754386666
30
0
41
1
10
53.0091908054311
20
1.25112508825677
30
0
41
1
10
53.0091842394602
20
1.25113263199776
30
0
0
SPLINE
5
188
100
AcDbEntity
8
1
62
256
6
ByLayer
370
18
48
1
60
0
100
AcDbSpline
70
4
71
3
72
8
73
4
40
0
40
0
40
0
40
0
40
1
40
1
40
1
40
1
41
1
10
30.5900421360469
20
-0.0496160244109092
30
0
41
1
10
29.455199463692
20
-1.27232082339958
30
0
41
1
10
28.2827482075391
20
-2.3497302298685
30
0
41
1
10
27.4357449376008
20
-2.80588839152688
30
0
0
SPLINE
5
189
100
AcDbEntity
8
1
62
256
6
ByLayer
370
18
48
1
60
0
100
AcDbSpline
70
4
71
3
72
8
73
4
40
0
40
0
40
0
40
0
40
1
40
1
40
1
40
1
41
1
10
35.733667931271
20
-1.75596111872088
30
0
41
1
10
35.4679582555743
20
-1.77139947988712
30
0
41
1
10
35.2008794834539
20
-1.76223195576162
30
0
41
1
10
34.942801753813
20
-1.72721523172734
30
0
0
SPLINE
5
18A
100
AcDbEntity
8
1
62
256
6
ByLayer
370
18
48
1
60
0
100
AcDbSpline
70
4
71
3
72
28
73
24
40
0
40
0
40
0
40
0
40
4.20487346493E-05
40
4.20487346493E-05
40
0.291419858702298
40
0.291419858702298
40
0.530976069930351
40
0.530976069930351
40
0.749068584166982
40
0.749068584166982
40
0.902838768278995
40
0.902838768278995
40
0.976526265230684
40
0.976526265230684
40
0.994762911886546
40
0.994762911886546
40
0.99913832941456
40
0.99913832941456
40
0.99945664438216
40
0.99945664438216
40
0.999704151355524
40
0.999704151355524
40
1
40
1
40
1
40
1
41
1
10
52.6602909395858
20
-1.48011512670206
30
0
41
1
10
52.6602984132554
20
-1.48010848108211
30
0
41
1
10
52.660305886378
20
-1.4801018348472
30
0
41
1
10
52.6968808980188
20
-1.44756744455734
30
0
41
1
10
52.7115518696353
20
-1.39173426975063
30
0
41
1
10
52.7150986179916
20
-1.26212346639542
30
0
41
1
10
52.7082055899588
20
-1.19166221016832
30
0
41
1
10
52.6844216689692
20
-1.04153414513161
30
0
41
1
10
52.6682625812091
20
-0.962320282618833
30
0
41
1
10
52.6340369394575
20
-0.81921843724615
30
0
41
1
10
52.6178095588008
20
-0.757279154558205
30
0
41
1
10
52.5908702405197
20
-0.663319072013195
30
0
41
1
10
52.5816639649403
20
-0.632433551153184
30
0
41
1
10
52.5695695303958
20
-0.593563685448402
30
0
41
1
10
52.5671580111782
20
-0.585817382968457
30
0
41
1
10
52.5640593478644
20
-0.576247947976043
30
0
41
1
10
52.5636931774085
20
-0.574093541699824
30
0
41
1
10
52.5625985828088
20
-0.572582234005523
30
0
41
1
10
52.5625090197532
20
-0.572490681481838
30
0
41
1
10
52.5623306443585
20
-0.572392115473718
30
0
41
1
10
52.5622449912124
20
-0.572370178444942
30
0
41
1
10
52.5620566199624
20
-0.572357988966814
30
0
41
1
10
52.5619520532732
20
-0.572372650885484
30
0
41
1
10
52.5618489475179
20
-0.572395998653633
30
0
0
SPLINE
5
18B
100
AcDbEntity
8
1
62
256
6
ByLayer
370
18
48
1
60
0
100
AcDbSpline
70
4
71
3
72
19
73
15
40
0
40
0
40
0
40
0
40
0.24905337116666
40
0.24905337116666
40
0.24905337116666
40
0.403599292981679
40
0.403599292981679
40
0.403599292981679
40
0.717848378774915
40
0.717848378774915
40
0.717848378774915
40
0.85741678070374
40
0.85741678070374
40
1
40
1
40
1
40
1
41
1
10
39.3545353118542
20
0.4461304348537
30
0
41
1
10
39.1904338454459
20
0.122271819728951
30
0
41
1
10
38.9688951119029
20
-0.179981637868224
30
0
41
1
10
38.7129450387584
20
-0.44104515142925
30
0
41
1
10
38.5527600968868
20
-0.604430311788093
30
0
41
1
10
38.377482879382
20
-0.754141014794499
30
0
41
1
10
38.1921902066248
20
-0.888286601614226
30
0
41
1
10
37.8185834101148
20
-1.15876520290965
30
0
41
1
10
37.3974006450414
20
-1.37075575936922
30
0
41
1
10
36.9600201638583
20
-1.51739640523445
30
0
41
1
10
36.7640330445762
20
-1.58310504791331
30
0
41
1
10
36.5632516918174
20
-1.63631171699021
30
0
41
1
10
36.1534298210003
20
-1.71688031605035
30
0
41
1
10
35.9430204531662
20
-1.74388894037821
30
0
41
1
10
35.733667931271
20
-1.75596111872088
30
0
0
SPLINE
5
18C
100
AcDbEntity
8
1
62
256
6
ByLayer
370
18
48
1
60
0
100
AcDbSpline
70
4
71
3
72
8
73
4
40
0
40
0
40
0
40
0
40
1
40
1
40
1
40
1
41
1
10
45.5987448941737
20
-4.39860889309821
30
0
41
1
10
46.876899047174
20
-4.06113750374808
30
0
41
1
10
48.0656527618264
20
-3.75770668848037
30
0
41
1
10
49.150426147819
20
-3.42917074687051
30
0
0
SPLINE
5
18D
100
AcDbEntity
8
1
62
256
6
ByLayer
370
18
48
1
60
0
100
AcDbSpline
70
4
71
3
72
24
73
20
40
0
40
0
40
0
40
0
40
0.0001109191202364
40
0.0001109191202364
40
0.0009920216778074
40
0.0009920216778074
40
0.0066328226134846
40
0.0066328226134846
40
0.0295221595717805
40
0.0295221595717805
40
0.12131228984554
40
0.12131228984554
40
0.308399631015004
40
0.308399631015004
40
0.557773367664623
40
0.557773367664623
40
0.796812833993168
40
0.796812833993168
40
1
40
1
40
1
40
1
41
1
10
52.5620955731188
20
-0.571986070735107
30
0
41
1
10
52.5621234336366
20
-0.571993661911307
30
0
41
1
10
52.5621511660395
20
-0.572001998297196
30
0
41
1
10
52.5623931540097
20
-0.572082753218979
30
0
41
1
10
52.5625972915773
20
-0.572222520193947
30
0
41
1
10
52.5638687229294
20
-0.573607366456741
30
0
41
1
10
52.5645765721963
20
-0.575398952503662
30
0
41
1
10
52.5688185756619
20
-0.583332455147826
30
0
41
1
10
52.5721677889823
20
-0.589716471098797
30
0
41
1
10
52.5889407473366
20
-0.621463576121727
30
0
41
1
10
52.6021510828377
20
-0.646408442299446
30
0
41
1
10
52.6416285546353
20
-0.720322606851028
30
0
41
1
10
52.6673317506188
20
-0.767621243678491
30
0
41
1
10
52.7256127824317
20
-0.869964210715523
30
0
41
1
10
52.7579233845028
20
-0.92291335771543
30
0
41
1
10
52.8200113430454
20
-1.00954188998568
30
0
41
1
10
52.8501734480873
20
-1.0445192766912
30
0
41
1
10
52.9066962772637
20
-1.08785447289981
30
0
41
1
10
52.9331298157608
20
-1.10056301366896
30
0
41
1
10
52.9619408915888
20
-1.09803954718223
30
0
0
SPLINE
5
18E
100
AcDbEntity
8
1
62
256
6
ByLayer
370
18
48
1
60
0
100
AcDbSpline
70
4
71
3
72
28
73
24
40
0
40
0
40
0
40
0
40
4.58207680505E-05
40
4.58207680505E-05
40
0.0262692706625093
40
0.0262692706625093
40
0.213495002074615
40
0.213495002074615
40
0.356578191350426
40
0.356578191350426
40
0.396506692896388
40
0.396506692896388
40
0.500669174647838
40
0.500669174647838
40
0.650604339303036
40
0.650604339303036
40
0.802246387468529
40
0.802246387468529
40
0.967086003134485
40
0.967086003134485
40
0.999954179231946
40
0.999954179231946
40
1
40
1
40
1
40
1
41
1
10
52.5618339991782
20
-0.572146734508721
30
0
41
1
10
52.5618470959442
20
-0.572138695315914
30
0
41
1
10
52.5618601922785
20
-0.572130655578633
30
0
41
1
10
52.5693683574827
20
-0.567521038877288
30
0
41
1
10
52.5768074592838
20
-0.562708181035163
30
0
41
1
10
52.6361691322641
20
-0.522254169759549
30
0
41
1
10
52.6857028549149
20
-0.475456714187402
30
0
41
1
10
52.7601740705903
20
-0.374800286241168
30
0
41
1
10
52.7888087119116
20
-0.324109775286956
30
0
41
1
10
52.8171117067213
20
-0.253546189441295
30
0
41
1
10
52.8228565885319
20
-0.237607071036535
30
0
41
1
10
52.8415148529448
20
-0.179329200914737
30
0
41
1
10
52.8513950168349
20
-0.134742305187132
30
0
41
1
10
52.8650748845121
20
-0.025855638513633
30
0
41
1
10
52.8645212765256
20
0.0405110163910933
30
0
41
1
10
52.8474875764021
20
0.165580171538039
30
0
41
1
10
52.8307124179149
20
0.226057642691529
30
0
41
1
10
52.7838235643042
20
0.339019506418282
30
0
41
1
10
52.7521751097062
20
0.391905993374905
30
0
41
1
10
52.7091204921826
20
0.446091007512905
30
0
41
1
10
52.7017192800118
20
0.454884787136223
30
0
41
1
10
52.6941406096489
20
0.463398510189563
30
0
41
1
10
52.6941300548543
20
0.46341036635539
30
0
41
1
10
52.6941194995041
20
0.463422222097506
30
0
0
SPLINE
5
18F
100
AcDbEntity
8
1
62
256
6
ByLayer
370
18
48
1
60
0
100
AcDbSpline
70
4
71
3
72
8
73
4
40
0
40
0
40
0
40
0
40
1
40
1
40
1
40
1
41
1
10
53.0043808468835
20
1.25537396655466
30
0
41
1
10
53.1191517499914
20
1.14634221179466
30
0
41
1
10
53.1902711082502
20
0.990533183274579
30
0
41
1
10
53.2023407032045
20
0.82168145786892
30
0
0
SPLINE
5
190
100
AcDbEntity
8
1
62
256
6
ByLayer
370
18
48
1
60
0
100
AcDbSpline
70
4
71
3
72
8
73
4
40
0
40
0
40
0
40
0
40
1
40
1
40
1
40
1
41
1
10
50.0898829146465
20
3.92516711854586
30
0
41
1
10
49.1284251929712
20
4.56198167678605
30
0
41
1
10
48.0583011254914
20
5.18721787101819
30
0
41
1
10
46.9084485511
20
5.85412815317812
30
0
0
SPLINE
5
191
100
AcDbEntity
8
1
62
256
6
ByLayer
370
18
48
1
60
0
100
AcDbSpline
70
4
71
3
72
10
73
6
40
0
40
0
40
0
40
0
40
0.493880230204843
40
0.493880230204843
40
1
40
1
40
1
40
1
41
1
10
53.065194345899
20
1.22224320945938
30
0
41
1
10
53.0057552394676
20
1.28307021026308
30
0
41
1
10
52.9417179877443
20
1.3489053222103
30
0
41
1
10
52.7953127155035
20
1.5003296163749
30
0
41
1
10
52.7124605304155
20
1.58661782551263
30
0
41
1
10
52.6086689638378
20
1.69422318815066
30
0
0
SPLINE
5
192
100
AcDbEntity
8
1
62
256
6
ByLayer
370
18
48
1
60
0
100
AcDbSpline
70
4
71
3
72
8
73
4
40
0
40
0
40
0
40
0
40
1
40
1
40
1
40
1
41
1
10
28.9921952371124
20
9.37845236532715
30
0
41
1
10
29.7064124156867
20
8.81372895298333
30
0
41
1
10
30.5811079704802
20
7.52618174633477
30
0
41
1
10
31.3726179117601
20
6.07661230575519
30
0
0
SPLINE
5
193
100
AcDbEntity
8
1
62
256
6
ByLayer
370
18
48
1
60
0
100
AcDbSpline
70
4
71
3
72
12
73
8
40
0
40
0
40
0
40
0
40
0.477932094760446
40
0.477932094760446
40
0.904102435462303
40
0.904102435462303
40
1
40
1
40
1
40
1
41
1
10
29.5963931995266
20
0.511226754788709
30
0
41
1
10
29.7711856133314
20
0.456598078242166
30
0
41
1
10
29.9465645637043
20
0.385510660381414
30
0
41
1
10
30.2547438343731
20
0.21924393041391
30
0
41
1
10
30.3931093135841
20
0.125453453961626
30
0
41
1
10
30.5387695651877
20
-0.0011055916701252
30
0
41
1
10
30.5649252307869
20
-0.0251555129404153
30
0
41
1
10
30.5900421360455
20
-0.0496160244123587
30
0
0
SPLINE
5
194
100
AcDbEntity
8
1
62
256
6
ByLayer
370
18
48
1
60
0
100
AcDbSpline
70
4
71
3
72
8
73
4
40
0
40
0
40
0
40
0
40
1
40
1
40
1
40
1
41
1
10
27.1112114550768
20
7.70758385081368
30
0
41
1
10
27.1274327886938
20
7.81936276045585
30
0
41
1
10
27.1463482484553
20
7.93110234254686
30
0
41
1
10
27.1677108971111
20
8.03979610246023
30
0
0
SPLINE
5
195
100
AcDbEntity
8
1
62
256
6
ByLayer
370
18
48
1
60
0
100
AcDbSpline
70
4
71
3
72
10
73
6
40
0
40
0
40
0
40
0
40
0.580414582153066
40
0.580414582153066
40
1
40
1
40
1
40
1
41
1
10
30.2707974388152
20
5.79065717539723
30
0
41
1
10
30.1312577410297
20
5.78246656633419
30
0
41
1
10
29.9918452741989
20
5.78223691896909
30
0
41
1
10
29.7544115978095
20
5.79364850713617
30
0
41
1
10
29.6551801941816
20
5.802076782792
30
0
41
1
10
29.557295990134
20
5.81363752253
30
0
0
SPLINE
5
196
100
AcDbEntity
8
1
62
256
6
ByLayer
370
18
48
1
60
0
100
AcDbSpline
70
4
71
3
72
8
73
4
40
0
40
0
40
0
40
0
40
1
40
1
40
1
40
1
41
1
10
30.2707974388159
20
5.79065717538782
30
0
41
1
10
29.1099478147018
20
6.62029754770433
30
0
41
1
10
27.9732458028451
20
7.3391932530443
30
0
41
1
10
27.1112114550768
20
7.70758385081373
30
0
0
SPLINE
5
197
100
AcDbEntity
8
1
62
256
6
ByLayer
370
18
48
1
60
0
100
AcDbSpline
70
4
71
3
72
12
73
8
40
0
40
0
40
0
40
0
40
0.264973649149777
40
0.529947298299554
40
0.662434122874442
40
0.794920947449331
40
1
40
1
40
1
40
1
41
1.02994816993494
10
36.3872374451542
20
8.37507190091777
30
0
41
1.03004363841634
10
37.4312951763111
20
8.21448134960618
30
0
41
1.03021336426305
10
41.2664942283064
20
7.63130354038187
30
0
41
1.0311558410484
10
46.720325189486
20
5.36654473669914
30
0
41
1.03077804826571
10
48.7442401413341
20
4.21497202542108
30
0
41
1.03340133735628
10
50.9496063804279
20
2.93084491446375
30
0
41
1.0349314968617
10
52.2541421660733
20
1.91798025365883
30
0
41
1.03576782913895
10
53.0067846481351
20
1.25325123223539
30
0
0
SPLINE
5
198
100
AcDbEntity
8
1
62
256
6
ByLayer
370
18
48
1
60
0
100
AcDbSpline
70
4
71
3
72
13
73
9
40
0
40
0
40
0
40
0
40
0.476351510225593
40
0.476351510225593
40
0.476351510225593
40
0.687543277835217
40
0.687543277835217
40
1
40
1
40
1
40
1
41
1
10
31.5858285521229
20
6.20787666747697
30
0
41
1
10
31.9100712259413
20
6.43345300763033
30
0
41
1
10
32.2718377642548
20
6.60231822325193
30
0
41
1
10
32.6571654417807
20
6.70072906808912
30
0
41
1
10
32.8297995866901
20
6.74481900255051
30
0
41
1
10
33.0085637413765
20
6.77532010908413
30
0
41
1
10
33.4594072615999
20
6.81522438374179
30
0
41
1
10
33.7391865240648
20
6.80771509581311
30
0
41
1
10
34.0179737446834
20
6.76988844884801
30
0
0
SPLINE
5
199
100
AcDbEntity
8
1
62
256
6
ByLayer
370
18
48
1
60
0
100
AcDbSpline
70
4
71
3
72
14
73
10
40
0
40
0
40
0
40
0
40
7.77085242593E-05
40
7.77085242593E-05
40
0.352643155046203
40
0.352643155046203
40
0.705732119373796
40
0.705732119373796
40
1
40
1
40
1
40
1
41
1
10
53.0043807470223
20
1.25537404851877
30
0
41
1
10
53.0043884775929
20
1.2553677035776
30
0
41
1
10
53.0043962081288
20
1.25536135859412
30
0
41
1
10
53.0391740829977
20
1.22681698598473
30
0
41
1
10
53.0676761814103
20
1.20359836800551
30
0
41
1
10
53.1039359052859
20
1.17551149505701
30
0
41
1
10
53.1119329528853
20
1.17048217901419
30
0
41
1
10
53.10214612271
20
1.18380535509809
30
0
41
1
10
53.0881933985071
20
1.19870713236358
30
0
41
1
10
53.065194345899
20
1.22224320945938
30
0
0
SPLINE
5
19A
100
AcDbEntity
8
1
62
256
6
ByLayer
370
18
48
1
60
0
100
AcDbSpline
70
4
71
1
72
4
73
2
40
0
40
0
40
1
40
1
41
1
10
36.3872374451541
20
8.37507190091782
30
0
41
1
10
35.7124009170602
20
9.48804670255737
30
0
0
SPLINE
5
19B
100
AcDbEntity
8
1
62
256
6
ByLayer
370
18
48
1
60
0
100
AcDbSpline
70
4
71
3
72
13
73
9
40
0
40
0
40
0
40
0
40
0.219070772970692
40
0.219070772970692
40
0.219070772970692
40
0.652376048528386
40
0.652376048528386
40
1
40
1
40
1
40
1
41
1
10
32.966786990923
20
-1.45910390055573
30
0
41
1
10
32.7705246430617
20
-1.43247446421134
30
0
41
1
10
32.5778565493669
20
-1.39073012298542
30
0
41
1
10
32.3932015074547
20
-1.33453484609288
30
0
41
1
10
32.0316014188771
20
-1.22449064209198
30
0
41
1
10
31.6947287006526
20
-1.0559048274468
30
0
41
1
10
31.1640669772775
20
-0.669929955911186
30
0
41
1
10
30.950161570686
20
-0.465717806443763
30
0
41
1
10
30.7625214442826
20
-0.237208249538526
30
0
0
SPLINE
5
19C
100
AcDbEntity
8
1
62
256
6
ByLayer
370
18
48
1
60
0
100
AcDbSpline
70
4
71
3
72
10
73
6
40
0
40
0
40
0
40
0
40
0.794724528922948
40
0.794724528922948
40
1
40
1
40
1
40
1
41
1
10
52.1476380607839
20
-1.91485936559707
30
0
41
1
10
52.3491648253938
20
-1.77985939792822
30
0
41
1
10
52.4922582629341
20
-1.67598504724177
30
0
41
1
10
52.6529984672902
20
-1.55868190788621
30
0
41
1
10
52.6849469762329
20
-1.53520995522175
30
0
41
1
10
52.7158706048006
20
-1.51236354109642
30
0
0
SPLINE
5
19D
100
AcDbEntity
8
1
62
256
6
ByLayer
370
18
48
1
60
0
100
AcDbSpline
70
4
71
3
72
8
73
4
40
0
40
0
40
0
40
0
40
1
40
1
40
1
40
1
41
1
10
26.0438978076611
20
-0.645929602600035
30
0
41
1
10
26.0428163334829
20
-0.654395693622092
30
0
41
1
10
26.0418074277798
20
-0.66286900495939
30
0
41
1
10
26.0408715417175
20
-0.671344942556345
30
0
0
SPLINE
5
19E
100
AcDbEntity
8
1
62
256
6
ByLayer
370
18
48
1
60
0
100
AcDbSpline
70
4
71
3
72
10
73
6
40
0
40
0
40
0
40
0
40
0.5
40
0.5
40
1
40
1
40
1
40
1
41
1
10
45.5987448941736
20
-4.39860889309827
30
0
41
1
10
43.693767283569
20
-4.90158065078694
30
0
41
1
10
41.7286185938358
20
-5.16701099968796
30
0
41
1
10
37.7942470101173
20
-5.37140366521234
30
0
41
1
10
35.826360663453
20
-5.17113437250384
30
0
41
1
10
33.871603684394
20
-4.92224365757752
30
0
0
SPLINE
5
19F
100
AcDbEntity
8
1
62
256
6
ByLayer
370
18
48
1
60
0
100
AcDbSpline
70
4
71
3
72
12
73
8
40
0
40
0
40
0
40
0
40
0.107029883295001
40
0.44370617727831
40
0.612044324269964
40
0.780382471261618
40
1
40
1
40
1
40
1
41
1.03017844307583
10
39.3545353121556
20
0.446130434811495
30
0
41
1.03022736562783
10
39.9506486378719
20
0.362694479069934
30
0
41
1.03047050908112
10
42.5766126663034
20
0.0084277194796907
30
0
41
1.0311558410484
10
46.5425356042162
20
-0.383720279619626
30
0
41
1.03077804826571
10
48.6331831397184
20
-0.484270133011658
30
0
41
1.03322144498364
10
50.6531777200928
20
-0.591912263305591
30
0
41
1.03463604371943
10
51.8872814545418
20
-0.593084070204344
30
0
41
1.0353664121206
10
52.5618340104845
20
-0.572146734157795
30
0
0
SPLINE
5
1A0
100
AcDbEntity
8
1
62
256
6
ByLayer
370
18
48
1
60
0
100
AcDbSpline
70
4
71
2
72
6
73
3
40
0
40
0
40
0
40
1
40
1
40
1
41
1.02994816993494
10
34.8307871456427
20
-3.80926885593625
30
0
41
1.02994816993494
10
34.3511954150183
20
-4.36575625675689
30
0
41
1.02994816993494
10
33.871603684394
20
-4.92224365757755
30
0
0
SPLINE
5
1A1
100
AcDbEntity
8
1
62
256
6
ByLayer
370
18
48
1
60
0
100
AcDbSpline
70
4
71
3
72
8
73
4
40
0
40
0
40
0
40
0
40
1
40
1
40
1
40
1
41
1
10
27.1077494620692
20
7.68220723294115
30
0
41
1
10
27.1088309362474
20
7.69067332396318
30
0
41
1
10
27.1099851738385
20
7.69913372069951
30
0
41
1
10
27.1112114550764
20
7.70758385081382
30
0
0
SPLINE
5
1A2
100
AcDbEntity
8
1
62
256
6
ByLayer
370
18
48
1
60
0
100
AcDbSpline
70
4
71
3
72
10
73
6
40
0
40
0
40
0
40
0
40
0.580414582160066
40
0.580414582160066
40
1
40
1
40
1
40
1
41
1
10
29.5963931995336
20
0.511226754780353
30
0
41
1
10
29.463216690898
20
0.552849021190866
30
0
41
1
10
29.3281178114824
20
0.586387377222707
30
0
41
1
10
29.0949841006708
20
0.631460333123044
30
0
41
1
10
28.9966053605004
20
0.646563503647485
30
0
41
1
10
28.8987211564528
20
0.658124243385487
30
0
0
SPLINE
5
1A3
100
AcDbEntity
8
1
62
256
6
ByLayer
370
18
48
1
60
0
100
AcDbSpline
70
4
71
3
72
14
73
10
40
0
40
0
40
0
40
0
40
0.256006012600458
40
0.256006012600458
40
0.256006012600458
40
0.737523565432091
40
0.737523565432091
40
0.737523565432091
40
1
40
1
40
1
40
1
41
1
10
39.7167446376995
20
3.28160925024014
30
0
41
1
10
39.7694207035736
20
3.03803013073693
30
0
41
1
10
39.8007952953579
20
2.78848455158482
30
0
41
1
10
39.810237812979
20
2.53904128739842
30
0
41
1
10
39.8278177578804
20
2.07463136873309
30
0
41
1
10
39.7683163459772
20
1.60060066037156
30
0
41
1
10
39.6366691123356
20
1.15620379296541
30
0
41
1
10
39.5641868701189
20
0.91152807519552
30
0
41
1
10
39.4693817148371
20
0.672800215999217
30
0
41
1
10
39.3545353118542
20
0.4461304348537
30
0
0
SPLINE
5
1A4
100
AcDbEntity
8
1
62
256
6
ByLayer
370
18
48
1
60
0
100
AcDbSpline
70
4
71
3
72
24
73
20
40
0
40
0
40
0
40
0
40
0.193947210779298
40
0.193947210779298
40
0.435758612862253
40
0.435758612862253
40
0.688024122938485
40
0.688024122938485
40
0.877280955594795
40
0.877280955594795
40
0.970135497295804
40
0.970135497295804
40
0.993290262270223
40
0.993290262270223
40
0.998996474733181
40
0.998996474733181
40
0.999887794663914
40
0.999887794663914
40
1
40
1
40
1
40
1
41
1
10
53.2023676343213
20
0.821471425893066
30
0
41
1
10
53.1770169873328
20
0.832853382765563
30
0
41
1
10
53.1502986726787
20
0.831454946939573
30
0
41
1
10
53.0874908121157
20
0.813269328268689
30
0
41
1
10
53.0501121314118
20
0.79175328438626
30
0
41
1
10
52.9693959583543
20
0.732554793847669
30
0
41
1
10
52.9253638971943
20
0.693744986680571
30
0
41
1
10
52.8441037735934
20
0.616201011804975
30
0
41
1
10
52.8076858712734
20
0.579621844656089
30
0
41
1
10
52.7513737976706
20
0.521749902705778
30
0
41
1
10
52.7324678378959
20
0.502107783339994
30
0
41
1
10
52.7084326585269
20
0.47700413279486
30
0
41
1
10
52.7036215495344
20
0.471944008832139
30
0
41
1
10
52.6975653448409
20
0.465675422212882
30
0
41
1
10
52.6964376545771
20
0.464180372191748
30
0
41
1
10
52.6948709304708
20
0.463253581799222
30
0
41
1
10
52.694640052189
20
0.463184014726949
30
0
41
1
10
52.6943876241057
20
0.463183041372588
30
0
41
1
10
52.6943589251137
20
0.463183810972197
30
0
41
1
10
52.6943302897216
20
0.463185336174348
30
0
0
SPLINE
5
1A5
100
AcDbEntity
8
1
62
256
6
ByLayer
370
18
48
1
60
0
100
AcDbSpline
70
4
71
3
72
8
73
4
40
0
40
0
40
0
40
0
40
1
40
1
40
1
40
1
41
1
10
52.6602942324908
20
-1.48011219863639
30
0
41
1
10
52.7985831077623
20
-1.39782914761361
30
0
41
1
10
52.9068028868575
20
-1.26075546656466
30
0
41
1
10
52.9619408915888
20
-1.0980395471822
30
0
0
SPLINE
5
1A6
100
AcDbEntity
8
1
62
256
6
ByLayer
370
18
48
1
60
0
100
AcDbSpline
70
4
71
3
72
15
73
11
40
0
40
0
40
0
40
0
40
0.284308369869423
40
0.284308369869423
40
0.604552312734219
40
0.604552312734219
40
0.883194505470758
40
0.883194505470758
40
0.883194505470758
40
1
40
1
40
1
40
1
41
1
10
36.7655315491798
20
6.32176416370379
30
0
41
1
10
37.1608786618926
20
6.19142803708337
30
0
41
1
10
37.5464232847833
20
6.0057556593074
30
0
41
1
10
38.2908484145098
20
5.52130878090833
30
0
41
1
10
38.6516773664432
20
5.20429468251103
30
0
41
1
10
39.2067855883543
20
4.5238348567913
30
0
41
1
10
39.4221384552619
20
4.16320783516693
30
0
41
1
10
39.5681232008975
20
3.78059731088447
30
0
41
1
10
39.6300200314303
20
3.61837228745131
30
0
41
1
10
39.6801013299054
20
3.45102466877091
30
0
41
1
10
39.7167446376995
20
3.28160925024014
30
0
0
SPLINE
5
1A7
100
AcDbEntity
8
1
62
256
6
ByLayer
370
18
48
1
60
0
100
AcDbSpline
70
4
71
3
72
12
73
8
40
0
40
0
40
0
40
0
40
0.107029684965503
40
0.443706054186007
40
0.612044238796259
40
0.780382423406511
40
1
40
1
40
1
40
1
41
1.03017844338059
10
39.7167483550821
20
3.28160875716254
30
0
41
1.0302273658714
10
40.313409129222
20
3.20246702341555
30
0
41
1.03047050932998
10
42.9378596544516
20
2.8363616548189
30
0
41
1.0311558410484
10
46.8595487307763
20
2.09794968409155
30
0
41
1.03077804826571
10
48.8965884986354
20
1.57774280197715
30
0
41
1.03322144497827
10
50.8664573679545
20
1.07770221852658
30
0
41
1.03463604371051
10
52.0520552058761
20
0.696812323795232
30
0
41
1.0353664121084
10
52.6941194995042
20
0.463422222097474
30
0
0
SPLINE
5
1A8
100
AcDbEntity
8
1
62
256
6
ByLayer
370
18
48
1
60
0
100
AcDbSpline
70
4
71
3
72
8
73
4
40
0
40
0
40
0
40
0
40
1
40
1
40
1
40
1
41
1
10
26.0408715417175
20
-0.671344942556374
30
0
41
1
10
26.9728711893937
20
-0.463557773539975
30
0
41
1
10
28.2664378677096
20
-0.0111185912694509
30
0
41
1
10
29.5963931995284
20
0.511226754794166
30
0
0
SPLINE
5
1A9
100
AcDbEntity
8
1
62
256
6
ByLayer
370
18
48
1
60
0
100
AcDbSpline
70
4
71
3
72
14
73
10
40
0
40
0
40
0
40
0
40
0.33204380555436
40
0.33204380555436
40
0.667540490321286
40
0.667540490321286
40
0.99992178336789
40
0.99992178336789
40
1
40
1
40
1
40
1
41
1
10
52.7158706048006
20
-1.51236354109639
30
0
41
1
10
52.7481496448305
20
-1.4885157473461
30
0
41
1
10
52.7666117691987
20
-1.47180458441201
30
0
41
1
10
52.7750261184667
20
-1.45368211802062
30
0
41
1
10
52.7650493527779
20
-1.45199300082754
30
0
41
1
10
52.7238680639992
20
-1.46001768459158
30
0
41
1
10
52.6925776121966
20
-1.46963215155026
30
0
41
1
10
52.6546240442366
20
-1.48275770440449
30
0
41
1
10
52.6546145925388
20
-1.48276097325885
30
0
41
1
10
52.6546051408063
20
-1.4827642420131
30
0
0
SPLINE
5
1AA
100
AcDbEntity
8
1
62
256
6
ByLayer
370
18
48
1
60
0
100
AcDbSpline
70
4
71
3
72
10
73
6
40
0
40
0
40
0
40
0
40
9.39711588055E-05
40
9.39711588055E-05
40
1
40
1
40
1
40
1
41
1
10
51.7318745201948
20
-2.194902902742
30
0
41
1
10
51.7318876338859
20
-2.19489403209383
30
0
41
1
10
51.7319007475876
20
-2.19488516144474
30
0
41
1
10
51.8714508641402
20
-2.10048771205186
30
0
41
1
10
52.0102370311402
20
-2.00690239817135
30
0
41
1
10
52.1476380607839
20
-1.91485936559707
30
0
0
SPLINE
5
1AB
100
AcDbEntity
8
1
62
256
6
ByLayer
370
18
48
1
60
0
100
AcDbSpline
70
4
71
3
72
8
73
4
40
0
40
0
40
0
40
0
40
1
40
1
40
1
40
1
41
1
10
30.5900421360454
20
-0.0496160244123018
30
0
41
1
10
30.6512919336212
20
-0.109265147615645
30
0
41
1
10
30.7089863825268
20
-0.172012848772169
30
0
41
1
10
30.7625214442826
20
-0.237208249538554
30
0
0
SPLINE
5
1AC
100
AcDbEntity
8
1
62
256
6
ByLayer
370
18
48
1
60
0
100
AcDbSpline
70
4
71
3
72
8
73
4
40
0
40
0
40
0
40
0
40
1
40
1
40
1
40
1
41
1
10
26.011844065937
20
-1.00866201084437
30
0
41
1
10
26.0186398767185
20
-0.896923248704553
30
0
41
1
10
26.0284915757086
20
-0.783465235375417
30
0
41
1
10
26.0408715417175
20
-0.671344942556374
30
0
0
SPLINE
5
1AD
100
AcDbEntity
8
1
62
256
6
ByLayer
370
18
48
1
60
0
100
AcDbSpline
70
4
71
3
72
8
73
4
40
0
40
0
40
0
40
0
40
1
40
1
40
1
40
1
41
1
10
31.5858285521229
20
6.207876667477
30
0
41
1
10
31.5179312565706
20
6.16064036987115
30
0
41
1
10
31.4466115174803
20
6.11672537927652
30
0
41
1
10
31.3726179117602
20
6.07661230575519
30
0
0
SPLINE
5
1AE
100
AcDbEntity
8
1
62
256
6
ByLayer
370
18
48
1
60
0
100
AcDbSpline
70
4
71
3
72
10
73
6
40
0
40
0
40
0
40
0
40
0.5
40
0.5
40
1
40
1
40
1
40
1
41
1
10
19.7223398537061
20
-29.2008505492493
30
0
41
1
10
19.7944276866548
20
-29.5341968775608
30
0
41
1
10
20.1259112182232
20
-29.8160771939878
30
0
41
1
10
21.2541844573662
20
-30.227780888577
30
0
41
1
10
22.046233725992
20
-30.3555758308483
30
0
41
1
10
22.92079238
20
-30.4030996789995
30
0
0
SPLINE
5
1AF
100
AcDbEntity
8
1
62
256
6
ByLayer
370
18
48
1
60
0
100
AcDbSpline
70
4
71
3
72
10
73
6
40
0
40
0
40
0
40
0
40
0.5
40
0.5
40
1
40
1
40
1
40
1
41
1
10
19.7223398537061
20
-22.3766085068489
30
0
41
1
10
19.769707703847
20
-21.9427459038706
30
0
41
1
10
19.8813533328177
20
-21.3066751332101
30
0
41
1
10
20.027882478948
20
-20.0121348229057
30
0
41
1
10
20.0775051479253
20
-19.3299329024937
30
0
41
1
10
20.1038443770983
20
-18.6471607820916
30
0
0
SPLINE
5
1B0
100
AcDbEntity
8
1
62
256
6
ByLayer
370
18
48
1
60
0
100
AcDbSpline
70
4
71
3
72
8
73
4
40
0
40
0
40
0
40
0
40
1
40
1
40
1
40
1
41
1
10
19.7313606000401
20
5.74266599401599
30
0
41
1
10
19.7284808100186
20
5.86181761730492
30
0
41
1
10
19.7254538079689
20
5.98037847597806
30
0
41
1
10
19.722339853706
20
6.09702690615438
30
0
0
SPLINE
5
1B1
100
AcDbEntity
8
1
62
256
6
ByLayer
370
18
48
1
60
0
100
AcDbSpline
70
4
71
2
72
9
73
6
40
0
40
0
40
0
40
0.10650598961153
40
0.463903593766918
40
0.642602395844612
40
1
40
1
40
1
41
1.02613459695995
10
20.4306179576147
20
-5.70796843883423
30
0
41
1.02613459695995
10
20.3720198818309
20
-5.5015833050135
30
0
41
1.02613459695995
10
20.158388301539
20
-4.51994874036424
30
0
41
1.02613459695995
10
20.1374268998091
20
-3.96133632389665
30
0
41
1.02613459695995
10
20.1369273585779
20
-3.31743337606117
30
0
41
1.02613459695995
10
20.1929303341653
20
-2.87867071023466
30
0
0
SPLINE
5
1B2
100
AcDbEntity
8
1
62
256
6
ByLayer
370
18
48
1
60
0
100
AcDbSpline
70
4
71
3
72
10
73
6
40
0
40
0
40
0
40
0
40
0.368550520743597
40
0.368550520743597
40
1
40
1
40
1
40
1
41
1
10
22.9991199873213
20
30.7098596756338
30
0
41
1
10
23.0848996215915
20
30.7134400985536
30
0
41
1
10
23.1712589956035
20
30.7163618242585
30
0
41
1
10
23.4068954747116
20
30.7225125739893
30
0
41
1
10
23.5571315492161
20
30.7244582074332
30
0
41
1
10
23.7071186460731
20
30.7244582074332
30
0
0
SPLINE
5
1B3
100
AcDbEntity
8
1
62
256
6
ByLayer
370
18
48
1
60
0
100
AcDbSpline
70
4
71
2
72
9
73
6
40
0
40
0
40
0
40
0.114496876169111
40
0.468698125701466
40
0.645798750467644
40
1
40
1
40
1
41
1
10
20.5169916649481
20
-5.75665005215933
30
0
41
1
10
20.4525508221736
20
-5.53452301977126
30
0
41
1
10
20.2347635572346
20
-4.53379313371033
30
0
41
1
10
20.2138021555047
20
-3.97518071724275
30
0
41
1
10
20.2133026142735
20
-3.33127776940725
30
0
41
1
10
20.2693055898609
20
-2.89251510358076
30
0
0
SPLINE
5
1B4
100
AcDbEntity
8
1
62
256
6
ByLayer
370
18
48
1
60
0
100
AcDbSpline
70
4
71
2
72
9
73
6
40
0
40
0
40
0
40
0.383792216371825
40
0.606586567191736
40
0.940778093421602
40
1
40
1
40
1
41
1.02613459695995
10
29.2293712874951
20
12.0553737015805
30
0
41
1.02613459695995
10
28.3385955247157
20
12.0937811285156
30
0
41
1.02613459695995
10
26.9487238464833
20
11.5932292111882
30
0
41
1.02613459695995
10
25.7336696603539
20
10.8171924614962
30
0
41
1.02613459695995
10
25.0248663282102
20
9.98820824899305
30
0
41
1.02613459695995
10
24.9217528957251
20
9.84710079124047
30
0
0
SPLINE
5
1B5
100
AcDbEntity
8
1
62
256
6
ByLayer
370
18
48
1
60
0
100
AcDbSpline
70
4
71
3
72
16
73
12
40
0
40
0
40
0
40
0
40
0.463423600832209
40
0.463423600832209
40
0.646243952932815
40
0.646243952932815
40
0.831657283224495
40
0.831657283224495
40
0.947504344290837
40
0.947504344290837
40
1
40
1
40
1
40
1
41
1
10
13.8943375672974
20
-9.86941261896621
30
0
41
1
10
13.8656609252734
20
-9.76458357826289
30
0
41
1
10
13.8263500123909
20
-9.66039292789938
30
0
41
1
10
13.7453819366532
20
-9.52957658281042
30
0
41
1
10
13.7190869808859
20
-9.49380155568073
30
0
41
1
10
13.6579862203325
20
-9.42941539787637
30
0
41
1
10
13.6222599905468
20
-9.40014891155712
30
0
41
1
10
13.556648346355
20
-9.36662118733784
30
0
41
1
10
13.5289597975987
20
-9.35698328824239
30
0
41
1
10
13.4876776374751
20
-9.35029954873104
30
0
41
1
10
13.4744789968601
20
-9.34922131452501
30
0
41
1
10
13.4613248654052
20
-9.34922131452501
30
0
0
SPLINE
5
1B6
100
AcDbEntity
8
1
62
256
6
ByLayer
370
18
48
1
60
0
100
AcDbSpline
70
4
71
3
72
8
73
4
40
0
40
0
40
0
40
0
40
1
40
1
40
1
40
1
41
1
10
22.92079238
20
30.4030996789995
30
0
41
1
10
22.9468692588259
20
30.505348117989
30
0
41
1
10
22.9729789471285
20
30.607602028574
30
0
41
1
10
22.9991199873213
20
30.7098596756338
30
0
0
SPLINE
5
1B7
100
AcDbEntity
8
1
62
256
6
ByLayer
370
18
48
1
60
0
100
AcDbSpline
70
4
71
3
72
44
73
40
40
0
40
0
40
0
40
0
40
0.0051940130061932
40
0.0051940130061932
40
0.0199009817937534
40
0.0199009817937534
40
0.129752294167019
40
0.129752294167019
40
0.239839677911186
40
0.239839677911186
40
0.428838343456074
40
0.428838343456074
40
0.549631066890909
40
0.549631066890909
40
0.669783070708087
40
0.669783070708087
40
0.866798379327421
40
0.866798379327421
40
0.966549476613114
40
0.966549476613114
40
0.991441197782501
40
0.991441197782501
40
0.997663555992387
40
0.997663555992387
40
0.999220061855734
40
0.999220061855734
40
0.999613367517891
40
0.999613367517891
40
0.999703345458409
40
0.999703345458409
40
0.999741176154206
40
0.999741176154206
40
0.999773455170535
40
0.999773455170535
40
0.999805393952137
40
0.999805393952137
40
0.999853555634529
40
0.999853555634529
40
1
40
1
40
1
40
1
41
1
10
24.9217528957251
20
9.84710079124045
30
0
41
1
10
24.9194238696755
20
9.84870287288825
30
0
41
1
10
24.9170956297421
20
9.85031976087333
30
0
41
1
10
24.9079869324562
20
9.85648713739667
30
0
41
1
10
24.901111179721
20
9.86096070229979
30
0
41
1
10
24.8425187074443
20
9.89752107585866
30
0
41
1
10
24.7836168771985
20
9.92385427613655
30
0
41
1
10
24.6575921171028
20
9.95796894592809
30
0
41
1
10
24.5889575641356
20
9.96596058338989
30
0
41
1
10
24.4039476895759
20
9.96421636481875
30
0
41
1
10
24.2841921037199
20
9.94748934977721
30
0
41
1
10
24.0983860090729
20
9.92506284358197
30
0
41
1
10
24.0258434424458
20
9.91667885223174
30
0
41
1
10
23.9002314189673
20
9.86195098361759
30
0
41
1
10
23.8535572921851
20
9.80521448925728
30
0
41
1
10
23.7245158930783
20
9.6853447426042
30
0
41
1
10
23.6491683245247
20
9.61310441083728
30
0
41
1
10
23.5560377535854
20
9.48794755718066
30
0
41
1
10
23.5272003724641
20
9.44417267254954
30
0
41
1
10
23.4940386067432
20
9.38805912354593
30
0
41
1
10
23.4875536703027
20
9.37676893049607
30
0
41
1
10
23.479616583843
20
9.36257757254
30
0
41
1
10
23.4780401002441
20
9.35973044584395
30
0
41
1
10
23.4760690037312
20
9.35618800169769
30
0
41
1
10
23.4756784980075
20
9.35547095022599
30
0
41
1
10
23.4751687644423
20
9.35461925757801
30
0
41
1
10
23.4750661395351
20
9.35444152677869
30
0
41
1
10
23.4749238613345
20
9.35427663048534
30
0
41
1
10
23.4748959069148
20
9.35424795206708
30
0
41
1
10
23.4748545816761
20
9.35422604900549
30
0
41
1
10
23.4748418699149
20
9.35422212651653
30
0
41
1
10
23.4748193263509
20
9.35422373234508
30
0
41
1
10
23.4748091346111
20
9.35422817004957
30
0
41
1
10
23.4747913127941
20
9.35424404390824
30
0
41
1
10
23.4747834228344
20
9.35425547483052
30
0
41
1
10
23.4747665985081
20
9.35428853836615
30
0
41
1
10
23.4747587387372
20
9.35431264539946
30
0
41
1
10
23.4747325296916
20
9.35441377957611
30
0
41
1
10
23.4747227688301
20
9.35450042760573
30
0
41
1
10
23.4747145039967
20
9.35458630872594
30
0
0
SPLINE
5
1B8
100
AcDbEntity
8
1
62
256
6
ByLayer
370
18
48
1
60
0
100
AcDbSpline
70
4
71
3
72
16
73
12
40
0
40
0
40
0
40
0
40
0.113316224833592
40
0.113316224833592
40
0.252990411571568
40
0.252990411571568
40
0.473309013928318
40
0.473309013928318
40
0.896716357718825
40
0.896716357718825
40
1
40
1
40
1
40
1
41
1
10
13.4613248654052
20
9.3492213145251
30
0
41
1
10
13.4894125595718
20
9.3492213145251
30
0
41
1
10
13.517849357763
20
9.35431657338981
30
0
41
1
10
13.5767970345725
20
9.37467777536565
30
0
41
1
10
13.6072473721288
20
9.39213979793414
30
0
41
1
10
13.6769143636602
20
9.44503542604383
30
0
41
1
10
13.7128266507651
20
9.4856938043188
30
0
41
1
10
13.8014637450836
20
9.61105923366804
30
0
41
1
10
13.842370839753
20
9.70465429390066
30
0
41
1
10
13.8809034737598
20
9.82244573862474
30
0
41
1
10
13.8878971837969
20
9.84586944318031
30
0
41
1
10
13.8943375672975
20
9.86941261896621
30
0
0
SPLINE
5
1B9
100
AcDbEntity
8
1
62
256
6
ByLayer
370
18
48
1
60
0
100
AcDbSpline
70
4
71
3
72
10
73
6
40
0
40
0
40
0
40
0
40
0.573565230694858
40
0.573565230694858
40
1
40
1
40
1
40
1
41
1
10
13.8943375672974
20
-21.0401816871777
30
0
41
1
10
13.8463445787262
20
-21.0796283794037
30
0
41
1
10
13.7780102352029
20
-21.1353313584606
30
0
41
1
10
13.6250883068771
20
-21.2487586970679
30
0
41
1
10
13.5471921982104
20
-21.3044749970785
30
0
41
1
10
13.4613248654052
20
-21.3694939161262
30
0
0
SPLINE
5
1BA
100
AcDbEntity
8
1
62
256
6
ByLayer
370
18
48
1
60
0
100
AcDbSpline
70
4
71
3
72
16
73
12
40
0
40
0
40
0
40
0
40
0.113316224833593
40
0.113316224833593
40
0.252990411571579
40
0.252990411571579
40
0.473309013928354
40
0.473309013928354
40
0.896716357718913
40
0.896716357718913
40
1
40
1
40
1
40
1
41
1
10
10.5386751345948
20
-9.34922131452512
30
0
41
1
10
10.5105874404281
20
-9.34922131452512
30
0
41
1
10
10.482150642237
20
-9.35431657338984
30
0
41
1
10
10.4232029654275
20
-9.37467777536568
30
0
41
1
10
10.3927526278712
20
-9.39213979793414
30
0
41
1
10
10.3230856363398
20
-9.44503542604386
30
0
41
1
10
10.2871733492349
20
-9.48569380431883
30
0
41
1
10
10.1985362549164
20
-9.6110592336681
30
0
41
1
10
10.1576291602469
20
-9.70465429390072
30
0
41
1
10
10.1190965262402
20
-9.82244573862477
30
0
41
1
10
10.112102816203
20
-9.84586944318031
30
0
41
1
10
10.1056624327025
20
-9.86941261896618
30
0
0
SPLINE
5
1BB
100
AcDbEntity
8
1
62
256
6
ByLayer
370
18
48
1
60
0
100
AcDbSpline
70
4
71
2
72
9
73
6
40
0
40
0
40
0
40
0.125224964555672
40
0.475134978733403
40
0.650089985822269
40
1
40
1
40
1
41
1
10
20.6073004438852
20
-5.81782247085198
30
0
41
1
10
20.5346246391967
20
-5.57455223448198
30
0
41
1
10
20.3111388129302
20
-4.54763752705645
30
0
41
1
10
20.2901774112004
20
-3.98902511058884
30
0
41
1
10
20.2896778699692
20
-3.34512216275337
30
0
41
1
10
20.3456808455565
20
-2.90635949692688
30
0
0
SPLINE
5
1BC
100
AcDbEntity
8
1
62
256
6
ByLayer
370
18
48
1
60
0
100
AcDbSpline
70
4
71
3
72
16
73
12
40
0
40
0
40
0
40
0
40
0.463423600832241
40
0.463423600832241
40
0.646243952932834
40
0.646243952932834
40
0.831657283224497
40
0.831657283224497
40
0.947504344290847
40
0.947504344290847
40
1
40
1
40
1
40
1
41
1
10
13.8943375672974
20
29.9139548464691
30
0
41
1
10
13.8656609252734
20
29.9485407466772
30
0
41
1
10
13.8263500123909
20
29.982269090612
30
0
41
1
10
13.7453819366532
20
30.0239686896252
30
0
41
1
10
13.7190869808859
20
30.0352936109065
30
0
41
1
10
13.6579862203325
20
30.0555697561518
30
0
41
1
10
13.6222599905467
20
30.0647246060481
30
0
41
1
10
13.556648346355
20
30.0751823136668
30
0
41
1
10
13.5289597975987
20
30.0781795790239
30
0
41
1
10
13.4876776374751
20
30.0802576981002
30
0
41
1
10
13.47447899686
20
30.0805927603169
30
0
41
1
10
13.4613248654052
20
30.0805927603169
30
0
0
SPLINE
5
1BD
100
AcDbEntity
8
1
62
256
6
ByLayer
370
18
48
1
60
0
100
AcDbSpline
70
4
71
3
72
10
73
6
40
0
40
0
40
0
40
0
40
0.5
40
0.5
40
1
40
1
40
1
40
1
41
1
10
20.6073004438852
20
-5.81782247085198
30
0
41
1
10
20.974032605595
20
-6.08441519311921
30
0
41
1
10
21.4060443618944
20
-6.4103783748786
30
0
41
1
10
22.4587868828225
20
-6.88620878710756
30
0
41
1
10
23.0711620281879
20
-7.04816029238225
30
0
41
1
10
23.7071186460731
20
-7.12375146675586
30
0
0
SPLINE
5
1BE
100
AcDbEntity
8
1
62
256
6
ByLayer
370
18
48
1
60
0
100
AcDbSpline
70
4
71
2
72
8
73
5
40
0
40
0
40
0
40
0.0818488152405458
40
0.599202128964799
40
1
40
1
40
1
41
1
10
23.4747926935746
20
9.354658064902
30
0
41
1
10
23.4445815389561
20
9.45480402434936
30
0
41
1
10
23.1953251389319
20
10.1609887549721
30
0
41
1
10
22.5995212819356
20
10.817137945901
30
0
41
1
10
22.2977846292923
20
10.9257413986701
30
0
0
SPLINE
5
1BF
100
AcDbEntity
8
1
62
256
6
ByLayer
370
18
48
1
60
0
100
AcDbSpline
70
4
71
3
72
16
73
12
40
0
40
0
40
0
40
0
40
0.252963085901213
40
0.252963085901213
40
0.502688470887291
40
0.502688470887291
40
0.73446595012738
40
0.73446595012738
40
0.94726039948118
40
0.94726039948118
40
1
40
1
40
1
40
1
41
1
10
23.7071186460731
20
-7.12375146675589
30
0
41
1
10
23.9680733446727
20
-7.15476910470588
30
0
41
1
10
24.2383178922304
20
-7.14275805696769
30
0
41
1
10
24.7471345212975
20
-7.02643784220223
30
0
41
1
10
24.9935463273608
20
-6.92171915033333
30
0
41
1
10
25.4090414420041
20
-6.64394604166469
30
0
41
1
10
25.588291073392
20
-6.47146479263239
30
0
41
1
10
25.8543957004187
20
-6.09379499607388
30
0
41
1
10
25.950928846796
20
-5.8870955511033
30
0
41
1
10
26.0231068624748
20
-5.61964558560561
30
0
41
1
10
26.0353167798408
20
-5.5652416355619
30
0
41
1
10
26.0452440983615
20
-5.51047567569424
30
0
0
SPLINE
5
1C0
100
AcDbEntity
8
1
62
256
6
ByLayer
370
18
48
1
60
0
100
AcDbSpline
70
4
71
3
72
25
73
21
40
0
40
0
40
0
40
0
40
0.0860750694711605
40
0.0860750694711605
40
0.177051403415856
40
0.177051403415856
40
0.275113887714077
40
0.275113887714077
40
0.387114613052268
40
0.387114613052268
40
0.510798413897521
40
0.510798413897521
40
0.643827161323976
40
0.643827161323976
40
0.782226144401696
40
0.782226144401696
40
0.941283500334033
40
0.941283500334033
40
0.941283500334033
40
1
40
1
40
1
40
1
41
1
10
29.2293712874951
20
12.0553737015805
30
0
41
1
10
29.268325471618
20
12.2702719422203
30
0
41
1
10
29.2726794849977
20
12.4941575703301
30
0
41
1
10
29.2103495124518
20
12.9390466056046
30
0
41
1
10
29.1394115661391
20
13.1645861115935
30
0
41
1
10
28.9304103574521
20
13.5963949982271
30
0
41
1
10
28.7854003087324
20
13.8052929172206
30
0
41
1
10
28.4240388323927
20
14.1967376143548
30
0
41
1
10
28.1958837517959
20
14.3764526007496
30
0
41
1
10
27.6779701184927
20
14.6732290831211
30
0
41
1
10
27.3776765116253
20
14.7859685752938
30
0
41
1
10
26.7421911553413
20
14.9192400964435
30
0
41
1
10
26.3974475755877
20
14.9317488148392
30
0
41
1
10
25.7155247342156
20
14.8524180540618
30
0
41
1
10
25.3708198009003
20
14.7566045844537
30
0
41
1
10
24.6802003445986
20
14.4578529077695
30
0
41
1
10
24.3282329498296
20
14.2437779937181
30
0
41
1
10
24.0258032100733
20
13.9786627178684
30
0
41
1
10
23.9129221355694
20
13.8797091651212
30
0
41
1
10
23.8067817627684
20
13.7727266225253
30
0
41
1
10
23.707118646073
20
13.6604715301998
30
0
0
SPLINE
5
1C1
100
AcDbEntity
8
1
62
256
6
ByLayer
370
18
48
1
60
0
100
AcDbSpline
70
4
71
3
72
10
73
6
40
0
40
0
40
0
40
0
40
0.406434782913203
40
0.406434782913203
40
1
40
1
40
1
40
1
41
1
10
13.4613248654052
20
-19.4372396071259
30
0
41
1
10
13.5445600082495
20
-19.5002654265816
30
0
41
1
10
13.6195895752656
20
-19.5840144784503
30
0
41
1
10
13.7747384129069
20
-19.8110073784322
30
0
41
1
10
13.8452864320335
20
-19.9677891804822
30
0
41
1
10
13.8943375672975
20
-20.1324515831234
30
0
0
SPLINE
5
1C2
100
AcDbEntity
8
1
62
256
6
ByLayer
370
18
48
1
60
0
100
AcDbSpline
70
4
71
3
72
16
73
12
40
0
40
0
40
0
40
0
40
0.113316224833596
40
0.113316224833596
40
0.252990411571581
40
0.252990411571581
40
0.473309013928343
40
0.473309013928343
40
0.896716357718895
40
0.896716357718895
40
1
40
1
40
1
40
1
41
1
10
13.4613248654052
20
-30.0805927603169
30
0
41
1
10
13.4894125595718
20
-30.0805927603169
30
0
41
1
10
13.517849357763
20
-30.0790101689567
30
0
41
1
10
13.5767970345725
20
-30.0726712338969
30
0
41
1
10
13.6072473721288
20
-30.0672275748685
30
0
41
1
10
13.6769143636602
20
-30.0506647867053
30
0
41
1
10
13.7128266507651
20
-30.0378702684276
30
0
41
1
10
13.8014637450836
20
-29.9980833386355
30
0
41
1
10
13.842370839753
20
-29.967975934908
30
0
41
1
10
13.8809034737598
20
-29.9294196064672
30
0
41
1
10
13.8878971837969
20
-29.9217223689309
30
0
41
1
10
13.8943375672975
20
-29.9139548464691
30
0
0
SPLINE
5
1C3
100
AcDbEntity
8
1
62
256
6
ByLayer
370
18
48
1
60
0
100
AcDbSpline
70
4
71
3
72
16
73
12
40
0
40
0
40
0
40
0
40
0.113316224833594
40
0.113316224833594
40
0.252990411571577
40
0.252990411571577
40
0.473309013928351
40
0.473309013928351
40
0.896716357718897
40
0.896716357718897
40
1
40
1
40
1
40
1
41
1
10
10.5386751345948
20
30.0805927603169
30
0
41
1
10
10.5105874404281
20
30.0805927603169
30
0
41
1
10
10.482150642237
20
30.0790101689566
30
0
41
1
10
10.4232029654275
20
30.0726712338969
30
0
41
1
10
10.3927526278712
20
30.0672275748685
30
0
41
1
10
10.3230856363398
20
30.0506647867052
30
0
41
1
10
10.2871733492349
20
30.0378702684275
30
0
41
1
10
10.1985362549164
20
29.9980833386355
30
0
41
1
10
10.1576291602469
20
29.967975934908
30
0
41
1
10
10.1190965262402
20
29.9294196064672
30
0
41
1
10
10.112102816203
20
29.9217223689309
30
0
41
1
10
10.1056624327025
20
29.9139548464691
30
0
0
SPLINE
5
1C4
100
AcDbEntity
8
1
62
256
6
ByLayer
370
18
48
1
60
0
100
AcDbSpline
70
4
71
2
72
9
73
6
40
0
40
0
40
0
40
0.224986472544223
40
0.505198180857127
40
0.925515743326482
40
1
40
1
40
1
41
1.02613459695995
10
26.0452440983615
20
-5.51047567569425
30
0
41
1.02613459695995
10
25.6619127832222
20
-5.35374114601823
30
0
41
1.02613459695995
10
24.8502164446946
20
-4.83449049961726
30
0
41
1.02613459695995
10
23.863914713791
20
-3.81978721455613
30
0
41
1.02613459695995
10
23.3833751640778
20
-2.86185686354686
30
0
41
1.02613459695995
10
23.3186370506938
20
-2.70255128226551
30
0
0
SPLINE
5
1C5
100
AcDbEntity
8
1
62
256
6
ByLayer
370
18
48
1
60
0
100
AcDbSpline
70
4
71
3
72
16
73
12
40
0
40
0
40
0
40
0
40
0.463423600832241
40
0.463423600832241
40
0.646243952932837
40
0.646243952932837
40
0.831657283224505
40
0.831657283224505
40
0.947504344290848
40
0.947504344290848
40
1
40
1
40
1
40
1
41
1
10
10.1056624327026
20
9.86941261896621
30
0
41
1
10
10.1343390747265
20
9.76458357826289
30
0
41
1
10
10.1736499876091
20
9.66039292789938
30
0
41
1
10
10.2546180633468
20
9.52957658281042
30
0
41
1
10
10.2809130191141
20
9.49380155568073
30
0
41
1
10
10.3420137796675
20
9.42941539787637
30
0
41
1
10
10.3777400094532
20
9.40014891155712
30
0
41
1
10
10.4433516536449
20
9.36662118733787
30
0
41
1
10
10.4710402024013
20
9.35698328824239
30
0
41
1
10
10.5123223625249
20
9.35029954873107
30
0
41
1
10
10.5255210031399
20
9.34922131452504
30
0
41
1
10
10.5386751345948
20
9.34922131452504
30
0
0
SPLINE
5
1C6
100
AcDbEntity
8
1
62
256
6
ByLayer
370
18
48
1
60
0
100
AcDbSpline
70
4
71
3
72
8
73
4
40
0
40
0
40
0
40
0
40
1
40
1
40
1
40
1
41
1
10
22.9991199873213
20
-30.7098596756337
30
0
41
1
10
22.9729789471285
20
-30.607602028574
30
0
41
1
10
22.9468692588259
20
-30.505348117989
30
0
41
1
10
22.92079238
20
-30.4030996789995
30
0
0
SPLINE
5
1C7
100
AcDbEntity
8
1
62
256
6
ByLayer
370
18
48
1
60
0
100
AcDbSpline
70
4
71
3
72
8
73
4
40
0
40
0
40
0
40
0
40
1
40
1
40
1
40
1
41
1
10
23.7071186460731
20
13.6604715301998
30
0
41
1
10
23.0120550027069
20
12.8775897977668
30
0
41
1
10
22.4454622629268
20
11.9753847290047
30
0
41
1
10
22.2977279530009
20
10.9253797578857
30
0
0
SPLINE
5
1C8
100
AcDbEntity
8
1
62
256
6
ByLayer
370
18
48
1
60
0
100
AcDbSpline
70
4
71
3
72
12
73
8
40
0
40
0
40
0
40
0
40
0.249744431005302
40
0.249744431005302
40
0.62471435892178
40
0.62471435892178
40
1
40
1
40
1
40
1
41
1
10
20.5169916649481
20
-5.75665005215933
30
0
41
1
10
20.5244427067074
20
-5.76129659761136
30
0
41
1
10
20.5319127816119
20
-5.76606225366007
30
0
41
1
10
20.5506396994205
20
-5.77826525483277
30
0
41
1
10
20.5619196205257
20
-5.78584563254964
30
0
41
1
10
20.5845550110108
20
-5.80148419725103
30
0
41
1
10
20.5959129022555
20
-5.80954439753316
30
0
41
1
10
20.6073004438852
20
-5.81782247085201
30
0
0
SPLINE
5
1C9
100
AcDbEntity
8
1
62
256
6
ByLayer
370
18
48
1
60
0
100
AcDbSpline
70
4
71
3
72
12
73
8
40
0
40
0
40
0
40
0
40
0.249678562456865
40
0.249678562456865
40
0.624638645615226
40
0.624638645615226
40
1
40
1
40
1
40
1
41
1
10
20.4306179576147
20
-5.7079684388342
30
0
41
1
10
20.4377169347187
20
-5.71151107615091
30
0
41
1
10
20.444841426966
20
-5.71518791546904
30
0
41
1
10
20.4627207304155
20
-5.72470789958851
30
0
41
1
10
20.4735062935927
20
-5.73071387384346
30
0
41
1
10
20.4951769271579
20
-5.74327683860085
30
0
41
1
10
20.5060649679425
20
-5.74983605273258
30
0
41
1
10
20.5169916649481
20
-5.75665005215933
30
0
0
SPLINE
5
1CA
100
AcDbEntity
8
1
62
256
6
ByLayer
370
18
48
1
60
0
100
AcDbSpline
70
4
71
3
72
10
73
6
40
0
40
0
40
0
40
0
40
0.41566530777211
40
0.41566530777211
40
1
40
1
40
1
40
1
41
1
10
10.5386751345948
20
-21.3694939161262
30
0
41
1
10
10.4549244770343
20
-21.3060777478789
30
0
41
1
10
10.3787459731137
20
-21.2515288076611
30
0
41
1
10
10.2245337544041
20
-21.1373152812055
30
0
41
1
10
10.1545345289015
20
-21.0803509409494
30
0
41
1
10
10.1056624327025
20
-21.0401816871769
30
0
0
SPLINE
5
1CB
100
AcDbEntity
8
1
62
256
6
ByLayer
370
18
48
1
60
0
100
AcDbSpline
70
4
71
3
72
10
73
6
40
0
40
0
40
0
40
0
40
0.563253738015378
40
0.563253738015378
40
1
40
1
40
1
40
1
41
1
10
10.1056624327026
20
-20.1324515831236
30
0
41
1
10
10.1522667730003
20
-19.9760029585275
30
0
41
1
10
10.2181997150426
20
-19.8269086326718
30
0
41
1
10
10.3695745193898
20
-19.5962808154733
30
0
41
1
10
10.4493853955874
20
-19.5048499791108
30
0
41
1
10
10.5386751345948
20
-19.4372396071259
30
0
0
SPLINE
5
1CC
100
AcDbEntity
8
1
62
256
6
ByLayer
370
18
48
1
60
0
100
AcDbSpline
70
4
71
2
72
9
73
6
40
0
40
0
40
0
40
0.464691154463134
40
0.464691154463134
40
0.929382308926268
40
1
40
1
40
1
41
1
10
20.3456808455565
20
-2.90635949692688
30
0
41
1
10
20.734163216706
20
-2.97677893716622
30
0
41
1
10
21.1309385482238
20
-2.76380999638815
30
0
41
1
10
21.5617518219707
20
-2.53257120885559
30
0
41
1
10
21.9908055899054
20
-1.92581958579464
30
0
41
1
10
22.0446433238878
20
-1.8409547595991
30
0
0
SPLINE
5
1CD
100
AcDbEntity
8
1
62
256
6
ByLayer
370
18
48
1
60
0
100
AcDbSpline
70
4
71
3
72
14
73
10
40
0
40
0
40
0
40
0
40
0.249345437142249
40
0.249345437142249
40
0.498416019422145
40
0.498416019422145
40
0.751755768293013
40
0.751755768293013
40
1
40
1
40
1
40
1
41
1
10
22.92079238
20
30.4030996789995
30
0
41
1
10
22.4911872308687
20
30.3797547726531
30
0
41
1
10
22.0713027930021
20
30.3362087626963
30
0
41
1
10
21.3207825933646
20
30.2106851618679
30
0
41
1
10
20.9798960704064
20
30.1268785153985
30
0
41
1
10
20.4127550677945
20
29.9215500620856
30
0
41
1
10
20.1810055491209
20
29.7965840850674
30
0
41
1
10
19.8568493124057
20
29.5193693550599
30
0
41
1
10
19.757733738945
20
29.3645178590634
30
0
41
1
10
19.7223398537061
20
29.2008505492493
30
0
0
SPLINE
5
1CE
100
AcDbEntity
8
1
62
256
6
ByLayer
370
18
48
1
60
0
100
AcDbSpline
70
4
71
3
72
16
73
12
40
0
40
0
40
0
40
0
40
0.463423600832262
40
0.463423600832262
40
0.646243952932856
40
0.646243952932856
40
0.831657283224518
40
0.831657283224518
40
0.94750434429086
40
0.94750434429086
40
1
40
1
40
1
40
1
41
1
10
10.1056624327026
20
-29.9139548464691
30
0
41
1
10
10.1343390747265
20
-29.9485407466772
30
0
41
1
10
10.1736499876091
20
-29.982269090612
30
0
41
1
10
10.2546180633468
20
-30.0239686896252
30
0
41
1
10
10.2809130191141
20
-30.0352936109065
30
0
41
1
10
10.3420137796675
20
-30.0555697561518
30
0
41
1
10
10.3777400094532
20
-30.0647246060481
30
0
41
1
10
10.4433516536449
20
-30.0751823136668
30
0
41
1
10
10.4710402024013
20
-30.0781795790239
30
0
41
1
10
10.5123223625249
20
-30.0802576981002
30
0
41
1
10
10.5255210031399
20
-30.0805927603169
30
0
41
1
10
10.5386751345948
20
-30.0805927603169
30
0
0
SPLINE
5
1CF
100
AcDbEntity
8
1
62
256
6
ByLayer
370
18
48
1
60
0
100
AcDbSpline
70
4
71
3
72
44
73
40
40
0
40
0
40
0
40
0
40
0.0001456803718046
40
0.0001456803718046
40
0.0001937817040419
40
0.0001937817040419
40
0.0002315129087939
40
0.0002315129087939
40
0.000260851151408
40
0.000260851151408
40
0.000260851151408
40
0.0002901055024175
40
0.0002901055024175
40
0.0002901055024175
40
0.0003386250085155
40
0.0003386250085155
40
0.0004943095169045
40
0.0004943095169045
40
0.0012382913026664
40
0.0012382913026664
40
0.0042003749727272
40
0.0042003749727272
40
0.0160477768090721
40
0.0160477768090721
40
0.0634550186695118
40
0.0634550186695118
40
0.25471401087606
40
0.25471401087606
40
0.445727378992274
40
0.445727378992274
40
0.58832627096449
40
0.58832627096449
40
0.775840873833226
40
0.775840873833226
40
0.886032576059551
40
0.886032576059551
40
0.994826730509468
40
0.994826730509468
40
1
40
1
40
1
40
1
41
1
10
22.0445820153866
20
-1.84085221084283
30
0
41
1
10
22.0446108806922
20
-1.84077274075077
30
0
41
1
10
22.0446411763259
20
-1.84069352650994
30
0
41
1
10
22.0446891922598
20
-1.84060183684738
30
0
41
1
10
22.0447019531666
20
-1.84058010873463
30
0
41
1
10
22.0447266116638
20
-1.84054748678815
30
0
41
1
10
22.0447383339804
20
-1.84053510493598
30
0
41
1
10
22.0447599158858
20
-1.84052106766745
30
0
41
1
10
22.0447693420667
20
-1.8405175429227
30
0
41
1
10
22.0447793503021
20
-1.84051755513818
30
0
41
1
10
22.0447893544448
20
-1.84051733972962
30
0
41
1
10
22.0447987875164
20
-1.84052082219688
30
0
41
1
10
22.0448072203356
20
-1.84052624620301
30
0
41
1
10
22.0448211282345
20
-1.84053492997205
30
0
41
1
10
22.0448340072847
20
-1.84054987955872
30
0
41
1
10
22.0448826189312
20
-1.84062114854817
30
0
41
1
10
22.0449104330339
20
-1.84069521721327
30
0
41
1
10
22.0450615882073
20
-1.84112225608268
30
0
41
1
10
22.0451544465516
20
-1.84151845438464
30
0
41
1
10
22.0456442159544
20
-1.84344771744483
30
0
41
1
10
22.0460166617502
20
-1.84501270980684
30
0
41
1
10
22.0479149355584
20
-1.85280609891089
30
0
41
1
10
22.0494597077752
20
-1.85904188827993
30
0
41
1
10
22.0573684576876
20
-1.8901750746563
30
0
41
1
10
22.064248507238
20
-1.91496694808879
30
0
41
1
10
22.1017378187265
20
-2.03857731249238
30
0
41
1
10
22.1414562726824
20
-2.13581072703164
30
0
41
1
10
22.245981767147
20
-2.31910722325838
30
0
41
1
10
22.2911849099948
20
-2.4287202650811
30
0
41
1
10
22.4365888905006
20
-2.55422072979803
30
0
41
1
10
22.5184959808759
20
-2.58498624888136
30
0
41
1
10
22.7052192855778
20
-2.65912151735998
30
0
41
1
10
22.8158765538789
20
-2.70665070975124
30
0
41
1
10
22.9945611922619
20
-2.7466232415959
30
0
41
1
10
23.063062778813
20
-2.75217417413259
30
0
41
1
10
23.1920324065056
20
-2.74252474496169
30
0
41
1
10
23.2540723893053
20
-2.72768200456105
30
0
41
1
10
23.313295984393
20
-2.70468529831749
30
0
41
1
10
23.3159679406281
20
-2.70361147615674
30
0
41
1
10
23.3186370506938
20
-2.70255128226557
30
0
0
SPLINE
5
1D0
100
AcDbEntity
8
1
62
256
6
ByLayer
370
18
48
1
60
0
100
AcDbSpline
70
4
71
2
72
6
73
3
40
0
40
0
40
0
40
1
40
1
40
1
41
1
10
20.2693055898609
20
-2.89251510358076
30
0
41
1
10
20.2311179620131
20
-2.88559290690773
30
0
41
1
10
20.1929303341653
20
-2.87867071023467
30
0
0
SPLINE
5
1D1
100
AcDbEntity
8
1
62
256
6
ByLayer
370
18
48
1
60
0
100
AcDbSpline
70
4
71
3
72
10
73
6
40
0
40
0
40
0
40
0
40
0.622169901224043
40
0.622169901224043
40
1
40
1
40
1
40
1
41
1
10
19.7223398537061
20
-5.68286110540444
30
0
41
1
10
19.7601476483569
20
-5.6538122494855
30
0
41
1
10
19.8700686100109
20
-5.57500003883985
30
0
41
1
10
20.1515719758389
20
-5.59258794724218
30
0
41
1
10
20.2842546163697
20
-5.63492802373213
30
0
41
1
10
20.4306179576161
20
-5.70796843883653
30
0
0
SPLINE
5
1D2
100
AcDbEntity
8
1
62
256
6
ByLayer
370
18
48
1
60
0
100
AcDbSpline
70
4
71
2
72
6
73
3
40
0
40
0
40
0
40
1
40
1
40
1
41
1
10
20.3456808455565
20
-2.90635949692688
30
0
41
1
10
20.3074932177087
20
-2.89943730025382
30
0
41
1
10
20.2693055898609
20
-2.89251510358076
30
0
0
SPLINE
5
1D3
100
AcDbEntity
8
1
62
256
6
ByLayer
370
18
48
1
60
0
100
AcDbSpline
70
4
71
3
72
8
73
4
40
0
40
0
40
0
40
0
40
1
40
1
40
1
40
1
41
1
10
23.707118646073
20
-30.7244582074332
30
0
41
1
10
23.4701320213035
20
-30.7244582074332
30
0
41
1
10
23.2321682429051
20
-30.7195870581624
30
0
41
1
10
22.9991199873213
20
-30.7098596756338
30
0
0
SPLINE
5
1D4
100
AcDbEntity
8
SK1
62
256
6
ByLayer
370
18
48
1
60
0
100
AcDbSpline
70
4
71
3
72
10
73
6
40
0
40
0
40
0
40
0
40
0.5
40
0.5
40
1
40
1
40
1
40
1
41
1
10
-1.30710678118655
20
4.81101329740289
30
0
41
1
10
-1.57713284158248
20
3.28321078789992
30
0
41
1
10
-1.79449339715788
20
1.64680798700616
30
0
41
1
10
-1.79438545511854
20
-1.6481258022005
30
0
41
1
10
-1.57704898370505
20
-3.28368386467716
30
0
41
1
10
-1.30710678118663
20
-4.81101321788435
30
0
0
SPLINE
5
1D5
100
AcDbEntity
8
SK1
62
256
6
ByLayer
370
18
48
1
60
0
100
AcDbSpline
70
4
71
3
72
26
73
22
40
0
40
0
40
0
40
0
40
0.462420532187944
40
0.462420532187944
40
0.662465761698283
40
0.662465761698283
40
0.830433309169693
40
0.830433309169693
40
0.87601894963741
40
0.87601894963741
40
0.905535493032455
40
0.905535493032455
40
0.92577818311669
40
0.92577818311669
40
0.946307111163799
40
0.946307111163799
40
0.963675313617857
40
0.963675313617857
40
0.991859972782862
40
0.991859972782862
40
1
40
1
40
1
40
1
41
1
10
-0.199999999999989
20
-7.05951749342083
30
0
41
1
10
-0.199999999999989
20
-6.93273416480454
30
0
41
1
10
-0.203968014086513
20
-6.80463429773329
30
0
41
1
10
-0.223222206303944
20
-6.62063667774228
30
0
41
1
10
-0.230822389897867
20
-6.56482953243432
30
0
41
1
10
-0.252035566714568
20
-6.46316921019911
30
0
41
1
10
-0.263798801619998
20
-6.41617607028249
30
0
41
1
10
-0.290531391619595
20
-6.36108887379029
30
0
41
1
10
-0.29710300077241
20
-6.34947181616241
30
0
41
1
10
-0.310313928765424
20
-6.33213067856883
30
0
41
1
10
-0.316208846631128
20
-6.32567949173321
30
0
41
1
10
-0.327595492701022
20
-6.31681373578161
30
0
41
1
10
-0.332739264568545
20
-6.31372817209197
30
0
41
1
10
-0.343644708736434
20
-6.30958040401461
30
0
41
1
10
-0.349575964479982
20
-6.30853210514005
30
0
41
1
10
-0.360183897281416
20
-6.30881607347521
30
0
41
1
10
-0.365032052617437
20
-6.30978620719449
30
0
41
1
10
-0.376922909163994
20
-6.31387292952667
30
0
41
1
10
-0.383695246431131
20
-6.3179475897727
30
0
41
1
10
-0.39156461480826
20
-6.32402624429125
30
0
41
1
10
-0.393293161608796
20
-6.32546009510432
30
0
41
1
10
-0.394976888875277
20
-6.32694279392757
30
0
0
SPLINE
5
1D6
100
AcDbEntity
8
SK1
62
256
6
ByLayer
370
18
48
1
60
0
100
AcDbSpline
70
4
71
3
72
22
73
18
40
0
40
0
40
0
40
0
40
0.366862607601256
40
0.366862607601256
40
0.737339621375052
40
0.737339621375052
40
0.838459586400285
40
0.838459586400285
40
0.872990642836393
40
0.872990642836393
40
0.908114554314301
40
0.908114554314301
40
0.93841147631739
40
0.93841147631739
40
0.978567405872927
40
0.978567405872927
40
1
40
1
40
1
40
1
41
1
10
-1.30710678118655
20
4.81101329740289
30
0
41
1
10
-1.26411319574365
20
5.05427021725674
30
0
41
1
10
-1.21291926611929
20
5.29463858107241
30
0
41
1
10
-1.07751639291712
20
5.76447191425098
30
0
41
1
10
-0.99999394263088
20
6.0024064332149
30
0
41
1
10
-0.818580317119483
20
6.26150782359156
30
0
41
1
10
-0.772786229091963
20
6.31609141287933
30
0
41
1
10
-0.693958175551444
20
6.37002132562083
30
0
41
1
10
-0.67174289599555
20
6.38213989760789
30
0
41
1
10
-0.624176343099663
20
6.39933264200099
30
0
41
1
10
-0.598041368844491
20
6.40433410743103
30
0
41
1
10
-0.550095873812666
20
6.4042038836908
30
0
41
1
10
-0.52764508925199
20
6.40038614973912
30
0
41
1
10
-0.479150674129698
20
6.38487542657816
30
0
41
1
10
-0.453444961156862
20
6.37100758594852
30
0
41
1
10
-0.417985764291785
20
6.34622757774423
30
0
41
1
10
-0.406197231050186
20
6.33682378409867
30
0
41
1
10
-0.394976888874737
20
6.32694309068151
30
0
0
SPLINE
5
1D7
100
AcDbEntity
8
SK1
62
256
6
ByLayer
370
18
48
1
60
0
100
AcDbSpline
70
4
71
3
72
22
73
18
40
0
40
0
40
0
40
0
40
0.038427246458711
40
0.038427246458711
40
0.0775026456766427
40
0.0775026456766427
40
0.106475059033524
40
0.106475059033524
40
0.135305917881828
40
0.135305917881828
40
0.182167074412018
40
0.182167074412018
40
0.275660663800869
40
0.275660663800869
40
0.616530102228659
40
0.616530102228659
40
1
40
1
40
1
40
1
41
1
10
-0.394976888875306
20
-6.32694279392757
30
0
41
1
10
-0.414867561016194
20
-6.34445862132063
30
0
41
1
10
-0.436644357284194
20
-6.36058691921457
30
0
41
1
10
-0.484524151203374
20
-6.3868168818706
30
0
41
1
10
-0.511419954277358
20
-6.39702622866628
30
0
41
1
10
-0.560078773491597
20
-6.40490957850619
30
0
41
1
10
-0.58185248496946
20
-6.40512642059926
30
0
41
1
10
-0.623683911276856
20
-6.39912423041605
30
0
41
1
10
-0.644207278837683
20
-6.39293597600829
30
0
41
1
10
-0.694134540330907
20
-6.37121870092642
30
0
41
1
10
-0.722113964046542
20
-6.35215911803172
30
0
41
1
10
-0.796598131612939
20
-6.28903777408343
30
0
41
1
10
-0.836555557792792
20
-6.23798237717094
30
0
41
1
10
-0.997773060879837
20
-5.995390913813
30
0
41
1
10
-1.07178904300878
20
-5.77805690787602
30
0
41
1
10
-1.20827315239353
20
-5.31693201445015
30
0
41
1
10
-1.26212533694985
20
-5.06551762472202
30
0
41
1
10
-1.30710678118655
20
-4.81101321788441
30
0
0
SPLINE
5
1D8
100
AcDbEntity
8
SK1
62
256
6
ByLayer
370
18
48
1
60
0
100
AcDbSpline
70
4
71
3
72
22
73
18
40
0
40
0
40
0
40
0
40
0.025518692999354
40
0.025518692999354
40
0.0515625307794633
40
0.0515625307794633
40
0.0689220502117165
40
0.0689220502117165
40
0.0862030429090035
40
0.0862030429090035
40
0.113761926258803
40
0.113761926258803
40
0.167639902693809
40
0.167639902693809
40
0.357269752158031
40
0.357269752158031
40
1
40
1
40
1
40
1
41
1
10
-0.394976888875277
20
6.326943090669
30
0
41
1
10
-0.389699799773268
20
6.32229605774103
30
0
41
1
10
-0.38394554029108
20
6.31808234313019
30
0
41
1
10
-0.371336208800898
20
6.31155719556298
30
0
41
1
10
-0.364237316839024
20
6.30923328231674
30
0
41
1
10
-0.35209572007625
20
6.30844589498398
30
0
41
1
10
-0.347038791108759
20
6.3089739150856
30
0
41
1
10
-0.337436838154161
20
6.31166640764118
30
0
41
1
10
-0.332782752688161
20
6.31383711710231
30
0
41
1
10
-0.321723955926899
20
6.32078578121266
30
0
41
1
10
-0.315689795621665
20
6.32640446307903
30
0
41
1
10
-0.300083216036057
20
6.3442802085479
30
0
41
1
10
-0.292057158925616
20
6.35806878925098
30
0
41
1
10
-0.261294067338724
20
6.42092251611513
30
0
41
1
10
-0.248999237994838
20
6.47445017323312
30
0
41
1
10
-0.204624309665832
20
6.70435570668306
30
0
41
1
10
-0.200000000000955
20
6.88379158154922
30
0
41
1
10
-0.200000000000955
20
7.05951756777668
30
0
0
SPLINE
5
1D9
100
AcDbEntity
8
1
62
256
6
ByLayer
370
18
48
1
60
0
100
AcDbSpline
70
4
71
3
72
12
73
8
40
0
40
0
40
0
40
0
40
0.392678099449925
40
0.392678099449925
40
0.791279335966125
40
0.791279335966125
40
1
40
1
40
1
40
1
41
1
10
34.7276501914627
20
1.34684207617778
30
0
41
1
10
34.708723071934
20
1.35241846154744
30
0
41
1
10
34.688788089255
20
1.35718749390725
30
0
41
1
10
34.6496130861003
20
1.36394974474012
30
0
41
1
10
34.6299172036829
20
1.36596133018472
30
0
41
1
10
34.6025241708318
20
1.36677965043003
30
0
41
1
10
34.5934048107281
20
1.36667207065364
30
0
41
1
10
34.5847708940765
20
1.36622834764623
30
0
0
SPLINE
5
1DA
100
AcDbEntity
8
1
62
256
6
ByLayer
370
18
48
1
60
0
100
AcDbSpline
70
4
71
3
72
14
73
10
40
0
40
0
40
0
40
0
40
0.0829586012802597
40
0.0829586012802597
40
0.459195015075151
40
0.459195015075151
40
0.835474799669123
40
0.835474799669123
40
1
40
1
40
1
40
1
41
1
10
35.7512824315992
20
1.86420529057665
30
0
41
1
10
35.7480732160598
20
1.86154903168193
30
0
41
1
10
35.7448927028519
20
1.85882151201085
30
0
41
1
10
35.7276163979405
20
1.84344274817806
30
0
41
1
10
35.7140845904231
20
1.82919915834853
30
0
41
1
10
35.6907312213639
20
1.79918608637689
30
0
41
1
10
35.6806578390126
20
1.78307667871107
30
0
41
1
10
35.6693378649447
20
1.76025775740914
30
0
41
1
10
35.6662605802704
20
1.75328110824842
30
0
41
1
10
35.6635524844857
20
1.74637328334452
30
0
0
SPLINE
5
1DB
100
AcDbEntity
8
1
62
256
6
ByLayer
370
18
48
1
60
0
100
AcDbSpline
70
4
71
3
72
14
73
10
40
0
40
0
40
0
40
0
40
0.082958601280341
40
0.082958601280341
40
0.459195015075139
40
0.459195015075139
40
0.835474799669028
40
0.835474799669028
40
1
40
1
40
1
40
1
41
1
10
33.8581687992267
20
3.1741025702398
30
0
41
1
10
33.8605974358143
20
3.17675882913451
30
0
41
1
10
33.8630485564048
20
3.1794863488056
30
0
41
1
10
33.8766264232453
20
3.19486511263841
30
0
41
1
10
33.8882919576889
20
3.20910870246792
30
0
41
1
10
33.9110033842589
20
3.23912177443955
30
0
41
1
10
33.9223022780617
20
3.25523118210538
30
0
41
1
10
33.9372256763107
20
3.27805010340731
30
0
41
1
10
33.9416472809357
20
3.28502675256803
30
0
41
1
10
33.9458987463399
20
3.29193457747195
30
0
0
SPLINE
5
1DC
100
AcDbEntity
8
1
62
256
6
ByLayer
370
18
48
1
60
0
100
AcDbSpline
70
4
71
3
72
14
73
10
40
0
40
0
40
0
40
0
40
0.164525200330971
40
0.164525200330971
40
0.540804984924857
40
0.540804984924857
40
0.917041398719694
40
0.917041398719694
40
1
40
1
40
1
40
1
41
1
10
33.7810933752773
20
2.00179071600974
30
0
41
1
10
33.7786952495897
20
2.00939136763842
30
0
41
1
10
33.7761534571664
20
2.01713042924101
30
0
41
1
10
33.7674077083609
20
2.0426719251773
30
0
41
1
10
33.7605185077546
20
2.0610828645838
30
0
41
1
10
33.7461291042863
20
2.09621698381403
30
0
41
1
10
33.7384698662938
20
2.11333583526977
30
0
41
1
10
33.7292797492025
20
2.13230563889022
30
0
41
1
10
33.7276095400251
20
2.1356913184396
30
0
41
1
10
33.7259440250018
20
2.13900899471076
30
0
0
SPLINE
5
1DD
100
AcDbEntity
8
1
62
256
6
ByLayer
370
18
48
1
60
0
100
AcDbSpline
70
4
71
3
72
14
73
10
40
0
40
0
40
0
40
0
40
0.164525200330953
40
0.164525200330953
40
0.540804984924866
40
0.540804984924866
40
0.917041398719721
40
0.917041398719721
40
1
40
1
40
1
40
1
41
1
10
35.8283578555482
20
3.03651714480671
30
0
41
1
10
35.8292126116164
20
3.02891649317806
30
0
41
1
10
35.830410084089
20
3.02117743157547
30
0
41
1
10
35.8355524087135
20
2.99563593563917
30
0
41
1
10
35.8412160978682
20
2.97722499623265
30
0
41
1
10
35.8562474438256
20
2.94209087700244
30
0
41
1
10
35.865772954892
20
2.92497202554668
30
0
41
1
10
35.8786615100542
20
2.90600222192626
30
0
41
1
10
35.881061111849
20
2.90261654237688
30
0
41
1
10
35.8835072058242
20
2.89929886610571
30
0
0
SPLINE
5
1DE
100
AcDbEntity
8
1
62
256
6
ByLayer
370
18
48
1
60
0
100
AcDbSpline
70
4
71
3
72
12
73
8
40
0
40
0
40
0
40
0
40
0.392678099452517
40
0.392678099452517
40
0.791279335968761
40
0.791279335968761
40
1
40
1
40
1
40
1
41
1
10
34.8818010393642
20
3.69146578463869
30
0
41
1
10
34.8970637710973
20
3.68588939926897
30
0
41
1
10
34.9144636706622
20
3.68112036690914
30
0
41
1
10
34.9518624163366
20
3.67435811607626
30
0
41
1
10
34.9723725191022
20
3.6723465306317
30
0
41
1
10
35.0033150207359
20
3.67152821038641
30
0
41
1
10
35.0140789598709
20
3.67163579016284
30
0
41
1
10
35.0246803367503
20
3.67207951317025
30
0
0
INSERT
5
1F0
100
AcDbEntity
8
2
62
256
6
ByLayer
370
25
48
1
60
0
100
AcDbBlockReference
2
DimnDraft3D11
10
0
20
0
30
0
41
1
42
1
43
1
50
0
210
0
220
0
230
1
0
LINE
5
72
100
AcDbEntity
8
1
62
256
6
ByLayer
370
18
48
1
60
0
100
AcDbLine
10
11.297474
20
-19.453007
30
0
11
12.544319
21
-19.041629
31
0
39
0
210
0
220
0
230
1
0
LINE
5
74
100
AcDbEntity
8
1
62
256
6
ByLayer
370
18
48
1
60
0
100
AcDbLine
10
19.266784
20
-16.82365
30
0
11
27.630369
21
-14.064209
31
0
39
0
210
0
220
0
230
1
0
LINE
5
75
100
AcDbEntity
8
1
62
256
6
ByLayer
370
18
48
1
60
0
100
AcDbLine
10
27.718624
20
-13.973693
30
0
11
27.861701
21
-13.670208
31
0
39
0
210
0
220
0
230
1
0
LINE
5
76
100
AcDbEntity
8
1
62
256
6
ByLayer
370
18
48
1
60
0
100
AcDbLine
10
26.672131
20
-10.064741
30
0
11
26.376545
21
-9.905987
31
0
39
0
210
0
220
0
230
1
0
LINE
5
77
100
AcDbEntity
8
1
62
256
6
ByLayer
370
18
48
1
60
0
100
AcDbLine
10
28.90171
20
10.340233
30
0
11
27.949266
21
10.38263
31
0
39
0
210
0
220
0
230
1
0
LINE
5
78
100
AcDbEntity
8
1
62
256
6
ByLayer
370
18
48
1
60
0
100
AcDbLine
10
0.3
20
-31.5
30
0
11
22.920792
21
-31.5
31
0
39
0
210
0
220
0
230
1
0
LINE
5
79
100
AcDbEntity
8
1
62
256
6
ByLayer
370
18
48
1
60
0
100
AcDbLine
10
22.920792
20
31.5
30
0
11
0.3
21
31.5
31
0
39
0
210
0
220
0
230
1
0
LINE
5
7A
100
AcDbEntity
8
1
62
256
6
ByLayer
370
18
48
1
60
0
100
AcDbLine
10
0.3
20
31.5
30
0
11
0
21
31.2
31
0
39
0
210
0
220
0
230
1
0
LINE
5
7B
100
AcDbEntity
8
1
62
256
6
ByLayer
370
18
48
1
60
0
100
AcDbLine
10
0
20
-31.2
30
0
11
0.3
21
-31.5
31
0
39
0
210
0
220
0
230
1
0
LINE
5
7C
100
AcDbEntity
8
1
62
256
6
ByLayer
370
18
48
1
60
0
100
AcDbLine
10
22.920792
20
-31.5
30
0
11
22.960745
21
-31.649105
31
0
39
0
210
0
220
0
230
1
0
LINE
5
7D
100
AcDbEntity
8
1
62
256
6
ByLayer
370
18
48
1
60
0
100
AcDbLine
10
22.957297
20
31.636238
30
0
11
22.920792
21
31.5
31
0
39
0
210
0
220
0
230
1
0
LINE
5
7E
100
AcDbEntity
8
1
62
256
6
ByLayer
370
18
48
1
60
0
100
AcDbLine
10
34.006383
20
-1.480846
30
0
11
34.59503
21
-1.480846
31
0
39
0
210
0
220
0
230
1
0
LINE
5
7F
100
AcDbEntity
8
1
62
256
6
ByLayer
370
18
48
1
60
0
100
AcDbLine
10
34.59503
20
6.519154
30
0
11
34.006383
21
6.519154
31
0
39
0
210
0
220
0
230
1
0
LINE
5
80
100
AcDbEntity
8
1
62
256
6
ByLayer
370
18
48
1
60
0
100
AcDbLine
10
34.601708
20
1.366654
30
0
11
34.058889
21
1.366654
31
0
39
0
210
0
220
0
230
1
0
LINE
5
81
100
AcDbEntity
8
1
62
256
6
ByLayer
370
18
48
1
60
0
100
AcDbLine
10
34.461914
20
3.671654
30
0
11
35.004733
21
3.671654
31
0
39
0
210
0
220
0
230
1
0
LINE
5
82
100
AcDbEntity
8
1
62
256
6
ByLayer
370
18
48
1
60
0
100
AcDbLine
10
50.271599
20
-4.955102
30
0
11
51.423752
21
-4.955102
31
0
39
0
210
0
220
0
230
1
0
LINE
5
83
100
AcDbEntity
8
1
62
256
6
ByLayer
370
18
48
1
60
0
100
AcDbLine
10
24.734819
20
31.65
30
0
11
22.961599
21
31.65
31
0
39
0
210
0
220
0
230
1
0
LINE
5
84
100
AcDbEntity
8
1
62
256
6
ByLayer
370
18
48
1
60
0
100
AcDbLine
10
22.961025
20
-31.65
30
0
11
24.734817
21
-31.65
31
0
39
0
210
0
220
0
230
1
0
LINE
5
85
100
AcDbEntity
8
1
62
256
6
ByLayer
370
18
48
1
60
0
100
AcDbLine
10
29.03136
20
5.825453
30
0
11
29.868733
21
5.788179
31
0
39
0
210
0
220
0
230
1
0
LINE
5
86
100
AcDbEntity
8
1
62
256
6
ByLayer
370
18
48
1
60
0
100
AcDbLine
10
51.423752
20
4.955098
30
0
11
50.271599
21
4.955098
31
0
39
0
210
0
220
0
230
1
0
LINE
5
87
100
AcDbEntity
8
80
62
256
6
ByLayer
370
18
48
1
60
0
100
AcDbLine
10
0
20
0
30
0
11
-5
21
0
31
0
39
0
210
0
220
0
230
1
0
LINE
5
88
100
AcDbEntity
8
4
62
256
6
ByLayer
370
18
48
0.05
60
0
100
AcDbLine
10
0
20
0
30
0
11
65
21
0
31
0
39
0
210
0
220
0
230
1
0
LINE
5
8A
100
AcDbEntity
8
81
62
256
6
ByLayer
370
18
48
1
60
0
100
AcDbLine
10
65
20
0.582
30
0
11
75
21
0.582
31
0
39
0
210
0
220
0
230
1
0
LINE
5
8B
100
AcDbEntity
8
SK4
62
256
6
ByLayer
370
18
48
0.05
60
0
100
AcDbLine
10
-43
20
0
30
0
11
65
21
0
31
0
39
0
210
0
220
0
230
1
0
LINE
5
8D
100
AcDbEntity
8
1
62
256
6
ByLayer
370
18
48
1
60
0
100
AcDbLine
10
26.259147
20
-9.883608
30
0
11
19.223552
21
-12.204899
31
0
39
0
210
0
220
0
230
1
0
LINE
5
8E
100
AcDbEntity
8
1
62
256
6
ByLayer
370
18
48
1
60
0
100
AcDbLine
10
33.362758
20
6.786973
30
0
11
35.194238
21
6.537377
31
0
39
0
210
0
220
0
230
1
0
LINE
5
8F
100
AcDbEntity
8
1
62
256
6
ByLayer
370
18
48
1
60
0
100
AcDbLine
10
27.323438
20
-3.959223
30
0
11
26.456746
21
-3.920644
31
0
39
0
210
0
220
0
230
1
0
LINE
5
90
100
AcDbEntity
8
1
62
256
6
ByLayer
370
18
48
1
60
0
100
AcDbLine
10
31.98276
20
9.932844
30
0
11
31.990451
21
9.993051
31
0
39
0
210
0
220
0
230
1
0
LINE
5
91
100
AcDbEntity
8
1
62
256
6
ByLayer
370
18
48
1
60
0
100
AcDbLine
10
22.920792
20
-30.4031
30
0
11
22.920792
21
-31.5
31
0
39
0
210
0
220
0
230
1
0
LINE
5
92
100
AcDbEntity
8
1
62
256
6
ByLayer
370
18
48
1
60
0
100
AcDbLine
10
22.920792
20
31.5
30
0
11
22.920792
21
30.4031
31
0
39
0
210
0
220
0
230
1
0
LINE
5
93
100
AcDbEntity
8
1
62
256
6
ByLayer
370
18
48
1
60
0
100
AcDbLine
10
0.3
20
-31.5
30
0
11
0.3
21
31.5
31
0
39
0
210
0
220
0
230
1
0
LINE
5
94
100
AcDbEntity
8
1
62
256
6
ByLayer
370
18
48
1
60
0
100
AcDbLine
10
0
20
-31.2
30
0
11
0
21
31.2
31
0
39
0
210
0
220
0
230
1
0
LINE
5
95
100
AcDbEntity
8
SK1
62
256
6
ByLayer
370
18
48
1
60
0
100
AcDbLine
10
-0.2
20
7.059518
30
0
11
-0.2
21
22.533485
31
0
39
0
210
0
220
0
230
1
0
LINE
5
97
100
AcDbEntity
8
SK1
62
256
6
ByLayer
370
18
48
1
60
0
100
AcDbLine
10
-0.2
20
-22.533485
30
0
11
-0.2
21
-7.059517
31
0
39
0
210
0
220
0
230
1
0
LINE
5
98
100
AcDbEntity
8
1
62
256
6
ByLayer
370
18
48
1
60
0
100
AcDbLine
10
19.637791
20
5.010177
30
0
11
19.731361
21
5.742666
31
0
39
0
210
0
220
0
230
1
0
LINE
5
99
100
AcDbEntity
8
1
62
256
6
ByLayer
370
18
48
1
60
0
100
AcDbLine
10
20.103844
20
-18.647161
30
0
11
19.479064
21
-16.753516
31
0
39
0
210
0
220
0
230
1
0
LINE
5
9A
100
AcDbEntity
8
1
62
256
6
ByLayer
370
18
48
1
60
0
100
AcDbLine
10
23.707119
20
-7.123751
30
0
11
23.707119
21
-10.725809
31
0
39
0
210
0
220
0
230
1
0
LINE
5
9B
100
AcDbEntity
8
1
62
256
6
ByLayer
370
18
48
1
60
0
100
AcDbLine
10
23.707119
20
-15.358923
30
0
11
23.707119
21
-30.724458
31
0
39
0
210
0
220
0
230
1
0
LINE
5
9C
100
AcDbEntity
8
1
62
256
6
ByLayer
370
18
48
1
60
0
100
AcDbLine
10
49.24359
20
4.453777
30
0
11
49.96012
21
4.686614
31
0
39
0
210
0
220
0
230
1
0
LINE
5
9D
100
AcDbEntity
8
1
62
256
6
ByLayer
370
18
48
1
60
0
100
AcDbLine
10
47.460047
20
-3.886905
30
0
11
49.993876
21
-4.697766
31
0
39
0
210
0
220
0
230
1
0
LINE
5
9E
100
AcDbEntity
8
1
62
256
6
ByLayer
370
18
48
1
60
0
100
AcDbLine
10
32.883285
20
-4.788291
30
0
11
32.883285
21
-12.026264
31
0
39
0
210
0
220
0
230
1
0
LINE
5
9F
100
AcDbEntity
8
1
62
256
6
ByLayer
370
18
48
1
60
0
100
AcDbLine
10
32.883285
20
12.02626
30
0
11
32.883285
21
9.871846
31
0
39
0
210
0
220
0
230
1
0
LINE
5
A0
100
AcDbEntity
8
1
62
256
6
ByLayer
370
18
48
1
60
0
100
AcDbLine
10
26.336604
20
-3.903133
30
0
11
26.045244
21
-5.510476
31
0
39
0
210
0
220
0
230
1
0
LINE
5
A1
100
AcDbEntity
8
1
62
256
6
ByLayer
370
18
48
1
60
0
100
AcDbLine
10
29.229371
20
12.055374
30
0
11
28.918312
21
10.339356
31
0
39
0
210
0
220
0
230
1
0
LINE
5
A2
100
AcDbEntity
8
1
62
256
6
ByLayer
370
18
48
1
60
0
100
AcDbLine
10
23.318637
20
-2.702551
30
0
11
23.453725
21
-1.645047
31
0
39
0
210
0
220
0
230
1
0
LINE
5
A3
100
AcDbEntity
8
1
62
256
6
ByLayer
370
18
48
1
60
0
100
AcDbLine
10
24.796008
20
8.862737
30
0
11
24.921753
21
9.847101
31
0
39
0
210
0
220
0
230
1
0
LINE
5
A4
100
AcDbEntity
8
1
62
256
6
ByLayer
370
18
48
1
60
0
100
AcDbLine
10
49.38734
20
4.36726
30
0
11
49.865166
21
4.52253
31
0
39
0
210
0
220
0
230
1
0
LINE
5
A5
100
AcDbEntity
8
1
62
256
6
ByLayer
370
18
48
1
60
0
100
AcDbLine
10
47.698094
20
-3.933936
30
0
11
47.510206
21
-3.87381
31
0
39
0
210
0
220
0
230
1
0
LINE
5
A6
100
AcDbEntity
8
1
62
256
6
ByLayer
370
18
48
1
60
0
100
AcDbLine
10
33.808625
20
1.248837
30
0
11
34.318231
21
1.248837
31
0
39
0
210
0
220
0
230
1
0
LINE
5
A7
100
AcDbEntity
8
1
62
256
6
ByLayer
370
18
48
1
60
0
100
AcDbLine
10
51.192157
20
-4.918364
30
0
11
47.769133
21
-3.806049
31
0
39
0
210
0
220
0
230
1
0
LINE
5
A8
100
AcDbEntity
8
1
62
256
6
ByLayer
370
18
48
1
60
0
100
AcDbLine
10
49.424318
20
4.3439
30
0
11
51.192157
21
4.918361
31
0
39
0
210
0
220
0
230
1
0
LINE
5
A9
100
AcDbEntity
8
1
62
256
6
ByLayer
370
18
48
1
60
0
100
AcDbLine
10
49.902739
20
4.873757
30
0
11
50.040004
21
4.918361
31
0
39
0
210
0
220
0
230
1
0
LINE
5
AA
100
AcDbEntity
8
1
62
256
6
ByLayer
370
18
48
1
60
0
100
AcDbLine
10
50.040004
20
-4.918364
30
0
11
49.937355
21
-4.885009
31
0
39
0
210
0
220
0
230
1
0
LINE
5
AB
100
AcDbEntity
8
1
62
256
6
ByLayer
370
18
48
1
60
0
100
AcDbLine
10
26.043898
20
-0.64593
30
0
11
23.390664
21
-0.527825
31
0
39
0
210
0
220
0
230
1
0
LINE
5
AC
100
AcDbEntity
8
1
62
256
6
ByLayer
370
18
48
1
60
0
100
AcDbLine
10
24.218676
20
1.030649
30
0
11
25.112067
21
0.990881
31
0
39
0
210
0
220
0
230
1
0
LINE
5
AD
100
AcDbEntity
8
1
62
256
6
ByLayer
370
18
48
1
60
0
100
AcDbLine
10
24.773056
20
6.054493
30
0
11
24.152476
21
1.196413
31
0
39
0
210
0
220
0
230
1
0
LINE
5
AE
100
AcDbEntity
8
1
62
256
6
ByLayer
370
18
48
1
60
0
100
AcDbLine
10
34.017974
20
6.769888
30
0
11
35.993989
21
6.501777
31
0
39
0
210
0
220
0
230
1
0
LINE
5
AF
100
AcDbEntity
8
1
62
256
6
ByLayer
370
18
48
1
60
0
100
AcDbLine
10
27.072585
20
6.080712
30
0
11
26.41401
21
0.925199
31
0
39
0
210
0
220
0
230
1
0
LINE
5
B0
100
AcDbEntity
8
1
62
256
6
ByLayer
370
18
48
1
60
0
100
AcDbLine
10
30.231095
20
-4.353742
30
0
11
30.15818
21
-4.350497
31
0
39
0
210
0
220
0
230
1
0
LINE
5
B1
100
AcDbEntity
8
1
62
256
6
ByLayer
370
18
48
1
60
0
100
AcDbLine
10
24.773056
20
6.054493
30
0
11
25.55924
21
6.019497
31
0
39
0
210
0
220
0
230
1
0
LINE
5
B2
100
AcDbEntity
8
1
62
256
6
ByLayer
370
18
48
1
60
0
100
AcDbLine
10
34.017974
20
6.769888
30
0
11
33.231105
21
6.804915
31
0
39
0
210
0
220
0
230
1
0
LINE
5
B3
100
AcDbEntity
8
1
62
256
6
ByLayer
370
18
48
1
60
0
100
AcDbLine
10
28.651014
20
-4.146
30
0
11
30.15818
21
-4.350497
31
0
39
0
210
0
220
0
230
1
0
LINE
5
B4
100
AcDbEntity
8
1
62
256
6
ByLayer
370
18
48
1
60
0
100
AcDbLine
10
32.054841
20
9.923064
30
0
11
29.147183
21
10.317583
31
0
39
0
210
0
220
0
230
1
0
LINE
5
B5
100
AcDbEntity
8
1
62
256
6
ByLayer
370
18
48
1
60
0
100
AcDbLine
10
29.557296
20
5.813638
30
0
11
28.777669
21
5.848341
31
0
39
0
210
0
220
0
230
1
0
LINE
5
B6
100
AcDbEntity
8
1
62
256
6
ByLayer
370
18
48
1
60
0
100
AcDbLine
10
23.390664
20
-0.527825
30
0
11
24.454516
21
7.800312
31
0
39
0
210
0
220
0
230
1
0
LINE
5
B7
100
AcDbEntity
8
1
62
256
6
ByLayer
370
18
48
1
60
0
100
AcDbLine
10
35.993989
20
6.501777
30
0
11
35.194238
21
6.537377
31
0
39
0
210
0
220
0
230
1
0
LINE
5
B8
100
AcDbEntity
8
1
62
256
6
ByLayer
370
18
48
1
60
0
100
AcDbLine
10
30.15818
20
-4.350497
30
0
11
30.149654
21
-4.417239
31
0
39
0
210
0
220
0
230
1
0
LINE
5
B9
100
AcDbEntity
8
1
62
256
6
ByLayer
370
18
48
1
60
0
100
AcDbLine
10
28.992195
20
9.378452
30
0
11
36.387237
21
8.375072
31
0
39
0
210
0
220
0
230
1
0
LINE
5
BA
100
AcDbEntity
8
1
62
256
6
ByLayer
370
18
48
1
60
0
100
AcDbLine
10
24.218676
20
1.030649
30
0
11
24.152476
21
1.196413
31
0
39
0
210
0
220
0
230
1
0
LINE
5
BB
100
AcDbEntity
8
1
62
256
6
ByLayer
370
18
48
1
60
0
100
AcDbLine
10
28.777669
20
5.848341
30
0
11
27.072585
21
6.080712
31
0
39
0
210
0
220
0
230
1
0
LINE
5
BC
100
AcDbEntity
8
1
62
256
6
ByLayer
370
18
48
1
60
0
100
AcDbLine
10
35.712401
20
9.488047
30
0
11
31.990451
21
9.993051
31
0
39
0
210
0
220
0
230
1
0
LINE
5
BD
100
AcDbEntity
8
1
62
256
6
ByLayer
370
18
48
1
60
0
100
AcDbLine
10
30.231095
20
-4.353742
30
0
11
30.149654
21
-4.417239
31
0
39
0
210
0
220
0
230
1
0
LINE
5
BE
100
AcDbEntity
8
1
62
256
6
ByLayer
370
18
48
1
60
0
100
AcDbLine
10
25.112067
20
0.990881
30
0
11
24.938659
21
1.161417
31
0
39
0
210
0
220
0
230
1
0
LINE
5
BF
100
AcDbEntity
8
1
62
256
6
ByLayer
370
18
48
1
60
0
100
AcDbLine
10
33.871604
20
-4.922244
30
0
11
30.149654
21
-4.417239
31
0
39
0
210
0
220
0
230
1
0
LINE
5
C0
100
AcDbEntity
8
1
62
256
6
ByLayer
370
18
48
1
60
0
100
AcDbLine
10
28.651014
20
-4.146
30
0
11
26.555066
21
-3.930864
31
0
39
0
210
0
220
0
230
1
0
LINE
5
C1
100
AcDbEntity
8
1
62
256
6
ByLayer
370
18
48
1
60
0
100
AcDbLine
10
27.435745
20
-2.805888
30
0
11
34.830787
21
-3.809269
31
0
39
0
210
0
220
0
230
1
0
LINE
5
C2
100
AcDbEntity
8
1
62
256
6
ByLayer
370
18
48
1
60
0
100
AcDbLine
10
25.770642
20
6.146395
30
0
11
25.112067
21
0.990881
31
0
39
0
210
0
220
0
230
1
0
LINE
5
C3
100
AcDbEntity
8
1
62
256
6
ByLayer
370
18
48
1
60
0
100
AcDbLine
10
25.770642
20
6.146395
30
0
11
25.55924
21
6.019497
31
0
39
0
210
0
220
0
230
1
0
LINE
5
C4
100
AcDbEntity
8
1
62
256
6
ByLayer
370
18
48
1
60
0
100
AcDbLine
10
24.877251
20
6.186162
30
0
11
25.770642
21
6.146395
31
0
39
0
210
0
220
0
230
1
0
LINE
5
C5
100
AcDbEntity
8
1
62
256
6
ByLayer
370
18
48
1
60
0
100
AcDbLine
10
31.990451
20
9.993051
30
0
11
32.054841
21
9.923064
31
0
39
0
210
0
220
0
230
1
0
LINE
5
C6
100
AcDbEntity
8
1
62
256
6
ByLayer
370
18
48
1
60
0
100
AcDbLine
10
27.323438
20
-3.959223
30
0
11
30.231095
21
-4.353742
31
0
39
0
210
0
220
0
230
1
0
LINE
5
C7
100
AcDbEntity
8
1
62
256
6
ByLayer
370
18
48
1
60
0
100
AcDbLine
10
24.877251
20
6.186162
30
0
11
24.773056
21
6.054493
31
0
39
0
210
0
220
0
230
1
0
LINE
5
C8
100
AcDbEntity
8
1
62
256
6
ByLayer
370
18
48
1
60
0
100
AcDbLine
10
25.55924
20
6.019497
30
0
11
24.938659
21
1.161417
31
0
39
0
210
0
220
0
230
1
0
LINE
5
C9
100
AcDbEntity
8
1
62
256
6
ByLayer
370
18
48
1
60
0
100
AcDbLine
10
27.107749
20
7.682207
30
0
11
26.043898
21
-0.64593
31
0
39
0
210
0
220
0
230
1
0
LINE
5
CA
100
AcDbEntity
8
1
62
256
6
ByLayer
370
18
48
1
60
0
100
AcDbLine
10
34.942802
20
-1.727215
30
0
11
32.966787
21
-1.459104
31
0
39
0
210
0
220
0
230
1
0
LINE
5
CB
100
AcDbEntity
8
1
62
256
6
ByLayer
370
18
48
1
60
0
100
AcDbLine
10
24.152476
20
1.196413
30
0
11
24.938659
21
1.161417
31
0
39
0
210
0
220
0
230
1
0
LINE
5
CC
100
AcDbEntity
8
1
62
256
6
ByLayer
370
18
48
1
60
0
100
AcDbLine
10
27.107749
20
7.682207
30
0
11
24.454516
21
7.800312
31
0
39
0
210
0
220
0
230
1
0
LINE
5
CD
100
AcDbEntity
8
1
62
256
6
ByLayer
370
18
48
1
60
0
100
AcDbLine
10
51.157097
20
-0.231839
30
0
11
51.47548
21
-0.231839
31
0
39
0
210
0
220
0
230
1
0
LINE
5
CE
100
AcDbEntity
8
1
62
256
6
ByLayer
370
18
48
1
60
0
100
AcDbLine
10
10.538675
20
-30.080593
30
0
11
10.538675
21
-21.369494
31
0
39
0
210
0
220
0
230
1
0
LINE
5
CF
100
AcDbEntity
8
1
62
256
6
ByLayer
370
18
48
1
60
0
100
AcDbLine
10
10.538675
20
-30.080593
30
0
11
13.461325
21
-30.080593
31
0
39
0
210
0
220
0
230
1
0
LINE
5
D0
100
AcDbEntity
8
1
62
256
6
ByLayer
370
18
48
1
60
0
100
AcDbLine
10
10.105662
20
9.869413
30
0
11
10.105662
21
29.913955
31
0
39
0
210
0
220
0
230
1
0
LINE
5
D1
100
AcDbEntity
8
1
62
256
6
ByLayer
370
18
48
1
60
0
100
AcDbLine
10
49.993876
20
-4.697766
30
0
11
49.898226
21
-4.533457
31
0
39
0
210
0
220
0
230
1
0
LINE
5
D2
100
AcDbEntity
8
1
62
256
6
ByLayer
370
18
48
1
60
0
100
AcDbLine
10
41.948699
20
2.054248
30
0
11
45.650249
21
3.257072
31
0
39
0
210
0
220
0
230
1
0
LINE
5
D3
100
AcDbEntity
8
1
62
256
6
ByLayer
370
18
48
1
60
0
100
AcDbLine
10
24.908989
20
-30.724458
30
0
11
23.707119
21
-30.724458
31
0
39
0
210
0
220
0
230
1
0
LINE
5
D4
100
AcDbEntity
8
1
62
256
6
ByLayer
370
18
48
1
60
0
100
AcDbLine
10
13.894338
20
9.869413
30
0
11
13.894338
21
29.913955
31
0
39
0
210
0
220
0
230
1
0
LINE
5
D5
100
AcDbEntity
8
1
62
256
6
ByLayer
370
18
48
1
60
0
100
AcDbLine
10
13.894338
20
-20.132452
30
0
11
13.894338
21
-9.869413
31
0
39
0
210
0
220
0
230
1
0
LINE
5
D6
100
AcDbEntity
8
1
62
256
6
ByLayer
370
18
48
1
60
0
100
AcDbLine
10
13.461325
20
-9.349221
30
0
11
10.538675
21
-9.349221
31
0
39
0
210
0
220
0
230
1
0
LINE
5
D7
100
AcDbEntity
8
1
62
256
6
ByLayer
370
18
48
1
60
0
100
AcDbLine
10
10.538675
20
9.349221
30
0
11
10.538675
21
30.080593
31
0
39
0
210
0
220
0
230
1
0
LINE
5
D8
100
AcDbEntity
8
1
62
256
6
ByLayer
370
18
48
1
60
0
100
AcDbLine
10
10.105662
20
-20.132452
30
0
11
10.105662
21
-9.869413
31
0
39
0
210
0
220
0
230
1
0
LINE
5
D9
100
AcDbEntity
8
1
62
256
6
ByLayer
370
18
48
1
60
0
100
AcDbLine
10
13.461325
20
30.080593
30
0
11
10.538675
21
30.080593
31
0
39
0
210
0
220
0
230
1
0
LINE
5
DA
100
AcDbEntity
8
1
62
256
6
ByLayer
370
18
48
1
60
0
100
AcDbLine
10
23.474799
20
9.354638
30
0
11
22.044655
21
-1.840936
31
0
39
0
210
0
220
0
230
1
0
LINE
5
DB
100
AcDbEntity
8
1
62
256
6
ByLayer
370
18
48
1
60
0
100
AcDbLine
10
23.707119
20
30.724458
30
0
11
24.908989
21
30.724458
31
0
39
0
210
0
220
0
230
1
0
LINE
5
DC
100
AcDbEntity
8
1
62
256
6
ByLayer
370
18
48
1
60
0
100
AcDbLine
10
19.599927
20
2.035479
30
0
11
19.556433
21
-2.813515
31
0
39
0
210
0
220
0
230
1
0
LINE
5
DD
100
AcDbEntity
8
1
62
256
6
ByLayer
370
18
48
1
60
0
100
AcDbLine
10
19.72234
20
-5.682861
30
0
11
19.72234
21
-11.934743
31
0
39
0
210
0
220
0
230
1
0
LINE
5
DE
100
AcDbEntity
8
1
62
256
6
ByLayer
370
18
48
1
60
0
100
AcDbLine
10
10.538675
20
-19.43724
30
0
11
10.538675
21
-9.349221
31
0
39
0
210
0
220
0
230
1
0
LINE
5
DF
100
AcDbEntity
8
1
62
256
6
ByLayer
370
18
48
1
60
0
100
AcDbLine
10
48.286613
20
-4.017718
30
0
11
49.898226
21
-4.533457
31
0
39
0
210
0
220
0
230
1
0
LINE
5
E0
100
AcDbEntity
8
1
62
256
6
ByLayer
370
18
48
1
60
0
100
AcDbLine
10
49.993876
20
-4.697766
30
0
11
49.927012
21
-4.919695
31
0
39
0
210
0
220
0
230
1
0
LINE
5
E1
100
AcDbEntity
8
1
62
256
6
ByLayer
370
18
48
1
60
0
100
AcDbLine
10
32.119387
20
-12.259966
30
0
11
32.883285
21
-12.026264
31
0
39
0
210
0
220
0
230
1
0
LINE
5
E2
100
AcDbEntity
8
1
62
256
6
ByLayer
370
18
48
1
60
0
100
AcDbLine
10
23.707119
20
30.724458
30
0
11
23.707119
21
13.660472
31
0
39
0
210
0
220
0
230
1
0
LINE
5
E3
100
AcDbEntity
8
1
62
256
6
ByLayer
370
18
48
1
60
0
100
AcDbLine
10
24.908989
20
-30.724458
30
0
11
24.908989
21
-22.024456
31
0
39
0
210
0
220
0
230
1
0
LINE
5
E4
100
AcDbEntity
8
1
62
256
6
ByLayer
370
18
48
1
60
0
100
AcDbLine
10
20.439955
20
-11.697977
30
0
11
19.72234
21
-11.934743
31
0
39
0
210
0
220
0
230
1
0
LINE
5
E5
100
AcDbEntity
8
1
62
256
6
ByLayer
370
18
48
1
60
0
100
AcDbLine
10
13.894338
20
-29.913955
30
0
11
13.894338
21
-21.040182
31
0
39
0
210
0
220
0
230
1
0
LINE
5
E6
100
AcDbEntity
8
1
62
256
6
ByLayer
370
18
48
1
60
0
100
AcDbLine
10
49.96012
20
4.686614
30
0
11
49.884069
21
4.935202
31
0
39
0
210
0
220
0
230
1
0
LINE
5
E7
100
AcDbEntity
8
1
62
256
6
ByLayer
370
18
48
1
60
0
100
AcDbLine
10
45.713144
20
-7.857185
30
0
11
32.883285
21
-12.026264
31
0
39
0
210
0
220
0
230
1
0
LINE
5
E8
100
AcDbEntity
8
1
62
256
6
ByLayer
370
18
48
1
60
0
100
AcDbLine
10
13.461325
20
-30.080593
30
0
11
13.461325
21
-21.369494
31
0
39
0
210
0
220
0
230
1
0
LINE
5
E9
100
AcDbEntity
8
1
62
256
6
ByLayer
370
18
48
1
60
0
100
AcDbLine
10
19.72234
20
-11.934743
30
0
11
19.223493
21
-12.099331
31
0
39
0
210
0
220
0
230
1
0
LINE
5
EA
100
AcDbEntity
8
1
62
256
6
ByLayer
370
18
48
1
60
0
100
AcDbLine
10
19.72234
20
29.200851
30
0
11
19.72234
21
6.097027
31
0
39
0
210
0
220
0
230
1
0
LINE
5
EB
100
AcDbEntity
8
1
62
256
6
ByLayer
370
18
48
1
60
0
100
AcDbLine
10
13.461325
20
-19.43724
30
0
11
13.461325
21
-9.349221
31
0
39
0
210
0
220
0
230
1
0
LINE
5
EC
100
AcDbEntity
8
1
62
256
6
ByLayer
370
18
48
1
60
0
100
AcDbLine
10
10.105662
20
-29.913955
30
0
11
10.105662
21
-21.040182
31
0
39
0
210
0
220
0
230
1
0
LINE
5
ED
100
AcDbEntity
8
1
62
256
6
ByLayer
370
18
48
1
60
0
100
AcDbLine
10
32.883285
20
12.02626
30
0
11
45.713144
21
7.857182
31
0
39
0
210
0
220
0
230
1
0
LINE
5
EE
100
AcDbEntity
8
1
62
256
6
ByLayer
370
18
48
1
60
0
100
AcDbLine
10
19.366817
20
-19.342095
30
0
11
19.622678
21
-22.252222
31
0
39
0
210
0
220
0
230
1
0
LINE
5
EF
100
AcDbEntity
8
1
62
256
6
ByLayer
370
18
48
1
60
0
100
AcDbLine
10
24.908989
20
22.024453
30
0
11
24.908989
21
30.724458
31
0
39
0
210
0
220
0
230
1
0
LINE
5
F0
100
AcDbEntity
8
1
62
256
6
ByLayer
370
18
48
1
60
0
100
AcDbLine
10
49.96012
20
4.686614
30
0
11
49.865166
21
4.52253
31
0
39
0
210
0
220
0
230
1
0
LINE
5
F1
100
AcDbEntity
8
1
62
256
6
ByLayer
370
18
48
1
60
0
100
AcDbLine
10
10.538675
20
9.349221
30
0
11
13.461325
21
9.349221
31
0
39
0
210
0
220
0
230
1
0
LINE
5
F2
100
AcDbEntity
8
1
62
256
6
ByLayer
370
18
48
1
60
0
100
AcDbLine
10
13.461325
20
9.349221
30
0
11
13.461325
21
30.080593
31
0
39
0
210
0
220
0
230
1
0
LINE
5
F3
100
AcDbEntity
8
1
62
256
6
ByLayer
370
18
48
1
60
0
100
AcDbLine
10
19.72234
20
-22.376609
30
0
11
19.72234
21
-29.200851
31
0
39
0
210
0
220
0
230
1
0
LINE
5
F4
100
AcDbEntity
8
1
62
256
6
ByLayer
370
18
48
1
60
0
100
AcDbLine
10
32.883285
20
12.02626
30
0
11
32.119387
21
12.259962
31
0
39
0
210
0
220
0
230
1
0
LINE
5
F5
100
AcDbEntity
8
SK1
62
256
6
ByLayer
370
18
48
1
60
0
100
AcDbLine
10
-1.307107
20
-4.811013
30
0
11
-1.307107
21
4.811013
31
0
39
0
210
0
220
0
230
1
0
LINE
5
F6
100
AcDbEntity
8
1
62
256
6
ByLayer
370
18
48
1
60
0
100
AcDbLine
10
50.040004
20
4.918361
30
0
11
51.192157
21
4.918361
31
0
39
0
210
0
220
0
230
1
0
LINE
5
F7
100
AcDbEntity
8
1
62
256
6
ByLayer
370
18
48
1
60
0
100
AcDbLine
10
50.040004
20
-4.918364
30
0
11
51.192157
21
-4.918364
31
0
39
0
210
0
220
0
230
1
0
LINE
5
F8
100
AcDbEntity
8
1
62
256
6
ByLayer
370
18
48
1
60
0
100
AcDbLine
10
35.475973
20
1.975439
30
0
11
36.020297
21
1.975439
31
0
39
0
210
0
220
0
230
1
0
LINE
5
F9
100
AcDbEntity
8
1
62
256
6
ByLayer
370
18
48
1
60
0
100
AcDbLine
10
34.1095
20
3.875954
30
0
11
34.653824
21
3.875954
31
0
39
0
210
0
220
0
230
1
0
LINE
5
FA
100
AcDbEntity
8
1
62
256
6
ByLayer
370
18
48
1
60
0
100
AcDbLine
10
35.571097
20
2.720098
30
0
11
36.115421
21
2.720098
31
0
39
0
210
0
220
0
230
1
0
LINE
5
FB
100
AcDbEntity
8
1
62
256
6
ByLayer
370
18
48
1
60
0
100
AcDbLine
10
35.325071
20
3.33224
30
0
11
35.869395
21
3.33224
31
0
39
0
210
0
220
0
230
1
0
LINE
5
FC
100
AcDbEntity
8
1
62
256
6
ByLayer
370
18
48
1
60
0
100
AcDbLine
10
35.084602
20
1.449781
30
0
11
35.628926
21
1.449781
31
0
39
0
210
0
220
0
230
1
0
LINE
5
FD
100
AcDbEntity
8
1
62
256
6
ByLayer
370
18
48
1
60
0
100
AcDbLine
10
51.655348
20
4.918361
30
0
11
64.461423
21
0.757011
31
0
39
0
210
0
220
0
230
1
0
LINE
5
FE
100
AcDbEntity
8
1
62
256
6
ByLayer
370
18
48
1
60
0
100
AcDbLine
10
64.461423
20
-0.757014
30
0
11
51.655348
21
-4.918364
31
0
39
0
210
0
220
0
230
1
0
MTEXT
5
1DF
100
AcDbEntity
8
SK6
62
256
6
ByLayer
370
18
48
1
60
0
100
AcDbMText
10
-8.125
20
-26.940645
30
0
210
0
220
0
230
1
1
\W0.7592;C6-DVVNN-00065-16
40
3.5
41
0
44
1.084337
50
0
71
7
72
5
7
iso_b_vert
0
DIMENSION
5
1FE
100
AcDbEntity
8
2
62
256
6
ByLayer
370
13
48
1
60
0
100
AcDbDimension
2
DimnDraft3D2
10
57.551172
20
3.002506
30
0
11
50.037724
21
21.176424
31
0
70
34
71
5
72
1
41
1
210
0
220
0
230
1
3
Standard
100
AcDb2LineAngularDimension
13
65
23
0.582
33
0
14
65
24
-1.0055
34
0
15
65
25
0.582
35
0
16
52.682706
26
17.53581
36
0
40
0
0
DIMENSION
5
214
100
AcDbEntity
8
SK2
62
256
6
ByLayer
370
13
48
1
60
0
100
AcDbDimension
2
DimnDraft3D3
10
-45.75
20
31.5
30
0
11
-45.75
21
-2.688158
31
0
70
32
71
5
72
1
41
1
210
0
220
0
230
1
3
Standard
100
AcDbAlignedDimension
13
-2
23
-31.5
33
0
14
-2
24
31.5
34
0
50
90
100
AcDbRotatedDimension
1001
ACAD
1000
DSTYLE
1002
{
1070
    74
1070
     0
1070
   279
1070
     0
1070
   172
1070
     1
1070
   173
1070
     1
1070
   340
1005
1E0
1070
    77
1070
     1
1070
    73
1070
     0
1070
   171
1070
     3
1070
   274
1070
     4
1070
   177
1070
     2
1070
   176
1070
     2
1070
   178
1070
     7
1070
    78
1070
     8
1070
    41
1041
3.175
1070
   147
1041
2.25
1070
    42
1041
2.0
1070
    44
1041
2.0
1070
   140
1041
4.5
1070
   343
1005
1FF
1070
   344
1005
1FF
1002
}
0
DIMENSION
5
222
100
AcDbEntity
8
2
62
256
6
ByLayer
370
13
48
1
60
0
100
AcDbDimension
2
DimnDraft3D4
10
87.25
20
0.582
30
0
11
87.25
21
10.837
31
0
70
32
71
5
72
1
41
1
210
0
220
0
230
1
3
Standard
100
AcDbAlignedDimension
13
67
23
0
33
0
14
67
24
0.582
34
0
50
90
100
AcDbRotatedDimension
1001
ACAD
1000
DSTYLE
1002
{
1070
    74
1070
     0
1070
   279
1070
     0
1070
   172
1070
     1
1070
   173
1070
     1
1070
   340
1005
1E0
1070
    77
1070
     1
1070
    73
1070
     0
1070
   171
1070
     3
1070
   274
1070
     4
1070
   177
1070
     2
1070
   176
1070
     2
1070
   178
1070
     7
1070
    78
1070
     8
1070
    41
1041
3.175
1070
   147
1041
2.25
1070
    42
1041
2.0
1070
    44
1041
2.0
1070
   140
1041
4.5
1070
   343
1005
1FF
1070
   344
1005
1FF
1002
}
0
ENDSEC
0
SECTION
2
OBJECTS
0
DICTIONARY
5
28d
330
0
100
AcDbDictionary
280
0
281
1
3
ACAD_GROUP
350
28e
3
ACAD_MLINESTYLE
350
28f
0
DICTIONARY
5
28e
330
0
100
AcDbDictionary
280
0
281
1
0
DICTIONARY
5
28f
330
0
100
AcDbDictionary
280
0
281
1
3
Standard
350
18
0
MLINESTYLE
5
18
330
28f
100
AcDbMlineStyle
2
Standard
70
0
3

62
256
51
90
52
90
71
2
49
-0.5
62
256
6
ByLayer
49
0.5
62
256
6
ByLayer
0
RASTERVARIABLES
5
27b
330

100
AcDbRasterVariables
90
0
70
1
71
1
72
1
0
ENDSEC
0
EOF
