0
SECTION
2
HEADER
9
$ACADVER
1
AC1015
9
$DWGCODEPAGE
3
ANSI_1252
9
$HANDSEED
5
283
9
$ANGBASE
50
0
9
$ANGDIR
70
0
9
$ATTMODE
70
1
9
$AUNITS
70
0
9
$AUPREC
70
0
9
$CECOLOR
62
256
9
$CELTSCALE
40
1
9
$CELTYPE
6
ByLayer
9
$CELWEIGHT
370
18
9
$CLAYER
8
0
9
$CMLJUST
70
0
9
$CMLSCALE
40
1
9
$CMLSTYLE
2
Standard
9
$DIMSTYLE
2
Standard
9
$TEXTSIZE
40
0.2
9
$TEXTSTYLE
7
Standard
9
$LUNITS
70
2
9
$LUPREC
70
4
9
$EXTNAMES
290
1
9
$INSUNITS
70
4
9
$LTSCALE
40
1
9
$LWDISPLAY
290
1
9
$PDMODE
70
0
9
$PDSIZE
40
0
9
$PLINEGEN
70
0
0
ENDSEC
0
SECTION
2
CLASSES
0
CLASS
1
RASTERVARIABLES
2
AcDbRasterVariables
3
ISM
90
0
280
0
281
0
0
ENDSEC
0
SECTION
2
TABLES
0
TABLE
2
VPORT
5
279
100
AcDbSymbolTable
0
VPORT
5
1
100
AcDbSymbolTableRecord
100
AcDbViewportTableRecord
2
*Active
70
0
10
0
20
0
11
1
21
1
12
-1
22
1
13
0
23
0
14
0.5
24
0.5
15
10
25
10
16
0
26
0
36
1
17
0
27
0
37
0
0
ENDTAB
0
TABLE
2
LTYPE
5
27a
100
AcDbSymbolTable
0
LTYPE
5
14
100
AcDbSymbolTableRecord
100
AcDbLinetypeTableRecord
70
0
2
ByBlock
3

72
65
73
0
40
0
0
LTYPE
5
15
100
AcDbSymbolTableRecord
100
AcDbLinetypeTableRecord
70
0
2
ByLayer
3

72
65
73
0
40
0
0
LTYPE
5
16
100
AcDbSymbolTableRecord
100
AcDbLinetypeTableRecord
70
0
2
CONTINUOUS
3
Solid line
72
65
73
0
40
0
0
LTYPE
5
6A
100
AcDbSymbolTableRecord
100
AcDbLinetypeTableRecord
70
0
2
CENTER
3
____ _ ____ _ ____ _ ____
72
65
73
4
40
47.5
49
22
74
0
49
-8.5
74
0
49
8.5
74
0
49
-8.5
74
0
0
LTYPE
5
6B
100
AcDbSymbolTableRecord
100
AcDbLinetypeTableRecord
70
0
2
DASHED
3
__ __ __ __ __ __ __ __ __
72
65
73
2
40
25.72
49
12.86
74
0
49
-12.86
74
0
0
ENDTAB
0
TABLE
2
LAYER
5
27b
100
AcDbSymbolTable
0
LAYER
5
10
100
AcDbSymbolTableRecord
100
AcDbLayerTableRecord
2
0
70
0
62
7
6
CONTINUOUS
290
1
370
-3
390
0
0
LAYER
5
6D
100
AcDbSymbolTableRecord
100
AcDbLayerTableRecord
2
2
70
0
62
7
6
CONTINUOUS
290
1
370
-3
390
0
0
LAYER
5
6F
100
AcDbSymbolTableRecord
100
AcDbLayerTableRecord
2
80
70
0
62
-6
6
CONTINUOUS
290
1
370
-3
390
0
0
LAYER
5
71
100
AcDbSymbolTableRecord
100
AcDbLayerTableRecord
2
81
70
0
62
-3
6
CONTINUOUS
290
1
370
-3
390
0
0
LAYER
5
73
100
AcDbSymbolTableRecord
100
AcDbLayerTableRecord
2
1
70
0
62
4
6
CONTINUOUS
290
1
370
-3
390
0
0
LAYER
5
88
100
AcDbSymbolTableRecord
100
AcDbLayerTableRecord
2
4
70
0
62
-2
6
CENTER
290
1
370
-3
390
0
0
LAYER
5
265
100
AcDbSymbolTableRecord
100
AcDbLayerTableRecord
2
SK4
70
0
62
2
6
CENTER
290
1
370
-3
390
0
0
LAYER
5
266
100
AcDbSymbolTableRecord
100
AcDbLayerTableRecord
2
SK1
70
0
62
4
6
CONTINUOUS
290
1
370
-3
390
0
0
LAYER
5
267
100
AcDbSymbolTableRecord
100
AcDbLayerTableRecord
2
SK6
70
0
62
5
6
CONTINUOUS
290
1
370
-3
390
0
0
LAYER
5
268
100
AcDbSymbolTableRecord
100
AcDbLayerTableRecord
2
SK2
70
0
62
7
6
CONTINUOUS
290
1
370
-3
390
0
0
ENDTAB
0
TABLE
2
STYLE
5
27c
100
AcDbSymbolTable
0
STYLE
5
11
100
AcDbSymbolTableRecord
100
AcDbTextStyleTableRecord
2
Standard
3
txt
70
0
71
0
40
0
41
1
42
0
50
0
0
STYLE
5
1C9
100
AcDbSymbolTableRecord
100
AcDbTextStyleTableRecord
2
iso_b_vert
3
simplex.shx
70
0
71
0
40
0
41
1
42
0
50
0
0
STYLE
5
1CA
100
AcDbSymbolTableRecord
100
AcDbTextStyleTableRecord
2
DWGDirectTextStyle
3
simplex
70
0
71
0
40
0
41
1
42
0
50
0
0
ENDTAB
0
TABLE
2
DIMSTYLE
5
27d
100
AcDbSymbolTable
100
AcDbDimStyleTable
0
DIMSTYLE
105
27
100
AcDbSymbolTableRecord
100
AcDbDimStyleTableRecord
2
Standard
70
0
3
<>
41
0.18
42
0.0625
44
0.18
140
0.18
147
0.09
73
0
74
0
77
1
271
2
275
0
278
52
280
0
340
11
0
ENDTAB
0
TABLE
2
VIEW
5
27e
100
AcDbSymbolTable
0
ENDTAB
0
TABLE
2
UCS
5
27f
100
AcDbSymbolTable
0
ENDTAB
0
TABLE
2
APPID
5
280
100
AcDbSymbolTable
0
APPID
5
12
100
AcDbSymbolTableRecord
100
AcDbRegAppTableRecord
2
ACAD
70
0
0
ENDTAB
0
TABLE
2
BLOCK_RECORD
5
281
100
AcDbSymbolTable
0
BLOCK_RECORD
5
1F
100
AcDbSymbolTableRecord
100
AcDbBlockTableRecord
2
*Model_Space
340
0
70
0
0
BLOCK_RECORD
5
1B
100
AcDbSymbolTableRecord
100
AcDbBlockTableRecord
2
*Paper_Space
340
0
70
0
0
BLOCK_RECORD
5
23
100
AcDbSymbolTableRecord
100
AcDbBlockTableRecord
2
*Paper_Space0
340
0
70
0
0
BLOCK_RECORD
5
1CC
100
AcDbSymbolTableRecord
100
AcDbBlockTableRecord
2
DimnDraft3D11
340
0
70
0
0
BLOCK_RECORD
5
1DA
100
AcDbSymbolTableRecord
100
AcDbBlockTableRecord
2
DimnDraft3D2
340
0
70
0
0
BLOCK_RECORD
5
1E8
100
AcDbSymbolTableRecord
100
AcDbBlockTableRecord
2
_CLOSED
340
0
70
0
0
BLOCK_RECORD
5
1EF
100
AcDbSymbolTableRecord
100
AcDbBlockTableRecord
2
DimnDraft3D3
340
0
70
0
0
BLOCK_RECORD
5
1FE
100
AcDbSymbolTableRecord
100
AcDbBlockTableRecord
2
DimnDraft3D4
340
0
70
0
0
ENDTAB
0
ENDSEC
0
SECTION
2
BLOCKS
0
BLOCK
5
20
100
AcDbEntity
8
0
100
AcDbBlockBegin
2
*Model_Space
70
0
10
0
20
0
30
0
3
*Model_Space
0
ENDBLK
5
21
100
AcDbEntity
8
0
100
AcDbBlockEnd
0
BLOCK
5
1C
100
AcDbEntity
8
0
100
AcDbBlockBegin
2
*Paper_Space
70
0
10
0
20
0
30
0
3
*Paper_Space
0
ENDBLK
5
1D
100
AcDbEntity
8
0
100
AcDbBlockEnd
0
BLOCK
5
24
100
AcDbEntity
8
0
100
AcDbBlockBegin
2
*Paper_Space0
70
0
10
0
20
0
30
0
3
*Paper_Space0
0
ENDBLK
5
25
100
AcDbEntity
8
0
100
AcDbBlockEnd
0
BLOCK
5
1CD
100
AcDbEntity
8
0
100
AcDbBlockBegin
2
DimnDraft3D11
70
0
10
0
20
0
30
0
3
DimnDraft3D11
0
LINE
5
1CF
100
AcDbEntity
8
2
62
256
6
ByLayer
370
25
48
1
60
0
100
AcDbLine
10
65
20
2.4817
30
0
11
65
21
44.7317
31
0
39
0
210
0
220
0
230
1
0
LINE
5
1D0
100
AcDbEntity
8
2
62
256
6
ByLayer
370
25
48
1
60
0
100
AcDbLine
10
0
20
33.5
30
0
11
0
21
44.7317
31
0
39
0
210
0
220
0
230
1
0
LINE
5
1D1
100
AcDbEntity
8
2
62
256
6
ByLayer
370
25
48
1
60
0
100
AcDbLine
10
65
20
42.7317
30
0
11
0
21
42.7317
31
0
39
0
210
0
220
0
230
1
0
LINE
5
1D2
100
AcDbEntity
8
2
62
256
6
ByLayer
370
25
48
1
60
0
100
AcDbLine
10
65
20
42.7317
30
0
11
61.825002
21
42.313703
31
0
39
0
210
0
220
0
230
1
0
LINE
5
1D3
100
AcDbEntity
8
2
62
256
6
ByLayer
370
25
48
1
60
0
100
AcDbLine
10
65
20
42.7317
30
0
11
61.824998
21
43.149697
31
0
39
0
210
0
220
0
230
1
0
LINE
5
1D4
100
AcDbEntity
8
2
62
256
6
ByLayer
370
25
48
1
60
0
100
AcDbLine
10
61.825002
20
42.313703
30
0
11
61.824998
21
43.149697
31
0
39
0
210
0
220
0
230
1
0
LINE
5
1D5
100
AcDbEntity
8
2
62
256
6
ByLayer
370
25
48
1
60
0
100
AcDbLine
10
0
20
42.7317
30
0
11
3.174998
21
43.149697
31
0
39
0
210
0
220
0
230
1
0
LINE
5
1D6
100
AcDbEntity
8
2
62
256
6
ByLayer
370
25
48
1
60
0
100
AcDbLine
10
0
20
42.7317
30
0
11
3.175002
21
42.313703
31
0
39
0
210
0
220
0
230
1
0
LINE
5
1D7
100
AcDbEntity
8
2
62
256
6
ByLayer
370
25
48
1
60
0
100
AcDbLine
10
3.174998
20
43.149697
30
0
11
3.175002
21
42.313703
31
0
39
0
210
0
220
0
230
1
0
MTEXT
5
1D8
100
AcDbEntity
8
2
62
256
6
ByLayer
370
18
48
1
60
0
100
AcDbMText
10
28.343421
20
43.8567
30
0
210
0
220
0
230
1
1
\W0.7346;65.0
40
4.5
41
0
44
1.084337
50
0
71
7
72
5
7
iso_b_vert
0
ENDBLK
5
1CE
100
AcDbEntity
8
0
100
AcDbBlockEnd
0
BLOCK
5
1E5
100
AcDbEntity
8
0
100
AcDbBlockBegin
2
DimnDraft3D2
70
0
10
0
20
0
30
0
3
DimnDraft3D2
0
MTEXT
5
1DB
100
AcDbEntity
8
2
62
256
6
ByLayer
370
18
48
1
60
0
100
AcDbMText
10
47.543953
20
15.743255
30
0
210
0
220
0
230
1
1
\W0.7645;62%%d30'
40
4.5
41
0
44
1.084337
50
31.069587815
71
7
72
5
7
iso_b_vert
0
LINE
5
1DC
100
AcDbEntity
8
2
62
256
6
ByLayer
370
13
48
1
60
0
100
AcDbLine
10
65
20
2.4817
30
0
11
65
21
23.437544
31
0
39
0
210
0
220
0
230
1
0
LINE
5
1DD
100
AcDbEntity
8
2
62
256
6
ByLayer
370
13
48
1
60
0
100
AcDbLine
10
56.307466
20
5.076553
30
0
11
44.705074
21
11.20955
31
0
39
0
210
0
220
0
230
1
0
ARC
5
1DE
100
AcDbEntity
8
2
62
256
6
ByLayer
370
13
48
1
60
0
100
AcDbCircle
39
0
10
65
20
0.4817
30
0
40
20.9558441220057
210
0
220
0
230
1
100
AcDbArc
50
90
51
152.139176
0
LINE
5
1DF
100
AcDbEntity
8
2
62
256
6
ByLayer
370
13
48
1
60
0
100
AcDbLine
10
65
20
21.437544
30
0
11
61.843069
21
20.899844
31
0
39
0
210
0
220
0
230
1
0
LINE
5
1E0
100
AcDbEntity
8
2
62
256
6
ByLayer
370
13
48
1
60
0
100
AcDbLine
10
65
20
21.437544
30
0
11
61.811468
21
21.73524
31
0
39
0
210
0
220
0
230
1
0
LINE
5
1E1
100
AcDbEntity
8
2
62
256
6
ByLayer
370
13
48
1
60
0
100
AcDbLine
10
61.843069
20
20.899844
30
0
11
61.811468
21
21.73524
31
0
39
0
210
0
220
0
230
1
0
LINE
5
1E2
100
AcDbEntity
8
2
62
256
6
ByLayer
370
13
48
1
60
0
100
AcDbLine
10
46.473245
20
10.274899
30
0
11
47.700137
21
13.232951
31
0
39
0
210
0
220
0
230
1
0
LINE
5
1E3
100
AcDbEntity
8
2
62
256
6
ByLayer
370
13
48
1
60
0
100
AcDbLine
10
46.473245
20
10.274899
30
0
11
48.423934
21
12.814617
31
0
39
0
210
0
220
0
230
1
0
LINE
5
1E4
100
AcDbEntity
8
2
62
256
6
ByLayer
370
13
48
1
60
0
100
AcDbLine
10
47.700137
20
13.232951
30
0
11
48.423934
21
12.814617
31
0
39
0
210
0
220
0
230
1
0
ENDBLK
5
1E6
100
AcDbEntity
8
0
100
AcDbBlockEnd
0
BLOCK
5
1E9
100
AcDbEntity
8
0
100
AcDbBlockBegin
2
_CLOSED
70
0
10
0
20
0
30
0
3
_CLOSED
0
LINE
5
1EB
100
AcDbEntity
8
0
62
256
6
ByLayer
370
-2
48
1
60
0
100
AcDbLine
10
-1
20
0.166667
30
0
11
0
21
0
31
0
39
0
210
0
220
0
230
1
0
LINE
5
1EC
100
AcDbEntity
8
0
62
256
6
ByLayer
370
-2
48
1
60
0
100
AcDbLine
10
0
20
0
30
0
11
-1
21
-0.166667
31
0
39
0
210
0
220
0
230
1
0
LINE
5
1ED
100
AcDbEntity
8
0
62
256
6
ByLayer
370
-2
48
1
60
0
100
AcDbLine
10
-1
20
0.166667
30
0
11
-1
21
-0.166667
31
0
39
0
210
0
220
0
230
1
0
LINE
5
1EE
100
AcDbEntity
8
0
62
256
6
ByLayer
370
-2
48
1
60
0
100
AcDbLine
10
0
20
0
30
0
11
-1
21
0
31
0
39
0
210
0
220
0
230
1
0
ENDBLK
5
1EA
100
AcDbEntity
8
0
100
AcDbBlockEnd
0
BLOCK
5
1FB
100
AcDbEntity
8
0
100
AcDbBlockBegin
2
DimnDraft3D3
70
0
10
0
20
0
30
0
3
DimnDraft3D3
0
MTEXT
5
1F0
100
AcDbEntity
8
SK2
62
256
6
ByLayer
370
18
48
1
60
0
100
AcDbMText
10
-46.875
20
-1.563158
30
0
210
0
220
0
230
1
1
\W0.6740;63
40
4.5
41
0
44
1.084337
50
90
71
7
72
5
7
iso_b_vert
0
LINE
5
1F2
100
AcDbEntity
8
SK2
62
256
6
ByLayer
370
13
48
1
60
0
100
AcDbLine
10
-2
20
-31.5
30
0
11
-47.75
21
-31.5
31
0
39
0
210
0
220
0
230
1
0
LINE
5
1F3
100
AcDbEntity
8
SK2
62
256
6
ByLayer
370
13
48
1
60
0
100
AcDbLine
10
-2
20
31.5
30
0
11
-47.75
21
31.5
31
0
39
0
210
0
220
0
230
1
0
LINE
5
1F4
100
AcDbEntity
8
SK2
62
256
6
ByLayer
370
13
48
1
60
0
100
AcDbLine
10
-45.75
20
-31.5
30
0
11
-45.75
21
31.5
31
0
39
0
210
0
220
0
230
1
0
LINE
5
1F5
100
AcDbEntity
8
SK2
62
256
6
ByLayer
370
13
48
1
60
0
100
AcDbLine
10
-45.75
20
-31.5
30
0
11
-46.167997
21
-28.325002
31
0
39
0
210
0
220
0
230
1
0
LINE
5
1F6
100
AcDbEntity
8
SK2
62
256
6
ByLayer
370
13
48
1
60
0
100
AcDbLine
10
-45.75
20
-31.5
30
0
11
-45.332003
21
-28.324998
31
0
39
0
210
0
220
0
230
1
0
LINE
5
1F7
100
AcDbEntity
8
SK2
62
256
6
ByLayer
370
13
48
1
60
0
100
AcDbLine
10
-46.167997
20
-28.325002
30
0
11
-45.332003
21
-28.324998
31
0
39
0
210
0
220
0
230
1
0
LINE
5
1F8
100
AcDbEntity
8
SK2
62
256
6
ByLayer
370
13
48
1
60
0
100
AcDbLine
10
-45.75
20
31.5
30
0
11
-45.332003
21
28.325002
31
0
39
0
210
0
220
0
230
1
0
LINE
5
1F9
100
AcDbEntity
8
SK2
62
256
6
ByLayer
370
13
48
1
60
0
100
AcDbLine
10
-45.75
20
31.5
30
0
11
-46.167997
21
28.324998
31
0
39
0
210
0
220
0
230
1
0
LINE
5
1FA
100
AcDbEntity
8
SK2
62
256
6
ByLayer
370
13
48
1
60
0
100
AcDbLine
10
-45.332003
20
28.325002
30
0
11
-46.167997
21
28.324998
31
0
39
0
210
0
220
0
230
1
0
ENDBLK
5
1FC
100
AcDbEntity
8
0
100
AcDbBlockEnd
0
BLOCK
5
209
100
AcDbEntity
8
0
100
AcDbBlockBegin
2
DimnDraft3D4
70
0
10
0
20
0
30
0
3
DimnDraft3D4
0
MTEXT
5
1FF
100
AcDbEntity
8
2
62
256
6
ByLayer
370
18
48
1
60
0
100
AcDbMText
10
86.125
20
11.8617
30
0
210
0
220
0
230
1
1
\W0.7121;0.5
40
4.5
41
0
44
1.084337
50
90
71
7
72
5
7
iso_b_vert
0
LINE
5
200
100
AcDbEntity
8
2
62
256
6
ByLayer
370
13
48
1
60
0
100
AcDbLine
10
67
20
0
30
0
11
89.25
21
0
31
0
39
0
210
0
220
0
230
1
0
LINE
5
201
100
AcDbEntity
8
2
62
256
6
ByLayer
370
13
48
1
60
0
100
AcDbLine
10
67
20
0.4817
30
0
11
89.25
21
0.4817
31
0
39
0
210
0
220
0
230
1
0
LINE
5
202
100
AcDbEntity
8
2
62
256
6
ByLayer
370
13
48
1
60
0
100
AcDbLine
10
87.25
20
17.9367
30
0
11
87.25
21
-11.25
31
0
39
0
210
0
220
0
230
1
0
LINE
5
203
100
AcDbEntity
8
2
62
256
6
ByLayer
370
13
48
1
60
0
100
AcDbLine
10
87.25
20
0
30
0
11
87.667997
21
-3.174998
31
0
39
0
210
0
220
0
230
1
0
LINE
5
204
100
AcDbEntity
8
2
62
256
6
ByLayer
370
13
48
1
60
0
100
AcDbLine
10
87.25
20
0
30
0
11
86.832003
21
-3.175002
31
0
39
0
210
0
220
0
230
1
0
LINE
5
205
100
AcDbEntity
8
2
62
256
6
ByLayer
370
13
48
1
60
0
100
AcDbLine
10
87.667997
20
-3.174998
30
0
11
86.832003
21
-3.175002
31
0
39
0
210
0
220
0
230
1
0
LINE
5
206
100
AcDbEntity
8
2
62
256
6
ByLayer
370
13
48
1
60
0
100
AcDbLine
10
87.25
20
0.4817
30
0
11
86.832003
21
3.656698
31
0
39
0
210
0
220
0
230
1
0
LINE
5
207
100
AcDbEntity
8
2
62
256
6
ByLayer
370
13
48
1
60
0
100
AcDbLine
10
87.25
20
0.4817
30
0
11
87.667997
21
3.656702
31
0
39
0
210
0
220
0
230
1
0
LINE
5
208
100
AcDbEntity
8
2
62
256
6
ByLayer
370
13
48
1
60
0
100
AcDbLine
10
86.832003
20
3.656698
30
0
11
87.667997
21
3.656702
31
0
39
0
210
0
220
0
230
1
0
ENDBLK
5
20A
100
AcDbEntity
8
0
100
AcDbBlockEnd
0
ENDSEC
0
SECTION
2
ENTITIES
0
ARC
5
F8
100
AcDbEntity
8
SK1
62
256
6
ByLayer
370
18
48
1
60
0
100
AcDbCircle
39
0
10
0.6
20
-23.45
30
0
40
0.999999999999999
210
0
220
0
230
-1
100
AcDbArc
50
113.578178
51
126.869898
0
ARC
5
F9
100
AcDbEntity
8
SK1
62
256
6
ByLayer
370
18
48
1
60
0
100
AcDbCircle
39
0
10
0.6
20
23.45
30
0
40
0.999999999999999
210
0
220
0
230
-1
100
AcDbArc
50
233.130102
51
246.421822
0
ELLIPSE
5
FA
100
AcDbEntity
8
1
62
256
6
ByLayer
370
18
48
1
60
0
100
AcDbEllipse
10
38.753598
20
3.8011
30
0
11
2.32675207226252E-17
21
0.38
31
0
210
0
220
0
230
1
40
0.984808
41
-2.76130041379005
42
-2.57060639621293
0
ELLIPSE
5
FB
100
AcDbEntity
8
1
62
256
6
ByLayer
370
18
48
1
60
0
100
AcDbEllipse
10
39.18206
20
3.123799
30
0
11
-7.80686550561765E-17
21
-0.425
31
0
210
0
220
0
230
1
40
0.984808
41
3.14159065697699
42
-2.57060639621296
0
ELLIPSE
5
FC
100
AcDbEntity
8
1
62
256
6
ByLayer
370
18
48
1
60
0
100
AcDbEllipse
10
39.432852
20
5.862494
30
0
11
2.32675207226252E-17
21
0.38
31
0
210
0
220
0
230
1
40
0.984808
41
-1.21675808061155
42
-0.380273966624694
0
ELLIPSE
5
FD
100
AcDbEntity
8
1
62
256
6
ByLayer
370
18
48
1
60
0
100
AcDbEllipse
10
39.925663
20
3.402883
30
0
11
2.32675207226252E-17
21
0.38
31
0
210
0
220
0
230
1
40
0.984808
41
-2.76130300633603
42
-1.52340884501638
0
ELLIPSE
5
FE
100
AcDbEntity
8
1
62
256
6
ByLayer
370
18
48
1
60
0
100
AcDbEllipse
10
40.176455
20
6.141578
30
0
11
-7.80686550561765E-17
21
-0.425
31
0
210
0
220
0
230
1
40
0.984808
41
-1.21675808061155
42
-3.08050916267497E-06
0
ELLIPSE
5
FF
100
AcDbEntity
8
1
62
256
6
ByLayer
370
18
48
1
60
0
100
AcDbEllipse
10
39.540339
20
4.632689
30
0
11
-7.34763812293426E-16
21
-4
31
0
210
0
220
0
230
1
40
0.984808
41
-3.1415054353455
42
-2.25469944319128E-16
0
ELLIPSE
5
100
100
AcDbEntity
8
1
62
256
6
ByLayer
370
18
48
1
60
0
100
AcDbEllipse
10
40.717543
20
3.441016
30
0
11
-7.80686550561765E-17
21
-0.425
31
0
210
0
220
0
230
1
40
0.984808
41
-3.1415699292329
42
-1.52340884501637
0
ELLIPSE
5
101
100
AcDbEntity
8
1
62
256
6
ByLayer
370
18
48
1
60
0
100
AcDbEllipse
10
40.604917
20
5.464277
30
0
11
2.32675207226252E-17
21
0.38
31
0
210
0
220
0
230
1
40
0.984808
41
-2.26395563180815
42
-0.380358348151647
0
ELLIPSE
5
102
100
AcDbEntity
8
1
62
256
6
ByLayer
370
18
48
1
60
0
100
AcDbEllipse
10
40.851322
20
4.234471
30
0
11
2.32675207226252E-17
21
0.38
31
0
210
0
220
0
230
1
40
0.984808
41
-2.89446096032371
42
-0.476211293819739
0
ELLIPSE
5
103
100
AcDbEntity
8
1
62
256
6
ByLayer
370
18
48
1
60
0
100
AcDbEllipse
10
39.679257
20
4.632689
30
0
11
-2.1124459603436E-16
21
-1.15
31
0
210
0
220
0
230
1
40
0.984808
41
-1.00532087102658
42
-0.322907939023674
0
ELLIPSE
5
104
100
AcDbEntity
8
1
62
256
6
ByLayer
370
18
48
1
60
0
100
AcDbEllipse
10
39.679257
20
4.632689
30
0
11
-2.1124459603436E-16
21
-1.15
31
0
210
0
220
0
230
1
40
0.984808
41
-2.3005402022213
42
-1.65926216958503
0
ELLIPSE
5
105
100
AcDbEntity
8
1
62
256
6
ByLayer
370
18
48
1
60
0
100
AcDbEllipse
10
39.679257
20
4.632689
30
0
11
-2.1124459603436E-16
21
-1.15
31
0
210
0
220
0
230
1
40
0.984808
41
0
42
-2.82420416317839
0
ELLIPSE
5
106
100
AcDbEntity
8
1
62
256
6
ByLayer
370
18
48
1
60
0
100
AcDbEllipse
10
39.592433
20
4.632689
30
0
11
-2.1124459603436E-16
21
-1.15
31
0
210
0
220
0
230
1
40
0.984808
41
0.0762704620299182
42
3.10329330634056
0
ELLIPSE
5
107
100
AcDbEntity
8
1
62
256
6
ByLayer
370
18
48
1
60
0
100
AcDbEllipse
10
52.368055
20
4.1E-05
30
0
11
-4.7392265892926E-16
21
-2.58
31
0
210
0
220
0
230
1
40
0.984808
41
-0.0896336490212044
42
-2.48700793926E-16
0
ELLIPSE
5
108
100
AcDbEntity
8
1
62
256
6
ByLayer
370
18
48
1
60
0
100
AcDbEllipse
10
52.368055
20
4.1E-05
30
0
11
-4.7392265892926E-16
21
-2.58
31
0
210
0
220
0
230
1
40
0.984808
41
0
42
2.572080783756
0
ELLIPSE
5
109
100
AcDbEntity
8
1
62
256
6
ByLayer
370
18
48
1
60
0
100
AcDbEllipse
10
51.541056
20
5.369197
30
0
11
9.72031293346512E-17
21
1.5875
31
0
210
0
220
0
230
1
40
0.984808
41
-0.479965544296831
42
0.144949376228377
0
ELLIPSE
5
10A
100
AcDbEntity
8
1
62
256
6
ByLayer
370
18
48
1
60
0
100
AcDbEllipse
10
51.541056
20
-5.369116
30
0
11
9.72031293346512E-17
21
1.5875
31
0
210
0
220
0
230
1
40
0.984808
41
2.99664327736465
42
-2.66162710928974
0
ELLIPSE
5
10B
100
AcDbEntity
8
1
62
256
6
ByLayer
370
18
48
1
60
0
100
AcDbEllipse
10
12
20
-19.981782
30
0
11
-1.99999999999999
21
2.44921270764474E-16
31
0
210
0
220
0
230
1
40
0.681998
41
0.241608078834302
42
1.57079618914633
0
ELLIPSE
5
10C
100
AcDbEntity
8
1
62
256
6
ByLayer
370
18
48
1
60
0
100
AcDbEllipse
10
12
20
-19.981782
30
0
11
-1.99999999999999
21
2.44921270764474E-16
31
0
210
0
220
0
230
1
40
0.681998
41
1.57079618914633
42
2.89998418375822
0
ELLIPSE
5
10D
100
AcDbEntity
8
1
62
256
6
ByLayer
370
18
48
1
60
0
100
AcDbEllipse
10
22.698404
20
0
30
0
11
1.92875500727039E-15
21
31.5000000000023
31
0
210
0
220
0
230
1
40
0.176327
41
3.14159089679815
42
-3.10154291155958
0
ELLIPSE
5
10E
100
AcDbEntity
8
1
62
256
6
ByLayer
370
18
48
1
60
0
100
AcDbEllipse
10
22.698404
20
0
30
0
11
1.9287550072704E-15
21
31.5000000000025
31
0
210
0
220
0
230
1
40
0.176327
41
-0.0400497420543194
42
4.27733664285434E-06
0
ELLIPSE
5
10F
100
AcDbEntity
8
1
62
256
6
ByLayer
370
18
48
1
60
0
100
AcDbEllipse
10
12
20
-19.981782
30
0
11
-1.64999999999999
21
2.02060048380691E-16
31
0
210
0
220
0
230
1
40
0.681998
41
-0.539372507029148
42
0
0
ELLIPSE
5
110
100
AcDbEntity
8
1
62
256
6
ByLayer
370
18
48
1
60
0
100
AcDbEllipse
10
12
20
-19.981782
30
0
11
-1.64999999999999
21
2.02060048380691E-16
31
0
210
0
220
0
230
1
40
0.681998
41
0
42
1.57079606964742
0
ELLIPSE
5
111
100
AcDbEntity
8
1
62
256
6
ByLayer
370
18
48
1
60
0
100
AcDbEllipse
10
12
20
-19.981782
30
0
11
-1.64999999999999
21
2.02060048380691E-16
31
0
210
0
220
0
230
1
40
0.681998
41
1.57079649217664
42
-2.60222026442106
0
ELLIPSE
5
112
100
AcDbEntity
8
1
62
256
6
ByLayer
370
18
48
1
60
0
100
AcDbEllipse
10
39.862895
20
-2.194251
30
0
11
-4.35154490004314E-16
21
-2.36894894780439
31
0
210
0
220
0
230
1
40
0.984808
41
-1.44037015596693
42
-1.09083078249664
0
ELLIPSE
5
113
100
AcDbEntity
8
1
62
256
6
ByLayer
370
18
48
1
60
0
100
AcDbEllipse
10
38.043602
20
-2.460355
30
0
11
-4.31353124059626E-16
21
-2.34825459197964
31
0
210
0
220
0
230
1
40
0.984808
41
0.425036931573752
42
0.479965544300042
0
ELLIPSE
5
114
100
AcDbEntity
8
1
62
256
6
ByLayer
370
18
48
1
60
0
100
AcDbEllipse
10
26.94904
20
-12.000644
30
0
11
0.685739785828836
21
-2.09039731776795
31
0
210
0
220
0
230
1
40
0.223062
41
4.94582774148372E-05
42
3.12579621401503
0
ELLIPSE
5
115
100
AcDbEntity
8
1
62
256
6
ByLayer
370
18
48
1
60
0
100
AcDbEllipse
10
27.1806
20
-11.924682
30
0
11
-0.607814810166474
21
1.8528521680216
31
0
210
0
220
0
230
1
40
0.223062
41
-2.91065982350819
42
-0.230896221401096
0
ELLIPSE
5
116
100
AcDbEntity
8
1
62
256
6
ByLayer
370
18
48
1
60
0
100
AcDbEllipse
10
35.903604
20
11.77039
30
0
11
-0.0874371315969232
21
-2.99872552062007
31
0
210
0
220
0
230
1
40
0.981784
41
-0.294220949637218
42
-0.103433765127588
0
ELLIPSE
5
117
100
AcDbEntity
8
1
62
256
6
ByLayer
370
18
48
1
60
0
100
AcDbEllipse
10
38.291317
20
5.049413
30
0
11
-0.120954698709077
21
-4.1482369701911
31
0
210
0
220
0
230
1
40
0.981784
41
2.84737170395258
42
2.97833733328053
0
ELLIPSE
5
118
100
AcDbEntity
8
1
62
256
6
ByLayer
370
18
48
1
60
0
100
AcDbEllipse
10
40.199342
20
4.399038
30
0
11
0.120954698709087
21
4.1482369701911
31
0
210
0
220
0
230
1
40
0.981784
41
3.1042951208053
42
-0.294220949637213
0
ELLIPSE
5
119
100
AcDbEntity
8
1
62
256
6
ByLayer
370
18
48
1
60
0
100
AcDbEllipse
10
38.216858
20
5.074794
30
0
11
0.0757788473840061
21
2.59889545120406
31
0
210
0
220
0
230
1
40
0.981784
41
1.15768586032816
42
1.40209205360694
0
ELLIPSE
5
11A
100
AcDbEntity
8
1
62
256
6
ByLayer
370
18
48
1
60
0
100
AcDbEllipse
10
37.310935
20
7.95188
30
0
11
5.22371557769875
21
-1.72127730575505
31
0
210
0
220
0
230
1
40
0.055099
41
1.95183693222474
42
2.39360467151122
0
ELLIPSE
5
11B
100
AcDbEntity
8
1
62
256
6
ByLayer
370
18
48
1
60
0
100
AcDbEllipse
10
26.94434
20
1.228476
30
0
11
6.64836528070751
21
-2.19071657096097
31
0
210
0
220
0
230
1
40
0.055099
41
-0.84368834152059
42
-0.82890730478061
0
ELLIPSE
5
11C
100
AcDbEntity
8
1
62
256
6
ByLayer
370
18
48
1
60
0
100
AcDbEllipse
10
37.756033
20
9.914875
30
0
11
-2.82859171262043
21
3.05430993259397
31
0
210
0
220
0
230
1
40
0.43895
41
-0.6812604157489
42
-0.321644682390167
0
ELLIPSE
5
11D
100
AcDbEntity
8
1
62
256
6
ByLayer
370
18
48
1
60
0
100
AcDbEllipse
10
38.704402
20
11.808387
30
0
11
-3.24772553321047
21
1.3247336536182
31
0
210
0
220
0
230
1
40
0.315466
41
-0.0737990580063326
42
0.649419048392183
0
ELLIPSE
5
11E
100
AcDbEntity
8
1
62
256
6
ByLayer
370
18
48
1
60
0
100
AcDbEllipse
10
34.999916
20
0.93842
30
0
11
-5.29774355305089
21
1.49522353936595
31
0
210
0
220
0
230
1
40
0.291278
41
-0.640222472786346
42
-0.587230168208772
0
ELLIPSE
5
11F
100
AcDbEntity
8
1
62
256
6
ByLayer
370
18
48
1
60
0
100
AcDbEllipse
10
32.52877
20
2.491255
30
0
11
0.511501247168567
21
-1.93348557639952
31
0
210
0
220
0
230
1
40
0.747978
41
-2.05852772702365
42
-0.645852232764044
0
ELLIPSE
5
120
100
AcDbEntity
8
1
62
256
6
ByLayer
370
18
48
1
60
0
100
AcDbEllipse
10
52.985994
20
-0.034863
30
0
11
-1.22942882660582
21
-1.98690016583474
31
0
210
0
220
0
230
1
40
0.768306
41
0.836476084506654
42
1.69168741798497
0
ELLIPSE
5
121
100
AcDbEntity
8
1
62
256
6
ByLayer
370
18
48
1
60
0
100
AcDbEllipse
10
52.985994
20
-0.034863
30
0
11
-0.479797139533755
21
2.17034109676844
31
0
210
0
220
0
230
1
40
0.750374
41
-2.05807031594898
42
-1.20285898247181
0
ELLIPSE
5
122
100
AcDbEntity
8
1
62
256
6
ByLayer
370
18
48
1
60
0
100
AcDbEllipse
10
31.775696
20
2.402376
30
0
11
-0.669391738717936
21
2.92827033532919
31
0
210
0
220
0
230
1
40
0.989691
41
1.023158386058
42
2.07484744912237
0
ELLIPSE
5
123
100
AcDbEntity
8
1
62
256
6
ByLayer
370
18
48
1
60
0
100
AcDbEllipse
10
35.157715
20
10.469553
30
0
11
-1.40807995611108
21
-1.42032068111332
31
0
210
0
220
0
230
1
40
0.783271
41
-2.6446327019783
42
-1.2319572077187
0
ELLIPSE
5
124
100
AcDbEntity
8
1
62
256
6
ByLayer
370
18
48
1
60
0
100
AcDbEllipse
10
37.997036
20
10.034057
30
0
11
-5.15313281322322
21
1.93499382263029
31
0
210
0
220
0
230
1
40
0.181284
41
0.582051155886811
42
0.635043467420251
0
ELLIPSE
5
125
100
AcDbEntity
8
1
62
256
6
ByLayer
370
18
48
1
60
0
100
AcDbEllipse
10
34.400563
20
10.368295
30
0
11
-0.669391738711115
21
2.92827033533082
31
0
210
0
220
0
230
1
40
0.989691
41
-0.0285306770038679
42
1.02315838606044
0
ELLIPSE
5
126
100
AcDbEntity
8
1
62
256
6
ByLayer
370
18
48
1
60
0
100
AcDbEllipse
10
35.686018
20
3.020597
30
0
11
5.22371557769875
21
-1.72127730575505
31
0
210
0
220
0
230
1
40
0.055099
41
1.95183693222475
42
2.39360467151123
0
ELLIPSE
5
127
100
AcDbEntity
8
1
62
256
6
ByLayer
370
18
48
1
60
0
100
AcDbEllipse
10
34.537953
20
-0.835911
30
0
11
-3.40563304170737
21
0.842346813521375
31
0
210
0
220
0
230
1
40
0.425012
41
-0.659906163778177
42
0.0633119426206146
0
ELLIPSE
5
128
100
AcDbEntity
8
1
62
256
6
ByLayer
370
18
48
1
60
0
100
AcDbEllipse
10
35.131167
20
1.948956
30
0
11
-4.20092790420108
21
-1.73061023035041
31
0
210
0
220
0
230
1
40
0.496675
41
0.157125829236322
42
0.516741562591987
0
ELLIPSE
5
129
100
AcDbEntity
8
1
62
256
6
ByLayer
370
18
48
1
60
0
100
AcDbEllipse
10
40.882754
20
5.464277
30
0
11
2.32675207226252E-17
21
0.38
31
0
210
0
220
0
230
1
40
0.984808
41
-2.26395563180812
42
0.570986257376842
0
ELLIPSE
5
12A
100
AcDbEntity
8
1
62
256
6
ByLayer
370
18
48
1
60
0
100
AcDbEllipse
10
39.957094
20
4.632689
30
0
11
1.40829730689573E-16
21
2.3
31
0
210
0
220
0
230
1
40
0.984808
41
0
42
6.28318530717959
0
ELLIPSE
5
12B
100
AcDbEntity
8
1
62
256
6
ByLayer
370
18
48
1
60
0
100
AcDbEllipse
10
38.785029
20
5.030906
30
0
11
2.32675207226252E-17
21
0.38
31
0
210
0
220
0
230
1
40
0.984808
41
-0.169560529414911
42
2.66538135977003
0
ELLIPSE
5
12C
100
AcDbEntity
8
1
62
256
6
ByLayer
370
18
48
1
60
0
100
AcDbEllipse
10
38.918809
20
5.824362
30
0
11
-7.80686550561765E-17
21
-0.425
31
0
210
0
220
0
230
1
40
0.984808
41
-0.169560529414944
42
1.61818380857342
0
ELLIPSE
5
12D
100
AcDbEntity
8
1
62
256
6
ByLayer
370
18
48
1
60
0
100
AcDbEllipse
10
40.2035
20
3.402883
30
0
11
2.32675207226252E-17
21
0.38
31
0
210
0
220
0
230
1
40
0.984808
41
1.92483457297824
42
-1.52340884501638
0
ELLIPSE
5
12E
100
AcDbEntity
8
1
62
256
6
ByLayer
370
18
48
1
60
0
100
AcDbEllipse
10
40.99538
20
3.441016
30
0
11
-7.80686550561765E-17
21
-0.425
31
0
210
0
220
0
230
1
40
0.984808
41
2.97203212417487
42
-1.52340884501639
0
ELLIPSE
5
12F
100
AcDbEntity
8
1
62
256
6
ByLayer
370
18
48
1
60
0
100
AcDbEllipse
10
39.031435
20
3.8011
30
0
11
2.32675207226252E-17
21
0.38
31
0
210
0
220
0
230
1
40
0.984808
41
0.87763702178167
42
-2.57060639621294
0
ELLIPSE
5
130
100
AcDbEntity
8
1
62
256
6
ByLayer
370
18
48
1
60
0
100
AcDbEllipse
10
41.492578
20
4.949905
30
0
11
-7.80686550561765E-17
21
-0.425
31
0
210
0
220
0
230
1
40
0.984808
41
-2.26395563180813
42
-0.476211293819751
0
ELLIPSE
5
131
100
AcDbEntity
8
1
62
256
6
ByLayer
370
18
48
1
60
0
100
AcDbEllipse
10
38.421611
20
4.315472
30
0
11
-7.80686550561765E-17
21
-0.425
31
0
210
0
220
0
230
1
40
0.984808
41
0.877637021781641
42
2.66538135977004
0
ELLIPSE
5
132
100
AcDbEntity
8
1
62
256
6
ByLayer
370
18
48
1
60
0
100
AcDbEllipse
10
39.459897
20
3.123799
30
0
11
-7.80686550561765E-17
21
-0.425
31
0
210
0
220
0
230
1
40
0.984808
41
1.92483457297823
42
-2.57060639621296
0
ELLIPSE
5
133
100
AcDbEntity
8
1
62
256
6
ByLayer
370
18
48
1
60
0
100
AcDbEllipse
10
39.829629
20
4.632689
30
0
11
2.44921270764475E-16
21
4
31
0
210
0
220
0
230
1
40
0.984808
41
0
42
6.28318530717959
0
ELLIPSE
5
134
100
AcDbEntity
8
1
62
256
6
ByLayer
370
18
48
1
60
0
100
AcDbEllipse
10
41.21474
20
4.949905
30
0
11
-7.80686550561765E-17
21
-0.425
31
0
210
0
220
0
230
1
40
0.984808
41
-2.26395563180815
42
-0.476211293819751
0
ELLIPSE
5
135
100
AcDbEntity
8
1
62
256
6
ByLayer
370
18
48
1
60
0
100
AcDbEllipse
10
40.454292
20
6.141578
30
0
11
-7.80686550561765E-17
21
-0.425
31
0
210
0
220
0
230
1
40
0.984808
41
-1.21675808061156
42
0.570986257376847
0
ELLIPSE
5
136
100
AcDbEntity
8
1
62
256
6
ByLayer
370
18
48
1
60
0
100
AcDbEllipse
10
39.710689
20
5.862494
30
0
11
2.32675207226252E-17
21
0.38
31
0
210
0
220
0
230
1
40
0.984808
41
-1.21675808061155
42
1.61818380857343
0
ELLIPSE
5
137
100
AcDbEntity
8
1
62
256
6
ByLayer
370
18
48
1
60
0
100
AcDbEllipse
10
41.12916
20
4.234471
30
0
11
2.32675207226252E-17
21
0.38
31
0
210
0
220
0
230
1
40
0.984808
41
2.97203212417488
42
-0.476211293819763
0
ELLIPSE
5
138
100
AcDbEntity
8
1
62
256
6
ByLayer
370
18
48
1
60
0
100
AcDbEllipse
10
-2.347154
20
0
30
0
11
-14.7536831606537
21
-31.0932549155779
31
0
210
0
220
0
230
1
40
0.341999
41
2.05035306783689
42
2.98378646694435
0
ELLIPSE
5
139
100
AcDbEntity
8
1
62
256
6
ByLayer
370
18
48
1
60
0
100
AcDbEllipse
10
12
20
-18.185217
30
0
11
-1.87686272356697
21
-2.86780973812225
31
0
210
0
220
0
230
1
40
0.240927
41
-0.679241005235342
42
-0.0262290721842159
0
ELLIPSE
5
13A
100
AcDbEntity
8
1
62
256
6
ByLayer
370
18
48
1
60
0
100
AcDbEllipse
10
19.663915
20
-15.821137
30
0
11
-0.0153043675613636
21
6.79268139245446
31
0
210
0
220
0
230
1
40
0.027083
41
2.83363735728712
42
-1.87875162309802
0
ELLIPSE
5
13B
100
AcDbEntity
8
1
62
256
6
ByLayer
370
18
48
1
60
0
100
AcDbEllipse
10
20.755893
20
0
30
0
11
1.92875500727024E-15
21
31.5
31
0
210
0
220
0
230
1
40
0.087489
41
0.311401384074101
42
2.83019126951569
0
ELLIPSE
5
13C
100
AcDbEntity
8
1
62
256
6
ByLayer
370
18
48
1
60
0
100
AcDbEllipse
10
39.999315
20
-2.460355
30
0
11
-4.35154490004314E-16
21
-2.36894894780439
31
0
210
0
220
0
230
1
40
0.984808
41
-1.09083078249664
42
0.479965544299455
0
ELLIPSE
5
13D
100
AcDbEntity
8
1
62
256
6
ByLayer
370
18
48
1
60
0
100
AcDbEllipse
10
12
20
-20.403367
30
0
11
-2.00000000000004
21
2.02127811016477E-15
31
0
210
0
220
0
230
1
40
0.707538
41
0.751504621492329
42
2.39008803209746
0
ELLIPSE
5
13E
100
AcDbEntity
8
1
62
256
6
ByLayer
370
18
48
1
60
0
100
AcDbEllipse
10
25.890577
20
-0.546544
30
0
11
-6.6307374833116
21
1.89963073402332
31
-4.10499322802109E-17
210
6.1908546950511E-18
220
-7.70371977754894E-34
230
-1
40
0.579922
41
-2.8209399572383
42
-2.51322843616895
0
ELLIPSE
5
13F
100
AcDbEntity
8
1
62
256
6
ByLayer
370
18
48
1
60
0
100
AcDbEllipse
10
12
20
-20.403367
30
0
11
-1.99999999999995
21
2.02127811016468E-15
31
0
210
0
220
0
230
1
40
0.707538
41
-2.3900880320975
42
-0.751504621492278
0
ELLIPSE
5
140
100
AcDbEntity
8
1
62
256
6
ByLayer
370
18
48
1
60
0
100
AcDbEllipse
10
23.896286
20
21.668655
30
0
11
-3.99727982280761
21
2.06256760438713
31
0
210
0
220
0
230
1
40
0.071486
41
1.57278577659351
42
1.60766565666428
0
ELLIPSE
5
141
100
AcDbEntity
8
1
62
256
6
ByLayer
370
18
48
1
60
0
100
AcDbEllipse
10
12
20
-18.185217
30
0
11
-1.87686272356242
21
2.86780973811654
31
0
210
0
220
0
230
1
40
0.240927
41
-3.11536358140556
42
-2.46235164835362
0
ELLIPSE
5
142
100
AcDbEntity
8
1
62
256
6
ByLayer
370
18
48
1
60
0
100
AcDbEllipse
10
34.113717
20
-27.568235
30
0
11
-10.3573514412346
21
1.26836783837072E-15
31
0
210
0
220
0
230
1
40
0.984808
41
-1.09083078249489
42
-0.164558731528739
0
ELLIPSE
5
143
100
AcDbEntity
8
1
62
256
6
ByLayer
370
18
48
1
60
0
100
AcDbEllipse
10
-2.347154
20
0
30
0
11
-14.7536831606548
21
31.0932549155792
31
0
210
0
220
0
230
1
40
0.341999
41
-2.98378646694435
42
-2.05035306783692
0
ELLIPSE
5
144
100
AcDbEntity
8
1
62
256
6
ByLayer
370
18
48
1
60
0
100
AcDbEllipse
10
26.347154
20
0
30
0
11
-14.7536831606555
21
31.0932549155802
31
0
210
0
220
0
230
1
40
0.341999
41
0.157806186645435
42
1.09123958575285
0
ELLIPSE
5
145
100
AcDbEntity
8
1
62
256
6
ByLayer
370
18
48
1
60
0
100
AcDbEllipse
10
28.974722
20
0.003437
30
0
11
-0.000538678514898325
21
-40.728832115914
31
0
210
0
220
0
230
1
40
0.23418
41
-2.45949418529742
42
-2.45388216227624
0
ELLIPSE
5
146
100
AcDbEntity
8
1
62
256
6
ByLayer
370
18
48
1
60
0
100
AcDbEllipse
10
26.347154
20
0
30
0
11
-14.7536831606553
21
-31.0932549155799
31
0
210
0
220
0
230
1
40
0.341999
41
-1.09123958575286
42
-0.157806186645435
0
ELLIPSE
5
147
100
AcDbEntity
8
1
62
256
6
ByLayer
370
18
48
1
60
0
100
AcDbEllipse
10
28.974984
20
-0.002066
30
0
11
-0.000323873581564113
21
40.7302477710149
31
0
210
0
220
0
230
1
40
0.234179
41
2.45389410305214
42
2.45950600415256
0
ELLIPSE
5
148
100
AcDbEntity
8
1
62
256
6
ByLayer
370
18
48
1
60
0
100
AcDbEllipse
10
27.034064
20
-0.87414
30
0
11
-5.26564671665003
21
1.846069569317
31
0
210
0
220
0
230
1
40
0.715711
41
2.90214638779504
42
-3.12807168736159
0
ELLIPSE
5
149
100
AcDbEntity
8
1
62
256
6
ByLayer
370
18
48
1
60
0
100
AcDbEllipse
10
19.408062
20
-12.894304
30
0
11
-0.0153043675612753
21
6.79268139245341
31
0
210
0
220
0
230
1
40
0.027083
41
1.45565742852209
42
2.83363735728706
0
ELLIPSE
5
14A
100
AcDbEntity
8
1
62
256
6
ByLayer
370
18
48
1
60
0
100
AcDbEllipse
10
51.029165
20
5.556041
30
0
11
4.86168722467484E-17
21
0.794
31
0
210
0
220
0
230
1
40
0.984808
41
0
42
0.47996554430001
0
ELLIPSE
5
14B
100
AcDbEntity
8
1
62
256
6
ByLayer
370
18
48
1
60
0
100
AcDbEllipse
10
64.217776
20
4.1E-05
30
0
11
4.86168722467484E-17
21
0.794
31
0
210
0
220
0
230
1
40
0.984808
41
-2.66162710928978
42
-0.479965544296862
0
ELLIPSE
5
14C
100
AcDbEntity
8
1
62
256
6
ByLayer
370
18
48
1
60
0
100
AcDbEllipse
10
53.706945
20
-5.555959
30
0
11
4.86168722467484E-17
21
0.794
31
0
210
0
220
0
230
1
40
0.984808
41
-3.14159265358823
42
-2.66162710928978
0
ELLIPSE
5
14D
100
AcDbEntity
8
1
62
256
6
ByLayer
370
18
48
1
60
0
100
AcDbEllipse
10
51.029165
20
-5.555959
30
0
11
4.86168722467484E-17
21
0.794
31
0
210
0
220
0
230
1
40
0.984808
41
2.66162710929292
42
-3.14159265358823
0
ELLIPSE
5
14E
100
AcDbEntity
8
1
62
256
6
ByLayer
370
18
48
1
60
0
100
AcDbEllipse
10
53.706945
20
5.556041
30
0
11
4.86168722467484E-17
21
0.794
31
0
210
0
220
0
230
1
40
0.984808
41
-0.479965544296875
42
1.58112928207671E-12
0
POINT
5
6C
100
AcDbEntity
8
2
62
256
6
ByLayer
370
18
48
1
60
0
100
AcDbPoint
10
65
20
0.4817
30
0
39
0
210
0
220
0
230
1
50
360
0
POINT
5
6E
100
AcDbEntity
8
80
62
256
6
ByLayer
370
18
48
1
60
0
100
AcDbPoint
10
0
20
0
30
0
39
0
210
0
220
0
230
1
50
360
0
POINT
5
70
100
AcDbEntity
8
81
62
256
6
ByLayer
370
18
48
1
60
0
100
AcDbPoint
10
65
20
0.4817
30
0
39
0
210
0
220
0
230
1
50
360
0
SPLINE
5
14F
100
AcDbEntity
8
SK1
62
256
6
ByLayer
370
18
48
1
60
0
100
AcDbSpline
70
4
71
3
72
13
73
9
40
0
40
0
40
0
40
0
40
0.239456135763718
40
0.368359721933656
40
0.499998984021097
40
0.63163841528373
40
0.760542467778167
40
1
40
1
40
1
40
1
41
1
10
-2.19999999999999
20
-22.0200986606755
30
0
41
1
10
-2.19909198642273
20
-21.9940411845603
30
0
41
1
10
-2.19103284106941
20
-21.9566686002238
30
0
41
1
10
-2.16563592203337
20
-21.9104494263858
30
0
41
1
10
-2.1388637867926
20
-21.8791678725253
30
0
41
1
10
-2.10627712749869
20
-21.8540005023229
30
0
41
1
10
-2.05884064234078
20
-21.8309566998545
30
0
41
1
10
-2.02111030873027
20
-21.8247844448324
30
0
41
1
10
-1.99503997793928
20
-21.825186084775
30
0
0
SPLINE
5
150
100
AcDbEntity
8
SK1
62
256
6
ByLayer
370
18
48
1
60
0
100
AcDbSpline
70
4
71
3
72
13
73
9
40
0
40
0
40
0
40
0
40
0.239457532152995
40
0.368361584623188
40
0.500001015876169
40
0.631640277971204
40
0.760543864164266
40
1
40
1
40
1
40
1
41
1
10
-1.99503997793928
20
21.8251861015554
30
0
41
1
10
-2.02111030873166
20
21.8247844616134
30
0
41
1
10
-2.05884064234343
20
21.8309567166392
30
0
41
1
10
-2.10627712750076
20
21.854000519123
30
0
41
1
10
-2.13886378679456
20
21.8791678893421
30
0
41
1
10
-2.16563592203485
20
21.9104494432231
30
0
41
1
10
-2.19103284107055
20
21.9566686170919
30
0
41
1
10
-2.19909198642387
20
21.9940412014509
30
0
41
1
10
-2.19999999999999
20
22.0200986775813
30
0
0
SPLINE
5
151
100
AcDbEntity
8
SK1
62
256
6
ByLayer
370
18
48
1
60
0
100
AcDbSpline
70
4
71
2
72
6
73
3
40
0
40
0
40
0
40
1
40
1
40
1
41
1
10
-36.5
20
-21.1521177089669
30
0
41
1
10
-19.3499999999701
20
-21.5828554470541
30
0
41
1
10
-2.19999999999999
20
-22.0135928951589
30
0
0
SPLINE
5
152
100
AcDbEntity
8
SK1
62
256
6
ByLayer
370
18
48
1
60
0
100
AcDbSpline
70
4
71
2
72
6
73
3
40
0
40
0
40
0
40
1
40
1
40
1
41
1
10
-2.19999999999999
20
22.0135927638551
30
0
41
1
10
-19.3499999999869
20
21.5828539542124
30
0
41
1
10
-36.5
20
21.1521149580209
30
0
0
SPLINE
5
153
100
AcDbEntity
8
SK1
62
256
6
ByLayer
370
18
48
1
60
0
100
AcDbSpline
70
4
71
2
72
6
73
3
40
0
40
0
40
0
40
1
40
1
40
1
41
1
10
-1.99503997793928
20
-21.8251812553753
30
0
41
1
10
-1.19500843340728
20
-21.8452807024746
30
0
41
1
10
-0.394976888875277
20
-21.8653801495793
30
0
0
SPLINE
5
154
100
AcDbEntity
8
SK1
62
256
6
ByLayer
370
18
48
1
60
0
100
AcDbSpline
70
4
71
2
72
6
73
3
40
0
40
0
40
0
40
1
40
1
40
1
41
1
10
-0.394976888875277
20
21.8653802062992
30
0
41
1
10
-1.19500843340728
20
21.8452807593862
30
0
41
1
10
-1.99503997793928
20
21.8251813124779
30
0
0
SPLINE
5
155
100
AcDbEntity
8
SK1
62
256
6
ByLayer
370
18
48
1
60
0
100
AcDbSpline
70
4
71
2
72
6
73
3
40
0
40
0
40
0
40
1
40
1
40
1
41
1
10
-38
20
-20.289405225553
30
0
41
1
10
-37.2500000000012
20
-20.7223540793632
30
0
41
1
10
-36.5
20
-21.1553029418638
30
0
0
SPLINE
5
156
100
AcDbEntity
8
SK1
62
256
6
ByLayer
370
18
48
1
60
0
100
AcDbSpline
70
4
71
2
72
6
73
3
40
0
40
0
40
0
40
1
40
1
40
1
41
1
10
-36.5
20
21.155302724897
30
0
41
1
10
-37.2500000000012
20
20.7223538609616
30
0
41
1
10
-38
20
20.2894050057151
30
0
0
SPLINE
5
157
100
AcDbEntity
8
SK1
62
256
6
ByLayer
370
18
48
1
60
0
100
AcDbSpline
70
4
71
2
72
6
73
3
40
0
40
0
40
0
40
1
40
1
40
1
41
1
10
-0.394976888875277
20
-21.8653849865467
30
0
41
1
10
-0.265172990617003
20
-21.8689012906761
30
0
41
1
10
-0.240502439654279
20
-21.9465691723769
30
0
0
SPLINE
5
158
100
AcDbEntity
8
SK1
62
256
6
ByLayer
370
18
48
1
60
0
100
AcDbSpline
70
4
71
2
72
6
73
3
40
0
40
0
40
0
40
1
40
1
40
1
41
1
10
-0.239684768755779
20
21.9481214799356
30
0
41
1
10
-0.264174311740362
20
21.8692639605625
30
0
41
1
10
-0.394976888875277
20
21.865385003355
30
0
0
SPLINE
5
159
100
AcDbEntity
8
SK1
62
256
6
ByLayer
370
18
48
1
60
0
100
AcDbSpline
70
4
71
3
72
295
73
291
40
0
40
0
40
0
40
0
40
0.0029463042061154
40
0.0065222290858089
40
0.0100981539655024
40
0.0136740788451959
40
0.0172500037248894
40
0.0208259286045829
40
0.0279777783639699
40
0.035129628123357
40
0.042281477882744
40
0.0458574027624375
40
0.049433327642131
40
0.0530092525218245
40
0.056585177401518
40
0.0637370271609051
40
0.0673129520405986
40
0.0708888769202921
40
0.0744648017999856
40
0.0780407266796791
40
0.0816166515593726
40
0.0851925764390662
40
0.0923444261984532
40
0.0959203510781467
40
0.0994962759578402
40
0.103072200837534
40
0.106648125717227
40
0.110224050596921
40
0.113799975476614
40
0.117375900356308
40
0.120951825236001
40
0.124527750115695
40
0.128103674995388
40
0.131679599875082
40
0.135255524754775
40
0.138831449634469
40
0.142407374514162
40
0.149559224273549
40
0.153135149153243
40
0.156711074032936
40
0.158499036472783
40
0.16028699891263
40
0.163862923792324
40
0.17101477355171
40
0.174590698431404
40
0.178166623311098
40
0.181742548190791
40
0.185318473070484
40
0.192470322829872
40
0.196046247709565
40
0.199622172589259
40
0.201410135029105
40
0.203198097468952
40
0.206774022348646
40
0.213925872108033
40
0.217501796987726
40
0.22107772186742
40
0.224653646747113
40
0.228229571626807
40
0.235381421386194
40
0.238957346265887
40
0.242533271145581
40
0.244321233585428
40
0.246109196025274
40
0.249685120904968
40
0.253261045784661
40
0.256836970664355
40
0.258624933104201
40
0.260412895544048
40
0.263988820423742
40
0.267564745303435
40
0.271140670183129
40
0.274716595062822
40
0.278292519942516
40
0.281868444822209
40
0.285444369701903
40
0.289020294581596
40
0.29259621946129
40
0.296172144340983
40
0.299748069220677
40
0.30332399410037
40
0.306899918980064
40
0.310475843859758
40
0.314051768739451
40
0.321203618498838
40
0.324779543378531
40
0.328355468258225
40
0.331931393137918
40
0.335507318017612
40
0.339083242897306
40
0.342659167776999
40
0.346235092656693
40
0.349811017536386
40
0.356962867295773
40
0.36411471705516
40
0.371266566814547
40
0.374842491694241
40
0.378418416573934
40
0.381994341453628
40
0.385570266333321
40
0.389146191213015
40
0.392722116092708
40
0.396298040972402
40
0.399873965852095
40
0.403449890731789
40
0.407025815611482
40
0.410601740491176
40
0.414177665370869
40
0.417753590250563
40
0.421329515130256
40
0.42490544000995
40
0.428481364889643
40
0.432057289769337
40
0.433845252209184
40
0.43563321464903
40
0.437421177088877
40
0.439209139528724
40
0.442785064408417
40
0.446360989288111
40
0.448148951727958
40
0.449936914167805
40
0.451724876607651
40
0.453512839047498
40
0.457088763927192
40
0.458876726367038
40
0.460664688806885
40
0.462452651246732
40
0.464240613686578
40
0.466028576126425
40
0.467816538566272
40
0.469604501006119
40
0.471392463445966
40
0.473180425885812
40
0.474968388325659
40
0.476756350765506
40
0.478544313205353
40
0.480332275645199
40
0.482120238085046
40
0.483908200524893
40
0.48569616296474
40
0.487484125404586
40
0.489272087844433
40
0.49106005028428
40
0.492848012724127
40
0.494635975163973
40
0.49642393760382
40
0.498211900043667
40
0.499999862483514
40
0.50178782492336
40
0.503575787363207
40
0.505363749803054
40
0.507151712242901
40
0.508939674682747
40
0.510727637122594
40
0.512515599562441
40
0.514303562002288
40
0.516091524442134
40
0.517879486881981
40
0.519667449321828
40
0.521455411761675
40
0.523243374201521
40
0.525031336641368
40
0.526819299081215
40
0.528607261521062
40
0.530395223960909
40
0.532183186400755
40
0.533971148840602
40
0.535759111280449
40
0.537547073720296
40
0.539335036160142
40
0.541122998599989
40
0.542910961039836
40
0.546486885919529
40
0.548274848359376
40
0.550062810799223
40
0.55185077323907
40
0.553638735678916
40
0.55721466055861
40
0.560790585438303
40
0.56257854787815
40
0.564366510317997
40
0.566154472757844
40
0.56794243519769
40
0.571518360077384
40
0.575094284957077
40
0.578670209836771
40
0.582246134716464
40
0.585822059596158
40
0.589397984475851
40
0.592973909355545
40
0.596549834235239
40
0.600125759114932
40
0.603701683994626
40
0.607277608874319
40
0.610853533754013
40
0.614429458633706
40
0.6180053835134
40
0.621581308393093
40
0.625157233272787
40
0.62873315815248
40
0.635885007911867
40
0.643036857671254
40
0.650188707430641
40
0.653764632310335
40
0.657340557190028
40
0.660916482069722
40
0.664492406949415
40
0.668068331829109
40
0.671644256708802
40
0.675220181588496
40
0.678796106468189
40
0.685947956227576
40
0.68952388110727
40
0.693099805986963
40
0.696675730866657
40
0.70025165574635
40
0.703827580626044
40
0.707403505505737
40
0.710979430385431
40
0.714555355265124
40
0.718131280144818
40
0.721707205024511
40
0.725283129904205
40
0.728859054783898
40
0.736010904543286
40
0.739586829422979
40
0.743162754302673
40
0.75031460406206
40
0.753890528941753
40
0.757466453821447
40
0.76104237870114
40
0.764618303580834
40
0.771770153340221
40
0.775346078219914
40
0.778922003099608
40
0.782497927979301
40
0.786073852858995
40
0.793225702618382
40
0.796801627498075
40
0.800377552377769
40
0.803953477257462
40
0.807529402137156
40
0.814681251896543
40
0.818257176776236
40
0.82183310165593
40
0.825409026535623
40
0.828984951415317
40
0.836136801174704
40
0.839712726054397
40
0.843288650934091
40
0.846864575813784
40
0.850440500693478
40
0.857592350452865
40
0.861168275332558
40
0.864744200212252
40
0.868320125091945
40
0.871896049971639
40
0.875471974851333
40
0.879047899731026
40
0.88262382461072
40
0.886199749490413
40
0.889775674370107
40
0.8933515992498
40
0.896927524129494
40
0.900503449009187
40
0.904079373888881
40
0.907655298768574
40
0.914807148527961
40
0.918383073407655
40
0.921958998287348
40
0.925534923167042
40
0.929110848046735
40
0.932686772926429
40
0.936262697806122
40
0.943414547565509
40
0.946990472445203
40
0.950566397324896
40
0.95414232220459
40
0.957718247084283
40
0.96487009684367
40
0.968446021723364
40
0.972021946603057
40
0.975597871482751
40
0.979173796362444
40
0.982749721242138
40
0.986325646121831
40
0.989901571001525
40
0.993477495881218
40
0.997053420760912
40
1
40
1
40
1
40
1
41
1
10
-2.19999999999996
20
22.0135196691932
30
0
41
1
10
-2.19999999999996
20
22.0117276037733
30
0
41
1
10
-2.20000000000002
20
22.0069596865207
30
0
41
1
10
-2.19999999999999
20
21.9968726461305
30
0
41
1
10
-2.19999999999999
20
21.9830583750197
30
0
41
1
10
-2.19999999999999
20
21.9661971621578
30
0
41
1
10
-2.19999999999999
20
21.9463373083127
30
0
41
1
10
-2.19999999999999
20
21.9159230944434
30
0
41
1
10
-2.19999999999999
20
21.870633664349
30
0
41
1
10
-2.19999999999999
20
21.8049949078793
30
0
41
1
10
-2.19999999999999
20
21.7411390111089
30
0
41
1
10
-2.19999999999999
20
21.6847072709128
30
0
41
1
10
-2.19999999999999
20
21.6397397481888
30
0
41
1
10
-2.19999999999999
20
21.5921615264852
30
0
41
1
10
-2.19999999999999
20
21.5252891523049
30
0
41
1
10
-2.19999999999999
20
21.453308753177
30
0
41
1
10
-2.19999999999999
20
21.3763547276269
30
0
41
1
10
-2.19999999999999
20
21.3161703964091
30
0
41
1
10
-2.19999999999999
20
21.2535469243879
30
0
41
1
10
-2.19999999999999
20
21.1885090229233
30
0
41
1
10
-2.19999999999999
20
21.121080083473
30
0
41
1
10
-2.19999999999999
20
21.0280237507364
30
0
41
1
10
-2.19999999999999
20
20.9302657445266
30
0
41
1
10
-2.19999999999999
20
20.8279188369072
30
0
41
1
10
-2.19999999999999
20
20.7488739070252
30
0
41
1
10
-2.19999999999999
20
20.6675681841826
30
0
41
1
10
-2.19999999999999
20
20.5840212184218
30
0
41
1
10
-2.19999999999999
20
20.4982502525025
30
0
41
1
10
-2.19999999999999
20
20.4102747128949
30
0
41
1
10
-2.19999999999999
20
20.3201119071544
30
0
41
1
10
-2.19999999999999
20
20.2277776663919
30
0
41
1
10
-2.19999999999999
20
20.1332899477274
30
0
41
1
10
-2.19999999999999
20
20.0366642357895
30
0
41
1
10
-2.19999999999999
20
19.9379151599299
30
0
41
1
10
-2.19999999999999
20
19.8370591957147
30
0
41
1
10
-2.19999999999999
20
19.7341102362335
30
0
41
1
10
-2.19999999999999
20
19.5940778412012
30
0
41
1
10
-2.19999999999999
20
19.4499005336558
30
0
41
1
10
-2.19999999999999
20
19.3016622310533
30
0
41
1
10
-2.19999999999999
20
19.2073184270571
30
0
41
1
10
-2.19999999999999
20
19.1308417758755
30
0
41
1
10
-2.19999999999999
20
19.0536957086557
30
0
41
1
10
-2.19999999999999
20
18.9169360704622
30
0
41
1
10
-2.19999999999999
20
18.756645794641
30
0
41
1
10
-2.19999999999999
20
18.5924362845557
30
0
41
1
10
-2.19999999999999
20
18.4673177976698
30
0
41
1
10
-2.19999999999999
20
18.3402521463352
30
0
41
1
10
-2.19999999999999
20
18.1682545122203
30
0
41
1
10
-2.19999999999999
20
17.9923842356821
30
0
41
1
10
-2.19999999999999
20
17.8127164551587
30
0
41
1
10
-2.19999999999999
20
17.6988333809735
30
0
41
1
10
-2.19999999999999
20
17.606787767091
30
0
41
1
10
-2.19999999999999
20
17.5141131161323
30
0
41
1
10
-2.19999999999999
20
17.3502824417036
30
0
41
1
10
-2.19999999999999
20
17.1592829447589
30
0
41
1
10
-2.19999999999999
20
16.9645867974536
30
0
41
1
10
-2.19999999999999
20
16.8167088060477
30
0
41
1
10
-2.19999999999999
20
16.6669871400996
30
0
41
1
10
-2.19999999999999
20
16.4649164953067
30
0
41
1
10
-2.19999999999999
20
16.2591646002876
30
0
41
1
10
-2.19999999999999
20
16.049802831716
30
0
41
1
10
-2.19999999999999
20
15.9174340084588
30
0
41
1
10
-2.19999999999999
20
15.8106442286412
30
0
41
1
10
-2.19999999999999
20
15.7032538676567
30
0
41
1
10
-2.19999999999999
20
15.567882396309
30
0
41
1
10
-2.19999999999999
20
15.4036502143979
30
0
41
1
10
-2.19999999999999
20
15.2652965264295
30
0
41
1
10
-2.19999999999999
20
15.1537302031574
30
0
41
1
10
-2.19999999999999
20
15.0415708470876
30
0
41
1
10
-2.19999999999999
20
14.90025131083
30
0
41
1
10
-2.19999999999999
20
14.7289012367181
30
0
41
1
10
-2.19999999999999
20
14.5557843226631
30
0
41
1
10
-2.19999999999999
20
14.3809062427341
30
0
41
1
10
-2.19999999999999
20
14.2042700822292
30
0
41
1
10
-2.19999999999999
20
14.0258803741545
30
0
41
1
10
-2.19999999999999
20
13.8457420253844
30
0
41
1
10
-2.19999999999999
20
13.6638579861817
30
0
41
1
10
-2.19999999999999
20
13.4802328481714
30
0
41
1
10
-2.19999999999999
20
13.2948705974071
30
0
41
1
10
-2.19999999999999
20
13.1077737485311
30
0
41
1
10
-2.19999999999999
20
12.9189467805057
30
0
41
1
10
-2.19999999999999
20
12.728392778749
30
0
41
1
10
-2.19999999999999
20
12.5361142588231
30
0
41
1
10
-2.19999999999999
20
12.2774598592137
30
0
41
1
10
-2.19999999999999
20
12.0153352592314
30
0
41
1
10
-2.19999999999999
20
11.7498207258852
30
0
41
1
10
-2.19999999999999
20
11.5489655826483
30
0
41
1
10
-2.19999999999999
20
11.3464032807099
30
0
41
1
10
-2.19999999999999
20
11.1421359853758
30
0
41
1
10
-2.19999999999999
20
10.9361655879759
30
0
41
1
10
-2.19999999999999
20
10.7284950970913
30
0
41
1
10
-2.19999999999999
20
10.5191258614377
30
0
41
1
10
-2.19999999999999
20
10.2377184130835
30
0
41
1
10
-2.19999999999999
20
9.88169304970987
30
0
41
1
10
-2.19999999999999
20
9.44771865839311
30
0
41
1
10
-2.19999999999999
20
9.08043848955603
30
0
41
1
10
-2.19999999999999
20
8.78327689677775
30
0
41
1
10
-2.19999999999999
20
8.55871419535617
30
0
41
1
10
-2.19999999999999
20
8.33247380011301
30
0
41
1
10
-2.19999999999999
20
8.10455852701506
30
0
41
1
10
-2.19999999999999
20
7.87497060194644
30
0
41
1
10
-2.19999999999999
20
7.6437128367312
30
0
41
1
10
-2.19999999999999
20
7.41078884464241
30
0
41
1
10
-2.19999999999999
20
7.17620220160032
30
0
41
1
10
-2.19999999999999
20
6.93995692090419
30
0
41
1
10
-2.19999999999999
20
6.70205758660663
30
0
41
1
10
-2.19999999999999
20
6.46250918569618
30
0
41
1
10
-2.19999999999999
20
6.2213178400012
30
0
41
1
10
-2.19999999999999
20
5.97849049576266
30
0
41
1
10
-2.19999999999999
20
5.73403521575827
30
0
41
1
10
-2.19999999999999
20
5.48796107357256
30
0
41
1
10
-2.19999999999999
20
5.24027911118978
30
0
41
1
10
-2.19999999999999
20
5.03253661023487
30
0
41
1
10
-2.19999999999999
20
4.86557359122418
30
0
41
1
10
-2.19999999999999
20
4.73994908127321
30
0
41
1
10
-2.19999999999999
20
4.61393371339017
30
0
41
1
10
-2.19999999999999
20
4.44540774959788
30
0
41
1
10
-2.19999999999999
20
4.23375652596863
30
0
41
1
10
-2.19999999999999
20
4.02083961713782
30
0
41
1
10
-2.19999999999999
20
3.84978439152417
30
0
41
1
10
-2.19999999999999
20
3.72111342731068
30
0
41
1
10
-2.19999999999999
20
3.59207749308624
30
0
41
1
10
-2.19999999999999
20
3.41956369464535
30
0
41
1
10
-2.19999999999999
20
3.24629481959221
30
0
41
1
10
-2.19999999999999
20
3.0723836150739
30
0
41
1
10
-2.19999999999999
20
2.94160046512801
30
0
41
1
10
-2.19999999999999
20
2.81048647644627
30
0
41
1
10
-2.19999999999999
20
2.67904892732182
30
0
41
1
10
-2.19999999999999
20
2.54729562722176
30
0
41
1
10
-2.19999999999999
20
2.41523551097489
30
0
41
1
10
-2.19999999999999
20
2.28287740252156
30
0
41
1
10
-2.19999999999999
20
2.15023166945255
30
0
41
1
10
-2.19999999999999
20
2.01730873413072
30
0
41
1
10
-2.19999999999999
20
1.88412021099791
30
0
41
1
10
-2.19999999999999
20
1.75067841854351
30
0
41
1
10
-2.19999999999999
20
1.61699634722072
30
0
41
1
10
-2.19999999999999
20
1.48308821885627
30
0
41
1
10
-2.19999999999999
20
1.34896859254377
30
0
41
1
10
-2.19999999999999
20
1.21465350310541
30
0
41
1
10
-2.19999999999999
20
1.0801592162689
30
0
41
1
10
-2.19999999999999
20
0.945503442662783
30
0
41
1
10
-2.19999999999999
20
0.810704113119073
30
0
41
1
10
-2.19999999999999
20
0.675780421912322
30
0
41
1
10
-2.19999999999999
20
0.540751787789588
30
0
41
1
10
-2.19999999999999
20
0.405638599098921
30
0
41
1
10
-2.19999999999999
20
0.270461428271432
30
0
41
1
10
-2.19999999999999
20
0.135241462279822
30
0
41
1
10
-2.19999999999999
20
-5.3654787E-09
30
0
41
1
10
-2.19999999999999
20
-0.135241472589996
30
0
41
1
10
-2.19999999999999
20
-0.270461437853925
30
0
41
1
10
-2.19999999999999
20
-0.405638608907879
30
0
41
1
10
-2.19999999999999
20
-0.540751798686529
30
0
41
1
10
-2.19999999999999
20
-0.675780432522174
30
0
41
1
10
-2.19999999999999
20
-0.810704122044939
30
0
41
1
10
-2.19999999999999
20
-0.945503451789534
30
0
41
1
10
-2.19999999999999
20
-1.08015922751395
30
0
41
1
10
-2.19999999999999
20
-1.21465351395383
30
0
41
1
10
-2.19999999999999
20
-1.34896860046499
30
0
41
1
10
-2.19999999999999
20
-1.48308822685564
30
0
41
1
10
-2.19999999999999
20
-1.61699635855226
30
0
41
1
10
-2.19999999999999
20
-1.75067843002711
30
0
41
1
10
-2.19999999999999
20
-1.88412021847037
30
0
41
1
10
-2.19999999999999
20
-2.01730874020455
30
0
41
1
10
-2.19999999999999
20
-2.15023167925048
30
0
41
1
10
-2.19999999999999
20
-2.28287741514001
30
0
41
1
10
-2.19999999999999
20
-2.41523552035437
30
0
41
1
10
-2.19999999999999
20
-2.54729563151926
30
0
41
1
10
-2.19999999999999
20
-2.67904893291683
30
0
41
1
10
-2.19999999999999
20
-2.81048648769612
30
0
41
1
10
-2.19999999999999
20
-2.94160047796311
30
0
41
1
10
-2.19999999999999
20
-3.072383622975
30
0
41
1
10
-2.19999999999999
20
-3.24629481975686
30
0
41
1
10
-2.19999999999999
20
-3.41956370437865
30
0
41
1
10
-2.19999999999999
20
-3.59207750684843
30
0
41
1
10
-2.19999999999999
20
-3.72111343644576
30
0
41
1
10
-2.19999999999999
20
-3.84978439330678
30
0
41
1
10
-2.19999999999999
20
-4.020839617489
30
0
41
1
10
-2.19999999999999
20
-4.23375654375474
30
0
41
1
10
-2.19999999999999
20
-4.44540775759583
30
0
41
1
10
-2.19999999999999
20
-4.61393371339872
30
0
41
1
10
-2.19999999999999
20
-4.73994907984499
30
0
41
1
10
-2.19999999999999
20
-4.86557359653659
30
0
41
1
10
-2.19999999999999
20
-5.03253662624778
30
0
41
1
10
-2.19999999999999
20
-5.24027911954084
30
0
41
1
10
-2.19999999999999
20
-5.48796106514416
30
0
41
1
10
-2.19999999999999
20
-5.73403522651989
30
0
41
1
10
-2.19999999999999
20
-5.97849051253721
30
0
41
1
10
-2.19999999999999
20
-6.22131783489101
30
0
41
1
10
-2.19999999999999
20
-6.46250917346813
30
0
41
1
10
-2.19999999999999
20
-6.70205756880287
30
0
41
1
10
-2.19999999999999
20
-6.93995689241021
30
0
41
1
10
-2.19999999999999
20
-7.17620223308296
30
0
41
1
10
-2.19999999999999
20
-7.41078904293681
30
0
41
1
10
-2.19999999999999
20
-7.64371312168015
30
0
41
1
10
-2.19999999999999
20
-7.87497052861914
30
0
41
1
10
-2.19999999999999
20
-8.10455846042146
30
0
41
1
10
-2.19999999999999
20
-8.33247384441506
30
0
41
1
10
-2.19999999999999
20
-8.55871423477029
30
0
41
1
10
-2.19999999999999
20
-8.78327691067398
30
0
41
1
10
-2.19999999999999
20
-9.08043846702645
30
0
41
1
10
-2.19999999999999
20
-9.44771866001565
30
0
41
1
10
-2.19999999999999
20
-9.88169305528194
30
0
41
1
10
-2.19999999999999
20
-10.2377183913447
30
0
41
1
10
-2.19999999999999
20
-10.5191258633122
30
0
41
1
10
-2.19999999999999
20
-10.7284951094206
30
0
41
1
10
-2.19999999999999
20
-10.9361655882296
30
0
41
1
10
-2.19999999999999
20
-11.1421359694817
30
0
41
1
10
-2.19999999999999
20
-11.3464032666245
30
0
41
1
10
-2.19999999999999
20
-11.5489655840494
30
0
41
1
10
-2.19999999999999
20
-11.7498207382014
30
0
41
1
10
-2.19999999999999
20
-12.015335258712
30
0
41
1
10
-2.19999999999999
20
-12.277459839655
30
0
41
1
10
-2.19999999999999
20
-12.5361142561418
30
0
41
1
10
-2.19999999999999
20
-12.7283927892775
30
0
41
1
10
-2.19999999999999
20
-12.9189467887917
30
0
41
1
10
-2.19999999999999
20
-13.1077737445537
30
0
41
1
10
-2.19999999999999
20
-13.2948705838035
30
0
41
1
10
-2.19999999999999
20
-13.4802328404438
30
0
41
1
10
-2.19999999999999
20
-13.6638579908946
30
0
41
1
10
-2.19999999999999
20
-13.845742035678
30
0
41
1
10
-2.19999999999999
20
-14.0258803815961
30
0
41
1
10
-2.19999999999999
20
-14.2042701267483
30
0
41
1
10
-2.19999999999999
20
-14.3809064511142
30
0
41
1
10
-2.19999999999999
20
-14.61406817927
30
0
41
1
10
-2.19999999999999
20
-14.8437340716545
30
0
41
1
10
-2.19999999999999
20
-15.069828938707
30
0
41
1
10
-2.19999999999999
20
-15.2935559429894
30
0
41
1
10
-2.19999999999999
20
-15.513744330902
30
0
41
1
10
-2.19999999999999
20
-15.7303232767805
30
0
41
1
10
-2.19999999999999
20
-15.8909649274654
30
0
41
1
10
-2.19999999999999
20
-16.0498023362736
30
0
41
1
10
-2.19999999999999
20
-16.2591647559547
30
0
41
1
10
-2.19999999999999
20
-16.4649171124643
30
0
41
1
10
-2.19999999999999
20
-16.666987304737
30
0
41
1
10
-2.19999999999999
20
-16.8167085043733
30
0
41
1
10
-2.19999999999999
20
-16.9645862898264
30
0
41
1
10
-2.19999999999999
20
-17.1592828976246
30
0
41
1
10
-2.19999999999999
20
-17.3502835148979
30
0
41
1
10
-2.19999999999999
20
-17.5375147595292
30
0
41
1
10
-2.19999999999999
20
-17.676060438985
30
0
41
1
10
-2.19999999999999
20
-17.8127154575359
30
0
41
1
10
-2.19999999999999
20
-17.9923842415008
30
0
41
1
10
-2.19999999999999
20
-18.1682547291306
30
0
41
1
10
-2.19999999999999
20
-18.3402522143585
30
0
41
1
10
-2.19999999999999
20
-18.4673177032107
30
0
41
1
10
-2.19999999999999
20
-18.5924361073221
30
0
41
1
10
-2.19999999999999
20
-18.7566457425986
30
0
41
1
10
-2.19999999999999
20
-18.9169371900015
30
0
41
1
10
-2.19999999999999
20
-19.0732305996174
30
0
41
1
10
-2.19999999999999
20
-19.1884526890887
30
0
41
1
10
-2.19999999999999
20
-19.3016611759423
30
0
41
1
10
-2.19999999999999
20
-19.4499005391959
30
0
41
1
10
-2.19999999999999
20
-19.5940785255289
30
0
41
1
10
-2.19999999999999
20
-19.7341104289282
30
0
41
1
10
-2.19999999999999
20
-19.8370589164793
30
0
41
1
10
-2.19999999999999
20
-19.9379146863563
30
0
41
1
10
-2.19999999999999
20
-20.0366640227898
30
0
41
1
10
-2.19999999999999
20
-20.133289903145
30
0
41
1
10
-2.19999999999999
20
-20.2277776697998
30
0
41
1
10
-2.19999999999999
20
-20.3201119082527
30
0
41
1
10
-2.19999999999999
20
-20.4102747220553
30
0
41
1
10
-2.19999999999999
20
-20.4982502752196
30
0
41
1
10
-2.19999999999999
20
-20.5840212474559
30
0
41
1
10
-2.19999999999999
20
-20.6675682022903
30
0
41
1
10
-2.19999999999999
20
-20.7488739108727
30
0
41
1
10
-2.19999999999999
20
-20.82791883753
30
0
41
1
10
-2.19999999999999
20
-20.9302657657864
30
0
41
1
10
-2.19999999999999
20
-21.0280237880878
30
0
41
1
10
-2.19999999999999
20
-21.1210800961781
30
0
41
1
10
-2.19999999999999
20
-21.1885090211437
30
0
41
1
10
-2.19999999999999
20
-21.2535469320083
30
0
41
1
10
-2.19999999999999
20
-21.3161704250344
30
0
41
1
10
-2.19999999999999
20
-21.3763547664481
30
0
41
1
10
-2.19999999999999
20
-21.4533087676779
30
0
41
1
10
-2.19999999999999
20
-21.5252891448141
30
0
41
1
10
-2.19999999999999
20
-21.5921615531195
30
0
41
1
10
-2.19999999999999
20
-21.6397397916631
30
0
41
1
10
-2.19999999999999
20
-21.6847072964973
30
0
41
1
10
-2.19999999999999
20
-21.7411389990572
30
0
41
1
10
-2.19999999999999
20
-21.7922265879071
30
0
41
1
10
-2.19999999999999
20
-21.8378144981283
30
0
41
1
10
-2.19999999999999
20
-21.8692221254414
30
0
41
1
10
-2.19999999999999
20
-21.8978063777089
30
0
41
1
10
-2.19999999999999
20
-21.9235254752891
30
0
41
1
10
-2.19999999999999
20
-21.9463373508774
30
0
41
1
10
-2.19999999999999
20
-21.9661972037607
30
0
41
1
10
-2.19999999999999
20
-21.9830583809744
30
0
41
1
10
-2.19999999999999
20
-21.9968726399857
30
0
41
1
10
-2.19999999999999
20
-22.006959997051
30
0
41
1
10
-2.19999999999999
20
-22.0117281252653
30
0
41
1
10
-2.19999999999999
20
-22.0135203322314
30
0
0
SPLINE
5
15A
100
AcDbEntity
8
SK1
62
256
6
ByLayer
370
18
48
1
60
0
100
AcDbSpline
70
4
71
3
72
303
73
299
40
0
40
0
40
0
40
0
40
0.0005133273413989
40
0.0040062437388896
40
0.0074991601363802
40
0.0109920765338708
40
0.0144849929313614
40
0.0179779093288521
40
0.0214708257263427
40
0.0249637421238334
40
0.028456658521324
40
0.0319495749188146
40
0.0389354077137959
40
0.0459212405087772
40
0.0529070733037584
40
0.0563999897012491
40
0.0598929060987397
40
0.0633858224962304
40
0.066878738893721
40
0.0738645716887023
40
0.0773574880861929
40
0.0808504044836836
40
0.0843433208811742
40
0.0878362372786648
40
0.0913291536761554
40
0.0948220700736461
40
0.101807902868627
40
0.105300819266118
40
0.108793735663609
40
0.112286652061099
40
0.11577956845859
40
0.11927248485608
40
0.122765401253571
40
0.126258317651062
40
0.129751234048552
40
0.133244150446043
40
0.136737066843534
40
0.140229983241024
40
0.143722899638515
40
0.147215816036006
40
0.150708732433496
40
0.157694565228478
40
0.161187481625968
40
0.164680398023459
40
0.166426856222204
40
0.168173314420949
40
0.17166623081844
40
0.178652063613421
40
0.182144980010912
40
0.185637896408403
40
0.189130812805893
40
0.192623729203384
40
0.199609561998365
40
0.203102478395856
40
0.206595394793346
40
0.208341852992092
40
0.210088311190837
40
0.213581227588328
40
0.220567060383309
40
0.2240599767808
40
0.22755289317829
40
0.231045809575781
40
0.234538725973272
40
0.241524558768253
40
0.245017475165743
40
0.248510391563234
40
0.250256849761979
40
0.252003307960725
40
0.255496224358215
40
0.258989140755706
40
0.262482057153197
40
0.264228515351942
40
0.265974973550687
40
0.269467889948178
40
0.272960806345668
40
0.276453722743159
40
0.27994663914065
40
0.28343955553814
40
0.286932471935631
40
0.290425388333122
40
0.293918304730612
40
0.297411221128103
40
0.300904137525594
40
0.304397053923084
40
0.307889970320575
40
0.311382886718066
40
0.314875803115556
40
0.318368719513047
40
0.325354552308028
40
0.328847468705519
40
0.332340385103009
40
0.3358333015005
40
0.339326217897991
40
0.342819134295481
40
0.346312050692972
40
0.349804967090462
40
0.353297883487953
40
0.360283716282934
40
0.367269549077916
40
0.374255381872897
40
0.377748298270388
40
0.381241214667878
40
0.384734131065369
40
0.38822704746286
40
0.39171996386035
40
0.395212880257841
40
0.398705796655332
40
0.402198713052822
40
0.405691629450313
40
0.409184545847803
40
0.412677462245294
40
0.416170378642785
40
0.419663295040275
40
0.423156211437766
40
0.426649127835256
40
0.430142044232747
40
0.433634960630238
40
0.435381418828983
40
0.437127877027728
40
0.438874335226474
40
0.440620793425219
40
0.44411370982271
40
0.4476066262202
40
0.449353084418946
40
0.451099542617691
40
0.452846000816436
40
0.454592459015182
40
0.458085375412672
40
0.459831833611418
40
0.461578291810163
40
0.463324750008908
40
0.465071208207654
40
0.466817666406399
40
0.468564124605144
40
0.470310582803889
40
0.472057041002635
40
0.47380349920138
40
0.475549957400126
40
0.477296415598871
40
0.479042873797616
40
0.480789331996361
40
0.482535790195107
40
0.484282248393852
40
0.486028706592597
40
0.487775164791343
40
0.489521622990088
40
0.491268081188833
40
0.493014539387579
40
0.494760997586324
40
0.496507455785069
40
0.498253913983815
40
0.50000037218256
40
0.501746830381305
40
0.50349328858005
40
0.505239746778796
40
0.506986204977541
40
0.508732663176287
40
0.510479121375032
40
0.512225579573777
40
0.513972037772522
40
0.515718495971268
40
0.517464954170013
40
0.519211412368758
40
0.520957870567504
40
0.522704328766249
40
0.524450786964994
40
0.52619724516374
40
0.527943703362485
40
0.52969016156123
40
0.531436619759976
40
0.533183077958721
40
0.534929536157466
40
0.536675994356212
40
0.538422452554957
40
0.540168910753702
40
0.541915368952447
40
0.545408285349938
40
0.547154743548683
40
0.548901201747429
40
0.550647659946174
40
0.552394118144919
40
0.55588703454241
40
0.559379950939901
40
0.561126409138646
40
0.562872867337391
40
0.564619325536137
40
0.566365783734882
40
0.569858700132373
40
0.573351616529863
40
0.576844532927354
40
0.580337449324845
40
0.583830365722335
40
0.587323282119826
40
0.590816198517317
40
0.594309114914807
40
0.597802031312298
40
0.601294947709789
40
0.604787864107279
40
0.60828078050477
40
0.61177369690226
40
0.615266613299751
40
0.618759529697242
40
0.622252446094732
40
0.625745362492223
40
0.632731195287204
40
0.639717028082185
40
0.646702860877167
40
0.650195777274657
40
0.653688693672148
40
0.657181610069639
40
0.660674526467129
40
0.66416744286462
40
0.667660359262111
40
0.671153275659601
40
0.674646192057092
40
0.681632024852073
40
0.685124941249564
40
0.688617857647054
40
0.692110774044545
40
0.695603690442036
40
0.699096606839526
40
0.702589523237017
40
0.706082439634507
40
0.709575356031998
40
0.713068272429489
40
0.716561188826979
40
0.72005410522447
40
0.723547021621961
40
0.730532854416942
40
0.734025770814433
40
0.737518687211923
40
0.744504520006905
40
0.747997436404395
40
0.751490352801886
40
0.754983269199377
40
0.758476185596867
40
0.765462018391848
40
0.768954934789339
40
0.77244785118683
40
0.77594076758432
40
0.779433683981811
40
0.786419516776792
40
0.789912433174283
40
0.793405349571774
40
0.796898265969264
40
0.800391182366755
40
0.807377015161736
40
0.810869931559226
40
0.814362847956717
40
0.817855764354208
40
0.821348680751698
40
0.82833451354668
40
0.83182742994417
40
0.835320346341661
40
0.838813262739152
40
0.842306179136642
40
0.849292011931624
40
0.852784928329114
40
0.856277844726605
40
0.859770761124096
40
0.863263677521586
40
0.866756593919077
40
0.870249510316567
40
0.873742426714058
40
0.877235343111549
40
0.880728259509039
40
0.88422117590653
40
0.887714092304021
40
0.891207008701511
40
0.894699925099002
40
0.898192841496493
40
0.905178674291474
40
0.908671590688964
40
0.912164507086455
40
0.915657423483946
40
0.919150339881436
40
0.922643256278927
40
0.926136172676418
40
0.933122005471399
40
0.93661492186889
40
0.94010783826638
40
0.943600754663871
40
0.947093671061362
40
0.954079503856343
40
0.957572420253833
40
0.961065336651324
40
0.964558253048815
40
0.968051169446305
40
0.971544085843796
40
0.975037002241287
40
0.978529918638777
40
0.982022835036268
40
0.985515751433758
40
0.989008667831249
40
0.99250158422874
40
0.995994500626231
40
0.999487417023721
40
1
40
1
40
1
40
1
41
1
10
-36.5
20
21.15557762651
30
0
41
1
10
-36.5
20
21.1557858331001
30
0
41
1
10
-36.5
20
21.1573191543382
30
0
41
1
10
-36.5
20
21.1588544331657
30
0
41
1
10
-36.5
20
21.1578038223016
30
0
41
1
10
-36.5
20
21.1536126358382
30
0
41
1
10
-36.5
20
21.1463317213718
30
0
41
1
10
-36.5
20
21.1360112678938
30
0
41
1
10
-36.5
20
21.1226986497682
30
0
41
1
10
-36.5
20
21.1064402158535
30
0
41
1
10
-36.5
20
21.0872797426226
30
0
41
1
10
-36.5
20
21.0578537406018
30
0
41
1
10
-36.5
20
21.0141777773224
30
0
41
1
10
-36.5
20
20.950713074722
30
0
41
1
10
-36.5
20
20.8890285612071
30
0
41
1
10
-36.5
20
20.8342802658871
30
0
41
1
10
-36.5
20
20.7907267804185
30
0
41
1
10
-36.5
20
20.7446291690672
30
0
41
1
10
-36.5
20
20.6796864194097
30
0
41
1
10
-36.5
20
20.6101652524536
30
0
41
1
10
-36.5
20
20.5353747251341
30
0
41
1
10
-36.5
20
20.4769783324059
30
0
41
1
10
-36.5
20
20.4161995895792
30
0
41
1
10
-36.5
20
20.3530628196555
30
0
41
1
10
-36.5
20
20.2875896826626
30
0
41
1
10
-36.5
20
20.1970436182683
30
0
41
1
10
-36.5
20
20.1024192722933
30
0
41
1
10
-36.5
20
20.0027815031752
30
0
41
1
10
-36.5
20
19.9259535572617
30
0
41
1
10
-36.5
20
19.8469141355251
30
0
41
1
10
-36.5
20
19.7656833730651
30
0
41
1
10
-36.5
20
19.6822775189499
30
0
41
1
10
-36.5
20
19.5967148149262
30
0
41
1
10
-36.5
20
19.5090135394173
30
0
41
1
10
-36.5
20
19.4191882696517
30
0
41
1
10
-36.5
20
19.3272561697677
30
0
41
1
10
-36.5
20
19.2332338822713
30
0
41
1
10
-36.5
20
19.1371346902892
30
0
41
1
10
-36.5
20
19.0389746878943
30
0
41
1
10
-36.5
20
18.9387689752275
30
0
41
1
10
-36.5
20
18.8022215100789
30
0
41
1
10
-36.5
20
18.6623317385554
30
0
41
1
10
-36.5
20
18.5177544284038
30
0
41
1
10
-36.5
20
18.4260133905722
30
0
41
1
10
-36.5
20
18.3514175898237
30
0
41
1
10
-36.5
20
18.2761667145512
30
0
41
1
10
-36.5
20
18.1428549391526
30
0
41
1
10
-36.5
20
17.987269645424
30
0
41
1
10
-36.5
20
17.8270700659299
30
0
41
1
10
-36.5
20
17.705205542109
30
0
41
1
10
-36.5
20
17.5814423770725
30
0
41
1
10
-36.5
20
17.4136311437529
30
0
41
1
10
-36.5
20
17.2428939764417
30
0
41
1
10
-36.5
20
17.0675963011876
30
0
41
1
10
-36.5
20
16.9568152899196
30
0
41
1
10
-36.5
20
16.867008999151
30
0
41
1
10
-36.5
20
16.7765898513273
30
0
41
1
10
-36.5
20
16.6168596157572
30
0
41
1
10
-36.5
20
16.4314438788638
30
0
41
1
10
-36.5
20
16.2414991337765
30
0
41
1
10
-36.5
20
16.097474719741
30
0
41
1
10
-36.5
20
15.9516616651348
30
0
41
1
10
-36.5
20
15.7545445351489
30
0
41
1
10
-36.5
20
15.5548613446891
30
0
41
1
10
-36.5
20
15.350663385132
30
0
41
1
10
-36.5
20
15.2219600388738
30
0
41
1
10
-36.5
20
15.1178164480938
30
0
41
1
10
-36.5
20
15.0130920883853
30
0
41
1
10
-36.5
20
14.8814910451208
30
0
41
1
10
-36.5
20
14.7216281332594
30
0
41
1
10
-36.5
20
14.5871530954062
30
0
41
1
10
-36.5
20
14.4783873813363
30
0
41
1
10
-36.5
20
14.3690494022437
30
0
41
1
10
-36.5
20
14.2317235183089
30
0
41
1
10
-36.5
20
14.0650028858775
30
0
41
1
10
-36.5
20
13.8965816080865
30
0
41
1
10
-36.5
20
13.7264689694465
30
0
41
1
10
-36.5
20
13.5546710496343
30
0
41
1
10
-36.5
20
13.3811910773122
30
0
41
1
10
-36.5
20
13.2060373742644
30
0
41
1
10
-36.5
20
13.0292149133303
30
0
41
1
10
-36.5
20
12.850728177302
30
0
41
1
10
-36.5
20
12.6705857874604
30
0
41
1
10
-36.5
20
12.4887914218501
30
0
41
1
10
-36.5
20
12.3053503484466
30
0
41
1
10
-36.5
20
12.1202706879328
30
0
41
1
10
-36.5
20
11.9335555855444
30
0
41
1
10
-36.5
20
11.6819759204348
30
0
41
1
10
-36.5
20
11.4285505376587
30
0
41
1
10
-36.5
20
11.1704660874499
30
0
41
1
10
-36.5
20
10.9756651586938
30
0
41
1
10
-36.5
20
10.7792636737398
30
0
41
1
10
-36.5
20
10.5812696725585
30
0
41
1
10
-36.5
20
10.3816871154457
30
0
41
1
10
-36.5
20
10.180523710493
30
0
41
1
10
-36.5
20
9.9777855843503
30
0
41
1
10
-36.5
20
9.70483576808863
30
0
41
1
10
-36.5
20
9.36101276272154
30
0
41
1
10
-36.5
20
8.94153438933262
30
0
41
1
10
-36.5
20
8.58745787193689
30
0
41
1
10
-36.5
20
8.30004464023602
30
0
41
1
10
-36.5
20
8.08346950394392
30
0
41
1
10
-36.5
20
7.86540102208474
30
0
41
1
10
-36.5
20
7.64585131899614
30
0
41
1
10
-36.5
20
7.42483318088833
30
0
41
1
10
-36.5
20
7.20235735193418
30
0
41
1
10
-36.5
20
6.97843755879967
30
0
41
1
10
-36.5
20
6.75308981071325
30
0
41
1
10
-36.5
20
6.52633035082275
30
0
41
1
10
-36.5
20
6.29817753233076
30
0
41
1
10
-36.5
20
6.06865022444896
30
0
41
1
10
-36.5
20
5.83776884649418
30
0
41
1
10
-36.5
20
5.60555660448861
30
0
41
1
10
-36.5
20
5.37203985998678
30
0
41
1
10
-36.5
20
5.13724579696884
30
0
41
1
10
-36.5
20
4.90120595303733
30
0
41
1
10
-36.5
20
4.70396583147405
30
0
41
1
10
-36.5
20
4.54469638576828
30
0
41
1
10
-36.5
20
4.42533999597057
30
0
41
1
10
-36.5
20
4.30569972295402
30
0
41
1
10
-36.5
20
4.14529336499854
30
0
41
1
10
-36.5
20
3.94531865595207
30
0
41
1
10
-36.5
20
3.74444957084984
30
0
41
1
10
-36.5
20
3.58224076117995
30
0
41
1
10
-36.5
20
3.46078958963511
30
0
41
1
10
-36.5
20
3.33910702605107
30
0
41
1
10
-36.5
20
3.17597085922344
30
0
41
1
10
-36.5
20
3.01425651604552
30
0
41
1
10
-36.5
20
2.85023149996007
30
0
41
1
10
-36.5
20
2.72752154931175
30
0
41
1
10
-36.5
20
2.60463052157442
30
0
41
1
10
-36.5
20
2.48157378937663
30
0
41
1
10
-36.5
20
2.35835621123036
30
0
41
1
10
-36.5
20
2.23499061660055
30
0
41
1
10
-36.5
20
2.11148761081347
30
0
41
1
10
-36.5
20
1.9878545152765
30
0
41
1
10
-36.5
20
1.86410632124097
30
0
41
1
10
-36.5
20
1.74024827700825
30
0
41
1
10
-36.5
20
1.61629526151512
30
0
41
1
10
-36.5
20
1.49225310041959
30
0
41
1
10
-36.5
20
1.3681347814894
30
0
41
1
10
-36.5
20
1.2439473222278
30
0
41
1
10
-36.5
20
1.11970117534864
30
0
41
1
10
-36.5
20
0.995403485642782
30
0
41
1
10
-36.5
20
0.8710629170684
30
0
41
1
10
-36.5
20
0.746686102657719
30
0
41
1
10
-36.5
20
0.622280124115576
30
0
41
1
10
-36.5
20
0.497850420758397
30
0
41
1
10
-36.5
20
0.373402935182185
30
0
41
1
10
-36.5
20
0.248942238793177
30
0
41
1
10
-36.5
20
0.124473257200918
30
0
41
1
10
-36.5
20
9.2462358E-09
30
0
41
1
10
-36.5
20
-0.124473254673973
30
0
41
1
10
-36.5
20
-0.248942266430618
30
0
41
1
10
-36.5
20
-0.373402960091397
30
0
41
1
10
-36.5
20
-0.497850400790554
30
0
41
1
10
-36.5
20
-0.622280094010847
30
0
41
1
10
-36.5
20
-0.746686131491799
30
0
41
1
10
-36.5
20
-0.871062970095124
30
0
41
1
10
-36.5
20
-0.995403468230791
30
0
41
1
10
-36.5
20
-1.11970111692671
30
0
41
1
10
-36.5
20
-1.2439473407681
30
0
41
1
10
-36.5
20
-1.36813486147517
30
0
41
1
10
-36.5
20
-1.49225310642996
30
0
41
1
10
-36.5
20
-1.61629518356963
30
0
41
1
10
-36.5
20
-1.74024825464127
30
0
41
1
10
-36.5
20
-1.86410640329151
30
0
41
1
10
-36.5
20
-1.98785458048855
30
0
41
1
10
-36.5
20
-2.11148756075909
30
0
41
1
10
-36.5
20
-2.2349905278607
30
0
41
1
10
-36.5
20
-2.3583562279822
30
0
41
1
10
-36.5
20
-2.48157389743918
30
0
41
1
10
-36.5
20
-2.60463057106841
30
0
41
1
10
-36.5
20
-2.72752148004804
30
0
41
1
10
-36.5
20
-2.8502314065623
30
0
41
1
10
-36.5
20
-3.01425656877106
30
0
41
1
10
-36.5
20
-3.17597095993784
30
0
41
1
10
-36.5
20
-3.33910698167958
30
0
41
1
10
-36.5
20
-3.46078948211164
30
0
41
1
10
-36.5
20
-3.58224072191865
30
0
41
1
10
-36.5
20
-3.74444967050349
30
0
41
1
10
-36.5
20
-3.94531869048151
30
0
41
1
10
-36.5
20
-4.14529326648051
30
0
41
1
10
-36.5
20
-4.30569969171859
30
0
41
1
10
-36.5
20
-4.42534006396792
30
0
41
1
10
-36.5
20
-4.54469650094606
30
0
41
1
10
-36.5
20
-4.70396584910503
30
0
41
1
10
-36.5
20
-4.90120586463618
30
0
41
1
10
-36.5
20
-5.1372458114655
30
0
41
1
10
-36.5
20
-5.37203995090806
30
0
41
1
10
-36.5
20
-5.6055565552935
30
0
41
1
10
-36.5
20
-5.83776875015036
30
0
41
1
10
-36.5
20
-6.06865017711209
30
0
41
1
10
-36.5
20
-6.29817748211653
30
0
41
1
10
-36.5
20
-6.52633051401983
30
0
41
1
10
-36.5
20
-6.75309051279777
30
0
41
1
10
-36.5
20
-6.97843834484934
30
0
41
1
10
-36.5
20
-7.20235684280951
30
0
41
1
10
-36.5
20
-7.42483229470756
30
0
41
1
10
-36.5
20
-7.64585158611581
30
0
41
1
10
-36.5
20
-7.86540128403743
30
0
41
1
10
-36.5
20
-8.08346945831602
30
0
41
1
10
-36.5
20
-8.3000445299389
30
0
41
1
10
-36.5
20
-8.58745782596952
30
0
41
1
10
-36.5
20
-8.94153442741853
30
0
41
1
10
-36.5
20
-9.36101273737586
30
0
41
1
10
-36.5
20
-9.70483575174822
30
0
41
1
10
-36.5
20
-9.97778564072317
30
0
41
1
10
-36.5
20
-10.18052371466
30
0
41
1
10
-36.5
20
-10.3816870614505
30
0
41
1
10
-36.5
20
-10.5812696339219
30
0
41
1
10
-36.5
20
-10.7792636942327
30
0
41
1
10
-36.5
20
-10.9756652058486
30
0
41
1
10
-36.5
20
-11.1704660987636
30
0
41
1
10
-36.5
20
-11.4285504962004
30
0
41
1
10
-36.5
20
-11.6819759007756
30
0
41
1
10
-36.5
20
-11.9335556252714
30
0
41
1
10
-36.5
20
-12.1202707134412
30
0
41
1
10
-36.5
20
-12.3053503320752
30
0
41
1
10
-36.5
20
-12.4887913848281
30
0
41
1
10
-36.5
20
-12.6705857704289
30
0
41
1
10
-36.5
20
-12.8507281979538
30
0
41
1
10
-36.5
20
-13.0292149436136
30
0
41
1
10
-36.5
20
-13.2060373895955
30
0
41
1
10
-36.5
20
-13.3811911431361
30
0
41
1
10
-36.5
20
-13.5546713888901
30
0
41
1
10
-36.5
20
-13.7264696827894
30
0
41
1
10
-36.5
20
-13.9536769173599
30
0
41
1
10
-36.5
20
-14.176348576809
30
0
41
1
10
-36.5
20
-14.3967384349213
30
0
41
1
10
-36.5
20
-14.6148460432235
30
0
41
1
10
-36.5
20
-14.8284315021107
30
0
41
1
10
-36.5
20
-15.0396227184095
30
0
41
1
10
-36.5
20
-15.1960147192182
30
0
41
1
10
-36.5
20
-15.3506631330603
30
0
41
1
10
-36.5
20
-15.5548624364723
30
0
41
1
10
-36.5
20
-15.7545451164335
30
0
41
1
10
-36.5
20
-15.9516609547094
30
0
41
1
10
-36.5
20
-16.0974737380165
30
0
41
1
10
-36.5
20
-16.241498813278
30
0
41
1
10
-36.5
20
-16.4314450331352
30
0
41
1
10
-36.5
20
-16.6168608854212
30
0
41
1
10
-36.5
20
-16.7995343923805
30
0
41
1
10
-36.5
20
-16.9344844206004
30
0
41
1
10
-36.5
20
-17.0675955495037
30
0
41
1
10
-36.5
20
-17.2428947983014
30
0
41
1
10
-36.5
20
-17.4136313821348
30
0
41
1
10
-36.5
20
-17.5814422063202
30
0
41
1
10
-36.5
20
-17.7052052466277
30
0
41
1
10
-36.5
20
-17.827069915531
30
0
41
1
10
-36.5
20
-17.9872703841193
30
0
41
1
10
-36.5
20
-18.1428562465544
30
0
41
1
10
-36.5
20
-18.2953166794047
30
0
41
1
10
-36.5
20
-18.4075180436267
30
0
41
1
10
-36.5
20
-18.5177535555592
30
0
41
1
10
-36.5
20
-18.6623326618876
30
0
41
1
10
-36.5
20
-18.8022222651529
30
0
41
1
10
-36.5
20
-18.9387686023437
30
0
41
1
10
-36.5
20
-19.0389739868785
30
0
41
1
10
-36.5
20
-19.1371342717784
30
0
41
1
10
-36.5
20
-19.2332339353276
30
0
41
1
10
-36.5
20
-19.3272562516113
30
0
41
1
10
-36.5
20
-19.4191882978898
30
0
41
1
10
-36.5
20
-19.5090135437133
30
0
41
1
10
-36.5
20
-19.5967148362678
30
0
41
1
10
-36.5
20
-19.6822775521962
30
0
41
1
10
-36.5
20
-19.7656833992675
30
0
41
1
10
-36.5
20
-19.8469141406672
30
0
41
1
10
-36.5
20
-19.9259535527381
30
0
41
1
10
-36.5
20
-20.0027815100322
30
0
41
1
10
-36.5
20
-20.1024193061391
30
0
41
1
10
-36.5
20
-20.1970436522849
30
0
41
1
10
-36.5
20
-20.287589681624
30
0
41
1
10
-36.5
20
-20.353062816238
30
0
41
1
10
-36.5
20
-20.4161996091986
30
0
41
1
10
-36.5
20
-20.4769783724375
30
0
41
1
10
-36.5
20
-20.5353747607017
30
0
41
1
10
-36.5
20
-20.6101652553123
30
0
41
1
10
-36.5
20
-20.6796864153796
30
0
41
1
10
-36.5
20
-20.7446292080422
30
0
41
1
10
-36.5
20
-20.7907268231738
30
0
41
1
10
-36.5
20
-20.8342802793506
30
0
41
1
10
-36.5
20
-20.8890285523336
30
0
41
1
10
-36.5
20
-20.9382580424269
30
0
41
1
10
-36.5
20
-20.9824409225429
30
0
41
1
10
-36.5
20
-21.0128017234864
30
0
41
1
10
-36.5
20
-21.0404207944711
30
0
41
1
10
-36.5
20
-21.0652596303332
30
0
41
1
10
-36.5
20
-21.0872797892674
30
0
41
1
10
-36.5
20
-21.1064402531507
30
0
41
1
10
-36.5
20
-21.1226986516191
30
0
41
1
10
-36.5
20
-21.1360112646484
30
0
41
1
10
-36.5
20
-21.1463317710584
30
0
41
1
10
-36.5
20
-21.1536128319466
30
0
41
1
10
-36.5
20
-21.1578041644649
30
0
41
1
10
-36.5
20
-21.1588543296933
30
0
41
1
10
-36.5
20
-21.1573189686112
30
0
41
1
10
-36.5
20
-21.15578601909
30
0
41
1
10
-36.5
20
-21.1555781439523
30
0
0
SPLINE
5
15B
100
AcDbEntity
8
SK1
62
256
6
ByLayer
370
18
48
1
60
0
100
AcDbSpline
70
4
71
3
72
299
73
295
40
0
40
0
40
0
40
0
40
0.0032949013353431
40
0.0068176283561514
40
0.0103403553769597
40
0.013863082397768
40
0.0173858094185764
40
0.0209085364393847
40
0.024431263460193
40
0.0279539904810014
40
0.034999444522618
40
0.0420448985642347
40
0.0490903526058513
40
0.0526130796266596
40
0.056135806647468
40
0.0596585336682763
40
0.0631812606890846
40
0.0702267147307013
40
0.0737494417515096
40
0.0772721687723179
40
0.0807948957931263
40
0.0843176228139346
40
0.0878403498347429
40
0.0913630768555512
40
0.0984085308971679
40
0.101931257917976
40
0.105453984938785
40
0.108976711959593
40
0.112499438980401
40
0.11602216600121
40
0.119544893022018
40
0.123067620042826
40
0.126590347063635
40
0.130113074084443
40
0.133635801105251
40
0.137158528126059
40
0.140681255146868
40
0.144203982167676
40
0.147726709188484
40
0.154772163230101
40
0.15829489025091
40
0.161817617271718
40
0.163578980782122
40
0.165340344292526
40
0.168863071313334
40
0.175908525354951
40
0.179431252375759
40
0.182953979396568
40
0.186476706417376
40
0.189999433438184
40
0.197044887479801
40
0.200567614500609
40
0.204090341521418
40
0.205851705031822
40
0.207613068542226
40
0.211135795563034
40
0.218181249604651
40
0.221703976625459
40
0.225226703646268
40
0.228749430667076
40
0.232272157687884
40
0.239317611729501
40
0.242840338750309
40
0.246363065771118
40
0.248124429281522
40
0.249885792791926
40
0.253408519812734
40
0.256931246833543
40
0.260453973854351
40
0.262215337364755
40
0.263976700875159
40
0.267499427895968
40
0.271022154916776
40
0.274544881937584
40
0.278067608958393
40
0.281590335979201
40
0.285113063000009
40
0.288635790020818
40
0.292158517041626
40
0.295681244062434
40
0.299203971083242
40
0.302726698104051
40
0.306249425124859
40
0.309772152145668
40
0.313294879166476
40
0.316817606187284
40
0.323863060228901
40
0.327385787249709
40
0.330908514270517
40
0.334431241291326
40
0.337953968312134
40
0.341476695332942
40
0.344999422353751
40
0.348522149374559
40
0.352044876395368
40
0.359090330436984
40
0.366135784478601
40
0.373181238520217
40
0.376703965541026
40
0.380226692561834
40
0.383749419582642
40
0.387272146603451
40
0.390794873624259
40
0.394317600645067
40
0.397840327665876
40
0.401363054686684
40
0.404885781707492
40
0.408408508728301
40
0.411931235749109
40
0.415453962769917
40
0.418976689790726
40
0.422499416811534
40
0.426022143832342
40
0.429544870853151
40
0.433067597873959
40
0.434828961384363
40
0.436590324894767
40
0.438351688405171
40
0.440113051915576
40
0.443635778936384
40
0.447158505957192
40
0.448919869467596
40
0.450681232978001
40
0.452442596488405
40
0.454203959998809
40
0.457726687019617
40
0.459488050530021
40
0.461249414040426
40
0.46301077755083
40
0.464772141061234
40
0.466533504571638
40
0.468294868082042
40
0.470056231592446
40
0.47181759510285
40
0.473578958613255
40
0.475340322123659
40
0.477101685634063
40
0.478863049144467
40
0.480624412654871
40
0.482385776165276
40
0.48414713967568
40
0.485908503186084
40
0.487669866696488
40
0.489431230206892
40
0.491192593717296
40
0.492953957227701
40
0.494715320738105
40
0.496476684248509
40
0.498238047758913
40
0.499999411269317
40
0.501760774779721
40
0.503522138290125
40
0.50528350180053
40
0.507044865310934
40
0.508806228821338
40
0.510567592331742
40
0.512328955842146
40
0.51409031935255
40
0.515851682862955
40
0.517613046373359
40
0.519374409883763
40
0.521135773394167
40
0.522897136904571
40
0.524658500414975
40
0.52641986392538
40
0.528181227435784
40
0.529942590946188
40
0.531703954456592
40
0.533465317966996
40
0.5352266814774
40
0.536988044987805
40
0.538749408498209
40
0.540510772008613
40
0.542272135519017
40
0.545794862539825
40
0.54755622605023
40
0.549317589560634
40
0.551078953071038
40
0.552840316581442
40
0.55636304360225
40
0.559885770623059
40
0.561647134133463
40
0.563408497643867
40
0.565169861154271
40
0.566931224664675
40
0.570453951685484
40
0.573976678706292
40
0.5774994057271
40
0.581022132747909
40
0.584544859768717
40
0.588067586789525
40
0.591590313810334
40
0.595113040831142
40
0.59863576785195
40
0.602158494872759
40
0.605681221893567
40
0.609203948914375
40
0.612726675935184
40
0.616249402955992
40
0.6197721299768
40
0.623294856997609
40
0.626817584018417
40
0.633863038060034
40
0.64090849210165
40
0.647953946143267
40
0.651476673164075
40
0.654999400184884
40
0.658522127205692
40
0.6620448542265
40
0.665567581247309
40
0.669090308268117
40
0.672613035288925
40
0.676135762309733
40
0.68318121635135
40
0.686703943372158
40
0.690226670392967
40
0.693749397413775
40
0.697272124434583
40
0.700794851455392
40
0.7043175784762
40
0.707840305497008
40
0.711363032517817
40
0.714885759538625
40
0.718408486559433
40
0.721931213580242
40
0.72545394060105
40
0.732499394642667
40
0.736022121663475
40
0.739544848684283
40
0.7465903027259
40
0.750113029746708
40
0.753635756767517
40
0.757158483788325
40
0.760681210809133
40
0.76772666485075
40
0.771249391871558
40
0.774772118892367
40
0.778294845913175
40
0.781817572933983
40
0.7888630269756
40
0.792385753996408
40
0.795908481017217
40
0.799431208038025
40
0.802953935058833
40
0.80999938910045
40
0.813522116121258
40
0.817044843142067
40
0.820567570162875
40
0.824090297183683
40
0.8311357512253
40
0.834658478246108
40
0.838181205266917
40
0.841703932287725
40
0.845226659308533
40
0.85227211335015
40
0.855794840370958
40
0.859317567391767
40
0.862840294412575
40
0.866363021433383
40
0.869885748454192
40
0.873408475475
40
0.876931202495808
40
0.880453929516616
40
0.883976656537425
40
0.887499383558233
40
0.891022110579041
40
0.89454483759985
40
0.898067564620658
40
0.901590291641466
40
0.908635745683083
40
0.912158472703891
40
0.9156811997247
40
0.919203926745508
40
0.922726653766316
40
0.926249380787125
40
0.929772107807933
40
0.93681756184955
40
0.940340288870358
40
0.943863015891166
40
0.947385742911975
40
0.950908469932783
40
0.9579539239744
40
0.961476650995208
40
0.964999378016016
40
0.968522105036825
40
0.972044832057633
40
0.975567559078441
40
0.97909028609925
40
0.982613013120058
40
0.986135740140866
40
0.989658467161675
40
0.993181194182483
40
0.996703921203291
40
1
40
1
40
1
40
1
41
1
10
-1.99503997793928
20
21.8251672752884
30
0
41
1
10
-1.99503997793928
20
21.8252770285599
30
0
41
1
10
-1.99503997793928
20
21.8245105320107
30
0
41
1
10
-1.99503997793928
20
21.8202836860757
30
0
41
1
10
-1.99503997793928
20
21.812783044142
30
0
41
1
10
-1.99503997793928
20
21.8021565364934
30
0
41
1
10
-1.99503997793928
20
21.7884557330328
30
0
41
1
10
-1.99503997793928
20
21.7717308612526
30
0
41
1
10
-1.99503997793928
20
21.7520291985819
30
0
41
1
10
-1.99503997793928
20
21.7218385059106
30
0
41
1
10
-1.99503997793928
20
21.6769140218914
30
0
41
1
10
-1.99503997793928
20
21.6117670092986
30
0
41
1
10
-1.99503997793928
20
21.5484022523455
30
0
41
1
10
-1.99503997793928
20
21.4923512863894
30
0
41
1
10
-1.99503997793928
20
21.4477036012609
30
0
41
1
10
-1.99503997793928
20
21.4004602751572
30
0
41
1
10
-1.99503997793928
20
21.3340243579833
30
0
41
1
10
-1.99503997793928
20
21.2626002065084
30
0
41
1
10
-1.99503997793928
20
21.1861355372814
30
0
41
1
10
-1.99503997793928
20
21.126355615456
30
0
41
1
10
-1.99503997793928
20
21.0641493981766
30
0
41
1
10
-1.99503997793928
20
20.9995415089612
30
0
41
1
10
-1.99503997793928
20
20.9325549476398
30
0
41
1
10
-1.99503997793928
20
20.8400664063016
30
0
41
1
10
-1.99503997793928
20
20.7430171949632
30
0
41
1
10
-1.99503997793928
20
20.6412830606924
30
0
41
1
10
-1.99503997793928
20
20.5627395849404
30
0
41
1
10
-1.99503997793928
20
20.4819464711493
30
0
41
1
10
-1.99503997793928
20
20.3989234016943
30
0
41
1
10
-1.99503997793928
20
20.3136873945745
30
0
41
1
10
-1.99503997793928
20
20.2262576082901
30
0
41
1
10
-1.99503997793928
20
20.136651569995
30
0
41
1
10
-1.99503997793928
20
20.0448848271876
30
0
41
1
10
-1.99503997793928
20
19.9509751576252
30
0
41
1
10
-1.99503997793928
20
19.8549383078336
30
0
41
1
10
-1.99503997793928
20
19.7567886026657
30
0
41
1
10
-1.99503997793928
20
19.6565424313982
30
0
41
1
10
-1.99503997793928
20
19.5542139601407
30
0
41
1
10
-1.99503997793928
20
19.4149698127943
30
0
41
1
10
-1.99503997793928
20
19.2717622924356
30
0
41
1
10
-1.99503997793928
20
19.1243520606764
30
0
41
1
10
-1.99503997793928
20
19.0305969699326
30
0
41
1
10
-1.99503997793928
20
18.9545457436666
30
0
41
1
10
-1.99503997793928
20
18.877828345234
30
0
41
1
10
-1.99503997793928
20
18.7418485706132
30
0
41
1
10
-1.99503997793928
20
18.5826225030747
30
0
41
1
10
-1.99503997793928
20
18.4193199892891
30
0
41
1
10
-1.99503997793928
20
18.2949375082747
30
0
41
1
10
-1.99503997793928
20
18.1686188381619
30
0
41
1
10
-1.99503997793928
20
17.9975681157064
30
0
41
1
10
-1.99503997793928
20
17.8228588844704
30
0
41
1
10
-1.99503997793928
20
17.6441795672679
30
0
41
1
10
-1.99503997793928
20
17.5309981410348
30
0
41
1
10
-1.99503997793928
20
17.4394590341184
30
0
41
1
10
-1.99503997793928
20
17.3472945498449
30
0
41
1
10
-1.99503997793928
20
17.1843913435575
30
0
41
1
10
-1.99503997793928
20
16.9946548235122
30
0
41
1
10
-1.99503997793928
20
16.8010333841432
30
0
41
1
10
-1.99503997793928
20
16.654027023888
30
0
41
1
10
-1.99503997793928
20
16.5051894370887
30
0
41
1
10
-1.99503997793928
20
16.3042392155796
30
0
41
1
10
-1.99503997793928
20
16.0998599858609
30
0
41
1
10
-1.99503997793928
20
15.8916662065006
30
0
41
1
10
-1.99503997793928
20
15.7601264684356
30
0
41
1
10
-1.99503997793928
20
15.6539352235828
30
0
41
1
10
-1.99503997793928
20
15.5471478788445
30
0
41
1
10
-1.99503997793928
20
15.4126292313156
30
0
41
1
10
-1.99503997793928
20
15.2493853238091
30
0
41
1
10
-1.99503997793928
20
15.1119089381336
30
0
41
1
10
-1.99503997793928
20
15.0009760777421
30
0
41
1
10
-1.99503997793928
20
14.8894548819647
30
0
41
1
10
-1.99503997793928
20
14.7490386600655
30
0
41
1
10
-1.99503997793928
20
14.578735707937
30
0
41
1
10
-1.99503997793928
20
14.4066808882548
30
0
41
1
10
-1.99503997793928
20
14.2328806917249
30
0
41
1
10
-1.99503997793928
20
14.0573388809364
30
0
41
1
10
-1.99503997793928
20
13.8800596938692
30
0
41
1
10
-1.99503997793928
20
13.7010488098078
30
0
41
1
10
-1.99503997793928
20
13.5203096364964
30
0
41
1
10
-1.99503997793928
20
13.3378467409434
30
0
41
1
10
-1.99503997793928
20
13.1536651576331
30
0
41
1
10
-1.99503997793928
20
12.967767664355
30
0
41
1
10
-1.99503997793928
20
12.7801589185361
30
0
41
1
10
-1.99503997793928
20
12.5908431445087
30
0
41
1
10
-1.99503997793928
20
12.3998230002593
30
0
41
1
10
-1.99503997793928
20
12.1427688173785
30
0
41
1
10
-1.99503997793928
20
11.8826118718573
30
0
41
1
10
-1.99503997793928
20
11.6187779306707
30
0
41
1
10
-1.99503997793928
20
11.4192921752591
30
0
41
1
10
-1.99503997793928
20
11.2181233733031
30
0
41
1
10
-1.99503997793928
20
11.0152750188843
30
0
41
1
10
-1.99503997793928
20
10.8107494713072
30
0
41
1
10
-1.99503997793928
20
10.6045508021232
30
0
41
1
10
-1.99503997793928
20
10.3966814407573
30
0
41
1
10
-1.99503997793928
20
10.1171870033238
30
0
41
1
10
-1.99503997793928
20
9.76392166117952
30
0
41
1
10
-1.99503997793928
20
9.33322608836653
30
0
41
1
10
-1.99503997793928
20
8.96893242084855
30
0
41
1
10
-1.99503997793928
20
8.67397578579323
30
0
41
1
10
-1.99503997793928
20
8.45121977200662
30
0
41
1
10
-1.99503997793928
20
8.22682776167497
30
0
41
1
10
-1.99503997793928
20
8.00080467620242
30
0
41
1
10
-1.99503997793928
20
7.77315513008728
30
0
41
1
10
-1.99503997793928
20
7.54388372935193
30
0
41
1
10
-1.99503997793928
20
7.31299637479285
30
0
41
1
10
-1.99503997793928
20
7.08049945458953
30
0
41
1
10
-1.99503997793928
20
6.8463997482805
30
0
41
1
10
-1.99503997793928
20
6.61070495432838
30
0
41
1
10
-1.99503997793928
20
6.37342319970753
30
0
41
1
10
-1.99503997793928
20
6.13456384015993
30
0
41
1
10
-1.99503997793928
20
5.89413749968631
30
0
41
1
10
-1.99503997793928
20
5.65215638001948
30
0
41
1
10
-1.99503997793928
20
5.4086336510897
30
0
41
1
10
-1.99503997793928
20
5.16358499073451
30
0
41
1
10
-1.99503997793928
20
4.95821799704331
30
0
41
1
10
-1.99503997793928
20
4.79299516838267
30
0
41
1
10
-1.99503997793928
20
4.66878842905288
30
0
41
1
10
-1.99503997793928
20
4.5442150281373
30
0
41
1
10
-1.99503997793928
20
4.37752561794156
30
0
41
1
10
-1.99503997793928
20
4.16851547631595
30
0
41
1
10
-1.99503997793928
20
3.95832363498766
30
0
41
1
10
-1.99503997793928
20
3.78926935835412
30
0
41
1
10
-1.99503997793928
20
3.66223142121836
30
0
41
1
10
-1.99503997793928
20
3.53485872774326
30
0
41
1
10
-1.99503997793928
20
3.36446603264318
30
0
41
1
10
-1.99503997793928
20
3.19381064862623
30
0
41
1
10
-1.99503997793928
20
3.02213557666008
30
0
41
1
10
-1.99503997793928
20
2.8931784837302
30
0
41
1
10
-1.99503997793928
20
2.76392442628162
30
0
41
1
10
-1.99503997793928
20
2.63438251344519
30
0
41
1
10
-1.99503997793928
20
2.50455988721876
30
0
41
1
10
-1.99503997793928
20
2.37446636334928
30
0
41
1
10
-1.99503997793928
20
2.24411116870439
30
0
41
1
10
-1.99503997793928
20
2.11350398186613
30
0
41
1
10
-1.99503997793928
20
1.98265625862297
30
0
41
1
10
-1.99503997793928
20
1.85157817347522
30
0
41
1
10
-1.99503997793928
20
1.72028262405345
30
0
41
1
10
-1.99503997793928
20
1.58878098022359
30
0
41
1
10
-1.99503997793928
20
1.45708718468359
30
0
41
1
10
-1.99503997793928
20
1.32521409071333
30
0
41
1
10
-1.99503997793928
20
1.19317647053177
30
0
41
1
10
-1.99503997793928
20
1.06098852682439
30
0
41
1
10
-1.99503997793928
20
0.928665923975672
30
0
41
1
10
-1.99503997793928
20
0.796224037396229
30
0
41
1
10
-1.99503997793928
20
0.663679321648374
30
0
41
1
10
-1.99503997793928
20
0.531048033506266
30
0
41
1
10
-1.99503997793928
20
0.398347293868937
30
0
41
1
10
-1.99503997793928
20
0.265594055935196
30
0
41
1
10
-1.99503997793928
20
0.132805828560237
30
0
41
1
10
-1.99503997793928
20
-2.0604887E-09
30
0
41
1
10
-1.99503997793928
20
-0.132805835966792
30
0
41
1
10
-1.99503997793928
20
-0.265594069601519
30
0
41
1
10
-1.99503997793928
20
-0.398347307093388
30
0
41
1
10
-1.99503997793928
20
-0.531048037421954
30
0
41
1
10
-1.99503997793928
20
-0.663679323049081
30
0
41
1
10
-1.99503997793928
20
-0.796224050825089
30
0
41
1
10
-1.99503997793928
20
-0.92866594303203
30
0
41
1
10
-1.99503997793928
20
-1.06098853158755
30
0
41
1
10
-1.99503997793928
20
-1.1931764657121
30
0
41
1
10
-1.99503997793928
20
-1.32521410103647
30
0
41
1
10
-1.99503997793928
20
-1.45708720896539
30
0
41
1
10
-1.99503997793928
20
-1.58878099035152
30
0
41
1
10
-1.99503997793928
20
-1.72028261530932
30
0
41
1
10
-1.99503997793928
20
-1.85157817419835
30
0
41
1
10
-1.99503997793928
20
-1.98265628188182
30
0
41
1
10
-1.99503997793928
20
-2.11350400419804
30
0
41
1
10
-1.99503997793928
20
-2.24411116714702
30
0
41
1
10
-1.99503997793928
20
-2.37446635053539
30
0
41
1
10
-1.99503997793928
20
-2.50455989433328
30
0
41
1
10
-1.99503997793928
20
-2.63438254221708
30
0
41
1
10
-1.99503997793928
20
-2.76392444618182
30
0
41
1
10
-1.99503997793928
20
-2.89317847799558
30
0
41
1
10
-1.99503997793928
20
-3.02213556164864
30
0
41
1
10
-1.99503997793928
20
-3.19381066067948
30
0
41
1
10
-1.99503997793928
20
-3.36446606295527
30
0
41
1
10
-1.99503997793928
20
-3.53485872835634
30
0
41
1
10
-1.99503997793928
20
-3.66223140396673
30
0
41
1
10
-1.99503997793928
20
-3.78926935085312
30
0
41
1
10
-1.99503997793928
20
-3.95832365779984
30
0
41
1
10
-1.99503997793928
20
-4.16851549788919
30
0
41
1
10
-1.99503997793928
20
-4.37752560184694
30
0
41
1
10
-1.99503997793928
20
-4.54421502107886
30
0
41
1
10
-1.99503997793928
20
-4.66878844332788
30
0
41
1
10
-1.99503997793928
20
-4.79299519854527
30
0
41
1
10
-1.99503997793928
20
-4.95821801342223
30
0
41
1
10
-1.99503997793928
20
-5.16358497720142
30
0
41
1
10
-1.99503997793928
20
-5.40863364784667
30
0
41
1
10
-1.99503997793928
20
-5.65215640891225
30
0
41
1
10
-1.99503997793928
20
-5.89413750153935
30
0
41
1
10
-1.99503997793928
20
-6.13456381441384
30
0
41
1
10
-1.99503997793928
20
-6.37342317953835
30
0
41
1
10
-1.99503997793928
20
-6.61070492919379
30
0
41
1
10
-1.99503997793928
20
-6.84639976314463
30
0
41
1
10
-1.99503997793928
20
-7.08049963775395
30
0
41
1
10
-1.99503997793928
20
-7.31299670603016
30
0
41
1
10
-1.99503997793928
20
-7.54388383469134
30
0
41
1
10
-1.99503997793928
20
-7.77315487290267
30
0
41
1
10
-1.99503997793928
20
-8.00080468509063
30
0
41
1
10
-1.99503997793928
20
-8.22682785520686
30
0
41
1
10
-1.99503997793928
20
-8.4512197921853
30
0
41
1
10
-1.99503997793928
20
-8.67397577159846
30
0
41
1
10
-1.99503997793928
20
-8.96893239301764
30
0
41
1
10
-1.99503997793928
20
-9.33322609823665
30
0
41
1
10
-1.99503997793928
20
-9.76392165975841
30
0
41
1
10
-1.99503997793928
20
-10.1171869828061
30
0
41
1
10
-1.99503997793928
20
-10.3966814549587
30
0
41
1
10
-1.99503997793928
20
-10.6045508126063
30
0
41
1
10
-1.99503997793928
20
-10.8107494592904
30
0
41
1
10
-1.99503997793928
20
-11.0152749978462
30
0
41
1
10
-1.99503997793928
20
-11.2181233670389
30
0
41
1
10
-1.99503997793928
20
-11.4192921870092
30
0
41
1
10
-1.99503997793928
20
-11.6187779427602
30
0
41
1
10
-1.99503997793928
20
-11.8826118620781
30
0
41
1
10
-1.99503997793928
20
-12.1427687977971
30
0
41
1
10
-1.99503997793928
20
-12.3998230071702
30
0
41
1
10
-1.99503997793928
20
-12.5908431584255
30
0
41
1
10
-1.99503997793928
20
-12.7801589212449
30
0
41
1
10
-1.99503997793928
20
-12.9677676529033
30
0
41
1
10
-1.99503997793928
20
-13.1536651432542
30
0
41
1
10
-1.99503997793928
20
-13.3378467396349
30
0
41
1
10
-1.99503997793928
20
-13.520309646993
30
0
41
1
10
-1.99503997793928
20
-13.7010488212408
30
0
41
1
10
-1.99503997793928
20
-13.8800597145162
30
0
41
1
10
-1.99503997793928
20
-14.0573389921213
30
0
41
1
10
-1.99503997793928
20
-14.2328810143213
30
0
41
1
10
-1.99503997793928
20
-14.4646959102749
30
0
41
1
10
-1.99503997793928
20
-14.6927797943809
30
0
41
1
10
-1.99503997793928
20
-14.9175842595472
30
0
41
1
10
-1.99503997793928
20
-15.1400402265273
30
0
41
1
10
-1.99503997793928
20
-15.3587351142266
30
0
41
1
10
-1.99503997793928
20
-15.574095422854
30
0
41
1
10
-1.99503997793928
20
-15.733775855726
30
0
41
1
10
-1.99503997793928
20
-15.8916657661057
30
0
41
1
10
-1.99503997793928
20
-16.0998603532658
30
0
41
1
10
-1.99503997793928
20
-16.3042398246232
30
0
41
1
10
-1.99503997793928
20
-16.5051894037979
30
0
41
1
10
-1.99503997793928
20
-16.6540265683948
30
0
41
1
10
-1.99503997793928
20
-16.8010329188422
30
0
41
1
10
-1.99503997793928
20
-16.9946550481209
30
0
41
1
10
-1.99503997793928
20
-17.1843924611907
30
0
41
1
10
-1.99503997793928
20
-17.3705928023913
30
0
41
1
10
-1.99503997793928
20
-17.5083251903719
30
0
41
1
10
-1.99503997793928
20
-17.6441786252734
30
0
41
1
10
-1.99503997793928
20
-17.8228590748675
30
0
41
1
10
-1.99503997793928
20
-17.9975683374733
30
0
41
1
10
-1.99503997793928
20
-18.1686188521771
30
0
41
1
10
-1.99503997793928
20
-18.2949373683468
30
0
41
1
10
-1.99503997793928
20
-18.4193198181252
30
0
41
1
10
-1.99503997793928
20
-18.5826226298873
30
0
41
1
10
-1.99503997793928
20
-18.7418497326446
30
0
41
1
10
-1.99503997793928
20
-18.8972761707097
30
0
41
1
10
-1.99503997793928
20
-19.0118150097952
30
0
41
1
10
-1.99503997793928
20
-19.1243510467918
30
0
41
1
10
-1.99503997793928
20
-19.2717625055688
30
0
41
1
10
-1.99503997793928
20
-19.414970513124
30
0
41
1
10
-1.99503997793928
20
-19.5542140249085
30
0
41
1
10
-1.99503997793928
20
-19.6565420567613
30
0
41
1
10
-1.99503997793928
20
-19.7567881415466
30
0
41
1
10
-1.99503997793928
20
-19.8549381550126
30
0
41
1
10
-1.99503997793928
20
-19.9509751416388
30
0
41
1
10
-1.99503997793928
20
-20.0448848362119
30
0
41
1
10
-1.99503997793928
20
-20.1366515718167
30
0
41
1
10
-1.99503997793928
20
-20.2262576202058
30
0
41
1
10
-1.99503997793928
20
-20.3136874196731
30
0
41
1
10
-1.99503997793928
20
-20.398923430088
30
0
41
1
10
-1.99503997793928
20
-20.4819464863244
30
0
41
1
10
-1.99503997793928
20
-20.5627395868944
30
0
41
1
10
-1.99503997793928
20
-20.6412830627252
30
0
41
1
10
-1.99503997793928
20
-20.7430172190697
30
0
41
1
10
-1.99503997793928
20
-20.8400664428987
30
0
41
1
10
-1.99503997793928
20
-20.9325549572362
30
0
41
1
10
-1.99503997793928
20
-20.9995415068112
30
0
41
1
10
-1.99503997793928
20
-21.064149408511
30
0
41
1
10
-1.99503997793928
20
-21.1263556466612
30
0
41
1
10
-1.99503997793928
20
-21.1861355753666
30
0
41
1
10
-1.99503997793928
20
-21.262600218376
30
0
41
1
10
-1.99503997793928
20
-21.3340243512753
30
0
41
1
10
-1.99503997793928
20
-21.4004603045828
30
0
41
1
10
-1.99503997793928
20
-21.4477036445725
30
0
41
1
10
-1.99503997793928
20
-21.4923513092323
30
0
41
1
10
-1.99503997793928
20
-21.5484022410126
30
0
41
1
10
-1.99503997793928
20
-21.5990695510926
30
0
41
1
10
-1.99503997793928
20
-21.6443396610233
30
0
41
1
10
-1.99503997793928
20
-21.6755105092645
30
0
41
1
10
-1.99503997793928
20
-21.7038764495607
30
0
41
1
10
-1.99503997793928
20
-21.7293964429163
30
0
41
1
10
-1.99503997793928
20
-21.7520292420694
30
0
41
1
10
-1.99503997793928
20
-21.7717309018817
30
0
41
1
10
-1.99503997793928
20
-21.7884557380592
30
0
41
1
10
-1.99503997793928
20
-21.8021565310045
30
0
41
1
10
-1.99503997793928
20
-21.8127830851058
30
0
41
1
10
-1.99503997793928
20
-21.8202838734724
30
0
41
1
10
-1.99503997793928
20
-21.8245113603127
30
0
41
1
10
-1.99503997793926
20
-21.8252773582629
30
0
41
1
10
-1.99503997793926
20
-21.8251670972721
30
0
0
SPLINE
5
15C
100
AcDbEntity
8
SK1
62
256
6
ByLayer
370
18
48
1
60
0
100
AcDbSpline
70
4
71
3
72
111
73
107
40
0
40
0
40
0
40
0
40
0.0023113641372186
40
0.0108556431309431
40
0.0193999221246677
40
0.0279442011183922
40
0.0364884801121167
40
0.0450327591058413
40
0.0535770380995658
40
0.0621213170932904
40
0.0706655960870149
40
0.0792098750807395
40
0.087754154074464
40
0.0962984330681885
40
0.113386991055638
40
0.130475549043087
40
0.147564107030536
40
0.15610838602426
40
0.164652665017985
40
0.173196944011709
40
0.181741223005434
40
0.190285501999159
40
0.198829780992883
40
0.207374059986608
40
0.215918338980332
40
0.233006896967781
40
0.241551175961506
40
0.25009545495523
40
0.258639733948955
40
0.267184012942679
40
0.275728291936404
40
0.284272570930128
40
0.292816849923853
40
0.301361128917577
40
0.309905407911302
40
0.318449686905027
40
0.326993965898751
40
0.335538244892476
40
0.352626802879925
40
0.361171081873649
40
0.369715360867374
40
0.386803918854823
40
0.395348197848548
40
0.403892476842272
40
0.412436755835996
40
0.420981034829721
40
0.43806959281717
40
0.446613871810895
40
0.455158150804619
40
0.463702429798344
40
0.472246708792068
40
0.489335266779517
40
0.497879545773242
40
0.506423824766966
40
0.514968103760691
40
0.523512382754416
40
0.540600940741865
40
0.549145219735589
40
0.557689498729314
40
0.566233777723038
40
0.574778056716763
40
0.591866614704212
40
0.600410893697937
40
0.608955172691661
40
0.617499451685386
40
0.62604373067911
40
0.643132288666559
40
0.651676567660284
40
0.660220846654008
40
0.668765125647733
40
0.677309404641457
40
0.685853683635182
40
0.694397962628906
40
0.702942241622631
40
0.711486520616356
40
0.72003079961008
40
0.728575078603805
40
0.737119357597529
40
0.745663636591254
40
0.754207915584978
40
0.762752194578703
40
0.779840752566152
40
0.788385031559876
40
0.796929310553601
40
0.805473589547325
40
0.81401786854105
40
0.822562147534775
40
0.831106426528499
40
0.848194984515948
40
0.856739263509673
40
0.865283542503397
40
0.873827821497122
40
0.882372100490846
40
0.899460658478295
40
0.90800493747202
40
0.916549216465744
40
0.925093495459469
40
0.933637774453194
40
0.942182053446918
40
0.950726332440643
40
0.959270611434367
40
0.967814890428092
40
0.976359169421816
40
0.984903448415541
40
0.993447727409265
40
1
40
1
40
1
40
1
41
1
10
-0.394976888875277
20
-6.32694279392976
30
0
41
1
10
-0.394976888875277
20
-6.3484916311391
30
0
41
1
10
-0.394976888875277
20
-6.44960775400912
30
0
41
1
10
-0.394976888875277
20
-6.62954555948866
30
0
41
1
10
-0.394976888875277
20
-6.8656950488801
30
0
41
1
10
-0.394976888875277
20
-7.10023740586411
30
0
41
1
10
-0.394976888875277
20
-7.33316546385933
30
0
41
1
10
-0.394976888875277
20
-7.56447269448574
30
0
41
1
10
-0.394976888875277
20
-7.79415340272945
30
0
41
1
10
-0.394976888875277
20
-8.02220293401996
30
0
41
1
10
-0.394976888875277
20
-8.24861635560848
30
0
41
1
10
-0.394976888875277
20
-8.47338951886385
30
0
41
1
10
-0.394976888875277
20
-8.69651811258549
30
0
41
1
10
-0.394976888875277
20
-8.99192948127941
30
0
41
1
10
-0.394976888875277
20
-9.35683912175983
30
0
41
1
10
-0.394976888875277
20
-9.78821091217483
30
0
41
1
10
-0.394976888875277
20
-10.142045462177
30
0
41
1
10
-0.394976888875277
20
-10.4219344727077
30
0
41
1
10
-0.394976888875277
20
-10.6301131683678
30
0
41
1
10
-0.394976888875277
20
-10.8366153667066
30
0
41
1
10
-0.394976888875277
20
-11.0414388905992
30
0
41
1
10
-0.394976888875277
20
-11.2445799004538
30
0
41
1
10
-0.394976888875277
20
-11.4460361162834
30
0
41
1
10
-0.394976888875277
20
-11.6458042976885
30
0
41
1
10
-0.394976888875277
20
-11.9099848253352
30
0
41
1
10
-0.394976888875277
20
-12.1705475695385
30
0
41
1
10
-0.394976888875277
20
-12.4279318067111
30
0
41
1
10
-0.394976888875277
20
-12.6192114874981
30
0
41
1
10
-0.394976888875277
20
-12.8087826250924
30
0
41
1
10
-0.394976888875277
20
-12.9966426041155
30
0
41
1
10
-0.394976888875277
20
-13.182787448996
30
0
41
1
10
-0.394976888875277
20
-13.3672125455487
30
0
41
1
10
-0.394976888875277
20
-13.5499151547097
30
0
41
1
10
-0.394976888875277
20
-13.7308904478326
30
0
41
1
10
-0.394976888875277
20
-13.910133867705
30
0
41
1
10
-0.394976888875277
20
-14.0876421688895
30
0
41
1
10
-0.394976888875277
20
-14.2634098807097
30
0
41
1
10
-0.394976888875277
20
-14.4955025482493
30
0
41
1
10
-0.394976888875277
20
-14.7239127068147
30
0
41
1
10
-0.394976888875277
20
-14.9489833053404
30
0
41
1
10
-0.394976888875277
20
-15.171701411915
30
0
41
1
10
-0.394976888875277
20
-15.3907043201103
30
0
41
1
10
-0.394976888875277
20
-15.6063159613101
30
0
41
1
10
-0.394976888875277
20
-15.7661946363952
30
0
41
1
10
-0.394976888875277
20
-15.9242799594928
30
0
41
1
10
-0.394976888875277
20
-16.1327154012234
30
0
41
1
10
-0.394976888875277
20
-16.3373780173449
30
0
41
1
10
-0.394976888875277
20
-16.5385587125243
30
0
41
1
10
-0.394976888875277
20
-16.6875782011067
30
0
41
1
10
-0.394976888875277
20
-16.8347642769002
30
0
41
1
10
-0.394976888875277
20
-17.0286080073569
30
0
41
1
10
-0.394976888875277
20
-17.2186059445175
30
0
41
1
10
-0.394976888875277
20
-17.4050188999402
30
0
41
1
10
-0.394976888875277
20
-17.5429190217058
30
0
41
1
10
-0.394976888875277
20
-17.6789377757623
30
0
41
1
10
-0.394976888875277
20
-17.8578220601067
30
0
41
1
10
-0.394976888875277
20
-18.0327708145484
30
0
41
1
10
-0.394976888875277
20
-18.2040166330947
30
0
41
1
10
-0.394976888875277
20
-18.3304892054167
30
0
41
1
10
-0.394976888875277
20
-18.4550234389153
30
0
41
1
10
-0.394976888875277
20
-18.6185132745736
30
0
41
1
10
-0.394976888875277
20
-18.7779598884918
30
0
41
1
10
-0.394976888875277
20
-18.933565131357
30
0
41
1
10
-0.394976888875277
20
-19.048244884465
30
0
41
1
10
-0.394976888875277
20
-19.1609196079758
30
0
41
1
10
-0.394976888875277
20
-19.3085018143331
30
0
41
1
10
-0.394976888875277
20
-19.4519098709686
30
0
41
1
10
-0.394976888875277
20
-19.5913159811741
30
0
41
1
10
-0.394976888875277
20
-19.6937719762305
30
0
41
1
10
-0.394976888875277
20
-19.7941438028822
30
0
41
1
10
-0.394976888875277
20
-19.8924174211231
30
0
41
1
10
-0.394976888875277
20
-19.988575861591
30
0
41
1
10
-0.394976888875277
20
-20.082604778142
30
0
41
1
10
-0.394976888875277
20
-20.1744885559187
30
0
41
1
10
-0.394976888875277
20
-20.264209431984
30
0
41
1
10
-0.394976888875277
20
-20.3517517880635
30
0
41
1
10
-0.394976888875277
20
-20.437098129367
30
0
41
1
10
-0.394976888875277
20
-20.5202292348052
30
0
41
1
10
-0.394976888875277
20
-20.6011280559991
30
0
41
1
10
-0.394976888875277
20
-20.6797749513881
30
0
41
1
10
-0.394976888875277
20
-20.781635486227
30
0
41
1
10
-0.394976888875277
20
-20.8788308931333
30
0
41
1
10
-0.394976888875277
20
-20.9714365096391
30
0
41
1
10
-0.394976888875277
20
-21.0385142950144
30
0
41
1
10
-0.394976888875277
20
-21.1032108820957
30
0
41
1
10
-0.394976888875277
20
-21.1655031751743
30
0
41
1
10
-0.394976888875277
20
-21.2253665102307
30
0
41
1
10
-0.394976888875277
20
-21.301932078811
30
0
41
1
10
-0.394976888875277
20
-21.3734709318986
30
0
41
1
10
-0.394976888875277
20
-21.4399968999807
30
0
41
1
10
-0.394976888875277
20
-21.4873093096751
30
0
41
1
10
-0.394976888875277
20
-21.5320229383892
30
0
41
1
10
-0.394976888875277
20
-21.5881524005931
30
0
41
1
10
-0.394976888875277
20
-21.6389063892513
30
0
41
1
10
-0.394976888875277
20
-21.6842420425293
30
0
41
1
10
-0.394976888875277
20
-21.7154617242468
30
0
41
1
10
-0.394976888875277
20
-21.7438726893518
30
0
41
1
10
-0.394976888875277
20
-21.7694337460976
30
0
41
1
10
-0.394976888875277
20
-21.7921034780961
30
0
41
1
10
-0.394976888875277
20
-21.8118377637545
30
0
41
1
10
-0.394976888875277
20
-21.8285907189997
30
0
41
1
10
-0.394976888875277
20
-21.8423149132633
30
0
41
1
10
-0.394976888875277
20
-21.8529599173647
30
0
41
1
10
-0.394976888875277
20
-21.8604739519412
30
0
41
1
10
-0.394976888875249
20
-21.8644655200754
30
0
41
1
10
-0.394976888875249
20
-21.8653271917494
30
0
41
1
10
-0.394976888875249
20
-21.8653787940905
30
0
0
SPLINE
5
15D
100
AcDbEntity
8
SK1
62
256
6
ByLayer
370
18
48
1
60
0
100
AcDbSpline
70
4
71
3
72
115
73
111
40
0
40
0
40
0
40
0
40
0.006565228750548
40
0.0151093963982747
40
0.0236535640460013
40
0.032197731693728
40
0.0407418993414547
40
0.0492860669891814
40
0.0578302346369081
40
0.0663744022846348
40
0.0834627375800882
40
0.100551072875542
40
0.117639408170995
40
0.126183575818722
40
0.134727743466448
40
0.143271911114175
40
0.151816078761902
40
0.168904414057355
40
0.177448581705082
40
0.185992749352808
40
0.194536917000535
40
0.203081084648262
40
0.211625252295988
40
0.220169419943715
40
0.237257755239169
40
0.245801922886895
40
0.254346090534622
40
0.262890258182349
40
0.271434425830075
40
0.279978593477802
40
0.288522761125529
40
0.297066928773255
40
0.305611096420982
40
0.314155264068709
40
0.322699431716436
40
0.331243599364162
40
0.339787767011889
40
0.348331934659615
40
0.356876102307342
40
0.373964437602796
40
0.382508605250522
40
0.391052772898249
40
0.395324856722112
40
0.399596940545976
40
0.408141108193702
40
0.425229443489156
40
0.433773611136882
40
0.442317778784609
40
0.450861946432336
40
0.459406114080062
40
0.476494449375516
40
0.485038617023243
40
0.493582784670969
40
0.497854868494833
40
0.502126952318696
40
0.510671119966423
40
0.527759455261876
40
0.536303622909603
40
0.544847790557329
40
0.553391958205056
40
0.561936125852783
40
0.579024461148236
40
0.587568628795963
40
0.59611279644369
40
0.600384880267553
40
0.604656964091416
40
0.613201131739143
40
0.62174529938687
40
0.630289467034596
40
0.63456155085846
40
0.638833634682323
40
0.64737780233005
40
0.655921969977776
40
0.664466137625503
40
0.67301030527323
40
0.681554472920956
40
0.690098640568683
40
0.69864280821641
40
0.707186975864136
40
0.715731143511863
40
0.72427531115959
40
0.732819478807317
40
0.741363646455043
40
0.74990781410277
40
0.758451981750497
40
0.766996149398223
40
0.784084484693677
40
0.792628652341403
40
0.80117281998913
40
0.809716987636857
40
0.818261155284583
40
0.82680532293231
40
0.835349490580037
40
0.843893658227764
40
0.85243782587549
40
0.869526161170944
40
0.886614496466397
40
0.90370283176185
40
0.912246999409577
40
0.920791167057304
40
0.92933533470503
40
0.937879502352757
40
0.946423670000484
40
0.95496783764821
40
0.963512005295937
40
0.972056172943664
40
0.98060034059139
40
0.989144508239117
40
0.997688675886844
40
1
40
1
40
1
40
1
41
1
10
-0.394976888875277
20
21.865379090935
30
0
41
1
10
-0.394976888875277
20
21.8653285682807
30
0
41
1
10
-0.394976888875306
20
21.8644673837486
30
0
41
1
10
-0.394976888875277
20
21.8604737650697
30
0
41
1
10
-0.394976888875277
20
21.8529598769268
30
0
41
1
10
-0.394976888875277
20
21.8423149188875
30
0
41
1
10
-0.394976888875277
20
21.8285907137819
30
0
41
1
10
-0.394976888875277
20
21.8118377229246
30
0
41
1
10
-0.394976888875277
20
21.7921034347989
30
0
41
1
10
-0.394976888875277
20
21.7618666429643
30
0
41
1
10
-0.394976888875277
20
21.7168668922192
30
0
41
1
10
-0.394976888875277
20
21.651618462036
30
0
41
1
10
-0.394976888875277
20
21.5881524120742
30
0
41
1
10
-0.394976888875277
20
21.5320229149808
30
0
41
1
10
-0.394976888875277
20
21.4873092663299
30
0
41
1
10
-0.394976888875277
20
21.4399968711307
30
0
41
1
10
-0.394976888875277
20
21.3734709387681
30
0
41
1
10
-0.394976888875277
20
21.3019320664004
30
0
41
1
10
-0.394976888875277
20
21.2253664719936
30
0
41
1
10
-0.394976888875277
20
21.1655031445011
30
0
41
1
10
-0.394976888875277
20
21.1032108723211
30
0
41
1
10
-0.394976888875277
20
21.038514297088
30
0
41
1
10
-0.394976888875277
20
20.9714364994015
30
0
41
1
10
-0.394976888875277
20
20.8788308563806
30
0
41
1
10
-0.394976888875277
20
20.7816354627076
30
0
41
1
10
-0.394976888875277
20
20.6797749496461
30
0
41
1
10
-0.394976888875277
20
20.6011280536546
30
0
41
1
10
-0.394976888875277
20
20.5202292190253
30
0
41
1
10
-0.394976888875277
20
20.4370981008412
30
0
41
1
10
-0.394976888875277
20
20.3517517634561
30
0
41
1
10
-0.394976888875277
20
20.2642094206366
30
0
41
1
10
-0.394976888875277
20
20.1744885542463
30
0
41
1
10
-0.394976888875277
20
20.082604770276
30
0
41
1
10
-0.394976888875277
20
19.9885758834751
30
0
41
1
10
-0.394976888875277
20
19.8924175863555
30
0
41
1
10
-0.394976888875277
20
19.79414426657
30
0
41
1
10
-0.394976888875277
20
19.6937723311917
30
0
41
1
10
-0.394976888875277
20
19.5913158900225
30
0
41
1
10
-0.394976888875277
20
19.4519091739392
30
0
41
1
10
-0.394976888875277
20
19.308501644014
30
0
41
1
10
-0.394976888875277
20
19.160920630363
30
0
41
1
10
-0.394976888875277
20
19.0670441229991
30
0
41
1
10
-0.394976888875277
20
18.9909051568102
30
0
41
1
10
-0.394976888875277
20
18.9140993494365
30
0
41
1
10
-0.394976888875277
20
18.777958735224
30
0
41
1
10
-0.394976888875277
20
18.6185131846482
30
0
41
1
10
-0.394976888875277
20
18.4550236113311
30
0
41
1
10
-0.394976888875277
20
18.330489335967
30
0
41
1
10
-0.394976888875277
20
18.2040166079408
30
0
41
1
10
-0.394976888875277
20
18.0327705937831
30
0
41
1
10
-0.394976888875277
20
17.8578219077773
30
0
41
1
10
-0.394976888875277
20
17.6789387292296
30
0
41
1
10
-0.394976888875277
20
17.5656125946474
30
0
41
1
10
-0.394976888875277
20
17.4739690253912
30
0
41
1
10
-0.394976888875277
20
17.3816993239948
30
0
41
1
10
-0.394976888875277
20
17.2186048360495
30
0
41
1
10
-0.394976888875277
20
17.0286078387926
30
0
41
1
10
-0.394976888875277
20
16.8347647509306
30
0
41
1
10
-0.394976888875277
20
16.6875786248762
30
0
41
1
10
-0.394976888875277
20
16.5385587049942
30
0
41
1
10
-0.394976888875277
20
16.3373774066279
30
0
41
1
10
-0.394976888875277
20
16.1327150774874
30
0
41
1
10
-0.394976888875277
20
15.9242804112408
30
0
41
1
10
-0.394976888875277
20
15.7925696820839
30
0
41
1
10
-0.394976888875277
20
15.6862549949744
30
0
41
1
10
-0.394976888875277
20
15.5793432837569
30
0
41
1
10
-0.394976888875277
20
15.4446487492657
30
0
41
1
10
-0.394976888875277
20
15.2812010193763
30
0
41
1
10
-0.394976888875277
20
15.1435436982815
30
0
41
1
10
-0.394976888875277
20
15.0324801920763
30
0
41
1
10
-0.394976888875277
20
14.9208273816877
30
0
41
1
10
-0.394976888875277
20
14.7802248596231
30
0
41
1
10
-0.394976888875277
20
14.6097059483473
30
0
41
1
10
-0.394976888875277
20
14.4374320816019
30
0
41
1
10
-0.394976888875277
20
14.2634095816694
30
0
41
1
10
-0.394976888875277
20
14.0876420714538
30
0
41
1
10
-0.394976888875277
20
13.9101338497815
30
0
41
1
10
-0.394976888875277
20
13.7308904366346
30
0
41
1
10
-0.394976888875277
20
13.549915145406
30
0
41
1
10
-0.394976888875277
20
13.3672125481811
30
0
41
1
10
-0.394976888875277
20
13.182787463215
30
0
41
1
10
-0.394976888875277
20
12.9966426140257
30
0
41
1
10
-0.394976888875277
20
12.8087826212334
30
0
41
1
10
-0.394976888875277
20
12.6192114742801
30
0
41
1
10
-0.394976888875277
20
12.4279318017785
30
0
41
1
10
-0.394976888875277
20
12.1705475891153
30
0
41
1
10
-0.394976888875277
20
11.9099848332047
30
0
41
1
10
-0.394976888875277
20
11.6458042855523
30
0
41
1
10
-0.394976888875277
20
11.4460361066677
30
0
41
1
10
-0.394976888875277
20
11.2445799083311
30
0
41
1
10
-0.394976888875277
20
11.0414389105764
30
0
41
1
10
-0.394976888875277
20
10.8366153761928
30
0
41
1
10
-0.394976888875277
20
10.630113157504
30
0
41
1
10
-0.394976888875277
20
10.4219344610486
30
0
41
1
10
-0.394976888875277
20
10.1420454829465
30
0
41
1
10
-0.394976888875277
20
9.78821091215369
30
0
41
1
10
-0.394976888875277
20
9.3568391135907
30
0
41
1
10
-0.394976888875277
20
8.99192950801697
30
0
41
1
10
-0.394976888875277
20
8.69651812098675
30
0
41
1
10
-0.394976888875277
20
8.47338949471808
30
0
41
1
10
-0.394976888875277
20
8.24861627222975
30
0
41
1
10
-0.394976888875277
20
8.0222029406992
30
0
41
1
10
-0.394976888875277
20
7.79415362199521
30
0
41
1
10
-0.394976888875277
20
7.56447255210352
30
0
41
1
10
-0.394976888875277
20
7.33316516004027
30
0
41
1
10
-0.394976888875277
20
7.10023725398264
30
0
41
1
10
-0.394976888875277
20
6.86569504295815
30
0
41
1
10
-0.394976888875277
20
6.62954558311137
30
0
41
1
10
-0.394976888875277
20
6.44960786563362
30
0
41
1
10
-0.394976888875277
20
6.34849183540922
30
0
41
1
10
-0.394976888875277
20
6.32694309067119
30
0
0
SPLINE
5
15E
100
AcDbEntity
8
SK1
62
256
6
ByLayer
370
18
48
1
60
0
100
AcDbSpline
70
4
71
3
72
299
73
295
40
0
40
0
40
0
40
0
40
0.002951437470057
40
0.0064765019269866
40
0.0100015663839162
40
0.0135266308408459
40
0.0170516952977754
40
0.0205767597547051
40
0.0241018242116347
40
0.0276268886685643
40
0.0346770175824235
40
0.0417271464962827
40
0.0487772754101419
40
0.0523023398670716
40
0.0558274043240012
40
0.0593524687809308
40
0.0628775332378604
40
0.0699276621517196
40
0.0734527266086493
40
0.0769777910655788
40
0.0805028555225084
40
0.0840279199794381
40
0.0875529844363677
40
0.0910780488932973
40
0.0981281778071565
40
0.101653242264086
40
0.105178306721016
40
0.108703371177945
40
0.112228435634875
40
0.115753500091805
40
0.119278564548734
40
0.122803629005664
40
0.126328693462593
40
0.129853757919523
40
0.133378822376453
40
0.136903886833382
40
0.140428951290312
40
0.143954015747241
40
0.147479080204171
40
0.15452920911803
40
0.15805427357496
40
0.16157933803189
40
0.163341870260354
40
0.165104402488819
40
0.168629466945749
40
0.175679595859608
40
0.179204660316538
40
0.182729724773467
40
0.186254789230397
40
0.189779853687327
40
0.196829982601186
40
0.200355047058115
40
0.203880111515045
40
0.20564264374351
40
0.207405175971975
40
0.210930240428904
40
0.217980369342763
40
0.221505433799693
40
0.225030498256623
40
0.228555562713552
40
0.232080627170482
40
0.239130756084341
40
0.242655820541271
40
0.2461808849982
40
0.247943417226665
40
0.24970594945513
40
0.253231013912059
40
0.256756078368989
40
0.260281142825919
40
0.262043675054383
40
0.263806207282848
40
0.267331271739778
40
0.270856336196708
40
0.274381400653637
40
0.277906465110567
40
0.281431529567496
40
0.284956594024426
40
0.288481658481356
40
0.292006722938285
40
0.295531787395215
40
0.299056851852144
40
0.302581916309074
40
0.306106980766004
40
0.309632045222933
40
0.313157109679863
40
0.316682174136792
40
0.323732303050652
40
0.327257367507581
40
0.330782431964511
40
0.33430749642144
40
0.33783256087837
40
0.3413576253353
40
0.344882689792229
40
0.348407754249159
40
0.351932818706089
40
0.358982947619948
40
0.366033076533807
40
0.373083205447666
40
0.376608269904596
40
0.380133334361526
40
0.383658398818455
40
0.387183463275385
40
0.390708527732314
40
0.394233592189244
40
0.397758656646173
40
0.401283721103103
40
0.404808785560033
40
0.408333850016962
40
0.411858914473892
40
0.415383978930822
40
0.418909043387751
40
0.422434107844681
40
0.425959172301611
40
0.42948423675854
40
0.43300930121547
40
0.434771833443935
40
0.436534365672399
40
0.438296897900864
40
0.440059430129329
40
0.443584494586259
40
0.447109559043188
40
0.448872091271653
40
0.450634623500118
40
0.452397155728583
40
0.454159687957047
40
0.457684752413977
40
0.459447284642442
40
0.461209816870907
40
0.462972349099372
40
0.464734881327836
40
0.466497413556301
40
0.468259945784766
40
0.47002247801323
40
0.471785010241695
40
0.47354754247016
40
0.475310074698625
40
0.47707260692709
40
0.478835139155555
40
0.480597671384019
40
0.482360203612484
40
0.484122735840949
40
0.485885268069414
40
0.487647800297879
40
0.489410332526344
40
0.491172864754808
40
0.492935396983273
40
0.494697929211738
40
0.496460461440203
40
0.498222993668668
40
0.499985525897132
40
0.501748058125597
40
0.503510590354062
40
0.505273122582527
40
0.507035654810992
40
0.508798187039456
40
0.510560719267921
40
0.512323251496386
40
0.514085783724851
40
0.515848315953315
40
0.51761084818178
40
0.519373380410245
40
0.52113591263871
40
0.522898444867175
40
0.52466097709564
40
0.526423509324105
40
0.528186041552569
40
0.529948573781034
40
0.531711106009499
40
0.533473638237964
40
0.535236170466428
40
0.536998702694893
40
0.538761234923358
40
0.540523767151823
40
0.542286299380288
40
0.545811363837217
40
0.547573896065682
40
0.549336428294147
40
0.551098960522612
40
0.552861492751076
40
0.556386557208006
40
0.559911621664936
40
0.561674153893401
40
0.563436686121865
40
0.56519921835033
40
0.566961750578795
40
0.570486815035725
40
0.574011879492654
40
0.577536943949584
40
0.581062008406513
40
0.584587072863443
40
0.588112137320373
40
0.591637201777302
40
0.595162266234232
40
0.598687330691161
40
0.602212395148091
40
0.605737459605021
40
0.60926252406195
40
0.61278758851888
40
0.61631265297581
40
0.619837717432739
40
0.623362781889669
40
0.626887846346598
40
0.633937975260458
40
0.640988104174317
40
0.648038233088176
40
0.651563297545106
40
0.655088362002035
40
0.658613426458965
40
0.662138490915894
40
0.665663555372824
40
0.669188619829754
40
0.672713684286683
40
0.676238748743613
40
0.683288877657472
40
0.686813942114402
40
0.690339006571331
40
0.693864071028261
40
0.69738913548519
40
0.70091419994212
40
0.70443926439905
40
0.707964328855979
40
0.711489393312909
40
0.715014457769839
40
0.718539522226768
40
0.722064586683698
40
0.725589651140627
40
0.732639780054487
40
0.736164844511416
40
0.739689908968346
40
0.746740037882205
40
0.750265102339135
40
0.753790166796064
40
0.757315231252994
40
0.760840295709924
40
0.767890424623783
40
0.771415489080713
40
0.774940553537642
40
0.778465617994572
40
0.781990682451502
40
0.789040811365361
40
0.79256587582229
40
0.79609094027922
40
0.799616004736149
40
0.803141069193079
40
0.810191198106938
40
0.813716262563868
40
0.817241327020798
40
0.820766391477727
40
0.824291455934657
40
0.831341584848516
40
0.834866649305446
40
0.838391713762375
40
0.841916778219305
40
0.845441842676234
40
0.852491971590094
40
0.856017036047023
40
0.859542100503953
40
0.863067164960883
40
0.866592229417812
40
0.870117293874742
40
0.873642358331671
40
0.877167422788601
40
0.880692487245531
40
0.88421755170246
40
0.88774261615939
40
0.891267680616319
40
0.894792745073249
40
0.898317809530179
40
0.901842873987108
40
0.908893002900967
40
0.912418067357897
40
0.915943131814827
40
0.919468196271756
40
0.922993260728686
40
0.926518325185616
40
0.930043389642545
40
0.937093518556404
40
0.940618583013334
40
0.944143647470264
40
0.947668711927193
40
0.951193776384123
40
0.958243905297982
40
0.961768969754912
40
0.965294034211841
40
0.968819098668771
40
0.9723441631257
40
0.97586922758263
40
0.97939429203956
40
0.982919356496489
40
0.986444420953419
40
0.989969485410348
40
0.993494549867278
40
0.997019614324208
40
1
40
1
40
1
40
1
41
1
10
-38
20
20.2923486212317
30
0
41
1
10
-38
20
20.2923559368762
30
0
41
1
10
-38
20
20.2915883975727
30
0
41
1
10
-38
20
20.2877827415225
30
0
41
1
10
-38
20
20.2807871950942
30
0
41
1
10
-38
20
20.270864225278
30
0
41
1
10
-38
20
20.2580557575388
30
0
41
1
10
-38
20
20.2424031034125
30
0
41
1
10
-38
20
20.2239454925533
30
0
41
1
10
-38
20
20.19551262204
30
0
41
1
10
-38
20
20.153458157969
30
0
41
1
10
-38
20
20.0921783324266
30
0
41
1
10
-38
20
20.0326760120608
30
0
41
1
10
-38
20
19.9796195423852
30
0
41
1
10
-38
20
19.9374871337363
30
0
41
1
10
-38
20
19.8928775037255
30
0
41
1
10
-38
20
19.8298739849263
30
0
41
1
10
-38
20
19.7628242930464
30
0
41
1
10
-38
20
19.6902080345968
30
0
41
1
10
-38
20
19.6336084813315
30
0
41
1
10
-38
20
19.5746836513967
30
0
41
1
10
-38
20
19.5134574775013
30
0
41
1
10
-38
20
19.4499498796239
30
0
41
1
10
-38
20
19.361926580552
30
0
41
1
10
-38
20
19.2704514952516
30
0
41
1
10
-38
20
19.1735363516591
30
0
41
1
10
-38
20
19.0989364266239
30
0
41
1
10
-38
20
19.0221745884206
30
0
41
1
10
-38
20
18.9432715601189
30
0
41
1
10
-38
20
18.8622425921488
30
0
41
1
10
-38
20
18.7791047356355
30
0
41
1
10
-38
20
18.6938772447032
30
0
41
1
10
-38
20
18.6065734364562
30
0
41
1
10
-38
20
18.5172096781029
30
0
41
1
10
-38
20
18.4258037757915
30
0
41
1
10
-38
20
18.3323676597213
30
0
41
1
10
-38
20
18.236917040573
30
0
41
1
10
-38
20
18.1394682315479
30
0
41
1
10
-38
20
18.006423045464
30
0
41
1
10
-38
20
17.870842154793
30
0
41
1
10
-38
20
17.7299440627733
30
0
41
1
10
-38
20
17.6408187485726
30
0
41
1
10
-38
20
17.5681131617785
30
0
41
1
10
-38
20
17.4947669133713
30
0
41
1
10
-38
20
17.3649201654158
30
0
41
1
10
-38
20
17.2140632768009
30
0
41
1
10
-38
20
17.0578935907134
30
0
41
1
10
-38
20
16.9392992293059
30
0
41
1
10
-38
20
16.8188549914818
30
0
41
1
10
-38
20
16.6552510003021
30
0
41
1
10
-38
20
16.489672496603
30
0
41
1
10
-38
20
16.3187666825072
30
0
41
1
10
-38
20
16.2111031772939
30
0
41
1
10
-38
20
16.1235473577608
30
0
41
1
10
-38
20
16.0353949417433
30
0
41
1
10
-38
20
15.8797855584285
30
0
41
1
10
-38
20
15.6999813794666
30
0
41
1
10
-38
20
15.5148116907138
30
0
41
1
10
-38
20
15.3746600384839
30
0
41
1
10
-38
20
15.2327750536327
30
0
41
1
10
-38
20
15.0406360987563
30
0
41
1
10
-38
20
14.8470518249568
30
0
41
1
10
-38
20
14.6480433816337
30
0
41
1
10
-38
20
14.5230237603812
30
0
41
1
10
-38
20
14.4215395322791
30
0
41
1
10
-38
20
14.319494446119
30
0
41
1
10
-38
20
14.1916826014269
30
0
41
1
10
-38
20
14.0362107113462
30
0
41
1
10
-38
20
13.905633632864
30
0
41
1
10
-38
20
13.7996824703933
30
0
41
1
10
-38
20
13.6931799140641
30
0
41
1
10
-38
20
13.5598675642285
30
0
41
1
10
-38
20
13.3977994204325
30
0
41
1
10
-38
20
13.2340971553998
30
0
41
1
10
-38
20
13.0687736820565
30
0
41
1
10
-38
20
12.9018380893652
30
0
41
1
10
-38
20
12.7332922951509
30
0
41
1
10
-38
20
12.5631480531082
30
0
41
1
10
-38
20
12.3914123687224
30
0
41
1
10
-38
20
12.2180896154105
30
0
41
1
10
-38
20
12.0431930727568
30
0
41
1
10
-38
20
11.8667275879997
30
0
41
1
10
-38
20
11.6886992220563
30
0
41
1
10
-38
20
11.5091211559413
30
0
41
1
10
-38
20
11.3279971676986
30
0
41
1
10
-38
20
11.0835274575533
30
0
41
1
10
-38
20
10.8388445996823
30
0
41
1
10
-38
20
10.5882272221232
30
0
41
1
10
-38
20
10.3995106478125
30
0
41
1
10
-38
20
10.2093006505112
30
0
41
1
10
-38
20
10.0176111741013
30
0
41
1
10
-38
20
9.82444825814403
30
0
41
1
10
-38
20
9.62982433363783
30
0
41
1
10
-38
20
9.43375032895256
30
0
41
1
10
-38
20
9.16930024978845
30
0
41
1
10
-38
20
8.83774034996796
30
0
41
1
10
-38
20
8.43283016067576
30
0
41
1
10
-38
20
8.09202302704495
30
0
41
1
10
-38
20
7.81440668711983
30
0
41
1
10
-38
20
7.60585888080689
30
0
41
1
10
-38
20
7.39600299493051
30
0
41
1
10
-38
20
7.18486050853949
30
0
41
1
10
-38
20
6.972454820743
30
0
41
1
10
-38
20
6.75880464755275
30
0
41
1
10
-38
20
6.54393387937549
30
0
41
1
10
-38
20
6.32787102064523
30
0
41
1
10
-38
20
6.11064460524281
30
0
41
1
10
-38
20
5.89228682406826
30
0
41
1
10
-38
20
5.67283049766701
30
0
41
1
10
-38
20
5.45231041402207
30
0
41
1
10
-38
20
5.2307661198837
30
0
41
1
10
-38
20
5.00824236668089
30
0
41
1
10
-38
20
4.78478453894908
30
0
41
1
10
-38
20
4.56044477194351
30
0
41
1
10
-38
20
4.3737593142329
30
0
41
1
10
-38
20
4.22222174308931
30
0
41
1
10
-38
20
4.10916467830541
30
0
41
1
10
-38
20
3.99593123757288
30
0
41
1
10
-38
20
3.84368490764803
30
0
41
1
10
-38
20
3.65544484289478
30
0
41
1
10
-38
20
3.46668355973628
30
0
41
1
10
-38
20
3.31336520651504
30
0
41
1
10
-38
20
3.19916977025284
30
0
41
1
10
-38
20
3.0848771849204
30
0
41
1
10
-38
20
2.93116533478539
30
0
41
1
10
-38
20
2.7810630459212
30
0
41
1
10
-38
20
2.62697343511894
30
0
41
1
10
-38
20
2.51237687493429
30
0
41
1
10
-38
20
2.39774974487253
30
0
41
1
10
-38
20
2.28311555219403
30
0
41
1
10
-38
20
2.16847618976473
30
0
41
1
10
-38
20
2.05384840107453
30
0
41
1
10
-38
20
1.93924458170406
30
0
41
1
10
-38
20
1.82466899171223
30
0
41
1
10
-38
20
1.71014121398446
30
0
41
1
10
-38
20
1.59566009898879
30
0
41
1
10
-38
20
1.48124309885608
30
0
41
1
10
-38
20
1.36688883878045
30
0
41
1
10
-38
20
1.25260906632701
30
0
41
1
10
-38
20
1.13840321986405
30
0
41
1
10
-38
20
1.02427614220741
30
0
41
1
10
-38
20
0.910225811803912
30
0
41
1
10
-38
20
0.796251800903974
30
0
41
1
10
-38
20
0.682349388495624
30
0
41
1
10
-38
20
0.568513483413511
30
0
41
1
10
-38
20
0.454735475948979
30
0
41
1
10
-38
20
0.341006791030111
30
0
41
1
10
-38
20
0.227315919379521
30
0
41
1
10
-38
20
0.113651444289076
30
0
41
1
10
-38
20
2.39307099E-08
30
0
41
1
10
-38
20
-0.113651428861147
30
0
41
1
10
-38
20
-0.227315965161807
30
0
41
1
10
-38
20
-0.341006831114754
30
0
41
1
10
-38
20
-0.454735424962735
30
0
41
1
10
-38
20
-0.568513412391525
30
0
41
1
10
-38
20
-0.682349437337052
30
0
41
1
10
-38
20
-0.796251898049235
30
0
41
1
10
-38
20
-0.910225765592202
30
0
41
1
10
-38
20
-1.02427601417025
30
0
41
1
10
-38
20
-1.13840324907633
30
0
41
1
10
-38
20
-1.25260921865757
30
0
41
1
10
-38
20
-1.36688883944314
30
0
41
1
10
-38
20
-1.48124293103632
30
0
41
1
10
-38
20
-1.59566004663384
30
0
41
1
10
-38
20
-1.71014137238996
30
0
41
1
10
-38
20
-1.82466911261432
30
0
41
1
10
-38
20
-1.93924446866484
30
0
41
1
10
-38
20
-2.05384821372689
30
0
41
1
10
-38
20
-2.16847621903287
30
0
41
1
10
-38
20
-2.28311576323418
30
0
41
1
10
-38
20
-2.39774983280105
30
0
41
1
10
-38
20
-2.51237672316307
30
0
41
1
10
-38
20
-2.62697323991799
30
0
41
1
10
-38
20
-2.78106315146928
30
0
41
1
10
-38
20
-2.93116552693385
30
0
41
1
10
-38
20
-3.08487708212581
30
0
41
1
10
-38
20
-3.19916954549007
30
0
41
1
10
-38
20
-3.31336512600546
30
0
41
1
10
-38
20
-3.46668375918677
30
0
41
1
10
-38
20
-3.65544489425085
30
0
41
1
10
-38
20
-3.84368470208372
30
0
41
1
10
-38
20
-3.99593117493791
30
0
41
1
10
-38
20
-4.10916481607396
30
0
41
1
10
-38
20
-4.22222196867938
30
0
41
1
10
-38
20
-4.37375933349006
30
0
41
1
10
-38
20
-4.56044458630845
30
0
41
1
10
-38
20
-4.78478457648492
30
0
41
1
10
-38
20
-5.00824253816086
30
0
41
1
10
-38
20
-5.23076600439052
30
0
41
1
10
-38
20
-5.45231022599046
30
0
41
1
10
-38
20
-5.67283041504652
30
0
41
1
10
-38
20
-5.89228674128222
30
0
41
1
10
-38
20
-6.11064496108523
30
0
41
1
10
-38
20
-6.32787239667013
30
0
41
1
10
-38
20
-6.54393525610644
30
0
41
1
10
-38
20
-6.75880334040127
30
0
41
1
10
-38
20
-6.97245311766207
30
0
41
1
10
-38
20
-7.18486111103374
30
0
41
1
10
-38
20
-7.39600347561742
30
0
41
1
10
-38
20
-7.60585874971361
30
0
41
1
10
-38
20
-7.8144064520111
30
0
41
1
10
-38
20
-8.09202295752311
30
0
41
1
10
-38
20
-8.43283023540656
30
0
41
1
10
-38
20
-8.83774029355055
30
0
41
1
10
-38
20
-9.16930023887323
30
0
41
1
10
-38
20
-9.43375044009511
30
0
41
1
10
-38
20
-9.62982432960192
30
0
41
1
10
-38
20
-9.82444814962994
30
0
41
1
10
-38
20
-10.0176111126089
30
0
41
1
10
-38
20
-10.2093007057547
30
0
41
1
10
-38
20
-10.3995107409486
30
0
41
1
10
-38
20
-10.5882272324294
30
0
41
1
10
-38
20
-10.8388445170812
30
0
41
1
10
-38
20
-11.0835274377931
30
0
41
1
10
-38
20
-11.327997250045
30
0
41
1
10
-38
20
-11.5091211965041
30
0
41
1
10
-38
20
-11.6886991809046
30
0
41
1
10
-38
20
-11.8667275177687
30
0
41
1
10
-38
20
-12.0431930522803
30
0
41
1
10
-38
20
-12.2180896645831
30
0
41
1
10
-38
20
-12.3914124247035
30
0
41
1
10
-38
20
-12.5631480735019
30
0
41
1
10
-38
20
-12.7332924196477
30
0
41
1
10
-38
20
-12.9018387248249
30
0
41
1
10
-38
20
-13.068774902876
30
0
41
1
10
-38
20
-13.2899980003418
30
0
41
1
10
-38
20
-13.5056406071554
30
0
41
1
10
-38
20
-13.7202970548285
30
0
41
1
10
-38
20
-13.9327572918622
30
0
41
1
10
-38
20
-14.1397069500695
30
0
41
1
10
-38
20
-14.3454836148157
30
0
41
1
10
-38
20
-14.4976048095277
30
0
41
1
10
-38
20
-14.6480433741443
30
0
41
1
10
-38
20
-14.8470538575164
30
0
41
1
10
-38
20
-15.0406366439893
30
0
41
1
10
-38
20
-15.2327734637881
30
0
41
1
10
-38
20
-15.3746583733236
30
0
41
1
10
-38
20
-15.5148115582755
30
0
41
1
10
-38
20
-15.6999837411247
30
0
41
1
10
-38
20
-15.8797870255403
30
0
41
1
10
-38
20
-16.0578801048401
30
0
41
1
10
-38
20
-16.189216581434
30
0
41
1
10
-38
20
-16.3187661779867
30
0
41
1
10
-38
20
-16.4896741385663
30
0
41
1
10
-38
20
-16.6552512602625
30
0
41
1
10
-38
20
-16.8188545807649
30
0
41
1
10
-38
20
-16.9392987318018
30
0
41
1
10
-38
20
-17.0578934672827
30
0
41
1
10
-38
20
-17.2140648101705
30
0
41
1
10
-38
20
-17.3649216616153
30
0
41
1
10
-38
20
-17.513530035822
30
0
41
1
10
-38
20
-17.6226956365842
30
0
41
1
10
-38
20
-17.7299433731025
30
0
41
1
10
-38
20
-17.8708440004863
30
0
41
1
10
-38
20
-18.0064238716364
30
0
41
1
10
-38
20
-18.1394672902698
30
0
41
1
10
-38
20
-18.236915915677
30
0
41
1
10
-38
20
-18.3323672965474
30
0
41
1
10
-38
20
-18.4258040962282
30
0
41
1
10
-38
20
-18.517209887002
30
0
41
1
10
-38
20
-18.6065734896479
30
0
41
1
10
-38
20
-18.6938772522127
30
0
41
1
10
-38
20
-18.7791047692188
30
0
41
1
10
-38
20
-18.8622426359768
30
0
41
1
10
-38
20
-18.9432715834756
30
0
41
1
10
-38
20
-19.0221745805325
30
0
41
1
10
-38
20
-19.0989364136873
30
0
41
1
10
-38
20
-19.1735363647814
30
0
41
1
10
-38
20
-19.2704515417461
30
0
41
1
10
-38
20
-19.3619266112172
30
0
41
1
10
-38
20
-19.4499498647732
30
0
41
1
10
-38
20
-19.5134574724377
30
0
41
1
10
-38
20
-19.5746836830748
30
0
41
1
10
-38
20
-19.6336085328262
30
0
41
1
10
-38
20
-19.6902080668946
30
0
41
1
10
-38
20
-19.7628242842049
30
0
41
1
10
-38
20
-19.829873984374
30
0
41
1
10
-38
20
-19.8928775551026
30
0
41
1
10
-38
20
-19.9374871757691
30
0
41
1
10
-38
20
-19.9796195436673
30
0
41
1
10
-38
20
-20.0326760063813
30
0
41
1
10
-38
20
-20.0800381474625
30
0
41
1
10
-38
20
-20.1228090027496
30
0
41
1
10
-38
20
-20.1521177658612
30
0
41
1
10
-38
20
-20.1787668505585
30
0
41
1
10
-38
20
-20.2027210424566
30
0
41
1
10
-38
20
-20.2239455432986
30
0
41
1
10
-38
20
-20.2424031363825
30
0
41
1
10
-38
20
-20.2580557552655
30
0
41
1
10
-38
20
-20.2708642249464
30
0
41
1
10
-38
20
-20.2807872561095
30
0
41
1
10
-38
20
-20.2877829489451
30
0
41
1
10
-38
20
-20.2915997375089
30
0
41
1
10
-38
20
-20.2923628506309
30
0
41
1
10
-38
20
-20.2923482806196
30
0
0
SPLINE
5
15F
100
AcDbEntity
8
1
62
256
6
ByLayer
370
18
48
1
60
0
100
AcDbSpline
70
4
71
3
72
10
73
6
40
0
40
0
40
0
40
0
40
0.41167047523171
40
0.41167047523171
40
1
40
1
40
1
40
1
41
1
10
35.022542502142
20
13.3115174465848
30
0
41
1
10
34.8681591750317
20
13.3327473804396
30
0
41
1
10
34.7086049077377
20
13.3474211002297
30
0
41
1
10
34.3091064748737
20
13.3614188466407
30
0
41
1
10
34.0623494352876
20
13.3509173076901
30
0
41
1
10
33.8141162176973
20
13.3142721511196
30
0
0
SPLINE
5
160
100
AcDbEntity
8
1
62
256
6
ByLayer
370
18
48
1
60
0
100
AcDbSpline
70
4
71
3
72
8
73
4
40
0
40
0
40
0
40
0
40
1
40
1
40
1
40
1
41
1
10
54.2233133931387
20
1.28287978977141
30
0
41
1
10
54.1784083147868
20
1.35571313779951
30
0
41
1
10
54.1315220171555
20
1.42499935320893
30
0
41
1
10
54.0835866096422
20
1.48962104860328
30
0
0
SPLINE
5
161
100
AcDbEntity
8
1
62
256
6
ByLayer
370
18
48
1
60
0
100
AcDbSpline
70
4
71
3
72
8
73
4
40
0
40
0
40
0
40
0
40
1
40
1
40
1
40
1
41
1
10
52.8313616487867
20
3.70814051851963
30
0
41
1
10
53.0469106574682
20
3.36061759379416
30
0
41
1
10
53.2614070717894
20
3.00990563416491
30
0
41
1
10
53.4737044648356
20
2.65781218842389
30
0
0
SPLINE
5
162
100
AcDbEntity
8
1
62
256
6
ByLayer
370
18
48
1
60
0
100
AcDbSpline
70
4
71
3
72
8
73
4
40
0
40
0
40
0
40
0
40
1
40
1
40
1
40
1
41
1
10
46.117124340843
20
-3.55627290567335
30
0
41
1
10
46.9240101965078
20
-3.49523562105691
30
0
41
1
10
47.6921923259912
20
-3.53192091281781
30
0
41
1
10
48.3125452533537
20
-3.66689567895298
30
0
0
SPLINE
5
163
100
AcDbEntity
8
1
62
256
6
ByLayer
370
18
48
1
60
0
100
AcDbSpline
70
4
71
3
72
8
73
4
40
0
40
0
40
0
40
0
40
1
40
1
40
1
40
1
41
1
10
35.8650794610348
20
12.2438842408804
30
0
41
1
10
36.3481776411061
20
11.5899775528017
30
0
41
1
10
36.8726574296363
20
10.2725420804038
30
0
41
1
10
37.3339040668094
20
8.79384393032171
30
0
0
SPLINE
5
164
100
AcDbEntity
8
1
62
256
6
ByLayer
370
18
48
1
60
0
100
AcDbSpline
70
4
71
3
72
12
73
8
40
0
40
0
40
0
40
0
40
0.471343086678524
40
0.471343086678524
40
0.892619726108224
40
0.892619726108224
40
1
40
1
40
1
40
1
41
1
10
34.5197943877343
20
3.64017408401565
30
0
41
1
10
34.6762137810317
20
3.55455768820931
30
0
41
1
10
34.8311644056772
20
3.45206879791999
30
0
41
1
10
35.0985755836071
20
3.22962536617686
30
0
41
1
10
35.2163566263351
20
3.11007567384596
30
0
41
1
10
35.3399487987273
20
2.95188164492615
30
0
41
1
10
35.3641630117192
20
2.9188822645385
30
0
41
1
10
35.3870616094667
20
2.88558543087316
30
0
0
SPLINE
5
165
100
AcDbEntity
8
1
62
256
6
ByLayer
370
18
48
1
60
0
100
AcDbSpline
70
4
71
1
72
4
73
2
40
0
40
0
40
1
40
1
41
1
10
42.9938127580027
20
9.82184726174839
30
0
41
1
10
42.828767817724
20
10.8842808839663
30
0
0
SPLINE
5
166
100
AcDbEntity
8
1
62
256
6
ByLayer
370
18
48
1
60
0
100
AcDbSpline
70
4
71
3
72
12
73
8
40
0
40
0
40
0
40
0
40
0.108853988607132
40
0.502629237162306
40
0.699516861439893
40
0.89640448571748
40
1
40
1
40
1
40
1
41
1.02441262532206
10
44.2304611122008
20
1.8989668622908
30
0
41
1.02394775682001
10
44.556181431864
20
1.81467903484678
30
0
41
1.02173322384668
10
46.097788307089
20
1.42022682041087
30
0
41
1.01876555595691
10
48.2608892849134
20
0.890139365331965
30
0
41
1.01610930227499
10
49.707370793095
20
0.551349753401626
30
0
41
1.01814069306376
10
50.3461930155006
20
0.305568246716223
30
0
41
1.02005196006971
10
50.9188457624591
20
0.103437284278008
30
0
41
1.02076673234773
10
51.1286168337743
20
0.0315262273043868
30
0
0
SPLINE
5
167
100
AcDbEntity
8
1
62
256
6
ByLayer
370
18
48
1
60
0
100
AcDbSpline
70
4
71
3
72
20
73
16
40
0
40
0
40
0
40
0
40
0.332873226652389
40
0.332873226652389
40
0.501657261698203
40
0.501657261698203
40
0.631212321676504
40
0.631212321676504
40
0.722542323637661
40
0.722542323637661
40
0.814765347404182
40
0.814765347404182
40
0.896421359038793
40
0.896421359038793
40
1
40
1
40
1
40
1
41
1
10
51.1286168337841
20
0.0315262273010433
30
0
41
1
10
50.9305668467437
20
-0.0110132677053798
30
0
41
1
10
50.7258693232025
20
-0.0647890445966368
30
0
41
1
10
50.4107662431306
20
-0.181180748353739
30
0
41
1
10
50.3023271202835
20
-0.227105275157044
30
0
41
1
10
50.1138298683719
20
-0.326109528824418
30
0
41
1
10
50.0315418840204
20
-0.376008150148181
30
0
41
1
10
49.9025143379482
20
-0.472823935103747
30
0
41
1
10
49.8514727365499
20
-0.517228506120802
30
0
41
1
10
49.7641438483726
20
-0.609848847405317
30
0
41
1
10
49.7270111845569
20
-0.659397930224173
30
0
41
1
10
49.6770153723006
20
-0.749269772991795
30
0
41
1
10
49.6611432344924
20
-0.791030706317997
30
0
41
1
10
49.6412805156045
20
-0.879039845578603
30
0
41
1
10
49.6410423080667
20
-0.924710192289126
30
0
41
1
10
49.648073959102
20
-0.96589459957471
30
0
0
SPLINE
5
168
100
AcDbEntity
8
1
62
256
6
ByLayer
370
18
48
1
60
0
100
AcDbSpline
70
4
71
3
72
10
73
6
40
0
40
0
40
0
40
0
40
0.5
40
0.5
40
1
40
1
40
1
40
1
41
1
10
46.1171243408427
20
-3.55627290567338
30
0
41
1
10
44.8117525781449
20
-3.6550184063544
30
0
41
1
10
43.5058717057392
20
-3.64951243609488
30
0
41
1
10
40.8928965563562
20
-3.39002907700774
30
0
41
1
10
39.5874603891091
20
-3.18138852872102
30
0
41
1
10
38.3303260146104
20
-2.76754642109893
30
0
0
SPLINE
5
169
100
AcDbEntity
8
1
62
256
6
ByLayer
370
18
48
1
60
0
100
AcDbSpline
70
4
71
3
72
8
73
4
40
0
40
0
40
0
40
0
40
1
40
1
40
1
40
1
41
1
10
30.8513121381758
20
3.10490975323088
30
0
41
1
10
30.8439622428621
20
3.08260436262569
30
0
41
1
10
30.837188396297
20
3.06034708475789
30
0
41
1
10
30.8309637232936
20
3.03813514641462
30
0
0
SPLINE
5
16A
100
AcDbEntity
8
1
62
256
6
ByLayer
370
18
48
1
60
0
100
AcDbSpline
70
4
71
3
72
10
73
6
40
0
40
0
40
0
40
0
40
0.5
40
0.5
40
1
40
1
40
1
40
1
41
1
10
33.4995957486603
20
11.1368735864357
30
0
41
1
10
33.7579375880107
20
11.816938027724
30
0
41
1
10
34.1394272047101
20
12.3617595406518
30
0
41
1
10
34.8164055337818
20
13.006556951793
30
0
41
1
10
35.0955934607879
20
13.1657652396737
30
0
41
1
10
35.4963292517004
20
13.2050568701248
30
0
0
SPLINE
5
16B
100
AcDbEntity
8
1
62
256
6
ByLayer
370
18
48
1
60
0
100
AcDbSpline
70
4
71
3
72
8
73
4
40
0
40
0
40
0
40
0
40
1
40
1
40
1
40
1
41
1
10
42.7924037630616
20
7.91143284258368
30
0
41
1
10
42.5410428853971
20
8.05538538319817
30
0
41
1
10
42.28111134835
20
8.17355569969095
30
0
41
1
10
42.012552558205
20
8.2648004263072
30
0
0
SPLINE
5
16C
100
AcDbEntity
8
1
62
256
6
ByLayer
370
18
48
1
60
0
100
AcDbSpline
70
4
71
2
72
6
73
3
40
0
40
0
40
0
40
1
40
1
40
1
41
0.937301687603847
10
40.2531405606399
20
0.205301604858503
30
0
41
0.930554446910518
10
39.6537201830864
20
-1.14249421628741
30
0
41
1.02805999725225
10
39.1955403479562
20
-1.70511279887942
30
0
0
SPLINE
5
16D
100
AcDbEntity
8
1
62
256
6
ByLayer
370
18
48
1
60
0
100
AcDbSpline
70
4
71
3
72
12
73
8
40
0
40
0
40
0
40
0
40
0.108854002841679
40
0.502629245107337
40
0.699516866240166
40
0.896404487372996
40
1
40
1
40
1
40
1
41
1.0244126255267
10
44.9844246740479
20
4.18708859749197
30
0
41
1.02394775696077
10
45.2928976004538
20
4.05045839891227
30
0
41
1.02173322391444
10
46.7489433854392
20
3.39634606220679
30
0
41
1.01876555595691
10
48.7674194365439
20
2.42735212867697
30
0
41
1.01610930227499
10
50.1011868221094
20
1.74649879686508
30
0
41
1.01814069306376
10
50.7458627521891
20
1.51848206513419
30
0
41
1.0200519600697
10
51.3116271495249
20
1.29544640646263
30
0
41
1.02076673234771
10
51.5174328880834
20
1.21150139632632
30
0
0
SPLINE
5
16E
100
AcDbEntity
8
1
62
256
6
ByLayer
370
18
48
1
60
0
100
AcDbSpline
70
4
71
3
72
8
73
4
40
0
40
0
40
0
40
0
40
1
40
1
40
1
40
1
41
1
10
37.533822841651
20
8.86548751221767
30
0
41
1
10
37.4691225795827
20
8.83900724175865
30
0
41
1
10
37.4024771526125
20
8.81507779980606
30
0
41
1
10
37.3339040668179
20
8.79384393032325
30
0
0
SPLINE
5
16F
100
AcDbEntity
8
1
62
256
6
ByLayer
370
18
48
1
60
0
100
AcDbSpline
70
4
71
3
72
8
73
4
40
0
40
0
40
0
40
0
40
1
40
1
40
1
40
1
41
1
10
51.3128609362959
20
5.4384330897455
30
0
41
1
10
51.4031908217102
20
5.38777035863589
30
0
41
1
10
51.4925277870412
20
5.33476998010471
30
0
41
1
10
51.5808697752838
20
5.27968472197333
30
0
0
SPLINE
5
170
100
AcDbEntity
8
1
62
256
6
ByLayer
370
18
48
1
60
0
100
AcDbSpline
70
4
71
3
72
10
73
6
40
0
40
0
40
0
40
0
40
0.967465556419478
40
0.967465556419478
40
1
40
1
40
1
40
1
41
1
10
51.5174328880998
20
1.21150139631962
30
0
41
1
10
51.7704124844148
20
0.888350509852501
30
0
41
1
10
52.0259897609135
20
0.575215055344614
30
0
41
1
10
52.2924894988507
20
0.26874366655008
30
0
41
1
10
52.3011703075265
20
0.258783457966729
30
0
41
1
10
52.3098538989519
20
0.248843097168873
30
0
0
SPLINE
5
171
100
AcDbEntity
8
1
62
256
6
ByLayer
370
18
48
1
60
0
100
AcDbSpline
70
4
71
3
72
8
73
4
40
0
40
0
40
0
40
0
40
1
40
1
40
1
40
1
41
1
10
52.8588034793927
20
-2.22733884821113
30
0
41
1
10
52.9342008883541
20
-2.20861912948251
30
0
41
1
10
53.0116988528196
20
-2.18500535697728
30
0
41
1
10
53.0899171425476
20
-2.15674009606752
30
0
0
SPLINE
5
172
100
AcDbEntity
8
1
62
256
6
ByLayer
370
18
48
1
60
0
100
AcDbSpline
70
4
71
3
72
12
73
8
40
0
40
0
40
0
40
0
40
0.286978363858296
40
0.286978363858296
40
0.569998995185618
40
0.569998995185618
40
1
40
1
40
1
40
1
41
1
10
44.9844248097894
20
4.18708853736905
30
0
41
1
10
44.9755419773297
20
3.95321053459017
30
0
41
1
10
44.9475728459211
20
3.71905181965815
30
0
41
1
10
44.8555225578931
20
3.26319868059215
30
0
41
1
10
44.7916296012942
20
3.03981169739191
30
0
41
1
10
44.5887709435524
20
2.49754731081737
30
0
41
1
10
44.4261971126549
20
2.18429961700872
30
0
41
1
10
44.2304611122007
20
1.89896686229082
30
0
0
SPLINE
5
173
100
AcDbEntity
8
1
62
256
6
ByLayer
370
18
48
1
60
0
100
AcDbSpline
70
4
71
3
72
8
73
4
40
0
40
0
40
0
40
0
40
1
40
1
40
1
40
1
41
1
10
50.5438775651351
20
-3.23389386758069
30
0
41
1
10
50.9247993003221
20
-3.07954525480997
30
0
41
1
10
51.3061859795879
20
-2.92378026608793
30
0
41
1
10
51.6860310334193
20
-2.76740170499525
30
0
0
SPLINE
5
174
100
AcDbEntity
8
1
62
256
6
ByLayer
370
18
48
1
60
0
100
AcDbSpline
70
4
71
3
72
8
73
4
40
0
40
0
40
0
40
0
40
1
40
1
40
1
40
1
41
1
10
36.1891304929831
20
8.70625901306661
30
0
41
1
10
35.2489374003097
20
9.6960095353854
30
0
41
1
10
34.3343581963338
20
10.5624678034796
30
0
41
1
10
33.6404388130482
20
11.0376483472798
30
0
0
SPLINE
5
175
100
AcDbEntity
8
1
62
256
6
ByLayer
370
18
48
1
60
0
100
AcDbSpline
70
4
71
2
72
6
73
3
40
0
40
0
40
0
40
1
40
1
40
1
41
1.02805999725224
10
39.1955403479562
20
-1.70511279887939
30
0
41
1.02805999725224
10
38.7629331812833
20
-2.23632960998917
30
0
41
1.02805999725224
10
38.3303260146104
20
-2.76754642109896
30
0
0
SPLINE
5
176
100
AcDbEntity
8
1
62
256
6
ByLayer
370
18
48
1
60
0
100
AcDbSpline
70
4
71
2
72
6
73
3
40
0
40
0
40
0
40
1
40
1
40
1
41
1.02805999725224
10
42.9938127580027
20
9.82184726174841
30
0
41
0.93055444607248
10
43.0812133723125
20
9.25922867381503
30
0
41
0.937301687719828
10
42.7924037762915
20
7.91143283501064
30
0
0
SPLINE
5
177
100
AcDbEntity
8
1
62
256
6
ByLayer
370
18
48
1
60
0
100
AcDbSpline
70
4
71
3
72
8
73
4
40
0
40
0
40
0
40
0
40
1
40
1
40
1
40
1
41
1
10
34.5197943877343
20
3.64017408401565
30
0
41
1
10
34.2951308298271
20
3.76314402841678
30
0
41
1
10
34.0646309570347
20
3.85671884487141
30
0
41
1
10
33.8314268880306
20
3.927896952894
30
0
0
SPLINE
5
178
100
AcDbEntity
8
1
62
256
6
ByLayer
370
18
48
1
60
0
100
AcDbSpline
70
4
71
3
72
8
73
4
40
0
40
0
40
0
40
0
40
1
40
1
40
1
40
1
41
1.02417048357497
10
52.8313081903795
20
3.70821487726021
30
0
41
1.02233815524058
10
52.408239290325
20
4.29668543771673
30
0
41
1.02059845272928
10
51.9566887139621
20
4.8485081056073
30
0
41
1.01923193651505
10
51.5809044519734
20
5.27964493754502
30
0
0
SPLINE
5
179
100
AcDbEntity
8
1
62
256
6
ByLayer
370
18
48
1
60
0
100
AcDbSpline
70
4
71
3
72
10
73
6
40
0
40
0
40
0
40
0
40
0.5
40
0.5
40
1
40
1
40
1
40
1
41
1
10
53.4737044648197
20
2.65781218844151
30
0
41
1
10
52.9793799696168
20
3.20354495470699
30
0
41
1
10
52.4677697971389
20
3.4020471451818
30
0
41
1
10
51.6189846893925
20
3.36354322219879
30
0
41
1
10
51.2535895922949
20
3.15769233167291
30
0
41
1
10
50.9196296213405
20
2.89301012111414
30
0
0
SPLINE
5
17A
100
AcDbEntity
8
1
62
256
6
ByLayer
370
18
48
1
60
0
100
AcDbSpline
70
4
71
3
72
12
73
8
40
0
40
0
40
0
40
0
40
0.466938972358619
40
0.466938972358619
40
0.928803236876547
40
0.928803236876547
40
1
40
1
40
1
40
1
41
1
10
37.3339040668179
20
8.79384393032325
30
0
41
1
10
37.1724304750965
20
8.74384312998291
30
0
41
1
10
36.9914644780486
20
8.71017236242318
30
0
41
1
10
36.6314675883146
20
8.68025147929035
30
0
41
1
10
36.4476160953583
20
8.68270188828765
30
0
41
1
10
36.2437189015315
20
8.7005380209541
30
0
41
1
10
36.2163556785397
20
8.70325263681988
30
0
41
1
10
36.1891304929831
20
8.70625901306661
30
0
0
SPLINE
5
17B
100
AcDbEntity
8
1
62
256
6
ByLayer
370
18
48
1
60
0
100
AcDbSpline
70
4
71
3
72
8
73
4
40
0
40
0
40
0
40
0
40
1
40
1
40
1
40
1
41
1
10
37.5338228416509
20
8.86548751221764
30
0
41
1
10
38.3251977375512
20
9.18937833751019
30
0
41
1
10
39.222788033922
20
9.21264242844217
30
0
41
1
10
40.094212732709
20
8.91656979434757
30
0
0
SPLINE
5
17C
100
AcDbEntity
8
1
62
256
6
ByLayer
370
18
48
1
60
0
100
AcDbSpline
70
4
71
3
72
20
73
16
40
0
40
0
40
0
40
0
40
0.110576036200127
40
0.110576036200127
40
0.197179369122806
40
0.197179369122806
40
0.284291117387368
40
0.284291117387368
40
0.365904217918079
40
0.365904217918079
40
0.497270233392074
40
0.497270233392074
40
0.733496364826715
40
0.733496364826715
40
1
40
1
40
1
40
1
41
1
10
50.9196296213417
20
2.89301012111363
30
0
41
1
10
50.8899013518828
20
2.86945345951423
30
0
41
1
10
50.8637296071339
20
2.83675410404183
30
0
41
1
10
50.8306255519338
20
2.75823648794352
30
0
41
1
10
50.8206224047483
20
2.71583352820559
30
0
41
1
10
50.8135306841119
20
2.61869030617291
30
0
41
1
10
50.8165093881858
20
2.56259572269713
30
0
41
1
10
50.8338353885428
20
2.44982164856143
30
0
41
1
10
50.8475275791133
20
2.39220676629219
30
0
41
1
10
50.8920576090109
20
2.24439108808895
30
0
41
1
10
50.9287407203236
20
2.15308921787798
30
0
41
1
10
51.0409188004878
20
1.91240228598471
30
0
41
1
10
51.1258153874004
20
1.76856620757616
30
0
41
1
10
51.3107383819347
20
1.48440227550941
30
0
41
1
10
51.4135555444022
20
1.34414386856417
30
0
41
1
10
51.5174328880998
20
1.21150139631959
30
0
0
SPLINE
5
17D
100
AcDbEntity
8
1
62
256
6
ByLayer
370
18
48
1
60
0
100
AcDbSpline
70
4
71
3
72
8
73
4
40
0
40
0
40
0
40
0
40
1
40
1
40
1
40
1
41
1
10
35.3870616094667
20
2.88558543087316
30
0
41
1
10
34.1248152141138
20
1.93604974535205
30
0
41
1
10
32.8918003224651
20
1.09766560594514
30
0
41
1
10
32.0668070509883
20
0.716924180252647
30
0
0
SPLINE
5
17E
100
AcDbEntity
8
1
62
256
6
ByLayer
370
18
48
1
60
0
100
AcDbSpline
70
4
71
3
72
10
73
6
40
0
40
0
40
0
40
0
40
0.655488757716275
40
0.655488757716275
40
1
40
1
40
1
40
1
41
1
10
31.2734062824343
20
-0.50139776360794
30
0
41
1
10
30.9090454722666
20
-0.400823255810593
30
0
41
1
10
30.5147873828756
20
-0.250749129090877
30
0
41
1
10
29.9385185702146
20
0.0976013054835221
30
0
41
1
10
29.7424572604373
20
0.240950672856968
30
0
41
1
10
29.5613407732873
20
0.407990715151698
30
0
0
SPLINE
5
17F
100
AcDbEntity
8
1
62
256
6
ByLayer
370
18
48
1
60
0
100
AcDbSpline
70
4
71
3
72
8
73
4
40
0
40
0
40
0
40
0
40
1
40
1
40
1
40
1
41
1.01923193622652
10
48.6138311005448
20
-3.72479999536988
30
0
41
1.02059843499303
10
49.1694614460418
20
-3.61012165953353
30
0
41
1.02233811057541
10
49.8571252474242
20
-3.44536131929569
30
0
41
1.02417041321379
10
50.5437644802726
20
-3.23392868953737
30
0
0
SPLINE
5
180
100
AcDbEntity
8
1
62
256
6
ByLayer
370
18
48
1
60
0
100
AcDbSpline
70
4
71
3
72
11
73
7
40
0
40
0
40
0
40
0
40
0.423407924939466
40
0.740963868644065
40
0.899741840496365
40
1
40
1
40
1
40
1
41
1.02805999725225
10
39.1955403479562
20
-1.70511279887942
30
0
41
1.02767136955277
10
40.0409605952982
20
-1.87306351374239
30
0
41
1.02349884684923
10
43.3113155127453
20
-1.63793403045096
30
0
41
1.01876555595691
10
47.4480687966171
20
-1.00671498255026
30
0
41
1.01635405201137
10
48.9945496079004
20
-0.785997171043384
30
0
41
1.01722454828226
10
49.4586627939269
20
-0.906845910645941
30
0
41
1.01774327987904
10
49.6480739591023
20
-0.965894599574827
30
0
0
SPLINE
5
181
100
AcDbEntity
8
1
62
256
6
ByLayer
370
18
48
1
60
0
100
AcDbSpline
70
4
71
3
72
8
73
4
40
0
40
0
40
0
40
0
40
1
40
1
40
1
40
1
41
1
10
35.3870616094667
20
2.88558543087316
30
0
41
1
10
35.4284226972723
20
2.82544230437799
30
0
41
1
10
35.4669763398963
20
2.76367492705515
30
0
41
1
10
35.5024577643061
20
2.70072058997886
30
0
0
SPLINE
5
182
100
AcDbEntity
8
1
62
256
6
ByLayer
370
18
48
1
60
0
100
AcDbSpline
70
4
71
3
72
8
73
4
40
0
40
0
40
0
40
0
40
1
40
1
40
1
40
1
41
1
10
37.5005948214563
20
1.04548345613196
30
0
41
1
10
36.6318297422641
20
1.34065246587414
30
0
41
1
10
35.9328998482687
20
1.93699149802788
30
0
41
1
10
35.5024577643061
20
2.70072058997886
30
0
0
SPLINE
5
183
100
AcDbEntity
8
1
62
256
6
ByLayer
370
18
48
1
60
0
100
AcDbSpline
70
4
71
3
72
10
73
6
40
0
40
0
40
0
40
0
40
0.5
40
0.5
40
1
40
1
40
1
40
1
41
1
10
31.1164920812915
20
-0.0868302525098557
30
0
41
1
10
30.8365938961038
20
0.245776921577175
30
0
41
1
10
30.7296940913613
20
0.609325418137473
30
0
41
1
10
30.6057624280227
20
1.63129623662277
30
0
41
1
10
30.6366155126775
20
2.34462876158835
30
0
41
1
10
30.8309637232935
20
3.03813514641462
30
0
0
SPLINE
5
184
100
AcDbEntity
8
1
62
256
6
ByLayer
370
18
48
1
60
0
100
AcDbSpline
70
4
71
3
72
8
73
4
40
0
40
0
40
0
40
0
40
1
40
1
40
1
40
1
41
1
10
48.6137799449029
20
-3.72481055348294
30
0
41
1
10
48.5128708565072
20
-3.70786380830813
30
0
41
1
10
48.4124094210615
20
-3.68862386316411
30
0
41
1
10
48.3125452533537
20
-3.66689567895298
30
0
0
SPLINE
5
185
100
AcDbEntity
8
1
62
256
6
ByLayer
370
18
48
1
60
0
100
AcDbSpline
70
4
71
3
72
8
73
4
40
0
40
0
40
0
40
0
40
1
40
1
40
1
40
1
41
1
10
36.1891304929831
20
8.70625901306661
30
0
41
1
10
35.9332572615977
20
8.73451414482352
30
0
41
1
10
35.6895482026388
20
8.78800185194626
30
0
41
1
10
35.4563441336348
20
8.85917995996883
30
0
0
SPLINE
5
186
100
AcDbEntity
8
1
62
256
6
ByLayer
370
18
48
1
60
0
100
AcDbSpline
70
4
71
3
72
8
73
4
40
0
40
0
40
0
40
0
40
1
40
1
40
1
40
1
41
1
10
33.4761784579978
20
11.0708284569672
30
0
41
1
10
33.4835283533115
20
11.0931338475724
30
0
41
1
10
33.4913412408185
20
11.1151442479837
30
0
41
1
10
33.4995957486603
20
11.1368735864357
30
0
0
SPLINE
5
187
100
AcDbEntity
8
1
62
256
6
ByLayer
370
18
48
1
60
0
100
AcDbSpline
70
4
71
3
72
11
73
7
40
0
40
0
40
0
40
0
40
0.423407924946042
40
0.740963868655573
40
0.899741840510339
40
1
40
1
40
1
40
1
41
1.02805999725224
10
42.9938127580027
20
9.82184726174841
30
0
41
1.02767136955277
10
43.7717119133262
20
9.44898419554228
30
0
41
1.02349884684923
10
46.2692434330083
20
7.33875676975341
30
0
41
1.01876555595691
10
49.203505014323
20
4.32066572800802
30
0
41
1.01635405201144
10
50.3011193811954
20
3.17916803243685
30
0
41
1.01722454828215
10
50.7365852245025
20
2.97138061663863
30
0
41
1.0177432798788
10
50.9196296212657
20
2.89301012114622
30
0
0
SPLINE
5
188
100
AcDbEntity
8
1
62
256
6
ByLayer
370
18
48
1
60
0
100
AcDbSpline
70
4
71
3
72
10
73
6
40
0
40
0
40
0
40
0
40
0.5
40
0.5
40
1
40
1
40
1
40
1
41
1
10
49.648073959102
20
-0.96589459957471
30
0
41
1
10
49.7321623919054
20
-1.45863632841946
30
0
41
1
10
49.8708380127234
20
-1.91684955609495
30
0
41
1
10
50.477513917327
20
-2.6249654641569
30
0
41
1
10
50.9707539970387
20
-2.85668858190604
30
0
41
1
10
51.6860310334193
20
-2.76740170499525
30
0
0
SPLINE
5
189
100
AcDbEntity
8
1
62
256
6
ByLayer
370
18
48
1
60
0
100
AcDbSpline
70
4
71
3
72
8
73
4
40
0
40
0
40
0
40
0
40
1
40
1
40
1
40
1
41
1
10
40.2531405624459
20
0.205301628883234
30
0
41
1
10
39.9714708948849
20
0.239413890911351
30
0
41
1
10
39.6890927821207
20
0.301925972821465
30
0
41
1
10
39.4189346469524
20
0.393714088091457
30
0
0
SPLINE
5
18A
100
AcDbEntity
8
1
62
256
6
ByLayer
370
18
48
1
60
0
100
AcDbSpline
70
4
71
3
72
10
73
6
40
0
40
0
40
0
40
0
40
0.5
40
0.5
40
1
40
1
40
1
40
1
41
1
10
42.828767817724
20
10.8842808839663
30
0
41
1
10
44.0817561186215
20
10.4452516869486
30
0
41
1
10
45.2333960269777
20
9.82075215606974
30
0
41
1
10
47.4645949723754
20
8.43984312581082
30
0
41
1
10
48.5263750927801
20
7.6364145072022
30
0
41
1
10
49.5150376531014
20
6.75568127019969
30
0
0
SPLINE
5
18B
100
AcDbEntity
8
1
62
256
6
ByLayer
370
18
48
1
60
0
100
AcDbSpline
70
4
71
3
72
10
73
6
40
0
40
0
40
0
40
0
40
0.264715639145585
40
0.264715639145585
40
1
40
1
40
1
40
1
41
1
10
52.3098538989413
20
0.248843097181009
30
0
41
1
10
52.2076560967945
20
0.233798134296706
30
0
41
1
10
52.1047810640302
20
0.217467368400264
30
0
41
1
10
51.7141503595018
20
0.151600194463867
30
0
41
1
10
51.4226905821678
20
0.0947569803575448
30
0
41
1
10
51.1286168337841
20
0.0315262273010433
30
0
0
SPLINE
5
18C
100
AcDbEntity
8
1
62
256
6
ByLayer
370
18
48
1
60
0
100
AcDbSpline
70
4
71
3
72
11
73
7
40
0
40
0
40
0
40
0
40
0.564783939443777
40
0.564783939443777
40
0.564783939443777
40
1
40
1
40
1
40
1
41
1
10
51.3128609362959
20
5.4384330897455
30
0
41
1
10
51.00093906978
20
5.61337866371613
30
0
41
1
10
50.6512507918346
20
5.82928034063201
30
0
41
1
10
50.310525833631
20
6.09088123036835
30
0
41
1
10
50.0458010473035
20
6.29413091305562
30
0
41
1
10
49.7783994643174
20
6.5210698771883
30
0
41
1
10
49.5150376531017
20
6.75568127019943
30
0
0
SPLINE
5
18D
100
AcDbEntity
8
1
62
256
6
ByLayer
370
18
48
1
60
0
100
AcDbSpline
70
4
71
3
72
8
73
4
40
0
40
0
40
0
40
0
40
1
40
1
40
1
40
1
41
1
10
31.011493191044
20
3.05934981707156
30
0
41
1
10
31.882198066929
20
3.14466400068346
30
0
41
1
10
33.1665201475209
20
3.37281031307475
30
0
41
1
10
34.5197943877343
20
3.64017408401565
30
0
0
SPLINE
5
18E
100
AcDbEntity
8
1
62
256
6
ByLayer
370
18
48
1
60
0
100
AcDbSpline
70
4
71
3
72
15
73
11
40
0
40
0
40
0
40
0
40
0.322163720426457
40
0.322163720426457
40
0.644833452600231
40
0.644833452600231
40
0.912233455904557
40
0.912233455904557
40
0.912233455904557
40
1
40
1
40
1
40
1
41
1
10
42.7924037762908
20
7.91143283500745
30
0
41
1
10
43.2120881222431
20
7.67017145094152
30
0
41
1
10
43.5958613597006
20
7.35267415078465
30
0
41
1
10
44.2377403862302
20
6.62669946525392
30
0
41
1
10
44.504738138022
20
6.20788516373222
30
0
41
1
10
44.8443549781793
20
5.39068251949192
30
0
41
1
10
44.9454383653349
20
4.99074812707087
30
0
41
1
10
44.976438222792
20
4.58888749402377
30
0
41
1
10
44.986740214023
20
4.45533963099146
30
0
41
1
10
44.9894988569093
20
4.32088749194753
30
0
41
1
10
44.98442480979
20
4.18708853736848
30
0
0
SPLINE
5
18F
100
AcDbEntity
8
1
62
256
6
ByLayer
370
18
48
1
60
0
100
AcDbSpline
70
4
71
3
72
15
73
11
40
0
40
0
40
0
40
0
40
0.227604479949748
40
0.227604479949748
40
0.479423709218441
40
0.479423709218441
40
0.785574270382837
40
0.785574270382837
40
0.785574270382837
40
1
40
1
40
1
40
1
41
1
10
44.2304611122007
20
1.89896686229082
30
0
41
1
10
44.0381108738649
20
1.6186010283399
30
0
41
1
10
43.799207561279
20
1.36220042350027
30
0
41
1
10
43.2404787218163
20
0.903248387449906
30
0
41
1
10
42.9088142635424
20
0.703246826981342
30
0
41
1
10
42.1391845409976
20
0.365518583929003
30
0
41
1
10
41.6828337970597
20
0.245203689562032
30
0
41
1
10
41.2250766831372
20
0.197674461337073
30
0
41
1
10
40.9024919770797
20
0.164180274901156
30
0
41
1
10
40.5747080418734
20
0.166377009894006
30
0
41
1
10
40.2531405708709
20
0.205301627862894
30
0
0
SPLINE
5
190
100
AcDbEntity
8
1
62
256
6
ByLayer
370
18
48
1
60
0
100
AcDbSpline
70
4
71
2
72
9
73
6
40
0
40
0
40
0
40
0.199800904895193
40
0.519880542937116
40
0.679920361958077
40
1
40
1
40
1
41
1.02613459695995
10
24.9353734073637
20
-1.49814356653511
30
0
41
1.02613459695995
10
24.8750443557529
20
-1.09563754643187
30
0
41
1.02613459695995
10
24.8629460460719
20
0.146170216403341
30
0
41
1.02613459695995
10
24.9521273313854
20
0.695043145495222
30
0
41
1.02613459695995
10
25.077193791381
20
1.3239886202617
30
0
41
1.02613459695995
10
25.2154405182918
20
1.74367520649566
30
0
0
SPLINE
5
191
100
AcDbEntity
8
1
62
256
6
ByLayer
370
18
48
1
60
0
100
AcDbSpline
70
4
71
3
72
12
73
8
40
0
40
0
40
0
40
0
40
0.438005277686083
40
0.438005277686083
40
0.718973147756129
40
0.718973147756129
40
1
40
1
40
1
40
1
41
1
10
25.0724098933107
20
-1.83834510761048
30
0
41
1
10
25.0928457619883
20
-1.88398544196534
30
0
41
1
10
25.1140191577251
20
-1.92930320588769
30
0
41
1
10
25.1500060648794
20
-2.00308195665303
30
0
41
1
10
25.1643929720719
20
-2.03175844682772
30
0
41
1
10
25.1934548628882
20
-2.08896875286555
30
0
41
1
10
25.2081714500207
20
-2.11748420176565
30
0
41
1
10
25.2230703743402
20
-2.14590331154773
30
0
0
SPLINE
5
192
100
AcDbEntity
8
1
62
256
6
ByLayer
370
18
48
1
60
0
100
AcDbSpline
70
4
71
3
72
8
73
4
40
0
40
0
40
0
40
0
40
1
40
1
40
1
40
1
41
1
10
22.9622495668873
20
31.6193338095812
30
0
41
1
10
22.9648639052804
20
31.555911807184
30
0
41
1
10
22.9715158137957
20
31.3948432844707
30
0
41
1
10
22.9820202516901
20
31.135449432319
30
0
0
SPLINE
5
193
100
AcDbEntity
8
1
62
256
6
ByLayer
370
18
48
1
60
0
100
AcDbSpline
70
4
71
3
72
8
73
4
40
0
40
0
40
0
40
0
40
1
40
1
40
1
40
1
41
1
10
30.4958898889166
20
17.9237299619034
30
0
41
1
10
30.629999839697
20
17.816093887573
30
0
41
1
10
30.8174931035401
20
17.6830692145152
30
0
41
1
10
31.0303457212642
20
17.5391061285889
30
0
0
SPLINE
5
194
100
AcDbEntity
8
1
62
256
6
ByLayer
370
18
48
1
60
0
100
AcDbSpline
70
4
71
3
72
8
73
4
40
0
40
0
40
0
40
0
40
1
40
1
40
1
40
1
41
1
10
30.4958898889167
20
17.9237299619035
30
0
41
1
10
29.5910322487425
20
17.1630292332347
30
0
41
1
10
28.8256924596203
20
16.1789416567344
30
0
41
1
10
28.4934733140624
20
15.0199759927119
30
0
0
SPLINE
5
195
100
AcDbEntity
8
1
62
256
6
ByLayer
370
18
48
1
60
0
100
AcDbSpline
70
4
71
3
72
8
73
4
40
0
40
0
40
0
40
0
40
1
40
1
40
1
40
1
41
1
10
22.962249566886
20
-31.6193338096119
30
0
41
1
10
23.2286653216369
20
-31.5573740450183
30
0
41
1
10
23.4935183357827
20
-31.4021698187974
30
0
41
1
10
23.7567944458632
20
-31.152876035985
30
0
0
SPLINE
5
196
100
AcDbEntity
8
1
62
256
6
ByLayer
370
18
48
1
60
0
100
AcDbSpline
70
4
71
3
72
12
73
8
40
0
40
0
40
0
40
0
40
0.499999990237615
40
0.499999990237615
40
0.749999994040976
40
0.749999994040976
40
1
40
1
40
1
40
1
41
1
10
31.0303457252977
20
17.539106131794
30
0
41
1
10
31.0419132189325
20
17.5312824456303
30
0
41
1
10
31.0534825056439
20
17.5234579519339
30
0
41
1
10
31.0708391239735
20
17.5117200154353
30
0
41
1
10
31.0766251104342
20
17.5078071698223
30
0
41
1
10
31.088197974681
20
17.499981079639
30
0
41
1
10
31.0939848524802
20
17.4960678350611
30
0
41
1
10
31.0997721746789
20
17.4921543915824
30
0
0
SPLINE
5
197
100
AcDbEntity
8
1
62
256
6
ByLayer
370
18
48
1
60
0
100
AcDbSpline
70
4
71
3
72
10
73
6
40
0
40
0
40
0
40
0
40
0.41566530777211
40
0.41566530777211
40
1
40
1
40
1
40
1
41
1
10
10.5386751345948
20
-21.3694939161262
30
0
41
1
10
10.4549244770343
20
-21.3060777478789
30
0
41
1
10
10.3787459731137
20
-21.2515288076611
30
0
41
1
10
10.2245337544041
20
-21.1373152812055
30
0
41
1
10
10.1545345289015
20
-21.0803509409494
30
0
41
1
10
10.1056624327025
20
-21.0401816871769
30
0
0
SPLINE
5
198
100
AcDbEntity
8
1
62
256
6
ByLayer
370
18
48
1
60
0
100
AcDbSpline
70
4
71
2
72
9
73
6
40
0
40
0
40
0
40
0.107382354789238
40
0.464429412873543
40
0.642952941915695
40
1
40
1
40
1
41
1
10
31.169240248516
20
17.4451842646889
30
0
41
1
10
31.028674439337
20
17.2772095837708
30
0
41
1
10
30.4217936655912
20
16.4593536017253
30
0
41
1
10
30.165070630972
20
15.9584794747296
30
0
41
1
10
29.8898240668136
20
15.3725588885557
30
0
41
1
10
29.751494981325
20
14.9528958971159
30
0
0
SPLINE
5
199
100
AcDbEntity
8
1
62
256
6
ByLayer
370
18
48
1
60
0
100
AcDbSpline
70
4
71
2
72
6
73
3
40
0
40
0
40
0
40
1
40
1
40
1
41
1
10
24.7729058917654
20
2.03336657333043
30
0
41
1
10
24.9739756274764
20
1.84445269935071
30
0
41
1
10
25.2154405182918
20
1.74367520649565
30
0
0
SPLINE
5
19A
100
AcDbEntity
8
1
62
256
6
ByLayer
370
18
48
1
60
0
100
AcDbSpline
70
4
71
2
72
9
73
6
40
0
40
0
40
0
40
0.267973446292205
40
0.532642905441192
40
0.929647094164672
40
1
40
1
40
1
41
1.02613459695995
10
36.2648386887875
20
14.7596911470767
30
0
41
1.02613459695995
10
35.7623398615256
20
14.7798205778429
30
0
41
1.02613459695995
10
34.7233609144813
20
14.5804545969977
30
0
41
1.02613459695995
10
33.4285693261698
20
14.0141222182239
30
0
41
1.02613459695995
10
32.5998903618848
20
13.3162561399503
30
0
41
1.02613459695995
10
32.4753391768251
20
13.1947021015261
30
0
0
SPLINE
5
19B
100
AcDbEntity
8
1
62
256
6
ByLayer
370
18
48
1
60
0
100
AcDbSpline
70
4
71
3
72
16
73
12
40
0
40
0
40
0
40
0
40
0.113316224833592
40
0.113316224833592
40
0.252990411571568
40
0.252990411571568
40
0.473309013928318
40
0.473309013928318
40
0.896716357718825
40
0.896716357718825
40
1
40
1
40
1
40
1
41
1
10
13.4613248654052
20
9.3492213145251
30
0
41
1
10
13.4894125595718
20
9.3492213145251
30
0
41
1
10
13.517849357763
20
9.35431657338981
30
0
41
1
10
13.5767970345725
20
9.37467777536565
30
0
41
1
10
13.6072473721288
20
9.39213979793414
30
0
41
1
10
13.6769143636602
20
9.44503542604383
30
0
41
1
10
13.7128266507651
20
9.4856938043188
30
0
41
1
10
13.8014637450836
20
9.61105923366804
30
0
41
1
10
13.842370839753
20
9.70465429390066
30
0
41
1
10
13.8809034737598
20
9.82244573862474
30
0
41
1
10
13.8878971837969
20
9.84586944318031
30
0
41
1
10
13.8943375672975
20
9.86941261896621
30
0
0
SPLINE
5
19C
100
AcDbEntity
8
1
62
256
6
ByLayer
370
18
48
1
60
0
100
AcDbSpline
70
4
71
3
72
8
73
4
40
0
40
0
40
0
40
0
40
1
40
1
40
1
40
1
41
1
10
23.7567944457304
20
31.1528760359843
30
0
41
1
10
23.4932534869684
20
31.4024206016333
30
0
41
1
10
23.2283986549876
20
31.5574360630708
30
0
41
1
10
22.9622495668846
20
31.6193338095812
30
0
0
SPLINE
5
19D
100
AcDbEntity
8
1
62
256
6
ByLayer
370
18
48
1
60
0
100
AcDbSpline
70
4
71
3
72
8
73
4
40
0
40
0
40
0
40
0
40
1
40
1
40
1
40
1
41
1
10
31.6011120355288
20
-2.46396532864142
30
0
41
1
10
31.3675077820997
20
-3.17290523830855
30
0
41
1
10
31.0187580752145
20
-3.8324796984692
30
0
41
1
10
30.6072116707097
20
-4.34368388793155
30
0
0
SPLINE
5
19E
100
AcDbEntity
8
1
62
256
6
ByLayer
370
18
48
1
60
0
100
AcDbSpline
70
4
71
2
72
9
73
6
40
0
40
0
40
0
40
0.258376317058622
40
0.555025790235173
40
0.703350526823449
40
1
40
1
40
1
41
1
10
25.0724098936019
20
-1.83834510892967
30
0
41
1
10
24.9575210186903
20
-1.31795397765725
30
0
41
1
10
24.9435846777368
20
0.112514975266578
30
0
41
1
10
25.0327659630504
20
0.661387904358435
30
0
41
1
10
25.157832423046
20
1.29033337912492
30
0
41
1
10
25.2960791499567
20
1.71001996535887
30
0
0
SPLINE
5
19F
100
AcDbEntity
8
1
62
256
6
ByLayer
370
18
48
1
60
0
100
AcDbSpline
70
4
71
3
72
8
73
4
40
0
40
0
40
0
40
0
40
1
40
1
40
1
40
1
41
1
10
23.756794445863
20
-31.1528760359852
30
0
41
1
10
23.4963424202866
20
-31.1513586451122
30
0
41
1
10
23.2355451288321
20
-31.1455644687536
30
0
41
1
10
22.9820202516901
20
-31.135449432319
30
0
0
SPLINE
5
1A0
100
AcDbEntity
8
1
62
256
6
ByLayer
370
18
48
1
60
0
100
AcDbSpline
70
4
71
3
72
16
73
12
40
0
40
0
40
0
40
0
40
0.113316224833596
40
0.113316224833596
40
0.252990411571581
40
0.252990411571581
40
0.473309013928343
40
0.473309013928343
40
0.896716357718895
40
0.896716357718895
40
1
40
1
40
1
40
1
41
1
10
13.4613248654052
20
-30.0805927603169
30
0
41
1
10
13.4894125595718
20
-30.0805927603169
30
0
41
1
10
13.517849357763
20
-30.0790101689567
30
0
41
1
10
13.5767970345725
20
-30.0726712338969
30
0
41
1
10
13.6072473721288
20
-30.0672275748685
30
0
41
1
10
13.6769143636602
20
-30.0506647867053
30
0
41
1
10
13.7128266507651
20
-30.0378702684276
30
0
41
1
10
13.8014637450836
20
-29.9980833386355
30
0
41
1
10
13.842370839753
20
-29.967975934908
30
0
41
1
10
13.8809034737598
20
-29.9294196064672
30
0
41
1
10
13.8878971837969
20
-29.9217223689309
30
0
41
1
10
13.8943375672975
20
-29.9139548464691
30
0
0
SPLINE
5
1A1
100
AcDbEntity
8
1
62
256
6
ByLayer
370
18
48
1
60
0
100
AcDbSpline
70
4
71
3
72
8
73
4
40
0
40
0
40
0
40
0
40
1
40
1
40
1
40
1
41
1
10
22.92079238
20
30.8996141556632
30
0
41
1
10
22.9411861038923
20
30.9782192579574
30
0
41
1
10
22.9615956159966
20
31.056831337028
30
0
41
1
10
22.9820202516901
20
31.135449432319
30
0
0
SPLINE
5
1A2
100
AcDbEntity
8
1
62
256
6
ByLayer
370
18
48
1
60
0
100
AcDbSpline
70
4
71
3
72
16
73
12
40
0
40
0
40
0
40
0
40
0.463423600832241
40
0.463423600832241
40
0.646243952932834
40
0.646243952932834
40
0.831657283224497
40
0.831657283224497
40
0.947504344290847
40
0.947504344290847
40
1
40
1
40
1
40
1
41
1
10
13.8943375672974
20
29.9139548464691
30
0
41
1
10
13.8656609252734
20
29.9485407466772
30
0
41
1
10
13.8263500123909
20
29.982269090612
30
0
41
1
10
13.7453819366532
20
30.0239686896252
30
0
41
1
10
13.7190869808859
20
30.0352936109065
30
0
41
1
10
13.6579862203325
20
30.0555697561518
30
0
41
1
10
13.6222599905467
20
30.0647246060481
30
0
41
1
10
13.556648346355
20
30.0751823136668
30
0
41
1
10
13.5289597975987
20
30.0781795790239
30
0
41
1
10
13.4876776374751
20
30.0802576981002
30
0
41
1
10
13.47447899686
20
30.0805927603169
30
0
41
1
10
13.4613248654052
20
30.0805927603169
30
0
0
SPLINE
5
1A3
100
AcDbEntity
8
1
62
256
6
ByLayer
370
18
48
1
60
0
100
AcDbSpline
70
4
71
3
72
10
73
6
40
0
40
0
40
0
40
0
40
0.5
40
0.5
40
1
40
1
40
1
40
1
41
1
10
25.2230703731784
20
-2.14590330933174
30
0
41
1
10
25.722743214767
20
-3.09900952339254
30
0
41
1
10
26.4882639456853
20
-3.90988887487964
30
0
41
1
10
28.4703297757392
20
-4.75876877958862
30
0
41
1
10
29.609713896823
20
-4.75846171743254
30
0
41
1
10
30.6072116886307
20
-4.34368386567081
30
0
0
SPLINE
5
1A4
100
AcDbEntity
8
1
62
256
6
ByLayer
370
18
48
1
60
0
100
AcDbSpline
70
4
71
3
72
8
73
4
40
0
40
0
40
0
40
0
40
1
40
1
40
1
40
1
41
1
10
22.98202025169
20
-31.135449432319
30
0
41
1
10
22.9615956159966
20
-31.056831337028
30
0
41
1
10
22.9411861038923
20
-30.9782192579574
30
0
41
1
10
22.92079238
20
-30.8996141556632
30
0
0
SPLINE
5
1A5
100
AcDbEntity
8
1
62
256
6
ByLayer
370
18
48
1
60
0
100
AcDbSpline
70
4
71
2
72
10
73
7
40
0
40
0
40
0
40
0.0299582071685016
40
0.307113005120358
40
0.584267803072215
40
0.722845202048143
40
1
40
1
40
1
41
1
10
25.2230703731784
20
-2.14590330933163
30
0
41
1
10
25.2057148703582
20
-2.0848850039186
30
0
41
1
10
25.0391206647124
20
-1.4502506918937
30
0
41
1
10
25.0242233094018
20
0.0788597341298214
30
0
41
1
10
25.1134045947154
20
0.62773266322165
30
0
41
1
10
25.238471054711
20
1.25667813798813
30
0
41
1
10
25.3767177816217
20
1.67636472422208
30
0
0
SPLINE
5
1A6
100
AcDbEntity
8
1
62
256
6
ByLayer
370
18
48
1
60
0
100
AcDbSpline
70
4
71
2
72
9
73
6
40
0
40
0
40
0
40
0.419655468653538
40
0.629483202980307
40
0.944224804470461
40
1
40
1
40
1
41
1.02613459695995
10
31.6011120355287
20
-2.46396532864143
30
0
41
1.02613459695995
10
30.6483070716901
20
-2.18957195741671
30
0
41
1.02613459695995
10
29.5456640259831
20
-1.13276941555411
30
0
41
1.02613459695995
10
28.8152787745993
20
0.0137530516073165
30
0
41
1.02613459695995
10
28.549800433309
20
1.02508273038658
30
0
41
1.02613459695995
10
28.5199335796631
20
1.19087577736017
30
0
0
SPLINE
5
1A7
100
AcDbEntity
8
1
62
256
6
ByLayer
370
18
48
1
60
0
100
AcDbSpline
70
4
71
3
72
16
73
12
40
0
40
0
40
0
40
0
40
0.463423600832209
40
0.463423600832209
40
0.646243952932815
40
0.646243952932815
40
0.831657283224495
40
0.831657283224495
40
0.947504344290837
40
0.947504344290837
40
1
40
1
40
1
40
1
41
1
10
13.8943375672974
20
-9.86941261896621
30
0
41
1
10
13.8656609252734
20
-9.76458357826289
30
0
41
1
10
13.8263500123909
20
-9.66039292789938
30
0
41
1
10
13.7453819366532
20
-9.52957658281042
30
0
41
1
10
13.7190869808859
20
-9.49380155568073
30
0
41
1
10
13.6579862203325
20
-9.42941539787637
30
0
41
1
10
13.6222599905468
20
-9.40014891155712
30
0
41
1
10
13.556648346355
20
-9.36662118733784
30
0
41
1
10
13.5289597975987
20
-9.35698328824239
30
0
41
1
10
13.4876776374751
20
-9.35029954873104
30
0
41
1
10
13.4744789968601
20
-9.34922131452501
30
0
41
1
10
13.4613248654052
20
-9.34922131452501
30
0
0
SPLINE
5
1A8
100
AcDbEntity
8
1
62
256
6
ByLayer
370
18
48
1
60
0
100
AcDbSpline
70
4
71
3
72
16
73
12
40
0
40
0
40
0
40
0
40
0.463423600832241
40
0.463423600832241
40
0.646243952932837
40
0.646243952932837
40
0.831657283224505
40
0.831657283224505
40
0.947504344290848
40
0.947504344290848
40
1
40
1
40
1
40
1
41
1
10
10.1056624327026
20
9.86941261896621
30
0
41
1
10
10.1343390747265
20
9.76458357826289
30
0
41
1
10
10.1736499876091
20
9.66039292789938
30
0
41
1
10
10.2546180633468
20
9.52957658281042
30
0
41
1
10
10.2809130191141
20
9.49380155568073
30
0
41
1
10
10.3420137796675
20
9.42941539787637
30
0
41
1
10
10.3777400094532
20
9.40014891155712
30
0
41
1
10
10.4433516536449
20
9.36662118733787
30
0
41
1
10
10.4710402024013
20
9.35698328824239
30
0
41
1
10
10.5123223625249
20
9.35029954873107
30
0
41
1
10
10.5255210031399
20
9.34922131452504
30
0
41
1
10
10.5386751345948
20
9.34922131452504
30
0
0
SPLINE
5
1A9
100
AcDbEntity
8
1
62
256
6
ByLayer
370
18
48
1
60
0
100
AcDbSpline
70
4
71
3
72
10
73
6
40
0
40
0
40
0
40
0
40
0.545504601336295
40
0.545504601336295
40
1
40
1
40
1
40
1
41
1
10
22.9820202516901
20
31.135449432319
30
0
41
1
10
23.1201137162447
20
31.1409590313812
30
0
41
1
10
23.260186470764
20
31.1451834109467
30
0
41
1
10
23.5190562593293
20
31.1506027474625
30
0
41
1
10
23.6378907251739
20
31.1521833041076
30
0
41
1
10
23.7567944457352
20
31.1528760359845
30
0
0
SPLINE
5
1AA
100
AcDbEntity
8
1
62
256
6
ByLayer
370
18
48
1
60
0
100
AcDbSpline
70
4
71
3
72
14
73
10
40
0
40
0
40
0
40
0
40
0.25
40
0.25
40
0.500000000000001
40
0.500000000000001
40
0.75
40
0.75
40
1
40
1
40
1
40
1
41
1
10
31.169240248516
20
17.4451842646889
30
0
41
1
10
31.4371092808354
20
17.2640860194461
30
0
41
1
10
31.7411398356562
20
17.0674979251242
30
0
41
1
10
32.4676915094175
20
16.6235661037371
30
0
41
1
10
32.913332627798
20
16.3650399257165
30
0
41
1
10
33.9307289236351
20
15.8298941826735
30
0
41
1
10
34.4587787232466
20
15.5764229068465
30
0
41
1
10
35.3936359421059
20
15.1452118665623
30
0
41
1
10
35.8319759476367
20
14.9509495990831
30
0
41
1
10
36.2648386887875
20
14.7596911470767
30
0
0
SPLINE
5
1AB
100
AcDbEntity
8
1
62
256
6
ByLayer
370
18
48
1
60
0
100
AcDbSpline
70
4
71
3
72
16
73
12
40
0
40
0
40
0
40
0
40
0.113316224833594
40
0.113316224833594
40
0.252990411571577
40
0.252990411571577
40
0.473309013928351
40
0.473309013928351
40
0.896716357718897
40
0.896716357718897
40
1
40
1
40
1
40
1
41
1
10
10.5386751345948
20
30.0805927603169
30
0
41
1
10
10.5105874404281
20
30.0805927603169
30
0
41
1
10
10.482150642237
20
30.0790101689566
30
0
41
1
10
10.4232029654275
20
30.0726712338969
30
0
41
1
10
10.3927526278712
20
30.0672275748685
30
0
41
1
10
10.3230856363398
20
30.0506647867052
30
0
41
1
10
10.2871733492349
20
30.0378702684275
30
0
41
1
10
10.1985362549164
20
29.9980833386355
30
0
41
1
10
10.1576291602469
20
29.967975934908
30
0
41
1
10
10.1190965262402
20
29.9294196064672
30
0
41
1
10
10.112102816203
20
29.9217223689309
30
0
41
1
10
10.1056624327025
20
29.9139548464691
30
0
0
SPLINE
5
1AC
100
AcDbEntity
8
1
62
256
6
ByLayer
370
18
48
1
60
0
100
AcDbSpline
70
4
71
2
72
6
73
3
40
0
40
0
40
0
40
1
40
1
40
1
41
1
10
25.2960791499567
20
1.71001996535887
30
0
41
1
10
25.2557598341243
20
1.72684758592726
30
0
41
1
10
25.2154405182918
20
1.74367520649565
30
0
0
SPLINE
5
1AD
100
AcDbEntity
8
1
62
256
6
ByLayer
370
18
48
1
60
0
100
AcDbSpline
70
4
71
3
72
42
73
38
40
0
40
0
40
0
40
0
40
0.0001456801849787
40
0.0001456801849787
40
0.0001937814598887
40
0.0001937814598887
40
0.0002315125938265
40
0.0002315125938265
40
0.0002608508080196
40
0.0002608508080196
40
0.0002901051210931
40
0.0002901051210931
40
0.0003386245270245
40
0.0003386245270245
40
0.0004943085901869
40
0.0004943085901869
40
0.0012382880258416
40
0.0012382880258416
40
0.0042003623002285
40
0.0042003623002285
40
0.0160477265483258
40
0.0160477265483258
40
0.0634548179203333
40
0.0634548179203333
40
0.254713194054843
40
0.254713194054843
40
0.445725939318781
40
0.445725939318781
40
0.588324443884444
40
0.588324443884444
40
0.7758398212653
40
0.7758398212653
40
0.886031607392349
40
0.886031607392349
40
0.994826737125193
40
0.994826737125193
40
1
40
1
40
1
40
1
41
1
10
27.4124958231186
20
2.28729180480516
30
0
41
1
10
27.4125412273415
20
2.2873629295193
30
0
41
1
10
27.4125881422136
20
2.28743342742723
30
0
41
1
10
27.4126565308247
20
2.28751164571841
30
0
41
1
10
27.4126742408192
20
2.28752982038713
30
0
41
1
10
27.4127068122385
20
2.2875556707738
30
0
41
1
10
27.4127217452663
20
2.28756486525464
30
0
41
1
10
27.4127476946737
20
2.28757312300701
30
0
41
1
10
27.4127590560407
20
2.28757392101772
30
0
41
1
10
27.4127797932173
20
2.28756914131821
30
0
41
1
10
27.4127893988829
20
2.28756358884149
30
0
41
1
10
27.4128118340436
20
2.28754341263084
30
0
41
1
10
27.4128232080609
20
2.28752525073165
30
0
41
1
10
27.4128635227135
20
2.28744200766241
30
0
41
1
10
27.4128807212885
20
2.28736142598115
30
0
41
1
10
27.4129698618121
20
2.28689924384628
30
0
41
1
10
27.4130010137781
20
2.28648282564706
30
0
41
1
10
27.4131935322616
20
2.284445334102
30
0
41
1
10
27.4133224450474
20
2.28279919889417
30
0
41
1
10
27.4140106301283
20
2.27459117291281
30
0
41
1
10
27.4145857528879
20
2.26801945397392
30
0
41
1
10
27.417651727222
20
2.23517114608768
30
0
41
1
10
27.4206661089813
20
2.20890404379995
30
0
41
1
10
27.4388288551649
20
2.07734064998869
30
0
41
1
10
27.4631782007737
20
1.97193070903049
30
0
41
1
10
27.5381012208529
20
1.76775683746405
30
0
41
1
10
27.5643477391467
20
1.64999282085193
30
0
41
1
10
27.6882559710168
20
1.4963505607999
30
0
41
1
10
27.7647266577399
20
1.44958624558316
30
0
41
1
10
27.9363845605584
20
1.34040810928593
30
0
41
1
10
28.0361475544321
20
1.27308901719846
30
0
41
1
10
28.2021116393382
20
1.20192447498789
30
0
41
1
10
28.2671187601952
20
1.18455674953248
30
0
41
1
10
28.3924481452347
20
1.17218124544712
30
0
41
1
10
28.4542268113544
20
1.17654349078055
30
0
41
1
10
28.5144900385958
20
1.1896344363345
30
0
41
1
10
28.5172149685372
20
1.19026119035678
30
0
41
1
10
28.5199335796631
20
1.19087577736016
30
0
0
SPLINE
5
1AE
100
AcDbEntity
8
1
62
256
6
ByLayer
370
18
48
1
60
0
100
AcDbSpline
70
4
71
2
72
9
73
6
40
0
40
0
40
0
40
0.464691154463726
40
0.464691154463726
40
0.929382308927452
40
1
40
1
40
1
41
1
10
25.3767177816217
20
1.67636472422208
30
0
41
1
10
25.7868857941558
20
1.50517750187706
30
0
41
1
10
26.25601536787
20
1.61234328514829
30
0
41
1
10
26.7653898964984
20
1.72870243920181
30
0
41
1
10
27.3390260990368
20
2.217232314087
30
0
41
1
10
27.4125444421718
20
2.28717427787876
30
0
0
SPLINE
5
1AF
100
AcDbEntity
8
1
62
256
6
ByLayer
370
18
48
1
60
0
100
AcDbSpline
70
4
71
3
72
15
73
11
40
0
40
0
40
0
40
0
40
0.28103962914102
40
0.28103962914102
40
0.562712048900373
40
0.562712048900373
40
0.835250831097508
40
0.835250831097508
40
0.835250831097508
40
1
40
1
40
1
40
1
41
1
10
19.9115068236138
20
-29.9850116132027
30
0
41
1
10
19.9505361776874
20
-30.1286017607468
30
0
41
1
10
20.0674973665296
20
-30.2617723075542
30
0
41
1
10
20.4463314652044
20
-30.489895050164
30
0
41
1
10
20.7141452574929
20
-30.5880850478212
30
0
41
1
10
21.3538238361363
20
-30.741378992888
30
0
41
1
10
21.7310620960588
20
-30.8001569918553
30
0
41
1
10
22.1388781334302
20
-30.8415901871074
30
0
41
1
10
22.3877509516846
20
-30.8668751075782
30
0
41
1
10
22.6513106929054
20
-30.88619079412
30
0
41
1
10
22.92079238
20
-30.8996141556632
30
0
0
SPLINE
5
1B0
100
AcDbEntity
8
1
62
256
6
ByLayer
370
18
48
1
60
0
100
AcDbSpline
70
4
71
2
72
9
73
6
40
0
40
0
40
0
40
0.111174626498723
40
0.466704775899234
40
0.644469850599489
40
1
40
1
40
1
41
1
10
31.0997721761456
20
17.4921543929646
30
0
41
1
10
30.9536110874365
20
17.3183782873605
30
0
41
1
10
30.3411550339262
20
16.4930088428621
30
0
41
1
10
30.084431999307
20
15.9921347158664
30
0
41
1
10
29.8091854351486
20
15.4062141296925
30
0
41
1
10
29.6708563496601
20
14.9865511382527
30
0
0
SPLINE
5
1B1
100
AcDbEntity
8
1
62
256
6
ByLayer
370
18
48
1
60
0
100
AcDbSpline
70
4
71
3
72
12
73
8
40
0
40
0
40
0
40
0
40
0.499999991435039
40
0.499999991435039
40
0.749999994662524
40
0.749999994662524
40
1
40
1
40
1
40
1
41
1
10
31.0997721763671
20
17.4921543926492
30
0
41
1
10
31.1113466463733
20
17.4843276236167
30
0
41
1
10
31.1229228923053
20
17.476500057889
30
0
41
1
10
31.1402899154213
20
17.4647575241144
30
0
41
1
10
31.146079365184
20
17.4608431483193
30
0
41
1
10
31.1576591461645
20
17.4530140022348
30
0
41
1
10
31.1634494773952
20
17.449099231938
30
0
41
1
10
31.1692402481134
20
17.4451842649611
30
0
0
SPLINE
5
1B2
100
AcDbEntity
8
1
62
256
6
ByLayer
370
18
48
1
60
0
100
AcDbSpline
70
4
71
3
72
14
73
10
40
0
40
0
40
0
40
0
40
0.264682281129105
40
0.264682281129105
40
0.529206797196864
40
0.529206797196864
40
0.796215005013496
40
0.796215005013496
40
1
40
1
40
1
40
1
41
1
10
22.92079238
20
30.8996141556632
30
0
41
1
10
22.4918347090298
20
30.8782470120691
30
0
41
1
10
22.0760939855286
20
30.8416690423415
30
0
41
1
10
21.3399746287024
20
30.7377355602684
30
0
41
1
10
21.0095242838747
20
30.6687823920308
30
0
41
1
10
20.4724242383792
20
30.4990243000185
30
0
41
1
10
20.2597267854547
20
30.3955004707743
30
0
41
1
10
20.0093210835962
20
30.1888506958789
30
0
41
1
10
19.9399854717531
20
30.0897854016817
30
0
41
1
10
19.9115068236138
20
29.9850116132027
30
0
0
SPLINE
5
1B3
100
AcDbEntity
8
1
62
256
6
ByLayer
370
18
48
1
60
0
100
AcDbSpline
70
4
71
3
72
8
73
4
40
0
40
0
40
0
40
0
40
1
40
1
40
1
40
1
41
1
10
22.9820202516901
20
-31.135449432319
30
0
41
1
10
22.971515813794
20
-31.3948432845128
30
0
41
1
10
22.9648639052783
20
-31.5559118072362
30
0
41
1
10
22.962249566886
20
-31.6193338096119
30
0
0
SPLINE
5
1B4
100
AcDbEntity
8
1
62
256
6
ByLayer
370
18
48
1
60
0
100
AcDbSpline
70
4
71
3
72
8
73
4
40
0
40
0
40
0
40
0
40
1
40
1
40
1
40
1
41
1
10
23.8962856159808
20
-25.8973010175874
30
0
41
1
10
23.8033519596701
20
-26.4484365631095
30
0
41
1
10
23.7567944458633
20
-27.009318859177
30
0
41
1
10
23.7567944458632
20
-27.5682348224605
30
0
0
SPLINE
5
1B5
100
AcDbEntity
8
1
62
256
6
ByLayer
370
18
48
1
60
0
100
AcDbSpline
70
4
71
3
72
8
73
4
40
0
40
0
40
0
40
0
40
1
40
1
40
1
40
1
41
1
10
24.7731188574276
20
2.03392912319217
30
0
41
1
10
24.4423879154045
20
0.87887440175038
30
0
41
1
10
24.5235487826989
20
-0.356316720529492
30
0
41
1
10
24.9353734073637
20
-1.49814356653511
30
0
0
SPLINE
5
1B6
100
AcDbEntity
8
1
62
256
6
ByLayer
370
18
48
1
60
0
100
AcDbSpline
70
4
71
2
72
6
73
3
40
0
40
0
40
0
40
1
40
1
40
1
41
1
10
25.3767177816217
20
1.67636472422208
30
0
41
1
10
25.3363984657892
20
1.69319234479048
30
0
41
1
10
25.2960791499567
20
1.71001996535887
30
0
0
SPLINE
5
1B7
100
AcDbEntity
8
1
62
256
6
ByLayer
370
18
48
1
60
0
100
AcDbSpline
70
4
71
3
72
16
73
12
40
0
40
0
40
0
40
0
40
0.113316224833593
40
0.113316224833593
40
0.252990411571579
40
0.252990411571579
40
0.473309013928354
40
0.473309013928354
40
0.896716357718913
40
0.896716357718913
40
1
40
1
40
1
40
1
41
1
10
10.5386751345948
20
-9.34922131452512
30
0
41
1
10
10.5105874404281
20
-9.34922131452512
30
0
41
1
10
10.482150642237
20
-9.35431657338984
30
0
41
1
10
10.4232029654275
20
-9.37467777536568
30
0
41
1
10
10.3927526278712
20
-9.39213979793414
30
0
41
1
10
10.3230856363398
20
-9.44503542604386
30
0
41
1
10
10.2871733492349
20
-9.48569380431883
30
0
41
1
10
10.1985362549164
20
-9.6110592336681
30
0
41
1
10
10.1576291602469
20
-9.70465429390072
30
0
41
1
10
10.1190965262402
20
-9.82244573862477
30
0
41
1
10
10.112102816203
20
-9.84586944318031
30
0
41
1
10
10.1056624327025
20
-9.86941261896618
30
0
0
SPLINE
5
1B8
100
AcDbEntity
8
1
62
256
6
ByLayer
370
18
48
1
60
0
100
AcDbSpline
70
4
71
3
72
12
73
8
40
0
40
0
40
0
40
0
40
0.408954003740989
40
0.408954003740989
40
0.704402003107908
40
0.704402003107908
40
1
40
1
40
1
40
1
41
1
10
24.9353734068508
20
-1.49814356311336
30
0
41
1
10
24.952339185583
20
-1.54518295926354
30
0
41
1
10
24.9699898076147
20
-1.59198145332402
30
0
41
1
10
25.0016040651871
20
-1.67210342035199
30
0
41
1
10
25.0152333674091
20
-1.70556694475141
30
0
41
1
10
25.0432493463062
20
-1.77219060675597
30
0
41
1
10
25.0576381991704
20
-1.80535482996211
30
0
41
1
10
25.0724098918813
20
-1.83834510821154
30
0
0
SPLINE
5
1B9
100
AcDbEntity
8
1
62
256
6
ByLayer
370
18
48
1
60
0
100
AcDbSpline
70
4
71
2
72
7
73
4
40
0
40
0
40
0
40
0.845607754152415
40
1
40
1
40
1
41
1
10
29.5902177179951
20
15.0202063793895
30
0
41
1
10
29.1624838212821
20
15.1987248777695
30
0
41
1
10
28.58264011849
20
15.0523002826499
30
0
41
1
10
28.4935187917737
20
15.0202431760623
30
0
0
SPLINE
5
1BA
100
AcDbEntity
8
1
62
256
6
ByLayer
370
18
48
1
60
0
100
AcDbSpline
70
4
71
1
72
4
73
2
40
0
40
0
40
1
40
1
41
1
10
29.751494981325
20
14.9528958971159
30
0
41
1
10
29.6708563496599
20
14.9865511382527
30
0
0
SPLINE
5
1BB
100
AcDbEntity
8
1
62
256
6
ByLayer
370
18
48
1
60
0
100
AcDbSpline
70
4
71
3
72
10
73
6
40
0
40
0
40
0
40
0
40
0.406434782913203
40
0.406434782913203
40
1
40
1
40
1
40
1
41
1
10
13.4613248654052
20
-19.4372396071259
30
0
41
1
10
13.5445600082495
20
-19.5002654265816
30
0
41
1
10
13.6195895752656
20
-19.5840144784503
30
0
41
1
10
13.7747384129069
20
-19.8110073784322
30
0
41
1
10
13.8452864320335
20
-19.9677891804822
30
0
41
1
10
13.8943375672975
20
-20.1324515831234
30
0
0
SPLINE
5
1BC
100
AcDbEntity
8
1
62
256
6
ByLayer
370
18
48
1
60
0
100
AcDbSpline
70
4
71
3
72
10
73
6
40
0
40
0
40
0
40
0
40
0.573565230694858
40
0.573565230694858
40
1
40
1
40
1
40
1
41
1
10
13.8943375672974
20
-21.0401816871777
30
0
41
1
10
13.8463445787262
20
-21.0796283794037
30
0
41
1
10
13.7780102352029
20
-21.1353313584606
30
0
41
1
10
13.6250883068771
20
-21.2487586970679
30
0
41
1
10
13.5471921982104
20
-21.3044749970785
30
0
41
1
10
13.4613248654052
20
-21.3694939161262
30
0
0
SPLINE
5
1BD
100
AcDbEntity
8
1
62
256
6
ByLayer
370
18
48
1
60
0
100
AcDbSpline
70
4
71
3
72
10
73
6
40
0
40
0
40
0
40
0
40
0.563253738015378
40
0.563253738015378
40
1
40
1
40
1
40
1
41
1
10
10.1056624327026
20
-20.1324515831236
30
0
41
1
10
10.1522667730003
20
-19.9760029585275
30
0
41
1
10
10.2181997150426
20
-19.8269086326718
30
0
41
1
10
10.3695745193898
20
-19.5962808154733
30
0
41
1
10
10.4493853955874
20
-19.5048499791108
30
0
41
1
10
10.5386751345948
20
-19.4372396071259
30
0
0
SPLINE
5
1BE
100
AcDbEntity
8
1
62
256
6
ByLayer
370
18
48
1
60
0
100
AcDbSpline
70
4
71
2
72
9
73
6
40
0
40
0
40
0
40
0.114948499884213
40
0.468969099930528
40
0.645979399953685
40
1
40
1
40
1
41
1.02613459695995
10
31.0303457246992
20
17.5391061326519
30
0
41
1.02613459695995
10
30.8785681177167
20
17.3595744587646
30
0
41
1.02613459695995
10
30.2605164022613
20
16.5266640839988
30
0
41
1.02613459695995
10
30.003793367642
20
16.0257899570032
30
0
41
1.02613459695995
10
29.7285468034836
20
15.4398693708293
30
0
41
1.02613459695995
10
29.5902177179951
20
15.0202063793894
30
0
0
SPLINE
5
1BF
100
AcDbEntity
8
1
62
256
6
ByLayer
370
18
48
1
60
0
100
AcDbSpline
70
4
71
3
72
44
73
40
40
0
40
0
40
0
40
0
40
0.0051940126882279
40
0.0051940126882279
40
0.0199007424508008
40
0.0199007424508008
40
0.129752035392799
40
0.129752035392799
40
0.239839403096099
40
0.239839403096099
40
0.428838060157195
40
0.428838060157195
40
0.549630795391994
40
0.549630795391994
40
0.66978286366617
40
0.66978286366617
40
0.866798615041163
40
0.866798615041163
40
0.966549535231938
40
0.966549535231938
40
0.991441212406086
40
0.991441212406086
40
0.997663559620841
40
0.997663559620841
40
0.999220062738296
40
0.999220062738296
40
0.999613367716981
40
0.999613367716981
40
0.999703345515515
40
0.999703345515515
40
0.999741176184334
40
0.999741176184334
40
0.99977345520885
40
0.99977345520885
40
0.999805393982708
40
0.999805393982708
40
0.999853555644923
40
0.999853555644923
40
1
40
1
40
1
40
1
41
1
10
32.4753391768251
20
13.194702101526
30
0
41
1
10
32.4734596630296
20
13.1966339989212
30
0
41
1
10
32.4715827924499
20
13.1985809271922
30
0
41
1
10
32.4642053662177
20
13.2060458201927
30
0
41
1
10
32.4585928810271
20
13.2115088072085
30
0
41
1
10
32.4103906089886
20
13.2565870439699
30
0
41
1
10
32.3594393381831
20
13.2920533036136
30
0
41
1
10
32.2450944928939
20
13.3469320979014
30
0
41
1
10
32.180282968311
20
13.3668138853779
30
0
41
1
10
31.9998452316032
20
13.398506699283
30
0
41
1
10
31.8787226359219
20
13.4046949985367
30
0
41
1
10
31.6894029350407
20
13.4192089898657
30
0
41
1
10
31.6149620471583
20
13.4256615931287
30
0
41
1
10
31.4776600594977
20
13.3979610927595
30
0
41
1
10
31.4195276308283
20
13.3521297751303
30
0
41
1
10
31.2650036232405
20
13.2622628090792
30
0
41
1
10
31.1733732618226
20
13.2082750392994
30
0
41
1
10
31.0523290461538
20
13.1070777681146
30
0
41
1
10
31.0136984743524
20
13.0709600016687
30
0
41
1
10
30.9679609594177
20
13.0239195642871
30
0
41
1
10
30.9589448043188
20
13.014418251754
30
0
41
1
10
30.9478242583266
20
13.0024340403155
30
0
41
1
10
30.9456094607072
20
13.0000262974544
30
0
41
1
10
30.9428420676356
20
12.9970339362076
30
0
41
1
10
30.9422910564735
20
12.9964260624671
30
0
41
1
10
30.9415865801349
20
12.9957160885901
30
0
41
1
10
30.9414436406299
20
12.995566956236
30
0
41
1
10
30.9412598273254
20
12.995440888386
30
0
41
1
10
30.941224367456
20
12.9954198014078
30
0
41
1
10
30.9411755575859
20
12.995408913749
30
0
41
1
10
30.9411610395214
20
12.9954083511929
30
0
41
1
10
30.9411368012994
20
12.9954158290624
30
0
41
1
10
30.9411264974327
20
12.9954228838716
30
0
41
1
10
30.9411099093767
20
12.9954432521771
30
0
41
1
10
30.94110334159
20
12.9954566283536
30
0
41
1
10
30.9410908676207
20
12.9954937518842
30
0
41
1
10
30.9410865663492
20
12.9955196679674
30
0
41
1
10
30.9410758795127
20
12.9956266247681
30
0
41
1
10
30.9410805311798
20
12.9957149457486
30
0
41
1
10
30.9410866748751
20
12.9958021168554
30
0
0
SPLINE
5
1C0
100
AcDbEntity
8
1
62
256
6
ByLayer
370
18
48
1
60
0
100
AcDbSpline
70
4
71
1
72
4
73
2
40
0
40
0
40
1
40
1
41
1
10
29.6708563496601
20
14.9865511382527
30
0
41
1
10
29.590217717995
20
15.0202063793895
30
0
0
SPLINE
5
1C1
100
AcDbEntity
8
1
62
256
6
ByLayer
370
18
48
1
60
0
100
AcDbSpline
70
4
71
3
72
16
73
12
40
0
40
0
40
0
40
0
40
0.463423600832262
40
0.463423600832262
40
0.646243952932856
40
0.646243952932856
40
0.831657283224518
40
0.831657283224518
40
0.94750434429086
40
0.94750434429086
40
1
40
1
40
1
40
1
41
1
10
10.1056624327026
20
-29.9139548464691
30
0
41
1
10
10.1343390747265
20
-29.9485407466772
30
0
41
1
10
10.1736499876091
20
-29.982269090612
30
0
41
1
10
10.2546180633468
20
-30.0239686896252
30
0
41
1
10
10.2809130191141
20
-30.0352936109065
30
0
41
1
10
10.3420137796675
20
-30.0555697561518
30
0
41
1
10
10.3777400094532
20
-30.0647246060481
30
0
41
1
10
10.4433516536449
20
-30.0751823136668
30
0
41
1
10
10.4710402024013
20
-30.0781795790239
30
0
41
1
10
10.5123223625249
20
-30.0802576981002
30
0
41
1
10
10.5255210031399
20
-30.0805927603169
30
0
41
1
10
10.5386751345948
20
-30.0805927603169
30
0
0
SPLINE
5
1C2
100
AcDbEntity
8
1
62
256
6
ByLayer
370
18
48
1
60
0
100
AcDbSpline
70
4
71
2
72
8
73
5
40
0
40
0
40
0
40
0.073304747897615
40
0.536652373948807
40
1
40
1
40
1
41
1
10
30.941184373615
20
12.9958527206092
30
0
41
1
10
30.925970162382
20
13.1028766528096
30
0
41
1
10
30.779286585621
20
13.8670235053605
30
0
41
1
10
30.179228878038
20
14.7743773987359
30
0
41
1
10
29.7514949813249
20
14.9528958971159
30
0
0
SPLINE
5
1C3
100
AcDbEntity
8
SK1
62
256
6
ByLayer
370
18
48
1
60
0
100
AcDbSpline
70
4
71
3
72
22
73
18
40
0
40
0
40
0
40
0
40
0.038427246458711
40
0.038427246458711
40
0.0775026456766427
40
0.0775026456766427
40
0.106475059033524
40
0.106475059033524
40
0.135305917881828
40
0.135305917881828
40
0.182167074412018
40
0.182167074412018
40
0.275660663800869
40
0.275660663800869
40
0.616530102228659
40
0.616530102228659
40
1
40
1
40
1
40
1
41
1
10
-0.394976888875306
20
-6.32694279392757
30
0
41
1
10
-0.414867561016194
20
-6.34445862132063
30
0
41
1
10
-0.436644357284194
20
-6.36058691921457
30
0
41
1
10
-0.484524151203374
20
-6.3868168818706
30
0
41
1
10
-0.511419954277358
20
-6.39702622866628
30
0
41
1
10
-0.560078773491597
20
-6.40490957850619
30
0
41
1
10
-0.58185248496946
20
-6.40512642059926
30
0
41
1
10
-0.623683911276856
20
-6.39912423041605
30
0
41
1
10
-0.644207278837683
20
-6.39293597600829
30
0
41
1
10
-0.694134540330907
20
-6.37121870092642
30
0
41
1
10
-0.722113964046542
20
-6.35215911803172
30
0
41
1
10
-0.796598131612939
20
-6.28903777408343
30
0
41
1
10
-0.836555557792792
20
-6.23798237717094
30
0
41
1
10
-0.997773060879837
20
-5.995390913813
30
0
41
1
10
-1.07178904300878
20
-5.77805690787602
30
0
41
1
10
-1.20827315239353
20
-5.31693201445015
30
0
41
1
10
-1.26212533694985
20
-5.06551762472202
30
0
41
1
10
-1.30710678118655
20
-4.81101321788441
30
0
0
SPLINE
5
1C4
100
AcDbEntity
8
SK1
62
256
6
ByLayer
370
18
48
1
60
0
100
AcDbSpline
70
4
71
3
72
10
73
6
40
0
40
0
40
0
40
0
40
0.5
40
0.5
40
1
40
1
40
1
40
1
41
1
10
-1.30710678118655
20
4.81101329740289
30
0
41
1
10
-1.57713284158248
20
3.28321078789992
30
0
41
1
10
-1.79449339715788
20
1.64680798700616
30
0
41
1
10
-1.79438545511854
20
-1.6481258022005
30
0
41
1
10
-1.57704898370505
20
-3.28368386467716
30
0
41
1
10
-1.30710678118663
20
-4.81101321788435
30
0
0
SPLINE
5
1C5
100
AcDbEntity
8
SK1
62
256
6
ByLayer
370
18
48
1
60
0
100
AcDbSpline
70
4
71
3
72
26
73
22
40
0
40
0
40
0
40
0
40
0.462420532187944
40
0.462420532187944
40
0.662465761698283
40
0.662465761698283
40
0.830433309169693
40
0.830433309169693
40
0.87601894963741
40
0.87601894963741
40
0.905535493032455
40
0.905535493032455
40
0.92577818311669
40
0.92577818311669
40
0.946307111163799
40
0.946307111163799
40
0.963675313617857
40
0.963675313617857
40
0.991859972782862
40
0.991859972782862
40
1
40
1
40
1
40
1
41
1
10
-0.199999999999989
20
-7.05951749342083
30
0
41
1
10
-0.199999999999989
20
-6.93273416480454
30
0
41
1
10
-0.203968014086513
20
-6.80463429773329
30
0
41
1
10
-0.223222206303944
20
-6.62063667774228
30
0
41
1
10
-0.230822389897867
20
-6.56482953243432
30
0
41
1
10
-0.252035566714568
20
-6.46316921019911
30
0
41
1
10
-0.263798801619998
20
-6.41617607028249
30
0
41
1
10
-0.290531391619595
20
-6.36108887379029
30
0
41
1
10
-0.29710300077241
20
-6.34947181616241
30
0
41
1
10
-0.310313928765424
20
-6.33213067856883
30
0
41
1
10
-0.316208846631128
20
-6.32567949173321
30
0
41
1
10
-0.327595492701022
20
-6.31681373578161
30
0
41
1
10
-0.332739264568545
20
-6.31372817209197
30
0
41
1
10
-0.343644708736434
20
-6.30958040401461
30
0
41
1
10
-0.349575964479982
20
-6.30853210514005
30
0
41
1
10
-0.360183897281416
20
-6.30881607347521
30
0
41
1
10
-0.365032052617437
20
-6.30978620719449
30
0
41
1
10
-0.376922909163994
20
-6.31387292952667
30
0
41
1
10
-0.383695246431131
20
-6.3179475897727
30
0
41
1
10
-0.39156461480826
20
-6.32402624429125
30
0
41
1
10
-0.393293161608796
20
-6.32546009510432
30
0
41
1
10
-0.394976888875277
20
-6.32694279392757
30
0
0
SPLINE
5
1C6
100
AcDbEntity
8
SK1
62
256
6
ByLayer
370
18
48
1
60
0
100
AcDbSpline
70
4
71
3
72
22
73
18
40
0
40
0
40
0
40
0
40
0.025518692999354
40
0.025518692999354
40
0.0515625307794633
40
0.0515625307794633
40
0.0689220502117165
40
0.0689220502117165
40
0.0862030429090035
40
0.0862030429090035
40
0.113761926258803
40
0.113761926258803
40
0.167639902693809
40
0.167639902693809
40
0.357269752158031
40
0.357269752158031
40
1
40
1
40
1
40
1
41
1
10
-0.394976888875277
20
6.326943090669
30
0
41
1
10
-0.389699799773268
20
6.32229605774103
30
0
41
1
10
-0.38394554029108
20
6.31808234313019
30
0
41
1
10
-0.371336208800898
20
6.31155719556298
30
0
41
1
10
-0.364237316839024
20
6.30923328231674
30
0
41
1
10
-0.35209572007625
20
6.30844589498398
30
0
41
1
10
-0.347038791108759
20
6.3089739150856
30
0
41
1
10
-0.337436838154161
20
6.31166640764118
30
0
41
1
10
-0.332782752688161
20
6.31383711710231
30
0
41
1
10
-0.321723955926899
20
6.32078578121266
30
0
41
1
10
-0.315689795621665
20
6.32640446307903
30
0
41
1
10
-0.300083216036057
20
6.3442802085479
30
0
41
1
10
-0.292057158925616
20
6.35806878925098
30
0
41
1
10
-0.261294067338724
20
6.42092251611513
30
0
41
1
10
-0.248999237994838
20
6.47445017323312
30
0
41
1
10
-0.204624309665832
20
6.70435570668306
30
0
41
1
10
-0.200000000000955
20
6.88379158154922
30
0
41
1
10
-0.200000000000955
20
7.05951756777668
30
0
0
SPLINE
5
1C7
100
AcDbEntity
8
SK1
62
256
6
ByLayer
370
18
48
1
60
0
100
AcDbSpline
70
4
71
3
72
22
73
18
40
0
40
0
40
0
40
0
40
0.366862607601256
40
0.366862607601256
40
0.737339621375052
40
0.737339621375052
40
0.838459586400285
40
0.838459586400285
40
0.872990642836393
40
0.872990642836393
40
0.908114554314301
40
0.908114554314301
40
0.93841147631739
40
0.93841147631739
40
0.978567405872927
40
0.978567405872927
40
1
40
1
40
1
40
1
41
1
10
-1.30710678118655
20
4.81101329740289
30
0
41
1
10
-1.26411319574365
20
5.05427021725674
30
0
41
1
10
-1.21291926611929
20
5.29463858107241
30
0
41
1
10
-1.07751639291712
20
5.76447191425098
30
0
41
1
10
-0.99999394263088
20
6.0024064332149
30
0
41
1
10
-0.818580317119483
20
6.26150782359156
30
0
41
1
10
-0.772786229091963
20
6.31609141287933
30
0
41
1
10
-0.693958175551444
20
6.37002132562083
30
0
41
1
10
-0.67174289599555
20
6.38213989760789
30
0
41
1
10
-0.624176343099663
20
6.39933264200099
30
0
41
1
10
-0.598041368844491
20
6.40433410743103
30
0
41
1
10
-0.550095873812666
20
6.4042038836908
30
0
41
1
10
-0.52764508925199
20
6.40038614973912
30
0
41
1
10
-0.479150674129698
20
6.38487542657816
30
0
41
1
10
-0.453444961156862
20
6.37100758594852
30
0
41
1
10
-0.417985764291785
20
6.34622757774423
30
0
41
1
10
-0.406197231050186
20
6.33682378409867
30
0
41
1
10
-0.394976888874737
20
6.32694309068151
30
0
0
INSERT
5
1D9
100
AcDbEntity
8
2
62
256
6
ByLayer
370
25
48
1
60
0
100
AcDbBlockReference
2
DimnDraft3D11
10
0
20
0
30
0
41
1
42
1
43
1
50
0
210
0
220
0
230
1
0
LINE
5
72
100
AcDbEntity
8
1
62
256
6
ByLayer
370
18
48
1
60
0
100
AcDbLine
10
52.262946
20
6.777327
30
0
11
53.071408
21
6.349976
31
0
39
0
210
0
220
0
230
1
0
LINE
5
74
100
AcDbEntity
8
1
62
256
6
ByLayer
370
18
48
1
60
0
100
AcDbLine
10
39.459897
20
3.548799
30
0
11
39.18206
21
3.548799
31
0
39
0
210
0
220
0
230
1
0
LINE
5
75
100
AcDbEntity
8
1
62
256
6
ByLayer
370
18
48
1
60
0
100
AcDbLine
10
39.540339
20
0.632689
30
0
11
39.829629
21
0.632689
31
0
39
0
210
0
220
0
230
1
0
LINE
5
76
100
AcDbEntity
8
1
62
256
6
ByLayer
370
18
48
1
60
0
100
AcDbLine
10
40.99538
20
3.866016
30
0
11
40.717543
21
3.866016
31
0
39
0
210
0
220
0
230
1
0
LINE
5
77
100
AcDbEntity
8
1
62
256
6
ByLayer
370
18
48
1
60
0
100
AcDbLine
10
51.541056
20
6.956697
30
0
11
51.283709
21
6.956697
31
0
39
0
210
0
220
0
230
1
0
LINE
5
78
100
AcDbEntity
8
1
62
256
6
ByLayer
370
18
48
1
60
0
100
AcDbLine
10
0.3
20
31.5
30
0
11
0
21
31.2
31
0
39
0
210
0
220
0
230
1
0
LINE
5
79
100
AcDbEntity
8
1
62
256
6
ByLayer
370
18
48
1
60
0
100
AcDbLine
10
0
20
-31.2
30
0
11
0.3
21
-31.5
31
0
39
0
210
0
220
0
230
1
0
LINE
5
7A
100
AcDbEntity
8
1
62
256
6
ByLayer
370
18
48
1
60
0
100
AcDbLine
10
0.3
20
-31.5
30
0
11
22.698404
21
-31.5
31
0
39
0
210
0
220
0
230
1
0
LINE
5
7B
100
AcDbEntity
8
1
62
256
6
ByLayer
370
18
48
1
60
0
100
AcDbLine
10
22.698404
20
31.5
30
0
11
0.3
21
31.5
31
0
39
0
210
0
220
0
230
1
0
LINE
5
7C
100
AcDbEntity
8
1
62
256
6
ByLayer
370
18
48
1
60
0
100
AcDbLine
10
35.889418
20
13.194373
30
0
11
35.024107
21
13.311302
31
0
39
0
210
0
220
0
230
1
0
LINE
5
7D
100
AcDbEntity
8
1
62
256
6
ByLayer
370
18
48
1
60
0
100
AcDbLine
10
51.283709
20
-6.956616
30
0
11
51.541056
21
-6.956616
31
0
39
0
210
0
220
0
230
1
0
LINE
5
7E
100
AcDbEntity
8
1
62
256
6
ByLayer
370
18
48
1
60
0
100
AcDbLine
10
11.29514
20
-19.451142
30
0
11
12.543767
21
-19.041539
31
0
39
0
210
0
220
0
230
1
0
LINE
5
7F
100
AcDbEntity
8
1
62
256
6
ByLayer
370
18
48
1
60
0
100
AcDbLine
10
19.266889
20
-16.836067
30
0
11
27.634779
21
-14.091041
31
0
39
0
210
0
220
0
230
1
0
LINE
5
80
100
AcDbEntity
8
1
62
256
6
ByLayer
370
18
48
1
60
0
100
AcDbLine
10
27.723285
20
-14.000574
30
0
11
27.866862
21
-13.697348
31
0
39
0
210
0
220
0
230
1
0
LINE
5
81
100
AcDbEntity
8
1
62
256
6
ByLayer
370
18
48
1
60
0
100
AcDbLine
10
26.683487
20
-10.089967
30
0
11
26.388195
21
-9.930709
31
0
39
0
210
0
220
0
230
1
0
LINE
5
82
100
AcDbEntity
8
1
62
256
6
ByLayer
370
18
48
1
60
0
100
AcDbLine
10
35.512962
20
8.796513
30
0
11
36.0965
21
8.717661
31
0
39
0
210
0
220
0
230
1
0
LINE
5
83
100
AcDbEntity
8
1
62
256
6
ByLayer
370
18
48
1
60
0
100
AcDbLine
10
38.693487
20
5.399362
30
0
11
38.918809
21
5.399362
31
0
39
0
210
0
220
0
230
1
0
LINE
5
84
100
AcDbEntity
8
1
62
256
6
ByLayer
370
18
48
1
60
0
100
AcDbLine
10
40.176455
20
5.716578
30
0
11
40.454292
21
5.716578
31
0
39
0
210
0
220
0
230
1
0
LINE
5
85
100
AcDbEntity
8
1
62
256
6
ByLayer
370
18
48
1
60
0
100
AcDbLine
10
39.829629
20
8.632689
30
0
11
39.540339
21
8.632689
31
0
39
0
210
0
220
0
230
1
0
LINE
5
86
100
AcDbEntity
8
80
62
256
6
ByLayer
370
18
48
1
60
0
100
AcDbLine
10
0
20
0
30
0
11
-5
21
0
31
0
39
0
210
0
220
0
230
1
0
LINE
5
87
100
AcDbEntity
8
4
62
256
6
ByLayer
370
18
48
0.05
60
0
100
AcDbLine
10
0
20
0
30
0
11
65
21
0
31
0
39
0
210
0
220
0
230
1
0
LINE
5
89
100
AcDbEntity
8
81
62
256
6
ByLayer
370
18
48
1
60
0
100
AcDbLine
10
65
20
0.4817
30
0
11
75
21
0.4817
31
0
39
0
210
0
220
0
230
1
0
LINE
5
8A
100
AcDbEntity
8
SK4
62
256
6
ByLayer
370
18
48
0.05
60
0
100
AcDbLine
10
-43
20
0
30
0
11
65
21
0
31
0
39
0
210
0
220
0
230
1
0
LINE
5
8C
100
AcDbEntity
8
1
62
256
6
ByLayer
370
18
48
1
60
0
100
AcDbLine
10
38.721877
20
5.405456
30
0
11
38.84818
21
5.405456
31
0
39
0
210
0
220
0
230
1
0
LINE
5
8D
100
AcDbEntity
8
1
62
256
6
ByLayer
370
18
48
1
60
0
100
AcDbLine
10
45.579223
20
-3.570274
30
0
11
50.668107
21
-6.260246
31
0
39
0
210
0
220
0
230
1
0
LINE
5
8E
100
AcDbEntity
8
1
62
256
6
ByLayer
370
18
48
1
60
0
100
AcDbLine
10
50.668107
20
6.260327
30
0
11
50.326341
21
6.07967
31
0
39
0
210
0
220
0
230
1
0
LINE
5
8F
100
AcDbEntity
8
1
62
256
6
ByLayer
370
18
48
1
60
0
100
AcDbLine
10
50.668107
20
6.260327
30
0
11
50.589958
21
6.260327
31
0
39
0
210
0
220
0
230
1
0
LINE
5
90
100
AcDbEntity
8
1
62
256
6
ByLayer
370
18
48
1
60
0
100
AcDbLine
10
50.593509
20
-6.260246
30
0
11
50.668107
21
-6.260246
31
0
39
0
210
0
220
0
230
1
0
LINE
5
91
100
AcDbEntity
8
1
62
256
6
ByLayer
370
18
48
1
60
0
100
AcDbLine
10
51.029165
20
-6.349959
30
0
11
50.774131
21
-6.349959
31
0
39
0
210
0
220
0
230
1
0
LINE
5
92
100
AcDbEntity
8
1
62
256
6
ByLayer
370
18
48
1
60
0
100
AcDbLine
10
50.759679
20
6.350041
30
0
11
51.029165
21
6.350041
31
0
39
0
210
0
220
0
230
1
0
LINE
5
93
100
AcDbEntity
8
1
62
256
6
ByLayer
370
18
48
1
60
0
100
AcDbLine
10
53.071408
20
-6.349894
30
0
11
52.262946
21
-6.777246
31
0
39
0
210
0
220
0
230
1
0
LINE
5
94
100
AcDbEntity
8
1
62
256
6
ByLayer
370
18
48
1
60
0
100
AcDbLine
10
0.3
20
-31.5
30
0
11
0.3
21
31.5
31
0
39
0
210
0
220
0
230
1
0
LINE
5
95
100
AcDbEntity
8
1
62
256
6
ByLayer
370
18
48
1
60
0
100
AcDbLine
10
0
20
-31.2
30
0
11
0
21
31.2
31
0
39
0
210
0
220
0
230
1
0
LINE
5
96
100
AcDbEntity
8
1
62
256
6
ByLayer
370
18
48
1
60
0
100
AcDbLine
10
19.911507
20
29.985012
30
0
11
19.911507
21
-11.994005
31
0
39
0
210
0
220
0
230
1
0
LINE
5
97
100
AcDbEntity
8
1
62
256
6
ByLayer
370
18
48
1
60
0
100
AcDbLine
10
19.911507
20
-16.623878
30
0
11
19.911507
21
-29.985012
31
0
39
0
210
0
220
0
230
1
0
LINE
5
98
100
AcDbEntity
8
1
62
256
6
ByLayer
370
18
48
1
60
0
100
AcDbLine
10
19.843864
20
-17.879677
30
0
11
19.851724
21
-16.644164
31
0
39
0
210
0
220
0
230
1
0
LINE
5
99
100
AcDbEntity
8
1
62
256
6
ByLayer
370
18
48
1
60
0
100
AcDbLine
10
19.88124
20
-12.004165
30
0
11
19.881913
21
-11.898371
31
0
39
0
210
0
220
0
230
1
0
LINE
5
9A
100
AcDbEntity
8
SK1
62
256
6
ByLayer
370
18
48
1
60
0
100
AcDbLine
10
-0.2
20
7.059518
30
0
11
-0.2
21
22.533485
31
0
39
0
210
0
220
0
230
1
0
LINE
5
9C
100
AcDbEntity
8
SK1
62
256
6
ByLayer
370
18
48
1
60
0
100
AcDbLine
10
-0.2
20
-22.533485
30
0
11
-0.2
21
-7.059517
31
0
39
0
210
0
220
0
230
1
0
LINE
5
9D
100
AcDbEntity
8
1
62
256
6
ByLayer
370
18
48
1
60
0
100
AcDbLine
10
19.843864
20
-17.879677
30
0
11
19.478705
21
-16.76653
31
0
39
0
210
0
220
0
230
1
0
LINE
5
9E
100
AcDbEntity
8
1
62
256
6
ByLayer
370
18
48
1
60
0
100
AcDbLine
10
23.896286
20
21.307073
30
0
11
23.896286
21
-10.686429
31
0
39
0
210
0
220
0
230
1
0
LINE
5
9F
100
AcDbEntity
8
1
62
256
6
ByLayer
370
18
48
1
60
0
100
AcDbLine
10
23.896286
20
-15.316883
30
0
11
23.896286
21
-25.897301
31
0
39
0
210
0
220
0
230
1
0
LINE
5
A0
100
AcDbEntity
8
1
62
256
6
ByLayer
370
18
48
1
60
0
100
AcDbLine
10
41.076556
20
-4.561638
30
0
11
42.945995
21
-3.573457
31
0
39
0
210
0
220
0
230
1
0
LINE
5
A1
100
AcDbEntity
8
1
62
256
6
ByLayer
370
18
48
1
60
0
100
AcDbLine
10
45.211551
20
-3.57988
30
0
11
51.474972
21
-6.855518
31
0
39
0
210
0
220
0
230
1
0
LINE
5
A2
100
AcDbEntity
8
1
62
256
6
ByLayer
370
18
48
1
60
0
100
AcDbLine
10
32.88557
20
-0.943878
30
0
11
32.317093
21
-2.669086
31
0
39
0
210
0
220
0
230
1
0
LINE
5
A3
100
AcDbEntity
8
1
62
256
6
ByLayer
370
18
48
1
60
0
100
AcDbLine
10
37.831928
20
14.06728
30
0
11
37.392326
21
12.733181
31
0
39
0
210
0
220
0
230
1
0
LINE
5
A4
100
AcDbEntity
8
1
62
256
6
ByLayer
370
18
48
1
60
0
100
AcDbLine
10
50.190121
20
6.18786
30
0
11
51.464161
21
6.861314
31
0
39
0
210
0
220
0
230
1
0
LINE
5
A5
100
AcDbEntity
8
1
62
256
6
ByLayer
370
18
48
1
60
0
100
AcDbLine
10
28.519934
20
1.190876
30
0
11
28.818258
21
2.096227
31
0
39
0
210
0
220
0
230
1
0
LINE
5
A6
100
AcDbEntity
8
1
62
256
6
ByLayer
370
18
48
1
60
0
100
AcDbLine
10
32.220092
20
12.42008
30
0
11
32.475339
21
13.194702
31
0
39
0
210
0
220
0
230
1
0
LINE
5
A7
100
AcDbEntity
8
1
62
256
6
ByLayer
370
18
48
1
60
0
100
AcDbLine
10
51.543441
20
6.764332
30
0
11
50.29418
21
6.103976
31
0
39
0
210
0
220
0
230
1
0
LINE
5
A8
100
AcDbEntity
8
1
62
256
6
ByLayer
370
18
48
1
60
0
100
AcDbLine
10
39.20569
20
-4.676334
30
0
11
41.539421
21
-3.442729
31
0
39
0
210
0
220
0
230
1
0
LINE
5
A9
100
AcDbEntity
8
1
62
256
6
ByLayer
370
18
48
1
60
0
100
AcDbLine
10
45.464822
20
-3.573299
30
0
11
49.414345
21
-5.638816
31
0
39
0
210
0
220
0
230
1
0
LINE
5
AA
100
AcDbEntity
8
1
62
256
6
ByLayer
370
18
48
1
60
0
100
AcDbLine
10
50.68001
20
-6.300733
30
0
11
51.554816
21
-6.758238
31
0
39
0
210
0
220
0
230
1
0
LINE
5
AB
100
AcDbEntity
8
1
62
256
6
ByLayer
370
18
48
1
60
0
100
AcDbLine
10
39.111433
20
-4.543282
30
0
11
41.276669
21
-3.398743
31
0
39
0
210
0
220
0
230
1
0
LINE
5
AC
100
AcDbEntity
8
1
62
256
6
ByLayer
370
18
48
1
60
0
100
AcDbLine
10
26.270751
20
-9.908091
30
0
11
19.223492
21
-12.219893
31
0
39
0
210
0
220
0
230
1
0
LINE
5
AD
100
AcDbEntity
8
1
62
256
6
ByLayer
370
18
48
1
60
0
100
AcDbLine
10
40.094213
20
8.91657
30
0
11
42.012553
21
8.2648
31
0
39
0
210
0
220
0
230
1
0
LINE
5
AE
100
AcDbEntity
8
1
62
256
6
ByLayer
370
18
48
1
60
0
100
AcDbLine
10
40.094213
20
8.91657
30
0
11
39.588126
21
8.984957
31
0
39
0
210
0
220
0
230
1
0
LINE
5
AF
100
AcDbEntity
8
1
62
256
6
ByLayer
370
18
48
1
60
0
100
AcDbLine
10
38.330326
20
-2.767546
30
0
11
33.253835
21
-1.042773
31
0
39
0
210
0
220
0
230
1
0
LINE
5
B0
100
AcDbEntity
8
1
62
256
6
ByLayer
370
18
48
1
60
0
100
AcDbLine
10
42.828768
20
10.884281
30
0
11
37.752277
21
12.609054
31
0
39
0
210
0
220
0
230
1
0
LINE
5
B1
100
AcDbEntity
8
1
62
256
6
ByLayer
370
18
48
1
60
0
100
AcDbLine
10
54.083587
20
1.489621
30
0
11
53.990036
21
1.710757
31
0
39
0
210
0
220
0
230
1
0
LINE
5
B2
100
AcDbEntity
8
1
62
256
6
ByLayer
370
18
48
1
60
0
100
AcDbLine
10
33.546152
20
9.409445
30
0
11
31.921235
21
4.478162
31
0
39
0
210
0
220
0
230
1
0
LINE
5
B3
100
AcDbEntity
8
1
62
256
6
ByLayer
370
18
48
1
60
0
100
AcDbLine
10
39.588126
20
8.984957
30
0
11
41.496151
21
8.334581
31
0
39
0
210
0
220
0
230
1
0
LINE
5
B4
100
AcDbEntity
8
1
62
256
6
ByLayer
370
18
48
1
60
0
100
AcDbLine
10
33.248084
20
-1.043394
30
0
11
31.347534
21
-0.521801
31
0
39
0
210
0
220
0
230
1
0
LINE
5
B5
100
AcDbEntity
8
1
62
256
6
ByLayer
370
18
48
1
60
0
100
AcDbLine
10
35.456344
20
8.85918
30
0
11
34.966152
21
8.925419
31
0
39
0
210
0
220
0
230
1
0
LINE
5
B6
100
AcDbEntity
8
1
62
256
6
ByLayer
370
18
48
1
60
0
100
AcDbLine
10
28.952906
20
3.361439
30
0
11
31.577772
21
11.327357
31
0
39
0
210
0
220
0
230
1
0
LINE
5
B7
100
AcDbEntity
8
1
62
256
6
ByLayer
370
18
48
1
60
0
100
AcDbLine
10
35.865079
20
12.243884
30
0
11
42.993813
21
9.821847
31
0
39
0
210
0
220
0
230
1
0
LINE
5
B8
100
AcDbEntity
8
1
62
256
6
ByLayer
370
18
48
1
60
0
100
AcDbLine
10
52.65303
20
-2.346777
30
0
11
51.686031
21
-2.767402
31
0
39
0
210
0
220
0
230
1
0
LINE
5
B9
100
AcDbEntity
8
1
62
256
6
ByLayer
370
18
48
1
60
0
100
AcDbLine
10
33.248084
20
-1.043394
30
0
11
33.253835
21
-1.042773
31
0
39
0
210
0
220
0
230
1
0
LINE
5
BA
100
AcDbEntity
8
1
62
256
6
ByLayer
370
18
48
1
60
0
100
AcDbLine
10
37.747855
20
12.612467
30
0
11
37.752277
21
12.609054
31
0
39
0
210
0
220
0
230
1
0
LINE
5
BB
100
AcDbEntity
8
1
62
256
6
ByLayer
370
18
48
1
60
0
100
AcDbLine
10
33.476178
20
11.070828
30
0
11
31.577772
21
11.327357
31
0
39
0
210
0
220
0
230
1
0
LINE
5
BC
100
AcDbEntity
8
1
62
256
6
ByLayer
370
18
48
1
60
0
100
AcDbLine
10
53.295311
20
-2.067398
30
0
11
53.089917
21
-2.15674
31
0
39
0
210
0
220
0
230
1
0
LINE
5
BD
100
AcDbEntity
8
1
62
256
6
ByLayer
370
18
48
1
60
0
100
AcDbLine
10
52.65303
20
-2.346777
30
0
11
52.858803
21
-2.227339
31
0
39
0
210
0
220
0
230
1
0
LINE
5
BE
100
AcDbEntity
8
1
62
256
6
ByLayer
370
18
48
1
60
0
100
AcDbLine
10
52.309854
20
0.248843
30
0
11
54.649666
21
-0.732933
31
0
39
0
210
0
220
0
230
1
0
LINE
5
BF
100
AcDbEntity
8
1
62
256
6
ByLayer
370
18
48
1
60
0
100
AcDbLine
10
33.476178
20
11.070828
30
0
11
30.851312
21
3.10491
31
0
39
0
210
0
220
0
230
1
0
LINE
5
C0
100
AcDbEntity
8
1
62
256
6
ByLayer
370
18
48
1
60
0
100
AcDbLine
10
34.966152
20
8.925419
30
0
11
33.546152
21
9.409445
31
0
39
0
210
0
220
0
230
1
0
LINE
5
C1
100
AcDbEntity
8
1
62
256
6
ByLayer
370
18
48
1
60
0
100
AcDbLine
10
37.747855
20
12.612467
30
0
11
36.40317
21
13.069333
31
0
39
0
210
0
220
0
230
1
0
LINE
5
C2
100
AcDbEntity
8
1
62
256
6
ByLayer
370
18
48
1
60
0
100
AcDbLine
10
31.9034
20
-0.586528
30
0
11
33.248084
21
-1.043394
31
0
39
0
210
0
220
0
230
1
0
LINE
5
C3
100
AcDbEntity
8
1
62
256
6
ByLayer
370
18
48
1
60
0
100
AcDbLine
10
54.332984
20
1.081722
30
0
11
54.223313
21
1.28288
31
0
39
0
210
0
220
0
230
1
0
LINE
5
C4
100
AcDbEntity
8
1
62
256
6
ByLayer
370
18
48
1
60
0
100
AcDbLine
10
42.012553
20
8.2648
30
0
11
41.496151
21
8.334581
31
0
39
0
210
0
220
0
230
1
0
LINE
5
C5
100
AcDbEntity
8
1
62
256
6
ByLayer
370
18
48
1
60
0
100
AcDbLine
10
53.990036
20
1.710757
30
0
11
53.473704
21
2.657812
31
0
39
0
210
0
220
0
230
1
0
LINE
5
C6
100
AcDbEntity
8
1
62
256
6
ByLayer
370
18
48
1
60
0
100
AcDbLine
10
31.9034
20
-0.586528
30
0
11
31.273406
21
-0.501398
31
0
39
0
210
0
220
0
230
1
0
LINE
5
C7
100
AcDbEntity
8
1
62
256
6
ByLayer
370
18
48
1
60
0
100
AcDbLine
10
39.418935
20
0.393714
30
0
11
37.500595
21
1.045483
31
0
39
0
210
0
220
0
230
1
0
LINE
5
C8
100
AcDbEntity
8
1
62
256
6
ByLayer
370
18
48
1
60
0
100
AcDbLine
10
32.066807
20
0.716924
30
0
11
39.19554
21
-1.705113
31
0
39
0
210
0
220
0
230
1
0
LINE
5
C9
100
AcDbEntity
8
1
62
256
6
ByLayer
370
18
48
1
60
0
100
AcDbLine
10
30.851312
20
3.10491
30
0
11
28.952906
21
3.361439
31
0
39
0
210
0
220
0
230
1
0
LINE
5
CA
100
AcDbEntity
8
1
62
256
6
ByLayer
370
18
48
1
60
0
100
AcDbLine
10
40.29947
20
3.420884
30
0
11
40.577307
21
3.420884
31
0
39
0
210
0
220
0
230
1
0
LINE
5
CB
100
AcDbEntity
8
1
62
256
6
ByLayer
370
18
48
1
60
0
100
AcDbLine
10
39.783869
20
5.994236
30
0
11
40.061706
21
5.994236
31
0
39
0
210
0
220
0
230
1
0
LINE
5
CC
100
AcDbEntity
8
1
62
256
6
ByLayer
370
18
48
1
60
0
100
AcDbLine
10
38.955853
20
3.481381
30
0
11
39.23369
21
3.481381
31
0
39
0
210
0
220
0
230
1
0
LINE
5
CD
100
AcDbEntity
8
1
62
256
6
ByLayer
370
18
48
1
60
0
100
AcDbLine
10
41.022874
20
4.572192
30
0
11
41.300711
21
4.572192
31
0
39
0
210
0
220
0
230
1
0
LINE
5
CE
100
AcDbEntity
8
1
62
256
6
ByLayer
370
18
48
1
60
0
100
AcDbLine
10
40.892784
20
5.221468
30
0
11
41.170621
21
5.221468
31
0
39
0
210
0
220
0
230
1
0
LINE
5
CF
100
AcDbEntity
8
1
62
256
6
ByLayer
370
18
48
1
60
0
100
AcDbLine
10
37.831928
20
14.06728
30
0
11
36.264839
21
14.759691
31
0
39
0
210
0
220
0
230
1
0
LINE
5
D0
100
AcDbEntity
8
1
62
256
6
ByLayer
370
18
48
1
60
0
100
AcDbLine
10
13.461325
20
30.080593
30
0
11
10.538675
21
30.080593
31
0
39
0
210
0
220
0
230
1
0
LINE
5
D1
100
AcDbEntity
8
1
62
256
6
ByLayer
370
18
48
1
60
0
100
AcDbLine
10
31.836125
20
-17.236566
30
0
11
29.331224
21
-18.520724
31
0
39
0
210
0
220
0
230
1
0
LINE
5
D2
100
AcDbEntity
8
1
62
256
6
ByLayer
370
18
48
1
60
0
100
AcDbLine
10
10.105662
20
-20.132452
30
0
11
10.105662
21
-9.869413
31
0
39
0
210
0
220
0
230
1
0
LINE
5
D3
100
AcDbEntity
8
1
62
256
6
ByLayer
370
18
48
1
60
0
100
AcDbLine
10
23.896286
20
21.307073
30
0
11
30.49589
21
17.92373
31
0
39
0
210
0
220
0
230
1
0
LINE
5
D4
100
AcDbEntity
8
1
62
256
6
ByLayer
370
18
48
1
60
0
100
AcDbLine
10
13.461325
20
-9.349221
30
0
11
10.538675
21
-9.349221
31
0
39
0
210
0
220
0
230
1
0
LINE
5
D5
100
AcDbEntity
8
1
62
256
6
ByLayer
370
18
48
1
60
0
100
AcDbLine
10
23.756794
20
21.378804
30
0
11
23.756794
21
31.152876
31
0
39
0
210
0
220
0
230
1
0
LINE
5
D6
100
AcDbEntity
8
1
62
256
6
ByLayer
370
18
48
1
60
0
100
AcDbLine
10
31.836125
20
-17.236566
30
0
11
51.474972
21
-6.855518
31
0
39
0
210
0
220
0
230
1
0
LINE
5
D7
100
AcDbEntity
8
1
62
256
6
ByLayer
370
18
48
1
60
0
100
AcDbLine
10
19.366884
20
-19.367551
30
0
11
19.622737
21
-22.294385
31
0
39
0
210
0
220
0
230
1
0
LINE
5
D8
100
AcDbEntity
8
1
62
256
6
ByLayer
370
18
48
1
60
0
100
AcDbLine
10
13.461325
20
9.349221
30
0
11
13.461325
21
30.080593
31
0
39
0
210
0
220
0
230
1
0
LINE
5
D9
100
AcDbEntity
8
1
62
256
6
ByLayer
370
18
48
1
60
0
100
AcDbLine
10
13.894338
20
9.869413
30
0
11
13.894338
21
29.913955
31
0
39
0
210
0
220
0
230
1
0
LINE
5
DA
100
AcDbEntity
8
1
62
256
6
ByLayer
370
18
48
1
60
0
100
AcDbLine
10
10.538675
20
9.349221
30
0
11
10.538675
21
30.080593
31
0
39
0
210
0
220
0
230
1
0
LINE
5
DB
100
AcDbEntity
8
1
62
256
6
ByLayer
370
18
48
1
60
0
100
AcDbLine
10
23.756794
20
-31.152876
30
0
11
23.756794
21
-27.568235
31
0
39
0
210
0
220
0
230
1
0
LINE
5
DC
100
AcDbEntity
8
1
62
256
6
ByLayer
370
18
48
1
60
0
100
AcDbLine
10
13.894338
20
-29.913955
30
0
11
13.894338
21
-21.040182
31
0
39
0
210
0
220
0
230
1
0
LINE
5
DD
100
AcDbEntity
8
1
62
256
6
ByLayer
370
18
48
1
60
0
100
AcDbLine
10
32.317093
20
-2.669086
30
0
11
31.601112
21
-2.463965
31
0
39
0
210
0
220
0
230
1
0
LINE
5
DE
100
AcDbEntity
8
1
62
256
6
ByLayer
370
18
48
1
60
0
100
AcDbLine
10
51.474972
20
-6.855518
30
0
11
51.554816
21
-6.758238
31
0
39
0
210
0
220
0
230
1
0
LINE
5
DF
100
AcDbEntity
8
1
62
256
6
ByLayer
370
18
48
1
60
0
100
AcDbLine
10
10.538675
20
-30.080593
30
0
11
13.461325
21
-30.080593
31
0
39
0
210
0
220
0
230
1
0
LINE
5
E0
100
AcDbEntity
8
1
62
256
6
ByLayer
370
18
48
1
60
0
100
AcDbLine
10
13.461325
20
-19.43724
30
0
11
13.461325
21
-9.349221
31
0
39
0
210
0
220
0
230
1
0
LINE
5
E1
100
AcDbEntity
8
1
62
256
6
ByLayer
370
18
48
1
60
0
100
AcDbLine
10
19.881913
20
-11.898371
30
0
11
19.223556
21
-12.11434
31
0
39
0
210
0
220
0
230
1
0
LINE
5
E2
100
AcDbEntity
8
1
62
256
6
ByLayer
370
18
48
1
60
0
100
AcDbLine
10
22.920792
20
-31.474741
30
0
11
22.920792
21
-30.899614
31
0
39
0
210
0
220
0
230
1
0
LINE
5
E3
100
AcDbEntity
8
1
62
256
6
ByLayer
370
18
48
1
60
0
100
AcDbLine
10
10.538675
20
-30.080593
30
0
11
10.538675
21
-21.369494
31
0
39
0
210
0
220
0
230
1
0
LINE
5
E4
100
AcDbEntity
8
1
62
256
6
ByLayer
370
18
48
1
60
0
100
AcDbLine
10
13.894338
20
-20.132452
30
0
11
13.894338
21
-9.869413
31
0
39
0
210
0
220
0
230
1
0
LINE
5
E5
100
AcDbEntity
8
1
62
256
6
ByLayer
370
18
48
1
60
0
100
AcDbLine
10
51.464161
20
6.861314
30
0
11
51.543441
21
6.764332
31
0
39
0
210
0
220
0
230
1
0
LINE
5
E6
100
AcDbEntity
8
1
62
256
6
ByLayer
370
18
48
1
60
0
100
AcDbLine
10
30.941187
20
12.995831
30
0
11
27.412561
21
2.28719
31
0
39
0
210
0
220
0
230
1
0
LINE
5
E7
100
AcDbEntity
8
1
62
256
6
ByLayer
370
18
48
1
60
0
100
AcDbLine
10
10.105662
20
-29.913955
30
0
11
10.105662
21
-21.040182
31
0
39
0
210
0
220
0
230
1
0
LINE
5
E8
100
AcDbEntity
8
1
62
256
6
ByLayer
370
18
48
1
60
0
100
AcDbLine
10
10.538675
20
9.349221
30
0
11
13.461325
21
9.349221
31
0
39
0
210
0
220
0
230
1
0
LINE
5
E9
100
AcDbEntity
8
1
62
256
6
ByLayer
370
18
48
1
60
0
100
AcDbLine
10
13.461325
20
-30.080593
30
0
11
13.461325
21
-21.369494
31
0
39
0
210
0
220
0
230
1
0
LINE
5
EA
100
AcDbEntity
8
1
62
256
6
ByLayer
370
18
48
1
60
0
100
AcDbLine
10
51.464161
20
6.861314
30
0
11
37.831928
21
14.06728
31
0
39
0
210
0
220
0
230
1
0
LINE
5
EB
100
AcDbEntity
8
1
62
256
6
ByLayer
370
18
48
1
60
0
100
AcDbLine
10
37.929955
20
-3.554214
30
0
11
37.793535
21
-3.28811
31
0
39
0
210
0
220
0
230
1
0
LINE
5
EC
100
AcDbEntity
8
1
62
256
6
ByLayer
370
18
48
1
60
0
100
AcDbLine
10
39.111433
20
-4.543282
30
0
11
39.20569
21
-4.676334
31
0
39
0
210
0
220
0
230
1
0
LINE
5
ED
100
AcDbEntity
8
1
62
256
6
ByLayer
370
18
48
1
60
0
100
AcDbLine
10
10.105662
20
9.869413
30
0
11
10.105662
21
29.913955
31
0
39
0
210
0
220
0
230
1
0
LINE
5
EE
100
AcDbEntity
8
1
62
256
6
ByLayer
370
18
48
1
60
0
100
AcDbLine
10
31.836125
20
-3.561338
30
0
11
31.836125
21
-17.236566
31
0
39
0
210
0
220
0
230
1
0
LINE
5
EF
100
AcDbEntity
8
1
62
256
6
ByLayer
370
18
48
1
60
0
100
AcDbLine
10
28.493553
20
15.020256
30
0
11
24.772947
21
2.033328
31
0
39
0
210
0
220
0
230
1
0
LINE
5
F0
100
AcDbEntity
8
1
62
256
6
ByLayer
370
18
48
1
60
0
100
AcDbLine
10
22.920792
20
30.899614
30
0
11
22.920792
21
31.474741
31
0
39
0
210
0
220
0
230
1
0
LINE
5
F1
100
AcDbEntity
8
1
62
256
6
ByLayer
370
18
48
1
60
0
100
AcDbLine
10
39.20569
20
-4.676334
30
0
11
41.076556
21
-4.561638
31
0
39
0
210
0
220
0
230
1
0
LINE
5
F2
100
AcDbEntity
8
1
62
256
6
ByLayer
370
18
48
1
60
0
100
AcDbLine
10
10.538675
20
-19.43724
30
0
11
10.538675
21
-9.349221
31
0
39
0
210
0
220
0
230
1
0
LINE
5
F3
100
AcDbEntity
8
SK1
62
256
6
ByLayer
370
18
48
1
60
0
100
AcDbLine
10
-1.307107
20
-4.811013
30
0
11
-1.307107
21
4.811013
31
0
39
0
210
0
220
0
230
1
0
LINE
5
F4
100
AcDbEntity
8
1
62
256
6
ByLayer
370
18
48
1
60
0
100
AcDbLine
10
54.068004
20
-6.260246
30
0
11
64.578834
21
-0.704246
31
0
39
0
210
0
220
0
230
1
0
LINE
5
F5
100
AcDbEntity
8
1
62
256
6
ByLayer
370
18
48
1
60
0
100
AcDbLine
10
51.029165
20
6.350041
30
0
11
53.706945
21
6.350041
31
0
39
0
210
0
220
0
230
1
0
LINE
5
F6
100
AcDbEntity
8
1
62
256
6
ByLayer
370
18
48
1
60
0
100
AcDbLine
10
64.578834
20
0.704327
30
0
11
54.068004
21
6.260327
31
0
39
0
210
0
220
0
230
1
0
LINE
5
F7
100
AcDbEntity
8
1
62
256
6
ByLayer
370
18
48
1
60
0
100
AcDbLine
10
53.706945
20
-6.349959
30
0
11
51.029165
21
-6.349959
31
0
39
0
210
0
220
0
230
1
0
MTEXT
5
1C8
100
AcDbEntity
8
SK6
62
256
6
ByLayer
370
18
48
1
60
0
100
AcDbMText
10
-8.125
20
-26.86585
30
0
210
0
220
0
230
1
1
\W0.7405;C6-DDNNN-00065-1504
40
3.5
41
0
44
1.084337
50
0
71
7
72
5
7
iso_b_vert
0
DIMENSION
5
1E7
100
AcDbEntity
8
2
62
256
6
ByLayer
370
13
48
1
60
0
100
AcDbDimension
2
DimnDraft3D2
10
58.075636
20
4.141902
30
0
11
51.86278
21
22.285678
31
0
70
34
71
5
72
1
41
1
210
0
220
0
230
1
3
Standard
100
AcDb2LineAngularDimension
13
65
23
0.4817
33
0
14
65
24
-1.1058
34
0
15
65
25
0.4817
35
0
16
54.185134
26
18.431243
36
0
40
0
0
DIMENSION
5
1FD
100
AcDbEntity
8
SK2
62
256
6
ByLayer
370
13
48
1
60
0
100
AcDbDimension
2
DimnDraft3D3
10
-45.75
20
31.5
30
0
11
-45.75
21
-2.688158
31
0
70
32
71
5
72
1
41
1
210
0
220
0
230
1
3
Standard
100
AcDbAlignedDimension
13
-2
23
-31.5
33
0
14
-2
24
31.5
34
0
50
90
100
AcDbRotatedDimension
1001
ACAD
1000
DSTYLE
1002
{
1070
    74
1070
     0
1070
   279
1070
     0
1070
   172
1070
     1
1070
   173
1070
     1
1070
   340
1005
1C9
1070
    77
1070
     1
1070
    73
1070
     0
1070
   171
1070
     3
1070
   274
1070
     4
1070
   177
1070
     2
1070
   176
1070
     2
1070
   178
1070
     7
1070
    78
1070
     8
1070
    41
1041
3.175
1070
   147
1041
2.25
1070
    42
1041
2.0
1070
    44
1041
2.0
1070
   140
1041
4.5
1070
   343
1005
1E8
1070
   344
1005
1E8
1002
}
0
DIMENSION
5
20B
100
AcDbEntity
8
2
62
256
6
ByLayer
370
13
48
1
60
0
100
AcDbDimension
2
DimnDraft3D4
10
87.25
20
0.4817
30
0
11
87.25
21
10.7367
31
0
70
32
71
5
72
1
41
1
210
0
220
0
230
1
3
Standard
100
AcDbAlignedDimension
13
67
23
0
33
0
14
67
24
0.4817
34
0
50
90
100
AcDbRotatedDimension
1001
ACAD
1000
DSTYLE
1002
{
1070
    74
1070
     0
1070
   279
1070
     0
1070
   172
1070
     1
1070
   173
1070
     1
1070
   340
1005
1C9
1070
    77
1070
     1
1070
    73
1070
     0
1070
   171
1070
     3
1070
   274
1070
     4
1070
   177
1070
     2
1070
   176
1070
     2
1070
   178
1070
     7
1070
    78
1070
     8
1070
    41
1041
3.175
1070
   147
1041
2.25
1070
    42
1041
2.0
1070
    44
1041
2.0
1070
   140
1041
4.5
1070
   343
1005
1E8
1070
   344
1005
1E8
1002
}
0
ENDSEC
0
SECTION
2
OBJECTS
0
DICTIONARY
5
276
330
0
100
AcDbDictionary
280
0
281
1
3
ACAD_GROUP
350
277
3
ACAD_MLINESTYLE
350
278
0
DICTIONARY
5
277
330
0
100
AcDbDictionary
280
0
281
1
0
DICTIONARY
5
278
330
0
100
AcDbDictionary
280
0
281
1
3
Standard
350
18
0
MLINESTYLE
5
18
330
278
100
AcDbMlineStyle
2
Standard
70
0
3

62
256
51
90
52
90
71
2
49
-0.5
62
256
6
ByLayer
49
0.5
62
256
6
ByLayer
0
RASTERVARIABLES
5
264
330

100
AcDbRasterVariables
90
0
70
1
71
1
72
1
0
ENDSEC
0
EOF
