0
SECTION
2
HEADER
9
$ACADVER
1
AC1015
9
$DWGCODEPAGE
3
ANSI_1252
9
$HANDSEED
5
293
9
$ANGBASE
50
0
9
$ANGDIR
70
0
9
$ATTMODE
70
1
9
$AUNITS
70
0
9
$AUPREC
70
0
9
$CECOLOR
62
256
9
$CELTSCALE
40
1
9
$CELTYPE
6
ByLayer
9
$CELWEIGHT
370
18
9
$CLAYER
8
0
9
$CMLJUST
70
0
9
$CMLSCALE
40
1
9
$CMLSTYLE
2
Standard
9
$DIMSTYLE
2
Standard
9
$TEXTSIZE
40
0.2
9
$TEXTSTYLE
7
Standard
9
$LUNITS
70
2
9
$LUPREC
70
4
9
$EXTNAMES
290
1
9
$INSUNITS
70
4
9
$LTSCALE
40
1
9
$LWDISPLAY
290
1
9
$PDMODE
70
0
9
$PDSIZE
40
0
9
$PLINEGEN
70
0
0
ENDSEC
0
SECTION
2
CLASSES
0
CLASS
1
RASTERVARIABLES
2
AcDbRasterVariables
3
ISM
90
0
280
0
281
0
0
ENDSEC
0
SECTION
2
TABLES
0
TABLE
2
VPORT
5
289
100
AcDbSymbolTable
0
VPORT
5
1
100
AcDbSymbolTableRecord
100
AcDbViewportTableRecord
2
*Active
70
0
10
0
20
0
11
1
21
1
12
-1
22
1
13
0
23
0
14
0.5
24
0.5
15
10
25
10
16
0
26
0
36
1
17
0
27
0
37
0
0
ENDTAB
0
TABLE
2
LTYPE
5
28a
100
AcDbSymbolTable
0
LTYPE
5
14
100
AcDbSymbolTableRecord
100
AcDbLinetypeTableRecord
70
0
2
ByBlock
3

72
65
73
0
40
0
0
LTYPE
5
15
100
AcDbSymbolTableRecord
100
AcDbLinetypeTableRecord
70
0
2
ByLayer
3

72
65
73
0
40
0
0
LTYPE
5
16
100
AcDbSymbolTableRecord
100
AcDbLinetypeTableRecord
70
0
2
CONTINUOUS
3
Solid line
72
65
73
0
40
0
0
LTYPE
5
6A
100
AcDbSymbolTableRecord
100
AcDbLinetypeTableRecord
70
0
2
CENTER
3
____ _ ____ _ ____ _ ____
72
65
73
4
40
47.5
49
22
74
0
49
-8.5
74
0
49
8.5
74
0
49
-8.5
74
0
0
LTYPE
5
6B
100
AcDbSymbolTableRecord
100
AcDbLinetypeTableRecord
70
0
2
DASHED
3
__ __ __ __ __ __ __ __ __
72
65
73
2
40
25.72
49
12.86
74
0
49
-12.86
74
0
0
ENDTAB
0
TABLE
2
LAYER
5
28b
100
AcDbSymbolTable
0
LAYER
5
10
100
AcDbSymbolTableRecord
100
AcDbLayerTableRecord
2
0
70
0
62
7
6
CONTINUOUS
290
1
370
-3
390
0
0
LAYER
5
6D
100
AcDbSymbolTableRecord
100
AcDbLayerTableRecord
2
80
70
0
62
-6
6
CONTINUOUS
290
1
370
-3
390
0
0
LAYER
5
6F
100
AcDbSymbolTableRecord
100
AcDbLayerTableRecord
2
81
70
0
62
-3
6
CONTINUOUS
290
1
370
-3
390
0
0
LAYER
5
71
100
AcDbSymbolTableRecord
100
AcDbLayerTableRecord
2
4
70
0
62
-2
6
CENTER
290
1
370
-3
390
0
0
LAYER
5
73
100
AcDbSymbolTableRecord
100
AcDbLayerTableRecord
2
1
70
0
62
4
6
CONTINUOUS
290
1
370
-3
390
0
0
LAYER
5
1F3
100
AcDbSymbolTableRecord
100
AcDbLayerTableRecord
2
2
70
0
62
7
6
CONTINUOUS
290
1
370
-3
390
0
0
LAYER
5
275
100
AcDbSymbolTableRecord
100
AcDbLayerTableRecord
2
SK1
70
0
62
4
6
CONTINUOUS
290
1
370
-3
390
0
0
LAYER
5
276
100
AcDbSymbolTableRecord
100
AcDbLayerTableRecord
2
SK4
70
0
62
2
6
CENTER
290
1
370
-3
390
0
0
LAYER
5
277
100
AcDbSymbolTableRecord
100
AcDbLayerTableRecord
2
SK6
70
0
62
5
6
CONTINUOUS
290
1
370
-3
390
0
0
LAYER
5
278
100
AcDbSymbolTableRecord
100
AcDbLayerTableRecord
2
SK2
70
0
62
7
6
CONTINUOUS
290
1
370
-3
390
0
0
ENDTAB
0
TABLE
2
STYLE
5
28c
100
AcDbSymbolTable
0
STYLE
5
11
100
AcDbSymbolTableRecord
100
AcDbTextStyleTableRecord
2
Standard
3
txt
70
0
71
0
40
0
41
1
42
0
50
0
0
STYLE
5
1D8
100
AcDbSymbolTableRecord
100
AcDbTextStyleTableRecord
2
iso_b_vert
3
simplex.shx
70
0
71
0
40
0
41
1
42
0
50
0
0
STYLE
5
1D9
100
AcDbSymbolTableRecord
100
AcDbTextStyleTableRecord
2
DWGDirectTextStyle
3
simplex
70
0
71
0
40
0
41
1
42
0
50
0
0
ENDTAB
0
TABLE
2
DIMSTYLE
5
28d
100
AcDbSymbolTable
100
AcDbDimStyleTable
0
DIMSTYLE
105
27
100
AcDbSymbolTableRecord
100
AcDbDimStyleTableRecord
2
Standard
70
0
3
<>
41
0.18
42
0.0625
44
0.18
140
0.18
147
0.09
73
0
74
0
77
1
271
2
275
0
278
52
280
0
340
11
0
ENDTAB
0
TABLE
2
VIEW
5
28e
100
AcDbSymbolTable
0
ENDTAB
0
TABLE
2
UCS
5
28f
100
AcDbSymbolTable
0
ENDTAB
0
TABLE
2
APPID
5
290
100
AcDbSymbolTable
0
APPID
5
12
100
AcDbSymbolTableRecord
100
AcDbRegAppTableRecord
2
ACAD
70
0
0
ENDTAB
0
TABLE
2
BLOCK_RECORD
5
291
100
AcDbSymbolTable
0
BLOCK_RECORD
5
1F
100
AcDbSymbolTableRecord
100
AcDbBlockTableRecord
2
*Model_Space
340
0
70
0
0
BLOCK_RECORD
5
1B
100
AcDbSymbolTableRecord
100
AcDbBlockTableRecord
2
*Paper_Space
340
0
70
0
0
BLOCK_RECORD
5
23
100
AcDbSymbolTableRecord
100
AcDbBlockTableRecord
2
*Paper_Space0
340
0
70
0
0
BLOCK_RECORD
5
1DB
100
AcDbSymbolTableRecord
100
AcDbBlockTableRecord
2
DimnDraft3D1
340
0
70
0
0
BLOCK_RECORD
5
1EA
100
AcDbSymbolTableRecord
100
AcDbBlockTableRecord
2
_CLOSED
340
0
70
0
0
BLOCK_RECORD
5
1F1
100
AcDbSymbolTableRecord
100
AcDbBlockTableRecord
2
DimnDraft3D2
340
0
70
0
0
BLOCK_RECORD
5
200
100
AcDbSymbolTableRecord
100
AcDbBlockTableRecord
2
DimnDraft3D3
340
0
70
0
0
BLOCK_RECORD
5
20E
100
AcDbSymbolTableRecord
100
AcDbBlockTableRecord
2
DimnDraft3D4
340
0
70
0
0
ENDTAB
0
ENDSEC
0
SECTION
2
BLOCKS
0
BLOCK
5
20
100
AcDbEntity
8
0
100
AcDbBlockBegin
2
*Model_Space
70
0
10
0
20
0
30
0
3
*Model_Space
0
ENDBLK
5
21
100
AcDbEntity
8
0
100
AcDbBlockEnd
0
BLOCK
5
1C
100
AcDbEntity
8
0
100
AcDbBlockBegin
2
*Paper_Space
70
0
10
0
20
0
30
0
3
*Paper_Space
0
ENDBLK
5
1D
100
AcDbEntity
8
0
100
AcDbBlockEnd
0
BLOCK
5
24
100
AcDbEntity
8
0
100
AcDbBlockBegin
2
*Paper_Space0
70
0
10
0
20
0
30
0
3
*Paper_Space0
0
ENDBLK
5
25
100
AcDbEntity
8
0
100
AcDbBlockEnd
0
BLOCK
5
1E7
100
AcDbEntity
8
0
100
AcDbBlockBegin
2
DimnDraft3D1
70
0
10
0
20
0
30
0
3
DimnDraft3D1
0
MTEXT
5
1DC
100
AcDbEntity
8
SK2
62
256
6
ByLayer
370
18
48
1
60
0
100
AcDbMText
10
-50.450262
20
-4.452632
30
0
210
0
220
0
230
1
1
\W1.2949;%%c63
40
3
41
0
44
1.084337
50
90
71
7
72
5
7
iso_b_vert
0
LINE
5
1DE
100
AcDbEntity
8
SK2
62
256
6
ByLayer
370
13
48
1
60
0
100
AcDbLine
10
-1.7
20
-31.5
30
0
11
-50.950262
21
-31.5
31
0
39
0
210
0
220
0
230
1
0
LINE
5
1DF
100
AcDbEntity
8
SK2
62
256
6
ByLayer
370
13
48
1
60
0
100
AcDbLine
10
-1.7
20
31.5
30
0
11
-50.950262
21
31.5
31
0
39
0
210
0
220
0
230
1
0
LINE
5
1E0
100
AcDbEntity
8
SK2
62
256
6
ByLayer
370
13
48
1
60
0
100
AcDbLine
10
-48.950262
20
-31.5
30
0
11
-48.950262
21
31.5
31
0
39
0
210
0
220
0
230
1
0
LINE
5
1E1
100
AcDbEntity
8
SK2
62
256
6
ByLayer
370
13
48
1
60
0
100
AcDbLine
10
-48.950262
20
-31.5
30
0
11
-49.368259
21
-28.325002
31
0
39
0
210
0
220
0
230
1
0
LINE
5
1E2
100
AcDbEntity
8
SK2
62
256
6
ByLayer
370
13
48
1
60
0
100
AcDbLine
10
-48.950262
20
-31.5
30
0
11
-48.532265
21
-28.324998
31
0
39
0
210
0
220
0
230
1
0
LINE
5
1E3
100
AcDbEntity
8
SK2
62
256
6
ByLayer
370
13
48
1
60
0
100
AcDbLine
10
-49.368259
20
-28.325002
30
0
11
-48.532265
21
-28.324998
31
0
39
0
210
0
220
0
230
1
0
LINE
5
1E4
100
AcDbEntity
8
SK2
62
256
6
ByLayer
370
13
48
1
60
0
100
AcDbLine
10
-48.950262
20
31.5
30
0
11
-48.532265
21
28.325002
31
0
39
0
210
0
220
0
230
1
0
LINE
5
1E5
100
AcDbEntity
8
SK2
62
256
6
ByLayer
370
13
48
1
60
0
100
AcDbLine
10
-48.950262
20
31.5
30
0
11
-49.368259
21
28.324998
31
0
39
0
210
0
220
0
230
1
0
LINE
5
1E6
100
AcDbEntity
8
SK2
62
256
6
ByLayer
370
13
48
1
60
0
100
AcDbLine
10
-48.532265
20
28.325002
30
0
11
-49.368259
21
28.324998
31
0
39
0
210
0
220
0
230
1
0
ENDBLK
5
1E8
100
AcDbEntity
8
0
100
AcDbBlockEnd
0
BLOCK
5
1EB
100
AcDbEntity
8
0
100
AcDbBlockBegin
2
_CLOSED
70
0
10
0
20
0
30
0
3
_CLOSED
0
LINE
5
1ED
100
AcDbEntity
8
0
62
256
6
ByLayer
370
-2
48
1
60
0
100
AcDbLine
10
-1
20
0.166667
30
0
11
0
21
0
31
0
39
0
210
0
220
0
230
1
0
LINE
5
1EE
100
AcDbEntity
8
0
62
256
6
ByLayer
370
-2
48
1
60
0
100
AcDbLine
10
0
20
0
30
0
11
-1
21
-0.166667
31
0
39
0
210
0
220
0
230
1
0
LINE
5
1EF
100
AcDbEntity
8
0
62
256
6
ByLayer
370
-2
48
1
60
0
100
AcDbLine
10
-1
20
0.166667
30
0
11
-1
21
-0.166667
31
0
39
0
210
0
220
0
230
1
0
LINE
5
1F0
100
AcDbEntity
8
0
62
256
6
ByLayer
370
-2
48
1
60
0
100
AcDbLine
10
0
20
0
30
0
11
-1
21
0
31
0
39
0
210
0
220
0
230
1
0
ENDBLK
5
1EC
100
AcDbEntity
8
0
100
AcDbBlockEnd
0
BLOCK
5
1FD
100
AcDbEntity
8
0
100
AcDbBlockBegin
2
DimnDraft3D2
70
0
10
0
20
0
30
0
3
DimnDraft3D2
0
MTEXT
5
1F2
100
AcDbEntity
8
2
62
256
6
ByLayer
370
18
48
1
60
0
100
AcDbMText
10
107.067132
20
11.375248
30
0
210
0
220
0
230
1
1
\W0.7246;0.4
40
3
41
0
44
1.084337
50
90
71
7
72
5
7
iso_b_vert
0
LINE
5
1F4
100
AcDbEntity
8
2
62
256
6
ByLayer
370
13
48
1
60
0
100
AcDbLine
10
92.221081
20
0.370248
30
0
11
109.817132
21
0.370248
31
0
39
0
210
0
220
0
230
1
0
LINE
5
1F5
100
AcDbEntity
8
2
62
256
6
ByLayer
370
13
48
1
60
0
100
AcDbLine
10
98.881627
20
0
30
0
11
109.817132
21
0
31
0
39
0
210
0
220
0
230
1
0
LINE
5
1F6
100
AcDbEntity
8
2
62
256
6
ByLayer
370
13
48
1
60
0
100
AcDbLine
10
107.817132
20
-7.5
30
0
11
107.817132
21
15.622617
31
0
39
0
210
0
220
0
230
1
0
LINE
5
1F7
100
AcDbEntity
8
2
62
256
6
ByLayer
370
13
48
1
60
0
100
AcDbLine
10
107.817132
20
0.370248
30
0
11
107.399135
21
3.545247
31
0
39
0
210
0
220
0
230
1
0
LINE
5
1F8
100
AcDbEntity
8
2
62
256
6
ByLayer
370
13
48
1
60
0
100
AcDbLine
10
107.817132
20
0.370248
30
0
11
108.235128
21
3.54525
31
0
39
0
210
0
220
0
230
1
0
LINE
5
1F9
100
AcDbEntity
8
2
62
256
6
ByLayer
370
13
48
1
60
0
100
AcDbLine
10
107.399135
20
3.545247
30
0
11
108.235128
21
3.54525
31
0
39
0
210
0
220
0
230
1
0
LINE
5
1FA
100
AcDbEntity
8
2
62
256
6
ByLayer
370
13
48
1
60
0
100
AcDbLine
10
107.817132
20
0
30
0
11
108.235128
21
-3.174998
31
0
39
0
210
0
220
0
230
1
0
LINE
5
1FB
100
AcDbEntity
8
2
62
256
6
ByLayer
370
13
48
1
60
0
100
AcDbLine
10
107.817132
20
0
30
0
11
107.399135
21
-3.175002
31
0
39
0
210
0
220
0
230
1
0
LINE
5
1FC
100
AcDbEntity
8
2
62
256
6
ByLayer
370
13
48
1
60
0
100
AcDbLine
10
108.235128
20
-3.174998
30
0
11
107.399135
21
-3.175002
31
0
39
0
210
0
220
0
230
1
0
ENDBLK
5
1FE
100
AcDbEntity
8
0
100
AcDbBlockEnd
0
BLOCK
5
20B
100
AcDbEntity
8
0
100
AcDbBlockBegin
2
DimnDraft3D3
70
0
10
0
20
0
30
0
3
DimnDraft3D3
0
MTEXT
5
201
100
AcDbEntity
8
2
62
256
6
ByLayer
370
18
48
1
60
0
100
AcDbMText
10
44.107909
20
-44.939234
30
0
210
0
220
0
230
1
1
\W0.6563;90
40
3
41
0
44
1.084337
50
0
71
7
72
5
7
iso_b_vert
0
LINE
5
202
100
AcDbEntity
8
2
62
256
6
ByLayer
370
13
48
1
60
0
100
AcDbLine
10
90.221081
20
-1.629752
30
0
11
90.221081
21
-47.689234
31
0
39
0
210
0
220
0
230
1
0
LINE
5
203
100
AcDbEntity
8
2
62
256
6
ByLayer
370
13
48
1
60
0
100
AcDbLine
10
0
20
-33.2
30
0
11
0
21
-47.689234
31
0
39
0
210
0
220
0
230
1
0
LINE
5
204
100
AcDbEntity
8
2
62
256
6
ByLayer
370
13
48
1
60
0
100
AcDbLine
10
90.221081
20
-45.689234
30
0
11
0
21
-45.689234
31
0
39
0
210
0
220
0
230
1
0
LINE
5
205
100
AcDbEntity
8
2
62
256
6
ByLayer
370
13
48
1
60
0
100
AcDbLine
10
90.221081
20
-45.689234
30
0
11
87.046082
21
-46.107231
31
0
39
0
210
0
220
0
230
1
0
LINE
5
206
100
AcDbEntity
8
2
62
256
6
ByLayer
370
13
48
1
60
0
100
AcDbLine
10
90.221081
20
-45.689234
30
0
11
87.046079
21
-45.271237
31
0
39
0
210
0
220
0
230
1
0
LINE
5
207
100
AcDbEntity
8
2
62
256
6
ByLayer
370
13
48
1
60
0
100
AcDbLine
10
87.046082
20
-46.107231
30
0
11
87.046079
21
-45.271237
31
0
39
0
210
0
220
0
230
1
0
LINE
5
208
100
AcDbEntity
8
2
62
256
6
ByLayer
370
13
48
1
60
0
100
AcDbLine
10
0
20
-45.689234
30
0
11
3.174998
21
-45.271237
31
0
39
0
210
0
220
0
230
1
0
LINE
5
209
100
AcDbEntity
8
2
62
256
6
ByLayer
370
13
48
1
60
0
100
AcDbLine
10
0
20
-45.689234
30
0
11
3.175002
21
-46.107231
31
0
39
0
210
0
220
0
230
1
0
LINE
5
20A
100
AcDbEntity
8
2
62
256
6
ByLayer
370
13
48
1
60
0
100
AcDbLine
10
3.174998
20
-45.271237
30
0
11
3.175002
21
-46.107231
31
0
39
0
210
0
220
0
230
1
0
ENDBLK
5
20C
100
AcDbEntity
8
0
100
AcDbBlockEnd
0
BLOCK
5
219
100
AcDbEntity
8
0
100
AcDbBlockBegin
2
DimnDraft3D4
70
0
10
0
20
0
30
0
3
DimnDraft3D4
0
MTEXT
5
20F
100
AcDbEntity
8
2
62
256
6
ByLayer
370
18
48
1
60
0
100
AcDbMText
10
73.791911
20
24.883702
30
0
210
0
220
0
230
1
1
\W0.7959;49%%d41'
40
3
41
0
44
1.084337
50
24.8457231612858
71
7
72
5
7
iso_b_vert
0
LINE
5
210
100
AcDbEntity
8
2
62
256
6
ByLayer
370
13
48
1
60
0
100
AcDbLine
10
90.221081
20
2.370248
30
0
11
90.221081
21
30.767946
31
0
39
0
210
0
220
0
230
1
0
LINE
5
211
100
AcDbEntity
8
2
62
256
6
ByLayer
370
13
48
1
60
0
100
AcDbLine
10
79.865722
20
9.154889
30
0
11
67.040655
21
20.034629
31
0
39
0
210
0
220
0
230
1
0
ARC
5
212
100
AcDbEntity
8
2
62
256
6
ByLayer
370
13
48
1
60
0
100
AcDbCircle
39
0
10
90.221081
20
0.370248
30
0
40
28.3976974045288
210
0
220
0
230
1
100
AcDbArc
50
90
51
139.691446
0
LINE
5
213
100
AcDbEntity
8
2
62
256
6
ByLayer
370
13
48
1
60
0
100
AcDbLine
10
90.221081
20
28.767946
30
0
11
87.05899
21
28.261471
31
0
39
0
210
0
220
0
230
1
0
LINE
5
214
100
AcDbEntity
8
2
62
256
6
ByLayer
370
13
48
1
60
0
100
AcDbLine
10
90.221081
20
28.767946
30
0
11
87.035647
21
29.097138
31
0
39
0
210
0
220
0
230
1
0
LINE
5
215
100
AcDbEntity
8
2
62
256
6
ByLayer
370
13
48
1
60
0
100
AcDbLine
10
87.05899
20
28.261471
30
0
11
87.035647
21
29.097138
31
0
39
0
210
0
220
0
230
1
0
LINE
5
216
100
AcDbEntity
8
2
62
256
6
ByLayer
370
13
48
1
60
0
100
AcDbLine
10
68.565799
20
18.740822
30
0
11
70.375432
21
21.382897
31
0
39
0
210
0
220
0
230
1
0
LINE
5
217
100
AcDbEntity
8
2
62
256
6
ByLayer
370
13
48
1
60
0
100
AcDbLine
10
68.565799
20
18.740822
30
0
11
70.997592
21
20.824505
31
0
39
0
210
0
220
0
230
1
0
LINE
5
218
100
AcDbEntity
8
2
62
256
6
ByLayer
370
13
48
1
60
0
100
AcDbLine
10
70.375432
20
21.382897
30
0
11
70.997592
21
20.824505
31
0
39
0
210
0
220
0
230
1
0
ENDBLK
5
21A
100
AcDbEntity
8
0
100
AcDbBlockEnd
0
ENDSEC
0
SECTION
2
ENTITIES
0
ARC
5
F5
100
AcDbEntity
8
1
62
256
6
ByLayer
370
18
48
1
60
0
100
AcDbCircle
39
0
10
62.749065
20
68.698704
30
0
40
55.0000000000046
210
0
220
0
230
1
100
AcDbArc
50
233.036361
51
264
0
ARC
5
F6
100
AcDbEntity
8
1
62
256
6
ByLayer
370
18
48
1
60
0
100
AcDbCircle
39
0
10
62.749065
20
-68.698704
30
0
40
54.9999999999884
210
0
220
0
230
1
100
AcDbArc
50
96
51
126.963639
0
ELLIPSE
5
F7
100
AcDbEntity
8
1
62
256
6
ByLayer
370
18
48
1
60
0
100
AcDbEllipse
10
12
20
-21.401377
30
0
11
-1.65000000000454
21
1.66755444089049E-15
31
0
210
0
220
0
230
1
40
0.642788
41
-0.498825975122138
42
0
0
ELLIPSE
5
F8
100
AcDbEntity
8
1
62
256
6
ByLayer
370
18
48
1
60
0
100
AcDbEllipse
10
12
20
-21.401377
30
0
11
-1.65
21
1.6675544408859E-15
31
0
210
0
220
0
230
1
40
0.642788
41
0
42
3.14159265358979
0
ELLIPSE
5
F9
100
AcDbEntity
8
1
62
256
6
ByLayer
370
18
48
1
60
0
100
AcDbEllipse
10
12
20
-21.401377
30
0
11
-1.65000000000887
21
1.66755444089486E-15
31
0
210
0
220
0
230
1
40
0.642788
41
3.14159265358979
42
-2.64276667846833
0
ELLIPSE
5
FA
100
AcDbEntity
8
1
62
256
6
ByLayer
370
18
48
1
60
0
100
AcDbEllipse
10
12
20
21.401377
30
0
11
-1.64999999999887
21
1.66755444088476E-15
31
0
210
0
220
0
230
1
40
0.642788
41
0
42
0.498825975122462
0
ELLIPSE
5
FB
100
AcDbEntity
8
1
62
256
6
ByLayer
370
18
48
1
60
0
100
AcDbEllipse
10
12
20
21.401377
30
0
11
-1.65
21
1.6675544408859E-15
31
0
210
0
220
0
230
1
40
0.642788
41
3.14159265358979
42
0
0
ELLIPSE
5
FC
100
AcDbEntity
8
1
62
256
6
ByLayer
370
18
48
1
60
0
100
AcDbEllipse
10
12
20
21.401377
30
0
11
-1.64999999999609
21
1.66755444088195E-15
31
0
210
0
220
0
230
1
40
0.642788
41
2.64276667846687
42
3.14159265358979
0
ELLIPSE
5
FD
100
AcDbEntity
8
1
62
256
6
ByLayer
370
18
48
1
60
0
100
AcDbEllipse
10
12
20
-21.401377
30
0
11
-2
21
2.02127811016473E-15
31
0
210
0
220
0
230
1
40
0.642788
41
0.134192642808625
42
3.00740001078056
0
ELLIPSE
5
FE
100
AcDbEntity
8
1
62
256
6
ByLayer
370
18
48
1
60
0
100
AcDbEllipse
10
12
20
21.401377
30
0
11
-2
21
2.02127811016473E-15
31
0
210
0
220
0
230
1
40
0.642788
41
-3.00740001078027
42
-0.134192642808675
0
ELLIPSE
5
FF
100
AcDbEntity
8
1
62
256
6
ByLayer
370
18
48
1
60
0
100
AcDbEllipse
10
27.676806
20
15.918653
30
0
11
-0.413238061491789
21
-2.16084110878898
31
0
210
0
220
0
230
1
40
0.172087
41
2.96599880977053
42
3.14159265358979
0
ELLIPSE
5
100
100
AcDbEntity
8
1
62
256
6
ByLayer
370
18
48
1
60
0
100
AcDbEllipse
10
27.676806
20
15.918653
30
0
11
-0.413238061819962
21
-2.16084111036959
31
0
210
0
220
0
230
1
40
0.172087
41
0.175593843752695
42
2.96599880983709
0
ELLIPSE
5
101
100
AcDbEntity
8
1
62
256
6
ByLayer
370
18
48
1
60
0
100
AcDbEllipse
10
27.918693
20
15.872395
30
0
11
-0.366279191158601
21
-1.91529098419122
31
0
210
0
220
0
230
1
40
0.172087
41
0.175593843752662
42
2.96599880983712
0
ELLIPSE
5
102
100
AcDbEntity
8
1
62
256
6
ByLayer
370
18
48
1
60
0
100
AcDbEllipse
10
67.637038
20
0.509533
30
0
11
1.40829730689573E-16
21
2.3
31
0
210
0
220
0
230
1
40
0.989133
41
0
42
6.28318530717959
0
ELLIPSE
5
103
100
AcDbEntity
8
1
62
256
6
ByLayer
370
18
48
1
60
0
100
AcDbEllipse
10
67.582112
20
-1.080611
30
0
11
2.60228850183913E-17
21
0.424999999994541
31
0
210
0
220
0
230
1
40
0.989133
41
-0.928778754039677
42
-0.21054230358696
0
ELLIPSE
5
104
100
AcDbEntity
8
1
62
256
6
ByLayer
370
18
48
1
60
0
100
AcDbEllipse
10
68.219822
20
-0.598567
30
0
11
2.32675207227592E-17
21
0.380000000002189
31
0
210
0
220
0
230
1
40
0.989133
41
2.21281389955865
42
3.14159265358979
0
ELLIPSE
5
105
100
AcDbEntity
8
1
62
256
6
ByLayer
370
18
48
1
60
0
100
AcDbEllipse
10
68.971714
20
-0.333629
30
0
11
2.60228850188071E-17
21
0.425000000001333
31
0
210
0
220
0
230
1
40
0.989133
41
1.18792668470645
42
1.90616313514984
0
ELLIPSE
5
106
100
AcDbEntity
8
1
62
256
6
ByLayer
370
18
48
1
60
0
100
AcDbEllipse
10
68.971714
20
-0.333629
30
0
11
2.60228850192061E-17
21
0.425000000007849
31
0
210
0
220
0
230
1
40
0.989133
41
0.118418797163563
42
0.83665524760053
0
ELLIPSE
5
107
100
AcDbEntity
8
1
62
256
6
ByLayer
370
18
48
1
60
0
100
AcDbEllipse
10
68.877643
20
0.465734
30
0
11
2.32675207226255E-17
21
0.380000000000005
31
0
210
0
220
0
230
1
40
0.989133
41
-3.02317385642715
42
-0.188231967242373
0
ELLIPSE
5
108
100
AcDbEntity
8
1
62
256
6
ByLayer
370
18
48
1
60
0
100
AcDbEllipse
10
69.02664
20
1.256515
30
0
11
2.60228850190561E-17
21
0.425000000005399
31
0
210
0
220
0
230
1
40
0.989133
41
2.23512423590715
42
2.95336068634598
0
ELLIPSE
5
109
100
AcDbEntity
8
1
62
256
6
ByLayer
370
18
48
1
60
0
100
AcDbEllipse
10
69.02664
20
1.256515
30
0
11
2.60228850179035E-17
21
0.424999999986575
31
0
210
0
220
0
230
1
40
0.989133
41
1.16561634834561
42
1.88385279881504
0
ELLIPSE
5
10A
100
AcDbEntity
8
1
62
256
6
ByLayer
370
18
48
1
60
0
100
AcDbEllipse
10
68.294859
20
1.573833
30
0
11
2.32675207226231E-17
21
0.379999999999966
31
0
210
0
220
0
230
1
40
0.989133
41
-1.9759763052308
42
0
0
ELLIPSE
5
10B
100
AcDbEntity
8
1
62
256
6
ByLayer
370
18
48
1
60
0
100
AcDbEllipse
10
67.691963
20
2.099676
30
0
11
2.60228850183204E-17
21
0.424999999993384
31
0
210
0
220
0
230
1
40
0.989133
41
-3.00086352008215
42
-2.28262706962878
0
ELLIPSE
5
10C
100
AcDbEntity
8
1
62
256
6
ByLayer
370
18
48
1
60
0
100
AcDbEllipse
10
67.691963
20
2.099676
30
0
11
2.6022885018795E-17
21
0.425000000001134
31
0
210
0
220
0
230
1
40
0.989133
41
2.21281389955672
42
2.9310503500008
0
ELLIPSE
5
10D
100
AcDbEntity
8
1
62
256
6
ByLayer
370
18
48
1
60
0
100
AcDbEllipse
10
67.054253
20
1.617632
30
0
11
2.32675207227076E-17
21
0.380000000001347
31
0
210
0
220
0
230
1
40
0.989133
41
-0.92877875403238
42
0
0
ELLIPSE
5
10E
100
AcDbEntity
8
1
62
256
6
ByLayer
370
18
48
1
60
0
100
AcDbEllipse
10
66.302361
20
1.352694
30
0
11
2.60228850189395E-17
21
0.425000000003494
31
0
210
0
220
0
230
1
40
0.989133
41
-1.95366596888126
42
-1.23542951844173
0
ELLIPSE
5
10F
100
AcDbEntity
8
1
62
256
6
ByLayer
370
18
48
1
60
0
100
AcDbEllipse
10
66.302361
20
1.352694
30
0
11
2.6022885018999E-17
21
0.425000000004466
31
0
210
0
220
0
230
1
40
0.989133
41
-3.02317385642681
42
-2.30493740598595
0
ELLIPSE
5
110
100
AcDbEntity
8
1
62
256
6
ByLayer
370
18
48
1
60
0
100
AcDbEllipse
10
66.396432
20
0.553332
30
0
11
2.32675207226254E-17
21
0.380000000000003
31
0
210
0
220
0
230
1
40
0.989133
41
0.118418797162552
42
2.95336068634748
0
ELLIPSE
5
111
100
AcDbEntity
8
1
62
256
6
ByLayer
370
18
48
1
60
0
100
AcDbEllipse
10
66.247435
20
-0.237449
30
0
11
2.60228850187923E-17
21
0.425000000001091
31
0
210
0
220
0
230
1
40
0.989133
41
-0.906468417686933
42
-0.188231967242474
0
ELLIPSE
5
112
100
AcDbEntity
8
1
62
256
6
ByLayer
370
18
48
1
60
0
100
AcDbEllipse
10
66.247435
20
-0.237449
30
0
11
2.60228850180389E-17
21
0.424999999988786
31
0
210
0
220
0
230
1
40
0.989133
41
-1.97597630524203
42
-1.25773985477647
0
ELLIPSE
5
113
100
AcDbEntity
8
1
62
256
6
ByLayer
370
18
48
1
60
0
100
AcDbEllipse
10
66.979216
20
-0.554768
30
0
11
2.32675207226206E-17
21
0.379999999999926
31
0
210
0
220
0
230
1
40
0.989133
41
1.16561634835903
42
3.14159265358979
0
ELLIPSE
5
114
100
AcDbEntity
8
1
62
256
6
ByLayer
370
18
48
1
60
0
100
AcDbEllipse
10
67.582112
20
-1.080611
30
0
11
2.60228850190218E-17
21
0.425000000004839
31
0
210
0
220
0
230
1
40
0.989133
41
0.140729133509161
42
0.858965583949463
0
ELLIPSE
5
115
100
AcDbEntity
8
1
62
256
6
ByLayer
370
18
48
1
60
0
100
AcDbEllipse
10
66.979216
20
-0.554768
30
0
11
2.32675207226394E-17
21
0.380000000000233
31
0
210
0
220
0
230
1
40
0.989133
41
3.14159265358979
42
-2.28262706963583
0
ELLIPSE
5
116
100
AcDbEntity
8
1
62
256
6
ByLayer
370
18
48
1
60
0
100
AcDbEllipse
10
67.054253
20
1.617632
30
0
11
2.32675207226295E-17
21
0.38000000000007
31
0
210
0
220
0
230
1
40
0.989133
41
0
42
1.90616313515088
0
ELLIPSE
5
117
100
AcDbEntity
8
1
62
256
6
ByLayer
370
18
48
1
60
0
100
AcDbEllipse
10
67.251308
20
-1.080611
30
0
11
2.60228850188518E-17
21
0.425000000002062
31
0
210
0
220
0
230
1
40
0.989133
41
0
42
0.858965583952134
0
ELLIPSE
5
118
100
AcDbEntity
8
1
62
256
6
ByLayer
370
18
48
1
60
0
100
AcDbEllipse
10
67.361159
20
2.099676
30
0
11
2.60228850185521E-17
21
0.424999999997168
31
0
210
0
220
0
230
1
40
0.989133
41
2.21281389955238
42
3.14159265358979
0
ELLIPSE
5
119
100
AcDbEntity
8
1
62
256
6
ByLayer
370
18
48
1
60
0
100
AcDbEllipse
10
68.219822
20
-0.598567
30
0
11
2.32675207226264E-17
21
0.38000000000002
31
0
210
0
220
0
230
1
40
0.989133
41
3.14159265358979
42
-1.23542951843895
0
ELLIPSE
5
11A
100
AcDbEntity
8
1
62
256
6
ByLayer
370
18
48
1
60
0
100
AcDbEllipse
10
67.889018
20
-0.598567
30
0
11
2.326752072262E-17
21
0.379999999999915
31
0
210
0
220
0
230
1
40
0.989133
41
-2.62083026489509
42
-1.23542951843877
0
ELLIPSE
5
11B
100
AcDbEntity
8
1
62
256
6
ByLayer
370
18
48
1
60
0
100
AcDbEllipse
10
68.294859
20
1.573833
30
0
11
2.32675207227337E-17
21
0.380000000001773
31
0
210
0
220
0
230
1
40
0.989133
41
0
42
0.858965583952176
0
ELLIPSE
5
11C
100
AcDbEntity
8
1
62
256
6
ByLayer
370
18
48
1
60
0
100
AcDbEllipse
10
67.964055
20
1.573833
30
0
11
2.32675207225766E-17
21
0.379999999999206
31
0
210
0
220
0
230
1
40
0.989133
41
-1.97597630523182
42
-0.508011995601877
0
ELLIPSE
5
11D
100
AcDbEntity
8
1
62
256
6
ByLayer
370
18
48
1
60
0
100
AcDbEllipse
10
68.64091
20
-0.333629
30
0
11
2.60228850187229E-17
21
0.424999999999957
31
0
210
0
220
0
230
1
40
0.989133
41
0.118418797162458
42
1.90616313515096
0
ELLIPSE
5
11E
100
AcDbEntity
8
1
62
256
6
ByLayer
370
18
48
1
60
0
100
AcDbEllipse
10
68.695836
20
1.256515
30
0
11
2.60228850187237E-17
21
0.424999999999971
31
0
210
0
220
0
230
1
40
0.989133
41
1.16561634835909
42
2.9533606863476
0
ELLIPSE
5
11F
100
AcDbEntity
8
1
62
256
6
ByLayer
370
18
48
1
60
0
100
AcDbEllipse
10
68.546839
20
0.465734
30
0
11
2.32675207226257E-17
21
0.380000000000009
31
0
210
0
220
0
230
1
40
0.989133
41
-3.02317385642715
42
-0.188231967242471
0
ELLIPSE
5
120
100
AcDbEntity
8
1
62
256
6
ByLayer
370
18
48
1
60
0
100
AcDbEllipse
10
67.151858
20
0.509533
30
0
11
2.44921270764506E-16
21
4.0000000000005
31
0
210
0
220
0
230
1
40
0.989133
41
1.81244551461444
42
3.14159265358979
0
ELLIPSE
5
121
100
AcDbEntity
8
1
62
256
6
ByLayer
370
18
48
1
60
0
100
AcDbEllipse
10
67.151858
20
0.509533
30
0
11
2.44921270766047E-16
21
4.00000000002566
31
0
210
0
220
0
230
1
40
0.989133
41
1.30881855021244
42
1.81244551461278
0
ELLIPSE
5
122
100
AcDbEntity
8
1
62
256
6
ByLayer
370
18
48
1
60
0
100
AcDbEllipse
10
67.151858
20
0.509533
30
0
11
2.44921270764487E-16
21
4.00000000000018
31
0
210
0
220
0
230
1
40
0.989133
41
0
42
1.30881855021069
0
ELLIPSE
5
123
100
AcDbEntity
8
1
62
256
6
ByLayer
370
18
48
1
60
0
100
AcDbEllipse
10
67.509598
20
0.509533
30
0
11
2.44921270764475E-16
21
4
31
0
210
0
220
0
230
1
40
0.989133
41
3.14159265358979
42
-0.0349065850398784
0
ELLIPSE
5
124
100
AcDbEntity
8
1
62
256
6
ByLayer
370
18
48
1
60
0
100
AcDbEllipse
10
67.509598
20
0.509533
30
0
11
2.44921270764475E-16
21
4
31
0
210
0
220
0
230
1
40
0.989133
41
0
42
3.14159265358979
0
ELLIPSE
5
125
100
AcDbEntity
8
1
62
256
6
ByLayer
370
18
48
1
60
0
100
AcDbEllipse
10
67.306234
20
0.509533
30
0
11
7.04148653449931E-17
21
1.15000000000337
31
0
210
0
220
0
230
1
40
0.989133
41
2.49675483734906
42
3.10668606854993
0
ELLIPSE
5
126
100
AcDbEntity
8
1
62
256
6
ByLayer
370
18
48
1
60
0
100
AcDbEllipse
10
67.306234
20
0.509533
30
0
11
7.04148653452306E-17
21
1.15000000000725
31
0
210
0
220
0
230
1
40
0.989133
41
1.23582964439147
42
1.80317676593129
0
ELLIPSE
5
127
100
AcDbEntity
8
1
62
256
6
ByLayer
370
18
48
1
60
0
100
AcDbEllipse
10
67.306234
20
0.509533
30
0
11
7.04148653443311E-17
21
1.14999999999256
31
0
210
0
220
0
230
1
40
0.989133
41
0
42
0.566995440444371
0
ELLIPSE
5
128
100
AcDbEntity
8
1
62
256
6
ByLayer
370
18
48
1
60
0
100
AcDbEllipse
10
67.306234
20
0.509533
30
0
11
7.04148653447867E-17
21
1.15
31
0
210
0
220
0
230
1
40
0.989133
41
3.14159265358979
42
-2.92805313065382E-16
0
ELLIPSE
5
129
100
AcDbEntity
8
1
62
256
6
ByLayer
370
18
48
1
60
0
100
AcDbEllipse
10
67.181263
20
0.509533
30
0
11
7.04148653447867E-17
21
1.15
31
0
210
0
220
0
230
1
40
0.989133
41
-3.0320901073235
42
-0.0349065850399082
0
ELLIPSE
5
12A
100
AcDbEntity
8
1
62
256
6
ByLayer
370
18
48
1
60
0
100
AcDbEllipse
10
27.676806
20
-15.918653
30
0
11
-0.413238061974204
21
2.16084111110738
31
0
210
0
220
0
230
1
40
0.172087
41
3.14159265358979
42
-2.96599880986826
0
ELLIPSE
5
12B
100
AcDbEntity
8
1
62
256
6
ByLayer
370
18
48
1
60
0
100
AcDbEllipse
10
27.676806
20
-15.918653
30
0
11
-0.413238061819959
21
2.16084111036959
31
0
210
0
220
0
230
1
40
0.172087
41
-2.96599880983711
42
-0.175593843752667
0
ELLIPSE
5
12C
100
AcDbEntity
8
1
62
256
6
ByLayer
370
18
48
1
60
0
100
AcDbEllipse
10
27.918693
20
-15.872395
30
0
11
-0.366279191158603
21
1.91529098419122
31
0
210
0
220
0
230
1
40
0.172087
41
-2.96599880983712
42
-0.175593843752678
0
ELLIPSE
5
12D
100
AcDbEntity
8
1
62
256
6
ByLayer
370
18
48
1
60
0
100
AcDbEllipse
10
61.016497
20
-3.491207
30
0
11
-0.966579851188154
21
1.7509207267253
31
0
210
0
220
0
230
1
40
0.77514
41
1.13365018190834
42
2.5463256761681
0
ELLIPSE
5
12E
100
AcDbEntity
8
1
62
256
6
ByLayer
370
18
48
1
60
0
100
AcDbEllipse
10
64.119339
20
3.201828
30
0
11
-5.49672190711971
21
0.189863827332063
31
0
210
0
220
0
230
1
40
0.005131
41
-1.17154380306971
42
-0.729776063766935
0
ELLIPSE
5
12F
100
AcDbEntity
8
1
62
256
6
ByLayer
370
18
48
1
60
0
100
AcDbEllipse
10
63.939834
20
-1.995004
30
0
11
-5.49672190718766
21
0.189863827334671
31
0
210
0
220
0
230
1
40
0.005131
41
-1.17154380306615
42
-0.729776063768472
0
ELLIPSE
5
130
100
AcDbEntity
8
1
62
256
6
ByLayer
370
18
48
1
60
0
100
AcDbEllipse
10
61.306917
20
4.916723
30
0
11
-1.06671494491664
21
-1.69177989889115
31
0
210
0
220
0
230
1
40
0.778426
41
-2.5603565635387
42
-1.14768106927921
0
ELLIPSE
5
131
100
AcDbEntity
8
1
62
256
6
ByLayer
370
18
48
1
60
0
100
AcDbEllipse
10
67.840774
20
0.483834
30
0
11
-0.0153887787888475
21
-4.14997146803293
31
0
210
0
220
0
230
1
40
0.986418
41
0.105322082909123
42
3.11034916473805
0
ELLIPSE
5
132
100
AcDbEntity
8
1
62
256
6
ByLayer
370
18
48
1
60
0
100
AcDbEllipse
10
65.740991
20
0.558159
30
0
11
-0.00964116261330002
21
-2.59998212455132
31
0
210
0
220
0
230
1
40
0.986418
41
-1.95576099642745
42
-1.17595601282689
0
ELLIPSE
5
133
100
AcDbEntity
8
1
62
256
6
ByLayer
370
18
48
1
60
0
100
AcDbEllipse
10
80.886038
20
7.252843
30
0
11
4.86168722465532E-17
21
0.793999999996812
31
0
210
0
220
0
230
1
40
0.989133
41
-0.698131700799211
42
0
0
ELLIPSE
5
134
100
AcDbEntity
8
1
62
256
6
ByLayer
370
18
48
1
60
0
100
AcDbEllipse
10
89.435709
20
0
30
0
11
4.86168722467386E-17
21
0.793999999999841
31
0
210
0
220
0
230
1
40
0.989133
41
-2.44346095279231
42
-0.69813170079749
0
ELLIPSE
5
135
100
AcDbEntity
8
1
62
256
6
ByLayer
370
18
48
1
60
0
100
AcDbEllipse
10
80.886038
20
-7.252843
30
0
11
4.86168722468166E-17
21
0.794000000001114
31
0
210
0
220
0
230
1
40
0.989133
41
2.44346095279259
42
3.14159265358979
0
ELLIPSE
5
136
100
AcDbEntity
8
1
62
256
6
ByLayer
370
18
48
1
60
0
100
AcDbEllipse
10
80.886038
20
0
30
0
11
1.57974219643087E-16
21
2.58
31
0
210
0
220
0
230
1
40
0.989133
41
-2.93907064327459
42
-0.273576069396691
0
ELLIPSE
5
137
100
AcDbEntity
8
1
62
256
6
ByLayer
370
18
48
1
60
0
100
AcDbEllipse
10
80.886038
20
7.252843
30
0
11
4.86168722470321E-17
21
0.794000000004633
31
0
210
0
220
0
230
1
40
0.989133
41
0
42
0.698131700795583
0
ELLIPSE
5
138
100
AcDbEntity
8
1
62
256
6
ByLayer
370
18
48
1
60
0
100
AcDbEllipse
10
80.886038
20
-7.252843
30
0
11
4.86168722465092E-17
21
0.793999999996093
31
0
210
0
220
0
230
1
40
0.989133
41
3.14159265358979
42
-2.44346095279025
0
ELLIPSE
5
139
100
AcDbEntity
8
1
62
256
6
ByLayer
370
18
48
1
60
0
100
AcDbEllipse
10
-2.358073
20
0
30
0
11
-14.7536831606547
21
-31.0932549155792
31
0
210
0
220
0
230
1
40
0.341999
41
2.03430384406489
42
2.99983569071639
0
ELLIPSE
5
13A
100
AcDbEntity
8
1
62
256
6
ByLayer
370
18
48
1
60
0
100
AcDbEllipse
10
26.358073
20
0
30
0
11
-14.7536831606568
21
31.0932549155816
31
0
210
0
220
0
230
1
40
0.341999
41
0.141756962873392
42
1.10728880952485
0
ELLIPSE
5
13B
100
AcDbEntity
8
1
62
256
6
ByLayer
370
18
48
1
60
0
100
AcDbEllipse
10
-2.358073
20
0
30
0
11
-14.7536831606576
21
31.0932549155827
31
0
210
0
220
0
230
1
40
0.341999
41
-2.99983569071641
42
-2.03430384406497
0
ELLIPSE
5
13C
100
AcDbEntity
8
1
62
256
6
ByLayer
370
18
48
1
60
0
100
AcDbEllipse
10
26.358073
20
0
30
0
11
-14.7536831606554
21
-31.0932549155798
31
0
210
0
220
0
230
1
40
0.341999
41
-1.10728880952489
42
-0.141756962873401
0
ELLIPSE
5
13D
100
AcDbEntity
8
1
62
256
6
ByLayer
370
18
48
1
60
0
100
AcDbEllipse
10
12
20
-19.123462
30
0
11
-1.88063044408997
21
-2.98790633195614
31
0
210
0
220
0
230
1
40
0.227788
41
-0.844019993370066
42
-0.347240910001346
0
ELLIPSE
5
13E
100
AcDbEntity
8
1
62
256
6
ByLayer
370
18
48
1
60
0
100
AcDbEllipse
10
12
20
21.45428
30
0
11
-1.65000000000001
21
1.66755444088591E-15
31
0
210
0
220
0
230
1
40
0.709808
41
0.498825975122336
42
2.64276667846746
0
ELLIPSE
5
13F
100
AcDbEntity
8
1
62
256
6
ByLayer
370
18
48
1
60
0
100
AcDbEllipse
10
12
20
-19.123462
30
0
11
-1.88063044407525
21
2.98790633193897
31
0
210
0
220
0
230
1
40
0.227788
41
2.9834730533084
42
-2.7943517435874
0
ELLIPSE
5
140
100
AcDbEntity
8
1
62
256
6
ByLayer
370
18
48
1
60
0
100
AcDbEllipse
10
12
20
19.123462
30
0
11
-1.88063044407228
21
-2.98790633193475
31
0
210
0
220
0
230
1
40
0.227788
41
2.2975726602161
42
2.79435174358711
0
ELLIPSE
5
141
100
AcDbEntity
8
1
62
256
6
ByLayer
370
18
48
1
60
0
100
AcDbEllipse
10
12
20
-21.45428
30
0
11
-1.65000000000001
21
1.66755444088591E-15
31
0
210
0
220
0
230
1
40
0.709808
41
-2.64276667846694
42
-0.498825975122871
0
ELLIPSE
5
142
100
AcDbEntity
8
1
62
256
6
ByLayer
370
18
48
1
60
0
100
AcDbEllipse
10
12
20
19.123462
30
0
11
-1.88063044407121
21
2.98790633193326
31
0
210
0
220
0
230
1
40
0.227788
41
-0.158119600281505
42
0.347240910002782
0
ELLIPSE
5
143
100
AcDbEntity
8
1
62
256
6
ByLayer
370
18
48
1
60
0
100
AcDbEllipse
10
12
20
-19.123462
30
0
11
-1.88063044406787
21
-2.98790633192806
31
0
210
0
220
0
230
1
40
0.227788
41
-0.347240910003068
42
0.158119600281646
0
ELLIPSE
5
144
100
AcDbEntity
8
1
62
256
6
ByLayer
370
18
48
1
60
0
100
AcDbEllipse
10
12
20
-19.123462
30
0
11
-1.88063044407691
21
2.98790633194037
31
0
210
0
220
0
230
1
40
0.227788
41
-2.79435174358748
42
-2.29757266021703
0
ELLIPSE
5
145
100
AcDbEntity
8
1
62
256
6
ByLayer
370
18
48
1
60
0
100
AcDbEllipse
10
12
20
-21.45428
30
0
11
-2
21
2.02127811016473E-15
31
0
210
0
220
0
230
1
40
0.709808
41
0.505360510284155
42
2.63623214330562
0
ELLIPSE
5
146
100
AcDbEntity
8
1
62
256
6
ByLayer
370
18
48
1
60
0
100
AcDbEllipse
10
12
20
19.123462
30
0
11
-1.88063044406046
21
2.98790633192051
31
0
210
0
220
0
230
1
40
0.227788
41
0.347240910003545
42
0.844019993376036
0
ELLIPSE
5
147
100
AcDbEntity
8
1
62
256
6
ByLayer
370
18
48
1
60
0
100
AcDbEllipse
10
12
20
19.123462
30
0
11
-1.88063044407551
21
-2.98790633193941
31
0
210
0
220
0
230
1
40
0.227788
41
2.79435174358742
42
-2.9834730533084
0
ELLIPSE
5
148
100
AcDbEntity
8
1
62
256
6
ByLayer
370
18
48
1
60
0
100
AcDbEllipse
10
12
20
21.45428
30
0
11
-2.00000000000002
21
2.02127811016475E-15
31
0
210
0
220
0
230
1
40
0.709808
41
-2.63623214330561
42
-0.505360510284152
0
ELLIPSE
5
149
100
AcDbEntity
8
1
62
256
6
ByLayer
370
18
48
1
60
0
100
AcDbEllipse
10
30.412241
20
-168.731395
30
0
11
-0.817852430086344
21
166.134951869975
31
0
210
0
220
0
230
1
40
0.029691
41
0.451756446911918
42
0.501571735673633
0
ELLIPSE
5
14A
100
AcDbEntity
8
1
62
256
6
ByLayer
370
18
48
1
60
0
100
AcDbEllipse
10
30.412238
20
-168.731243
30
0
11
-0.817849737683473
21
166.134799211771
31
0
210
0
220
0
230
1
40
0.029691
41
0.436383732285071
42
0.449398437092889
0
ELLIPSE
5
14B
100
AcDbEntity
8
1
62
256
6
ByLayer
370
18
48
1
60
0
100
AcDbEllipse
10
30.412247
20
-168.731734
30
0
11
-0.817857756364834
21
166.135292128239
31
0
210
0
220
0
230
1
40
0.029691
41
0.366751045087892
42
0.377824237290637
0
ELLIPSE
5
14C
100
AcDbEntity
8
1
62
256
6
ByLayer
370
18
48
1
60
0
100
AcDbEllipse
10
30.412241
20
168.731396
30
0
11
-0.817852460451232
21
-166.134953519275
31
0
210
0
220
0
230
1
40
0.029691
41
-0.501571733265933
42
-0.436383537450469
0
ELLIPSE
5
14D
100
AcDbEntity
8
1
62
256
6
ByLayer
370
18
48
1
60
0
100
AcDbEllipse
10
30.412252
20
168.732028
30
0
11
-0.817862410569391
21
-166.135586499522
31
0
210
0
220
0
230
1
40
0.029691
41
-0.377823910501376
42
-0.366750728818884
0
ELLIPSE
5
14E
100
AcDbEntity
8
1
62
256
6
ByLayer
370
18
48
1
60
0
100
AcDbEllipse
10
30.412241
20
48.001435
30
0
11
-4.93265824933038
21
-27.5457708678679
31
0
210
0
220
0
230
1
40
0.029691
41
-0.469149548882072
42
-0.16430880647365
0
ELLIPSE
5
14F
100
AcDbEntity
8
1
62
256
6
ByLayer
370
18
48
1
60
0
100
AcDbEllipse
10
30.412241
20
-48.001435
30
0
11
-4.93265824937228
21
27.5457708680808
31
0
210
0
220
0
230
1
40
0.029691
41
0.164308806473179
42
0.469149548880262
0
ELLIPSE
5
150
100
AcDbEntity
8
1
62
256
6
ByLayer
370
18
48
1
60
0
100
AcDbEllipse
10
-90.138857
20
-38.739932
30
0
11
-135.043267768418
21
-24.0704857693881
31
0
210
0
220
0
230
1
40
0.02187
41
2.61181625756463
42
2.62471101010514
0
ELLIPSE
5
151
100
AcDbEntity
8
1
62
256
6
ByLayer
370
18
48
1
60
0
100
AcDbEllipse
10
-54.144919
20
-32.302517
30
0
11
-101.283431009017
21
-18.0530266152122
31
0
210
0
220
0
230
1
40
0.02187
41
2.49000821744405
42
2.50497173859325
0
ELLIPSE
5
152
100
AcDbEntity
8
1
62
256
6
ByLayer
370
18
48
1
60
0
100
AcDbEllipse
10
56.731177
20
-8.151934
30
0
11
-5.59181493163522
21
0.201875732339772
31
0
210
0
220
0
230
1
40
0.714856
41
2.4530221488274
42
-3.14047835238873
0
ELLIPSE
5
153
100
AcDbEntity
8
1
62
256
6
ByLayer
370
18
48
1
60
0
100
AcDbEllipse
10
57.352541
20
9.837101
30
0
11
-5.59181493160625
21
0.20187573233661
31
0
210
0
220
0
230
1
40
0.714856
41
-3.14047835238901
42
-2.45079354642377
0
ELLIPSE
5
154
100
AcDbEntity
8
1
62
256
6
ByLayer
370
18
48
1
60
0
100
AcDbEllipse
10
64.195132
20
5.39613
30
0
11
-5.48942762496793
21
0.39503688922861
31
0
210
0
220
0
230
1
40
0.232279
41
0.565091219453915
42
0.618083526926258
0
ELLIPSE
5
155
100
AcDbEntity
8
1
62
256
6
ByLayer
370
18
48
1
60
0
100
AcDbEllipse
10
63.86404
20
-4.189306
30
0
11
-5.50361814327164
21
-0.0163856448412941
31
0
210
0
220
0
230
1
40
0.242526
41
-0.618512846315188
42
-0.56552054139266
0
ELLIPSE
5
156
100
AcDbEntity
8
1
62
256
6
ByLayer
370
18
48
1
60
0
100
AcDbEllipse
10
63.90334
20
-6.059184
30
0
11
-3.50469060977749
21
-0.105607634374556
31
0
210
0
220
0
230
1
40
0.37733
41
-0.633837118189093
42
0.0893809882082073
0
ELLIPSE
5
157
100
AcDbEntity
8
1
62
256
6
ByLayer
370
18
48
1
60
0
100
AcDbEllipse
10
64.363609
20
7.266009
30
0
11
-3.48919265958696
21
0.345188718279513
31
0
210
0
220
0
230
1
40
0.367116
41
-0.0902516022422753
42
0.63296650415615
0
ELLIPSE
5
158
100
AcDbEntity
8
1
62
256
6
ByLayer
370
18
48
1
60
0
100
AcDbEllipse
10
60.43665
20
-3.49514
30
0
11
-0.224171901232667
21
2.99169901106811
31
0
210
0
220
0
230
1
40
0.996504
41
1.46109678276085
42
2.5127858458247
0
ELLIPSE
5
159
100
AcDbEntity
8
1
62
256
6
ByLayer
370
18
48
1
60
0
100
AcDbEllipse
10
63.560308
20
-3.54501
30
0
11
-3.53653741128287
21
-2.38050045182328
31
0
210
0
220
0
230
1
40
0.500292
41
0.243977853849568
42
0.603593587207071
0
ELLIPSE
5
15A
100
AcDbEntity
8
1
62
256
6
ByLayer
370
18
48
1
60
0
100
AcDbEllipse
10
60.72662
20
4.899743
30
0
11
-0.224171901529946
21
2.99169901104607
31
0
210
0
220
0
230
1
40
0.996504
41
0.409407719597321
42
1.46109678266116
0
ELLIPSE
5
15B
100
AcDbEntity
8
1
62
256
6
ByLayer
370
18
48
1
60
0
100
AcDbEllipse
10
63.850278
20
4.849873
30
0
11
-3.38754369354908
21
2.52845223262923
31
0
210
0
220
0
230
1
40
0.495052
41
-0.601152221376714
42
-0.260795996487015
0
ELLIPSE
5
15C
100
AcDbEntity
8
1
62
256
6
ByLayer
370
18
48
1
60
0
100
AcDbEllipse
10
81.430992
20
-0.003839
30
0
11
-0.885031957935882
21
-2.08406466828917
31
0
210
0
220
0
230
1
40
0.7963
41
1.0067683926907
42
1.86197972616704
0
ELLIPSE
5
15D
100
AcDbEntity
8
1
62
256
6
ByLayer
370
18
48
1
60
0
100
AcDbEllipse
10
81.430992
20
-0.003839
30
0
11
-0.805298111561249
21
2.10481899889418
31
0
210
0
220
0
230
1
40
0.79487
41
-1.90093063748322
42
-1.04571930400278
0
POINT
5
6C
100
AcDbEntity
8
80
62
256
6
ByLayer
370
18
48
1
60
0
100
AcDbPoint
10
0
20
0
30
0
39
0
210
0
220
0
230
1
50
360
0
POINT
5
6E
100
AcDbEntity
8
81
62
256
6
ByLayer
370
18
48
1
60
0
100
AcDbPoint
10
90.221081
20
0.370248
30
0
39
0
210
0
220
0
230
1
50
360
0
SPLINE
5
15E
100
AcDbEntity
8
1
62
256
6
ByLayer
370
18
48
1
60
0
100
AcDbSpline
70
4
71
3
72
16
73
12
40
0
40
0
40
0
40
0
40
0.0289767469780047
40
0.160934878948021
40
0.289463332131064
40
0.418445292340222
40
0.547436727503583
40
0.675978146490009
40
0.783939855704397
40
0.892030294071031
40
1
40
1
40
1
40
1
41
1
10
22.0085051678304
20
31.7499999990548
30
0
41
1
10
22.0087523536762
20
31.7493494438588
30
0
41
1
10
22.0152617356327
20
31.7403336634324
30
0
41
1
10
22.075300195436
20
31.6773573499684
30
0
41
1
10
22.2757432590564
20
31.4559410811191
30
0
41
1
10
22.5867901922653
20
31.1197090627338
30
0
41
1
10
23.0101422079511
20
30.6720972224904
30
0
41
1
10
23.5173286482227
20
30.1491866440428
30
0
41
1
10
24.0893961730369
20
29.5752282425579
30
0
41
1
10
24.7056713559226
20
28.9746562839974
30
0
41
1
10
25.1681804718957
20
28.5398904296298
30
0
41
1
10
25.4122411146745
20
28.3135393163651
30
0
0
SPLINE
5
15F
100
AcDbEntity
8
1
62
256
6
ByLayer
370
18
48
1
60
0
100
AcDbSpline
70
4
71
3
72
16
73
12
40
0
40
0
40
0
40
0
40
0.0833521413075205
40
0.197480823181594
40
0.312071925113106
40
0.426805296100681
40
0.541366936228414
40
0.655470808577189
40
0.787122340924427
40
0.919267406733439
40
1
40
1
40
1
40
1
41
1
10
25.4122411146712
20
-28.313539316368
30
0
41
1
10
25.2237036019405
20
-28.4882751748077
30
0
41
1
10
24.7954910201614
20
-28.8893183041939
30
0
41
1
10
24.1876897803359
20
-29.4776413680165
30
0
41
1
10
23.6075895543881
20
-30.0566240665113
30
0
41
1
10
23.114660747494
20
-30.5630508896637
30
0
41
1
10
22.7107190061589
20
-30.9885415555642
30
0
41
1
10
22.3810406923433
20
-31.3428530178399
30
0
41
1
10
22.1431519555561
20
-31.6009356466267
30
0
41
1
10
22.0295154069383
20
-31.7244995168094
30
0
41
1
10
22.0090268971662
20
-31.7485763306205
30
0
41
1
10
22.0085051672368
20
-31.749999999709
30
0
0
SPLINE
5
160
100
AcDbEntity
8
1
62
256
6
ByLayer
370
18
48
1
60
0
100
AcDbSpline
70
4
71
3
72
17
73
13
40
0
40
0
40
0
40
0
40
0.0852672906376083
40
0.170582246318967
40
0.25533855023382
40
0.340166571700853
40
0.45838577029035
40
0.57675192825289
40
0.677114299155216
40
0.777825746118061
40
0.878260581143006
40
1
40
1
40
1
40
1
41
1
10
25.4122411146711
20
28.3135393163682
30
0
41
1
10
25.4132141734581
20
28.31251656204
30
0
41
1
10
25.4448639819166
20
28.2833309860238
30
0
41
1
10
25.5841043052291
20
28.1550783863918
30
0
41
1
10
25.8058296215425
20
27.9527148249422
30
0
41
1
10
26.1322917061633
20
27.6584647235281
30
0
41
1
10
26.5839491338193
20
27.2590762887791
30
0
41
1
10
27.1354333648219
20
26.7837376883241
30
0
41
1
10
27.7120688950086
20
26.3009521639267
30
0
41
1
10
28.2931490922428
20
25.8271889962116
30
0
41
1
10
28.9477278839511
20
25.3082043387741
30
0
41
1
10
29.4151710180635
20
24.9500478380968
30
0
41
1
10
29.6771213018189
20
24.7527543944019
30
0
0
SPLINE
5
161
100
AcDbEntity
8
1
62
256
6
ByLayer
370
18
48
1
60
0
100
AcDbSpline
70
4
71
3
72
17
73
13
40
0
40
0
40
0
40
0
40
0.118521971306106
40
0.225248030454787
40
0.332305527585569
40
0.438935224517438
40
0.552713585296358
40
0.666360753881185
40
0.756114251187916
40
0.845776949321689
40
0.922903266082811
40
1
40
1
40
1
40
1
41
1
10
29.6771213018157
20
-24.752754394404
30
0
41
1
10
29.4221207797367
20
-24.9448048441502
30
0
41
1
10
28.9479920196131
20
-25.3079022467007
30
0
41
1
10
28.2741286292002
20
-25.8422520335983
30
0
41
1
10
27.6586595663222
20
-26.3449531303038
30
0
41
1
10
27.0729338064745
20
-26.8369448806525
30
0
41
1
10
26.5342786413823
20
-27.3026672771043
30
0
41
1
10
26.0952691613254
20
-27.6915523344926
30
0
41
1
10
25.7704150237114
20
-27.984830383205
30
0
41
1
10
25.5594931482816
20
-28.1777076320144
30
0
41
1
10
25.4388064944023
20
-28.2889453943814
30
0
41
1
10
25.4129030455643
20
-28.3128433044895
30
0
41
1
10
25.4122411146711
20
-28.313539316368
30
0
0
SPLINE
5
162
100
AcDbEntity
8
1
62
256
6
ByLayer
370
18
48
1
60
0
100
AcDbSpline
70
4
71
3
72
20
73
16
40
0
40
0
40
0
40
0
40
0.159797970189646
40
0.319300932834544
40
0.38511610621359
40
0.450722136587902
40
0.516705622570934
40
0.548527074172457
40
0.580555005341203
40
0.609780829023486
40
0.657559167630828
40
0.703424695375521
40
0.749421714372419
40
0.891165897960394
40
1
40
1
40
1
40
1
41
1
10
27.3234820802269
20
-23.0713010206533
30
0
41
1
10
27.3127647684252
20
-23.3754231734121
30
0
41
1
10
27.2689822472321
20
-23.9784203875427
30
0
41
1
10
27.1765600475966
20
-24.7017244420192
30
0
41
1
10
27.0627558321324
20
-25.2343041959988
30
0
41
1
10
26.954922230416
20
-25.5794614305967
30
0
41
1
10
26.824911107966
20
-25.8397835711543
30
0
41
1
10
26.6824943623657
20
-25.9772445467371
30
0
41
1
10
26.5668769614616
20
-26.0162704113791
30
0
41
1
10
26.4367216020477
20
-25.9881428202016
30
0
41
1
10
26.3110585550307
20
-25.8832539198252
30
0
41
1
10
26.1953054422262
20
-25.7187375129784
30
0
41
1
10
26.0345431677502
20
-25.3990766843105
30
0
41
1
10
25.8868523846144
20
-24.9322806842454
30
0
41
1
10
25.7964784127604
20
-24.515763444832
30
0
41
1
10
25.7657074719796
20
-24.3275056023782
30
0
0
SPLINE
5
163
100
AcDbEntity
8
1
62
256
6
ByLayer
370
18
48
1
60
0
100
AcDbSpline
70
4
71
2
72
6
73
3
40
0
40
0
40
0
40
1
40
1
40
1
41
1
10
28.1829984682171
20
-18.489113704581
30
0
41
1
10
27.8572359529858
20
-18.9033872801612
30
0
41
1
10
27.5230997871029
20
-19.2734160348833
30
0
0
SPLINE
5
164
100
AcDbEntity
8
1
62
256
6
ByLayer
370
18
48
1
60
0
100
AcDbSpline
70
4
71
1
72
4
73
2
40
0
40
0
40
1
40
1
41
1
10
28.1829984682171
20
-18.489113704581
30
0
41
1
10
27.5327311726022
20
-19.1027496613927
30
0
0
SPLINE
5
165
100
AcDbEntity
8
1
62
256
6
ByLayer
370
18
48
1
60
0
100
AcDbSpline
70
4
71
3
72
10
73
6
40
0
40
0
40
0
40
0
40
0.0537426120374752
40
0.842597780241114
40
1
40
1
40
1
40
1
41
1
10
25.6427672924777
20
23.4981145110626
30
0
41
1
10
25.6445863723259
20
23.5133616753223
30
0
41
1
10
25.6735591785653
20
23.7521289245502
30
0
41
1
10
25.7071059497881
20
24.0362748978099
30
0
41
1
10
25.7583081670027
20
24.2926649154952
30
0
41
1
10
25.7671076557944
20
24.3351352779369
30
0
0
SPLINE
5
166
100
AcDbEntity
8
1
62
256
6
ByLayer
370
18
48
1
60
0
100
AcDbSpline
70
4
71
3
72
19
73
15
40
0
40
0
40
0
40
0
40
0.101737160997797
40
0.22801571280645
40
0.294427759948829
40
0.361196502029176
40
0.396624436668214
40
0.432391491029168
40
0.463770673912358
40
0.503768476285255
40
0.574754634236981
40
0.690015099438077
40
0.805853009551828
40
1
40
1
40
1
40
1
41
1
10
25.7671076557943
20
24.3351352779366
30
0
41
1
10
25.7955676164064
20
24.5108537945325
30
0
41
1
10
25.8755441318937
20
24.8911288807691
30
0
41
1
10
26.0196652746637
20
25.3545892788922
30
0
41
1
10
26.1896430082175
20
25.718154706993
30
0
41
1
10
26.3341148553139
20
25.9140474252464
30
0
41
1
10
26.4832905004171
20
26.0068675769599
30
0
41
1
10
26.610183727513
20
26.0117086417136
30
0
41
1
10
26.738418911022
20
25.9347200323671
30
0
41
1
10
26.8791136940281
20
25.7499898420449
30
0
41
1
10
27.0322962368938
20
25.3703690363378
30
0
41
1
10
27.1595297635342
20
24.820715911991
30
0
41
1
10
27.2618092736289
20
24.0240694665694
30
0
41
1
10
27.3093958338677
20
23.4402384667596
30
0
41
1
10
27.3234820802269
20
23.0713010206511
30
0
0
SPLINE
5
167
100
AcDbEntity
8
1
62
256
6
ByLayer
370
18
48
1
60
0
100
AcDbSpline
70
4
71
2
72
6
73
3
40
0
40
0
40
0
40
1
40
1
40
1
41
1
10
25.76570747198
20
-24.3275056023808
30
0
41
1
10
25.6917127981454
20
-23.9208119727469
30
0
41
1
10
25.6427672924777
20
-23.4981145110618
30
0
0
SPLINE
5
168
100
AcDbEntity
8
1
62
256
6
ByLayer
370
18
48
1
60
0
100
AcDbSpline
70
4
71
3
72
12
73
8
40
0
40
0
40
0
40
0
40
0.197229285261846
40
0.428368285089858
40
0.659128415003804
40
0.938856322502743
40
1
40
1
40
1
40
1
41
1
10
25.4098878442719
20
-20.0706356623197
30
0
41
1
10
25.4626604774996
20
-20.0147488812323
30
0
41
1
10
25.5883390369392
20
-19.8918294078284
30
0
41
1
10
25.8174882336196
20
-19.6889288924271
30
0
41
1
10
26.1228468048642
20
-19.4737982426285
30
0
41
1
10
26.4090872673762
20
-19.3428661609889
30
0
41
1
10
26.5937383669986
20
-19.2986048623019
30
0
41
1
10
26.6274006077863
20
-19.291464573844
30
0
0
SPLINE
5
169
100
AcDbEntity
8
1
62
256
6
ByLayer
370
18
48
1
60
0
100
AcDbSpline
70
4
71
3
72
12
73
8
40
0
40
0
40
0
40
0
40
0.150801954475976
40
0.382572883042877
40
0.613986070011705
40
0.841550154438449
40
1
40
1
40
1
40
1
41
1
10
25.409242058405
20
-20.5273936289274
30
0
41
1
10
25.445208924023
20
-20.4690483231696
30
0
41
1
10
25.5455815114311
20
-20.3193381310393
30
0
41
1
10
25.7419838666941
20
-20.0640487236414
30
0
41
1
10
26.0177096707356
20
-19.7857339106686
30
0
41
1
10
26.3271840333553
20
-19.5649359328422
30
0
41
1
10
26.5579636647687
20
-19.4864862121565
30
0
41
1
10
26.6587175094829
20
-19.4615204812628
30
0
0
SPLINE
5
16A
100
AcDbEntity
8
1
62
256
6
ByLayer
370
18
48
1
60
0
100
AcDbSpline
70
4
71
3
72
15
73
11
40
0
40
0
40
0
40
0
40
0.121432781348794
40
0.242857256103238
40
0.366312450963455
40
0.489949956517611
40
0.613040985309816
40
0.754325318927655
40
0.895551796214388
40
1
40
1
40
1
40
1
41
1
10
52.7597369002197
20
-5.03743422873816
30
0
41
1
10
52.7500566664575
20
-5.33599964794141
30
0
41
1
10
52.7772704960336
20
-5.9257170100292
30
0
41
1
10
52.9779031326042
20
-6.79965104701821
30
0
41
1
10
53.2835254440029
20
-7.64255014493262
30
0
41
1
10
53.655381607353
20
-8.463159903228
30
0
41
1
10
54.1462890676633
20
-9.27033029796066
30
0
41
1
10
54.7783261086037
20
-10.0277425037694
30
0
41
1
10
55.4856511132884
20
-10.6500513556821
30
0
41
1
10
55.9869497365778
20
-10.9659022994971
30
0
41
1
10
56.209871161527
20
-11.087437504647
30
0
0
SPLINE
5
16B
100
AcDbEntity
8
1
62
256
6
ByLayer
370
18
48
1
60
0
100
AcDbSpline
70
4
71
3
72
10
73
6
40
0
40
0
40
0
40
0
40
0.319932238903587
40
0.659954236309904
40
1
40
1
40
1
40
1
41
1
10
56.2098711617024
20
-11.0874375042967
30
0
41
1
10
56.2317273796331
20
-11.0991332781172
30
0
41
1
10
56.2769044583979
20
-11.1230789237286
30
0
41
1
10
56.3456506143476
20
-11.1588000870496
30
0
41
1
10
56.3926004479903
20
-11.1826965509558
30
0
41
1
10
56.4161261647477
20
-11.1945462780569
30
0
0
SPLINE
5
16C
100
AcDbEntity
8
1
62
256
6
ByLayer
370
18
48
1
60
0
100
AcDbSpline
70
4
71
3
72
10
73
6
40
0
40
0
40
0
40
0
40
0.323508598477525
40
0.661742977246535
40
1
40
1
40
1
40
1
41
1
10
56.4161261650431
20
-11.1945462770854
30
0
41
1
10
56.4382602912139
20
-11.2056950538163
30
0
41
1
10
56.4836227280176
20
-11.2283199311816
30
0
41
1
10
56.5524435916396
20
-11.2619535461673
30
0
41
1
10
56.5991814453546
20
-11.2843203622114
30
0
41
1
10
56.6225969599455
20
-11.2954077440542
30
0
0
SPLINE
5
16D
100
AcDbEntity
8
1
62
256
6
ByLayer
370
18
48
1
60
0
100
AcDbSpline
70
4
71
3
72
14
73
10
40
0
40
0
40
0
40
0
40
0.160358881527882
40
0.320619868274643
40
0.485251609247102
40
0.649816457427324
40
0.797514182329933
40
0.945225906727687
40
1
40
1
40
1
40
1
41
1
10
56.6225969601875
20
-11.2954077431421
30
0
41
1
10
56.8468528092284
20
-11.402021163209
30
0
41
1
10
57.3052705584051
20
-11.5752679886498
30
0
41
1
10
58.0379265649129
20
-11.7243638174043
30
0
41
1
10
58.790696235365
20
-11.7356047195816
30
0
41
1
10
59.5145919865754
20
-11.6106915850886
30
0
41
1
10
60.1770991574933
20
-11.3609749910121
30
0
41
1
10
60.6436724339574
20
-11.0882381484371
30
0
41
1
10
60.8915583324215
20
-10.900824383061
30
0
41
1
10
60.9572245329523
20
-10.8478596378361
30
0
0
SPLINE
5
16E
100
AcDbEntity
8
1
62
256
6
ByLayer
370
18
48
1
60
0
100
AcDbSpline
70
4
71
3
72
14
73
10
40
0
40
0
40
0
40
0
40
0.14376165929648
40
0.287513557104386
40
0.433698002136175
40
0.579901084704242
40
0.725043657217729
40
0.870233481789826
40
1
40
1
40
1
40
1
41
1
10
61.7543090753124
20
12.228426811024
30
0
41
1
10
61.5903986336708
20
12.3801434480637
30
0
41
1
10
61.2435377655882
20
12.6522329160792
30
0
41
1
10
60.6562913174489
20
12.9741233678409
30
0
41
1
10
60.020747202724
20
13.1898264909026
30
0
41
1
10
59.3561748100139
20
13.2962983053362
30
0
41
1
10
58.6854677931155
20
13.2891630206579
30
0
41
1
10
58.0481203479438
20
13.1816267461924
30
0
41
1
10
57.6474375075595
20
13.0539728958368
30
0
41
1
10
57.4611205519188
20
12.9805750046984
30
0
0
SPLINE
5
16F
100
AcDbEntity
8
1
62
256
6
ByLayer
370
18
48
1
60
0
100
AcDbSpline
70
4
71
3
72
10
73
6
40
0
40
0
40
0
40
0
40
0.323508576035844
40
0.661742938203781
40
1
40
1
40
1
40
1
41
1
10
57.4611205519718
20
12.9805750037094
30
0
41
1
10
57.4380489243794
20
12.9715762141531
30
0
41
1
10
57.3909284729104
20
12.9529830375606
30
0
41
1
10
57.3199444580078
20
12.9243104127332
30
0
41
1
10
57.2720846157593
20
12.904516669068
30
0
41
1
10
57.2481934267645
20
12.8945201411337
30
0
0
SPLINE
5
170
100
AcDbEntity
8
1
62
256
6
ByLayer
370
18
48
1
60
0
100
AcDbSpline
70
4
71
3
72
10
73
6
40
0
40
0
40
0
40
0
40
0.31993222307778
40
0.659954208224155
40
1
40
1
40
1
40
1
41
1
10
57.2481934269754
20
12.8945201401233
30
0
41
1
10
57.2253439722662
20
12.8849594589834
30
0
41
1
10
57.1782887686663
20
12.8650511008896
30
0
41
1
10
57.1072303137977
20
12.8343006660944
30
0
41
1
10
57.0590819924583
20
12.8129805075917
30
0
41
1
10
57.0350505137023
20
12.8022179700776
30
0
0
SPLINE
5
171
100
AcDbEntity
8
1
62
256
6
ByLayer
370
18
48
1
60
0
100
AcDbSpline
70
4
71
3
72
16
73
12
40
0
40
0
40
0
40
0
40
0.131649726003218
40
0.263474189893324
40
0.398658704099287
40
0.533867888047562
40
0.636382644140733
40
0.738974364396251
40
0.841111736409259
40
0.920611327398182
40
1
40
1
40
1
40
1
41
1
10
57.0350505137982
20
12.8022179696863
30
0
41
1
10
56.7437999787672
20
12.6681171973653
30
0
41
1
10
56.1898156589617
20
12.3579830408476
30
0
41
1
10
55.4358155897764
20
11.7489491107804
30
0
41
1
10
54.7713164961954
20
11.0324463167021
30
0
41
1
10
54.2643295461985
20
10.279594265678
30
0
41
1
10
53.8715172755044
20
9.55237784292795
30
0
41
1
10
53.5611353075935
20
8.87222938273066
30
0
41
1
10
53.3526412058714
20
8.21162655255591
30
0
41
1
10
53.2232743583684
20
7.58857301401541
30
0
41
1
10
53.1853097535745
20
7.20401703470879
30
0
41
1
10
53.1758799068752
20
7.01026550060317
30
0
0
SPLINE
5
172
100
AcDbEntity
8
1
62
256
6
ByLayer
370
18
48
1
60
0
100
AcDbSpline
70
4
71
3
72
19
73
15
40
0
40
0
40
0
40
0
40
0.101680376225678
40
0.203501214491095
40
0.306378583704412
40
0.413092332606487
40
0.530277269568454
40
0.651747916279087
40
0.727449293779331
40
0.78363205923484
40
0.834256114999374
40
0.888907073138868
40
0.944171114472245
40
1
40
1
40
1
40
1
41
1
10
56.2098711620361
20
-11.0874375046665
30
0
41
1
10
56.082646594433
20
-10.9713596962392
30
0
41
1
10
55.8383665153891
20
-10.725131294369
30
0
41
1
10
55.500881137866
20
-10.3100676252879
30
0
41
1
10
55.1915250016923
20
-9.850306072722
30
0
41
1
10
54.9087708431476
20
-9.32699518315401
30
0
41
1
10
54.6791768050432
20
-8.72363004214907
30
0
41
1
10
54.5164141641086
20
-8.151695938788
30
0
41
1
10
54.3985204246244
20
-7.68484644761245
30
0
41
1
10
54.3393042350221
20
-7.33919730612149
30
0
41
1
10
54.3098500038992
20
-7.02860037202332
30
0
41
1
10
54.2846952514871
20
-6.719212128282
30
0
41
1
10
54.2752836483925
20
-6.39776953383653
30
0
41
1
10
54.2779322414551
20
-6.18226003920127
30
0
41
1
10
54.2817149993259
20
-6.0738328548332
30
0
0
SPLINE
5
173
100
AcDbEntity
8
1
62
256
6
ByLayer
370
18
48
1
60
0
100
AcDbSpline
70
4
71
3
72
12
73
8
40
0
40
0
40
0
40
0
40
0.176944409549373
40
0.35247531917652
40
0.52941972872589
40
0.815933602366183
40
1
40
1
40
1
40
1
41
1
10
54.2817149993259
20
-6.0738328548361
30
0
41
1
10
54.1812099223467
20
-6.06983264176571
30
0
41
1
10
53.9835664366057
20
-6.04094974753339
30
0
41
1
10
53.6920446736103
20
-5.93443397457618
30
0
41
1
10
53.3550974922452
20
-5.73169723435357
30
0
41
1
10
53.0368283462993
20
-5.4338635555475
30
0
41
1
10
52.8348784145973
20
-5.15614688735162
30
0
41
1
10
52.7596673763298
20
-5.03774481276501
30
0
0
SPLINE
5
174
100
AcDbEntity
8
1
62
256
6
ByLayer
370
18
48
1
60
0
100
AcDbSpline
70
4
71
3
72
11
73
7
40
0
40
0
40
0
40
0
40
0.223725492686909
40
0.448779347534197
40
0.7243896737671
40
1
40
1
40
1
40
1
41
1
10
53.1758363962461
20
7.01055211010442
30
0
41
1
10
53.2771225895368
20
7.14656766441069
30
0
41
1
10
53.4895614158144
20
7.38963604959565
30
0
41
1
10
53.8665559353837
20
7.68752794235504
30
0
41
1
10
54.2966640876227
20
7.88689580762121
30
0
41
1
10
54.6071853141253
20
7.92418364865252
30
0
41
1
10
54.7649983796333
20
7.91763872343117
30
0
0
SPLINE
5
175
100
AcDbEntity
8
1
62
256
6
ByLayer
370
18
48
1
60
0
100
AcDbSpline
70
4
71
3
72
19
73
15
40
0
40
0
40
0
40
0
40
0.101680376225612
40
0.203501214490913
40
0.306378583704063
40
0.413092332605638
40
0.530277269566962
40
0.651747916278046
40
0.727449293779079
40
0.783632059235177
40
0.834256114999533
40
0.88890707313895
40
0.944171114472284
40
1
40
1
40
1
40
1
41
1
10
57.0350505141903
20
12.8022179700574
30
0
41
1
10
56.9000853271725
20
12.6941981559981
30
0
41
1
10
56.6393312886598
20
12.4634911923348
30
0
41
1
10
56.2739184252891
20
12.0700300075854
30
0
41
1
10
55.9334905741397
20
11.630238555367
30
0
41
1
10
55.6152227848963
20
11.1253991406942
30
0
41
1
10
55.3444778806523
20
10.5374111389853
30
0
41
1
10
55.1425916654362
20
9.97668395113404
30
0
41
1
10
54.992731005839
20
9.51806347501288
30
0
41
1
10
54.9097873995047
20
9.17678339376753
30
0
41
1
10
54.8589615582672
20
8.86865374284364
30
0
41
1
10
54.8125094878876
20
8.56146622344054
30
0
41
1
10
54.7809353148813
20
8.24128326308266
30
0
41
1
10
54.7687061295227
20
8.02606821305088
30
0
41
1
10
54.7649983796323
20
7.91763872342832
30
0
0
SPLINE
5
176
100
AcDbEntity
8
1
62
256
6
ByLayer
370
18
48
1
60
0
100
AcDbSpline
70
4
71
3
72
17
73
13
40
0
40
0
40
0
40
0
40
0.0802529714544857
40
0.159864851341297
40
0.240117822795782
40
0.370065922208059
40
0.500014021620335
40
0.629962121032611
40
0.694677150262632
40
0.760080621221781
40
0.880040310610892
40
1
40
1
40
1
40
1
41
1
10
56.9784460026673
20
-2.18238353110679
30
0
41
1
10
56.9727155390458
20
-2.35118123877478
30
0
41
1
10
56.9489041002169
20
-2.68383121760606
30
0
41
1
10
56.8756856462234
20
-3.17655553550436
30
0
41
1
10
56.7434292965133
20
-3.74894699723114
30
0
41
1
10
56.5260088986722
20
-4.3778752179827
30
0
41
1
10
56.1944489620017
20
-4.99971009849989
30
0
41
1
10
55.8645738034014
20
-5.41989987709188
30
0
41
1
10
55.5750916560313
20
-5.68309754710676
30
0
41
1
10
55.2839400462446
20
-5.88797508747544
30
0
41
1
10
54.9096886421215
20
-6.05364272746009
30
0
41
1
10
54.6115575731391
20
-6.08751229876223
30
0
41
1
10
54.4602254670593
20
-6.08123615606954
30
0
0
SPLINE
5
177
100
AcDbEntity
8
1
62
256
6
ByLayer
370
18
48
1
60
0
100
AcDbSpline
70
4
71
3
72
20
73
16
40
0
40
0
40
0
40
0
40
0.0954611577633982
40
0.190423686204098
40
0.286891044164504
40
0.38528033686995
40
0.485040453304323
40
0.585933952660491
40
0.641874070977278
40
0.702538367679678
40
0.766889033697344
40
0.820618933546108
40
0.860513065827671
40
0.928089036650726
40
1
40
1
40
1
40
1
41
1
10
61.5890735998421
20
-8.32679451789175
30
0
41
1
10
61.3464378670624
20
-8.31922829389926
30
0
41
1
10
60.8701121748512
20
-8.26026764580026
30
0
41
1
10
60.1687433464128
20
-8.03614451028946
30
0
41
1
10
59.4975305192124
20
-7.68288807865994
30
0
41
1
10
58.8706307235263
20
-7.19302108935303
30
0
41
1
10
58.3054160056595
20
-6.57962364948029
30
0
41
1
10
57.8873124549405
20
-5.96983732155551
30
0
41
1
10
57.5936806402289
20
-5.39854662531588
30
0
41
1
10
57.3971559212614
20
-4.88909309482588
30
0
41
1
10
57.2427174815304
20
-4.36540241527627
30
0
41
1
10
57.1184796015758
20
-3.89701001378299
30
0
41
1
10
57.024006855725
20
-3.40647933461912
30
0
41
1
10
56.9779397864886
20
-2.84559189768769
30
0
41
1
10
56.9714026635102
20
-2.4089169877016
30
0
41
1
10
56.9784460026674
20
-2.18238353110208
30
0
0
SPLINE
5
178
100
AcDbEntity
8
1
62
256
6
ByLayer
370
18
48
1
60
0
100
AcDbSpline
70
4
71
3
72
11
73
7
40
0
40
0
40
0
40
0
40
0.215389756160465
40
0.430779512320929
40
0.715389756160465
40
1
40
1
40
1
40
1
41
1
10
60.9572244816334
20
-10.8478597334791
30
0
41
1
10
61.0379742940622
20
-10.6971261774806
30
0
41
1
10
61.1848328029003
20
-10.3804020520615
30
0
41
1
10
61.3820469436356
20
-9.7990411709539
30
0
41
1
10
61.5314574669611
20
-9.1089046620571
30
0
41
1
10
61.5796287226103
20
-8.59173943711276
30
0
41
1
10
61.5890735998421
20
-8.32679451789036
30
0
0
SPLINE
5
179
100
AcDbEntity
8
1
62
256
6
ByLayer
370
18
48
1
60
0
100
AcDbSpline
70
4
71
3
72
19
73
15
40
0
40
0
40
0
40
0
40
0.100887001405219
40
0.202080416002897
40
0.303906078440371
40
0.407768028891361
40
0.520454629041127
40
0.643364751012654
40
0.724872140611936
40
0.78568364270837
40
0.835372205206646
40
0.889450173459108
40
0.944432922025573
40
1
40
1
40
1
40
1
41
1
10
56.6225969605171
20
-11.2954077435585
30
0
41
1
10
56.4829685302536
20
-11.1831305659609
30
0
41
1
10
56.2142553271346
20
-10.9419375163638
30
0
41
1
10
55.8409954013404
20
-10.5284257594505
30
0
41
1
10
55.5020235850265
20
-10.0644858428965
30
0
41
1
10
55.1870940005185
20
-9.54391092564823
30
0
41
1
10
54.9233066846448
20
-8.92956512215445
30
0
41
1
10
54.7392190441872
20
-8.32130501742287
30
0
41
1
10
54.6034008997279
20
-7.80509899331161
30
0
41
1
10
54.5259646291936
20
-7.42249799250137
30
0
41
1
10
54.4932307346205
20
-7.08646784327385
30
0
41
1
10
54.4649225764771
20
-6.7621420907147
30
0
41
1
10
54.4537014795241
20
-6.42335547750821
30
0
41
1
10
54.4562243447609
20
-6.19577886601405
30
0
41
1
10
54.4602254670613
20
-6.08123615606653
30
0
0
SPLINE
5
17A
100
AcDbEntity
8
1
62
256
6
ByLayer
370
18
48
1
60
0
100
AcDbSpline
70
4
71
3
72
20
73
16
40
0
40
0
40
0
40
0
40
0.0954611577633986
40
0.190423686204097
40
0.286891044164503
40
0.385280336869947
40
0.485040453304321
40
0.585933952660489
40
0.641874070977276
40
0.702538367679675
40
0.766889033697341
40
0.820618933546104
40
0.860513065827667
40
0.928089036650723
40
1
40
1
40
1
40
1
41
1
10
62.2104379459505
20
9.66224036845191
30
0
41
1
10
61.9677946779011
20
9.6695884398751
30
0
41
1
10
61.4884103883664
20
9.64000005180612
30
0
41
1
10
60.7730625062653
20
9.4594175012067
30
0
41
1
10
60.0788952683559
20
9.14812390252674
30
0
41
1
10
59.4195196787134
20
8.69778858685483
30
0
41
1
10
58.8131735885153
20
8.12039724648167
30
0
41
1
10
58.3538758586451
20
7.53757648243755
30
0
41
1
10
58.0214424303484
20
6.98552692782524
30
0
41
1
10
57.7901774839641
20
6.48922084742875
30
0
41
1
10
57.5999270604888
20
5.97612364405174
30
0
41
1
10
57.4436292404991
20
5.51635307102512
30
0
41
1
10
57.3155056787096
20
5.03266354320905
30
0
41
1
10
57.2308298590887
20
4.47579428564368
30
0
41
1
10
57.1941719674071
20
4.04044690725902
30
0
41
1
10
57.1855674513699
20
3.81396143100306
30
0
0
SPLINE
5
17B
100
AcDbEntity
8
1
62
256
6
ByLayer
370
18
48
1
60
0
100
AcDbSpline
70
4
71
3
72
15
73
11
40
0
40
0
40
0
40
0
40
0.125000000000012
40
0.250000000000001
40
0.374999999999999
40
0.499999999999999
40
0.624999999999999
40
0.749999999999999
40
0.875000000000001
40
1
40
1
40
1
40
1
41
1
10
54.9435088473675
20
7.91023542219769
30
0
41
1
10
55.1013219128755
20
7.90369049697644
30
0
41
1
10
55.4083694630094
20
7.8408033657301
30
0
41
1
10
55.8505884725495
20
7.59105368439772
30
0
41
1
10
56.2523048854733
20
7.2039664447566
30
0
41
1
10
56.5972512004582
20
6.68687514819041
30
0
41
1
10
56.8751625055903
20
6.06599642695933
30
0
41
1
10
57.0713520301429
20
5.36070073936945
30
0
41
1
10
57.1828178492314
20
4.5988601086667
30
0
41
1
10
57.194722788636
20
4.07901635812448
30
0
41
1
10
57.18556745137
20
3.81396143100459
30
0
0
SPLINE
5
17C
100
AcDbEntity
8
1
62
256
6
ByLayer
370
18
48
1
60
0
100
AcDbSpline
70
4
71
3
72
19
73
15
40
0
40
0
40
0
40
0
40
0.1008870014018
40
0.202080415998095
40
0.303906078432766
40
0.407768028877116
40
0.520454629013334
40
0.64336475098395
40
0.724872140601641
40
0.785683642712905
40
0.835372205209999
40
0.889450173460603
40
0.94443292202629
40
1
40
1
40
1
40
1
41
1
10
57.4611205531183
20
12.9805750046468
30
0
41
1
10
57.3140400895827
20
12.8771093790456
30
0
41
1
10
57.0292522331579
20
12.652927323768
30
0
41
1
10
56.6282477918097
20
12.2632113781064
30
0
41
1
10
56.2579787261281
20
11.8210688770871
30
0
41
1
10
55.9077925590478
20
11.3209352581228
30
0
41
1
10
55.6021691293181
20
10.7240894083687
30
0
41
1
10
55.376496310354
20
10.128422654024
30
0
41
1
10
55.2053432013084
20
9.62165091385929
30
0
41
1
10
55.1016681346022
20
9.24461608822522
30
0
41
1
10
55.0458144571416
20
8.91130854017487
30
0
41
1
10
54.9951848419148
20
8.58940881727156
30
0
41
1
10
54.9606081140563
20
8.25202972893489
30
0
41
1
10
54.9474207241437
20
8.02478087498381
30
0
41
1
10
54.9435088473676
20
7.91023542219461
30
0
0
SPLINE
5
17D
100
AcDbEntity
8
1
62
256
6
ByLayer
370
18
48
1
60
0
100
AcDbSpline
70
4
71
3
72
11
73
7
40
0
40
0
40
0
40
0
40
0.284610256884862
40
0.569220513769724
40
0.784610256884861
40
1
40
1
40
1
40
1
41
1
10
62.2104379459505
20
9.66224036845191
30
0
41
1
10
62.2192969828496
20
9.92720958402236
30
0
41
1
10
62.2069395365413
20
10.4468850942941
30
0
41
1
10
62.1055646718335
20
11.147422316317
30
0
41
1
10
61.9490192128362
20
11.7434545076151
30
0
41
1
10
61.8244296916185
20
12.0714362719915
30
0
41
1
10
61.7543090753119
20
12.2284268110251
30
0
0
SPLINE
5
17E
100
AcDbEntity
8
1
62
256
6
ByLayer
370
18
48
1
60
0
100
AcDbSpline
70
4
71
1
72
4
73
2
40
0
40
0
40
1
40
1
41
1
10
54.7649983796323
20
7.91763872343121
30
0
41
1
10
54.8542536135001
20
7.91393707281444
30
0
0
SPLINE
5
17F
100
AcDbEntity
8
1
62
256
6
ByLayer
370
18
48
1
60
0
100
AcDbSpline
70
4
71
1
72
4
73
2
40
0
40
0
40
1
40
1
41
1
10
54.8542536134999
20
7.91393707281445
30
0
41
1
10
54.9435088473678
20
7.91023542219768
30
0
0
SPLINE
5
180
100
AcDbEntity
8
1
62
256
6
ByLayer
370
18
48
1
60
0
100
AcDbSpline
70
4
71
1
72
4
73
2
40
0
40
0
40
1
40
1
41
1
10
54.4602254670612
20
-6.08123615606962
30
0
41
1
10
54.3709702331935
20
-6.07753450545286
30
0
0
SPLINE
5
181
100
AcDbEntity
8
1
62
256
6
ByLayer
370
18
48
1
60
0
100
AcDbSpline
70
4
71
1
72
4
73
2
40
0
40
0
40
1
40
1
41
1
10
54.3709702331935
20
-6.07753450545286
30
0
41
1
10
54.2817149993258
20
-6.0738328548361
30
0
0
SPLINE
5
182
100
AcDbEntity
8
1
62
256
6
ByLayer
370
18
48
1
60
0
100
AcDbSpline
70
4
71
3
72
19
73
15
40
0
40
0
40
0
40
0
40
0.101356956348397
40
0.202814075967907
40
0.305120752948718
40
0.410205271903762
40
0.525075767117612
40
0.647716170743086
40
0.726330217393525
40
0.784812410734591
40
0.834831443738245
40
0.88919822947871
40
0.944311756543764
40
1
40
1
40
1
40
1
41
1
10
56.4161261660476
20
-11.1945462781107
30
0
41
1
10
56.282548975789
20
-11.0800952470548
30
0
41
1
10
56.0259559777191
20
-10.8359684068921
30
0
41
1
10
55.6704655639649
20
-10.4212360253269
30
0
41
1
10
55.3467307325885
20
-9.95917415191322
30
0
41
1
10
55.0472275920661
20
-9.43777856180488
30
0
41
1
10
54.8007999351066
20
-8.82764937108707
30
0
41
1
10
54.6276516462939
20
-8.23649715121873
30
0
41
1
10
54.5005613888059
20
-7.74434542028996
30
0
41
1
10
54.4322980687544
20
-7.38061125599099
30
0
41
1
10
54.4015957983625
20
-7.05753045522091
30
0
41
1
10
54.3747679698285
20
-6.74083519284746
30
0
41
1
10
54.3644965449035
20
-6.41062087350182
30
0
41
1
10
54.3670776732024
20
-6.18903914066754
30
0
41
1
10
54.3709702331936
20
-6.07753450544984
30
0
0
SPLINE
5
183
100
AcDbEntity
8
1
62
256
6
ByLayer
370
18
48
1
60
0
100
AcDbSpline
70
4
71
3
72
19
73
15
40
0
40
0
40
0
40
0
40
0.101356956348367
40
0.202814075967855
40
0.305120752948626
40
0.410205271903563
40
0.525075767117246
40
0.647716170742773
40
0.726330217393429
40
0.784812410734672
40
0.83483144373829
40
0.889198229478732
40
0.944311756543775
40
1
40
1
40
1
40
1
41
1
10
57.2481934280577
20
12.8945201410801
30
0
41
1
10
57.1070013544037
20
12.7885137160472
30
0
41
1
10
56.8341055385791
20
12.5606598911526
30
0
41
1
10
56.4507486876718
20
12.1686348312589
30
0
41
1
10
56.0958138934581
20
11.7274308133642
30
0
41
1
10
55.7609648185414
20
11.2255310520936
30
0
41
1
10
55.4729552153745
20
10.6318269594428
30
0
41
1
10
55.259379150222
20
10.0525601111833
30
0
41
1
10
55.0985953874111
20
9.56925574058337
30
0
41
1
10
55.0053758037275
20
9.21048450220147
30
0
41
1
10
54.9524430671831
20
8.88997409330481
30
0
41
1
10
54.9038172168013
20
8.57559778241157
30
0
41
1
10
54.8707797148926
20
8.24671449558025
30
0
41
1
10
54.8580641669014
20
8.02544422837438
30
0
41
1
10
54.8542536135
20
7.91393707281145
30
0
0
SPLINE
5
184
100
AcDbEntity
8
SK1
62
256
6
ByLayer
370
18
48
1
60
0
100
AcDbSpline
70
4
71
3
72
17
73
13
40
0
40
0
40
0
40
0
40
0.0916970829334629
40
0.183391081738644
40
0.277661349850053
40
0.371929548727692
40
0.464104584053188
40
0.556279300755331
40
0.651207196052778
40
0.746136571187464
40
0.872254158021777
40
1
40
1
40
1
40
1
41
1
10
-1.51711681646352
20
4.3786878798765
30
0
41
1
10
-1.5739400281408
20
4.12869432918808
30
0
41
1
10
-1.6775232862672
20
3.62087590059026
30
0
41
1
10
-1.80439775990501
20
2.82608663455514
30
0
41
1
10
-1.90022165182402
20
2.00413186629958
30
0
41
1
10
-1.96318710703672
20
1.16611958867701
30
0
41
1
10
-1.99240375690217
20
0.325961475993842
30
0
41
1
10
-1.98885339463344
20
-0.518505925475287
30
0
41
1
10
-1.95125708283224
20
-1.36760756571797
30
0
41
1
10
-1.8712663083135
20
-2.30726174251292
30
0
41
1
10
-1.73442807616131
20
-3.32233241229979
30
0
41
1
10
-1.59645095399117
20
-4.02964723478354
30
0
41
1
10
-1.51711681646264
20
-4.37868787988033
30
0
0
SPLINE
5
185
100
AcDbEntity
8
SK1
62
256
6
ByLayer
370
18
48
1
60
0
100
AcDbSpline
70
4
71
1
72
4
73
2
40
0
40
0
40
1
40
1
41
1
10
-1.30710678118651
20
5.313222924113
30
0
41
1
10
-1.51711681646363
20
4.37868787987603
30
0
0
SPLINE
5
186
100
AcDbEntity
8
SK1
62
256
6
ByLayer
370
18
48
1
60
0
100
AcDbSpline
70
4
71
1
72
4
73
2
40
0
40
0
40
1
40
1
41
1
10
-1.51711681646358
20
-4.37868787987623
30
0
41
1
10
-1.30710678118647
20
-5.31322292411306
30
0
0
SPLINE
5
187
100
AcDbEntity
8
SK1
62
256
6
ByLayer
370
18
48
1
60
0
100
AcDbSpline
70
4
71
3
72
19
73
15
40
0
40
0
40
0
40
0
40
0.192560302658255
40
0.384638521604452
40
0.518100162726009
40
0.563684590672324
40
0.591267948733099
40
0.615713583718929
40
0.640028111718206
40
0.67092480378313
40
0.724987326986717
40
0.810145918538087
40
0.895622938748552
40
1
40
1
40
1
40
1
41
1
10
-1.30710678118651
20
5.313222924113
30
0
41
1
10
-1.27402334911851
20
5.48277265931843
30
0
41
1
10
-1.18708536872411
20
5.81487265612257
30
0
41
1
10
-1.02859246368757
20
6.24791798474797
30
0
41
1
10
-0.863173762912064
20
6.54325826313802
30
0
41
1
10
-0.715725648098689
20
6.67194967721648
30
0
41
1
10
-0.62724052525852
20
6.70967012909424
30
0
41
1
10
-0.550399782172601
20
6.71493498995791
30
0
41
1
10
-0.474497881287894
20
6.69401562568599
30
0
41
1
10
-0.386488410971474
20
6.63872896243086
30
0
41
1
10
-0.281619866340148
20
6.52322280754507
30
0
41
1
10
-0.177982435065305
20
6.35095205948304
30
0
41
1
10
-0.0825623421664831
20
6.12696757500811
30
0
41
1
10
-0.0265068918991448
20
5.96882442958287
30
0
41
1
10
3.909E-13
20
5.88020144346683
30
0
0
SPLINE
5
188
100
AcDbEntity
8
SK1
62
256
6
ByLayer
370
18
48
1
60
0
100
AcDbSpline
70
4
71
3
72
19
73
15
40
0
40
0
40
0
40
0
40
0.122287031711579
40
0.244130836272731
40
0.321457372863055
40
0.351082292034463
40
0.380997063343767
40
0.403347257500487
40
0.425633966240542
40
0.46281359246927
40
0.555914205367541
40
0.723007321623271
40
0.890852872519147
40
1
40
1
40
1
40
1
41
1
10
1.39E-14
20
-5.88020144346776
30
0
41
1
10
-0.028886307146713
20
-5.98491583646866
30
0
41
1
10
-0.102002960729745
20
-6.18773452757021
30
0
41
1
10
-0.226418320086413
20
-6.44454648783482
30
0
41
1
10
-0.353060079361129
20
-6.61068810985512
30
0
41
1
10
-0.457331369085789
20
-6.6857285259327
30
0
41
1
10
-0.533463690245304
20
-6.71311953047305
30
0
41
1
10
-0.608358068793059
20
-6.71244766982111
30
0
41
1
10
-0.685520550022708
20
-6.68794199951524
30
0
41
1
10
-0.805724464572148
20
-6.60374921848964
30
0
41
1
10
-0.963627155945646
20
-6.37974149216821
30
0
41
1
10
-1.11868960837548
20
-6.02964929191146
30
0
41
1
10
-1.22704515112996
20
-5.64890903546869
30
0
41
1
10
-1.28619964635399
20
-5.40867917751216
30
0
41
1
10
-1.30710678118686
20
-5.31322292411128
30
0
0
SPLINE
5
189
100
AcDbEntity
8
1
62
256
6
ByLayer
370
18
48
1
60
0
100
AcDbSpline
70
4
71
3
72
11
73
7
40
0
40
0
40
0
40
0
40
0.165080412346232
40
0.540696647123544
40
0.916508467179839
40
1
40
1
40
1
40
1
41
1
10
66.6473849119991
20
-0.106563060343699
30
0
41
1
10
66.6445352800808
20
-0.0990934605307957
30
0
41
1
10
66.6346321482484
20
-0.0746598992473737
30
0
41
1
10
66.6140729862891
20
-0.0316568710255826
30
0
41
1
10
66.5924533125718
20
0.0040769944994627
30
0
41
1
10
66.5805860511288
20
0.0214721092191136
30
0
41
1
10
66.5784148568945
20
0.0245758431712473
30
0
0
SPLINE
5
18A
100
AcDbEntity
8
1
62
256
6
ByLayer
370
18
48
1
60
0
100
AcDbSpline
70
4
71
3
72
11
73
7
40
0
40
0
40
0
40
0
40
0.0834915328201084
40
0.459303352876666
40
0.83491958765377
40
1
40
1
40
1
40
1
41
1
10
66.6144548643051
20
1.06796520832381
30
0
41
1
10
66.6168343380048
20
1.07089134491693
30
0
41
1
10
66.6298699783956
20
1.08732181060672
30
0
41
1
10
66.6538994640122
20
1.12135408244981
30
0
41
1
10
66.6773779515667
20
1.16286805348518
30
0
41
1
10
66.6889460371543
20
1.18663634248973
30
0
41
1
10
66.6923052896605
20
1.19392069917894
30
0
0
SPLINE
5
18B
100
AcDbEntity
8
1
62
256
6
ByLayer
370
18
48
1
60
0
100
AcDbSpline
70
4
71
2
72
6
73
3
40
0
40
0
40
0
40
1
40
1
40
1
41
1
10
67.5797293917988
20
-0.655610708124155
30
0
41
1
10
67.5495128949609
20
-0.655704472680075
30
0
41
1
10
67.5231471022261
20
-0.659812209467488
30
0
0
SPLINE
5
18C
100
AcDbEntity
8
1
62
256
6
ByLayer
370
18
48
1
60
0
100
AcDbSpline
70
4
71
2
72
6
73
3
40
0
40
0
40
0
40
1
40
1
40
1
41
1
10
67.669967582686
20
-0.66499562212731
30
0
41
1
10
67.6250152732336
20
-0.655695459457878
30
0
41
1
10
67.5797293917988
20
-0.655610708124155
30
0
0
SPLINE
5
18D
100
AcDbEntity
8
1
62
256
6
ByLayer
370
18
48
1
60
0
100
AcDbSpline
70
4
71
2
72
6
73
3
40
0
40
0
40
0
40
1
40
1
40
1
41
1
10
67.6900043737342
20
1.67467600120456
30
0
41
1
10
67.7210406129568
20
1.6747697657605
30
0
41
1
10
67.750927967758
20
1.67887750254789
30
0
0
SPLINE
5
18E
100
AcDbEntity
8
1
62
256
6
ByLayer
370
18
48
1
60
0
100
AcDbSpline
70
4
71
2
72
6
73
3
40
0
40
0
40
0
40
1
40
1
40
1
41
1
10
67.6041074872981
20
1.68406091520771
30
0
41
1
10
67.6436584950163
20
1.67476075253822
30
0
41
1
10
67.6900043737342
20
1.67467600120456
30
0
0
SPLINE
5
18F
100
AcDbEntity
8
1
62
256
6
ByLayer
370
18
48
1
60
0
100
AcDbSpline
70
4
71
3
72
11
73
7
40
0
40
0
40
0
40
0
40
0.0834915328202852
40
0.459303352876654
40
0.834919587653782
40
1
40
1
40
1
40
1
41
1
10
68.6596202056789
20
-0.0488999152434
30
0
41
1
10
68.6567609438622
20
-0.0518260518365342
30
0
41
1
10
68.6413044625687
20
-0.0682565175263875
30
0
41
1
10
68.6147263912172
20
-0.10228878936939
30
0
41
1
10
68.5931079173481
20
-0.143802760404774
30
0
41
1
10
68.584167171208
20
-0.167571049409314
30
0
41
1
10
68.5817697803236
20
-0.174855406098528
30
0
0
SPLINE
5
190
100
AcDbEntity
8
1
62
256
6
ByLayer
370
18
48
1
60
0
100
AcDbSpline
70
4
71
3
72
11
73
7
40
0
40
0
40
0
40
0
40
0.165080412346189
40
0.540696647123331
40
0.916508467179882
40
1
40
1
40
1
40
1
41
1
10
68.626690157985
20
1.12562835342411
30
0
41
1
10
68.6285779282815
20
1.1181587536112
30
0
41
1
10
68.6358537206664
20
1.09372519232778
30
0
41
1
10
68.6545528689403
20
1.05072216410603
30
0
41
1
10
68.6787211283922
20
1.01498829858096
30
0
41
1
10
68.6930092307382
20
0.997593183861297
30
0
41
1
10
68.6956602130896
20
0.994489449909163
30
0
0
SPLINE
5
191
100
AcDbEntity
8
1
62
256
6
ByLayer
370
18
48
1
60
0
100
AcDbSpline
70
4
71
3
72
14
73
10
40
0
40
0
40
0
40
0
40
0.185711059847536
40
0.374949563145766
40
0.487831160120501
40
0.600699303269453
40
0.717935915300256
40
0.835152857895956
40
1
40
1
40
1
40
1
41
1
10
63.5848622934277
20
-2.47091869829283
30
0
41
1
10
63.41066999905
20
-2.70323438057763
30
0
41
1
10
63.0627833809218
20
-3.15673853199179
30
0
41
1
10
62.6157912636789
20
-3.71305851966541
30
0
41
1
10
62.2483339949404
20
-4.14867867703212
30
0
41
1
10
61.9542597155914
20
-4.48266120246934
30
0
41
1
10
61.66974164214
20
-4.78866053883441
30
0
41
1
10
61.3611416799832
20
-5.09828254965793
30
0
41
1
10
61.1642217024134
20
-5.27310114024051
30
0
41
1
10
61.0557965859204
20
-5.36108510915484
30
0
0
SPLINE
5
192
100
AcDbEntity
8
1
62
256
6
ByLayer
370
18
48
1
60
0
100
AcDbSpline
70
4
71
3
72
12
73
8
40
0
40
0
40
0
40
0
40
0.181429666134873
40
0.366867448225743
40
0.582033047866577
40
0.802198386802963
40
1
40
1
40
1
40
1
41
1
10
59.3777085193738
20
-3.42872349230817
30
0
41
1
10
59.5225573841732
20
-3.3784467427456
30
0
41
1
10
59.8357917066418
20
-3.26123039159933
30
0
41
1
10
60.4049870667106
20
-3.02098469107644
30
0
41
1
10
61.07189239703
20
-2.71676132861284
30
0
41
1
10
61.8015832659945
20
-2.36392607607369
30
0
41
1
10
62.2998547930681
20
-2.11358636592857
30
0
41
1
10
62.5405141154498
20
-1.99047543003754
30
0
0
SPLINE
5
193
100
AcDbEntity
8
1
62
256
6
ByLayer
370
18
48
1
60
0
100
AcDbSpline
70
4
71
3
72
10
73
6
40
0
40
0
40
0
40
0
40
0.470923083159056
40
0.891368634980559
40
1
40
1
40
1
40
1
41
1
10
62.540514115448
20
-1.99047543003847
30
0
41
1
10
62.7203866273016
20
-2.03031801407664
30
0
41
1
10
63.0438827874854
20
-2.13676265095555
30
0
41
1
10
63.3946947295768
20
-2.32795959403075
30
0
41
1
10
63.5530577493922
20
-2.44589013404647
30
0
41
1
10
63.5848622934281
20
-2.47091869829318
30
0
0
SPLINE
5
194
100
AcDbEntity
8
1
62
256
6
ByLayer
370
18
48
1
60
0
100
AcDbSpline
70
4
71
3
72
13
73
9
40
0
40
0
40
0
40
0
40
0.0603518410059405
40
0.279656158929821
40
0.499060089569379
40
0.713052562211257
40
0.927135902611582
40
1
40
1
40
1
40
1
41
1
10
66.1477205444462
20
-3.59962651759003
30
0
41
1
10
66.0922789858484
20
-3.59768626232487
30
0
41
1
10
65.8367439836623
20
-3.58343969579917
30
0
41
1
10
65.3878658207056
20
-3.51336982455599
30
0
41
1
10
64.8349328771
20
-3.33565649683841
30
0
41
1
10
64.3321422113495
20
-3.07737714802284
30
0
41
1
10
63.9805756023536
20
-2.82179444745894
30
0
41
1
10
63.7950870153941
20
-2.65577668595002
30
0
41
1
10
63.7489691558683
20
-2.61230584409845
30
0
0
SPLINE
5
195
100
AcDbEntity
8
1
62
256
6
ByLayer
370
18
48
1
60
0
100
AcDbSpline
70
4
71
2
72
6
73
3
40
0
40
0
40
0
40
1
40
1
40
1
41
1
10
69.0334068413084
20
-3.61418839853838
30
0
41
1
10
68.6456415692927
20
-3.67921670904253
30
0
41
1
10
68.2572988789353
20
-3.67333641816748
30
0
0
SPLINE
5
196
100
AcDbEntity
8
1
62
256
6
ByLayer
370
18
48
1
60
0
100
AcDbSpline
70
4
71
3
72
14
73
10
40
0
40
0
40
0
40
0
40
0.0046371930015451
40
0.170530994167954
40
0.336424795334363
40
0.502318596500771
40
0.668212397667182
40
0.834106198833591
40
1
40
1
40
1
40
1
41
1
10
69.0334068466059
20
-3.61418842137996
30
0
41
1
10
69.0328685735936
20
-3.6184228579323
30
0
41
1
10
69.01304599372
20
-3.77398392205588
30
0
41
1
10
68.9717808592604
20
-4.07039689964613
30
0
41
1
10
68.905353498191
20
-4.47268192850765
30
0
41
1
10
68.8342699738957
20
-4.83439816839673
30
0
41
1
10
68.7593857135439
20
-5.1512246082615
30
0
41
1
10
68.6814667294118
20
-5.41980034157311
30
0
41
1
10
68.6283370903484
20
-5.56392065793836
30
0
41
1
10
68.601406400111
20
-5.62747852589361
30
0
0
SPLINE
5
197
100
AcDbEntity
8
1
62
256
6
ByLayer
370
18
48
1
60
0
100
AcDbSpline
70
4
71
1
72
4
73
2
40
0
40
0
40
1
40
1
41
1
10
63.5848622934277
20
-2.47091869829284
30
0
41
1
10
63.7489691558693
20
-2.61230584409941
30
0
0
SPLINE
5
198
100
AcDbEntity
8
1
62
256
6
ByLayer
370
18
48
1
60
0
100
AcDbSpline
70
4
71
1
72
4
73
2
40
0
40
0
40
1
40
1
41
1
10
59.5060124122221
20
4.97701289863633
30
0
41
1
10
59.5099563677662
20
5.04695881754674
30
0
0
SPLINE
5
199
100
AcDbEntity
8
1
62
256
6
ByLayer
370
18
48
1
60
0
100
AcDbSpline
70
4
71
3
72
13
73
9
40
0
40
0
40
0
40
0
40
0.260822121799802
40
0.395252665390486
40
0.529665972265151
40
0.740111661383766
40
0.956233497746072
40
1
40
1
40
1
40
1
41
1
10
62.7249263401129
20
3.34841786783004
30
0
41
1
10
62.4187449890371
20
3.53195450920382
30
0
41
1
10
61.9668651835412
20
3.7964616971019
30
0
41
1
10
61.3827720975593
20
4.12561905597338
30
0
41
1
10
60.8750457754742
20
4.40214819111789
30
0
41
1
10
60.3185216682813
20
4.68891625337693
30
0
41
1
10
59.9055642206744
20
4.88045432807384
30
0
41
1
10
59.7018282716128
20
4.96543046500058
30
0
41
1
10
59.6681291896933
20
4.97920593403577
30
0
0
SPLINE
5
19A
100
AcDbEntity
8
1
62
256
6
ByLayer
370
18
48
1
60
0
100
AcDbSpline
70
4
71
2
72
6
73
3
40
0
40
0
40
0
40
1
40
1
40
1
41
1
10
62.7249263401128
20
3.34841786783004
30
0
41
1
10
62.3812846386014
20
3.29340243353483
30
0
41
1
10
62.0488191450817
20
3.30002705024182
30
0
0
SPLINE
5
19B
100
AcDbEntity
8
1
62
256
6
ByLayer
370
18
48
1
60
0
100
AcDbSpline
70
4
71
2
72
6
73
3
40
0
40
0
40
0
40
1
40
1
40
1
41
1
10
62.540514115448
20
-1.99047543003847
30
0
41
1
10
62.1678269361179
20
-1.90527338848172
30
0
41
1
10
61.8039918159801
20
-1.89521230966762
30
0
0
SPLINE
5
19C
100
AcDbEntity
8
1
62
256
6
ByLayer
370
18
48
1
60
0
100
AcDbSpline
70
4
71
1
72
4
73
2
40
0
40
0
40
1
40
1
41
1
10
59.2160423840389
20
-3.41787004832413
30
0
41
1
10
59.2151515246537
20
-3.48789620051131
30
0
0
SPLINE
5
19D
100
AcDbEntity
8
1
62
256
6
ByLayer
370
18
48
1
60
0
100
AcDbSpline
70
4
71
3
72
14
73
10
40
0
40
0
40
0
40
0
40
0.165893799697863
40
0.331787599395727
40
0.497681399093589
40
0.663575198791453
40
0.829468998489317
40
0.99536279818718
40
1
40
1
40
1
40
1
41
1
10
69.0210030666049
20
6.52020764091043
30
0
41
1
10
69.0435430162258
20
6.45664977295536
30
0
41
1
10
69.0867164540023
20
6.31252945659153
30
0
41
1
10
69.146081537276
20
6.043953723281
30
0
41
1
10
69.199078614143
20
5.72712728341696
30
0
41
1
10
69.2451738523742
20
5.36541104353294
30
0
41
1
10
69.2838103313338
20
4.96312601466111
30
0
41
1
10
69.3045984972106
20
4.66671302930396
30
0
41
1
10
69.3136745199812
20
4.51115195680758
30
0
41
1
10
69.3139202677154
20
4.50691751215615
30
0
0
SPLINE
5
19E
100
AcDbEntity
8
1
62
256
6
ByLayer
370
18
48
1
60
0
100
AcDbSpline
70
4
71
2
72
6
73
3
40
0
40
0
40
0
40
1
40
1
40
1
41
1
10
69.3139202528854
20
4.50691751570196
30
0
41
1
10
68.8929280664769
20
4.60788385468386
30
0
41
1
10
68.4647597099884
20
4.62363096434896
30
0
0
SPLINE
5
19F
100
AcDbEntity
8
1
62
256
6
ByLayer
370
18
48
1
60
0
100
AcDbSpline
70
4
71
3
72
12
73
8
40
0
40
0
40
0
40
0
40
0.219941982360422
40
0.444555211056436
40
0.698748480534827
40
0.962729443055993
40
1
40
1
40
1
40
1
41
1
10
63.9733748653257
20
3.88443340622899
30
0
41
1
10
64.117448340572
20
4.00211036307807
30
0
41
1
10
64.4234597133742
20
4.21503457830627
30
0
41
1
10
64.9534872301824
20
4.47348445939846
30
0
41
1
10
65.5662202904487
20
4.65080335930113
30
0
41
1
10
66.0550443618371
20
4.69885360013163
30
0
41
1
10
66.3225104966884
20
4.69786614764147
30
0
41
1
10
66.3556893499278
20
4.69733275768195
30
0
0
SPLINE
5
1A0
100
AcDbEntity
8
1
62
256
6
ByLayer
370
18
48
1
60
0
100
AcDbSpline
70
4
71
1
72
4
73
2
40
0
40
0
40
1
40
1
41
1
10
63.9733748653257
20
3.88443340622899
30
0
41
1
10
63.7999307554019
20
3.75549916611161
30
0
0
SPLINE
5
1A1
100
AcDbEntity
8
1
62
256
6
ByLayer
370
18
48
1
60
0
100
AcDbSpline
70
4
71
3
72
13
73
9
40
0
40
0
40
0
40
0
40
0.18554010443375
40
0.376970109381426
40
0.562319173928967
40
0.751995371395345
40
0.875492911618998
40
1
40
1
40
1
40
1
41
1
10
61.475393252415
20
6.78660105764943
30
0
41
1
10
61.5908411913293
20
6.68118987226926
30
0
41
1
10
61.8389002290349
20
6.43097907555479
30
0
41
1
10
62.2559887757015
20
5.93785561785808
30
0
41
1
10
62.7051330252176
20
5.35224982829563
30
0
41
1
10
63.1174619286797
20
4.77482379772737
30
0
41
1
10
63.4853582592174
20
4.23476524068116
30
0
41
1
10
63.6945589535709
20
3.91774844460749
30
0
41
1
10
63.7999307553955
20
3.75549916610572
30
0
0
SPLINE
5
1A2
100
AcDbEntity
8
1
62
256
6
ByLayer
370
18
48
1
60
0
100
AcDbSpline
70
4
71
3
72
11
73
7
40
0
40
0
40
0
40
0
40
0.228974136894826
40
0.466571673620228
40
0.928121431217296
40
1
40
1
40
1
40
1
41
1
10
63.799930755402
20
3.75549916611168
30
0
41
1
10
63.7286914146758
20
3.70743077299981
30
0
41
1
10
63.5772731428157
20
3.61734600347207
30
0
41
1
10
63.2453919641492
20
3.46843364992272
30
0
41
1
10
62.9511052433336
20
3.38826439691136
30
0
41
1
10
62.7518202596278
20
3.35280732085864
30
0
41
1
10
62.7249263401123
20
3.34841786782995
30
0
0
SPLINE
5
1A3
100
AcDbEntity
8
1
62
256
6
ByLayer
370
18
48
1
60
0
100
AcDbSpline
70
4
71
1
72
4
73
2
40
0
40
0
40
1
40
1
41
1
10
66.3556893499265
20
4.69733275768197
30
0
41
1
10
66.4342385484845
20
4.69531734666847
30
0
0
SPLINE
5
1A4
100
AcDbEntity
8
1
62
256
6
ByLayer
370
18
48
1
60
0
100
AcDbSpline
70
4
71
1
72
4
73
2
40
0
40
0
40
1
40
1
41
1
10
62.048819145082
20
3.30002705024182
30
0
41
1
10
61.9834970715224
20
3.30161999083167
30
0
0
SPLINE
5
1A5
100
AcDbEntity
8
1
62
256
6
ByLayer
370
18
48
1
60
0
100
AcDbSpline
70
4
71
3
72
15
73
11
40
0
40
0
40
0
40
0
40
0.166515919983874
40
0.332774473620627
40
0.501628500714137
40
0.630966776588331
40
0.722350043801143
40
0.814286437225675
40
0.89617148634531
40
1
40
1
40
1
40
1
41
1
10
79.5923380992526
20
-0.553404205606352
30
0
41
1
10
79.5015206967418
20
-0.603920343553941
30
0
41
1
10
79.3200610296356
20
-0.714046067879198
30
0
41
1
10
79.0450933837075
20
-0.903472231103959
30
0
41
1
10
78.7934721513462
20
-1.11247347689147
30
0
41
1
10
78.5984813162036
20
-1.32583527173172
30
0
41
1
10
78.4751328101483
20
-1.51684124693763
30
0
41
1
10
78.4145967987356
20
-1.6779119300738
30
0
41
1
10
78.4069615207417
20
-1.82032888169184
30
0
41
1
10
78.4287122993796
20
-1.89324846566674
30
0
41
1
10
78.4505088430725
20
-1.92737857327168
30
0
0
SPLINE
5
1A6
100
AcDbEntity
8
1
62
256
6
ByLayer
370
18
48
1
60
0
100
AcDbSpline
70
4
71
3
72
21
73
17
40
0
40
0
40
0
40
0
40
0.038784640138186
40
0.0869206919828069
40
0.143208125786671
40
0.206285280140795
40
0.315676119316982
40
0.432650019755858
40
0.540774574240228
40
0.645946529719764
40
0.743522580537989
40
0.828841547097603
40
0.899151826988439
40
0.93621570146523
40
0.969831648817452
40
1
40
1
40
1
40
1
41
1
10
68.6014064001113
20
-5.62747852589305
30
0
41
1
10
68.7393351937645
20
-5.61106007252681
30
0
41
1
10
69.0461894494548
20
-5.56368015074396
30
0
41
1
10
69.542031901819
20
-5.43443435251771
30
0
41
1
10
70.1137606142458
20
-5.25905666275802
30
0
41
1
10
70.8855966148884
20
-4.99110479600671
30
0
41
1
10
71.85092587461
20
-4.62045665364864
30
0
41
1
10
72.9549566211707
20
-4.16179085412622
30
0
41
1
10
74.0345437936492
20
-3.68763426369705
30
0
41
1
10
75.0421586396806
20
-3.22900867562196
30
0
41
1
10
75.9690023668529
20
-2.79831821839952
30
0
41
1
10
76.7764503122606
20
-2.4178880671371
30
0
41
1
10
77.387024023379
20
-2.13725466302422
30
0
41
1
10
77.8397752229177
20
-1.9843137109391
30
0
41
1
10
78.162032364555
20
-1.93575260407436
30
0
41
1
10
78.3586431860071
20
-1.92614797472767
30
0
41
1
10
78.4505088430771
20
-1.92737857327124
30
0
0
SPLINE
5
1A7
100
AcDbEntity
8
1
62
256
6
ByLayer
370
18
48
1
60
0
100
AcDbSpline
70
4
71
3
72
15
73
11
40
0
40
0
40
0
40
0
40
0.113779781629083
40
0.227638929968221
40
0.353559136983213
40
0.479544210916591
40
0.632299923218905
40
0.785036244231015
40
0.892516027901572
40
1
40
1
40
1
40
1
41
1
10
72.3766912631067
20
-0.870978386660381
30
0
41
1
10
72.3220258738718
20
-1.03509622954373
30
0
41
1
10
72.1914581512066
20
-1.35252964276564
30
0
41
1
10
71.9189967181318
20
-1.81565277853738
30
0
41
1
10
71.5736180985898
20
-2.24903629258318
30
0
41
1
10
71.1307727802448
20
-2.67201769810736
30
0
41
1
10
70.5974869091889
20
-3.05080299976224
30
0
41
1
10
70.0374903795111
20
-3.33256674197062
30
0
41
1
10
69.5108284095182
20
-3.51529906944295
30
0
41
1
10
69.1942652717593
20
-3.58696078541036
30
0
41
1
10
69.0334068496849
20
-3.6141883971405
30
0
0
SPLINE
5
1A8
100
AcDbEntity
8
1
62
256
6
ByLayer
370
18
48
1
60
0
100
AcDbSpline
70
4
71
3
72
17
73
13
40
0
40
0
40
0
40
0
40
0.130238464742312
40
0.263334731270986
40
0.393954289831346
40
0.516373345248182
40
0.624775654101448
40
0.716205662892981
40
0.783807881204234
40
0.846432154747479
40
0.915848407525952
40
1
40
1
40
1
40
1
41
1
10
72.3766912631067
20
-0.87097838666038
30
0
41
1
10
72.7128440073179
20
-0.855523277857635
30
0
41
1
10
73.3870282675102
20
-0.822338324675677
30
0
41
1
10
74.3789805774134
20
-0.766268165182805
30
0
41
1
10
75.3349463420957
20
-0.706670485484427
30
0
41
1
10
76.2155091432997
20
-0.647144760883518
30
0
41
1
10
76.987105414349
20
-0.590365060705539
30
0
41
1
10
77.6135771477639
20
-0.541337912010344
30
0
41
1
10
78.1260763114315
20
-0.519007255951214
30
0
41
1
10
78.5833081203972
20
-0.52846621416778
30
0
41
1
10
79.0684655758536
20
-0.546071487951538
30
0
41
1
10
79.4080591250236
20
-0.551399978960604
30
0
41
1
10
79.5923380992455
20
-0.553404205606285
30
0
0
SPLINE
5
1A9
100
AcDbEntity
8
1
62
256
6
ByLayer
370
18
48
1
60
0
100
AcDbSpline
70
4
71
3
72
21
73
17
40
0
40
0
40
0
40
0
40
0.0387846401374986
40
0.0869206919816716
40
0.143208125785326
40
0.20628528013947
40
0.315676119316182
40
0.432650019756175
40
0.540774574242064
40
0.645946529723408
40
0.743522580543514
40
0.828841547104868
40
0.899151826997124
40
0.936215701474593
40
0.969831648827315
40
1
40
1
40
1
40
1
41
1
10
69.0210030666049
20
6.52020764091043
30
0
41
1
10
69.157468970669
20
6.49427417636283
30
0
41
1
10
69.4603212180433
20
6.4257924985452
30
0
41
1
10
69.9460691250798
20
6.26279248478945
30
0
41
1
10
70.5043417230647
20
6.04860403114754
30
0
41
1
10
71.2558602063329
20
5.72834620903232
30
0
41
1
10
72.193323738874
20
5.29225746437873
30
0
41
1
10
73.2630745773914
20
4.75849029679037
30
0
41
1
10
74.307353224675
20
4.21043456432833
30
0
41
1
10
75.280889346952
20
3.68245164405604
30
0
41
1
10
76.1757630195828
20
3.18758138918177
30
0
41
1
10
76.9549850418624
20
2.75084666894596
30
0
41
1
10
77.5446849191043
20
2.42716454012732
30
0
41
1
10
77.9857453666763
20
2.24164811791572
30
0
41
1
10
78.3038276534577
20
2.16934356910579
30
0
41
1
10
78.4992668677169
20
2.14502915841115
30
0
41
1
10
78.590978103624
20
2.13932793460398
30
0
0
SPLINE
5
1AA
100
AcDbEntity
8
1
62
256
6
ByLayer
370
18
48
1
60
0
100
AcDbSpline
70
4
71
3
72
15
73
11
40
0
40
0
40
0
40
0
40
0.110693970968658
40
0.197429022413275
40
0.284502571994588
40
0.36645690597487
40
0.497678234412346
40
0.615432755153242
40
0.733526927695914
40
1
40
1
40
1
40
1
41
1
10
78.5909781037026
20
2.13932793459689
30
0
41
1
10
78.5650014173832
20
2.10532576785169
30
0
41
1
10
78.5376282181392
20
2.02998558483836
30
0
41
1
10
78.5405829556749
20
1.88121889907629
30
0
41
1
10
78.5931938029557
20
1.72196405955268
30
0
41
1
10
78.6989149069234
20
1.53214452774326
30
0
41
1
10
78.8516269274975
20
1.33915465405171
30
0
41
1
10
79.0353010013955
20
1.15384497981802
30
0
41
1
10
79.295010654397
20
0.929954038951312
30
0
41
1
10
79.4950540521033
20
0.78094947714259
30
0
41
1
10
79.6352907636911
20
0.690112555314354
30
0
0
SPLINE
5
1AB
100
AcDbEntity
8
1
62
256
6
ByLayer
370
18
48
1
60
0
100
AcDbSpline
70
4
71
3
72
17
73
13
40
0
40
0
40
0
40
0
40
0.130238464790173
40
0.2633347320621
40
0.393954291856958
40
0.516373348690232
40
0.624775658810998
40
0.716205668354823
40
0.783807885365181
40
0.846432157703244
40
0.915848409145677
40
1
40
1
40
1
40
1
41
1
10
72.4599817851583
20
1.54035852052365
30
0
41
1
10
72.7942330209999
20
1.50076310754331
30
0
41
1
10
73.4644465642043
20
1.41899189858374
30
0
41
1
10
74.4500371091576
20
1.29088270454778
30
0
41
1
10
75.3994718501295
20
1.16140078972275
30
0
41
1
10
76.2736858997125
20
1.03712387517611
30
0
41
1
10
77.0393882813643
20
0.923269698127749
30
0
41
1
10
77.6608610775141
20
0.82757289111603
30
0
41
1
10
78.1704910514679
20
0.766837857357154
30
0
41
1
10
78.6271866927196
20
0.74185638037757
30
0
41
1
10
79.1122899148353
20
0.722681004575055
30
0
41
1
10
79.4513590145921
20
0.702169249800844
30
0
41
1
10
79.6352907636757
20
0.690112555315839
30
0
0
SPLINE
5
1AC
100
AcDbEntity
8
1
62
256
6
ByLayer
370
18
48
1
60
0
100
AcDbSpline
70
4
71
3
72
14
73
10
40
0
40
0
40
0
40
0
40
0.160803108009358
40
0.321601255345446
40
0.482749910744496
40
0.643860957374315
40
0.777689287684141
40
0.911384844347719
40
1
40
1
40
1
40
1
41
1
10
69.3139202677153
20
4.50691751215751
30
0
41
1
10
69.5523047940616
20
4.44869798293583
30
0
41
1
10
70.0126838820431
20
4.29627626582183
30
0
41
1
10
70.6630225581547
20
3.954580006496
30
0
41
1
10
71.2475713344863
20
3.5142062921595
30
0
41
1
10
71.7252143179883
20
3.01460355478015
30
0
41
1
10
72.0921110424403
20
2.47919213953485
30
0
41
1
10
72.3263073534009
20
1.9904184287294
30
0
41
1
10
72.426696829358
20
1.67064033605804
30
0
41
1
10
72.4599819331836
20
1.54035850303861
30
0
0
SPLINE
5
1AD
100
AcDbEntity
8
1
62
256
6
ByLayer
370
18
48
1
60
0
100
AcDbSpline
70
4
71
1
72
4
73
2
40
0
40
0
40
1
40
1
41
1
10
68.2572988789356
20
-3.67333641816749
30
0
41
1
10
68.1782417059505
20
-3.67131289990955
30
0
0
SPLINE
5
1AE
100
AcDbEntity
8
1
62
256
6
ByLayer
370
18
48
1
60
0
100
AcDbSpline
70
4
71
3
72
11
73
7
40
0
40
0
40
0
40
0
40
0.287267503471611
40
0.570601528946046
40
0.783593067567287
40
1
40
1
40
1
40
1
41
1
10
72.4599819331823
20
1.54035850304117
30
0
41
1
10
72.5175942250742
20
1.31153899539544
30
0
41
1
10
72.5945235074463
20
0.854483412524568
30
0
41
1
10
72.5981079036824
20
0.211676328903293
30
0
41
1
10
72.520030999611
20
-0.365456626120324
30
0
41
1
10
72.431753087188
20
-0.702952538126954
30
0
41
1
10
72.3766912631063
20
-0.870978386661545
30
0
0
SPLINE
5
1AF
100
AcDbEntity
8
1
62
256
6
ByLayer
370
18
48
1
60
0
100
AcDbSpline
70
4
71
2
72
6
73
3
40
0
40
0
40
0
40
1
40
1
40
1
41
1
10
79.6352907636903
20
0.690112555314865
30
0
41
1
10
80.1609103861004
20
0.334199939314019
30
0
41
1
10
80.6816593049492
20
0.0273651123980122
30
0
0
SPLINE
5
1B0
100
AcDbEntity
8
1
62
256
6
ByLayer
370
18
48
1
60
0
100
AcDbSpline
70
4
71
2
72
6
73
3
40
0
40
0
40
0
40
1
40
1
40
1
41
1
10
80.6816593049349
20
0.0273651124064414
30
0
41
1
10
80.1407213004046
20
-0.239508083833274
30
0
41
1
10
79.5923380992521
20
-0.553404205606667
30
0
0
SPLINE
5
1B1
100
AcDbEntity
8
1
62
256
6
ByLayer
370
18
48
1
60
0
100
AcDbSpline
70
4
71
3
72
16
73
12
40
0
40
0
40
0
40
0
40
0.193175194179159
40
0.386603933897724
40
0.49900769381081
40
0.611232808940373
40
0.703623602274011
40
0.795912588408085
40
0.868506640166581
40
0.941036848444269
40
1
40
1
40
1
40
1
41
1
10
60.4161960380098
20
-6.28241224350144
30
0
41
1
10
60.2797511786459
20
-6.20292750645554
30
0
41
1
10
60.0310165494358
20
-6.01042310442329
30
0
41
1
10
59.7970140262746
20
-5.68615266816926
30
0
41
1
10
59.6105877948704
20
-5.34326315331996
30
0
41
1
10
59.4805011414148
20
-5.03338404732616
30
0
41
1
10
59.3725767313996
20
-4.69710018129797
30
0
41
1
10
59.2965848431636
20
-4.37238432324763
30
0
41
1
10
59.2471441818259
20
-4.05031070037156
30
0
41
1
10
59.2217218587876
20
-3.76080658702525
30
0
41
1
10
59.2157613751393
20
-3.57287586474203
30
0
41
1
10
59.2151515246537
20
-3.48789620050911
30
0
0
SPLINE
5
1B2
100
AcDbEntity
8
1
62
256
6
ByLayer
370
18
48
1
60
0
100
AcDbSpline
70
4
71
3
72
15
73
11
40
0
40
0
40
0
40
0
40
0.0745275399797388
40
0.149166569620988
40
0.29671410198799
40
0.404641565313068
40
0.512745133321918
40
0.692425899560697
40
0.872499590221622
40
1
40
1
40
1
40
1
41
1
10
59.5099563677661
20
5.04695881754672
30
0
41
1
10
59.5183173209258
20
5.15446389610002
30
0
41
1
10
59.5413293095567
20
5.36631808264262
30
0
41
1
10
59.6119288899206
20
5.77906354744564
30
0
41
1
10
59.7324474193755
20
6.20134561639269
30
0
41
1
10
59.8941028479771
20
6.59419913274512
30
0
41
1
10
60.0851268368312
20
6.95684293489955
30
0
41
1
10
60.318437141285
20
7.29251698236777
30
0
41
1
10
60.5894878407576
20
7.55186398781436
30
0
41
1
10
60.8049513450174
20
7.67939022839968
30
0
41
1
10
60.9000383952962
20
7.72524220147761
30
0
0
SPLINE
5
1B3
100
AcDbEntity
8
1
62
256
6
ByLayer
370
18
48
1
60
0
100
AcDbSpline
70
4
71
3
72
10
73
6
40
0
40
0
40
0
40
0
40
0.32405953280739
40
0.655488310967219
40
1
40
1
40
1
40
1
41
1
10
60.7381882170448
20
-6.49977991527375
30
0
41
1
10
60.5521679076031
20
-6.4976092189666
30
0
41
1
10
60.1648673552996
20
-6.46284232954301
30
0
41
1
10
59.5229163671005
20
-6.33540404976924
30
0
41
1
10
59.0887852081822
20
-6.15726808168005
30
0
41
1
10
58.8644378809304
20
-6.04600880702091
30
0
0
SPLINE
5
1B4
100
AcDbEntity
8
1
62
256
6
ByLayer
370
18
48
1
60
0
100
AcDbSpline
70
4
71
3
72
10
73
6
40
0
40
0
40
0
40
0
40
0.293534003528431
40
0.639930133641051
40
1
40
1
40
1
40
1
41
1
10
61.1610039799792
20
7.89318738158809
30
0
41
1
10
60.9980900816357
20
7.8983584322887
30
0
41
1
10
60.6325282233792
20
7.8855063571356
30
0
41
1
10
60.0112420001573
20
7.80184781766686
30
0
41
1
10
59.5657689819415
20
7.65182444211285
30
0
41
1
10
59.334243678719
20
7.55527510824851
30
0
0
SPLINE
5
1B5
100
AcDbEntity
8
1
62
256
6
ByLayer
370
18
48
1
60
0
100
AcDbSpline
70
4
71
1
72
4
73
2
40
0
40
0
40
1
40
1
41
1
10
68.6014064001113
20
-5.62747852589304
30
0
41
1
10
68.1265838568352
20
-6.74712413478713
30
0
0
SPLINE
5
1B6
100
AcDbEntity
8
1
62
256
6
ByLayer
370
18
48
1
60
0
100
AcDbSpline
70
4
71
1
72
4
73
2
40
0
40
0
40
1
40
1
41
1
10
69.0210030666049
20
6.52020764091043
30
0
41
1
10
68.6235285151513
20
7.63985324980453
30
0
0
SPLINE
5
1B7
100
AcDbEntity
8
1
62
256
6
ByLayer
370
18
48
1
60
0
100
AcDbSpline
70
4
71
1
72
4
73
2
40
0
40
0
40
1
40
1
41
1
10
78.3149533220454
20
-4.65918964067722
30
0
41
1
10
78.0046024683025
20
-4.70040621869497
30
0
0
SPLINE
5
1B8
100
AcDbEntity
8
1
62
256
6
ByLayer
370
18
48
1
60
0
100
AcDbSpline
70
4
71
3
72
11
73
7
40
0
40
0
40
0
40
0
40
0.302293823441652
40
0.613181578417231
40
0.805254037931525
40
1
40
1
40
1
40
1
41
1
10
75.8470863766141
20
-5.25768340755761
30
0
41
1
10
76.0770946862751
20
-5.16755467611558
30
0
41
1
10
76.5371567816241
20
-5.00586421886324
30
0
41
1
10
77.1322243311534
20
-4.83489981586269
30
0
41
1
10
77.6240379183328
20
-4.74767108496619
30
0
41
1
10
77.8796527452289
20
-4.7132146448311
30
0
41
1
10
78.0046024683036
20
-4.70040621869485
30
0
0
SPLINE
5
1B9
100
AcDbEntity
8
1
62
256
6
ByLayer
370
18
48
1
60
0
100
AcDbSpline
70
4
71
3
72
14
73
10
40
0
40
0
40
0
40
0
40
0.144402987238157
40
0.288816040396095
40
0.434645866304543
40
0.580466006356705
40
0.7895432288558
40
0.894806799335095
40
1
40
1
40
1
40
1
41
1
10
75.8470863766141
20
-5.25768340755761
30
0
41
1
10
75.4909479773298
20
-5.39354022657189
30
0
41
1
10
74.7732465587397
20
-5.64802646504579
30
0
41
1
10
73.6756451433009
20
-5.97884144010686
30
0
41
1
10
72.5606250590993
20
-6.25900137645626
30
0
41
1
10
71.2643583336941
20
-6.50875606519162
30
0
41
1
10
70.060319831173
20
-6.65613257704354
30
0
41
1
10
68.9581934969046
20
-6.74382558287562
30
0
41
1
10
68.4039581882731
20
-6.75098503786763
30
0
41
1
10
68.1265838568315
20
-6.74712413478651
30
0
0
SPLINE
5
1BA
100
AcDbEntity
8
1
62
256
6
ByLayer
370
18
48
1
60
0
100
AcDbSpline
70
4
71
3
72
15
73
11
40
0
40
0
40
0
40
0
40
0.183386250218151
40
0.366943563477101
40
0.549390059741181
40
0.671720177562543
40
0.793783034007534
40
0.892517276558754
40
0.991241635182388
40
1
40
1
40
1
40
1
41
1
10
78.4505088430722
20
-1.92737857327119
30
0
41
1
10
78.5337650760076
20
-2.08132450673926
30
0
41
1
10
78.7221621448587
20
-2.36557114392677
30
0
41
1
10
79.0587750927976
20
-2.73511249594489
30
0
41
1
10
79.4350151208835
20
-2.97340357133429
30
0
41
1
10
79.8288347931617
20
-3.09144860816662
30
0
41
1
10
80.1949453681878
20
-3.10822908755252
30
0
41
1
10
80.5798125523568
20
-3.0342277258577
30
0
41
1
10
80.8470462345259
20
-2.93551568027379
30
0
41
1
10
80.9892052299078
20
-2.87013377668698
30
0
41
1
10
81.0008161748798
20
-2.86471187661798
30
0
0
SPLINE
5
1BB
100
AcDbEntity
8
1
62
256
6
ByLayer
370
18
48
1
60
0
100
AcDbSpline
70
4
71
1
72
4
73
2
40
0
40
0
40
1
40
1
41
1
10
80.0357840309944
20
-3.63185517405527
30
0
41
1
10
81.0008161748783
20
-2.86471187661853
30
0
0
SPLINE
5
1BC
100
AcDbEntity
8
1
62
256
6
ByLayer
370
18
48
1
60
0
100
AcDbSpline
70
4
71
1
72
4
73
2
40
0
40
0
40
1
40
1
41
1
10
78.3149150216661
20
-4.65900225941108
30
0
41
1
10
80.0356977516212
20
-3.63194086363457
30
0
0
SPLINE
5
1BD
100
AcDbEntity
8
1
62
256
6
ByLayer
370
18
48
1
60
0
100
AcDbSpline
70
4
71
3
72
14
73
10
40
0
40
0
40
0
40
0
40
0.121523556149594
40
0.222387548357045
40
0.323386695988188
40
0.488282595064852
40
0.653577964344723
40
0.82669383649284
40
1
40
1
40
1
40
1
41
1
10
81.1983011707516
20
2.8526494586475
30
0
41
1
10
81.0404850298541
20
2.94128401792236
30
0
41
1
10
80.7627759419053
20
3.06873196470925
30
0
41
1
10
80.3841300157613
20
3.15943472962217
30
0
41
1
10
79.994929630095
20
3.17196813172778
30
0
41
1
10
79.596716174154
20
3.07333872160405
30
0
41
1
10
79.2052874252432
20
2.84715765581419
30
0
41
1
10
78.8734738631471
20
2.52808384953314
30
0
41
1
10
78.67924743051
20
2.27636578318339
30
0
41
1
10
78.5909781037006
20
2.13932793459582
30
0
0
SPLINE
5
1BE
100
AcDbEntity
8
1
62
256
6
ByLayer
370
18
48
1
60
0
100
AcDbSpline
70
4
71
3
72
13
73
9
40
0
40
0
40
0
40
0
40
0.126987822136551
40
0.254186992929744
40
0.381360015404298
40
0.576737882971829
40
0.772142294318531
40
1
40
1
40
1
40
1
41
1
10
68.6235285151515
20
7.63985324980396
30
0
41
1
10
68.9581264403177
20
7.62232184165145
30
0
41
1
10
69.6251527375111
20
7.56568688539715
30
0
41
1
10
70.6176956970039
20
7.40382208982483
30
0
41
1
10
71.7786111209955
20
7.16534508566349
30
0
41
1
10
73.1010225284549
20
6.82186373486243
30
0
41
1
10
74.6462871099125
20
6.29385637468532
30
0
41
1
10
75.6759430887717
20
5.86317443641888
30
0
41
1
10
76.2224552140626
20
5.60956888065058
30
0
0
SPLINE
5
1BF
100
AcDbEntity
8
1
62
256
6
ByLayer
370
18
48
1
60
0
100
AcDbSpline
70
4
71
3
72
11
73
7
40
0
40
0
40
0
40
0
40
0.277489935641322
40
0.563277494182929
40
0.780107031837094
40
1
40
1
40
1
40
1
41
1
10
78.336048537221
20
4.89524395671581
30
0
41
1
10
78.1581800911378
20
4.92569588562437
30
0
41
1
10
77.7860037138517
20
5.00856265872007
30
0
41
1
10
77.2287577169952
20
5.18009842122467
30
0
41
1
10
76.7039839705789
20
5.39181353982696
30
0
41
1
10
76.3842534812579
20
5.53354236789815
30
0
41
1
10
76.2224552140579
20
5.60956888065276
30
0
0
SPLINE
5
1C0
100
AcDbEntity
8
1
62
256
6
ByLayer
370
18
48
1
60
0
100
AcDbSpline
70
4
71
1
72
4
73
2
40
0
40
0
40
1
40
1
41
1
10
78.336048537221
20
4.89524395671581
30
0
41
1
10
78.6427289177884
20
4.83019716394129
30
0
0
SPLINE
5
1C1
100
AcDbEntity
8
1
62
256
6
ByLayer
370
18
48
1
60
0
100
AcDbSpline
70
4
71
1
72
4
73
2
40
0
40
0
40
1
40
1
41
1
10
80.2884218433661
20
3.68407764773443
30
0
41
1
10
78.6426776606586
20
4.83001252295339
30
0
0
SPLINE
5
1C2
100
AcDbEntity
8
1
62
256
6
ByLayer
370
18
48
1
60
0
100
AcDbSpline
70
4
71
1
72
4
73
2
40
0
40
0
40
1
40
1
41
1
10
80.2884833086247
20
3.68400734615925
30
0
41
1
10
81.1983011707727
20
2.85264945863548
30
0
0
SPLINE
5
1C3
100
AcDbEntity
8
1
62
256
6
ByLayer
370
18
48
1
60
0
100
AcDbSpline
70
4
71
1
72
4
73
2
40
0
40
0
40
1
40
1
41
1
10
81.9823585050293
20
-1.9991332721036
30
0
41
1
10
82.1868322974144
20
-1.86048287158167
30
0
0
SPLINE
5
1C4
100
AcDbEntity
8
1
62
256
6
ByLayer
370
18
48
1
60
0
100
AcDbSpline
70
4
71
1
72
4
73
2
40
0
40
0
40
1
40
1
41
1
10
82.3120390327992
20
1.764360338293
30
0
41
1
10
82.1176607854213
20
1.91798469166221
30
0
0
SPLINE
5
1C5
100
AcDbEntity
8
1
62
256
6
ByLayer
370
18
48
1
60
0
100
AcDbSpline
70
4
71
2
72
6
73
3
40
0
40
0
40
0
40
1
40
1
40
1
41
0.500304614977802
10
27.33488195479
20
13.778616594052
30
0
41
0.499695385022198
10
27.3132308289598
20
13.7634293168366
30
0
41
0.500304614977802
10
27.2933495516761
20
13.7587334683935
30
0
0
SPLINE
5
1C6
100
AcDbEntity
8
1
62
256
6
ByLayer
370
18
48
1
60
0
100
AcDbSpline
70
4
71
2
72
6
73
3
40
0
40
0
40
0
40
1
40
1
40
1
41
0.500038079110719
10
67.6476794203357
20
4.50709595461659
30
0
41
0.499961920889281
10
67.5786599726404
20
4.5095326465402
30
0
41
0.500038079110719
10
67.5095984545342
20
4.5095326465402
30
0
0
SPLINE
5
1C7
100
AcDbEntity
8
1
62
256
6
ByLayer
370
18
48
1
60
0
100
AcDbSpline
70
4
71
2
72
6
73
3
40
0
40
0
40
0
40
1
40
1
40
1
41
0.500500306583632
10
67.6699675826861
20
-0.664995622127285
30
0
41
0.499499693416368
10
67.5963949976754
20
-0.667103937520719
30
0
41
0.500500306583632
10
67.5231471022262
20
-0.659812209467459
30
0
0
SPLINE
5
1C8
100
AcDbEntity
8
1
62
256
6
ByLayer
370
18
48
1
60
0
100
AcDbSpline
70
4
71
2
72
6
73
3
40
0
40
0
40
0
40
1
40
1
40
1
41
0.500500306583632
10
68.659620205679
20
-0.0488999152434039
30
0
41
0.499499693416369
10
68.6246399261739
20
-0.114369810875029
30
0
41
0.500500306583632
10
68.5817697803237
20
-0.174855406098462
30
0
0
SPLINE
5
1C9
100
AcDbEntity
8
1
62
256
6
ByLayer
370
18
48
1
60
0
100
AcDbSpline
70
4
71
2
72
6
73
3
40
0
40
0
40
0
40
1
40
1
40
1
41
0.500500306583632
10
68.626690157985
20
1.12562835342411
30
0
41
0.499499693416368
10
68.6652824634907
20
1.062266773186
30
0
41
0.500500306583632
10
68.6956602130896
20
0.994489449909215
30
0
0
SPLINE
5
1CA
100
AcDbEntity
8
1
62
256
6
ByLayer
370
18
48
1
60
0
100
AcDbSpline
70
4
71
2
72
6
73
3
40
0
40
0
40
0
40
1
40
1
40
1
41
0.500500306583632
10
67.6041074872981
20
1.68406091520769
30
0
41
0.499499693416368
10
67.6776800723088
20
1.68616923060113
30
0
41
0.500500306583632
10
67.750927967758
20
1.67887750254787
30
0
0
SPLINE
5
1CB
100
AcDbEntity
8
1
62
256
6
ByLayer
370
18
48
1
60
0
100
AcDbSpline
70
4
71
2
72
6
73
3
40
0
40
0
40
0
40
1
40
1
40
1
41
0.500500306583632
10
66.6144548643052
20
1.06796520832381
30
0
41
0.499499693416368
10
66.6494351438102
20
1.13343510395544
30
0
41
0.500500306583632
10
66.6923052896605
20
1.19392069917887
30
0
0
SPLINE
5
1CC
100
AcDbEntity
8
1
62
256
6
ByLayer
370
18
48
1
60
0
100
AcDbSpline
70
4
71
2
72
6
73
3
40
0
40
0
40
0
40
1
40
1
40
1
41
0.500500306583632
10
66.6473849119991
20
-0.106563060343696
30
0
41
0.499499693416368
10
66.6087926064935
20
-0.0432014801055368
30
0
41
0.500500306583632
10
66.5784148568946
20
0.0245758431711996
30
0
0
SPLINE
5
1CD
100
AcDbEntity
8
1
62
256
6
ByLayer
370
18
48
1
60
0
100
AcDbSpline
70
4
71
2
72
6
73
3
40
0
40
0
40
0
40
1
40
1
40
1
41
0.505856870575429
10
66.8043235142198
20
-0.90053434394815
30
0
41
0.494143129424571
10
66.8792323052227
20
-0.8660105611048
30
0
41
0.505856870575429
10
66.9330089218016
20
-0.802991710655465
30
0
0
SPLINE
5
1CE
100
AcDbEntity
8
1
62
256
6
ByLayer
370
18
48
1
60
0
100
AcDbSpline
70
4
71
2
72
6
73
3
40
0
40
0
40
0
40
1
40
1
40
1
41
0.507980007240304
10
67.0244801922259
20
1.84518062988955
30
0
41
0.492019992759696
10
66.9666888191024
20
1.92332360578609
30
0
41
0.507980007240304
10
66.8788087240214
20
1.96365248529335
30
0
0
SPLINE
5
1CF
100
AcDbEntity
8
1
62
256
6
ByLayer
370
18
48
1
60
0
100
AcDbSpline
70
4
71
2
72
6
73
3
40
0
40
0
40
0
40
1
40
1
40
1
41
0.500038079110719
10
67.3062336192071
20
-0.640467353459797
30
0
41
0.499961920889281
10
67.2863784327516
20
-0.640467353459797
30
0
41
0.500038079110719
10
67.2665353415392
20
-0.639766804531757
30
0
0
SPLINE
5
1D0
100
AcDbEntity
8
1
62
256
6
ByLayer
370
18
48
1
60
0
100
AcDbSpline
70
4
71
2
72
6
73
3
40
0
40
0
40
0
40
1
40
1
40
1
41
0.500304614977802
10
27.33488195479
20
-13.778616594052
30
0
41
0.499695385022198
10
27.3132308289598
20
-13.7634293168366
30
0
41
0.500304614977802
10
27.2933495516761
20
-13.7587334683935
30
0
0
SPLINE
5
1D1
100
AcDbEntity
8
1
62
256
6
ByLayer
370
18
48
1
60
0
100
AcDbSpline
70
4
71
2
72
6
73
3
40
0
40
0
40
0
40
1
40
1
40
1
41
0.50001146507579
10
61.5838319368189
20
3.30745044063012
30
0
41
0.49998853492421
10
61.5554938084393
20
3.30790287043113
30
0
41
0.50001146507579
10
61.5271694808827
20
3.30890544731147
30
0
0
SPLINE
5
1D2
100
AcDbEntity
8
1
62
256
6
ByLayer
370
18
48
1
60
0
100
AcDbSpline
70
4
71
2
72
6
73
3
40
0
40
0
40
0
40
1
40
1
40
1
41
0.500006827532375
10
60.7381882170448
20
-6.49977991527375
30
0
41
0.499993172467625
10
60.776190006858
20
-6.5009124062152
30
0
41
0.500006827532375
10
60.8136694545031
20
-6.50202398945653
30
0
0
SPLINE
5
1D3
100
AcDbEntity
8
1
62
256
6
ByLayer
370
18
48
1
60
0
100
AcDbSpline
70
4
71
2
72
6
73
3
40
0
40
0
40
0
40
1
40
1
40
1
41
0.500222026659752
10
80.1200930135097
20
8.04402477087817
30
0
41
0.499777973340248
10
80.1530897843135
20
8.04684289421393
30
0
41
0.500222026659752
10
80.1862040868412
20
8.04684289421393
30
0
0
SPLINE
5
1D4
100
AcDbEntity
8
1
62
256
6
ByLayer
370
18
48
1
60
0
100
AcDbSpline
70
4
71
2
72
6
73
3
40
0
40
0
40
0
40
1
40
1
40
1
41
0.500222025196041
10
80.1862040868412
20
-8.04684290484635
30
0
41
0.499777974803959
10
80.1530898935638
20
-8.04684290484635
30
0
41
0.500222025196041
10
80.1200932308483
20
-8.04402480007258
30
0
0
SPLINE
5
1D5
100
AcDbEntity
8
1
62
256
6
ByLayer
370
18
48
1
60
0
100
AcDbSpline
70
4
71
2
72
6
73
3
40
0
40
0
40
0
40
1
40
1
40
1
41
0.500120839644583
10
77.152649328173
20
5.21988050779517
30
0
41
0.499879160355417
10
77.2119932755459
20
5.25146950918485
30
0
41
0.500120839644583
10
77.270781610046
20
5.27857317088501
30
0
0
SPLINE
5
1D6
100
AcDbEntity
8
1
62
256
6
ByLayer
370
18
48
1
60
0
100
AcDbSpline
70
4
71
2
72
6
73
3
40
0
40
0
40
0
40
1
40
1
40
1
41
0.500011591700554
10
61.7645850395246
20
7.88355386434383
30
0
41
0.499988408299446
10
61.7929767634761
20
7.88310057886762
30
0
41
0.500011591700554
10
61.8217500315968
20
7.88208475517753
30
0
0
LINE
5
70
100
AcDbEntity
8
4
62
256
6
ByLayer
370
18
48
0.05
60
0
100
AcDbLine
10
0
20
0
30
0
11
96.881627
21
0
31
0
39
0
210
0
220
0
230
1
0
LINE
5
72
100
AcDbEntity
8
1
62
256
6
ByLayer
370
18
48
1
60
0
100
AcDbLine
10
0.3
20
-31.5
30
0
11
22
21
-31.5
31
0
39
0
210
0
220
0
230
1
0
LINE
5
74
100
AcDbEntity
8
1
62
256
6
ByLayer
370
18
48
1
60
0
100
AcDbLine
10
22
20
31.5
30
0
11
0.3
21
31.5
31
0
39
0
210
0
220
0
230
1
0
LINE
5
75
100
AcDbEntity
8
1
62
256
6
ByLayer
370
18
48
1
60
0
100
AcDbLine
10
13.75
20
30.068492
30
0
11
10.25
21
30.068492
31
0
39
0
210
0
220
0
230
1
0
LINE
5
76
100
AcDbEntity
8
1
62
256
6
ByLayer
370
18
48
1
60
0
100
AcDbLine
10
10.25
20
9.388066
30
0
11
13.75
21
9.388066
31
0
39
0
210
0
220
0
230
1
0
LINE
5
77
100
AcDbEntity
8
1
62
256
6
ByLayer
370
18
48
1
60
0
100
AcDbLine
10
13.75
20
-9.388066
30
0
11
10.25
21
-9.388066
31
0
39
0
210
0
220
0
230
1
0
LINE
5
78
100
AcDbEntity
8
1
62
256
6
ByLayer
370
18
48
1
60
0
100
AcDbLine
10
10.25
20
-30.068492
30
0
11
13.75
21
-30.068492
31
0
39
0
210
0
220
0
230
1
0
LINE
5
79
100
AcDbEntity
8
1
62
256
6
ByLayer
370
18
48
1
60
0
100
AcDbLine
10
0.3
20
31.5
30
0
11
0
21
31.2
31
0
39
0
210
0
220
0
230
1
0
LINE
5
7A
100
AcDbEntity
8
1
62
256
6
ByLayer
370
18
48
1
60
0
100
AcDbLine
10
0
20
-31.2
30
0
11
0.3
21
-31.5
31
0
39
0
210
0
220
0
230
1
0
LINE
5
7B
100
AcDbEntity
8
1
62
256
6
ByLayer
370
18
48
1
60
0
100
AcDbLine
10
10.25
20
-22.141548
30
0
11
10.25
21
-30.068492
31
0
39
0
210
0
220
0
230
1
0
LINE
5
7C
100
AcDbEntity
8
1
62
256
6
ByLayer
370
18
48
1
60
0
100
AcDbLine
10
10.25
20
-9.388066
30
0
11
10.25
21
-20.893992
31
0
39
0
210
0
220
0
230
1
0
LINE
5
7D
100
AcDbEntity
8
1
62
256
6
ByLayer
370
18
48
1
60
0
100
AcDbLine
10
10.25
20
-20.893992
30
0
11
10.241756
21
-20.788677
31
0
39
0
210
0
220
0
230
1
0
LINE
5
7E
100
AcDbEntity
8
1
62
256
6
ByLayer
370
18
48
1
60
0
100
AcDbLine
10
13.448939
20
20.893992
30
0
11
13.75
21
20.893992
31
0
39
0
210
0
220
0
230
1
0
LINE
5
7F
100
AcDbEntity
8
1
62
256
6
ByLayer
370
18
48
1
60
0
100
AcDbLine
10
13.75
20
20.893992
30
0
11
13.75
21
9.388066
31
0
39
0
210
0
220
0
230
1
0
LINE
5
80
100
AcDbEntity
8
1
62
256
6
ByLayer
370
18
48
1
60
0
100
AcDbLine
10
10.25
20
20.893992
30
0
11
10.25
21
9.388066
31
0
39
0
210
0
220
0
230
1
0
LINE
5
81
100
AcDbEntity
8
1
62
256
6
ByLayer
370
18
48
1
60
0
100
AcDbLine
10
10.25
20
20.893992
30
0
11
10.551061
21
20.893992
31
0
39
0
210
0
220
0
230
1
0
LINE
5
82
100
AcDbEntity
8
1
62
256
6
ByLayer
370
18
48
1
60
0
100
AcDbLine
10
13.758244
20
-20.788677
30
0
11
13.75
21
-20.893992
31
0
39
0
210
0
220
0
230
1
0
LINE
5
83
100
AcDbEntity
8
1
62
256
6
ByLayer
370
18
48
1
60
0
100
AcDbLine
10
13.75
20
-9.388066
30
0
11
13.75
21
-20.893992
31
0
39
0
210
0
220
0
230
1
0
LINE
5
84
100
AcDbEntity
8
1
62
256
6
ByLayer
370
18
48
1
60
0
100
AcDbLine
10
13.75
20
-22.141548
30
0
11
13.75
21
-30.068492
31
0
39
0
210
0
220
0
230
1
0
LINE
5
85
100
AcDbEntity
8
1
62
256
6
ByLayer
370
18
48
1
60
0
100
AcDbLine
10
13.75
20
30.068492
30
0
11
13.75
21
22.141548
31
0
39
0
210
0
220
0
230
1
0
LINE
5
86
100
AcDbEntity
8
1
62
256
6
ByLayer
370
18
48
1
60
0
100
AcDbLine
10
13.75
20
20.893992
30
0
11
13.758244
21
20.788677
31
0
39
0
210
0
220
0
230
1
0
LINE
5
87
100
AcDbEntity
8
1
62
256
6
ByLayer
370
18
48
1
60
0
100
AcDbLine
10
10.551061
20
-20.893992
30
0
11
10.25
21
-20.893992
31
0
39
0
210
0
220
0
230
1
0
LINE
5
88
100
AcDbEntity
8
1
62
256
6
ByLayer
370
18
48
1
60
0
100
AcDbLine
10
13.75
20
-20.893992
30
0
11
13.448939
21
-20.893992
31
0
39
0
210
0
220
0
230
1
0
LINE
5
89
100
AcDbEntity
8
1
62
256
6
ByLayer
370
18
48
1
60
0
100
AcDbLine
10
10.241756
20
20.788677
30
0
11
10.25
21
20.893992
31
0
39
0
210
0
220
0
230
1
0
LINE
5
8A
100
AcDbEntity
8
1
62
256
6
ByLayer
370
18
48
1
60
0
100
AcDbLine
10
10.25
20
30.068492
30
0
11
10.25
21
22.141548
31
0
39
0
210
0
220
0
230
1
0
LINE
5
8B
100
AcDbEntity
8
1
62
256
6
ByLayer
370
18
48
1
60
0
100
AcDbLine
10
29.677121
20
-24.752754
30
0
11
29.677121
21
24.752754
31
0
39
0
210
0
220
0
230
1
0
LINE
5
8C
100
AcDbEntity
8
1
62
256
6
ByLayer
370
18
48
1
60
0
100
AcDbLine
10
27.323482
20
23.071301
30
0
11
26.46156
21
18.390925
31
0
39
0
210
0
220
0
230
1
0
LINE
5
8D
100
AcDbEntity
8
1
62
256
6
ByLayer
370
18
48
1
60
0
100
AcDbLine
10
25.66583
20
14.069979
30
0
11
25.664293
21
14.061633
31
0
39
0
210
0
220
0
230
1
0
LINE
5
8E
100
AcDbEntity
8
1
62
256
6
ByLayer
370
18
48
1
60
0
100
AcDbLine
10
26.627401
20
-19.291465
30
0
11
26.46156
21
-18.390925
31
0
39
0
210
0
220
0
230
1
0
LINE
5
8F
100
AcDbEntity
8
1
62
256
6
ByLayer
370
18
48
1
60
0
100
AcDbLine
10
27.323482
20
-23.071301
30
0
11
26.658718
21
-19.46152
31
0
39
0
210
0
220
0
230
1
0
LINE
5
90
100
AcDbEntity
8
1
62
256
6
ByLayer
370
18
48
1
60
0
100
AcDbLine
10
25.66583
20
-14.069979
30
0
11
25.664293
21
-14.061633
31
0
39
0
210
0
220
0
230
1
0
LINE
5
91
100
AcDbEntity
8
1
62
256
6
ByLayer
370
18
48
1
60
0
100
AcDbLine
10
75.375894
20
12.068616
30
0
11
57
21
14
31
0
39
0
210
0
220
0
230
1
0
LINE
5
92
100
AcDbEntity
8
1
62
256
6
ByLayer
370
18
48
1
60
0
100
AcDbLine
10
75.375894
20
12.068616
30
0
11
80.237131
21
7.944739
31
0
39
0
210
0
220
0
230
1
0
LINE
5
93
100
AcDbEntity
8
1
62
256
6
ByLayer
370
18
48
1
60
0
100
AcDbLine
10
80.237131
20
7.944739
30
0
11
77.063406
21
5.252411
31
0
39
0
210
0
220
0
230
1
0
LINE
5
94
100
AcDbEntity
8
1
62
256
6
ByLayer
370
18
48
1
60
0
100
AcDbLine
10
80.252495
20
-7.931706
30
0
11
75.375895
21
-12.068616
31
0
39
0
210
0
220
0
230
1
0
LINE
5
95
100
AcDbEntity
8
1
62
256
6
ByLayer
370
18
48
1
60
0
100
AcDbLine
10
57
20
-14
30
0
11
75.375895
21
-12.068616
31
0
39
0
210
0
220
0
230
1
0
LINE
5
96
100
AcDbEntity
8
1
62
256
6
ByLayer
370
18
48
1
60
0
100
AcDbLine
10
53.175892
20
7.010627
30
0
11
52.759723
21
-5.037833
31
0
39
0
210
0
220
0
230
1
0
LINE
5
97
100
AcDbEntity
8
1
62
256
6
ByLayer
370
18
48
1
60
0
100
AcDbLine
10
62.385348
20
-6.548638
30
0
11
62.323149
21
-8.349355
31
0
39
0
210
0
220
0
230
1
0
LINE
5
98
100
AcDbEntity
8
1
62
256
6
ByLayer
370
18
48
1
60
0
100
AcDbLine
10
62.944513
20
9.63968
30
0
11
62.88251
21
7.844635
31
0
39
0
210
0
220
0
230
1
0
LINE
5
99
100
AcDbEntity
8
1
62
256
6
ByLayer
370
18
48
1
60
0
100
AcDbLine
10
57.185567
20
3.813961
30
0
11
56.978446
21
-2.182384
31
0
39
0
210
0
220
0
230
1
0
LINE
5
9A
100
AcDbEntity
8
1
62
256
6
ByLayer
370
18
48
1
60
0
100
AcDbLine
10
62.323149
20
-8.349355
30
0
11
61.589074
21
-8.326795
31
0
39
0
210
0
220
0
230
1
0
LINE
5
9B
100
AcDbEntity
8
1
62
256
6
ByLayer
370
18
48
1
60
0
100
AcDbLine
10
62.944513
20
9.63968
30
0
11
62.210438
21
9.66224
31
0
39
0
210
0
220
0
230
1
0
LINE
5
9C
100
AcDbEntity
8
1
62
256
6
ByLayer
370
18
48
1
60
0
100
AcDbLine
10
80.281291
20
7.832444
30
0
11
77.270782
21
5.278573
31
0
39
0
210
0
220
0
230
1
0
LINE
5
9D
100
AcDbEntity
8
1
62
256
6
ByLayer
370
18
48
1
60
0
100
AcDbLine
10
80.281291
20
7.832444
30
0
11
80.237131
21
7.944739
31
0
39
0
210
0
220
0
230
1
0
LINE
5
9E
100
AcDbEntity
8
SK1
62
256
6
ByLayer
370
18
48
1
60
0
100
AcDbLine
10
-36.642113
20
-4.030013
30
0
11
-1.517117
21
-4.378688
31
0
39
0
210
0
220
0
230
1
0
LINE
5
A0
100
AcDbEntity
8
SK1
62
256
6
ByLayer
370
18
48
1
60
0
100
AcDbLine
10
-36.642113
20
4.030013
30
0
11
-1.517117
21
4.378688
31
0
39
0
210
0
220
0
230
1
0
LINE
5
A1
100
AcDbEntity
8
SK1
62
256
6
ByLayer
370
18
48
1
60
0
100
AcDbLine
10
-38
20
3.718991
30
0
11
-36.642113
21
4.030013
31
0
39
0
210
0
220
0
230
1
0
LINE
5
A2
100
AcDbEntity
8
SK1
62
256
6
ByLayer
370
18
48
1
60
0
100
AcDbLine
10
-38
20
-3.718991
30
0
11
-36.642113
21
-4.030013
31
0
39
0
210
0
220
0
230
1
0
LINE
5
A3
100
AcDbEntity
8
SK1
62
256
6
ByLayer
370
18
48
1
60
0
100
AcDbLine
10
0
20
21.934027
30
0
11
-36.642113
21
21.017182
31
0
39
0
210
0
220
0
230
1
0
LINE
5
A4
100
AcDbEntity
8
SK1
62
256
6
ByLayer
370
18
48
1
60
0
100
AcDbLine
10
-36.642113
20
-21.017182
30
0
11
0
21
-21.934027
31
0
39
0
210
0
220
0
230
1
0
LINE
5
A5
100
AcDbEntity
8
SK1
62
256
6
ByLayer
370
18
48
1
60
0
100
AcDbLine
10
-38
20
-20.233206
30
0
11
-36.642113
21
-21.017182
31
0
39
0
210
0
220
0
230
1
0
LINE
5
A6
100
AcDbEntity
8
SK1
62
256
6
ByLayer
370
18
48
1
60
0
100
AcDbLine
10
-36.642113
20
21.017182
30
0
11
-38
21
20.233206
31
0
39
0
210
0
220
0
230
1
0
LINE
5
A7
100
AcDbEntity
8
1
62
256
6
ByLayer
370
18
48
1
60
0
100
AcDbLine
10
28.090044
20
18.079494
30
0
11
25.412241
21
18.591596
31
0
39
0
210
0
220
0
230
1
0
LINE
5
A8
100
AcDbEntity
8
1
62
256
6
ByLayer
370
18
48
1
60
0
100
AcDbLine
10
13.439082
20
20.881336
30
0
11
10.02428
21
21.534381
31
0
39
0
210
0
220
0
230
1
0
LINE
5
A9
100
AcDbEntity
8
1
62
256
6
ByLayer
370
18
48
1
60
0
100
AcDbLine
10
27.29335
20
13.758733
30
0
11
25.412241
21
14.118476
31
0
39
0
210
0
220
0
230
1
0
LINE
5
AA
100
AcDbEntity
8
1
62
256
6
ByLayer
370
18
48
1
60
0
100
AcDbLine
10
27.334882
20
13.778617
30
0
11
27.615624
21
13.975544
31
0
39
0
210
0
220
0
230
1
0
LINE
5
AB
100
AcDbEntity
8
1
62
256
6
ByLayer
370
18
48
1
60
0
100
AcDbLine
10
28.336918
20
17.747223
30
0
11
28.148649
21
18.033844
31
0
39
0
210
0
220
0
230
1
0
LINE
5
AC
100
AcDbEntity
8
1
62
256
6
ByLayer
370
18
48
1
60
0
100
AcDbLine
10
66.933009
20
-0.802992
30
0
11
67.263813
21
-0.802992
31
0
39
0
210
0
220
0
230
1
0
LINE
5
AD
100
AcDbEntity
8
1
62
256
6
ByLayer
370
18
48
1
60
0
100
AcDbLine
10
67.02448
20
1.845181
30
0
11
67.355284
21
1.845181
31
0
39
0
210
0
220
0
230
1
0
LINE
5
AE
100
AcDbEntity
8
1
62
256
6
ByLayer
370
18
48
1
60
0
100
AcDbLine
10
67.580312
20
-0.655611
30
0
11
67.251308
21
-0.655611
31
0
39
0
210
0
220
0
230
1
0
LINE
5
AF
100
AcDbEntity
8
1
62
256
6
ByLayer
370
18
48
1
60
0
100
AcDbLine
10
67.361159
20
1.674676
30
0
11
67.690163
21
1.674676
31
0
39
0
210
0
220
0
230
1
0
LINE
5
B0
100
AcDbEntity
8
1
62
256
6
ByLayer
370
18
48
1
60
0
100
AcDbLine
10
68.243948
20
-0.473503
30
0
11
68.574752
21
-0.473503
31
0
39
0
210
0
220
0
230
1
0
LINE
5
B1
100
AcDbEntity
8
1
62
256
6
ByLayer
370
18
48
1
60
0
100
AcDbLine
10
68.309492
20
1.424043
30
0
11
68.640296
21
1.424043
31
0
39
0
210
0
220
0
230
1
0
LINE
5
B2
100
AcDbEntity
8
1
62
256
6
ByLayer
370
18
48
1
60
0
100
AcDbLine
10
68.591245
20
0.088395
30
0
11
68.922049
21
0.088395
31
0
39
0
210
0
220
0
230
1
0
LINE
5
B3
100
AcDbEntity
8
1
62
256
6
ByLayer
370
18
48
1
60
0
100
AcDbLine
10
68.617173
20
0.839022
30
0
11
68.947977
21
0.839022
31
0
39
0
210
0
220
0
230
1
0
LINE
5
B4
100
AcDbEntity
8
1
62
256
6
ByLayer
370
18
48
1
60
0
100
AcDbLine
10
67.151858
20
-3.490467
30
0
11
67.509598
21
-3.490467
31
0
39
0
210
0
220
0
230
1
0
LINE
5
B5
100
AcDbEntity
8
1
62
256
6
ByLayer
370
18
48
1
60
0
100
AcDbLine
10
67.509598
20
4.509533
30
0
11
67.151858
21
4.509533
31
0
39
0
210
0
220
0
230
1
0
LINE
5
B6
100
AcDbEntity
8
1
62
256
6
ByLayer
370
18
48
1
60
0
100
AcDbLine
10
10.02428
20
-21.534381
30
0
11
13.439082
21
-20.881336
31
0
39
0
210
0
220
0
230
1
0
LINE
5
B7
100
AcDbEntity
8
1
62
256
6
ByLayer
370
18
48
1
60
0
100
AcDbLine
10
25.412241
20
-18.591596
30
0
11
28.090044
21
-18.079494
31
0
39
0
210
0
220
0
230
1
0
LINE
5
B8
100
AcDbEntity
8
1
62
256
6
ByLayer
370
18
48
1
60
0
100
AcDbLine
10
27.29335
20
-13.758733
30
0
11
25.412241
21
-14.118476
31
0
39
0
210
0
220
0
230
1
0
LINE
5
B9
100
AcDbEntity
8
1
62
256
6
ByLayer
370
18
48
1
60
0
100
AcDbLine
10
28.148649
20
-18.033844
30
0
11
28.336918
21
-17.747223
31
0
39
0
210
0
220
0
230
1
0
LINE
5
BA
100
AcDbEntity
8
1
62
256
6
ByLayer
370
18
48
1
60
0
100
AcDbLine
10
27.615624
20
-13.975544
30
0
11
27.334882
21
-13.778617
31
0
39
0
210
0
220
0
230
1
0
LINE
5
BB
100
AcDbEntity
8
1
62
256
6
ByLayer
370
18
48
1
60
0
100
AcDbLine
10
68.178242
20
-3.671313
30
0
11
66.147721
21
-3.599627
31
0
39
0
210
0
220
0
230
1
0
LINE
5
BC
100
AcDbEntity
8
1
62
256
6
ByLayer
370
18
48
1
60
0
100
AcDbLine
10
61.055797
20
-5.361085
30
0
11
68.601406
21
-5.627479
31
0
39
0
210
0
220
0
230
1
0
LINE
5
BD
100
AcDbEntity
8
1
62
256
6
ByLayer
370
18
48
1
60
0
100
AcDbLine
10
59.506012
20
4.977013
30
0
11
59.216042
21
-3.41787
31
0
39
0
210
0
220
0
230
1
0
LINE
5
BE
100
AcDbEntity
8
1
62
256
6
ByLayer
370
18
48
1
60
0
100
AcDbLine
10
60.023151
20
3.362142
30
0
11
59.843646
21
-1.83469
31
0
39
0
210
0
220
0
230
1
0
LINE
5
BF
100
AcDbEntity
8
1
62
256
6
ByLayer
370
18
48
1
60
0
100
AcDbLine
10
66.434239
20
4.695317
30
0
11
68.46476
21
4.623631
31
0
39
0
210
0
220
0
230
1
0
LINE
5
C0
100
AcDbEntity
8
1
62
256
6
ByLayer
370
18
48
1
60
0
100
AcDbLine
10
61.475393
20
6.786601
30
0
11
69.021003
21
6.520208
31
0
39
0
210
0
220
0
230
1
0
LINE
5
C1
100
AcDbEntity
8
1
62
256
6
ByLayer
370
18
48
1
60
0
100
AcDbLine
10
66.434239
20
4.695317
30
0
11
66.381185
21
4.696164
31
0
39
0
210
0
220
0
230
1
0
LINE
5
C2
100
AcDbEntity
8
1
62
256
6
ByLayer
370
18
48
1
60
0
100
AcDbLine
10
61.583832
20
3.30745
30
0
11
62.049701
21
3.300013
31
0
39
0
210
0
220
0
230
1
0
LINE
5
C3
100
AcDbEntity
8
1
62
256
6
ByLayer
370
18
48
1
60
0
100
AcDbLine
10
61.983497
20
3.30162
30
0
11
61.527169
21
3.308905
31
0
39
0
210
0
220
0
230
1
0
LINE
5
C4
100
AcDbEntity
8
1
62
256
6
ByLayer
370
18
48
1
60
0
100
AcDbLine
10
61.527169
20
3.308905
30
0
11
60.023151
21
3.362142
31
0
39
0
210
0
220
0
230
1
0
LINE
5
C5
100
AcDbEntity
8
1
62
256
6
ByLayer
370
18
48
1
60
0
100
AcDbLine
10
68.46476
20
4.623631
30
0
11
67.984033
21
4.631306
31
0
39
0
210
0
220
0
230
1
0
LINE
5
C6
100
AcDbEntity
8
1
62
256
6
ByLayer
370
18
48
1
60
0
100
AcDbLine
10
66.381076
20
4.688045
30
0
11
67.984033
21
4.631306
31
0
39
0
210
0
220
0
230
1
0
LINE
5
C7
100
AcDbEntity
8
1
62
256
6
ByLayer
370
18
48
1
60
0
100
AcDbLine
10
61.324659
20
-6.509143
30
0
11
60.738188
21
-6.49978
31
0
39
0
210
0
220
0
230
1
0
LINE
5
C8
100
AcDbEntity
8
1
62
256
6
ByLayer
370
18
48
1
60
0
100
AcDbLine
10
59.216042
20
-3.41787
30
0
11
57.448788
21
-3.389655
31
0
39
0
210
0
220
0
230
1
0
LINE
5
C9
100
AcDbEntity
8
1
62
256
6
ByLayer
370
18
48
1
60
0
100
AcDbLine
10
61.764585
20
7.883554
30
0
11
61.157663
21
7.893244
31
0
39
0
210
0
220
0
230
1
0
LINE
5
CA
100
AcDbEntity
8
1
62
256
6
ByLayer
370
18
48
1
60
0
100
AcDbLine
10
59.506012
20
4.977013
30
0
11
57.738758
21
5.005228
31
0
39
0
210
0
220
0
230
1
0
LINE
5
CB
100
AcDbEntity
8
1
62
256
6
ByLayer
370
18
48
1
60
0
100
AcDbLine
10
57.448788
20
-3.389655
30
0
11
57.738758
21
5.005228
31
0
39
0
210
0
220
0
230
1
0
LINE
5
CC
100
AcDbEntity
8
1
62
256
6
ByLayer
370
18
48
1
60
0
100
AcDbLine
10
68.126584
20
-6.747124
30
0
11
62.753228
21
-6.557421
31
0
39
0
210
0
220
0
230
1
0
LINE
5
CD
100
AcDbEntity
8
1
62
256
6
ByLayer
370
18
48
1
60
0
100
AcDbLine
10
62.747978
20
-6.559393
30
0
11
62.753228
21
-6.557421
31
0
39
0
210
0
220
0
230
1
0
LINE
5
CE
100
AcDbEntity
8
1
62
256
6
ByLayer
370
18
48
1
60
0
100
AcDbLine
10
61.324659
20
-6.509143
30
0
11
62.747978
21
-6.559393
31
0
39
0
210
0
220
0
230
1
0
LINE
5
CF
100
AcDbEntity
8
1
62
256
6
ByLayer
370
18
48
1
60
0
100
AcDbLine
10
63.24507
20
7.831835
30
0
11
61.82175
21
7.882085
31
0
39
0
210
0
220
0
230
1
0
LINE
5
D0
100
AcDbEntity
8
1
62
256
6
ByLayer
370
18
48
1
60
0
100
AcDbLine
10
63.24507
20
7.831835
30
0
11
63.250173
21
7.829556
31
0
39
0
210
0
220
0
230
1
0
LINE
5
D1
100
AcDbEntity
8
1
62
256
6
ByLayer
370
18
48
1
60
0
100
AcDbLine
10
68.623529
20
7.639853
30
0
11
63.250173
21
7.829556
31
0
39
0
210
0
220
0
230
1
0
LINE
5
D2
100
AcDbEntity
8
1
62
256
6
ByLayer
370
18
48
1
60
0
100
AcDbLine
10
81.817746
20
-2.172997
30
0
11
81.982359
21
-1.999133
31
0
39
0
210
0
220
0
230
1
0
LINE
5
D3
100
AcDbEntity
8
1
62
256
6
ByLayer
370
18
48
1
60
0
100
AcDbLine
10
81.817746
20
-2.172997
30
0
11
81.000816
21
-2.864712
31
0
39
0
210
0
220
0
230
1
0
LINE
5
D4
100
AcDbEntity
8
1
62
256
6
ByLayer
370
18
48
1
60
0
100
AcDbLine
10
80.681659
20
0.027365
30
0
11
83.274755
21
-0.080618
31
0
39
0
210
0
220
0
230
1
0
LINE
5
D5
100
AcDbEntity
8
1
62
256
6
ByLayer
370
18
48
1
60
0
100
AcDbLine
10
82.360351
20
-1.71356
30
0
11
82.186832
21
-1.860483
31
0
39
0
210
0
220
0
230
1
0
LINE
5
D6
100
AcDbEntity
8
1
62
256
6
ByLayer
370
18
48
1
60
0
100
AcDbLine
10
81.965446
20
2.103034
30
0
11
81.198301
21
2.852649
31
0
39
0
210
0
220
0
230
1
0
LINE
5
D7
100
AcDbEntity
8
1
62
256
6
ByLayer
370
18
48
1
60
0
100
AcDbLine
10
82.117661
20
1.917985
30
0
11
81.965446
21
2.103034
31
0
39
0
210
0
220
0
230
1
0
LINE
5
D8
100
AcDbEntity
8
1
62
256
6
ByLayer
370
18
48
1
60
0
100
AcDbLine
10
82.474983
20
1.605139
30
0
11
82.312039
21
1.76436
31
0
39
0
210
0
220
0
230
1
0
LINE
5
D9
100
AcDbEntity
8
1
62
256
6
ByLayer
370
18
48
1
60
0
100
AcDbLine
10
62.747978
20
-6.559393
30
0
11
60.813669
21
-6.502024
31
0
39
0
210
0
220
0
230
1
0
LINE
5
DA
100
AcDbEntity
8
1
62
256
6
ByLayer
370
18
48
1
60
0
100
AcDbLine
10
89.940536
20
0.608239
30
0
11
81.390865
21
7.861082
31
0
39
0
210
0
220
0
230
1
0
LINE
5
DB
100
AcDbEntity
8
1
62
256
6
ByLayer
370
18
48
1
60
0
100
AcDbLine
10
81.390865
20
-7.861082
30
0
11
89.940536
21
-0.608239
31
0
39
0
210
0
220
0
230
1
0
LINE
5
DC
100
AcDbEntity
8
1
62
256
6
ByLayer
370
18
48
1
60
0
100
AcDbLine
10
76.904674
20
-4.911872
30
0
11
80.381211
21
-7.861082
31
0
39
0
210
0
220
0
230
1
0
LINE
5
DD
100
AcDbEntity
8
1
62
256
6
ByLayer
370
18
48
1
60
0
100
AcDbLine
10
80.381211
20
7.861082
30
0
11
77.232479
21
5.189955
31
0
39
0
210
0
220
0
230
1
0
LINE
5
DE
100
AcDbEntity
8
1
62
256
6
ByLayer
370
18
48
1
60
0
100
AcDbLine
10
80.280311
20
-7.861082
30
0
11
80.381211
21
-7.861082
31
0
39
0
210
0
220
0
230
1
0
LINE
5
DF
100
AcDbEntity
8
1
62
256
6
ByLayer
370
18
48
1
60
0
100
AcDbLine
10
80.381211
20
7.861082
30
0
11
80.270029
21
7.861082
31
0
39
0
210
0
220
0
230
1
0
LINE
5
E0
100
AcDbEntity
8
1
62
256
6
ByLayer
370
18
48
1
60
0
100
AcDbLine
10
80.886038
20
8.046843
30
0
11
80.186204
21
8.046843
31
0
39
0
210
0
220
0
230
1
0
LINE
5
E1
100
AcDbEntity
8
1
62
256
6
ByLayer
370
18
48
1
60
0
100
AcDbLine
10
80.186204
20
-8.046843
30
0
11
80.886038
21
-8.046843
31
0
39
0
210
0
220
0
230
1
0
LINE
5
E2
100
AcDbEntity
8
1
62
256
6
ByLayer
370
18
48
1
60
0
100
AcDbLine
10
22
20
31.75
30
0
11
22
21
-31.75
31
0
39
0
210
0
220
0
230
1
0
LINE
5
E3
100
AcDbEntity
8
1
62
256
6
ByLayer
370
18
48
1
60
0
100
AcDbLine
10
25.412241
20
-28.313539
30
0
11
25.412241
21
28.313539
31
0
39
0
210
0
220
0
230
1
0
LINE
5
E4
100
AcDbEntity
8
1
62
256
6
ByLayer
370
18
48
1
60
0
100
AcDbLine
10
0.3
20
-31.5
30
0
11
0.3
21
31.5
31
0
39
0
210
0
220
0
230
1
0
LINE
5
E5
100
AcDbEntity
8
1
62
256
6
ByLayer
370
18
48
1
60
0
100
AcDbLine
10
0
20
-31.2
30
0
11
0
21
31.2
31
0
39
0
210
0
220
0
230
1
0
LINE
5
E6
100
AcDbEntity
8
SK1
62
256
6
ByLayer
370
18
48
1
60
0
100
AcDbLine
10
-1.307107
20
-5.313223
30
0
11
-1.307107
21
5.313223
31
0
39
0
210
0
220
0
230
1
0
LINE
5
E7
100
AcDbEntity
8
SK1
62
256
6
ByLayer
370
18
48
1
60
0
100
AcDbLine
10
-36.642113
20
4.030013
30
0
11
-36.642113
21
-4.030013
31
0
39
0
210
0
220
0
230
1
0
LINE
5
E8
100
AcDbEntity
8
SK1
62
256
6
ByLayer
370
18
48
1
60
0
100
AcDbLine
10
-38
20
-3.718991
30
0
11
-38
21
3.718991
31
0
39
0
210
0
220
0
230
1
0
LINE
5
E9
100
AcDbEntity
8
SK1
62
256
6
ByLayer
370
18
48
1
60
0
100
AcDbLine
10
-36.642113
20
21.017182
30
0
11
-36.642113
21
4.030013
31
0
39
0
210
0
220
0
230
1
0
LINE
5
EA
100
AcDbEntity
8
SK1
62
256
6
ByLayer
370
18
48
1
60
0
100
AcDbLine
10
-36.642113
20
-4.030013
30
0
11
-36.642113
21
-21.017182
31
0
39
0
210
0
220
0
230
1
0
LINE
5
EB
100
AcDbEntity
8
SK1
62
256
6
ByLayer
370
18
48
1
60
0
100
AcDbLine
10
-38
20
-20.233206
30
0
11
-38
21
-3.718991
31
0
39
0
210
0
220
0
230
1
0
LINE
5
EC
100
AcDbEntity
8
SK1
62
256
6
ByLayer
370
18
48
1
60
0
100
AcDbLine
10
-38
20
3.718991
30
0
11
-38
21
20.233206
31
0
39
0
210
0
220
0
230
1
0
LINE
5
ED
100
AcDbEntity
8
1
62
256
6
ByLayer
370
18
48
1
60
0
100
AcDbLine
10
27.880002
20
13.653596
30
0
11
27.29965
21
13.760471
31
0
39
0
210
0
220
0
230
1
0
LINE
5
EE
100
AcDbEntity
8
1
62
256
6
ByLayer
370
18
48
1
60
0
100
AcDbLine
10
26.88417
20
13.836985
30
0
11
25.412241
21
14.10805
31
0
39
0
210
0
220
0
230
1
0
LINE
5
EF
100
AcDbEntity
8
1
62
256
6
ByLayer
370
18
48
1
60
0
100
AcDbLine
10
25.412241
20
-14.10805
30
0
11
26.88417
21
-13.836985
31
0
39
0
210
0
220
0
230
1
0
LINE
5
F0
100
AcDbEntity
8
1
62
256
6
ByLayer
370
18
48
1
60
0
100
AcDbLine
10
27.29965
20
-13.760471
30
0
11
27.880002
21
-13.653596
31
0
39
0
210
0
220
0
230
1
0
LINE
5
F1
100
AcDbEntity
8
80
62
256
6
ByLayer
370
18
48
1
60
0
100
AcDbLine
10
0
20
0
30
0
11
-18
21
0
31
0
39
0
210
0
220
0
230
1
0
LINE
5
F2
100
AcDbEntity
8
SK4
62
256
6
ByLayer
370
18
48
0.05
60
0
100
AcDbLine
10
-48
20
0
30
0
11
96.881627
21
0
31
0
39
0
210
0
220
0
230
1
0
LINE
5
F4
100
AcDbEntity
8
81
62
256
6
ByLayer
370
18
48
1
60
0
100
AcDbLine
10
108.221081
20
0.370248
30
0
11
90.221081
21
0.370248
31
0
39
0
210
0
220
0
230
1
0
MTEXT
5
1D7
100
AcDbEntity
8
SK6
62
256
6
ByLayer
370
18
48
1
60
0
100
AcDbMText
10
24.452606
20
-61.124198
30
0
210
0
220
0
230
1
1
\W0.7154;C6-DCMNN-00090-12
40
3
41
0
44
1.084337
50
0
71
7
72
5
7
iso_b_vert
0
DIMENSION
5
1E9
100
AcDbEntity
8
SK2
62
256
6
ByLayer
370
13
48
1
60
0
100
AcDbDimension
2
DimnDraft3D1
10
31.5
20
48.950262
30
0
11
-5.202632
21
48.950262
31
0
70
32
71
5
72
1
41
1
210
0
220
0
230
1
3
Standard
100
AcDbAlignedDimension
13
-31.5
23
1.7
33
0
14
31.5
24
1.7
34
0
50
0
100
AcDbRotatedDimension
1001
ACAD
1000
DSTYLE
1002
{
1070
   279
1070
     0
1070
   172
1070
     1
1070
   173
1070
     1
1070
   340
1005
1D8
1070
    77
1070
     1
1070
    73
1070
     0
1070
   171
1070
     3
1070
   274
1070
     4
1070
   177
1070
     7
1070
   176
1070
     7
1070
   178
1070
     7
1070
    78
1070
     8
1070
    41
1041
3.175
1070
   147
1041
1.5
1070
    42
1041
2.0
1070
    44
1041
2.0
1070
   140
1041
3.0
1070
   343
1005
1EA
1070
   344
1005
1EA
1002
}
0
DIMENSION
5
1FF
100
AcDbEntity
8
2
62
256
6
ByLayer
370
13
48
1
60
0
100
AcDbDimension
2
DimnDraft3D2
10
0
20
-107.817132
30
0
11
10.625248
21
-107.817132
31
0
70
32
71
5
72
1
41
1
210
0
220
0
230
1
3
Standard
100
AcDbAlignedDimension
13
0.370248
23
-92.221081
33
0
14
0
24
-98.881627
34
0
50
0
100
AcDbRotatedDimension
1001
ACAD
1000
DSTYLE
1002
{
1070
   279
1070
     0
1070
   172
1070
     1
1070
   173
1070
     1
1070
   340
1005
1D8
1070
    77
1070
     1
1070
    73
1070
     0
1070
   171
1070
     3
1070
   274
1070
     4
1070
   177
1070
     7
1070
   176
1070
     7
1070
   178
1070
     7
1070
    78
1070
     8
1070
    41
1041
3.175
1070
   147
1041
1.5
1070
    42
1041
2.0
1070
    44
1041
2.0
1070
   140
1041
3.0
1070
   343
1005
1EA
1070
   344
1005
1EA
1002
}
0
DIMENSION
5
20D
100
AcDbEntity
8
2
62
256
6
ByLayer
370
13
48
1
60
0
100
AcDbDimension
2
DimnDraft3D3
10
45.689234
20
0
30
0
11
45.689234
21
43.357909
31
0
70
32
71
5
72
1
41
1
210
0
220
0
230
1
3
Standard
100
AcDbAlignedDimension
13
1.629752
23
90.221081
33
0
14
33.2
24
0
34
0
50
90
100
AcDbRotatedDimension
1001
ACAD
1000
DSTYLE
1002
{
1070
    74
1070
     0
1070
   279
1070
     0
1070
   172
1070
     1
1070
   173
1070
     1
1070
   340
1005
1D8
1070
    77
1070
     1
1070
    73
1070
     0
1070
   171
1070
     3
1070
   274
1070
     4
1070
   177
1070
     7
1070
   176
1070
     7
1070
   178
1070
     7
1070
    78
1070
     8
1070
    41
1041
3.175
1070
   147
1041
1.5
1070
    42
1041
2.0
1070
    44
1041
2.0
1070
   140
1041
3.0
1070
   343
1005
1EA
1070
   344
1005
1EA
1002
}
0
DIMENSION
5
21B
100
AcDbEntity
8
2
62
256
6
ByLayer
370
13
48
1
60
0
100
AcDbDimension
2
DimnDraft3D4
10
81.390865
20
7.861082
30
0
11
77.02851
21
28.861852
31
0
70
34
71
5
72
1
41
1
210
0
220
0
230
1
3
Standard
100
AcDb2LineAngularDimension
13
90.221081
23
0.370248
33
0
14
90.221081
24
-0.629752
34
0
15
89.940536
25
0.608239
35
0
16
78.289039
26
26.139525
36
0
40
0
0
ENDSEC
0
SECTION
2
OBJECTS
0
DICTIONARY
5
286
330
0
100
AcDbDictionary
280
0
281
1
3
ACAD_GROUP
350
287
3
ACAD_MLINESTYLE
350
288
0
DICTIONARY
5
287
330
0
100
AcDbDictionary
280
0
281
1
0
DICTIONARY
5
288
330
0
100
AcDbDictionary
280
0
281
1
3
Standard
350
18
0
MLINESTYLE
5
18
330
288
100
AcDbMlineStyle
2
Standard
70
0
3

62
256
51
90
52
90
71
2
49
-0.5
62
256
6
ByLayer
49
0.5
62
256
6
ByLayer
0
RASTERVARIABLES
5
274
330

100
AcDbRasterVariables
90
0
70
1
71
1
72
1
0
ENDSEC
0
EOF
