0
SECTION
2
HEADER
9
$ACADVER
1
AC1015
9
$DWGCODEPAGE
3
ANSI_1252
9
$HANDSEED
5
2ab
9
$ANGBASE
50
0
9
$ANGDIR
70
0
9
$ATTMODE
70
1
9
$AUNITS
70
0
9
$AUPREC
70
0
9
$CECOLOR
62
256
9
$CELTSCALE
40
1
9
$CELTYPE
6
ByLayer
9
$CELWEIGHT
370
18
9
$CLAYER
8
0
9
$CMLJUST
70
0
9
$CMLSCALE
40
1
9
$CMLSTYLE
2
Standard
9
$DIMSTYLE
2
Standard
9
$TEXTSIZE
40
0.2
9
$TEXTSTYLE
7
Standard
9
$LUNITS
70
2
9
$LUPREC
70
4
9
$EXTNAMES
290
1
9
$INSUNITS
70
4
9
$LTSCALE
40
1
9
$LWDISPLAY
290
1
9
$PDMODE
70
0
9
$PDSIZE
40
0
9
$PLINEGEN
70
0
0
ENDSEC
0
SECTION
2
CLASSES
0
CLASS
1
RASTERVARIABLES
2
AcDbRasterVariables
3
ISM
90
0
280
0
281
0
0
ENDSEC
0
SECTION
2
TABLES
0
TABLE
2
VPORT
5
2a1
100
AcDbSymbolTable
0
VPORT
5
1
100
AcDbSymbolTableRecord
100
AcDbViewportTableRecord
2
*Active
70
0
10
0
20
0
11
1
21
1
12
-1
22
1
13
0
23
0
14
0.5
24
0.5
15
10
25
10
16
0
26
0
36
1
17
0
27
0
37
0
0
ENDTAB
0
TABLE
2
LTYPE
5
2a2
100
AcDbSymbolTable
0
LTYPE
5
14
100
AcDbSymbolTableRecord
100
AcDbLinetypeTableRecord
70
0
2
ByBlock
3

72
65
73
0
40
0
0
LTYPE
5
15
100
AcDbSymbolTableRecord
100
AcDbLinetypeTableRecord
70
0
2
ByLayer
3

72
65
73
0
40
0
0
LTYPE
5
16
100
AcDbSymbolTableRecord
100
AcDbLinetypeTableRecord
70
0
2
CONTINUOUS
3
Solid line
72
65
73
0
40
0
0
LTYPE
5
6A
100
AcDbSymbolTableRecord
100
AcDbLinetypeTableRecord
70
0
2
CENTER
3
____ _ ____ _ ____ _ ____
72
65
73
4
40
47.5
49
22
74
0
49
-8.5
74
0
49
8.5
74
0
49
-8.5
74
0
0
LTYPE
5
6B
100
AcDbSymbolTableRecord
100
AcDbLinetypeTableRecord
70
0
2
DASHED
3
__ __ __ __ __ __ __ __ __
72
65
73
2
40
25.72
49
12.86
74
0
49
-12.86
74
0
0
ENDTAB
0
TABLE
2
LAYER
5
2a3
100
AcDbSymbolTable
0
LAYER
5
10
100
AcDbSymbolTableRecord
100
AcDbLayerTableRecord
2
0
70
0
62
7
6
CONTINUOUS
290
1
370
-3
390
0
0
LAYER
5
6D
100
AcDbSymbolTableRecord
100
AcDbLayerTableRecord
2
80
70
0
62
-6
6
CONTINUOUS
290
1
370
-3
390
0
0
LAYER
5
6F
100
AcDbSymbolTableRecord
100
AcDbLayerTableRecord
2
81
70
0
62
-3
6
CONTINUOUS
290
1
370
-3
390
0
0
LAYER
5
72
100
AcDbSymbolTableRecord
100
AcDbLayerTableRecord
2
4
70
0
62
-2
6
CENTER
290
1
370
-3
390
0
0
LAYER
5
7C
100
AcDbSymbolTableRecord
100
AcDbLayerTableRecord
2
1
70
0
62
4
6
CONTINUOUS
290
1
370
-3
390
0
0
LAYER
5
1F8
100
AcDbSymbolTableRecord
100
AcDbLayerTableRecord
2
2
70
0
62
7
6
CONTINUOUS
290
1
370
-3
390
0
0
LAYER
5
28d
100
AcDbSymbolTableRecord
100
AcDbLayerTableRecord
2
SK4
70
0
62
2
6
CENTER
290
1
370
-3
390
0
0
LAYER
5
28e
100
AcDbSymbolTableRecord
100
AcDbLayerTableRecord
2
SK1
70
0
62
4
6
CONTINUOUS
290
1
370
-3
390
0
0
LAYER
5
28f
100
AcDbSymbolTableRecord
100
AcDbLayerTableRecord
2
SK6
70
0
62
5
6
CONTINUOUS
290
1
370
-3
390
0
0
LAYER
5
290
100
AcDbSymbolTableRecord
100
AcDbLayerTableRecord
2
SK2
70
0
62
7
6
CONTINUOUS
290
1
370
-3
390
0
0
ENDTAB
0
TABLE
2
STYLE
5
2a4
100
AcDbSymbolTable
0
STYLE
5
11
100
AcDbSymbolTableRecord
100
AcDbTextStyleTableRecord
2
Standard
3
txt
70
0
71
0
40
0
41
1
42
0
50
0
0
STYLE
5
1F3
100
AcDbSymbolTableRecord
100
AcDbTextStyleTableRecord
2
iso_b_vert
3
simplex.shx
70
0
71
0
40
0
41
1
42
0
50
0
0
STYLE
5
1F4
100
AcDbSymbolTableRecord
100
AcDbTextStyleTableRecord
2
DWGDirectTextStyle
3
simplex
70
0
71
0
40
0
41
1
42
0
50
0
0
ENDTAB
0
TABLE
2
DIMSTYLE
5
2a5
100
AcDbSymbolTable
100
AcDbDimStyleTable
0
DIMSTYLE
105
27
100
AcDbSymbolTableRecord
100
AcDbDimStyleTableRecord
2
Standard
70
0
3
<>
41
0.18
42
0.0625
44
0.18
140
0.18
147
0.09
73
0
74
0
77
1
271
2
275
0
278
52
280
0
340
11
0
ENDTAB
0
TABLE
2
VIEW
5
2a6
100
AcDbSymbolTable
0
ENDTAB
0
TABLE
2
UCS
5
2a7
100
AcDbSymbolTable
0
ENDTAB
0
TABLE
2
APPID
5
2a8
100
AcDbSymbolTable
0
APPID
5
12
100
AcDbSymbolTableRecord
100
AcDbRegAppTableRecord
2
ACAD
70
0
0
ENDTAB
0
TABLE
2
BLOCK_RECORD
5
2a9
100
AcDbSymbolTable
0
BLOCK_RECORD
5
1F
100
AcDbSymbolTableRecord
100
AcDbBlockTableRecord
2
*Model_Space
340
0
70
0
0
BLOCK_RECORD
5
1B
100
AcDbSymbolTableRecord
100
AcDbBlockTableRecord
2
*Paper_Space
340
0
70
0
0
BLOCK_RECORD
5
23
100
AcDbSymbolTableRecord
100
AcDbBlockTableRecord
2
*Paper_Space0
340
0
70
0
0
BLOCK_RECORD
5
1F6
100
AcDbSymbolTableRecord
100
AcDbBlockTableRecord
2
DimnDraft3D1
340
0
70
0
0
BLOCK_RECORD
5
201
100
AcDbSymbolTableRecord
100
AcDbBlockTableRecord
2
DimnDraft3D2
340
0
70
0
0
BLOCK_RECORD
5
20A
100
AcDbSymbolTableRecord
100
AcDbBlockTableRecord
2
DimnDraft3D33
340
0
70
0
0
BLOCK_RECORD
5
214
100
AcDbSymbolTableRecord
100
AcDbBlockTableRecord
2
DimnDraft3D4
340
0
70
0
0
BLOCK_RECORD
5
21F
100
AcDbSymbolTableRecord
100
AcDbBlockTableRecord
2
DimnDraft3D5
340
0
70
0
0
BLOCK_RECORD
5
22A
100
AcDbSymbolTableRecord
100
AcDbBlockTableRecord
2
DimnDraft3D6
340
0
70
0
0
ENDTAB
0
ENDSEC
0
SECTION
2
BLOCKS
0
BLOCK
5
20
100
AcDbEntity
8
0
100
AcDbBlockBegin
2
*Model_Space
70
0
10
0
20
0
30
0
3
*Model_Space
0
ENDBLK
5
21
100
AcDbEntity
8
0
100
AcDbBlockEnd
0
BLOCK
5
1C
100
AcDbEntity
8
0
100
AcDbBlockBegin
2
*Paper_Space
70
0
10
0
20
0
30
0
3
*Paper_Space
0
ENDBLK
5
1D
100
AcDbEntity
8
0
100
AcDbBlockEnd
0
BLOCK
5
24
100
AcDbEntity
8
0
100
AcDbBlockBegin
2
*Paper_Space0
70
0
10
0
20
0
30
0
3
*Paper_Space0
0
ENDBLK
5
25
100
AcDbEntity
8
0
100
AcDbBlockEnd
0
BLOCK
5
1FE
100
AcDbEntity
8
0
100
AcDbBlockBegin
2
DimnDraft3D1
70
0
10
0
20
0
30
0
3
DimnDraft3D1
0
MTEXT
5
1F7
100
AcDbEntity
8
2
62
256
6
ByLayer
370
13
48
1
60
0
100
AcDbMText
10
58.107533
20
59.460561
30
0
210
0
220
0
230
1
1
\W0.6217;120
40
3.175
41
0
44
1.084337
50
0
71
7
72
5
7
iso_b_vert
0
LINE
5
1F9
100
AcDbEntity
8
2
62
256
6
ByLayer
370
13
48
1
60
0
100
AcDbLine
10
0
20
1.5875
30
0
11
0
21
61.841811
31
0
39
0
210
0
220
0
230
1
0
LINE
5
1FA
100
AcDbEntity
8
2
62
256
6
ByLayer
370
13
48
1
60
0
100
AcDbLine
10
120
20
1.5875
30
0
11
120
21
61.841811
31
0
39
0
210
0
220
0
230
1
0
LINE
5
1FB
100
AcDbEntity
8
2
62
256
6
ByLayer
370
13
48
1
60
0
100
AcDbLine
10
0
20
58.666811
30
0
11
120
21
58.666811
31
0
39
0
210
0
220
0
230
1
0
SOLID
5
1FC
100
AcDbEntity
8
2
62
256
6
ByLayer
370
13
48
1
60
0
100
AcDbTrace
10
0
20
58.666811
30
0
11
3.174998
21
59.084807
31
0
12
3.175002
22
58.248814
32
0
13
0
23
58.666811
33
0
39
0
210
0
220
0
230
1
0
SOLID
5
1FD
100
AcDbEntity
8
2
62
256
6
ByLayer
370
13
48
1
60
0
100
AcDbTrace
10
120
20
58.666811
30
0
11
116.825002
21
58.248814
31
0
12
116.824998
22
59.084807
32
0
13
120
23
58.666811
33
0
39
0
210
0
220
0
230
1
0
ENDBLK
5
1FF
100
AcDbEntity
8
0
100
AcDbBlockEnd
0
BLOCK
5
207
100
AcDbEntity
8
0
100
AcDbBlockBegin
2
DimnDraft3D2
70
0
10
0
20
0
30
0
3
DimnDraft3D2
0
MTEXT
5
202
100
AcDbEntity
8
SK2
62
256
6
ByLayer
370
13
48
1
60
0
100
AcDbMText
10
50.314173
20
44.619876
30
0
210
0
220
0
230
1
1
\W0.5404;7
40
3.175
41
0
44
1.084337
50
39.8643198611878
71
7
72
5
7
iso_b_vert
0
MTEXT
5
204
100
AcDbEntity
8
SK2
62
256
6
ByLayer
370
13
48
1
60
0
100
AcDbMText
10
47.139637
20
41.968909
30
0
210
0
220
0
230
1
1
\W0.6380;R
40
3.175
41
0
44
1.084337
50
39.8643198611878
71
7
72
5
7
iso_b_vert
0
LINE
5
205
100
AcDbEntity
8
SK2
62
256
6
ByLayer
370
13
48
1
60
0
100
AcDbLine
10
25.079753
20
22.513198
30
0
11
51.303935
21
44.412283
31
0
39
0
210
0
220
0
230
1
0
SOLID
5
206
100
AcDbEntity
8
SK2
62
256
6
ByLayer
370
13
48
1
60
0
100
AcDbTrace
10
25.079753
20
22.513198
30
0
11
27.248845
21
24.869121
31
0
12
27.784696
22
24.227445
32
0
13
25.079753
23
22.513198
33
0
39
0
210
0
220
0
230
1
0
ENDBLK
5
208
100
AcDbEntity
8
0
100
AcDbBlockEnd
0
BLOCK
5
20B
100
AcDbEntity
8
0
100
AcDbBlockBegin
2
DimnDraft3D33
70
0
10
0
20
0
30
0
3
DimnDraft3D33
0
LINE
5
20D
100
AcDbEntity
8
SK2
62
256
6
ByLayer
370
25
48
1
60
0
100
AcDbLine
10
120
20
1.5875
30
0
11
120
21
30.017898
31
0
39
0
210
0
220
0
230
1
0
LINE
5
20E
100
AcDbEntity
8
SK2
62
256
6
ByLayer
370
25
48
1
60
0
100
AcDbLine
10
30.452705
20
21.5875
30
0
11
30.452705
21
30.017898
31
0
39
0
210
0
220
0
230
1
0
LINE
5
20F
100
AcDbEntity
8
SK2
62
256
6
ByLayer
370
25
48
1
60
0
100
AcDbLine
10
120
20
26.842898
30
0
11
30.452705
21
26.842898
31
0
39
0
210
0
220
0
230
1
0
SOLID
5
210
100
AcDbEntity
8
SK2
62
256
6
ByLayer
370
25
48
1
60
0
100
AcDbTrace
10
120
20
26.842898
30
0
11
116.825002
21
26.424902
31
0
12
116.824998
22
27.260895
32
0
13
120
23
26.842898
33
0
39
0
210
0
220
0
230
1
0
SOLID
5
211
100
AcDbEntity
8
SK2
62
256
6
ByLayer
370
25
48
1
60
0
100
AcDbTrace
10
30.452705
20
26.842898
30
0
11
33.627703
21
27.260895
31
0
12
33.627706
22
26.424902
32
0
13
30.452705
23
26.842898
33
0
39
0
210
0
220
0
230
1
0
MTEXT
5
212
100
AcDbEntity
8
SK2
62
256
6
ByLayer
370
13
48
1
60
0
100
AcDbMText
10
72.377208
20
27.636648
30
0
210
0
220
0
230
1
1
\W0.7150;89,5
40
3.175
41
0
44
1.084337
50
0
71
7
72
5
7
iso_b_vert
0
ENDBLK
5
20C
100
AcDbEntity
8
0
100
AcDbBlockEnd
0
BLOCK
5
21C
100
AcDbEntity
8
0
100
AcDbBlockBegin
2
DimnDraft3D4
70
0
10
0
20
0
30
0
3
DimnDraft3D4
0
MTEXT
5
215
100
AcDbEntity
8
SK2
62
256
6
ByLayer
370
13
48
1
60
0
100
AcDbMText
10
-44.635404
20
-4.25309
30
0
210
0
220
0
230
1
1
%%c
40
3.175
41
0
44
1.084337
50
90
71
7
72
5
7
iso_b_vert
0
MTEXT
5
216
100
AcDbEntity
8
SK2
62
256
6
ByLayer
370
13
48
1
60
0
100
AcDbMText
10
-44.635404
20
3.659605
30
0
210
0
220
0
230
1
1
\W0.6740;63
40
3.175
41
0
44
1.084337
50
90
71
7
72
5
7
iso_b_vert
0
LINE
5
217
100
AcDbEntity
8
SK2
62
256
6
ByLayer
370
13
48
1
60
0
100
AcDbLine
10
-1.2875
20
31.5
30
0
11
-46.222904
21
31.5
31
0
39
0
210
0
220
0
230
1
0
LINE
5
218
100
AcDbEntity
8
SK2
62
256
6
ByLayer
370
13
48
1
60
0
100
AcDbLine
10
-1.2875
20
-31.5
30
0
11
-46.222904
21
-31.5
31
0
39
0
210
0
220
0
230
1
0
LINE
5
219
100
AcDbEntity
8
SK2
62
256
6
ByLayer
370
13
48
1
60
0
100
AcDbLine
10
-43.047904
20
31.5
30
0
11
-43.047904
21
-31.5
31
0
39
0
210
0
220
0
230
1
0
SOLID
5
21A
100
AcDbEntity
8
SK2
62
256
6
ByLayer
370
13
48
1
60
0
100
AcDbTrace
10
-43.047904
20
31.5
30
0
11
-42.629908
21
28.325002
31
0
12
-43.465901
22
28.324998
32
0
13
-43.047904
23
31.5
33
0
39
0
210
0
220
0
230
1
0
SOLID
5
21B
100
AcDbEntity
8
SK2
62
256
6
ByLayer
370
13
48
1
60
0
100
AcDbTrace
10
-43.047904
20
-31.5
30
0
11
-43.465901
21
-28.325002
31
0
12
-42.629908
22
-28.324998
32
0
13
-43.047904
23
-31.5
33
0
39
0
210
0
220
0
230
1
0
ENDBLK
5
21D
100
AcDbEntity
8
0
100
AcDbBlockEnd
0
BLOCK
5
227
100
AcDbEntity
8
0
100
AcDbBlockBegin
2
DimnDraft3D5
70
0
10
0
20
0
30
0
3
DimnDraft3D5
0
MTEXT
5
220
100
AcDbEntity
8
SK2
62
256
6
ByLayer
370
13
48
1
60
0
100
AcDbMText
10
145.102117
20
-4.420195
30
0
210
0
220
0
230
1
1
%%c
40
3.175
41
0
44
1.084337
50
90
71
7
72
5
7
iso_b_vert
0
MTEXT
5
221
100
AcDbEntity
8
SK2
62
256
6
ByLayer
370
13
48
1
60
0
100
AcDbMText
10
145.102117
20
3.4925
30
0
210
0
220
0
230
1
1
\W0.7361;40
40
3.175
41
0
44
1.084337
50
90
71
7
72
5
7
iso_b_vert
0
LINE
5
222
100
AcDbEntity
8
SK2
62
256
6
ByLayer
370
13
48
1
60
0
100
AcDbLine
10
119.2875
20
20
30
0
11
149.864617
21
20
31
0
39
0
210
0
220
0
230
1
0
LINE
5
223
100
AcDbEntity
8
SK2
62
256
6
ByLayer
370
13
48
1
60
0
100
AcDbLine
10
119.2875
20
-20
30
0
11
149.864617
21
-20
31
0
39
0
210
0
220
0
230
1
0
LINE
5
224
100
AcDbEntity
8
SK2
62
256
6
ByLayer
370
13
48
1
60
0
100
AcDbLine
10
146.689617
20
20
30
0
11
146.689617
21
-20
31
0
39
0
210
0
220
0
230
1
0
SOLID
5
225
100
AcDbEntity
8
SK2
62
256
6
ByLayer
370
13
48
1
60
0
100
AcDbTrace
10
146.689617
20
20
30
0
11
147.107614
21
16.825002
31
0
12
146.27162
22
16.824998
32
0
13
146.689617
23
20
33
0
39
0
210
0
220
0
230
1
0
SOLID
5
226
100
AcDbEntity
8
SK2
62
256
6
ByLayer
370
13
48
1
60
0
100
AcDbTrace
10
146.689617
20
-20
30
0
11
146.27162
21
-16.825002
31
0
12
147.107614
22
-16.824998
32
0
13
146.689617
23
-20
33
0
39
0
210
0
220
0
230
1
0
ENDBLK
5
228
100
AcDbEntity
8
0
100
AcDbBlockEnd
0
BLOCK
5
231
100
AcDbEntity
8
0
100
AcDbBlockBegin
2
DimnDraft3D6
70
0
10
0
20
0
30
0
3
DimnDraft3D6
0
MTEXT
5
22B
100
AcDbEntity
8
SK2
62
256
6
ByLayer
370
13
48
1
60
0
100
AcDbMText
10
9.897105
20
-45.782789
30
0
210
0
220
0
230
1
1
\W0.6740;22
40
3.175
41
0
44
1.084337
50
0
71
7
72
5
7
iso_b_vert
0
LINE
5
22C
100
AcDbEntity
8
SK2
62
256
6
ByLayer
370
13
48
1
60
0
100
AcDbLine
10
0
20
-32.7875
30
0
11
0
21
-49.751539
31
0
39
0
210
0
220
0
230
1
0
LINE
5
22D
100
AcDbEntity
8
SK2
62
256
6
ByLayer
370
13
48
1
60
0
100
AcDbLine
10
22
20
-33.0875
30
0
11
22
21
-49.751539
31
0
39
0
210
0
220
0
230
1
0
LINE
5
22E
100
AcDbEntity
8
SK2
62
256
6
ByLayer
370
13
48
1
60
0
100
AcDbLine
10
0
20
-46.576539
30
0
11
22
21
-46.576539
31
0
39
0
210
0
220
0
230
1
0
SOLID
5
22F
100
AcDbEntity
8
SK2
62
256
6
ByLayer
370
13
48
1
60
0
100
AcDbTrace
10
0
20
-46.576539
30
0
11
3.174998
21
-46.158542
31
0
12
3.175002
22
-46.994535
32
0
13
0
23
-46.576539
33
0
39
0
210
0
220
0
230
1
0
SOLID
5
230
100
AcDbEntity
8
SK2
62
256
6
ByLayer
370
13
48
1
60
0
100
AcDbTrace
10
22
20
-46.576539
30
0
11
18.825002
21
-46.994535
31
0
12
18.824998
22
-46.158542
32
0
13
22
23
-46.576539
33
0
39
0
210
0
220
0
230
1
0
ENDBLK
5
232
100
AcDbEntity
8
0
100
AcDbBlockEnd
0
ENDSEC
0
SECTION
2
ENTITIES
0
ARC
5
12D
100
AcDbEntity
8
1
62
256
6
ByLayer
370
18
48
1
60
0
100
AcDbCircle
39
0
10
118.3
20
-19.7
30
0
40
0.3
210
0
220
0
230
1
100
AcDbArc
50
180
51
270
0
ARC
5
12E
100
AcDbEntity
8
1
62
256
6
ByLayer
370
18
48
1
60
0
100
AcDbCircle
39
0
10
118.3
20
19.7
30
0
40
0.3
210
0
220
0
230
1
100
AcDbArc
50
90
51
180
0
ARC
5
130
100
AcDbEntity
8
1
62
256
6
ByLayer
370
18
48
1
60
0
100
AcDbCircle
39
0
10
-30.452705
20
27
30
0
40
7
210
0
220
0
230
-1
100
AcDbArc
50
270
51
345
0
ARC
5
131
100
AcDbEntity
8
1
62
256
6
ByLayer
370
18
48
1
60
0
100
AcDbCircle
39
0
10
-30.452705
20
-27
30
0
40
7
210
0
220
0
230
-1
100
AcDbArc
50
15
51
90
0
ARC
5
132
100
AcDbEntity
8
1
62
256
6
ByLayer
370
18
48
1
60
0
100
AcDbCircle
39
0
10
117.7
20
-19.7
30
0
40
0.3
210
0
220
0
230
1
100
AcDbArc
50
270
51
0
0
ARC
5
133
100
AcDbEntity
8
1
62
256
6
ByLayer
370
18
48
1
60
0
100
AcDbCircle
39
0
10
117.7
20
19.7
30
0
40
0.3
210
0
220
0
230
1
100
AcDbArc
50
0
51
90
0
CIRCLE
5
12F
100
AcDbEntity
8
1
62
256
6
ByLayer
370
18
48
1
60
0
100
AcDbCircle
10
112
20
0
30
0
40
1
39
0
210
0
220
0
230
1
0
ELLIPSE
5
134
100
AcDbEntity
8
1
62
256
6
ByLayer
370
18
48
1
60
0
100
AcDbEllipse
10
-2.347154
20
0
30
0
11
14.7536831606549
21
31.0932549155795
31
0
210
0
220
0
230
1
40
0.341999
41
-1.09123958575287
42
-0.157806186645432
0
ELLIPSE
5
135
100
AcDbEntity
8
1
62
256
6
ByLayer
370
18
48
1
60
0
100
AcDbEllipse
10
26.347154
20
0
30
0
11
-14.7536831606557
21
31.0932549155804
31
0
210
0
220
0
230
1
40
0.341999
41
0.157806186645432
42
1.09123958575284
0
ELLIPSE
5
136
100
AcDbEntity
8
1
62
256
6
ByLayer
370
18
48
1
60
0
100
AcDbEllipse
10
-2.347154
20
0
30
0
11
-14.7536831606554
21
31.0932549155799
31
0
210
0
220
0
230
1
40
0.341999
41
-2.98378646694436
42
-2.05035306783694
0
ELLIPSE
5
137
100
AcDbEntity
8
1
62
256
6
ByLayer
370
18
48
1
60
0
100
AcDbEllipse
10
26.347154
20
0
30
0
11
14.7536831606575
21
31.0932549155826
31
0
210
0
220
0
230
1
40
0.341999
41
2.050353067837
42
2.98378646694437
0
ELLIPSE
5
138
100
AcDbEntity
8
1
62
256
6
ByLayer
370
18
48
1
60
0
100
AcDbEllipse
10
-2.347154
20
0
30
0
11
14.7536831606549
21
31.0932549155795
31
0
210
0
220
0
230
1
40
0.341999
41
-1.09123958575287
42
-0.157806186645432
0
ELLIPSE
5
139
100
AcDbEntity
8
1
62
256
6
ByLayer
370
18
48
1
60
0
100
AcDbEllipse
10
26.347154
20
0
30
0
11
-14.7536831606557
21
31.0932549155804
31
0
210
0
220
0
230
1
40
0.341999
41
0.157806186645432
42
1.09123958575284
0
ELLIPSE
5
13A
100
AcDbEntity
8
1
62
256
6
ByLayer
370
18
48
1
60
0
100
AcDbEllipse
10
-2.347154
20
0
30
0
11
-14.7536831606554
21
31.0932549155799
31
0
210
0
220
0
230
1
40
0.341999
41
-2.98378646694436
42
-2.05035306783694
0
ELLIPSE
5
13B
100
AcDbEntity
8
1
62
256
6
ByLayer
370
18
48
1
60
0
100
AcDbEllipse
10
26.347154
20
0
30
0
11
14.7536831606575
21
31.0932549155826
31
0
210
0
220
0
230
1
40
0.341999
41
2.050353067837
42
2.98378646694437
0
POINT
5
6C
100
AcDbEntity
8
80
62
256
6
ByLayer
370
18
48
1
60
0
100
AcDbPoint
10
0
20
0
30
0
39
0
210
0
220
0
230
1
50
360
0
POINT
5
6E
100
AcDbEntity
8
81
62
256
6
ByLayer
370
18
48
1
60
0
100
AcDbPoint
10
120
20
0
30
0
39
0
210
0
220
0
230
1
50
360
0
SPLINE
5
13C
100
AcDbEntity
8
1
62
256
6
ByLayer
370
18
48
1
60
0
100
AcDbSpline
70
4
71
3
72
12
73
8
40
0
40
0
40
0
40
0
40
0.0814684080197987
40
0.282954387161681
40
0.496494800032553
40
0.831758491132827
40
1
40
1
40
1
40
1
41
1
10
119.555
20
-19.77
30
0
41
1
10
119.555015582329
20
-19.7699841495472
30
0
41
1
10
119.556077393944
20
-19.7689115960186
30
0
41
1
10
119.564760637255
20
-19.7601387505968
30
0
41
1
10
119.589381414209
20
-19.7352841727275
30
0
41
1
10
119.622628100026
20
-19.701772156945
30
0
41
1
10
119.648254823464
20
-19.6759963201806
30
0
41
1
10
119.657250000005
20
-19.6669526077322
30
0
0
SPLINE
5
13D
100
AcDbEntity
8
1
62
256
6
ByLayer
370
18
48
1
60
0
100
AcDbSpline
70
4
71
3
72
11
73
7
40
0
40
0
40
0
40
0
40
0.3637877219501
40
0.633109824668525
40
0.856330372739868
40
1
40
1
40
1
40
1
41
1
10
119.65725
20
19.6669526077377
30
0
41
1
10
119.637106503078
20
19.6872119969314
30
0
41
1
10
119.606499723285
20
19.7180158423594
30
0
41
1
10
119.572549591026
20
19.7522724919801
30
0
41
1
10
119.557491476118
20
19.7674829407209
30
0
41
1
10
119.555088777225
20
19.7699097409186
30
0
41
1
10
119.555
20
19.77
30
0
0
SPLINE
5
13E
100
AcDbEntity
8
1
62
256
6
ByLayer
370
18
48
1
60
0
100
AcDbSpline
70
4
71
1
72
4
73
2
40
0
40
0
40
1
40
1
41
1
10
120.325
20
18.991667907708
30
0
41
1
10
119.65725
20
19.6669526077377
30
0
0
SPLINE
5
13F
100
AcDbEntity
8
1
62
256
6
ByLayer
370
18
48
1
60
0
100
AcDbSpline
70
4
71
1
72
4
73
2
40
0
40
0
40
1
40
1
41
1
10
119.65725
20
19.6232090000648
30
0
41
1
10
120.325
20
18.9768631082337
30
0
0
SPLINE
5
140
100
AcDbEntity
8
1
62
256
6
ByLayer
370
18
48
1
60
0
100
AcDbSpline
70
4
71
3
72
11
73
7
40
0
40
0
40
0
40
0
40
0.353544895004887
40
0.637649992213734
40
0.866481616419216
40
1
40
1
40
1
40
1
41
1
10
119.65725
20
19.5961148774388
30
0
41
1
10
119.637736231931
20
19.6166212011108
30
0
41
1
10
119.606877005414
20
19.649762420808
30
0
41
1
10
119.572532958045
20
19.6884341492299
30
0
41
1
10
119.557376965567
20
19.7075135390098
30
0
41
1
10
119.555102572038
20
19.7120495720827
30
0
41
1
10
119.555000029089
20
19.7130051391009
30
0
0
SPLINE
5
141
100
AcDbEntity
8
1
62
256
6
ByLayer
370
18
48
1
60
0
100
AcDbSpline
70
4
71
1
72
4
73
2
40
0
40
0
40
1
40
1
41
1
10
120.325
20
18.8877094006841
30
0
41
1
10
119.65725
20
19.5961148774388
30
0
0
SPLINE
5
142
100
AcDbEntity
8
1
62
256
6
ByLayer
370
18
48
1
60
0
100
AcDbSpline
70
4
71
1
72
4
73
2
40
0
40
0
40
1
40
1
41
1
10
119.65725
20
19.4641115400998
30
0
41
1
10
120.325
20
18.8430150703283
30
0
0
SPLINE
5
143
100
AcDbEntity
8
1
62
256
6
ByLayer
370
18
48
1
60
0
100
AcDbSpline
70
4
71
3
72
11
73
7
40
0
40
0
40
0
40
0
40
0.342011787836882
40
0.642198228721823
40
0.876725351047474
40
1
40
1
40
1
40
1
41
1
10
119.65725
20
19.4094413032564
30
0
41
1
10
119.638405962704
20
19.4302315216882
30
0
41
1
10
119.607246454178
20
19.4659783235364
30
0
41
1
10
119.572478698652
20
19.5093812544871
30
0
41
1
10
119.557238712117
20
19.5326216917595
30
0
41
1
10
119.555107377871
20
19.5393112426375
30
0
41
1
10
119.555000074588
20
19.5410298872621
30
0
0
SPLINE
5
144
100
AcDbEntity
8
1
62
256
6
ByLayer
370
18
48
1
60
0
100
AcDbSpline
70
4
71
1
72
4
73
2
40
0
40
0
40
1
40
1
41
1
10
120.325
20
18.6630030512968
30
0
41
1
10
119.65725
20
19.4094413032565
30
0
0
SPLINE
5
145
100
AcDbEntity
8
1
62
256
6
ByLayer
370
18
48
1
60
0
100
AcDbSpline
70
4
71
1
72
4
73
2
40
0
40
0
40
1
40
1
41
1
10
119.65725
20
19.1867908893245
30
0
41
1
10
120.325
20
18.587552298584
30
0
0
SPLINE
5
146
100
AcDbEntity
8
1
62
256
6
ByLayer
370
18
48
1
60
0
100
AcDbSpline
70
4
71
3
72
11
73
7
40
0
40
0
40
0
40
0
40
0.329250067109442
40
0.647313353418131
40
0.88759010447378
40
1
40
1
40
1
40
1
41
1
10
119.65725
20
19.1035364558329
30
0
41
1
10
119.639125826007
20
19.1246406317614
30
0
41
1
10
119.607605573011
20
19.1633405571413
30
0
41
1
10
119.572379703214
20
19.2119075998364
30
0
41
1
10
119.557086797367
20
19.2396890076993
30
0
41
1
10
119.555109283244
20
19.2486011368986
30
0
41
1
10
119.555000241862
20
19.250975551376
30
0
0
SPLINE
5
147
100
AcDbEntity
8
1
62
256
6
ByLayer
370
18
48
1
60
0
100
AcDbSpline
70
4
71
1
72
4
73
2
40
0
40
0
40
1
40
1
41
1
10
120.325
20
18.3131045806204
30
0
41
1
10
119.65725
20
19.1035364558329
30
0
0
SPLINE
5
148
100
AcDbEntity
8
1
62
256
6
ByLayer
370
18
48
1
60
0
100
AcDbSpline
70
4
71
1
72
4
73
2
40
0
40
0
40
1
40
1
41
1
10
119.65725
20
18.786012115824
30
0
41
1
10
120.325
20
18.2053559142514
30
0
0
SPLINE
5
149
100
AcDbEntity
8
1
62
256
6
ByLayer
370
18
48
1
60
0
100
AcDbSpline
70
4
71
3
72
11
73
7
40
0
40
0
40
0
40
0
40
0.441839920560068
40
0.734050487715021
40
0.961867500839305
40
1
40
1
40
1
40
1
41
1
10
119.65725
20
18.6725412982303
30
0
41
1
10
119.632309326615
20
18.7032457165448
30
0
41
1
10
119.59797900152
20
18.7497389857026
30
0
41
1
10
119.564594625596
20
18.8046483170383
30
0
41
1
10
119.555573313104
20
18.8285226969549
30
0
41
1
10
119.555015021059
20
18.8363594717354
30
0
41
1
10
119.555000312325
20
18.8374254774193
30
0
0
SPLINE
5
14A
100
AcDbEntity
8
1
62
256
6
ByLayer
370
18
48
1
60
0
100
AcDbSpline
70
4
71
1
72
4
73
2
40
0
40
0
40
1
40
1
41
1
10
120.325
20
17.8306454136905
30
0
41
1
10
119.65725
20
18.6725412982303
30
0
0
SPLINE
5
14B
100
AcDbEntity
8
1
62
256
6
ByLayer
370
18
48
1
60
0
100
AcDbSpline
70
4
71
1
72
4
73
2
40
0
40
0
40
1
40
1
41
1
10
119.65725
20
18.2536450551968
30
0
41
1
10
120.325
20
17.6882126704918
30
0
0
SPLINE
5
14C
100
AcDbEntity
8
1
62
256
6
ByLayer
370
18
48
1
60
0
100
AcDbSpline
70
4
71
3
72
11
73
7
40
0
40
0
40
0
40
0
40
0.469351758654514
40
0.761993777863456
40
0.98870928779179
40
1
40
1
40
1
40
1
41
1
10
119.65725
20
18.1075258373112
30
0
41
1
10
119.630514136621
20
18.1426232148382
30
0
41
1
10
119.595252507034
20
18.1949484938442
30
0
41
1
10
119.562509008144
20
18.2570863381311
30
0
41
1
10
119.555160567664
20
18.2829901513204
30
0
41
1
10
119.555001680443
20
18.2916794237046
30
0
41
1
10
119.555000066086
20
18.292086575487
30
0
0
SPLINE
5
14D
100
AcDbEntity
8
1
62
256
6
ByLayer
370
18
48
1
60
0
100
AcDbSpline
70
4
71
1
72
4
73
2
40
0
40
0
40
1
40
1
41
1
10
120.325
20
17.204477102103
30
0
41
1
10
119.65725
20
18.1075258373112
30
0
0
SPLINE
5
14E
100
AcDbEntity
8
1
62
256
6
ByLayer
370
18
48
1
60
0
100
AcDbSpline
70
4
71
1
72
4
73
2
40
0
40
0
40
1
40
1
41
1
10
119.65725
20
17.57773774939
30
0
41
1
10
120.325
20
17.0238289168013
30
0
0
SPLINE
5
14F
100
AcDbEntity
8
1
62
256
6
ByLayer
370
18
48
1
60
0
100
AcDbSpline
70
4
71
3
72
10
73
6
40
0
40
0
40
0
40
0
40
0.500655634822124
40
0.790172015434932
40
1
40
1
40
1
40
1
41
1
10
119.65725
20
17.3954357623968
30
0
41
1
10
119.628459400728
20
17.4360513359832
30
0
41
1
10
119.592593064923
20
17.495054100592
30
0
41
1
10
119.560646526087
20
17.565410693159
30
0
41
1
10
119.555617495467
20
17.5922713314739
30
0
41
1
10
119.555000081396
20
17.602545625745
30
0
0
SPLINE
5
150
100
AcDbEntity
8
1
62
256
6
ByLayer
370
18
48
1
60
0
100
AcDbSpline
70
4
71
1
72
4
73
2
40
0
40
0
40
1
40
1
41
1
10
120.325
20
16.4181652094505
30
0
41
1
10
119.65725
20
17.3954357623968
30
0
0
SPLINE
5
151
100
AcDbEntity
8
1
62
256
6
ByLayer
370
18
48
1
60
0
100
AcDbSpline
70
4
71
1
72
4
73
2
40
0
40
0
40
1
40
1
41
1
10
119.65725
20
16.7409130865539
30
0
41
1
10
120.325
20
16.1940925803361
30
0
0
SPLINE
5
152
100
AcDbEntity
8
1
62
256
6
ByLayer
370
18
48
1
60
0
100
AcDbSpline
70
4
71
3
72
10
73
6
40
0
40
0
40
0
40
0
40
0.538057462057144
40
0.81813013882178
40
1
40
1
40
1
40
1
41
1
10
119.65725
20
16.5172600263618
30
0
41
1
10
119.626027033555
20
16.5650666634061
30
0
41
1
10
119.589523572285
20
16.6324796523194
30
0
41
1
10
119.559690658731
20
16.7107563317592
30
0
41
1
10
119.55549982106
20
16.7400235417015
30
0
41
1
10
119.555000929875
20
16.7508182535806
30
0
0
SPLINE
5
153
100
AcDbEntity
8
1
62
256
6
ByLayer
370
18
48
1
60
0
100
AcDbSpline
70
4
71
1
72
4
73
2
40
0
40
0
40
1
40
1
41
1
10
120.325
20
15.4472737184539
30
0
41
1
10
119.65725
20
16.5172600263618
30
0
0
SPLINE
5
154
100
AcDbEntity
8
1
62
256
6
ByLayer
370
18
48
1
60
0
100
AcDbSpline
70
4
71
1
72
4
73
2
40
0
40
0
40
1
40
1
41
1
10
119.65725
20
15.7174895437145
30
0
41
1
10
120.325
20
15.1718989586826
30
0
0
SPLINE
5
155
100
AcDbEntity
8
1
62
256
6
ByLayer
370
18
48
1
60
0
100
AcDbSpline
70
4
71
3
72
10
73
6
40
0
40
0
40
0
40
0
40
0.547301222737334
40
0.825627972936551
40
1
40
1
40
1
40
1
41
1
10
119.65725
20
15.4446939818576
30
0
41
1
10
119.625542403747
20
15.4982707951335
30
0
41
1
10
119.588937240184
20
15.5744018380708
30
0
41
1
10
119.559737360317
20
15.6632659657322
30
0
41
1
10
119.555569917055
20
15.6975178942071
30
0
41
1
10
119.555008535533
20
15.7101151220355
30
0
0
SPLINE
5
156
100
AcDbEntity
8
1
62
256
6
ByLayer
370
18
48
1
60
0
100
AcDbSpline
70
4
71
1
72
4
73
2
40
0
40
0
40
1
40
1
41
1
10
120.325
20
14.2541356041277
30
0
41
1
10
119.65725
20
15.4446939818576
30
0
0
SPLINE
5
157
100
AcDbEntity
8
1
62
256
6
ByLayer
370
18
48
1
60
0
100
AcDbSpline
70
4
71
1
72
4
73
2
40
0
40
0
40
1
40
1
41
1
10
119.65725
20
14.4679225924801
30
0
41
1
10
120.325
20
13.9148985452446
30
0
0
SPLINE
5
158
100
AcDbEntity
8
1
62
256
6
ByLayer
370
18
48
1
60
0
100
AcDbSpline
70
4
71
3
72
10
73
6
40
0
40
0
40
0
40
0
40
0.613007207669485
40
0.839592277898002
40
1
40
1
40
1
40
1
41
1
10
119.65725
20
14.1335510614993
30
0
41
1
10
119.621142460231
20
14.201961925812
30
0
41
1
10
119.584893743717
20
14.2907442787931
30
0
41
1
10
119.558712646654
20
14.3926061992163
30
0
41
1
10
119.555429709201
20
14.4278624777636
30
0
41
1
10
119.555003423148
20
14.4419810199694
30
0
0
SPLINE
5
159
100
AcDbEntity
8
1
62
256
6
ByLayer
370
18
48
1
60
0
100
AcDbSpline
70
4
71
1
72
4
73
2
40
0
40
0
40
1
40
1
41
1
10
120.325
20
12.7766387719495
30
0
41
1
10
119.65725
20
14.1335510614993
30
0
0
SPLINE
5
15A
100
AcDbEntity
8
1
62
256
6
ByLayer
370
18
48
1
60
0
100
AcDbSpline
70
4
71
1
72
4
73
2
40
0
40
0
40
1
40
1
41
1
10
119.65725
20
12.9267973886503
30
0
41
1
10
120.325
20
12.3516106251948
30
0
0
SPLINE
5
15B
100
AcDbEntity
8
1
62
256
6
ByLayer
370
18
48
1
60
0
100
AcDbSpline
70
4
71
2
72
6
73
3
40
0
40
0
40
0
40
1
40
1
40
1
41
1
10
119.65725
20
12.5090350955934
30
0
41
1
10
119.56449452426
20
12.7076362690426
30
0
41
1
10
119.555002402522
20
12.8772305165887
30
0
0
SPLINE
5
15C
100
AcDbEntity
8
1
62
256
6
ByLayer
370
18
48
1
60
0
100
AcDbSpline
70
4
71
1
72
4
73
2
40
0
40
0
40
1
40
1
41
1
10
120.325
20
10.8997529695359
30
0
41
1
10
119.65725
20
12.5090350955934
30
0
0
SPLINE
5
15D
100
AcDbEntity
8
1
62
256
6
ByLayer
370
18
48
1
60
0
100
AcDbSpline
70
4
71
1
72
4
73
2
40
0
40
0
40
1
40
1
41
1
10
119.65725
20
10.9719368077126
30
0
41
1
10
120.325
20
10.3440885798798
30
0
0
SPLINE
5
15E
100
AcDbEntity
8
1
62
256
6
ByLayer
370
18
48
1
60
0
100
AcDbSpline
70
4
71
2
72
6
73
3
40
0
40
0
40
0
40
1
40
1
40
1
41
1
10
119.65725
20
10.4256727570727
30
0
41
1
10
119.564248120375
20
10.6687947747668
30
0
41
1
10
119.555011360507
20
10.8872087149763
30
0
0
SPLINE
5
15F
100
AcDbEntity
8
1
62
256
6
ByLayer
370
18
48
1
60
0
100
AcDbSpline
70
4
71
1
72
4
73
2
40
0
40
0
40
1
40
1
41
1
10
120.325
20
8.35863214197942
30
0
41
1
10
119.65725
20
10.4256727570727
30
0
0
SPLINE
5
160
100
AcDbEntity
8
1
62
256
6
ByLayer
370
18
48
1
60
0
100
AcDbSpline
70
4
71
1
72
4
73
2
40
0
40
0
40
1
40
1
41
1
10
119.65725
20
8.31653196336435
30
0
41
1
10
120.325
20
7.54573071745718
30
0
0
SPLINE
5
161
100
AcDbEntity
8
1
62
256
6
ByLayer
370
18
48
1
60
0
100
AcDbSpline
70
4
71
3
72
10
73
6
40
0
40
0
40
0
40
0
40
0.532327471743737
40
0.833599534487852
40
1
40
1
40
1
40
1
41
1
10
119.65725
20
7.51088182920917
30
0
41
1
10
119.627311546927
20
7.62947589062387
30
0
41
1
10
119.591106560034
20
7.81323255642327
30
0
41
1
10
119.558371562559
20
8.0339234867171
30
0
41
1
10
119.55512048653
20
8.13331899347954
30
0
41
1
10
119.55503138987
20
8.16839397322262
30
0
0
SPLINE
5
162
100
AcDbEntity
8
1
62
256
6
ByLayer
370
18
48
1
60
0
100
AcDbSpline
70
4
71
2
72
6
73
3
40
0
40
0
40
0
40
1
40
1
40
1
41
1
10
120.325
20
4.05325150625469
30
0
41
1
10
120.083904837032
20
5.80595047647649
30
0
41
1
10
119.65725
20
7.51088182920917
30
0
0
SPLINE
5
163
100
AcDbEntity
8
1
62
256
6
ByLayer
370
18
48
1
60
0
100
AcDbSpline
70
4
71
2
72
6
73
3
40
0
40
0
40
0
40
1
40
1
40
1
41
1
10
119.65725
20
3.6668802111449
30
0
41
1
10
120.10370184491
20
2.65136317020441
30
0
41
1
10
120.325
20
1.54140701060834
30
0
0
SPLINE
5
164
100
AcDbEntity
8
1
62
256
6
ByLayer
370
18
48
1
60
0
100
AcDbSpline
70
4
71
3
72
18
73
14
40
0
40
0
40
0
40
0
40
0.0092762999038308
40
0.0685629895047606
40
0.0951304196522383
40
0.117592414041128
40
0.133540352750915
40
0.149529937945372
40
0.169950422043853
40
0.205700982088464
40
0.318776697950095
40
0.83990637219932
40
1
40
1
40
1
40
1
41
1
10
119.657249999999
20
-3.66688021114634
30
0
41
1
10
119.656530488488
20
-3.66856317892815
30
0
41
1
10
119.651090051696
20
-3.68088522223943
30
0
41
1
10
119.642732472879
20
-3.69760154146206
30
0
41
1
10
119.630691624416
20
-3.71356954482126
30
0
41
1
10
119.622113310393
20
-3.72071043232466
30
0
41
1
10
119.614212181307
20
-3.72311277646692
30
0
41
1
10
119.606874679365
20
-3.72152338403578
30
0
41
1
10
119.598465296463
20
-3.71437670222456
30
0
41
1
10
119.584596086649
20
-3.6888833145969
30
0
41
1
10
119.558360975623
20
-3.56390605424481
30
0
41
1
10
119.556219231416
20
-3.40505327877037
30
0
41
1
10
119.554724613401
20
-3.26975155857323
30
0
41
1
10
119.555022756186
20
-3.23774823726714
30
0
0
SPLINE
5
165
100
AcDbEntity
8
1
62
256
6
ByLayer
370
18
48
1
60
0
100
AcDbSpline
70
4
71
2
72
6
73
3
40
0
40
0
40
0
40
1
40
1
40
1
41
1
10
120.325
20
-1.54140701062896
30
0
41
1
10
120.103860243444
20
-2.65129455942785
30
0
41
1
10
119.65725
20
-3.6668802111467
30
0
0
SPLINE
5
166
100
AcDbEntity
8
1
62
256
6
ByLayer
370
18
48
1
60
0
100
AcDbSpline
70
4
71
2
72
6
73
3
40
0
40
0
40
0
40
1
40
1
40
1
41
1
10
119.65725
20
-7.51088182920917
30
0
41
1
10
120.083894802745
20
-5.80596125816181
30
0
41
1
10
120.325
20
-4.05325150625469
30
0
0
SPLINE
5
167
100
AcDbEntity
8
1
62
256
6
ByLayer
370
18
48
1
60
0
100
AcDbSpline
70
4
71
3
72
14
73
10
40
0
40
0
40
0
40
0
40
0.108418701022102
40
0.180167597011219
40
0.252422528712366
40
0.317844072553463
40
0.418649479187795
40
0.607004012534057
40
1
40
1
40
1
40
1
41
1
10
119.657250000027
20
-8.31653196334169
30
0
41
1
10
119.64997141586
20
-8.32526615338188
30
0
41
1
10
119.637423488915
20
-8.33672320355457
30
0
41
1
10
119.6181585045
20
-8.34746564858042
30
0
41
1
10
119.602527381033
20
-8.34864670440959
30
0
41
1
10
119.587727804689
20
-8.34120718763123
30
0
41
1
10
119.572043538821
20
-8.31933184841542
30
0
41
1
10
119.557258581184
20
-8.26135863170592
30
0
41
1
10
119.552549383968
20
-8.20802499444397
30
0
41
1
10
119.555038128083
20
-8.16757126881083
30
0
0
SPLINE
5
168
100
AcDbEntity
8
1
62
256
6
ByLayer
370
18
48
1
60
0
100
AcDbSpline
70
4
71
1
72
4
73
2
40
0
40
0
40
1
40
1
41
1
10
120.325
20
-7.54573071745703
30
0
41
1
10
119.65725
20
-8.31653196336435
30
0
0
SPLINE
5
169
100
AcDbEntity
8
1
62
256
6
ByLayer
370
18
48
1
60
0
100
AcDbSpline
70
4
71
1
72
4
73
2
40
0
40
0
40
1
40
1
41
1
10
119.65725
20
-10.4256727570727
30
0
41
1
10
120.325
20
-8.35863214197942
30
0
0
SPLINE
5
16A
100
AcDbEntity
8
1
62
256
6
ByLayer
370
18
48
1
60
0
100
AcDbSpline
70
4
71
3
72
14
73
10
40
0
40
0
40
0
40
0
40
0.0783829871390157
40
0.215707446421159
40
0.317812290823337
40
0.41986914810368
40
0.563517127420577
40
0.809794822448582
40
1
40
1
40
1
40
1
41
1
10
119.65725000001
20
-10.9719368077072
30
0
41
1
10
119.652444151996
20
-10.9765324929058
30
0
41
1
10
119.639151691486
20
-10.9877108997616
30
0
41
1
10
119.618336548231
20
-11.0001173756792
30
0
41
1
10
119.597444554273
20
-11.0028007933594
30
0
41
1
10
119.580149715048
20
-10.995355575134
30
0
41
1
10
119.563926018898
20
-10.9720067645134
30
0
41
1
10
119.556259895161
20
-10.932851065505
30
0
41
1
10
119.554587480467
20
-10.9011800376172
30
0
41
1
10
119.555017244399
20
-10.8864398912318
30
0
0
SPLINE
5
16B
100
AcDbEntity
8
1
62
256
6
ByLayer
370
18
48
1
60
0
100
AcDbSpline
70
4
71
1
72
4
73
2
40
0
40
0
40
1
40
1
41
1
10
120.325
20
-10.3440885798798
30
0
41
1
10
119.65725
20
-10.9719368077126
30
0
0
SPLINE
5
16C
100
AcDbEntity
8
1
62
256
6
ByLayer
370
18
48
1
60
0
100
AcDbSpline
70
4
71
1
72
4
73
2
40
0
40
0
40
1
40
1
41
1
10
119.65725
20
-12.5090350955934
30
0
41
1
10
120.325
20
-10.8997529695359
30
0
0
SPLINE
5
16D
100
AcDbEntity
8
1
62
256
6
ByLayer
370
18
48
1
60
0
100
AcDbSpline
70
4
71
3
72
13
73
9
40
0
40
0
40
0
40
0
40
0.110242213151857
40
0.282557275529741
40
0.412606166269305
40
0.54242803276607
40
0.733732087688917
40
1
40
1
40
1
40
1
41
1
10
119.657250000004
20
-12.9267973886487
30
0
41
1
10
119.650803050241
20
-12.9324740321065
30
0
41
1
10
119.634460670417
20
-12.9449728016787
30
0
41
1
10
119.609769049183
20
-12.9576961890999
30
0
41
1
10
119.587437063047
20
-12.9584727781846
30
0
41
1
10
119.569985716961
20
-12.9480918057827
30
0
41
1
10
119.557500913942
20
-12.9211431497263
30
0
41
1
10
119.554230160885
20
-12.8950860188414
30
0
41
1
10
119.555002425298
20
-12.8772250208738
30
0
0
SPLINE
5
16E
100
AcDbEntity
8
1
62
256
6
ByLayer
370
18
48
1
60
0
100
AcDbSpline
70
4
71
1
72
4
73
2
40
0
40
0
40
1
40
1
41
1
10
120.325
20
-12.3516106251948
30
0
41
1
10
119.65725
20
-12.9267973886503
30
0
0
SPLINE
5
16F
100
AcDbEntity
8
1
62
256
6
ByLayer
370
18
48
1
60
0
100
AcDbSpline
70
4
71
1
72
4
73
2
40
0
40
0
40
1
40
1
41
1
10
119.65725
20
-14.1335510614993
30
0
41
1
10
120.325
20
-12.7766387719495
30
0
0
SPLINE
5
170
100
AcDbEntity
8
1
62
256
6
ByLayer
370
18
48
1
60
0
100
AcDbSpline
70
4
71
3
72
13
73
9
40
0
40
0
40
0
40
0
40
0.138853390640447
40
0.341511995921881
40
0.518494759973645
40
0.669260172089098
40
0.905494557461871
40
1
40
1
40
1
40
1
41
1
10
119.657250000002
20
-14.4679225924795
30
0
41
1
10
119.64930360173
20
-14.4746550714136
30
0
41
1
10
119.63025527438
20
-14.4886415791471
30
0
41
1
10
119.60109405941
20
-14.5028441627021
30
0
41
1
10
119.577380561363
20
-14.5015211440536
30
0
41
1
10
119.561214372378
20
-14.4866340293345
30
0
41
1
10
119.55569115143
20
-14.4645423845891
30
0
41
1
10
119.554915850397
20
-14.4472215794256
30
0
41
1
10
119.555003412463
20
-14.4419827618974
30
0
0
SPLINE
5
171
100
AcDbEntity
8
1
62
256
6
ByLayer
370
18
48
1
60
0
100
AcDbSpline
70
4
71
1
72
4
73
2
40
0
40
0
40
1
40
1
41
1
10
120.325
20
-13.9148985452446
30
0
41
1
10
119.65725
20
-14.4679225924801
30
0
0
SPLINE
5
172
100
AcDbEntity
8
1
62
256
6
ByLayer
370
18
48
1
60
0
100
AcDbSpline
70
4
71
1
72
4
73
2
40
0
40
0
40
1
40
1
41
1
10
119.65725
20
-15.4446939818576
30
0
41
1
10
120.325
20
-14.2541356041277
30
0
0
SPLINE
5
173
100
AcDbEntity
8
1
62
256
6
ByLayer
370
18
48
1
60
0
100
AcDbSpline
70
4
71
3
72
13
73
9
40
0
40
0
40
0
40
0
40
0.166242911183137
40
0.360375890725259
40
0.555799720089355
40
0.724316208407388
40
0.963610848020826
40
1
40
1
40
1
40
1
41
1
10
119.657250000001
20
-15.7174895437142
30
0
41
1
10
119.647934269862
20
-15.7252528119712
30
0
41
1
10
119.628418910791
20
-15.739446680958
30
0
41
1
10
119.598923790555
20
-15.7545791493184
30
0
41
1
10
119.575130693618
20
-15.756077901086
30
0
41
1
10
119.559249471884
20
-15.7435020486445
30
0
41
1
10
119.555257148098
20
-15.7256644826508
30
0
41
1
10
119.554989085093
20
-15.712940665717
30
0
41
1
10
119.555000472764
20
-15.7112166191105
30
0
0
SPLINE
5
174
100
AcDbEntity
8
1
62
256
6
ByLayer
370
18
48
1
60
0
100
AcDbSpline
70
4
71
1
72
4
73
2
40
0
40
0
40
1
40
1
41
1
10
120.325
20
-15.1718989586826
30
0
41
1
10
119.65725
20
-15.7174895437145
30
0
0
SPLINE
5
175
100
AcDbEntity
8
1
62
256
6
ByLayer
370
18
48
1
60
0
100
AcDbSpline
70
4
71
1
72
4
73
2
40
0
40
0
40
1
40
1
41
1
10
119.65725
20
-16.5172600263618
30
0
41
1
10
120.325
20
-15.4472737184539
30
0
0
SPLINE
5
176
100
AcDbEntity
8
1
62
256
6
ByLayer
370
18
48
1
60
0
100
AcDbSpline
70
4
71
3
72
12
73
8
40
0
40
0
40
0
40
0
40
0.191366235578435
40
0.400705424394723
40
0.611426159911781
40
0.793354321085304
40
1
40
1
40
1
40
1
41
1
10
119.65725
20
-16.7409130865538
30
0
41
1
10
119.646627503721
20
-16.7497667997621
30
0
41
1
10
119.625380799525
20
-16.7653795144078
30
0
41
1
10
119.594288505919
20
-16.7819777186297
30
0
41
1
10
119.570624438789
20
-16.7844723098295
30
0
41
1
10
119.557467676365
20
-16.7729577055611
30
0
41
1
10
119.554735111693
20
-16.7597810462402
30
0
41
1
10
119.555000725937
20
-16.7508635079356
30
0
0
SPLINE
5
177
100
AcDbEntity
8
1
62
256
6
ByLayer
370
18
48
1
60
0
100
AcDbSpline
70
4
71
1
72
4
73
2
40
0
40
0
40
1
40
1
41
1
10
120.325
20
-16.1940925803361
30
0
41
1
10
119.65725
20
-16.7409130865539
30
0
0
SPLINE
5
178
100
AcDbEntity
8
1
62
256
6
ByLayer
370
18
48
1
60
0
100
AcDbSpline
70
4
71
1
72
4
73
2
40
0
40
0
40
1
40
1
41
1
10
119.65725
20
-17.3954357623968
30
0
41
1
10
120.325
20
-16.4181652094505
30
0
0
SPLINE
5
179
100
AcDbEntity
8
1
62
256
6
ByLayer
370
18
48
1
60
0
100
AcDbSpline
70
4
71
3
72
12
73
8
40
0
40
0
40
0
40
0
40
0.215086515550354
40
0.437438636714359
40
0.661293538621314
40
0.853843971396773
40
1
40
1
40
1
40
1
41
1
10
119.65725
20
-17.5777377493899
30
0
41
1
10
119.645373678305
20
-17.5877389163178
30
0
41
1
10
119.622562049811
20
-17.6048994976594
30
0
41
1
10
119.590147318654
20
-17.6233332368948
30
0
41
1
10
119.566888680885
20
-17.6271121694884
30
0
41
1
10
119.556591726899
20
-17.6176023962012
30
0
41
1
10
119.554873954984
20
-17.607528238927
30
0
41
1
10
119.55500147232
20
-17.6022405721771
30
0
0
SPLINE
5
17A
100
AcDbEntity
8
1
62
256
6
ByLayer
370
18
48
1
60
0
100
AcDbSpline
70
4
71
1
72
4
73
2
40
0
40
0
40
1
40
1
41
1
10
120.325
20
-17.0238289168013
30
0
41
1
10
119.65725
20
-17.57773774939
30
0
0
SPLINE
5
17B
100
AcDbEntity
8
1
62
256
6
ByLayer
370
18
48
1
60
0
100
AcDbSpline
70
4
71
1
72
4
73
2
40
0
40
0
40
1
40
1
41
1
10
119.65725
20
-18.1075258373112
30
0
41
1
10
120.325
20
-17.204477102103
30
0
0
SPLINE
5
17C
100
AcDbEntity
8
1
62
256
6
ByLayer
370
18
48
1
60
0
100
AcDbSpline
70
4
71
3
72
12
73
8
40
0
40
0
40
0
40
0
40
0.238383637776409
40
0.472578322840777
40
0.708422830413747
40
0.909970655360723
40
1
40
1
40
1
40
1
41
1
10
119.65725
20
-18.2536450551967
30
0
41
1
10
119.644154353144
20
-18.264869634683
30
0
41
1
10
119.619908768226
20
-18.2837252912934
30
0
41
1
10
119.586411318166
20
-18.3043177379196
30
0
41
1
10
119.563744385307
20
-18.3097189328798
30
0
41
1
10
119.555900889281
20
-18.3020816888986
30
0
41
1
10
119.554957692868
20
-18.2945959471498
30
0
41
1
10
119.555000724703
20
-18.2919300405605
30
0
0
SPLINE
5
17D
100
AcDbEntity
8
1
62
256
6
ByLayer
370
18
48
1
60
0
100
AcDbSpline
70
4
71
1
72
4
73
2
40
0
40
0
40
1
40
1
41
1
10
120.325
20
-17.6882126704918
30
0
41
1
10
119.65725
20
-18.2536450551968
30
0
0
SPLINE
5
17E
100
AcDbEntity
8
1
62
256
6
ByLayer
370
18
48
1
60
0
100
AcDbSpline
70
4
71
1
72
4
73
2
40
0
40
0
40
1
40
1
41
1
10
119.65725
20
-18.6725412982303
30
0
41
1
10
120.325
20
-17.8306454136905
30
0
0
SPLINE
5
17F
100
AcDbEntity
8
1
62
256
6
ByLayer
370
18
48
1
60
0
100
AcDbSpline
70
4
71
3
72
12
73
8
40
0
40
0
40
0
40
0
40
0.261192139426408
40
0.505956728872264
40
0.752535483089869
40
0.961563574781989
40
1
40
1
40
1
40
1
41
1
10
119.65725
20
-18.786012115824
30
0
41
1
10
119.64295433266
20
-18.798555389981
30
0
41
1
10
119.617380061953
20
-18.8192714267596
30
0
41
1
10
119.583004380813
20
-18.8423427456429
30
0
41
1
10
119.561085004117
20
-18.8496710722452
30
0
41
1
10
119.555355221632
20
-18.8437531907419
30
0
41
1
10
119.554994103838
20
-18.8383826837501
30
0
41
1
10
119.555000075114
20
-18.8374837408244
30
0
0
SPLINE
5
180
100
AcDbEntity
8
1
62
256
6
ByLayer
370
18
48
1
60
0
100
AcDbSpline
70
4
71
1
72
4
73
2
40
0
40
0
40
1
40
1
41
1
10
120.325
20
-18.2053559142514
30
0
41
1
10
119.65725
20
-18.786012115824
30
0
0
SPLINE
5
181
100
AcDbEntity
8
1
62
256
6
ByLayer
370
18
48
1
60
0
100
AcDbSpline
70
4
71
1
72
4
73
2
40
0
40
0
40
1
40
1
41
1
10
119.65725
20
-19.1035364558329
30
0
41
1
10
120.325
20
-18.3131045806204
30
0
0
SPLINE
5
182
100
AcDbEntity
8
1
62
256
6
ByLayer
370
18
48
1
60
0
100
AcDbSpline
70
4
71
3
72
12
73
8
40
0
40
0
40
0
40
0
40
0.282977018566776
40
0.53655399936421
40
0.750837094272275
40
0.965613435476438
40
1
40
1
40
1
40
1
41
1
10
119.65725
20
-19.1867908893245
30
0
41
1
10
119.641760186522
20
-19.2007697381244
30
0
41
1
10
119.614943225208
20
-19.2235385350738
30
0
41
1
10
119.581692039333
20
-19.248055497566
30
0
41
1
10
119.561024500697
20
-19.2581756177889
30
0
41
1
10
119.555340370391
20
-19.2556494640045
30
0
41
1
10
119.554996731975
20
-19.2516310044636
30
0
41
1
10
119.555000030128
20
-19.2510233429179
30
0
0
SPLINE
5
183
100
AcDbEntity
8
1
62
256
6
ByLayer
370
18
48
1
60
0
100
AcDbSpline
70
4
71
1
72
4
73
2
40
0
40
0
40
1
40
1
41
1
10
120.325
20
-18.587552298584
30
0
41
1
10
119.65725
20
-19.1867908893245
30
0
0
SPLINE
5
184
100
AcDbEntity
8
1
62
256
6
ByLayer
370
18
48
1
60
0
100
AcDbSpline
70
4
71
1
72
4
73
2
40
0
40
0
40
1
40
1
41
1
10
119.65725
20
-19.4094413032565
30
0
41
1
10
120.325
20
-18.6630030512968
30
0
0
SPLINE
5
185
100
AcDbEntity
8
1
62
256
6
ByLayer
370
18
48
1
60
0
100
AcDbSpline
70
4
71
3
72
11
73
7
40
0
40
0
40
0
40
0
40
0.304632312554688
40
0.566084194491752
40
0.784880098668199
40
1
40
1
40
1
40
1
41
1
10
119.65725
20
-19.4641115400997
30
0
41
1
10
119.64055915088
20
-19.4796684885192
30
0
41
1
10
119.612558144472
20
-19.5047063539096
30
0
41
1
10
119.578899199237
20
-19.5321569777169
30
0
41
1
10
119.559153228532
20
-19.5445727998412
30
0
41
1
10
119.555154530637
20
-19.5435466217527
30
0
41
1
10
119.555000003065
20
-19.5410513391963
30
0
0
SPLINE
5
186
100
AcDbEntity
8
1
62
256
6
ByLayer
370
18
48
1
60
0
100
AcDbSpline
70
4
71
1
72
4
73
2
40
0
40
0
40
1
40
1
41
1
10
120.325
20
-18.8430150703283
30
0
41
1
10
119.65725
20
-19.4641115400998
30
0
0
SPLINE
5
187
100
AcDbEntity
8
1
62
256
6
ByLayer
370
18
48
1
60
0
100
AcDbSpline
70
4
71
1
72
4
73
2
40
0
40
0
40
1
40
1
41
1
10
119.65725
20
-19.5961148774388
30
0
41
1
10
120.325
20
-18.8877094006841
30
0
0
SPLINE
5
188
100
AcDbEntity
8
1
62
256
6
ByLayer
370
18
48
1
60
0
100
AcDbSpline
70
4
71
3
72
11
73
7
40
0
40
0
40
0
40
0
40
0.372996890536687
40
0.628682077128818
40
0.886371579237587
40
1
40
1
40
1
40
1
41
1
10
119.65725
20
-19.6232090000647
30
0
41
1
10
119.636507587211
20
-19.6432655346522
30
0
41
1
10
119.606116904081
20
-19.6719382822497
30
0
41
1
10
119.57095169087
20
-19.7034254966986
30
0
41
1
10
119.556864851729
20
-19.7140265710949
30
0
41
1
10
119.55502596866
20
-19.7136706022192
30
0
41
1
10
119.555000044758
20
-19.7130031276509
30
0
0
SPLINE
5
189
100
AcDbEntity
8
1
62
256
6
ByLayer
370
18
48
1
60
0
100
AcDbSpline
70
4
71
1
72
4
73
2
40
0
40
0
40
1
40
1
41
1
10
120.325
20
-18.9768631082337
30
0
41
1
10
119.65725
20
-19.6232090000648
30
0
0
SPLINE
5
18A
100
AcDbEntity
8
1
62
256
6
ByLayer
370
18
48
1
60
0
100
AcDbSpline
70
4
71
1
72
4
73
2
40
0
40
0
40
1
40
1
41
1
10
119.65725
20
-19.6669526077377
30
0
41
1
10
120.325
20
-18.991667907708
30
0
0
SPLINE
5
18B
100
AcDbEntity
8
1
62
256
6
ByLayer
370
18
48
1
60
0
100
AcDbSpline
70
4
71
3
72
18
73
14
40
0
40
0
40
0
40
0
40
0.0395444285622749
40
0.6780203445945
40
0.738430857537975
40
0.801710634766663
40
0.823803287789371
40
0.846100958306902
40
0.862570653676927
40
0.879008358522348
40
0.905141278320413
40
0.957073783466182
40
1
40
1
40
1
40
1
41
1
10
119.55502714837
20
3.27593767934985
30
0
41
1
10
119.553140836075
20
3.28321985363526
30
0
41
1
10
119.522476480589
20
3.40786636596359
30
0
41
1
10
119.555777472251
20
3.54991441318632
30
0
41
1
10
119.58352979887
20
3.6807270572551
30
0
41
1
10
119.592010013281
20
3.70421019783176
30
0
41
1
10
119.601643329811
20
3.71751513703853
30
0
41
1
10
119.608716698743
20
3.72240064822982
30
0
41
1
10
119.616167497371
20
3.72282895899862
30
0
41
1
10
119.624105074744
20
3.71944469729672
30
0
41
1
10
119.63541804679
20
3.70869756724432
30
0
41
1
10
119.646658383323
20
3.68985797248011
30
0
41
1
10
119.654218463866
20
3.67434761955444
30
0
41
1
10
119.65725
20
3.6668802111449
30
0
0
SPLINE
5
18C
100
AcDbEntity
8
1
62
256
6
ByLayer
370
18
48
1
60
0
100
AcDbSpline
70
4
71
3
72
13
73
9
40
0
40
0
40
0
40
0
40
0.081164464450821
40
0.177297495013906
40
0.433856160876608
40
0.690627755607223
40
0.946967123456077
40
1
40
1
40
1
40
1
41
1
10
119.555022756186
20
-3.23774823726714
30
0
41
1
10
119.556685354627
20
-3.06294436151124
30
0
41
1
10
119.563432827021
20
-2.68035355923811
30
0
41
1
10
119.615581614574
20
-1.73861968642869
30
0
41
1
10
119.637544089998
20
-0.412467172213471
30
0
41
1
10
119.612774682813
20
1.2638807457142
30
0
41
1
10
119.565957676769
20
2.49522055353056
30
0
41
1
10
119.556512388558
20
3.16178375679415
30
0
41
1
10
119.55502714837
20
3.27593767934985
30
0
0
SPLINE
5
18D
100
AcDbEntity
8
1
62
256
6
ByLayer
370
18
48
1
60
0
100
AcDbSpline
70
4
71
3
72
14
73
10
40
0
40
0
40
0
40
0
40
0.287575987652809
40
0.590056088248534
40
0.679730591769891
40
0.750554707084303
40
0.821712627379419
40
0.902192848596958
40
1
40
1
40
1
40
1
41
1
10
119.55503138987
20
8.16839397322262
30
0
41
1
10
119.553750469308
20
8.19725849610805
30
0
41
1
10
119.557233909261
20
8.25172471982687
30
0
41
1
10
119.567713507383
20
8.31385691431806
30
0
41
1
10
119.588436644206
20
8.34169214268601
30
0
41
1
10
119.60287063449
20
8.348791227584
30
0
41
1
10
119.619472193805
20
8.34713922347701
30
0
41
1
10
119.638437550163
20
8.33580917716712
30
0
41
1
10
119.650736120681
20
8.32429921370239
30
0
41
1
10
119.65725
20
8.31653196336445
30
0
0
SPLINE
5
18E
100
AcDbEntity
8
1
62
256
6
ByLayer
370
18
48
1
60
0
100
AcDbSpline
70
4
71
3
72
10
73
6
40
0
40
0
40
0
40
0
40
0.0927554397793509
40
0.545697818068073
40
1
40
1
40
1
40
1
41
1
10
119.555038128083
20
-8.16757126881083
30
0
41
1
10
119.555388989701
20
-8.14798419455162
30
0
41
1
10
119.559039956352
20
-8.03232126157579
30
0
41
1
10
119.588693640007
20
-7.81167793161065
30
0
41
1
10
119.630758281869
20
-7.61192880535976
30
0
41
1
10
119.65725
20
-7.5108818292092
30
0
0
SPLINE
5
18F
100
AcDbEntity
8
1
62
256
6
ByLayer
370
18
48
1
60
0
100
AcDbSpline
70
4
71
3
72
14
73
10
40
0
40
0
40
0
40
0
40
0.134830546589826
40
0.432278571174959
40
0.556416845271841
40
0.681679785607143
40
0.793859150360386
40
0.921826329766436
40
1
40
1
40
1
40
1
41
1
10
119.555011360507
20
10.8872087149763
30
0
41
1
10
119.554794910831
20
10.8975213538897
30
0
41
1
10
119.555917857637
20
10.9291166454892
30
0
41
1
10
119.562018268893
20
10.9678387965237
30
0
41
1
10
119.579160760749
20
10.9943615848698
30
0
41
1
10
119.596635088183
20
11.0032599089765
30
0
41
1
10
119.619157766394
20
10.9997522682054
30
0
41
1
10
119.639812086508
20
10.9871545656548
30
0
41
1
10
119.652478051636
20
10.9764938403015
30
0
41
1
10
119.65725
20
10.9719368077127
30
0
0
SPLINE
5
190
100
AcDbEntity
8
1
62
256
6
ByLayer
370
18
48
1
60
0
100
AcDbSpline
70
4
71
3
72
10
73
6
40
0
40
0
40
0
40
0
40
0.183048331564033
40
0.85951570581632
40
1
40
1
40
1
40
1
41
1
10
119.555017244399
20
-10.8864398912318
30
0
41
1
10
119.555942472327
20
-10.8599843976353
30
0
41
1
10
119.564464988637
20
-10.7346650724018
30
0
41
1
10
119.606509813794
20
-10.5749695797472
30
0
41
1
10
119.649401846817
20
-10.4476588174966
30
0
41
1
10
119.65725
20
-10.4256727570728
30
0
0
SPLINE
5
191
100
AcDbEntity
8
1
62
256
6
ByLayer
370
18
48
1
60
0
100
AcDbSpline
70
4
71
3
72
14
73
10
40
0
40
0
40
0
40
0
40
0.0617078890033082
40
0.263114248683461
40
0.466061522330606
40
0.602372188177964
40
0.739176880901721
40
0.869036933415972
40
1
40
1
40
1
40
1
41
1
10
119.555002402522
20
12.8772305165887
30
0
41
1
10
119.554969421878
20
12.8811445502882
30
0
41
1
10
119.555292053417
20
12.8974714445143
30
0
41
1
10
119.55859860252
20
12.9245618991858
30
0
41
1
10
119.570451001359
20
12.9490076024356
30
0
41
1
10
119.589461027341
20
12.959120570745
30
0
41
1
10
119.610946039811
20
12.956830747443
30
0
41
1
10
119.634417727209
20
12.9448783803618
30
0
41
1
10
119.649564454984
20
12.9335762274619
30
0
41
1
10
119.65725
20
12.9267973886504
30
0
0
SPLINE
5
192
100
AcDbEntity
8
1
62
256
6
ByLayer
370
18
48
1
60
0
100
AcDbSpline
70
4
71
3
72
10
73
6
40
0
40
0
40
0
40
0
40
0.0340274245100363
40
0.415044787858845
40
1
40
1
40
1
40
1
41
1
10
119.555002425298
20
-12.8772250208738
30
0
41
1
10
119.555036900651
20
-12.873539106952
30
0
41
1
10
119.55598463012
20
-12.8283224309488
30
0
41
1
10
119.58089688564
20
-12.7052962332344
30
0
41
1
10
119.622322050846
20
-12.585293665942
30
0
41
1
10
119.65725
20
-12.5090350955934
30
0
0
SPLINE
5
193
100
AcDbEntity
8
1
62
256
6
ByLayer
370
18
48
1
60
0
100
AcDbSpline
70
4
71
3
72
13
73
9
40
0
40
0
40
0
40
0
40
0.106322020951496
40
0.308092026541294
40
0.511861720183858
40
0.687387669813483
40
0.838178876361326
40
1
40
1
40
1
40
1
41
1
10
119.555003423148
20
14.4419810199694
30
0
41
1
10
119.554902748484
20
14.4478807434843
30
0
41
1
10
119.5557309423
20
14.4639528573804
30
0
41
1
10
119.561449200833
20
14.4873359995496
30
0
41
1
10
119.578391104751
20
14.5028448339463
30
0
41
1
10
119.603424866665
20
14.501489161909
30
0
41
1
10
119.630477830277
20
14.4883501757058
30
0
41
1
10
119.647958903935
20
14.4758016130345
30
0
41
1
10
119.65725
20
14.4679225924801
30
0
0
SPLINE
5
194
100
AcDbEntity
8
1
62
256
6
ByLayer
370
18
48
1
60
0
100
AcDbSpline
70
4
71
3
72
10
73
6
40
0
40
0
40
0
40
0
40
0.192958189275789
40
0.662877134872588
40
1
40
1
40
1
40
1
41
1
10
119.555003412463
20
-14.4419827618974
30
0
41
1
10
119.555775357579
20
-14.4247468535211
30
0
41
1
10
119.562247184345
20
-14.3638370838714
30
0
41
1
10
119.599082328815
20
-14.2562196219807
30
0
41
1
10
119.638177661418
20
-14.1703207309281
30
0
41
1
10
119.65725
20
-14.1335510614993
30
0
0
SPLINE
5
195
100
AcDbEntity
8
1
62
256
6
ByLayer
370
18
48
1
60
0
100
AcDbSpline
70
4
71
3
72
13
73
9
40
0
40
0
40
0
40
0
40
0.156938698583179
40
0.349316531427381
40
0.543113493975502
40
0.714312677860255
40
0.930589975771735
40
1
40
1
40
1
40
1
41
1
10
119.555008535533
20
15.7101151220355
30
0
41
1
10
119.554764424077
20
15.7178825742427
30
0
41
1
10
119.556326840231
20
15.7330199523804
30
0
41
1
10
119.565117235662
20
15.7510191699904
30
0
41
1
10
119.58431428651
20
15.7571096349773
30
0
41
1
10
119.612372194197
20
15.74899564906
30
0
41
1
10
119.63767922616
20
15.7329360348717
30
0
41
1
10
119.653396743984
20
15.72066053656
30
0
41
1
10
119.657250000002
20
15.7174895437139
30
0
0
SPLINE
5
196
100
AcDbEntity
8
1
62
256
6
ByLayer
370
18
48
1
60
0
100
AcDbSpline
70
4
71
3
72
10
73
6
40
0
40
0
40
0
40
0
40
0.23054392805298
40
0.670249368460765
40
1
40
1
40
1
40
1
41
1
10
119.555000472764
20
-15.7112166191105
30
0
41
1
10
119.555973870088
20
-15.6941926951023
30
0
41
1
10
119.563390370997
20
-15.6424094026312
30
0
41
1
10
119.601280134767
20
-15.5483980008889
30
0
41
1
10
119.638677503405
20
-15.4764629670545
30
0
41
1
10
119.65725
20
-15.4446939818576
30
0
0
SPLINE
5
197
100
AcDbEntity
8
1
62
256
6
ByLayer
370
18
48
1
60
0
100
AcDbSpline
70
4
71
3
72
13
73
9
40
0
40
0
40
0
40
0
40
0.0632694644458648
40
0.276663840458631
40
0.491667190860432
40
0.676297285291741
40
0.911346290098183
40
1
40
1
40
1
40
1
41
1
10
119.555000929875
20
16.7508182535806
30
0
41
1
10
119.554969985234
20
16.7534297023435
30
0
41
1
10
119.55550091994
20
16.7641829123098
30
0
41
1
10
119.560935326727
20
16.779474812584
30
0
41
1
10
119.579425426928
20
16.7851478318844
30
0
41
1
10
119.607960906402
20
16.7759274024369
30
0
41
1
10
119.635043745723
20
16.7584802199497
30
0
41
1
10
119.652419939031
20
16.7448966802659
30
0
41
1
10
119.657250000006
20
16.7409130865523
30
0
0
SPLINE
5
198
100
AcDbEntity
8
1
62
256
6
ByLayer
370
18
48
1
60
0
100
AcDbSpline
70
4
71
3
72
11
73
7
40
0
40
0
40
0
40
0
40
0.0302362271658186
40
0.300567593954848
40
0.740596753790186
40
1
40
1
40
1
40
1
41
1
10
119.555000725937
20
-16.7508635079356
30
0
41
1
10
119.555017361135
20
-16.7491477519593
30
0
41
1
10
119.555575568673
20
-16.7318046022458
30
0
41
1
10
119.569149254964
20
-16.6789954170122
30
0
41
1
10
119.607837049873
20
-16.5985027415873
30
0
41
1
10
119.642867396602
20
-16.5396035419022
30
0
41
1
10
119.65725
20
-16.5172600263618
30
0
0
SPLINE
5
199
100
AcDbEntity
8
1
62
256
6
ByLayer
370
18
48
1
60
0
100
AcDbSpline
70
4
71
3
72
13
73
9
40
0
40
0
40
0
40
0
40
0.0212809377381096
40
0.238561386112171
40
0.457168607694641
40
0.649648659773548
40
0.903508497126275
40
1
40
1
40
1
40
1
41
1
10
119.555000081396
20
17.602545625745
30
0
41
1
10
119.55499712244
20
17.6032852321386
30
0
41
1
10
119.555161987586
20
17.6113772392832
30
0
41
1
10
119.559253003597
20
17.6236047693758
30
0
41
1
10
119.57688156024
20
17.6269244451721
30
0
41
1
10
119.605349565434
20
17.6158580447934
30
0
41
1
10
119.633524661658
20
17.5968329280773
30
0
41
1
10
119.652052428589
20
17.5820731962956
30
0
41
1
10
119.657250000005
20
17.5777377493884
30
0
0
SPLINE
5
19A
100
AcDbEntity
8
1
62
256
6
ByLayer
370
18
48
1
60
0
100
AcDbSpline
70
4
71
3
72
11
73
7
40
0
40
0
40
0
40
0
40
0.0812329922284085
40
0.361133281662942
40
0.796537058091816
40
1
40
1
40
1
40
1
41
1
10
119.55500147232
20
-17.6022405721771
30
0
41
1
10
119.555099462372
20
-17.5984504549655
30
0
41
1
10
119.556719074078
20
-17.580709703447
30
0
41
1
10
119.574802179398
20
-17.5294836558493
30
0
41
1
10
119.613632517066
20
-17.4603267694139
30
0
41
1
10
119.646115482642
20
-17.4113458694242
30
0
41
1
10
119.65725
20
-17.3954357623967
30
0
0
SPLINE
5
19B
100
AcDbEntity
8
1
62
256
6
ByLayer
370
18
48
1
60
0
100
AcDbSpline
70
4
71
3
72
12
73
8
40
0
40
0
40
0
40
0
40
0.203982101215672
40
0.422892038300948
40
0.621225759785394
40
0.890379488772127
40
1
40
1
40
1
40
1
41
1
10
119.555000066086
20
18.292086575487
30
0
41
1
10
119.554897963952
20
18.2983003785211
30
0
41
1
10
119.558176529177
20
18.3071735753694
30
0
41
1
10
119.574243124086
20
18.3084735293176
30
0
41
1
10
119.602275393741
20
18.2955987473305
30
0
41
1
10
119.631553976018
20
18.2748245964975
30
0
41
1
10
119.651377526233
20
18.258638471764
30
0
41
1
10
119.657250000007
20
18.2536450551943
30
0
0
SPLINE
5
19C
100
AcDbEntity
8
1
62
256
6
ByLayer
370
18
48
1
60
0
100
AcDbSpline
70
4
71
3
72
11
73
7
40
0
40
0
40
0
40
0
40
0.130632392229595
40
0.415548682631266
40
0.843413418810576
40
1
40
1
40
1
40
1
41
1
10
119.555000724703
20
-18.2919300405605
30
0
41
1
10
119.555219444984
20
-18.2869735895815
30
0
41
1
10
119.55799512545
20
-18.2695849031442
30
0
41
1
10
119.580249725645
20
-18.2201944449455
30
0
41
1
10
119.618700276632
20
-18.1601189387494
30
0
41
1
10
119.648761892694
20
-18.1187907830027
30
0
41
1
10
119.65725
20
-18.1075258373112
30
0
0
SPLINE
5
19D
100
AcDbEntity
8
1
62
256
6
ByLayer
370
18
48
1
60
0
100
AcDbSpline
70
4
71
3
72
12
73
8
40
0
40
0
40
0
40
0
40
0.171820385506378
40
0.389124108028757
40
0.591678114719565
40
0.873622739350173
40
1
40
1
40
1
40
1
41
1
10
119.555000312325
20
18.8374254774193
30
0
41
1
10
119.554945951919
20
18.8415859421234
30
0
41
1
10
119.557566085497
20
18.8479456508417
30
0
41
1
10
119.571645644364
20
18.8471547875957
30
0
41
1
10
119.598948282838
20
18.8325246100649
30
0
41
1
10
119.629289303415
20
18.8097517340526
30
0
41
1
10
119.650490893341
20
18.7919055473377
30
0
41
1
10
119.657250000011
20
18.7860121158195
30
0
0
SPLINE
5
19E
100
AcDbEntity
8
1
62
256
6
ByLayer
370
18
48
1
60
0
100
AcDbSpline
70
4
71
3
72
11
73
7
40
0
40
0
40
0
40
0
40
0.14340616013561
40
0.416179409660987
40
0.813457131820046
40
1
40
1
40
1
40
1
41
1
10
119.555000075114
20
-18.8374837408244
30
0
41
1
10
119.555218734815
20
-18.8332559112073
30
0
41
1
10
119.558158421244
20
-18.8190743086719
30
0
41
1
10
119.579864871635
20
-18.7772067985676
30
0
41
1
10
119.617427602226
20
-18.7232747229728
30
0
41
1
10
119.647143977536
20
-18.685075854437
30
0
41
1
10
119.65725
20
-18.6725412982299
30
0
0
SPLINE
5
19F
100
AcDbEntity
8
1
62
256
6
ByLayer
370
18
48
1
60
0
100
AcDbSpline
70
4
71
3
72
12
73
8
40
0
40
0
40
0
40
0
40
0.0937750043520446
40
0.315079293964323
40
0.520086113400803
40
0.799364997268508
40
1
40
1
40
1
40
1
41
1
10
119.555000241862
20
19.250975551376
30
0
41
1
10
119.554980723118
20
19.252660330552
30
0
41
1
10
119.556166673441
20
19.2569820460955
30
0
41
1
10
119.56547045096
20
19.256718152267
30
0
41
1
10
119.589775411851
20
19.2426519312952
30
0
41
1
10
119.621987058705
20
19.2176386678643
30
0
41
1
10
119.646436280983
20
19.1965225182805
30
0
41
1
10
119.65725
20
19.1867908893245
30
0
0
SPLINE
5
1A0
100
AcDbEntity
8
1
62
256
6
ByLayer
370
18
48
1
60
0
100
AcDbSpline
70
4
71
3
72
11
73
7
40
0
40
0
40
0
40
0
40
0.151510210552039
40
0.411847092875889
40
0.780628591293202
40
1
40
1
40
1
40
1
41
1
10
119.555000030128
20
-19.2510233429179
30
0
41
1
10
119.555213291713
20
-19.2477351167947
30
0
41
1
10
119.558226651058
20
-19.2366590343581
30
0
41
1
10
119.579017327131
20
-19.2017481251854
30
0
41
1
10
119.61576248758
20
-19.1531383553434
30
0
41
1
10
119.645364287079
20
-19.1174078722661
30
0
41
1
10
119.65725
20
-19.1035364558304
30
0
0
SPLINE
5
1A1
100
AcDbEntity
8
1
62
256
6
ByLayer
370
18
48
1
60
0
100
AcDbSpline
70
4
71
3
72
12
73
8
40
0
40
0
40
0
40
0
40
0.0040678379005714
40
0.193259184993743
40
0.453930994611824
40
0.816503936930151
40
1
40
1
40
1
40
1
41
1
10
119.555000003065
20
-19.5410513391963
30
0
41
1
10
119.555000102346
20
-19.540998898705
30
0
41
1
10
119.555041908086
20
-19.5384715788751
30
0
41
1
10
119.559763366211
20
-19.5278958526447
30
0
41
1
10
119.583394766297
20
-19.494953440049
30
0
41
1
10
119.61968179993
20
-19.4515850423524
30
0
41
1
10
119.64738507519
20
-19.4203496943217
30
0
41
1
10
119.657250000001
20
-19.4094413032536
30
0
0
SPLINE
5
1A2
100
AcDbEntity
8
1
62
256
6
ByLayer
370
18
48
1
60
0
100
AcDbSpline
70
4
71
3
72
12
73
8
40
0
40
0
40
0
40
0
40
0.0805814427705922
40
0.294856636486378
40
0.501424598236
40
0.795507813486111
40
1
40
1
40
1
40
1
41
1
10
119.555000074588
20
19.5410298872621
30
0
41
1
10
119.554994909587
20
19.5419980562034
30
0
41
1
10
119.555997909948
20
19.5444659198811
30
0
41
1
10
119.564538790173
20
19.541741577563
30
0
41
1
10
119.588322652416
20
19.524900506125
30
0
41
1
10
119.620983720609
20
19.4972337835865
30
0
41
1
10
119.646251711464
20
19.4743399506937
30
0
41
1
10
119.65725
20
19.4641115400998
30
0
0
SPLINE
5
1A3
100
AcDbEntity
8
1
62
256
6
ByLayer
370
18
48
1
60
0
100
AcDbSpline
70
4
71
3
72
12
73
8
40
0
40
0
40
0
40
0
40
0.101523682145537
40
0.298670259603626
40
0.579960061486463
40
0.971009684658919
40
1
40
1
40
1
40
1
41
1
10
119.555000044758
20
-19.7130031276509
30
0
41
1
10
119.555046733675
20
-19.7123126748356
30
0
41
1
10
119.556492157933
20
-19.7090003075641
30
0
41
1
10
119.567719690897
20
-19.6941913394474
30
0
41
1
10
119.599047395786
20
-19.6582641268284
30
0
41
1
10
119.633679505405
20
-19.6209690724058
30
0
41
1
10
119.655717722443
20
-19.5977282863562
30
0
41
1
10
119.65725
20
-19.5961148774388
30
0
0
SPLINE
5
1A4
100
AcDbEntity
8
1
62
256
6
ByLayer
370
18
48
1
60
0
100
AcDbSpline
70
4
71
3
72
12
73
8
40
0
40
0
40
0
40
0
40
0.101897259976059
40
0.309477308976172
40
0.520977748882388
40
0.84370223084689
40
1
40
1
40
1
40
1
41
1
10
119.555000029089
20
19.7130051391009
30
0
41
1
10
119.555013028712
20
19.7136125625675
30
0
41
1
10
119.556404817249
20
19.7140568873087
30
0
41
1
10
119.566369579928
20
19.7070410064692
30
0
41
1
10
119.591854792125
20
19.6849792726466
30
0
41
1
10
119.624433074224
20
19.6546523938096
30
0
41
1
10
119.648908641859
20
19.6312544707722
30
0
41
1
10
119.657250000007
20
19.6232090000593
30
0
0
SPLINE
5
1A5
100
AcDbEntity
8
1
62
256
6
ByLayer
370
18
48
1
60
0
100
AcDbSpline
70
4
71
3
72
12
73
8
40
0
40
0
40
0
40
0
40
0.268812720709515
40
0.597605301872777
40
0.761234284787711
40
0.896143503604592
40
1
40
1
40
1
40
1
41
1
10
13.8943375672974
20
29.9139548464691
30
0
41
1
10
13.8789102783285
20
29.9344364341763
30
0
41
1
10
13.831605345163
20
29.9775637976282
30
0
41
1
10
13.7433941200963
20
30.0291632435093
30
0
41
1
10
13.634722007306
20
30.0627691562056
30
0
41
1
10
13.5458378558719
20
30.0777080286646
30
0
41
1
10
13.4878204468283
20
30.0803887582689
30
0
41
1
10
13.4613248654052
20
30.080592760317
30
0
0
SPLINE
5
1A6
100
AcDbEntity
8
1
62
256
6
ByLayer
370
18
48
1
60
0
100
AcDbSpline
70
4
71
3
72
13
73
9
40
0
40
0
40
0
40
0
40
0.0049544420437586
40
0.113866519425948
40
0.253452115449271
40
0.473535455387175
40
0.894568595884783
40
1
40
1
40
1
40
1
41
1
10
10.5386751345948
20
30.0805927603169
30
0
41
1
10
10.537450872409
20
30.0805926868535
30
0
41
1
10
10.5093477717048
20
30.0805290593978
30
0
41
1
10
10.4465510164428
20
30.0768838316286
30
0
41
1
10
10.3457330197466
20
30.058773313866
30
0
41
1
10
10.2197164028837
20
30.013815703074
30
0
41
1
10
10.1481083506258
20
29.9607825352996
30
0
41
1
10
10.1120558984644
20
29.9218822348292
30
0
41
1
10
10.1056624327026
20
29.9139548464691
30
0
0
SPLINE
5
1A7
100
AcDbEntity
8
1
62
256
6
ByLayer
370
18
48
1
60
0
100
AcDbSpline
70
4
71
3
72
12
73
8
40
0
40
0
40
0
40
0
40
0.268812720709377
40
0.597605301872741
40
0.761234284787674
40
0.89614350360459
40
1
40
1
40
1
40
1
41
1
10
10.1056624327026
20
9.86941261896613
30
0
41
1
10
10.1210897216714
20
9.80723406842817
30
0
41
1
10
10.168394654837
20
9.67528895226031
30
0
41
1
10
10.2566058799036
20
9.51348309748259
30
0
41
1
10
10.365277992694
20
9.40646168968887
30
0
41
1
10
10.454162144128
20
9.35849990178995
30
0
41
1
10
10.5121795531717
20
9.34989401091092
30
0
41
1
10
10.5386751345948
20
9.349221314525
30
0
0
SPLINE
5
1A8
100
AcDbEntity
8
1
62
256
6
ByLayer
370
18
48
1
60
0
100
AcDbSpline
70
4
71
3
72
13
73
9
40
0
40
0
40
0
40
0
40
0.0049544420437877
40
0.113866519426003
40
0.253452115449331
40
0.473535455387237
40
0.894568595884835
40
1
40
1
40
1
40
1
41
1
10
13.4613248654052
20
9.34922131452502
30
0
41
1
10
13.462549127591
20
9.34922155870898
30
0
41
1
10
13.4906522282952
20
9.34942610523151
30
0
41
1
10
13.5534489835572
20
9.36116231186524
30
0
41
1
10
13.6542669802534
20
9.41926340653962
30
0
41
1
10
13.7802835971163
20
9.56214647013261
30
0
41
1
10
13.8518916493741
20
9.72702906428665
30
0
41
1
10
13.8879441015356
20
9.84537467551148
30
0
41
1
10
13.8943375672974
20
9.8694126189661
30
0
0
SPLINE
5
1A9
100
AcDbEntity
8
1
62
256
6
ByLayer
370
18
48
1
60
0
100
AcDbSpline
70
4
71
3
72
12
73
8
40
0
40
0
40
0
40
0
40
0.268812720709501
40
0.597605301872746
40
0.76123428478768
40
0.896143503604592
40
1
40
1
40
1
40
1
41
1
10
13.8943375672974
20
-9.8694126189661
30
0
41
1
10
13.8789102783285
20
-9.80723406842812
30
0
41
1
10
13.831605345163
20
-9.67528895226027
30
0
41
1
10
13.7433941200963
20
-9.51348309748256
30
0
41
1
10
13.634722007306
20
-9.40646168968885
30
0
41
1
10
13.5458378558719
20
-9.35849990178995
30
0
41
1
10
13.4878204468283
20
-9.34989401091092
30
0
41
1
10
13.4613248654052
20
-9.34922131452502
30
0
0
SPLINE
5
1AA
100
AcDbEntity
8
1
62
256
6
ByLayer
370
18
48
1
60
0
100
AcDbSpline
70
4
71
3
72
13
73
9
40
0
40
0
40
0
40
0
40
0.0049544420438113
40
0.113866519426002
40
0.253452115449338
40
0.473535455387304
40
0.894568595884991
40
1
40
1
40
1
40
1
41
1
10
10.5386751345948
20
-9.34922131452503
30
0
41
1
10
10.537450872409
20
-9.34922155870898
30
0
41
1
10
10.5093477717048
20
-9.34942610523135
30
0
41
1
10
10.4465510164428
20
-9.36116231186533
30
0
41
1
10
10.3457330197465
20
-9.4192634065396
30
0
41
1
10
10.2197164028837
20
-9.56214647013267
30
0
41
1
10
10.1481083506258
20
-9.72702906428669
30
0
41
1
10
10.1120558984644
20
-9.84537467551155
30
0
41
1
10
10.1056624327026
20
-9.86941261896613
30
0
0
SPLINE
5
1AB
100
AcDbEntity
8
1
62
256
6
ByLayer
370
18
48
1
60
0
100
AcDbSpline
70
4
71
3
72
12
73
8
40
0
40
0
40
0
40
0
40
0.268812720709649
40
0.597605301872837
40
0.761234284787778
40
0.896143503604649
40
1
40
1
40
1
40
1
41
1
10
10.1056624327026
20
-29.9139548464691
30
0
41
1
10
10.1210897216715
20
-29.9344364341763
30
0
41
1
10
10.168394654837
20
-29.9775637976282
30
0
41
1
10
10.2566058799037
20
-30.0291632435093
30
0
41
1
10
10.365277992694
20
-30.0627691562057
30
0
41
1
10
10.4541621441281
20
-30.0777080286645
30
0
41
1
10
10.5121795531717
20
-30.0803887582689
30
0
41
1
10
10.5386751345948
20
-30.080592760317
30
0
0
SPLINE
5
1AC
100
AcDbEntity
8
1
62
256
6
ByLayer
370
18
48
1
60
0
100
AcDbSpline
70
4
71
3
72
13
73
9
40
0
40
0
40
0
40
0
40
0.0049544420438141
40
0.113866519426005
40
0.253452115449327
40
0.473535455387254
40
0.894568595884904
40
1
40
1
40
1
40
1
41
1
10
13.4613248654052
20
-30.080592760317
30
0
41
1
10
13.462549127591
20
-30.0805926868535
30
0
41
1
10
13.4906522282952
20
-30.0805290593975
30
0
41
1
10
13.5534489835572
20
-30.0768838316287
30
0
41
1
10
13.6542669802534
20
-30.0587733138659
30
0
41
1
10
13.7802835971163
20
-30.013815703074
30
0
41
1
10
13.8518916493742
20
-29.9607825352996
30
0
41
1
10
13.8879441015356
20
-29.9218822348292
30
0
41
1
10
13.8943375672974
20
-29.9139548464691
30
0
0
SPLINE
5
1AD
100
AcDbEntity
8
SK1
62
256
6
ByLayer
370
18
48
1
60
0
100
AcDbSpline
70
4
71
2
72
6
73
3
40
0
40
0
40
0
40
1
40
1
40
1
41
1
10
-0.200000000000089
20
-7.06635637915041
30
0
41
1
10
-0.0908774378592295
20
-6.8482871594545
30
0
41
1
10
-0.0226473140816548
20
-6.61412663688556
30
0
0
SPLINE
5
1AE
100
AcDbEntity
8
SK1
62
256
6
ByLayer
370
18
48
1
60
0
100
AcDbSpline
70
4
71
1
72
4
73
2
40
0
40
0
40
1
40
1
41
1
10
-0.0226473140816548
20
-6.61412663688556
30
0
41
1
10
-2.26E-14
20
-6.53762631735264
30
0
0
SPLINE
5
1AF
100
AcDbEntity
8
SK1
62
256
6
ByLayer
370
18
48
1
60
0
100
AcDbSpline
70
4
71
3
72
17
73
13
40
0
40
0
40
0
40
0
40
0.0298547527790953
40
0.052578198006911
40
0.0702552594573891
40
0.0879570282206643
40
0.111562258438715
40
0.153224651801843
40
0.282447345849141
40
0.553767947019242
40
0.826225344353765
40
1
40
1
40
1
40
1
41
1
10
-0.400000000000049
20
-6.10423156158008
30
0
41
1
10
-0.394253616263358
20
-6.09797454756709
30
0
41
1
10
-0.382913537569244
20
-6.08923142505258
30
0
41
1
10
-0.364786670968268
20
-6.08123431234803
30
0
41
1
10
-0.348123200226276
20
-6.0804818862395
30
0
41
1
10
-0.331686692288052
20
-6.08578067628336
30
0
41
1
10
-0.312103115453588
20
-6.10063829425719
30
0
41
1
10
-0.278950759627469
20
-6.14757789301996
30
0
41
1
10
-0.240075114125955
20
-6.2708407343505
30
0
41
1
10
-0.210538570778164
20
-6.46014710085136
30
0
41
1
10
-0.20220707679149
20
-6.66173364401414
30
0
41
1
10
-0.199932550514476
20
-6.78606967214937
30
0
41
1
10
-0.200000000000062
20
-6.83438537300094
30
0
0
SPLINE
5
1B0
100
AcDbEntity
8
SK1
62
256
6
ByLayer
370
18
48
1
60
0
100
AcDbSpline
70
4
71
3
72
17
73
13
40
0
40
0
40
0
40
0
40
0.360388834701791
40
0.519640600666497
40
0.67839891772967
40
0.772241509152276
40
0.823699029242447
40
0.861599276791073
40
0.892054497062475
40
0.922526976554756
40
0.965050194969286
40
1
40
1
40
1
40
1
41
1
10
-1.30710678118655
20
-4.69591747913022
30
0
41
1
10
-1.26951009656687
20
-4.92964404310758
30
0
41
1
10
-1.19176340545647
20
-5.2579422153627
30
0
41
1
10
-1.05845153787931
20
-5.67455265875979
30
0
41
1
10
-0.945912591166129
20
-5.91604105281958
30
0
41
1
10
-0.831518990177396
20
-6.07946520186086
30
0
41
1
10
-0.738555650587858
20
-6.16058876265616
30
0
41
1
10
-0.663094378710056
20
-6.19662231403712
30
0
41
1
10
-0.593007090783791
20
-6.20557486895366
30
0
41
1
10
-0.520694131435162
20
-6.19149467219484
30
0
41
1
10
-0.455543672786569
20
-6.15430434256451
30
0
41
1
10
-0.41620534051347
20
-6.12122792076277
30
0
41
1
10
-0.400000000000049
20
-6.10423156158008
30
0
0
SPLINE
5
1B1
100
AcDbEntity
8
SK1
62
256
6
ByLayer
370
18
48
1
60
0
100
AcDbSpline
70
4
71
3
72
17
73
13
40
0
40
0
40
0
40
0
40
0.0428240807904635
40
0.0860264986202464
40
0.116365121966661
40
0.146702344469371
40
0.190290998791686
40
0.271171318917586
40
0.405589755792736
40
0.540658493132764
40
0.770235905399022
40
1
40
1
40
1
40
1
41
1
10
-0.40000000000005
20
6.10423197315534
30
0
41
1
10
-0.41981193980787
20
6.12545634712005
30
0
41
1
10
-0.464215810549309
20
6.16118054942612
30
0
41
1
10
-0.537404296379805
20
6.19762954520598
30
0
41
1
10
-0.611358310763094
20
6.20533675022222
30
0
41
1
10
-0.683800317523165
20
6.18970784507662
30
0
41
1
10
-0.776263428667177
20
6.13544055421006
30
0
41
1
10
-0.890570771917318
20
6.00617655880065
30
0
41
1
10
-1.00159332888065
20
5.80742857092608
30
0
41
1
10
-1.1159204496703
20
5.50690539843637
30
0
41
1
10
-1.2209539259083
20
5.13705997602487
30
0
41
1
10
-1.28227297420907
20
4.84440881641285
30
0
41
1
10
-1.30710678118655
20
4.69591515673877
30
0
0
SPLINE
5
1B2
100
AcDbEntity
8
SK1
62
256
6
ByLayer
370
18
48
1
60
0
100
AcDbSpline
70
4
71
3
72
17
73
13
40
0
40
0
40
0
40
0
40
0.457633424849974
40
0.67027448296458
40
0.777135339777238
40
0.855324815689425
40
0.882088585193544
40
0.909057217927397
40
0.9270273315596
40
0.945054321714209
40
0.967246413769247
40
1
40
1
40
1
40
1
41
1
10
-0.200000000000049
20
6.83438539664966
30
0
41
1
10
-0.19628855547743
20
6.70659076258015
30
0
41
1
10
-0.206710872223509
20
6.51939672024762
30
0
41
1
10
-0.235891573374867
20
6.29989326841263
30
0
41
1
10
-0.264954443748576
20
6.18942720275304
30
0
41
1
10
-0.289286076797238
20
6.13229386341347
30
0
41
1
10
-0.312333470522282
20
6.10132427523637
30
0
41
1
10
-0.328516525282539
20
6.08745968733143
30
0
41
1
10
-0.34576018447529
20
6.08083833453206
30
0
41
1
10
-0.362547690295123
20
6.08071787621869
30
0
41
1
10
-0.38172696305778
20
6.08831704427054
30
0
41
1
10
-0.39369162359809
20
6.09726577368612
30
0
41
1
10
-0.400000000000049
20
6.10423197315534
30
0
0
SPLINE
5
1B3
100
AcDbEntity
8
SK1
62
256
6
ByLayer
370
18
48
1
60
0
100
AcDbSpline
70
4
71
2
72
6
73
3
40
0
40
0
40
0
40
1
40
1
40
1
41
1
10
-2.51E-14
20
6.5376264469174
30
0
41
1
10
-0.0701685688190141
20
6.81436012170808
30
0
41
1
10
-0.200000000000397
20
7.0663565904932
30
0
0
SPLINE
5
1B4
100
AcDbEntity
8
SK1
62
256
6
ByLayer
370
18
48
1
60
0
100
AcDbSpline
70
4
71
3
72
17
73
13
40
0
40
0
40
0
40
0
40
0.05802250217143
40
0.118348646683329
40
0.23904560972145
40
0.359733865206065
40
0.420057338372256
40
0.540737215820521
40
0.661413456711566
40
0.782087095625332
40
0.890936363871378
40
1
40
1
40
1
40
1
41
1
10
-2.1999369715594
20
22.0201008059928
30
0
41
1
10
-2.19994111039233
20
22.0199534703522
30
0
41
1
10
-2.19994895187911
20
22.0110355150373
30
0
41
1
10
-2.19996201027101
20
21.95673198262
30
0
41
1
10
-2.19997487537822
20
21.8226368730382
30
0
41
1
10
-2.1999836282154
20
21.6082265291292
30
0
41
1
10
-2.19999009564896
20
21.3379022147511
30
0
41
1
10
-2.19999459160162
20
21.0133951954851
30
0
41
1
10
-2.19999774021868
20
20.5423530489728
30
0
41
1
10
-2.19999929933425
20
20.0117273492259
30
0
41
1
10
-2.19999990715402
20
19.4326140671218
30
0
41
1
10
-2.20000002952678
20
19.02140556981
30
0
41
1
10
-2.2
20
18.8057993596818
30
0
0
SPLINE
5
1B5
100
AcDbEntity
8
SK1
62
256
6
ByLayer
370
18
48
1
60
0
100
AcDbSpline
70
4
71
1
72
4
73
2
40
0
40
0
40
1
40
1
41
1
10
-2.1949248885741
20
22.0202267269672
30
0
41
1
10
-2.20680206555644
20
22.0199283309345
30
0
0
SPLINE
5
1B6
100
AcDbEntity
8
SK1
62
256
6
ByLayer
370
18
48
1
60
0
100
AcDbSpline
70
4
71
2
72
6
73
3
40
0
40
0
40
0
40
1
40
1
40
1
41
1
10
-2.20680206555644
20
22.0199283309345
30
0
41
1
10
-2.60340103277822
20
22.0099643842345
30
0
41
1
10
-3
20
22.0000004375346
30
0
0
SPLINE
5
1B7
100
AcDbEntity
8
SK1
62
256
6
ByLayer
370
18
48
1
60
0
100
AcDbSpline
70
4
71
2
72
6
73
3
40
0
40
0
40
0
40
1
40
1
40
1
41
1
10
-3
20
-22.0000004290441
30
0
41
1
10
-2.60518235475303
20
-22.0099196227311
30
0
41
1
10
-2.21036470950606
20
-22.019838816418
30
0
0
SPLINE
5
1B8
100
AcDbEntity
8
SK1
62
256
6
ByLayer
370
18
48
1
60
0
100
AcDbSpline
70
4
71
1
72
4
73
2
40
0
40
0
40
1
40
1
41
1
10
-2.21036470950606
20
-22.019838816418
30
0
41
1
10
-2.1949248885741
20
-22.0202267184689
30
0
0
SPLINE
5
1B9
100
AcDbEntity
8
SK1
62
256
6
ByLayer
370
18
48
1
60
0
100
AcDbSpline
70
4
71
3
72
17
73
13
40
0
40
0
40
0
40
0
40
0.110687715864243
40
0.221598832441259
40
0.401505980701359
40
0.491413086613026
40
0.581321307758235
40
0.671230942573734
40
0.761142395498122
40
0.851056195500553
40
0.940973208109431
40
1
40
1
40
1
40
1
41
1
10
-2.2
20
-18.8057994981525
30
0
41
1
10
-2.20000003103069
20
-19.0246237171162
30
0
41
1
10
-2.19999990450804
20
-19.4425012451433
30
0
41
1
10
-2.19999916418251
20
-20.1274238366396
30
0
41
1
10
-2.19999717995272
20
-20.6829072947467
30
0
41
1
10
-2.19999322568005
20
-21.1192240035044
30
0
41
1
10
-2.19998888045221
20
-21.4003821399875
30
0
41
1
10
-2.1999827900086
20
-21.6334064688807
30
0
41
1
10
-2.19997446616065
20
-21.8158350479727
30
0
41
1
10
-2.1999635375559
20
-21.9447098349005
30
0
41
1
10
-2.19995101539095
20
-22.0085414008449
30
0
41
1
10
-2.19994116247006
20
-22.019913752436
30
0
41
1
10
-2.19993697064149
20
-22.020100797442
30
0
0
SPLINE
5
1BA
100
AcDbEntity
8
SK1
62
256
6
ByLayer
370
18
48
1
60
0
100
AcDbSpline
70
4
71
2
72
6
73
3
40
0
40
0
40
0
40
1
40
1
40
1
41
1
10
-3
20
22.0000004375346
30
0
41
1
10
-19.7502365839533
20
21.5791761834949
30
0
41
1
10
-36.5004731679067
20
21.1583519294552
30
0
0
SPLINE
5
1BB
100
AcDbEntity
8
SK1
62
256
6
ByLayer
370
18
48
1
60
0
100
AcDbSpline
70
4
71
2
72
6
73
3
40
0
40
0
40
0
40
1
40
1
40
1
41
1
10
-36.5004731679067
20
-21.1583519212895
30
0
41
1
10
-19.7502365839533
20
-21.5791761751668
30
0
41
1
10
-3
20
-22.0000004290441
30
0
0
SPLINE
5
1BC
100
AcDbEntity
8
SK1
62
256
6
ByLayer
370
18
48
1
60
0
100
AcDbSpline
70
4
71
1
72
4
73
2
40
0
40
0
40
1
40
1
41
1
10
-2
20
21.8251282685034
30
0
41
1
10
-2
20
21.8251008008683
30
0
0
SPLINE
5
1BD
100
AcDbEntity
8
SK1
62
256
6
ByLayer
370
18
48
1
60
0
100
AcDbSpline
70
4
71
3
72
13
73
9
40
0
40
0
40
0
40
0
40
0.239458034039705
40
0.368362242523276
40
0.500001719408241
40
0.631640907399708
40
0.760544321541671
40
1
40
1
40
1
40
1
41
1
10
-2
20
21.8251283317571
30
0
41
1
10
-2.02607218220657
20
21.8253815759776
30
0
41
1
10
-2.06363558166034
20
21.832499461233
30
0
41
1
10
-2.11047835037541
20
21.8567272581279
30
0
41
1
10
-2.14242263587786
20
21.8827049843058
30
0
41
1
10
-2.16840067179329
20
21.9146489043199
30
0
41
1
10
-2.19262875645049
20
21.9614911190379
30
0
41
1
10
-2.19974671976325
20
21.9990541435572
30
0
41
1
10
-2.2
20
22.0251260837645
30
0
0
SPLINE
5
1BE
100
AcDbEntity
8
SK1
62
256
6
ByLayer
370
18
48
1
60
0
100
AcDbSpline
70
4
71
3
72
13
73
9
40
0
40
0
40
0
40
0
40
0.239455673358913
40
0.368359087136628
40
0.499998275767228
40
0.631637753936906
40
0.760541963956603
40
1
40
1
40
1
40
1
41
1
10
-2.2
20
-22.0251260775077
30
0
41
1
10
-2.19974671959666
20
-21.9990541369822
30
0
41
1
10
-2.19262875626099
20
-21.9614911120955
30
0
41
1
10
-2.16840067169747
20
-21.9146488976998
30
0
41
1
10
-2.14242263580763
20
-21.8827049776713
30
0
41
1
10
-2.11047835033027
20
-21.8567272514908
30
0
41
1
10
-2.06363558177699
20
-21.8324994546095
30
0
41
1
10
-2.02607218225584
20
-21.8253815693237
30
0
41
1
10
-2
20
-21.8251283250689
30
0
0
SPLINE
5
1BF
100
AcDbEntity
8
SK1
62
256
6
ByLayer
370
18
48
1
60
0
100
AcDbSpline
70
4
71
3
72
17
73
13
40
0
40
0
40
0
40
0
40
0.16508119161326
40
0.248797061165655
40
0.332496679566273
40
0.4152778257439
40
0.498046968683712
40
0.583249585425342
40
0.668465384839874
40
0.750712143588914
40
0.8329741026578
40
1
40
1
40
1
40
1
41
1
10
-1.30710678118655
20
-4.69591747913022
30
0
41
1
10
-1.39798477932826
20
-4.20540076485722
30
0
41
1
10
-1.51864992901832
20
-3.45199087458013
30
0
41
1
10
-1.65120335434383
20
-2.41585133978331
30
0
41
1
10
-1.72812095010369
20
-1.62293542031028
30
0
41
1
10
-1.77718425553148
20
-0.82244658042709
30
0
41
1
10
-1.79522923957652
20
-0.0111379780860681
30
0
41
1
10
-1.77806664947628
20
0.808218120760719
30
0
41
1
10
-1.72842463498329
20
1.61975783719164
30
0
41
1
10
-1.65159875379371
20
2.41111733942194
30
0
41
1
10
-1.51984228358818
20
3.44452139763647
30
0
41
1
10
-1.39909887084114
20
4.19959953418671
30
0
41
1
10
-1.30710678118656
20
4.69591515673877
30
0
0
SPLINE
5
1C0
100
AcDbEntity
8
SK1
62
256
6
ByLayer
370
18
48
1
60
0
100
AcDbSpline
70
4
71
1
72
4
73
2
40
0
40
0
40
1
40
1
41
1
10
-0.400000000000019
20
21.8251280560569
30
0
41
1
10
-0.400000000000019
20
21.825016803063
30
0
0
SPLINE
5
1C1
100
AcDbEntity
8
SK1
62
256
6
ByLayer
370
18
48
1
60
0
100
AcDbSpline
70
4
71
2
72
6
73
3
40
0
40
0
40
0
40
1
40
1
40
1
41
1
10
-2
20
-21.8251283250689
30
0
41
1
10
-1.20000000000001
20
-21.8251283250689
30
0
41
1
10
-0.400000000000019
20
-21.8251283250689
30
0
0
SPLINE
5
1C2
100
AcDbEntity
8
SK1
62
256
6
ByLayer
370
18
48
1
60
0
100
AcDbSpline
70
4
71
2
72
6
73
3
40
0
40
0
40
0
40
1
40
1
40
1
41
1
10
-0.400000000000019
20
21.8251283317571
30
0
41
1
10
-1.20000000000001
20
21.8251283317571
30
0
41
1
10
-2
20
21.8251283317571
30
0
0
SPLINE
5
1C3
100
AcDbEntity
8
SK1
62
256
6
ByLayer
370
18
48
1
60
0
100
AcDbSpline
70
4
71
1
72
4
73
2
40
0
40
0
40
1
40
1
41
1
10
-0.400000000000019
20
-21.8250168713199
30
0
41
1
10
-0.400000000000019
20
-21.8251280495499
30
0
0
SPLINE
5
1C4
100
AcDbEntity
8
SK1
62
256
6
ByLayer
370
18
48
1
60
0
100
AcDbSpline
70
4
71
2
72
6
73
3
40
0
40
0
40
0
40
1
40
1
40
1
41
1
10
-36.5004321682704
20
21.1581061531923
30
0
41
1
10
-37.250216097561
20
20.6997323883077
30
0
41
1
10
-38
20
20.2413583528791
30
0
0
SPLINE
5
1C5
100
AcDbEntity
8
SK1
62
256
6
ByLayer
370
18
48
1
60
0
100
AcDbSpline
70
4
71
2
72
6
73
3
40
0
40
0
40
0
40
1
40
1
40
1
41
1
10
-38
20
-20.2397162883162
30
0
41
1
10
-37.2502068935606
20
-20.6982812567361
30
0
41
1
10
-36.500413873027
20
-21.1568446673342
30
0
0
SPLINE
5
1C6
100
AcDbEntity
8
SK1
62
256
6
ByLayer
370
18
48
1
60
0
100
AcDbSpline
70
4
71
3
72
16
73
12
40
0
40
0
40
0
40
0
40
0.364843755239059
40
0.438264665950732
40
0.502559692640952
40
0.561145902141926
40
0.590896276431408
40
0.622649211855402
40
0.697422389592585
40
0.795291806319464
40
1
40
1
40
1
40
1
41
1
10
-0.400000000000019
20
-21.8251283250689
30
0
41
1
10
-0.390604659320629
20
-21.8244677899363
30
0
41
1
10
-0.375777355945149
20
-21.8259169458727
30
0
41
1
10
-0.354943834900732
20
-21.8301137134804
30
0
41
1
10
-0.345440387493047
20
-21.8325381240732
30
0
41
1
10
-0.33713251305207
20
-21.8351212638499
30
0
41
1
10
-0.330841808626839
20
-21.8373542026795
30
0
41
1
10
-0.324198727790458
20
-21.8399060929045
30
0
41
1
10
-0.315890408366848
20
-21.8435145006078
30
0
41
1
10
-0.304746465369965
20
-21.8490940953945
30
0
41
1
10
-0.298006277518849
20
-21.8528581494286
30
0
41
1
10
-0.294864998971673
20
-21.8549890547624
30
0
0
SPLINE
5
1C7
100
AcDbEntity
8
SK1
62
256
6
ByLayer
370
18
48
1
60
0
100
AcDbSpline
70
4
71
3
72
11
73
7
40
0
40
0
40
0
40
0
40
0.0552291375986852
40
0.213689577879209
40
0.62289648225362
40
1
40
1
40
1
40
1
41
1
10
-0.294864998971673
20
-21.8549890547624
30
0
41
1
10
-0.290216631084812
20
-21.8579922290321
30
0
41
1
10
-0.273526490458734
20
-21.8691065112696
30
0
41
1
10
-0.247141487646985
20
-21.8930299449347
30
0
41
1
10
-0.224354955877282
20
-21.9214181070131
30
0
41
1
10
-0.212635390757692
20
-21.9394382286858
30
0
41
1
10
-0.209674875085744
20
-21.946515511193
30
0
0
SPLINE
5
1C8
100
AcDbEntity
8
SK1
62
256
6
ByLayer
370
18
48
1
60
0
100
AcDbSpline
70
4
71
1
72
4
73
2
40
0
40
0
40
1
40
1
41
1
10
-2.49E-14
20
-7.47795498707187
30
0
41
1
10
-0.2
20
-7.45410184860193
30
0
0
SPLINE
5
1C9
100
AcDbEntity
8
SK1
62
256
6
ByLayer
370
18
48
1
60
0
100
AcDbSpline
70
4
71
1
72
4
73
2
40
0
40
0
40
1
40
1
41
1
10
-0.20000000000006
20
-7.06635637915059
30
0
41
1
10
-0.20000000000006
20
-7.45410184860193
30
0
0
SPLINE
5
1CA
100
AcDbEntity
8
SK1
62
256
6
ByLayer
370
18
48
1
60
0
100
AcDbSpline
70
4
71
1
72
4
73
2
40
0
40
0
40
1
40
1
41
1
10
-0.20000000000006
20
7.45410255809306
30
0
41
1
10
-0.20000000000006
20
7.0663565904932
30
0
0
SPLINE
5
1CB
100
AcDbEntity
8
SK1
62
256
6
ByLayer
370
18
48
1
60
0
100
AcDbSpline
70
4
71
1
72
4
73
2
40
0
40
0
40
1
40
1
41
1
10
-0.2
20
7.45410255809307
30
0
41
1
10
-2.49E-14
20
7.47795571927755
30
0
0
SPLINE
5
1CC
100
AcDbEntity
8
SK1
62
256
6
ByLayer
370
18
48
1
60
0
100
AcDbSpline
70
4
71
3
72
21
73
17
40
0
40
0
40
0
40
0
40
0.266740665119978
40
0.542753416939952
40
0.704987784238329
40
0.746297078147175
40
0.758903451773549
40
0.763634932558066
40
0.767610447081355
40
0.771174217202555
40
0.774735301839256
40
0.778655368518831
40
0.783170941611854
40
0.808636104145112
40
0.892207370419724
40
1
40
1
40
1
40
1
41
1
10
-0.205098628252128
20
21.9656846630301
30
0
41
1
10
-0.206603667099119
20
21.9618491696173
30
0
41
1
10
-0.213128118682537
20
21.9492549735724
30
0
41
1
10
-0.227068092150019
20
21.9237182270559
30
0
41
1
10
-0.245556112415675
20
21.8956337197254
30
0
41
1
10
-0.267822434158461
20
21.8729537743078
30
0
41
1
10
-0.279672291563407
20
21.8632984802186
30
0
41
1
10
-0.285884984066638
20
21.8587638747809
30
0
41
1
10
-0.290271368274116
20
21.8557616121883
30
0
41
1
10
-0.294839670826391
20
21.8528389024438
30
0
41
1
10
-0.299438538169337
20
21.8500967243401
30
0
41
1
10
-0.303963380400936
20
21.8475818371075
30
0
41
1
10
-0.315037133435257
20
21.8418614936857
30
0
41
1
10
-0.339272370101872
20
21.8323057882051
30
0
41
1
10
-0.366934076937239
20
21.8269525193025
30
0
41
1
10
-0.390048069436675
20
21.8242656569877
30
0
41
1
10
-0.400000000000019
20
21.8251283317571
30
0
0
SPLINE
5
1CD
100
AcDbEntity
8
1
62
256
6
ByLayer
370
18
48
1
60
0
100
AcDbSpline
70
4
71
3
72
12
73
8
40
0
40
0
40
0
40
0
40
0.268812720709515
40
0.597605301872777
40
0.761234284787711
40
0.896143503604592
40
1
40
1
40
1
40
1
41
1
10
13.8943375672974
20
29.9139548464691
30
0
41
1
10
13.8789102783285
20
29.9344364341763
30
0
41
1
10
13.831605345163
20
29.9775637976282
30
0
41
1
10
13.7433941200963
20
30.0291632435093
30
0
41
1
10
13.634722007306
20
30.0627691562056
30
0
41
1
10
13.5458378558719
20
30.0777080286646
30
0
41
1
10
13.4878204468283
20
30.0803887582689
30
0
41
1
10
13.4613248654052
20
30.080592760317
30
0
0
SPLINE
5
1CE
100
AcDbEntity
8
1
62
256
6
ByLayer
370
18
48
1
60
0
100
AcDbSpline
70
4
71
3
72
13
73
9
40
0
40
0
40
0
40
0
40
0.0049544420437586
40
0.113866519425948
40
0.253452115449271
40
0.473535455387175
40
0.894568595884783
40
1
40
1
40
1
40
1
41
1
10
10.5386751345948
20
30.0805927603169
30
0
41
1
10
10.537450872409
20
30.0805926868535
30
0
41
1
10
10.5093477717048
20
30.0805290593978
30
0
41
1
10
10.4465510164428
20
30.0768838316286
30
0
41
1
10
10.3457330197466
20
30.058773313866
30
0
41
1
10
10.2197164028837
20
30.013815703074
30
0
41
1
10
10.1481083506258
20
29.9607825352996
30
0
41
1
10
10.1120558984644
20
29.9218822348292
30
0
41
1
10
10.1056624327026
20
29.9139548464691
30
0
0
SPLINE
5
1CF
100
AcDbEntity
8
1
62
256
6
ByLayer
370
18
48
1
60
0
100
AcDbSpline
70
4
71
3
72
12
73
8
40
0
40
0
40
0
40
0
40
0.268812720709377
40
0.597605301872741
40
0.761234284787674
40
0.89614350360459
40
1
40
1
40
1
40
1
41
1
10
10.1056624327026
20
9.86941261896613
30
0
41
1
10
10.1210897216714
20
9.80723406842817
30
0
41
1
10
10.168394654837
20
9.67528895226031
30
0
41
1
10
10.2566058799036
20
9.51348309748259
30
0
41
1
10
10.365277992694
20
9.40646168968887
30
0
41
1
10
10.454162144128
20
9.35849990178995
30
0
41
1
10
10.5121795531717
20
9.34989401091092
30
0
41
1
10
10.5386751345948
20
9.349221314525
30
0
0
SPLINE
5
1D0
100
AcDbEntity
8
1
62
256
6
ByLayer
370
18
48
1
60
0
100
AcDbSpline
70
4
71
3
72
13
73
9
40
0
40
0
40
0
40
0
40
0.0049544420437877
40
0.113866519426003
40
0.253452115449331
40
0.473535455387237
40
0.894568595884835
40
1
40
1
40
1
40
1
41
1
10
13.4613248654052
20
9.34922131452502
30
0
41
1
10
13.462549127591
20
9.34922155870898
30
0
41
1
10
13.4906522282952
20
9.34942610523151
30
0
41
1
10
13.5534489835572
20
9.36116231186524
30
0
41
1
10
13.6542669802534
20
9.41926340653962
30
0
41
1
10
13.7802835971163
20
9.56214647013261
30
0
41
1
10
13.8518916493741
20
9.72702906428665
30
0
41
1
10
13.8879441015356
20
9.84537467551148
30
0
41
1
10
13.8943375672974
20
9.8694126189661
30
0
0
SPLINE
5
1D1
100
AcDbEntity
8
1
62
256
6
ByLayer
370
18
48
1
60
0
100
AcDbSpline
70
4
71
3
72
12
73
8
40
0
40
0
40
0
40
0
40
0.268812720709501
40
0.597605301872746
40
0.76123428478768
40
0.896143503604592
40
1
40
1
40
1
40
1
41
1
10
13.8943375672974
20
-9.8694126189661
30
0
41
1
10
13.8789102783285
20
-9.80723406842812
30
0
41
1
10
13.831605345163
20
-9.67528895226027
30
0
41
1
10
13.7433941200963
20
-9.51348309748256
30
0
41
1
10
13.634722007306
20
-9.40646168968885
30
0
41
1
10
13.5458378558719
20
-9.35849990178995
30
0
41
1
10
13.4878204468283
20
-9.34989401091092
30
0
41
1
10
13.4613248654052
20
-9.34922131452502
30
0
0
SPLINE
5
1D2
100
AcDbEntity
8
1
62
256
6
ByLayer
370
18
48
1
60
0
100
AcDbSpline
70
4
71
3
72
13
73
9
40
0
40
0
40
0
40
0
40
0.0049544420438113
40
0.113866519426002
40
0.253452115449338
40
0.473535455387304
40
0.894568595884991
40
1
40
1
40
1
40
1
41
1
10
10.5386751345948
20
-9.34922131452503
30
0
41
1
10
10.537450872409
20
-9.34922155870898
30
0
41
1
10
10.5093477717048
20
-9.34942610523135
30
0
41
1
10
10.4465510164428
20
-9.36116231186533
30
0
41
1
10
10.3457330197465
20
-9.4192634065396
30
0
41
1
10
10.2197164028837
20
-9.56214647013267
30
0
41
1
10
10.1481083506258
20
-9.72702906428669
30
0
41
1
10
10.1120558984644
20
-9.84537467551155
30
0
41
1
10
10.1056624327026
20
-9.86941261896613
30
0
0
SPLINE
5
1D3
100
AcDbEntity
8
1
62
256
6
ByLayer
370
18
48
1
60
0
100
AcDbSpline
70
4
71
3
72
12
73
8
40
0
40
0
40
0
40
0
40
0.268812720709649
40
0.597605301872837
40
0.761234284787778
40
0.896143503604649
40
1
40
1
40
1
40
1
41
1
10
10.1056624327026
20
-29.9139548464691
30
0
41
1
10
10.1210897216715
20
-29.9344364341763
30
0
41
1
10
10.168394654837
20
-29.9775637976282
30
0
41
1
10
10.2566058799037
20
-30.0291632435093
30
0
41
1
10
10.365277992694
20
-30.0627691562057
30
0
41
1
10
10.4541621441281
20
-30.0777080286645
30
0
41
1
10
10.5121795531717
20
-30.0803887582689
30
0
41
1
10
10.5386751345948
20
-30.080592760317
30
0
0
SPLINE
5
1D4
100
AcDbEntity
8
1
62
256
6
ByLayer
370
18
48
1
60
0
100
AcDbSpline
70
4
71
3
72
13
73
9
40
0
40
0
40
0
40
0
40
0.0049544420438141
40
0.113866519426005
40
0.253452115449327
40
0.473535455387254
40
0.894568595884904
40
1
40
1
40
1
40
1
41
1
10
13.4613248654052
20
-30.080592760317
30
0
41
1
10
13.462549127591
20
-30.0805926868535
30
0
41
1
10
13.4906522282952
20
-30.0805290593975
30
0
41
1
10
13.5534489835572
20
-30.0768838316287
30
0
41
1
10
13.6542669802534
20
-30.0587733138659
30
0
41
1
10
13.7802835971163
20
-30.013815703074
30
0
41
1
10
13.8518916493742
20
-29.9607825352996
30
0
41
1
10
13.8879441015356
20
-29.9218822348292
30
0
41
1
10
13.8943375672974
20
-29.9139548464691
30
0
0
SPLINE
5
1D5
100
AcDbEntity
8
SK1
62
256
6
ByLayer
370
18
48
1
60
0
100
AcDbSpline
70
4
71
2
72
6
73
3
40
0
40
0
40
0
40
1
40
1
40
1
41
1
10
-0.200000000000089
20
-7.06635637915041
30
0
41
1
10
-0.0908774378592295
20
-6.8482871594545
30
0
41
1
10
-0.0226473140816548
20
-6.61412663688556
30
0
0
SPLINE
5
1D6
100
AcDbEntity
8
SK1
62
256
6
ByLayer
370
18
48
1
60
0
100
AcDbSpline
70
4
71
1
72
4
73
2
40
0
40
0
40
1
40
1
41
1
10
-0.0226473140816548
20
-6.61412663688556
30
0
41
1
10
-2.26E-14
20
-6.53762631735264
30
0
0
SPLINE
5
1D7
100
AcDbEntity
8
SK1
62
256
6
ByLayer
370
18
48
1
60
0
100
AcDbSpline
70
4
71
3
72
17
73
13
40
0
40
0
40
0
40
0
40
0.0298547527790953
40
0.052578198006911
40
0.0702552594573891
40
0.0879570282206643
40
0.111562258438715
40
0.153224651801843
40
0.282447345849141
40
0.553767947019242
40
0.826225344353765
40
1
40
1
40
1
40
1
41
1
10
-0.400000000000049
20
-6.10423156158008
30
0
41
1
10
-0.394253616263358
20
-6.09797454756709
30
0
41
1
10
-0.382913537569244
20
-6.08923142505258
30
0
41
1
10
-0.364786670968268
20
-6.08123431234803
30
0
41
1
10
-0.348123200226276
20
-6.0804818862395
30
0
41
1
10
-0.331686692288052
20
-6.08578067628336
30
0
41
1
10
-0.312103115453588
20
-6.10063829425719
30
0
41
1
10
-0.278950759627469
20
-6.14757789301996
30
0
41
1
10
-0.240075114125955
20
-6.2708407343505
30
0
41
1
10
-0.210538570778164
20
-6.46014710085136
30
0
41
1
10
-0.20220707679149
20
-6.66173364401414
30
0
41
1
10
-0.199932550514476
20
-6.78606967214937
30
0
41
1
10
-0.200000000000062
20
-6.83438537300094
30
0
0
SPLINE
5
1D8
100
AcDbEntity
8
SK1
62
256
6
ByLayer
370
18
48
1
60
0
100
AcDbSpline
70
4
71
3
72
17
73
13
40
0
40
0
40
0
40
0
40
0.360388834701791
40
0.519640600666497
40
0.67839891772967
40
0.772241509152276
40
0.823699029242447
40
0.861599276791073
40
0.892054497062475
40
0.922526976554756
40
0.965050194969286
40
1
40
1
40
1
40
1
41
1
10
-1.30710678118655
20
-4.69591747913022
30
0
41
1
10
-1.26951009656687
20
-4.92964404310758
30
0
41
1
10
-1.19176340545647
20
-5.2579422153627
30
0
41
1
10
-1.05845153787931
20
-5.67455265875979
30
0
41
1
10
-0.945912591166129
20
-5.91604105281958
30
0
41
1
10
-0.831518990177396
20
-6.07946520186086
30
0
41
1
10
-0.738555650587858
20
-6.16058876265616
30
0
41
1
10
-0.663094378710056
20
-6.19662231403712
30
0
41
1
10
-0.593007090783791
20
-6.20557486895366
30
0
41
1
10
-0.520694131435162
20
-6.19149467219484
30
0
41
1
10
-0.455543672786569
20
-6.15430434256451
30
0
41
1
10
-0.41620534051347
20
-6.12122792076277
30
0
41
1
10
-0.400000000000049
20
-6.10423156158008
30
0
0
SPLINE
5
1D9
100
AcDbEntity
8
SK1
62
256
6
ByLayer
370
18
48
1
60
0
100
AcDbSpline
70
4
71
3
72
17
73
13
40
0
40
0
40
0
40
0
40
0.0428240807904635
40
0.0860264986202464
40
0.116365121966661
40
0.146702344469371
40
0.190290998791686
40
0.271171318917586
40
0.405589755792736
40
0.540658493132764
40
0.770235905399022
40
1
40
1
40
1
40
1
41
1
10
-0.40000000000005
20
6.10423197315534
30
0
41
1
10
-0.41981193980787
20
6.12545634712005
30
0
41
1
10
-0.464215810549309
20
6.16118054942612
30
0
41
1
10
-0.537404296379805
20
6.19762954520598
30
0
41
1
10
-0.611358310763094
20
6.20533675022222
30
0
41
1
10
-0.683800317523165
20
6.18970784507662
30
0
41
1
10
-0.776263428667177
20
6.13544055421006
30
0
41
1
10
-0.890570771917318
20
6.00617655880065
30
0
41
1
10
-1.00159332888065
20
5.80742857092608
30
0
41
1
10
-1.1159204496703
20
5.50690539843637
30
0
41
1
10
-1.2209539259083
20
5.13705997602487
30
0
41
1
10
-1.28227297420907
20
4.84440881641285
30
0
41
1
10
-1.30710678118655
20
4.69591515673877
30
0
0
SPLINE
5
1DA
100
AcDbEntity
8
SK1
62
256
6
ByLayer
370
18
48
1
60
0
100
AcDbSpline
70
4
71
3
72
17
73
13
40
0
40
0
40
0
40
0
40
0.457633424849974
40
0.67027448296458
40
0.777135339777238
40
0.855324815689425
40
0.882088585193544
40
0.909057217927397
40
0.9270273315596
40
0.945054321714209
40
0.967246413769247
40
1
40
1
40
1
40
1
41
1
10
-0.200000000000049
20
6.83438539664966
30
0
41
1
10
-0.19628855547743
20
6.70659076258015
30
0
41
1
10
-0.206710872223509
20
6.51939672024762
30
0
41
1
10
-0.235891573374867
20
6.29989326841263
30
0
41
1
10
-0.264954443748576
20
6.18942720275304
30
0
41
1
10
-0.289286076797238
20
6.13229386341347
30
0
41
1
10
-0.312333470522282
20
6.10132427523637
30
0
41
1
10
-0.328516525282539
20
6.08745968733143
30
0
41
1
10
-0.34576018447529
20
6.08083833453206
30
0
41
1
10
-0.362547690295123
20
6.08071787621869
30
0
41
1
10
-0.38172696305778
20
6.08831704427054
30
0
41
1
10
-0.39369162359809
20
6.09726577368612
30
0
41
1
10
-0.400000000000049
20
6.10423197315534
30
0
0
SPLINE
5
1DB
100
AcDbEntity
8
SK1
62
256
6
ByLayer
370
18
48
1
60
0
100
AcDbSpline
70
4
71
2
72
6
73
3
40
0
40
0
40
0
40
1
40
1
40
1
41
1
10
-2.51E-14
20
6.5376264469174
30
0
41
1
10
-0.0701685688190141
20
6.81436012170808
30
0
41
1
10
-0.200000000000397
20
7.0663565904932
30
0
0
SPLINE
5
1DC
100
AcDbEntity
8
SK1
62
256
6
ByLayer
370
18
48
1
60
0
100
AcDbSpline
70
4
71
2
72
6
73
3
40
0
40
0
40
0
40
1
40
1
40
1
41
1
10
-3
20
22.0000004375346
30
0
41
1
10
-19.7502365839533
20
21.5791761834949
30
0
41
1
10
-36.5004731679067
20
21.1583519294552
30
0
0
SPLINE
5
1DD
100
AcDbEntity
8
SK1
62
256
6
ByLayer
370
18
48
1
60
0
100
AcDbSpline
70
4
71
2
72
6
73
3
40
0
40
0
40
0
40
1
40
1
40
1
41
1
10
-36.5004731679067
20
-21.1583519212895
30
0
41
1
10
-19.7502365839533
20
-21.5791761751668
30
0
41
1
10
-3
20
-22.0000004290441
30
0
0
SPLINE
5
1DE
100
AcDbEntity
8
SK1
62
256
6
ByLayer
370
18
48
1
60
0
100
AcDbSpline
70
4
71
3
72
17
73
13
40
0
40
0
40
0
40
0
40
0.05802250217143
40
0.118348646683329
40
0.23904560972145
40
0.359733865206065
40
0.420057338372256
40
0.540737215820521
40
0.661413456711566
40
0.782087095625332
40
0.890936363871378
40
1
40
1
40
1
40
1
41
1
10
-2.1999369715594
20
22.0201008059928
30
0
41
1
10
-2.19994111039233
20
22.0199534703522
30
0
41
1
10
-2.19994895187911
20
22.0110355150373
30
0
41
1
10
-2.19996201027101
20
21.95673198262
30
0
41
1
10
-2.19997487537822
20
21.8226368730382
30
0
41
1
10
-2.1999836282154
20
21.6082265291292
30
0
41
1
10
-2.19999009564896
20
21.3379022147511
30
0
41
1
10
-2.19999459160162
20
21.0133951954851
30
0
41
1
10
-2.19999774021868
20
20.5423530489728
30
0
41
1
10
-2.19999929933425
20
20.0117273492259
30
0
41
1
10
-2.19999990715402
20
19.4326140671218
30
0
41
1
10
-2.20000002952678
20
19.02140556981
30
0
41
1
10
-2.2
20
18.8057993596818
30
0
0
SPLINE
5
1DF
100
AcDbEntity
8
SK1
62
256
6
ByLayer
370
18
48
1
60
0
100
AcDbSpline
70
4
71
1
72
4
73
2
40
0
40
0
40
1
40
1
41
1
10
-2.1949248885741
20
22.0202267269672
30
0
41
1
10
-2.20680206555644
20
22.0199283309345
30
0
0
SPLINE
5
1E0
100
AcDbEntity
8
SK1
62
256
6
ByLayer
370
18
48
1
60
0
100
AcDbSpline
70
4
71
2
72
6
73
3
40
0
40
0
40
0
40
1
40
1
40
1
41
1
10
-2.20680206555644
20
22.0199283309345
30
0
41
1
10
-2.60340103277822
20
22.0099643842345
30
0
41
1
10
-3
20
22.0000004375346
30
0
0
SPLINE
5
1E1
100
AcDbEntity
8
SK1
62
256
6
ByLayer
370
18
48
1
60
0
100
AcDbSpline
70
4
71
2
72
6
73
3
40
0
40
0
40
0
40
1
40
1
40
1
41
1
10
-3
20
-22.0000004290441
30
0
41
1
10
-2.59746244428705
20
-22.0101135737565
30
0
41
1
10
-2.1949248885741
20
-22.0202267184689
30
0
0
SPLINE
5
1E2
100
AcDbEntity
8
SK1
62
256
6
ByLayer
370
18
48
1
60
0
100
AcDbSpline
70
4
71
3
72
17
73
13
40
0
40
0
40
0
40
0
40
0.110687715864243
40
0.221598832441259
40
0.401505980701359
40
0.491413086613026
40
0.581321307758235
40
0.671230942573734
40
0.761142395498122
40
0.851056195500553
40
0.940973208109431
40
1
40
1
40
1
40
1
41
1
10
-2.2
20
-18.8057994981525
30
0
41
1
10
-2.20000003103069
20
-19.0246237171162
30
0
41
1
10
-2.19999990450804
20
-19.4425012451433
30
0
41
1
10
-2.19999916418251
20
-20.1274238366396
30
0
41
1
10
-2.19999717995272
20
-20.6829072947467
30
0
41
1
10
-2.19999322568005
20
-21.1192240035044
30
0
41
1
10
-2.19998888045221
20
-21.4003821399875
30
0
41
1
10
-2.1999827900086
20
-21.6334064688807
30
0
41
1
10
-2.19997446616065
20
-21.8158350479727
30
0
41
1
10
-2.1999635375559
20
-21.9447098349005
30
0
41
1
10
-2.19995101539095
20
-22.0085414008449
30
0
41
1
10
-2.19994116247006
20
-22.019913752436
30
0
41
1
10
-2.19993697064149
20
-22.020100797442
30
0
0
SPLINE
5
1E3
100
AcDbEntity
8
SK1
62
256
6
ByLayer
370
18
48
1
60
0
100
AcDbSpline
70
4
71
1
72
4
73
2
40
0
40
0
40
1
40
1
41
1
10
-2
20
21.8251282685034
30
0
41
1
10
-2
20
21.8251008008683
30
0
0
SPLINE
5
1E4
100
AcDbEntity
8
SK1
62
256
6
ByLayer
370
18
48
1
60
0
100
AcDbSpline
70
4
71
3
72
13
73
9
40
0
40
0
40
0
40
0
40
0.239458034039705
40
0.368362242523276
40
0.500001719408241
40
0.631640907399708
40
0.760544321541671
40
1
40
1
40
1
40
1
41
1
10
-2
20
21.8251283317571
30
0
41
1
10
-2.02607218220657
20
21.8253815759776
30
0
41
1
10
-2.06363558166034
20
21.832499461233
30
0
41
1
10
-2.11047835037541
20
21.8567272581279
30
0
41
1
10
-2.14242263587786
20
21.8827049843058
30
0
41
1
10
-2.16840067179329
20
21.9146489043199
30
0
41
1
10
-2.19262875645049
20
21.9614911190379
30
0
41
1
10
-2.19974671976325
20
21.9990541435572
30
0
41
1
10
-2.2
20
22.0251260837645
30
0
0
SPLINE
5
1E5
100
AcDbEntity
8
SK1
62
256
6
ByLayer
370
18
48
1
60
0
100
AcDbSpline
70
4
71
3
72
13
73
9
40
0
40
0
40
0
40
0
40
0.239455673358913
40
0.368359087136628
40
0.499998275767228
40
0.631637753936906
40
0.760541963956603
40
1
40
1
40
1
40
1
41
1
10
-2.2
20
-22.0251260775077
30
0
41
1
10
-2.19974671959666
20
-21.9990541369822
30
0
41
1
10
-2.19262875626099
20
-21.9614911120955
30
0
41
1
10
-2.16840067169747
20
-21.9146488976998
30
0
41
1
10
-2.14242263580763
20
-21.8827049776713
30
0
41
1
10
-2.11047835033027
20
-21.8567272514908
30
0
41
1
10
-2.06363558177699
20
-21.8324994546095
30
0
41
1
10
-2.02607218225584
20
-21.8253815693237
30
0
41
1
10
-2
20
-21.8251283250689
30
0
0
SPLINE
5
1E6
100
AcDbEntity
8
SK1
62
256
6
ByLayer
370
18
48
1
60
0
100
AcDbSpline
70
4
71
2
72
6
73
3
40
0
40
0
40
0
40
1
40
1
40
1
41
1
10
-2
20
-21.8251283250689
30
0
41
1
10
-1.20000000000001
20
-21.8251283250689
30
0
41
1
10
-0.400000000000019
20
-21.8251283250689
30
0
0
SPLINE
5
1E7
100
AcDbEntity
8
SK1
62
256
6
ByLayer
370
18
48
1
60
0
100
AcDbSpline
70
4
71
2
72
6
73
3
40
0
40
0
40
0
40
1
40
1
40
1
41
1
10
-0.400000000000019
20
21.8251283317571
30
0
41
1
10
-1.20000000000001
20
21.8251283317571
30
0
41
1
10
-2
20
21.8251283317571
30
0
0
SPLINE
5
1E8
100
AcDbEntity
8
SK1
62
256
6
ByLayer
370
18
48
1
60
0
100
AcDbSpline
70
4
71
3
72
17
73
13
40
0
40
0
40
0
40
0
40
0.16508119161326
40
0.248797061165655
40
0.332496679566273
40
0.4152778257439
40
0.498046968683712
40
0.583249585425342
40
0.668465384839874
40
0.750712143588914
40
0.8329741026578
40
1
40
1
40
1
40
1
41
1
10
-1.30710678118655
20
-4.69591747913022
30
0
41
1
10
-1.39798477932826
20
-4.20540076485722
30
0
41
1
10
-1.51864992901832
20
-3.45199087458013
30
0
41
1
10
-1.65120335434383
20
-2.41585133978331
30
0
41
1
10
-1.72812095010369
20
-1.62293542031028
30
0
41
1
10
-1.77718425553148
20
-0.82244658042709
30
0
41
1
10
-1.79522923957652
20
-0.0111379780860681
30
0
41
1
10
-1.77806664947628
20
0.808218120760719
30
0
41
1
10
-1.72842463498329
20
1.61975783719164
30
0
41
1
10
-1.65159875379371
20
2.41111733942194
30
0
41
1
10
-1.51984228358818
20
3.44452139763647
30
0
41
1
10
-1.39909887084114
20
4.19959953418671
30
0
41
1
10
-1.30710678118656
20
4.69591515673877
30
0
0
SPLINE
5
1E9
100
AcDbEntity
8
SK1
62
256
6
ByLayer
370
18
48
1
60
0
100
AcDbSpline
70
4
71
2
72
6
73
3
40
0
40
0
40
0
40
1
40
1
40
1
41
1
10
-36.5004321682704
20
21.1581061531923
30
0
41
1
10
-37.250216097561
20
20.6997323883077
30
0
41
1
10
-38
20
20.2413583528791
30
0
0
SPLINE
5
1EA
100
AcDbEntity
8
SK1
62
256
6
ByLayer
370
18
48
1
60
0
100
AcDbSpline
70
4
71
2
72
6
73
3
40
0
40
0
40
0
40
1
40
1
40
1
41
1
10
-38
20
-20.2397162883162
30
0
41
1
10
-37.2502068935606
20
-20.6982812567361
30
0
41
1
10
-36.500413873027
20
-21.1568446673342
30
0
0
SPLINE
5
1EB
100
AcDbEntity
8
SK1
62
256
6
ByLayer
370
18
48
1
60
0
100
AcDbSpline
70
4
71
3
72
16
73
12
40
0
40
0
40
0
40
0
40
0.364843755239059
40
0.438264665950732
40
0.502559692640952
40
0.561145902141926
40
0.590896276431408
40
0.622649211855402
40
0.697422389592585
40
0.795291806319464
40
1
40
1
40
1
40
1
41
1
10
-0.400000000000019
20
-21.8251283250689
30
0
41
1
10
-0.390604659320629
20
-21.8244677899363
30
0
41
1
10
-0.375777355945149
20
-21.8259169458727
30
0
41
1
10
-0.354943834900732
20
-21.8301137134804
30
0
41
1
10
-0.345440387493047
20
-21.8325381240732
30
0
41
1
10
-0.33713251305207
20
-21.8351212638499
30
0
41
1
10
-0.330841808626839
20
-21.8373542026795
30
0
41
1
10
-0.324198727790458
20
-21.8399060929045
30
0
41
1
10
-0.315890408366848
20
-21.8435145006078
30
0
41
1
10
-0.304746465369965
20
-21.8490940953945
30
0
41
1
10
-0.298006277518849
20
-21.8528581494286
30
0
41
1
10
-0.294864998971673
20
-21.8549890547624
30
0
0
SPLINE
5
1EC
100
AcDbEntity
8
SK1
62
256
6
ByLayer
370
18
48
1
60
0
100
AcDbSpline
70
4
71
3
72
11
73
7
40
0
40
0
40
0
40
0
40
0.0552291375986852
40
0.213689577879209
40
0.62289648225362
40
1
40
1
40
1
40
1
41
1
10
-0.294864998971673
20
-21.8549890547624
30
0
41
1
10
-0.290216631084812
20
-21.8579922290321
30
0
41
1
10
-0.273526490458734
20
-21.8691065112696
30
0
41
1
10
-0.247141487646985
20
-21.8930299449347
30
0
41
1
10
-0.224354955877282
20
-21.9214181070131
30
0
41
1
10
-0.212635390757692
20
-21.9394382286858
30
0
41
1
10
-0.209674875085744
20
-21.946515511193
30
0
0
SPLINE
5
1ED
100
AcDbEntity
8
SK1
62
256
6
ByLayer
370
18
48
1
60
0
100
AcDbSpline
70
4
71
1
72
4
73
2
40
0
40
0
40
1
40
1
41
1
10
-2.49E-14
20
-7.47795498707187
30
0
41
1
10
-0.2
20
-7.45410184860193
30
0
0
SPLINE
5
1EE
100
AcDbEntity
8
SK1
62
256
6
ByLayer
370
18
48
1
60
0
100
AcDbSpline
70
4
71
1
72
4
73
2
40
0
40
0
40
1
40
1
41
1
10
-0.20000000000006
20
-7.06635637915059
30
0
41
1
10
-0.20000000000006
20
-7.45410184860193
30
0
0
SPLINE
5
1EF
100
AcDbEntity
8
SK1
62
256
6
ByLayer
370
18
48
1
60
0
100
AcDbSpline
70
4
71
1
72
4
73
2
40
0
40
0
40
1
40
1
41
1
10
-0.20000000000006
20
7.45410255809306
30
0
41
1
10
-0.20000000000006
20
7.0663565904932
30
0
0
SPLINE
5
1F0
100
AcDbEntity
8
SK1
62
256
6
ByLayer
370
18
48
1
60
0
100
AcDbSpline
70
4
71
1
72
4
73
2
40
0
40
0
40
1
40
1
41
1
10
-0.2
20
7.45410255809307
30
0
41
1
10
-2.49E-14
20
7.47795571927755
30
0
0
SPLINE
5
1F1
100
AcDbEntity
8
SK1
62
256
6
ByLayer
370
18
48
1
60
0
100
AcDbSpline
70
4
71
3
72
21
73
17
40
0
40
0
40
0
40
0
40
0.266740665119987
40
0.542753416939974
40
0.704987784238359
40
0.74629707814721
40
0.758903451773585
40
0.763634932558101
40
0.767610447081392
40
0.771174217202593
40
0.774735301839292
40
0.778655368518861
40
0.783170941611888
40
0.808636104145139
40
0.892207370419742
40
1
40
1
40
1
40
1
41
1
10
-0.205098628252131
20
21.96568466303
30
0
41
1
10
-0.206603667099123
20
21.9618491696172
30
0
41
1
10
-0.213128118682543
20
21.9492549735724
30
0
41
1
10
-0.227068092150025
20
21.9237182270559
30
0
41
1
10
-0.245556112415683
20
21.8956337197253
30
0
41
1
10
-0.267822434158468
20
21.8729537743078
30
0
41
1
10
-0.279672291563413
20
21.8632984802186
30
0
41
1
10
-0.285884984066645
20
21.8587638747808
30
0
41
1
10
-0.290271368274123
20
21.8557616121883
30
0
41
1
10
-0.294839670826394
20
21.8528389024438
30
0
41
1
10
-0.299438538169341
20
21.8500967243401
30
0
41
1
10
-0.303963380400948
20
21.8475818371075
30
0
41
1
10
-0.315037133435245
20
21.8418614936857
30
0
41
1
10
-0.339272370101902
20
21.8323057882051
30
0
41
1
10
-0.366934076937226
20
21.8269525193025
30
0
41
1
10
-0.390048069436675
20
21.8242656569877
30
0
41
1
10
-0.400000000000019
20
21.8251283317571
30
0
0
INSERT
5
213
100
AcDbEntity
8
SK2
62
256
6
ByLayer
370
25
48
1
60
0
100
AcDbBlockReference
2
DimnDraft3D33
10
0
20
0
30
0
41
1
42
1
43
1
50
0
210
0
220
0
230
1
0
LINE
5
70
100
AcDbEntity
8
81
62
256
6
ByLayer
370
18
48
1
60
0
100
AcDbLine
10
120
20
0
30
0
11
132
21
0
31
0
39
0
210
0
220
0
230
1
0
LINE
5
71
100
AcDbEntity
8
4
62
256
6
ByLayer
370
18
48
0.05
60
0
100
AcDbLine
10
0
20
0
30
0
11
120
21
0
31
0
39
0
210
0
220
0
230
1
0
LINE
5
73
100
AcDbEntity
8
SK4
62
256
6
ByLayer
370
18
48
0.05
60
0
100
AcDbLine
10
-43
20
0
30
0
11
125
21
0
31
0
39
0
210
0
220
0
230
1
0
LINE
5
75
100
AcDbEntity
8
80
62
256
6
ByLayer
370
18
48
1
60
0
100
AcDbLine
10
0
20
0
30
0
11
-12
21
0
31
0
39
0
210
0
220
0
230
1
0
LINE
5
76
100
AcDbEntity
8
SK1
62
256
6
ByLayer
370
18
48
1
60
0
100
AcDbLine
10
130.325
20
14.899495
30
0
11
124.325
21
14.899495
31
0
39
0
210
0
220
0
230
1
0
LINE
5
78
100
AcDbEntity
8
SK1
62
256
6
ByLayer
370
18
48
1
60
0
100
AcDbLine
10
124.325
20
4.899495
30
0
11
130.325
21
4.899495
31
0
39
0
210
0
220
0
230
1
0
LINE
5
79
100
AcDbEntity
8
SK1
62
256
6
ByLayer
370
18
48
1
60
0
100
AcDbLine
10
124.325
20
12.899495
30
0
11
120.325
21
12.899495
31
0
39
0
210
0
220
0
230
1
0
LINE
5
7A
100
AcDbEntity
8
SK1
62
256
6
ByLayer
370
18
48
1
60
0
100
AcDbLine
10
120.325
20
6.899495
30
0
11
124.325
21
6.899495
31
0
39
0
210
0
220
0
230
1
0
LINE
5
7B
100
AcDbEntity
8
1
62
256
6
ByLayer
370
18
48
1
60
0
100
AcDbLine
10
119.325
20
-20
30
0
11
119.556678
21
-19.768322
31
0
39
0
210
0
220
0
230
1
0
LINE
5
7D
100
AcDbEntity
8
1
62
256
6
ByLayer
370
18
48
1
60
0
100
AcDbLine
10
119.556678
20
19.768322
30
0
11
119.325
21
20
31
0
39
0
210
0
220
0
230
1
0
LINE
5
7E
100
AcDbEntity
8
1
62
256
6
ByLayer
370
18
48
1
60
0
100
AcDbLine
10
119.325
20
20
30
0
11
118.3
21
20
31
0
39
0
210
0
220
0
230
1
0
LINE
5
7F
100
AcDbEntity
8
1
62
256
6
ByLayer
370
18
48
1
60
0
100
AcDbLine
10
118.3
20
-20
30
0
11
119.325
21
-20
31
0
39
0
210
0
220
0
230
1
0
LINE
5
80
100
AcDbEntity
8
1
62
256
6
ByLayer
370
18
48
1
60
0
100
AcDbLine
10
119.65725
20
3.66688
30
0
11
119.65725
21
-3.66688
31
0
39
0
210
0
220
0
230
1
0
LINE
5
81
100
AcDbEntity
8
1
62
256
6
ByLayer
370
18
48
1
60
0
100
AcDbLine
10
120.325
20
1.541407
30
0
11
120.325
21
-1.541407
31
0
39
0
210
0
220
0
230
1
0
LINE
5
82
100
AcDbEntity
8
1
62
256
6
ByLayer
370
18
48
1
60
0
100
AcDbLine
10
119.65725
20
8.316532
30
0
11
119.65725
21
7.510882
31
0
39
0
210
0
220
0
230
1
0
LINE
5
83
100
AcDbEntity
8
1
62
256
6
ByLayer
370
18
48
1
60
0
100
AcDbLine
10
119.65725
20
-7.510882
30
0
11
119.65725
21
-8.316532
31
0
39
0
210
0
220
0
230
1
0
LINE
5
84
100
AcDbEntity
8
1
62
256
6
ByLayer
370
18
48
1
60
0
100
AcDbLine
10
120.325
20
7.545731
30
0
11
120.325
21
4.053252
31
0
39
0
210
0
220
0
230
1
0
LINE
5
85
100
AcDbEntity
8
1
62
256
6
ByLayer
370
18
48
1
60
0
100
AcDbLine
10
120.325
20
-4.053252
30
0
11
120.325
21
-7.545731
31
0
39
0
210
0
220
0
230
1
0
LINE
5
86
100
AcDbEntity
8
1
62
256
6
ByLayer
370
18
48
1
60
0
100
AcDbLine
10
119.65725
20
10.971937
30
0
11
119.65725
21
10.425673
31
0
39
0
210
0
220
0
230
1
0
LINE
5
87
100
AcDbEntity
8
1
62
256
6
ByLayer
370
18
48
1
60
0
100
AcDbLine
10
119.65725
20
-10.425673
30
0
11
119.65725
21
-10.971937
31
0
39
0
210
0
220
0
230
1
0
LINE
5
88
100
AcDbEntity
8
1
62
256
6
ByLayer
370
18
48
1
60
0
100
AcDbLine
10
120.325
20
10.344089
30
0
11
120.325
21
8.358632
31
0
39
0
210
0
220
0
230
1
0
LINE
5
89
100
AcDbEntity
8
1
62
256
6
ByLayer
370
18
48
1
60
0
100
AcDbLine
10
120.325
20
-8.358632
30
0
11
120.325
21
-10.344089
31
0
39
0
210
0
220
0
230
1
0
LINE
5
8A
100
AcDbEntity
8
1
62
256
6
ByLayer
370
18
48
1
60
0
100
AcDbLine
10
119.65725
20
12.926797
30
0
11
119.65725
21
12.509035
31
0
39
0
210
0
220
0
230
1
0
LINE
5
8B
100
AcDbEntity
8
1
62
256
6
ByLayer
370
18
48
1
60
0
100
AcDbLine
10
119.65725
20
-12.509035
30
0
11
119.65725
21
-12.926797
31
0
39
0
210
0
220
0
230
1
0
LINE
5
8C
100
AcDbEntity
8
1
62
256
6
ByLayer
370
18
48
1
60
0
100
AcDbLine
10
120.325
20
12.351611
30
0
11
120.325
21
10.899753
31
0
39
0
210
0
220
0
230
1
0
LINE
5
8D
100
AcDbEntity
8
1
62
256
6
ByLayer
370
18
48
1
60
0
100
AcDbLine
10
120.325
20
-10.899753
30
0
11
120.325
21
-12.351611
31
0
39
0
210
0
220
0
230
1
0
LINE
5
8E
100
AcDbEntity
8
1
62
256
6
ByLayer
370
18
48
1
60
0
100
AcDbLine
10
119.65725
20
14.467923
30
0
11
119.65725
21
14.133551
31
0
39
0
210
0
220
0
230
1
0
LINE
5
8F
100
AcDbEntity
8
1
62
256
6
ByLayer
370
18
48
1
60
0
100
AcDbLine
10
119.65725
20
-14.133551
30
0
11
119.65725
21
-14.467923
31
0
39
0
210
0
220
0
230
1
0
LINE
5
90
100
AcDbEntity
8
1
62
256
6
ByLayer
370
18
48
1
60
0
100
AcDbLine
10
120.325
20
-12.776639
30
0
11
120.325
21
-13.914899
31
0
39
0
210
0
220
0
230
1
0
LINE
5
91
100
AcDbEntity
8
1
62
256
6
ByLayer
370
18
48
1
60
0
100
AcDbLine
10
120.325
20
13.914899
30
0
11
120.325
21
12.776639
31
0
39
0
210
0
220
0
230
1
0
LINE
5
92
100
AcDbEntity
8
1
62
256
6
ByLayer
370
18
48
1
60
0
100
AcDbLine
10
119.65725
20
15.71749
30
0
11
119.65725
21
15.444694
31
0
39
0
210
0
220
0
230
1
0
LINE
5
93
100
AcDbEntity
8
1
62
256
6
ByLayer
370
18
48
1
60
0
100
AcDbLine
10
119.65725
20
-15.444694
30
0
11
119.65725
21
-15.71749
31
0
39
0
210
0
220
0
230
1
0
LINE
5
94
100
AcDbEntity
8
1
62
256
6
ByLayer
370
18
48
1
60
0
100
AcDbLine
10
120.325
20
-14.254136
30
0
11
120.325
21
-15.171899
31
0
39
0
210
0
220
0
230
1
0
LINE
5
95
100
AcDbEntity
8
1
62
256
6
ByLayer
370
18
48
1
60
0
100
AcDbLine
10
120.325
20
15.171899
30
0
11
120.325
21
14.254136
31
0
39
0
210
0
220
0
230
1
0
LINE
5
96
100
AcDbEntity
8
1
62
256
6
ByLayer
370
18
48
1
60
0
100
AcDbLine
10
119.65725
20
16.740913
30
0
11
119.65725
21
16.51726
31
0
39
0
210
0
220
0
230
1
0
LINE
5
97
100
AcDbEntity
8
1
62
256
6
ByLayer
370
18
48
1
60
0
100
AcDbLine
10
119.65725
20
-16.51726
30
0
11
119.65725
21
-16.740913
31
0
39
0
210
0
220
0
230
1
0
LINE
5
98
100
AcDbEntity
8
1
62
256
6
ByLayer
370
18
48
1
60
0
100
AcDbLine
10
120.325
20
16.194093
30
0
11
120.325
21
15.447274
31
0
39
0
210
0
220
0
230
1
0
LINE
5
99
100
AcDbEntity
8
1
62
256
6
ByLayer
370
18
48
1
60
0
100
AcDbLine
10
120.325
20
-15.447274
30
0
11
120.325
21
-16.194093
31
0
39
0
210
0
220
0
230
1
0
LINE
5
9A
100
AcDbEntity
8
1
62
256
6
ByLayer
370
18
48
1
60
0
100
AcDbLine
10
119.65725
20
17.577738
30
0
11
119.65725
21
17.395436
31
0
39
0
210
0
220
0
230
1
0
LINE
5
9B
100
AcDbEntity
8
1
62
256
6
ByLayer
370
18
48
1
60
0
100
AcDbLine
10
119.65725
20
-17.395436
30
0
11
119.65725
21
-17.577738
31
0
39
0
210
0
220
0
230
1
0
LINE
5
9C
100
AcDbEntity
8
1
62
256
6
ByLayer
370
18
48
1
60
0
100
AcDbLine
10
120.325
20
17.023829
30
0
11
120.325
21
16.418165
31
0
39
0
210
0
220
0
230
1
0
LINE
5
9D
100
AcDbEntity
8
1
62
256
6
ByLayer
370
18
48
1
60
0
100
AcDbLine
10
120.325
20
-16.418165
30
0
11
120.325
21
-17.023829
31
0
39
0
210
0
220
0
230
1
0
LINE
5
9E
100
AcDbEntity
8
1
62
256
6
ByLayer
370
18
48
1
60
0
100
AcDbLine
10
119.65725
20
18.253645
30
0
11
119.65725
21
18.107526
31
0
39
0
210
0
220
0
230
1
0
LINE
5
9F
100
AcDbEntity
8
1
62
256
6
ByLayer
370
18
48
1
60
0
100
AcDbLine
10
119.65725
20
-18.107526
30
0
11
119.65725
21
-18.253645
31
0
39
0
210
0
220
0
230
1
0
LINE
5
A0
100
AcDbEntity
8
1
62
256
6
ByLayer
370
18
48
1
60
0
100
AcDbLine
10
120.325
20
17.688213
30
0
11
120.325
21
17.204477
31
0
39
0
210
0
220
0
230
1
0
LINE
5
A1
100
AcDbEntity
8
1
62
256
6
ByLayer
370
18
48
1
60
0
100
AcDbLine
10
120.325
20
-17.204477
30
0
11
120.325
21
-17.688213
31
0
39
0
210
0
220
0
230
1
0
LINE
5
A2
100
AcDbEntity
8
1
62
256
6
ByLayer
370
18
48
1
60
0
100
AcDbLine
10
119.65725
20
18.786012
30
0
11
119.65725
21
18.672541
31
0
39
0
210
0
220
0
230
1
0
LINE
5
A3
100
AcDbEntity
8
1
62
256
6
ByLayer
370
18
48
1
60
0
100
AcDbLine
10
119.65725
20
-18.672541
30
0
11
119.65725
21
-18.786012
31
0
39
0
210
0
220
0
230
1
0
LINE
5
A4
100
AcDbEntity
8
1
62
256
6
ByLayer
370
18
48
1
60
0
100
AcDbLine
10
120.325
20
18.205356
30
0
11
120.325
21
17.830645
31
0
39
0
210
0
220
0
230
1
0
LINE
5
A5
100
AcDbEntity
8
1
62
256
6
ByLayer
370
18
48
1
60
0
100
AcDbLine
10
120.325
20
-17.830645
30
0
11
120.325
21
-18.205356
31
0
39
0
210
0
220
0
230
1
0
LINE
5
A6
100
AcDbEntity
8
1
62
256
6
ByLayer
370
18
48
1
60
0
100
AcDbLine
10
119.65725
20
19.186791
30
0
11
119.65725
21
19.103536
31
0
39
0
210
0
220
0
230
1
0
LINE
5
A7
100
AcDbEntity
8
1
62
256
6
ByLayer
370
18
48
1
60
0
100
AcDbLine
10
119.65725
20
-19.103536
30
0
11
119.65725
21
-19.186791
31
0
39
0
210
0
220
0
230
1
0
LINE
5
A8
100
AcDbEntity
8
1
62
256
6
ByLayer
370
18
48
1
60
0
100
AcDbLine
10
120.325
20
-18.313105
30
0
11
120.325
21
-18.587552
31
0
39
0
210
0
220
0
230
1
0
LINE
5
A9
100
AcDbEntity
8
1
62
256
6
ByLayer
370
18
48
1
60
0
100
AcDbLine
10
120.325
20
18.587552
30
0
11
120.325
21
18.313105
31
0
39
0
210
0
220
0
230
1
0
LINE
5
AA
100
AcDbEntity
8
1
62
256
6
ByLayer
370
18
48
1
60
0
100
AcDbLine
10
119.65725
20
-19.409441
30
0
11
119.65725
21
-19.464112
31
0
39
0
210
0
220
0
230
1
0
LINE
5
AB
100
AcDbEntity
8
1
62
256
6
ByLayer
370
18
48
1
60
0
100
AcDbLine
10
119.65725
20
19.464112
30
0
11
119.65725
21
19.409441
31
0
39
0
210
0
220
0
230
1
0
LINE
5
AC
100
AcDbEntity
8
1
62
256
6
ByLayer
370
18
48
1
60
0
100
AcDbLine
10
120.325
20
18.843015
30
0
11
120.325
21
18.663003
31
0
39
0
210
0
220
0
230
1
0
LINE
5
AD
100
AcDbEntity
8
1
62
256
6
ByLayer
370
18
48
1
60
0
100
AcDbLine
10
120.325
20
-18.663003
30
0
11
120.325
21
-18.843015
31
0
39
0
210
0
220
0
230
1
0
LINE
5
AE
100
AcDbEntity
8
1
62
256
6
ByLayer
370
18
48
1
60
0
100
AcDbLine
10
119.65725
20
-19.596115
30
0
11
119.65725
21
-19.623209
31
0
39
0
210
0
220
0
230
1
0
LINE
5
AF
100
AcDbEntity
8
1
62
256
6
ByLayer
370
18
48
1
60
0
100
AcDbLine
10
119.65725
20
19.623209
30
0
11
119.65725
21
19.596115
31
0
39
0
210
0
220
0
230
1
0
LINE
5
B0
100
AcDbEntity
8
1
62
256
6
ByLayer
370
18
48
1
60
0
100
AcDbLine
10
120.325
20
-18.887709
30
0
11
120.325
21
-18.976863
31
0
39
0
210
0
220
0
230
1
0
LINE
5
B1
100
AcDbEntity
8
1
62
256
6
ByLayer
370
18
48
1
60
0
100
AcDbLine
10
120.325
20
18.976863
30
0
11
120.325
21
18.887709
31
0
39
0
210
0
220
0
230
1
0
LINE
5
B2
100
AcDbEntity
8
1
62
256
6
ByLayer
370
18
48
1
60
0
100
AcDbLine
10
22
20
-31.5
30
0
11
23.691224
21
-25.188267
31
0
39
0
210
0
220
0
230
1
0
LINE
5
B3
100
AcDbEntity
8
1
62
256
6
ByLayer
370
18
48
1
60
0
100
AcDbLine
10
23.691224
20
25.188267
30
0
11
22
21
31.5
31
0
39
0
210
0
220
0
230
1
0
LINE
5
B4
100
AcDbEntity
8
1
62
256
6
ByLayer
370
18
48
1
60
0
100
AcDbLine
10
22
20
31.5
30
0
11
0.3
21
31.5
31
0
39
0
210
0
220
0
230
1
0
LINE
5
B5
100
AcDbEntity
8
1
62
256
6
ByLayer
370
18
48
1
60
0
100
AcDbLine
10
0.3
20
-31.5
30
0
11
22
21
-31.5
31
0
39
0
210
0
220
0
230
1
0
LINE
5
B6
100
AcDbEntity
8
1
62
256
6
ByLayer
370
18
48
1
60
0
100
AcDbLine
10
10.538675
20
30.080593
30
0
11
13.461325
21
30.080593
31
0
39
0
210
0
220
0
230
1
0
LINE
5
B7
100
AcDbEntity
8
1
62
256
6
ByLayer
370
18
48
1
60
0
100
AcDbLine
10
13.461325
20
9.349221
30
0
11
10.538675
21
9.349221
31
0
39
0
210
0
220
0
230
1
0
LINE
5
B8
100
AcDbEntity
8
1
62
256
6
ByLayer
370
18
48
1
60
0
100
AcDbLine
10
10.538675
20
-9.349221
30
0
11
13.461325
21
-9.349221
31
0
39
0
210
0
220
0
230
1
0
LINE
5
B9
100
AcDbEntity
8
1
62
256
6
ByLayer
370
18
48
1
60
0
100
AcDbLine
10
13.461325
20
-30.080593
30
0
11
10.538675
21
-30.080593
31
0
39
0
210
0
220
0
230
1
0
LINE
5
BA
100
AcDbEntity
8
1
62
256
6
ByLayer
370
18
48
1
60
0
100
AcDbLine
10
0.3
20
31.5
30
0
11
0
21
31.2
31
0
39
0
210
0
220
0
230
1
0
LINE
5
BB
100
AcDbEntity
8
1
62
256
6
ByLayer
370
18
48
1
60
0
100
AcDbLine
10
0
20
-31.2
30
0
11
0.3
21
-31.5
31
0
39
0
210
0
220
0
230
1
0
LINE
5
BC
100
AcDbEntity
8
1
62
256
6
ByLayer
370
18
48
1
60
0
100
AcDbLine
10
13.461325
20
9.349221
30
0
11
13.461325
21
30.080593
31
0
39
0
210
0
220
0
230
1
0
LINE
5
BD
100
AcDbEntity
8
1
62
256
6
ByLayer
370
18
48
1
60
0
100
AcDbLine
10
13.894338
20
9.869413
30
0
11
13.894338
21
29.913955
31
0
39
0
210
0
220
0
230
1
0
LINE
5
BE
100
AcDbEntity
8
1
62
256
6
ByLayer
370
18
48
1
60
0
100
AcDbLine
10
10.105662
20
-29.913955
30
0
11
10.105662
21
-9.869413
31
0
39
0
210
0
220
0
230
1
0
LINE
5
BF
100
AcDbEntity
8
1
62
256
6
ByLayer
370
18
48
1
60
0
100
AcDbLine
10
10.538675
20
-30.080593
30
0
11
10.538675
21
-9.349221
31
0
39
0
210
0
220
0
230
1
0
LINE
5
C0
100
AcDbEntity
8
1
62
256
6
ByLayer
370
18
48
1
60
0
100
AcDbLine
10
10.105662
20
9.869413
30
0
11
10.105662
21
29.913955
31
0
39
0
210
0
220
0
230
1
0
LINE
5
C1
100
AcDbEntity
8
1
62
256
6
ByLayer
370
18
48
1
60
0
100
AcDbLine
10
10.538675
20
9.349221
30
0
11
10.538675
21
30.080593
31
0
39
0
210
0
220
0
230
1
0
LINE
5
C2
100
AcDbEntity
8
1
62
256
6
ByLayer
370
18
48
1
60
0
100
AcDbLine
10
13.461325
20
-30.080593
30
0
11
13.461325
21
-9.349221
31
0
39
0
210
0
220
0
230
1
0
LINE
5
C3
100
AcDbEntity
8
1
62
256
6
ByLayer
370
18
48
1
60
0
100
AcDbLine
10
13.894338
20
-29.913955
30
0
11
13.894338
21
-9.869413
31
0
39
0
210
0
220
0
230
1
0
LINE
5
C4
100
AcDbEntity
8
SK1
62
256
6
ByLayer
370
18
48
1
60
0
100
AcDbLine
10
-0.2
20
-22.45
30
0
11
0
21
-22.45
31
0
39
0
210
0
220
0
230
1
0
LINE
5
C5
100
AcDbEntity
8
1
62
256
6
ByLayer
370
18
48
1
60
0
100
AcDbLine
10
0
20
22.45
30
0
11
-0.2
21
22.45
31
0
39
0
210
0
220
0
230
1
0
LINE
5
C6
100
AcDbEntity
8
1
62
256
6
ByLayer
370
18
48
1
60
0
100
AcDbLine
10
117.7
20
20
30
0
11
30.452705
21
20
31
0
39
0
210
0
220
0
230
1
0
LINE
5
C7
100
AcDbEntity
8
1
62
256
6
ByLayer
370
18
48
1
60
0
100
AcDbLine
10
30.452705
20
-20
30
0
11
117.7
21
-20
31
0
39
0
210
0
220
0
230
1
0
LINE
5
C8
100
AcDbEntity
8
1
62
256
6
ByLayer
370
18
48
1
60
0
100
AcDbLine
10
0.3
20
31.5
30
0
11
0
21
31.2
31
0
39
0
210
0
220
0
230
1
0
LINE
5
C9
100
AcDbEntity
8
1
62
256
6
ByLayer
370
18
48
1
60
0
100
AcDbLine
10
0
20
-31.2
30
0
11
0.3
21
-31.5
31
0
39
0
210
0
220
0
230
1
0
LINE
5
CA
100
AcDbEntity
8
1
62
256
6
ByLayer
370
18
48
1
60
0
100
AcDbLine
10
22
20
31.5
30
0
11
0.3
21
31.5
31
0
39
0
210
0
220
0
230
1
0
LINE
5
CB
100
AcDbEntity
8
1
62
256
6
ByLayer
370
18
48
1
60
0
100
AcDbLine
10
0.3
20
-31.5
30
0
11
22
21
-31.5
31
0
39
0
210
0
220
0
230
1
0
LINE
5
CC
100
AcDbEntity
8
1
62
256
6
ByLayer
370
18
48
1
60
0
100
AcDbLine
10
10.538675
20
30.080593
30
0
11
13.461325
21
30.080593
31
0
39
0
210
0
220
0
230
1
0
LINE
5
CD
100
AcDbEntity
8
1
62
256
6
ByLayer
370
18
48
1
60
0
100
AcDbLine
10
13.461325
20
9.349221
30
0
11
10.538675
21
9.349221
31
0
39
0
210
0
220
0
230
1
0
LINE
5
CE
100
AcDbEntity
8
1
62
256
6
ByLayer
370
18
48
1
60
0
100
AcDbLine
10
10.538675
20
-9.349221
30
0
11
13.461325
21
-9.349221
31
0
39
0
210
0
220
0
230
1
0
LINE
5
CF
100
AcDbEntity
8
1
62
256
6
ByLayer
370
18
48
1
60
0
100
AcDbLine
10
13.461325
20
-30.080593
30
0
11
10.538675
21
-30.080593
31
0
39
0
210
0
220
0
230
1
0
LINE
5
D0
100
AcDbEntity
8
1
62
256
6
ByLayer
370
18
48
1
60
0
100
AcDbLine
10
13.461325
20
9.349221
30
0
11
13.461325
21
30.080593
31
0
39
0
210
0
220
0
230
1
0
LINE
5
D1
100
AcDbEntity
8
1
62
256
6
ByLayer
370
18
48
1
60
0
100
AcDbLine
10
13.894338
20
9.869413
30
0
11
13.894338
21
29.913955
31
0
39
0
210
0
220
0
230
1
0
LINE
5
D2
100
AcDbEntity
8
1
62
256
6
ByLayer
370
18
48
1
60
0
100
AcDbLine
10
10.105662
20
-29.913955
30
0
11
10.105662
21
-9.869413
31
0
39
0
210
0
220
0
230
1
0
LINE
5
D3
100
AcDbEntity
8
1
62
256
6
ByLayer
370
18
48
1
60
0
100
AcDbLine
10
10.538675
20
-30.080593
30
0
11
10.538675
21
-9.349221
31
0
39
0
210
0
220
0
230
1
0
LINE
5
D4
100
AcDbEntity
8
1
62
256
6
ByLayer
370
18
48
1
60
0
100
AcDbLine
10
10.105662
20
9.869413
30
0
11
10.105662
21
29.913955
31
0
39
0
210
0
220
0
230
1
0
LINE
5
D5
100
AcDbEntity
8
1
62
256
6
ByLayer
370
18
48
1
60
0
100
AcDbLine
10
10.538675
20
9.349221
30
0
11
10.538675
21
30.080593
31
0
39
0
210
0
220
0
230
1
0
LINE
5
D6
100
AcDbEntity
8
1
62
256
6
ByLayer
370
18
48
1
60
0
100
AcDbLine
10
13.461325
20
-30.080593
30
0
11
13.461325
21
-9.349221
31
0
39
0
210
0
220
0
230
1
0
LINE
5
D7
100
AcDbEntity
8
1
62
256
6
ByLayer
370
18
48
1
60
0
100
AcDbLine
10
13.894338
20
-29.913955
30
0
11
13.894338
21
-9.869413
31
0
39
0
210
0
220
0
230
1
0
LINE
5
D8
100
AcDbEntity
8
SK1
62
256
6
ByLayer
370
18
48
1
60
0
100
AcDbLine
10
-0.2
20
-22.45
30
0
11
0
21
-22.45
31
0
39
0
210
0
220
0
230
1
0
LINE
5
D9
100
AcDbEntity
8
1
62
256
6
ByLayer
370
18
48
1
60
0
100
AcDbLine
10
0
20
22.45
30
0
11
-0.2
21
22.45
31
0
39
0
210
0
220
0
230
1
0
LINE
5
DA
100
AcDbEntity
8
SK1
62
256
6
ByLayer
370
18
48
1
60
0
100
AcDbLine
10
130.325
20
-4.899495
30
0
11
124.325
21
-4.899495
31
0
39
0
210
0
220
0
230
1
0
LINE
5
DB
100
AcDbEntity
8
SK1
62
256
6
ByLayer
370
18
48
1
60
0
100
AcDbLine
10
124.325
20
-14.899495
30
0
11
130.325
21
-14.899495
31
0
39
0
210
0
220
0
230
1
0
LINE
5
DC
100
AcDbEntity
8
SK1
62
256
6
ByLayer
370
18
48
1
60
0
100
AcDbLine
10
124.325
20
-6.899495
30
0
11
120.325
21
-6.899495
31
0
39
0
210
0
220
0
230
1
0
LINE
5
DD
100
AcDbEntity
8
SK1
62
256
6
ByLayer
370
18
48
1
60
0
100
AcDbLine
10
120.325
20
-12.899495
30
0
11
124.325
21
-12.899495
31
0
39
0
210
0
220
0
230
1
0
LINE
5
DE
100
AcDbEntity
8
SK1
62
256
6
ByLayer
370
18
48
1
60
0
100
AcDbLine
10
130.325
20
14.899495
30
0
11
130.325
21
9.899495
31
0
39
0
210
0
220
0
230
1
0
LINE
5
DF
100
AcDbEntity
8
SK1
62
256
6
ByLayer
370
18
48
1
60
0
100
AcDbLine
10
124.325
20
14.899495
30
0
11
124.325
21
9.899495
31
0
39
0
210
0
220
0
230
1
0
LINE
5
E0
100
AcDbEntity
8
SK1
62
256
6
ByLayer
370
18
48
1
60
0
100
AcDbLine
10
130.325
20
9.899495
30
0
11
130.325
21
4.899495
31
0
39
0
210
0
220
0
230
1
0
LINE
5
E1
100
AcDbEntity
8
SK1
62
256
6
ByLayer
370
18
48
1
60
0
100
AcDbLine
10
124.325
20
9.899495
30
0
11
124.325
21
4.899495
31
0
39
0
210
0
220
0
230
1
0
LINE
5
E2
100
AcDbEntity
8
1
62
256
6
ByLayer
370
18
48
1
60
0
100
AcDbLine
10
119.325
20
20
30
0
11
119.325
21
-20
31
0
39
0
210
0
220
0
230
1
0
LINE
5
E3
100
AcDbEntity
8
1
62
256
6
ByLayer
370
18
48
1
60
0
100
AcDbLine
10
120.325
20
18.991668
30
0
11
120.325
21
18.976863
31
0
39
0
210
0
220
0
230
1
0
LINE
5
E4
100
AcDbEntity
8
1
62
256
6
ByLayer
370
18
48
1
60
0
100
AcDbLine
10
120.325
20
18.887709
30
0
11
120.325
21
18.843015
31
0
39
0
210
0
220
0
230
1
0
LINE
5
E5
100
AcDbEntity
8
1
62
256
6
ByLayer
370
18
48
1
60
0
100
AcDbLine
10
120.325
20
18.663003
30
0
11
120.325
21
18.587552
31
0
39
0
210
0
220
0
230
1
0
LINE
5
E6
100
AcDbEntity
8
1
62
256
6
ByLayer
370
18
48
1
60
0
100
AcDbLine
10
120.325
20
18.313105
30
0
11
120.325
21
18.205356
31
0
39
0
210
0
220
0
230
1
0
LINE
5
E7
100
AcDbEntity
8
1
62
256
6
ByLayer
370
18
48
1
60
0
100
AcDbLine
10
120.325
20
17.830645
30
0
11
120.325
21
17.688213
31
0
39
0
210
0
220
0
230
1
0
LINE
5
E8
100
AcDbEntity
8
1
62
256
6
ByLayer
370
18
48
1
60
0
100
AcDbLine
10
120.325
20
17.204477
30
0
11
120.325
21
17.023829
31
0
39
0
210
0
220
0
230
1
0
LINE
5
E9
100
AcDbEntity
8
1
62
256
6
ByLayer
370
18
48
1
60
0
100
AcDbLine
10
120.325
20
16.418165
30
0
11
120.325
21
16.194093
31
0
39
0
210
0
220
0
230
1
0
LINE
5
EA
100
AcDbEntity
8
1
62
256
6
ByLayer
370
18
48
1
60
0
100
AcDbLine
10
120.325
20
15.447274
30
0
11
120.325
21
15.171899
31
0
39
0
210
0
220
0
230
1
0
LINE
5
EB
100
AcDbEntity
8
1
62
256
6
ByLayer
370
18
48
1
60
0
100
AcDbLine
10
120.325
20
14.254136
30
0
11
120.325
21
13.914899
31
0
39
0
210
0
220
0
230
1
0
LINE
5
EC
100
AcDbEntity
8
1
62
256
6
ByLayer
370
18
48
1
60
0
100
AcDbLine
10
120.325
20
12.776639
30
0
11
120.325
21
12.351611
31
0
39
0
210
0
220
0
230
1
0
LINE
5
ED
100
AcDbEntity
8
1
62
256
6
ByLayer
370
18
48
1
60
0
100
AcDbLine
10
120.325
20
10.899753
30
0
11
120.325
21
10.344089
31
0
39
0
210
0
220
0
230
1
0
LINE
5
EE
100
AcDbEntity
8
1
62
256
6
ByLayer
370
18
48
1
60
0
100
AcDbLine
10
120.325
20
8.358632
30
0
11
120.325
21
7.545731
31
0
39
0
210
0
220
0
230
1
0
LINE
5
EF
100
AcDbEntity
8
1
62
256
6
ByLayer
370
18
48
1
60
0
100
AcDbLine
10
120.325
20
4.053252
30
0
11
120.325
21
1.541407
31
0
39
0
210
0
220
0
230
1
0
LINE
5
F0
100
AcDbEntity
8
1
62
256
6
ByLayer
370
18
48
1
60
0
100
AcDbLine
10
120.325
20
-1.541407
30
0
11
120.325
21
-4.053252
31
0
39
0
210
0
220
0
230
1
0
LINE
5
F1
100
AcDbEntity
8
1
62
256
6
ByLayer
370
18
48
1
60
0
100
AcDbLine
10
120.325
20
-7.545731
30
0
11
120.325
21
-8.358632
31
0
39
0
210
0
220
0
230
1
0
LINE
5
F2
100
AcDbEntity
8
1
62
256
6
ByLayer
370
18
48
1
60
0
100
AcDbLine
10
120.325
20
-10.344089
30
0
11
120.325
21
-10.899753
31
0
39
0
210
0
220
0
230
1
0
LINE
5
F3
100
AcDbEntity
8
1
62
256
6
ByLayer
370
18
48
1
60
0
100
AcDbLine
10
120.325
20
-12.351611
30
0
11
120.325
21
-12.776639
31
0
39
0
210
0
220
0
230
1
0
LINE
5
F4
100
AcDbEntity
8
1
62
256
6
ByLayer
370
18
48
1
60
0
100
AcDbLine
10
120.325
20
-13.914899
30
0
11
120.325
21
-14.254136
31
0
39
0
210
0
220
0
230
1
0
LINE
5
F5
100
AcDbEntity
8
1
62
256
6
ByLayer
370
18
48
1
60
0
100
AcDbLine
10
120.325
20
-15.171899
30
0
11
120.325
21
-15.447274
31
0
39
0
210
0
220
0
230
1
0
LINE
5
F6
100
AcDbEntity
8
1
62
256
6
ByLayer
370
18
48
1
60
0
100
AcDbLine
10
120.325
20
-16.194093
30
0
11
120.325
21
-16.418165
31
0
39
0
210
0
220
0
230
1
0
LINE
5
F7
100
AcDbEntity
8
1
62
256
6
ByLayer
370
18
48
1
60
0
100
AcDbLine
10
120.325
20
-17.023829
30
0
11
120.325
21
-17.204477
31
0
39
0
210
0
220
0
230
1
0
LINE
5
F8
100
AcDbEntity
8
1
62
256
6
ByLayer
370
18
48
1
60
0
100
AcDbLine
10
120.325
20
-17.688213
30
0
11
120.325
21
-17.830645
31
0
39
0
210
0
220
0
230
1
0
LINE
5
F9
100
AcDbEntity
8
1
62
256
6
ByLayer
370
18
48
1
60
0
100
AcDbLine
10
120.325
20
-18.205356
30
0
11
120.325
21
-18.313105
31
0
39
0
210
0
220
0
230
1
0
LINE
5
FA
100
AcDbEntity
8
1
62
256
6
ByLayer
370
18
48
1
60
0
100
AcDbLine
10
120.325
20
-18.587552
30
0
11
120.325
21
-18.663003
31
0
39
0
210
0
220
0
230
1
0
LINE
5
FB
100
AcDbEntity
8
1
62
256
6
ByLayer
370
18
48
1
60
0
100
AcDbLine
10
120.325
20
-18.843015
30
0
11
120.325
21
-18.887709
31
0
39
0
210
0
220
0
230
1
0
LINE
5
FC
100
AcDbEntity
8
1
62
256
6
ByLayer
370
18
48
1
60
0
100
AcDbLine
10
120.325
20
-18.976863
30
0
11
120.325
21
-18.991668
31
0
39
0
210
0
220
0
230
1
0
LINE
5
FD
100
AcDbEntity
8
1
62
256
6
ByLayer
370
18
48
1
60
0
100
AcDbLine
10
118.3
20
20
30
0
11
118.3
21
0
31
0
39
0
210
0
220
0
230
1
0
LINE
5
FE
100
AcDbEntity
8
1
62
256
6
ByLayer
370
18
48
1
60
0
100
AcDbLine
10
118
20
-19.7
30
0
11
118
21
0
31
0
39
0
210
0
220
0
230
1
0
LINE
5
FF
100
AcDbEntity
8
1
62
256
6
ByLayer
370
18
48
1
60
0
100
AcDbLine
10
118.3
20
0
30
0
11
118.3
21
-20
31
0
39
0
210
0
220
0
230
1
0
LINE
5
100
100
AcDbEntity
8
1
62
256
6
ByLayer
370
18
48
1
60
0
100
AcDbLine
10
118
20
0
30
0
11
118
21
19.7
31
0
39
0
210
0
220
0
230
1
0
LINE
5
101
100
AcDbEntity
8
1
62
256
6
ByLayer
370
18
48
1
60
0
100
AcDbLine
10
22
20
31.5
30
0
11
22
21
-31.5
31
0
39
0
210
0
220
0
230
1
0
LINE
5
102
100
AcDbEntity
8
1
62
256
6
ByLayer
370
18
48
1
60
0
100
AcDbLine
10
23.691224
20
25.188267
30
0
11
23.691224
21
-25.188267
31
0
39
0
210
0
220
0
230
1
0
LINE
5
103
100
AcDbEntity
8
1
62
256
6
ByLayer
370
18
48
1
60
0
100
AcDbLine
10
0.3
20
31.5
30
0
11
0.3
21
-31.5
31
0
39
0
210
0
220
0
230
1
0
LINE
5
104
100
AcDbEntity
8
1
62
256
6
ByLayer
370
18
48
1
60
0
100
AcDbLine
10
0
20
-31.2
30
0
11
0
21
31.2
31
0
39
0
210
0
220
0
230
1
0
LINE
5
105
100
AcDbEntity
8
1
62
256
6
ByLayer
370
18
48
1
60
0
100
AcDbLine
10
30.452705
20
20
30
0
11
30.452705
21
-20
31
0
39
0
210
0
220
0
230
1
0
LINE
5
106
100
AcDbEntity
8
SK1
62
256
6
ByLayer
370
18
48
1
60
0
100
AcDbLine
10
-0.2
20
-7.066356
30
0
11
-0.2
21
-6.834385
31
0
39
0
210
0
220
0
230
1
0
LINE
5
107
100
AcDbEntity
8
SK1
62
256
6
ByLayer
370
18
48
1
60
0
100
AcDbLine
10
-1.307107
20
4.695915
30
0
11
-1.307107
21
-4.695917
31
0
39
0
210
0
220
0
230
1
0
LINE
5
108
100
AcDbEntity
8
SK1
62
256
6
ByLayer
370
18
48
1
60
0
100
AcDbLine
10
-0.2
20
6.834385
30
0
11
-0.2
21
7.066357
31
0
39
0
210
0
220
0
230
1
0
LINE
5
109
100
AcDbEntity
8
SK1
62
256
6
ByLayer
370
18
48
1
60
0
100
AcDbLine
10
-0.2
20
-22.45
30
0
11
-0.2
21
-7.454102
31
0
39
0
210
0
220
0
230
1
0
LINE
5
10A
100
AcDbEntity
8
SK1
62
256
6
ByLayer
370
18
48
1
60
0
100
AcDbLine
10
-0.2
20
7.454103
30
0
11
-0.2
21
22.45
31
0
39
0
210
0
220
0
230
1
0
LINE
5
10B
100
AcDbEntity
8
1
62
256
6
ByLayer
370
18
48
1
60
0
100
AcDbLine
10
117.7
20
-20
30
0
11
117.7
21
0
31
0
39
0
210
0
220
0
230
1
0
LINE
5
10C
100
AcDbEntity
8
1
62
256
6
ByLayer
370
18
48
1
60
0
100
AcDbLine
10
118
20
19.7
30
0
11
118
21
0
31
0
39
0
210
0
220
0
230
1
0
LINE
5
10D
100
AcDbEntity
8
1
62
256
6
ByLayer
370
18
48
1
60
0
100
AcDbLine
10
118
20
0
30
0
11
118
21
-19.7
31
0
39
0
210
0
220
0
230
1
0
LINE
5
10E
100
AcDbEntity
8
1
62
256
6
ByLayer
370
18
48
1
60
0
100
AcDbLine
10
117.7
20
0
30
0
11
117.7
21
20
31
0
39
0
210
0
220
0
230
1
0
LINE
5
10F
100
AcDbEntity
8
1
62
256
6
ByLayer
370
18
48
1
60
0
100
AcDbLine
10
0.3
20
31.5
30
0
11
0.3
21
-31.5
31
0
39
0
210
0
220
0
230
1
0
LINE
5
110
100
AcDbEntity
8
1
62
256
6
ByLayer
370
18
48
1
60
0
100
AcDbLine
10
0
20
-31.2
30
0
11
0
21
31.2
31
0
39
0
210
0
220
0
230
1
0
LINE
5
111
100
AcDbEntity
8
1
62
256
6
ByLayer
370
18
48
1
60
0
100
AcDbLine
10
22
20
-31.5
30
0
11
22
21
31.5
31
0
39
0
210
0
220
0
230
1
0
LINE
5
112
100
AcDbEntity
8
SK1
62
256
6
ByLayer
370
18
48
1
60
0
100
AcDbLine
10
-0.2
20
-7.066356
30
0
11
-0.2
21
-6.834385
31
0
39
0
210
0
220
0
230
1
0
LINE
5
113
100
AcDbEntity
8
SK1
62
256
6
ByLayer
370
18
48
1
60
0
100
AcDbLine
10
-1.307107
20
4.695915
30
0
11
-1.307107
21
-4.695917
31
0
39
0
210
0
220
0
230
1
0
LINE
5
114
100
AcDbEntity
8
SK1
62
256
6
ByLayer
370
18
48
1
60
0
100
AcDbLine
10
-0.2
20
6.834385
30
0
11
-0.2
21
7.066357
31
0
39
0
210
0
220
0
230
1
0
LINE
5
115
100
AcDbEntity
8
SK1
62
256
6
ByLayer
370
18
48
1
60
0
100
AcDbLine
10
-0.2
20
-22.45
30
0
11
-0.2
21
-7.454102
31
0
39
0
210
0
220
0
230
1
0
LINE
5
116
100
AcDbEntity
8
SK1
62
256
6
ByLayer
370
18
48
1
60
0
100
AcDbLine
10
-0.2
20
7.454103
30
0
11
-0.2
21
22.45
31
0
39
0
210
0
220
0
230
1
0
LINE
5
117
100
AcDbEntity
8
SK1
62
256
6
ByLayer
370
18
48
1
60
0
100
AcDbLine
10
130.325
20
-4.899495
30
0
11
130.325
21
-9.899495
31
0
39
0
210
0
220
0
230
1
0
LINE
5
118
100
AcDbEntity
8
SK1
62
256
6
ByLayer
370
18
48
1
60
0
100
AcDbLine
10
124.325
20
-4.899495
30
0
11
124.325
21
-9.899495
31
0
39
0
210
0
220
0
230
1
0
LINE
5
119
100
AcDbEntity
8
SK1
62
256
6
ByLayer
370
18
48
1
60
0
100
AcDbLine
10
130.325
20
-9.899495
30
0
11
130.325
21
-14.899495
31
0
39
0
210
0
220
0
230
1
0
LINE
5
11A
100
AcDbEntity
8
SK1
62
256
6
ByLayer
370
18
48
1
60
0
100
AcDbLine
10
124.325
20
-9.899495
30
0
11
124.325
21
-14.899495
31
0
39
0
210
0
220
0
230
1
0
LINE
5
11B
100
AcDbEntity
8
SK1
62
256
6
ByLayer
370
18
48
1
60
0
100
AcDbLine
10
-3
20
-22
30
0
11
-3
21
22
31
0
39
0
210
0
220
0
230
1
0
LINE
5
11C
100
AcDbEntity
8
SK1
62
256
6
ByLayer
370
18
48
1
60
0
100
AcDbLine
10
-2.2
20
-13.01722
30
0
11
-2.2
21
-18.805799
31
0
39
0
210
0
220
0
230
1
0
LINE
5
11D
100
AcDbEntity
8
SK1
62
256
6
ByLayer
370
18
48
1
60
0
100
AcDbLine
10
-2.2
20
18.805799
30
0
11
-2.2
21
13.017221
31
0
39
0
210
0
220
0
230
1
0
LINE
5
11E
100
AcDbEntity
8
SK1
62
256
6
ByLayer
370
18
48
1
60
0
100
AcDbLine
10
-2.2
20
13.017221
30
0
11
-2.2
21
-13.01722
31
0
39
0
210
0
220
0
230
1
0
LINE
5
11F
100
AcDbEntity
8
SK1
62
256
6
ByLayer
370
18
48
1
60
0
100
AcDbLine
10
-2
20
21.825101
30
0
11
-2
21
-21.825128
31
0
39
0
210
0
220
0
230
1
0
LINE
5
120
100
AcDbEntity
8
SK1
62
256
6
ByLayer
370
18
48
1
60
0
100
AcDbLine
10
-0.4
20
21.825017
30
0
11
-0.4
21
6.104232
31
0
39
0
210
0
220
0
230
1
0
LINE
5
121
100
AcDbEntity
8
SK1
62
256
6
ByLayer
370
18
48
1
60
0
100
AcDbLine
10
-0.4
20
-6.104232
30
0
11
-0.4
21
-21.825017
31
0
39
0
210
0
220
0
230
1
0
LINE
5
122
100
AcDbEntity
8
SK1
62
256
6
ByLayer
370
18
48
1
60
0
100
AcDbLine
10
-36.500473
20
21.157872
30
0
11
-36.500473
21
-21.157996
31
0
39
0
210
0
220
0
230
1
0
LINE
5
123
100
AcDbEntity
8
SK1
62
256
6
ByLayer
370
18
48
1
60
0
100
AcDbLine
10
-38
20
-20.239988
30
0
11
-38
21
20.247289
31
0
39
0
210
0
220
0
230
1
0
LINE
5
124
100
AcDbEntity
8
SK1
62
256
6
ByLayer
370
18
48
1
60
0
100
AcDbLine
10
-3
20
-22
30
0
11
-3
21
22
31
0
39
0
210
0
220
0
230
1
0
LINE
5
125
100
AcDbEntity
8
SK1
62
256
6
ByLayer
370
18
48
1
60
0
100
AcDbLine
10
-2.2
20
-13.01722
30
0
11
-2.2
21
-18.805799
31
0
39
0
210
0
220
0
230
1
0
LINE
5
126
100
AcDbEntity
8
SK1
62
256
6
ByLayer
370
18
48
1
60
0
100
AcDbLine
10
-2.2
20
18.805799
30
0
11
-2.2
21
13.017221
31
0
39
0
210
0
220
0
230
1
0
LINE
5
127
100
AcDbEntity
8
SK1
62
256
6
ByLayer
370
18
48
1
60
0
100
AcDbLine
10
-2.2
20
13.017221
30
0
11
-2.2
21
-13.01722
31
0
39
0
210
0
220
0
230
1
0
LINE
5
128
100
AcDbEntity
8
SK1
62
256
6
ByLayer
370
18
48
1
60
0
100
AcDbLine
10
-2
20
21.825101
30
0
11
-2
21
-21.825128
31
0
39
0
210
0
220
0
230
1
0
LINE
5
129
100
AcDbEntity
8
SK1
62
256
6
ByLayer
370
18
48
1
60
0
100
AcDbLine
10
-0.4
20
21.825128
30
0
11
-0.4
21
6.104232
31
0
39
0
210
0
220
0
230
1
0
LINE
5
12A
100
AcDbEntity
8
SK1
62
256
6
ByLayer
370
18
48
1
60
0
100
AcDbLine
10
-0.4
20
-6.104232
30
0
11
-0.4
21
-21.825128
31
0
39
0
210
0
220
0
230
1
0
LINE
5
12B
100
AcDbEntity
8
SK1
62
256
6
ByLayer
370
18
48
1
60
0
100
AcDbLine
10
-36.500473
20
21.157872
30
0
11
-36.500473
21
-21.157996
31
0
39
0
210
0
220
0
230
1
0
LINE
5
12C
100
AcDbEntity
8
SK1
62
256
6
ByLayer
370
18
48
1
60
0
100
AcDbLine
10
-38
20
-20.239988
30
0
11
-38
21
20.247289
31
0
39
0
210
0
220
0
230
1
0
MTEXT
5
1F2
100
AcDbEntity
8
SK6
62
256
6
ByLayer
370
13
48
1
60
0
100
AcDbMText
10
5.050893
20
62.378048
30
0
210
0
220
0
230
1
1
\W0.7144;C6-570-4C 40 120
40
3.175
41
0
44
1.084337
50
0
71
7
72
5
7
iso_b_vert
0
DIMENSION
5
200
100
AcDbEntity
8
2
62
256
6
ByLayer
370
13
48
1
60
0
100
AcDbDimension
2
DimnDraft3D1
10
120
20
58.666811
30
0
11
57.313783
21
58.666811
31
0
70
32
71
5
72
1
41
1
210
0
220
0
230
1
3
Standard
100
AcDbAlignedDimension
13
0
23
1.5875
33
0
14
120
24
1.5875
34
0
50
0
100
AcDbRotatedDimension
1001
ACAD
1000
DSTYLE
1002
{
1070
   279
1070
     0
1070
   173
1070
     1
1070
   340
1005
1F3
1070
   271
1070
     1
1070
   272
1070
     2
1070
    77
1070
     1
1070
    73
1070
     0
1070
   171
1070
     3
1070
   274
1070
     4
1070
   177
1070
     7
1070
   176
1070
     7
1070
   178
1070
     7
1070
    78
1070
     8
1070
    48
1040
-0.005
1070
    41
1041
3.175
1070
   147
1041
1.5875
1070
    42
1041
1.5875
1070
    44
1041
3.175
1070
   140
1041
3.175
1070
   343
1005
0
1070
   344
1005
0
1002
}
0
DIMENSION
5
209
100
AcDbEntity
8
SK2
62
256
6
ByLayer
370
13
48
1
60
0
100
AcDbDimension
2
DimnDraft3D2
10
30.452705
20
27
30
0
11
49.196147
21
44.720359
31
0
70
36
71
5
72
1
41
1
210
0
220
0
230
1
3
Standard
100
AcDbRadialDimension
15
0
25
0
35
0
40
0
1001
ACAD
1000
DSTYLE
1002
{
1070
   279
1070
     0
1070
   173
1070
     1
1070
   340
1005
1F3
1070
    75
1070
     1
1070
    76
1070
     1
1070
   271
1070
     1
1070
   272
1070
     2
1070
    77
1070
     1
1070
    73
1070
     0
1070
   171
1070
     3
1070
   274
1070
     4
1070
   177
1070
     7
1070
   176
1070
     7
1070
   178
1070
     7
1070
    78
1070
     8
1070
    48
1040
-0.005
1070
    41
1041
3.175
1070
   147
1041
1.5875
1070
    42
1041
1.5875
1070
    44
1041
3.175
1070
   140
1041
3.175
1070
   343
1005
0
1070
   344
1005
0
1002
}
0
DIMENSION
5
21E
100
AcDbEntity
8
SK2
62
256
6
ByLayer
370
13
48
1
60
0
100
AcDbDimension
2
DimnDraft3D4
10
-43.047904
20
-31.5
30
0
11
-43.047904
21
-6.659145
31
0
70
32
71
5
72
1
41
1
210
0
220
0
230
1
3
Standard
100
AcDbAlignedDimension
13
-1.2875
23
31.5
33
0
14
-1.2875
24
-31.5
34
0
50
90
100
AcDbRotatedDimension
1001
ACAD
1000
DSTYLE
1002
{
1070
    74
1070
     0
1070
   279
1070
     0
1070
   173
1070
     1
1070
   340
1005
1F3
1070
   271
1070
     1
1070
   272
1070
     2
1070
    77
1070
     1
1070
    73
1070
     0
1070
   171
1070
     3
1070
   274
1070
     4
1070
   177
1070
     7
1070
   176
1070
     7
1070
   178
1070
     7
1070
    78
1070
     8
1070
    48
1040
-0.005
1070
    41
1041
3.175
1070
   147
1041
1.5875
1070
    42
1041
1.5875
1070
    44
1041
3.175
1070
   140
1041
3.175
1070
   343
1005
0
1070
   344
1005
0
1002
}
0
DIMENSION
5
229
100
AcDbEntity
8
SK2
62
256
6
ByLayer
370
13
48
1
60
0
100
AcDbDimension
2
DimnDraft3D5
10
146.689617
20
-20
30
0
11
146.689617
21
-6.82625
31
0
70
32
71
5
72
1
41
1
210
0
220
0
230
1
3
Standard
100
AcDbAlignedDimension
13
119.2875
23
20
33
0
14
119.2875
24
-20
34
0
50
90
100
AcDbRotatedDimension
1001
ACAD
1000
DSTYLE
1002
{
1070
    74
1070
     0
1070
   279
1070
     0
1070
   173
1070
     1
1070
   340
1005
1F3
1070
   271
1070
     1
1070
   272
1070
     2
1070
    77
1070
     1
1070
    73
1070
     0
1070
   171
1070
     3
1070
   274
1070
     4
1070
   177
1070
     7
1070
   176
1070
     7
1070
   178
1070
     7
1070
    78
1070
     8
1070
    48
1040
-0.005
1070
    41
1041
3.175
1070
   147
1041
1.5875
1070
    42
1041
1.5875
1070
    44
1041
3.175
1070
   140
1041
3.175
1070
   343
1005
0
1070
   344
1005
0
1002
}
0
DIMENSION
5
233
100
AcDbEntity
8
SK2
62
256
6
ByLayer
370
13
48
1
60
0
100
AcDbDimension
2
DimnDraft3D6
10
22
20
-46.576539
30
0
11
9.103355
21
-46.576539
31
0
70
32
71
5
72
1
41
1
210
0
220
0
230
1
3
Standard
100
AcDbAlignedDimension
13
0
23
-32.7875
33
0
14
22
24
-33.0875
34
0
50
0
100
AcDbRotatedDimension
1001
ACAD
1000
DSTYLE
1002
{
1070
   279
1070
     0
1070
   173
1070
     1
1070
   340
1005
1F3
1070
   271
1070
     1
1070
   272
1070
     2
1070
    77
1070
     1
1070
    73
1070
     0
1070
   171
1070
     3
1070
   274
1070
     4
1070
   177
1070
     7
1070
   176
1070
     7
1070
   178
1070
     7
1070
    78
1070
     8
1070
    48
1040
-0.005
1070
    41
1041
3.175
1070
   147
1041
1.5875
1070
    42
1041
1.5875
1070
    44
1041
3.175
1070
   140
1041
3.175
1070
   343
1005
0
1070
   344
1005
0
1002
}
0
ENDSEC
0
SECTION
2
OBJECTS
0
DICTIONARY
5
29e
330
0
100
AcDbDictionary
280
0
281
1
3
ACAD_GROUP
350
29f
3
ACAD_MLINESTYLE
350
2a0
0
DICTIONARY
5
29f
330
0
100
AcDbDictionary
280
0
281
1
0
DICTIONARY
5
2a0
330
0
100
AcDbDictionary
280
0
281
1
3
Standard
350
18
0
MLINESTYLE
5
18
330
2a0
100
AcDbMlineStyle
2
Standard
70
0
3

62
256
51
90
52
90
71
2
49
-0.5
62
256
6
ByLayer
49
0.5
62
256
6
ByLayer
0
RASTERVARIABLES
5
28c
330

100
AcDbRasterVariables
90
0
70
1
71
1
72
1
0
ENDSEC
0
EOF
