0
SECTION
2
HEADER
9
$ACADVER
1
AC1015
9
$DWGCODEPAGE
3
ANSI_1252
9
$HANDSEED
5
27d
9
$ANGBASE
50
0
9
$ANGDIR
70
0
9
$ATTMODE
70
1
9
$AUNITS
70
0
9
$AUPREC
70
0
9
$CECOLOR
62
256
9
$CELTSCALE
40
1
9
$CELTYPE
6
ByLayer
9
$CELWEIGHT
370
18
9
$CLAYER
8
0
9
$CMLJUST
70
0
9
$CMLSCALE
40
1
9
$CMLSTYLE
2
Standard
9
$DIMSTYLE
2
Standard
9
$TEXTSIZE
40
0.2
9
$TEXTSTYLE
7
Standard
9
$LUNITS
70
2
9
$LUPREC
70
4
9
$EXTNAMES
290
1
9
$INSUNITS
70
4
9
$LTSCALE
40
1
9
$LWDISPLAY
290
1
9
$PDMODE
70
0
9
$PDSIZE
40
0
9
$PLINEGEN
70
0
0
ENDSEC
0
SECTION
2
CLASSES
0
CLASS
1
RASTERVARIABLES
2
AcDbRasterVariables
3
ISM
90
0
280
0
281
0
0
ENDSEC
0
SECTION
2
TABLES
0
TABLE
2
VPORT
5
273
100
AcDbSymbolTable
0
VPORT
5
1
100
AcDbSymbolTableRecord
100
AcDbViewportTableRecord
2
*Active
70
0
10
0
20
0
11
1
21
1
12
-1
22
1
13
0
23
0
14
0.5
24
0.5
15
10
25
10
16
0
26
0
36
1
17
0
27
0
37
0
0
ENDTAB
0
TABLE
2
LTYPE
5
274
100
AcDbSymbolTable
0
LTYPE
5
14
100
AcDbSymbolTableRecord
100
AcDbLinetypeTableRecord
70
0
2
ByBlock
3

72
65
73
0
40
0
0
LTYPE
5
15
100
AcDbSymbolTableRecord
100
AcDbLinetypeTableRecord
70
0
2
ByLayer
3

72
65
73
0
40
0
0
LTYPE
5
16
100
AcDbSymbolTableRecord
100
AcDbLinetypeTableRecord
70
0
2
CONTINUOUS
3
Solid line
72
65
73
0
40
0
0
LTYPE
5
6A
100
AcDbSymbolTableRecord
100
AcDbLinetypeTableRecord
70
0
2
CENTER
3
____ _ ____ _ ____ _ ____
72
65
73
4
40
47.5
49
22
74
0
49
-8.5
74
0
49
8.5
74
0
49
-8.5
74
0
0
LTYPE
5
6B
100
AcDbSymbolTableRecord
100
AcDbLinetypeTableRecord
70
0
2
DASHED
3
__ __ __ __ __ __ __ __ __
72
65
73
2
40
25.72
49
12.86
74
0
49
-12.86
74
0
0
ENDTAB
0
TABLE
2
LAYER
5
275
100
AcDbSymbolTable
0
LAYER
5
10
100
AcDbSymbolTableRecord
100
AcDbLayerTableRecord
2
0
70
0
62
7
6
CONTINUOUS
290
1
370
-3
390
0
0
LAYER
5
6D
100
AcDbSymbolTableRecord
100
AcDbLayerTableRecord
2
80
70
0
62
-6
6
CONTINUOUS
290
1
370
-3
390
0
0
LAYER
5
6F
100
AcDbSymbolTableRecord
100
AcDbLayerTableRecord
2
81
70
0
62
-3
6
CONTINUOUS
290
1
370
-3
390
0
0
LAYER
5
72
100
AcDbSymbolTableRecord
100
AcDbLayerTableRecord
2
4
70
0
62
-2
6
CENTER
290
1
370
-3
390
0
0
LAYER
5
77
100
AcDbSymbolTableRecord
100
AcDbLayerTableRecord
2
1
70
0
62
4
6
CONTINUOUS
290
1
370
-3
390
0
0
LAYER
5
1B7
100
AcDbSymbolTableRecord
100
AcDbLayerTableRecord
2
2
70
0
62
7
6
CONTINUOUS
290
1
370
-3
390
0
0
LAYER
5
260
100
AcDbSymbolTableRecord
100
AcDbLayerTableRecord
2
SK4
70
0
62
2
6
CENTER
290
1
370
-3
390
0
0
LAYER
5
261
100
AcDbSymbolTableRecord
100
AcDbLayerTableRecord
2
SK1
70
0
62
4
6
CONTINUOUS
290
1
370
-3
390
0
0
LAYER
5
262
100
AcDbSymbolTableRecord
100
AcDbLayerTableRecord
2
SK6
70
0
62
5
6
CONTINUOUS
290
1
370
-3
390
0
0
ENDTAB
0
TABLE
2
STYLE
5
276
100
AcDbSymbolTable
0
STYLE
5
11
100
AcDbSymbolTableRecord
100
AcDbTextStyleTableRecord
2
Standard
3
txt
70
0
71
0
40
0
41
1
42
0
50
0
0
STYLE
5
1B2
100
AcDbSymbolTableRecord
100
AcDbTextStyleTableRecord
2
iso_b_vert
3
simplex.shx
70
0
71
0
40
0
41
1
42
0
50
0
0
STYLE
5
1B3
100
AcDbSymbolTableRecord
100
AcDbTextStyleTableRecord
2
DWGDirectTextStyle
3
simplex
70
0
71
0
40
0
41
1
42
0
50
0
0
ENDTAB
0
TABLE
2
DIMSTYLE
5
277
100
AcDbSymbolTable
100
AcDbDimStyleTable
0
DIMSTYLE
105
27
100
AcDbSymbolTableRecord
100
AcDbDimStyleTableRecord
2
Standard
70
0
3
<>
41
0.18
42
0.0625
44
0.18
140
0.18
147
0.09
73
0
74
0
77
1
271
2
275
0
278
52
280
0
340
11
0
ENDTAB
0
TABLE
2
VIEW
5
278
100
AcDbSymbolTable
0
ENDTAB
0
TABLE
2
UCS
5
279
100
AcDbSymbolTable
0
ENDTAB
0
TABLE
2
APPID
5
27a
100
AcDbSymbolTable
0
APPID
5
12
100
AcDbSymbolTableRecord
100
AcDbRegAppTableRecord
2
ACAD
70
0
0
ENDTAB
0
TABLE
2
BLOCK_RECORD
5
27b
100
AcDbSymbolTable
0
BLOCK_RECORD
5
1F
100
AcDbSymbolTableRecord
100
AcDbBlockTableRecord
2
*Model_Space
340
0
70
0
0
BLOCK_RECORD
5
1B
100
AcDbSymbolTableRecord
100
AcDbBlockTableRecord
2
*Paper_Space
340
0
70
0
0
BLOCK_RECORD
5
23
100
AcDbSymbolTableRecord
100
AcDbBlockTableRecord
2
*Paper_Space0
340
0
70
0
0
BLOCK_RECORD
5
1B5
100
AcDbSymbolTableRecord
100
AcDbBlockTableRecord
2
DimnDraft3D1
340
0
70
0
0
BLOCK_RECORD
5
1C0
100
AcDbSymbolTableRecord
100
AcDbBlockTableRecord
2
DimnDraft3D2
340
0
70
0
0
BLOCK_RECORD
5
1CB
100
AcDbSymbolTableRecord
100
AcDbBlockTableRecord
2
DimnDraft3D3
340
0
70
0
0
BLOCK_RECORD
5
1D5
100
AcDbSymbolTableRecord
100
AcDbBlockTableRecord
2
DimnDraft3D4
340
0
70
0
0
BLOCK_RECORD
5
1DD
100
AcDbSymbolTableRecord
100
AcDbBlockTableRecord
2
DimnDraft3D55
340
0
70
0
0
BLOCK_RECORD
5
1E7
100
AcDbSymbolTableRecord
100
AcDbBlockTableRecord
2
DimnDraft3D6
340
0
70
0
0
BLOCK_RECORD
5
1F2
100
AcDbSymbolTableRecord
100
AcDbBlockTableRecord
2
DimnDraft3D7
340
0
70
0
0
BLOCK_RECORD
5
1FD
100
AcDbSymbolTableRecord
100
AcDbBlockTableRecord
2
DimnDraft3D8
340
0
70
0
0
ENDTAB
0
ENDSEC
0
SECTION
2
BLOCKS
0
BLOCK
5
20
100
AcDbEntity
8
0
100
AcDbBlockBegin
2
*Model_Space
70
0
10
0
20
0
30
0
3
*Model_Space
0
ENDBLK
5
21
100
AcDbEntity
8
0
100
AcDbBlockEnd
0
BLOCK
5
1C
100
AcDbEntity
8
0
100
AcDbBlockBegin
2
*Paper_Space
70
0
10
0
20
0
30
0
3
*Paper_Space
0
ENDBLK
5
1D
100
AcDbEntity
8
0
100
AcDbBlockEnd
0
BLOCK
5
24
100
AcDbEntity
8
0
100
AcDbBlockBegin
2
*Paper_Space0
70
0
10
0
20
0
30
0
3
*Paper_Space0
0
ENDBLK
5
25
100
AcDbEntity
8
0
100
AcDbBlockEnd
0
BLOCK
5
1BD
100
AcDbEntity
8
0
100
AcDbBlockBegin
2
DimnDraft3D1
70
0
10
0
20
0
30
0
3
DimnDraft3D1
0
MTEXT
5
1B6
100
AcDbEntity
8
2
62
256
6
ByLayer
370
13
48
1
60
0
100
AcDbMText
10
145.210658
20
57.42452
30
0
210
0
220
0
230
1
1
\W0.7138;295
40
3.175
41
0
44
1.084337
50
0
71
7
72
5
7
iso_b_vert
0
LINE
5
1B8
100
AcDbEntity
8
2
62
256
6
ByLayer
370
13
48
1
60
0
100
AcDbLine
10
0
20
1.5875
30
0
11
0
21
59.80577
31
0
39
0
210
0
220
0
230
1
0
LINE
5
1B9
100
AcDbEntity
8
2
62
256
6
ByLayer
370
13
48
1
60
0
100
AcDbLine
10
295
20
11.5875
30
0
11
295
21
59.80577
31
0
39
0
210
0
220
0
230
1
0
LINE
5
1BA
100
AcDbEntity
8
2
62
256
6
ByLayer
370
13
48
1
60
0
100
AcDbLine
10
0
20
56.63077
30
0
11
295
21
56.63077
31
0
39
0
210
0
220
0
230
1
0
SOLID
5
1BB
100
AcDbEntity
8
2
62
256
6
ByLayer
370
13
48
1
60
0
100
AcDbTrace
10
0
20
56.63077
30
0
11
3.174998
21
57.048767
31
0
12
3.175002
22
56.212773
32
0
13
0
23
56.63077
33
0
39
0
210
0
220
0
230
1
0
SOLID
5
1BC
100
AcDbEntity
8
2
62
256
6
ByLayer
370
13
48
1
60
0
100
AcDbTrace
10
295
20
56.63077
30
0
11
291.825002
21
56.212773
31
0
12
291.824998
22
57.048767
32
0
13
295
23
56.63077
33
0
39
0
210
0
220
0
230
1
0
ENDBLK
5
1BE
100
AcDbEntity
8
0
100
AcDbBlockEnd
0
BLOCK
5
1C8
100
AcDbEntity
8
0
100
AcDbBlockBegin
2
DimnDraft3D2
70
0
10
0
20
0
30
0
3
DimnDraft3D2
0
MTEXT
5
1C1
100
AcDbEntity
8
2
62
256
6
ByLayer
370
13
48
1
60
0
100
AcDbMText
10
-62.272539
20
-4.25309
30
0
210
0
220
0
230
1
1
%%c
40
3.175
41
0
44
1.084337
50
90
71
7
72
5
7
iso_b_vert
0
MTEXT
5
1C2
100
AcDbEntity
8
2
62
256
6
ByLayer
370
13
48
1
60
0
100
AcDbMText
10
-62.272539
20
3.659605
30
0
210
0
220
0
230
1
1
\W0.6740;63
40
3.175
41
0
44
1.084337
50
90
71
7
72
5
7
iso_b_vert
0
LINE
5
1C3
100
AcDbEntity
8
2
62
256
6
ByLayer
370
13
48
1
60
0
100
AcDbLine
10
-1.2875
20
31.5
30
0
11
-63.860039
21
31.5
31
0
39
0
210
0
220
0
230
1
0
LINE
5
1C4
100
AcDbEntity
8
2
62
256
6
ByLayer
370
13
48
1
60
0
100
AcDbLine
10
-1.2875
20
-31.5
30
0
11
-63.860039
21
-31.5
31
0
39
0
210
0
220
0
230
1
0
LINE
5
1C5
100
AcDbEntity
8
2
62
256
6
ByLayer
370
13
48
1
60
0
100
AcDbLine
10
-60.685039
20
31.5
30
0
11
-60.685039
21
-31.5
31
0
39
0
210
0
220
0
230
1
0
SOLID
5
1C6
100
AcDbEntity
8
2
62
256
6
ByLayer
370
13
48
1
60
0
100
AcDbTrace
10
-60.685039
20
31.5
30
0
11
-60.267042
21
28.325002
31
0
12
-61.103035
22
28.324998
32
0
13
-60.685039
23
31.5
33
0
39
0
210
0
220
0
230
1
0
SOLID
5
1C7
100
AcDbEntity
8
2
62
256
6
ByLayer
370
13
48
1
60
0
100
AcDbTrace
10
-60.685039
20
-31.5
30
0
11
-61.103035
21
-28.325002
31
0
12
-60.267042
22
-28.324998
32
0
13
-60.685039
23
-31.5
33
0
39
0
210
0
220
0
230
1
0
ENDBLK
5
1C9
100
AcDbEntity
8
0
100
AcDbBlockEnd
0
BLOCK
5
1D2
100
AcDbEntity
8
0
100
AcDbBlockBegin
2
DimnDraft3D3
70
0
10
0
20
0
30
0
3
DimnDraft3D3
0
MTEXT
5
1CC
100
AcDbEntity
8
2
62
256
6
ByLayer
370
13
48
1
60
0
100
AcDbMText
10
9.342772
20
-44.929683
30
0
210
0
220
0
230
1
1
\W0.6740;22
40
3.175
41
0
44
1.084337
50
0
71
7
72
5
7
iso_b_vert
0
LINE
5
1CD
100
AcDbEntity
8
2
62
256
6
ByLayer
370
13
48
1
60
0
100
AcDbLine
10
22
20
-33.0875
30
0
11
22
21
-48.898433
31
0
39
0
210
0
220
0
230
1
0
LINE
5
1CE
100
AcDbEntity
8
2
62
256
6
ByLayer
370
13
48
1
60
0
100
AcDbLine
10
0
20
-32.7875
30
0
11
0
21
-48.898433
31
0
39
0
210
0
220
0
230
1
0
LINE
5
1CF
100
AcDbEntity
8
2
62
256
6
ByLayer
370
13
48
1
60
0
100
AcDbLine
10
22
20
-45.723433
30
0
11
0
21
-45.723433
31
0
39
0
210
0
220
0
230
1
0
SOLID
5
1D0
100
AcDbEntity
8
2
62
256
6
ByLayer
370
13
48
1
60
0
100
AcDbTrace
10
22
20
-45.723433
30
0
11
18.825002
21
-46.141429
31
0
12
18.824998
22
-45.305436
32
0
13
22
23
-45.723433
33
0
39
0
210
0
220
0
230
1
0
SOLID
5
1D1
100
AcDbEntity
8
2
62
256
6
ByLayer
370
13
48
1
60
0
100
AcDbTrace
10
0
20
-45.723433
30
0
11
3.174998
21
-45.305436
31
0
12
3.175002
22
-46.141429
32
0
13
0
23
-45.723433
33
0
39
0
210
0
220
0
230
1
0
ENDBLK
5
1D3
100
AcDbEntity
8
0
100
AcDbBlockEnd
0
BLOCK
5
1DA
100
AcDbEntity
8
0
100
AcDbBlockBegin
2
DimnDraft3D4
70
0
10
0
20
0
30
0
3
DimnDraft3D4
0
MTEXT
5
1D6
100
AcDbEntity
8
2
62
256
6
ByLayer
370
13
48
1
60
0
100
AcDbMText
10
39.977796
20
39.552979
30
0
210
0
220
0
230
1
1
\W0.3580;1
40
3.175
41
0
44
1.084337
50
24.34481567257
71
7
72
5
7
iso_b_vert
0
MTEXT
5
1D7
100
AcDbEntity
8
2
62
256
6
ByLayer
370
13
48
1
60
0
100
AcDbMText
10
36.209697
20
37.848068
30
0
210
0
220
0
230
1
1
\W0.6380;R
40
3.175
41
0
44
1.084337
50
24.34481567257
71
7
72
5
7
iso_b_vert
0
LINE
5
1D8
100
AcDbEntity
8
2
62
256
6
ByLayer
370
13
48
1
60
0
100
AcDbLine
10
22.088919
20
30.587773
30
0
11
40.152755
21
38.760923
31
0
39
0
210
0
220
0
230
1
0
SOLID
5
1D9
100
AcDbEntity
8
2
62
256
6
ByLayer
370
13
48
1
60
0
100
AcDbTrace
10
22.088919
20
30.587773
30
0
11
24.80929
21
32.277422
31
0
12
25.153912
22
31.515766
32
0
13
22.088919
23
30.587773
33
0
39
0
210
0
220
0
230
1
0
ENDBLK
5
1DB
100
AcDbEntity
8
0
100
AcDbBlockEnd
0
BLOCK
5
1DE
100
AcDbEntity
8
0
100
AcDbBlockBegin
2
DimnDraft3D55
70
0
10
0
20
0
30
0
3
DimnDraft3D55
0
LINE
5
1E0
100
AcDbEntity
8
2
62
256
6
ByLayer
370
25
48
1
60
0
100
AcDbLine
10
295
20
11.5875
30
0
11
295
21
49.66959
31
0
39
0
210
0
220
0
230
1
0
LINE
5
1E1
100
AcDbEntity
8
2
62
256
6
ByLayer
370
25
48
1
60
0
100
AcDbLine
10
23
20
31.5875
30
0
11
23
21
49.66959
31
0
39
0
210
0
220
0
230
1
0
LINE
5
1E2
100
AcDbEntity
8
2
62
256
6
ByLayer
370
25
48
1
60
0
100
AcDbLine
10
295
20
46.49459
30
0
11
23
21
46.49459
31
0
39
0
210
0
220
0
230
1
0
SOLID
5
1E3
100
AcDbEntity
8
2
62
256
6
ByLayer
370
25
48
1
60
0
100
AcDbTrace
10
295
20
46.49459
30
0
11
291.825002
21
46.076593
31
0
12
291.824998
22
46.912587
32
0
13
295
23
46.49459
33
0
39
0
210
0
220
0
230
1
0
SOLID
5
1E4
100
AcDbEntity
8
2
62
256
6
ByLayer
370
25
48
1
60
0
100
AcDbTrace
10
23
20
46.49459
30
0
11
26.174998
21
46.912587
31
0
12
26.175002
22
46.076593
32
0
13
23
23
46.49459
33
0
39
0
210
0
220
0
230
1
0
MTEXT
5
1E5
100
AcDbEntity
8
2
62
256
6
ByLayer
370
13
48
1
60
0
100
AcDbMText
10
156.710658
20
47.28834
30
0
210
0
220
0
230
1
1
\W0.7138;272
40
3.175
41
0
44
1.084337
50
0
71
7
72
5
7
iso_b_vert
0
ENDBLK
5
1DF
100
AcDbEntity
8
0
100
AcDbBlockEnd
0
BLOCK
5
1EF
100
AcDbEntity
8
0
100
AcDbBlockBegin
2
DimnDraft3D6
70
0
10
0
20
0
30
0
3
DimnDraft3D6
0
MTEXT
5
1E8
100
AcDbEntity
8
2
62
256
6
ByLayer
370
13
48
1
60
0
100
AcDbMText
10
386.293813
20
-13.959472
30
0
210
0
220
0
230
1
1
%%c
40
3.175
41
0
44
1.084337
50
90
71
7
72
5
7
iso_b_vert
0
MTEXT
5
1E9
100
AcDbEntity
8
2
62
256
6
ByLayer
370
13
48
1
60
0
100
AcDbMText
10
386.293813
20
-6.046776
30
0
210
0
220
0
230
1
1
\W0.6740;60
40
3.175
41
0
44
1.084337
50
90
71
7
72
5
7
iso_b_vert
0
LINE
5
1EA
100
AcDbEntity
8
2
62
256
6
ByLayer
370
13
48
1
60
0
100
AcDbLine
10
292.1875
20
30
30
0
11
391.056313
21
30
31
0
39
0
210
0
220
0
230
1
0
LINE
5
1EB
100
AcDbEntity
8
2
62
256
6
ByLayer
370
13
48
1
60
0
100
AcDbLine
10
292.1875
20
-30
30
0
11
391.056313
21
-30
31
0
39
0
210
0
220
0
230
1
0
LINE
5
1EC
100
AcDbEntity
8
2
62
256
6
ByLayer
370
13
48
1
60
0
100
AcDbLine
10
387.881313
20
30
30
0
11
387.881313
21
-30
31
0
39
0
210
0
220
0
230
1
0
SOLID
5
1ED
100
AcDbEntity
8
2
62
256
6
ByLayer
370
13
48
1
60
0
100
AcDbTrace
10
387.881313
20
30
30
0
11
388.29931
21
26.825002
31
0
12
387.463316
22
26.824998
32
0
13
387.881313
23
30
33
0
39
0
210
0
220
0
230
1
0
SOLID
5
1EE
100
AcDbEntity
8
2
62
256
6
ByLayer
370
13
48
1
60
0
100
AcDbTrace
10
387.881313
20
-30
30
0
11
387.463316
21
-26.825002
31
0
12
388.29931
22
-26.824998
32
0
13
387.881313
23
-30
33
0
39
0
210
0
220
0
230
1
0
ENDBLK
5
1F0
100
AcDbEntity
8
0
100
AcDbBlockEnd
0
BLOCK
5
1FA
100
AcDbEntity
8
0
100
AcDbBlockBegin
2
DimnDraft3D7
70
0
10
0
20
0
30
0
3
DimnDraft3D7
0
MTEXT
5
1F3
100
AcDbEntity
8
2
62
256
6
ByLayer
370
13
48
1
60
0
100
AcDbMText
10
373.604762
20
5.579805
30
0
210
0
220
0
230
1
1
%%c
40
3.175
41
0
44
1.084337
50
90
71
7
72
5
7
iso_b_vert
0
MTEXT
5
1F4
100
AcDbEntity
8
2
62
256
6
ByLayer
370
13
48
1
60
0
100
AcDbMText
10
373.604762
20
13.4925
30
0
210
0
220
0
230
1
1
\W0.7361;40
40
3.175
41
0
44
1.084337
50
90
71
7
72
5
7
iso_b_vert
0
LINE
5
1F5
100
AcDbEntity
8
2
62
256
6
ByLayer
370
13
48
1
60
0
100
AcDbLine
10
295.9125
20
-10
30
0
11
378.367262
21
-10
31
0
39
0
210
0
220
0
230
1
0
LINE
5
1F6
100
AcDbEntity
8
2
62
256
6
ByLayer
370
13
48
1
60
0
100
AcDbLine
10
295.9125
20
30
30
0
11
378.367262
21
30
31
0
39
0
210
0
220
0
230
1
0
LINE
5
1F7
100
AcDbEntity
8
2
62
256
6
ByLayer
370
13
48
1
60
0
100
AcDbLine
10
375.192262
20
-10
30
0
11
375.192262
21
30
31
0
39
0
210
0
220
0
230
1
0
SOLID
5
1F8
100
AcDbEntity
8
2
62
256
6
ByLayer
370
13
48
1
60
0
100
AcDbTrace
10
375.192262
20
-10
30
0
11
374.774265
21
-6.825002
31
0
12
375.610258
22
-6.824998
32
0
13
375.192262
23
-10
33
0
39
0
210
0
220
0
230
1
0
SOLID
5
1F9
100
AcDbEntity
8
2
62
256
6
ByLayer
370
13
48
1
60
0
100
AcDbTrace
10
375.192262
20
30
30
0
11
375.610258
21
26.825002
31
0
12
374.774265
22
26.824998
32
0
13
375.192262
23
30
33
0
39
0
210
0
220
0
230
1
0
ENDBLK
5
1FB
100
AcDbEntity
8
0
100
AcDbBlockEnd
0
BLOCK
5
204
100
AcDbEntity
8
0
100
AcDbBlockBegin
2
DimnDraft3D8
70
0
10
0
20
0
30
0
3
DimnDraft3D8
0
MTEXT
5
1FE
100
AcDbEntity
8
2
62
256
6
ByLayer
370
13
48
1
60
0
100
AcDbMText
10
360.949678
20
4.29398
30
0
210
0
220
0
230
1
1
\W0.5321;10
40
3.175
41
0
44
1.084337
50
90
71
7
72
5
7
iso_b_vert
0
LINE
5
1FF
100
AcDbEntity
8
2
62
256
6
ByLayer
370
13
48
1
60
0
100
AcDbLine
10
326.0875
20
10
30
0
11
364.918428
21
10
31
0
39
0
210
0
220
0
230
1
0
LINE
5
200
100
AcDbEntity
8
2
62
256
6
ByLayer
370
13
48
1
60
0
100
AcDbLine
10
301.5875
20
0
30
0
11
364.918428
21
0
31
0
39
0
210
0
220
0
230
1
0
LINE
5
201
100
AcDbEntity
8
2
62
256
6
ByLayer
370
13
48
1
60
0
100
AcDbLine
10
361.743428
20
10
30
0
11
361.743428
21
0
31
0
39
0
210
0
220
0
230
1
0
SOLID
5
202
100
AcDbEntity
8
2
62
256
6
ByLayer
370
13
48
1
60
0
100
AcDbTrace
10
361.743428
20
10
30
0
11
362.161425
21
6.825002
31
0
12
361.325431
22
6.824998
32
0
13
361.743428
23
10
33
0
39
0
210
0
220
0
230
1
0
SOLID
5
203
100
AcDbEntity
8
2
62
256
6
ByLayer
370
13
48
1
60
0
100
AcDbTrace
10
361.743428
20
0
30
0
11
361.325431
21
3.174998
31
0
12
362.161425
22
3.175002
32
0
13
361.743428
23
0
33
0
39
0
210
0
220
0
230
1
0
ENDBLK
5
205
100
AcDbEntity
8
0
100
AcDbBlockEnd
0
ENDSEC
0
SECTION
2
ENTITIES
0
ARC
5
10D
100
AcDbEntity
8
1
62
256
6
ByLayer
370
18
48
1
60
0
100
AcDbCircle
39
0
10
291.4
20
29.6
30
0
40
0.4
210
0
220
0
230
1
100
AcDbArc
50
90
51
180
0
ARC
5
10E
100
AcDbEntity
8
1
62
256
6
ByLayer
370
18
48
1
60
0
100
AcDbCircle
39
0
10
291.4
20
-29.6
30
0
40
0.4
210
0
220
0
230
1
100
AcDbArc
50
180
51
270
0
ARC
5
10F
100
AcDbEntity
8
1
62
256
6
ByLayer
370
18
48
1
60
0
100
AcDbCircle
39
0
10
-294
20
-11
30
0
40
1
210
0
220
0
230
-1
100
AcDbArc
50
0
51
90
0
ARC
5
110
100
AcDbEntity
8
1
62
256
6
ByLayer
370
18
48
1
60
0
100
AcDbCircle
39
0
10
-23
20
31
30
0
40
1
210
0
220
0
230
-1
100
AcDbArc
50
270
51
0
0
ARC
5
111
100
AcDbEntity
8
1
62
256
6
ByLayer
370
18
48
1
60
0
100
AcDbCircle
39
0
10
-23
20
-31
30
0
40
1
210
0
220
0
230
-1
100
AcDbArc
50
0
51
90
0
ARC
5
112
100
AcDbEntity
8
1
62
256
6
ByLayer
370
18
48
1
60
0
100
AcDbCircle
39
0
10
290.6
20
-29.6
30
0
40
0.4
210
0
220
0
230
1
100
AcDbArc
50
270
51
0
0
ARC
5
113
100
AcDbEntity
8
1
62
256
6
ByLayer
370
18
48
1
60
0
100
AcDbCircle
39
0
10
290.6
20
29.6
30
0
40
0.4
210
0
220
0
230
1
100
AcDbArc
50
0
51
90
0
CIRCLE
5
114
100
AcDbEntity
8
1
62
256
6
ByLayer
370
18
48
1
60
0
100
AcDbCircle
10
281
20
0
30
0
40
2
39
0
210
0
220
0
230
1
0
ELLIPSE
5
115
100
AcDbEntity
8
1
62
256
6
ByLayer
370
18
48
1
60
0
100
AcDbEllipse
10
294
20
27.95
30
0
11
0.99999999999854
21
0
31
0
210
0
220
0
230
1
40
0.854762
41
-2.79624344721537
42
-1.5707963267949
0
ELLIPSE
5
116
100
AcDbEntity
8
1
62
256
6
ByLayer
370
18
48
1
60
0
100
AcDbEllipse
10
-2.347154
20
0
30
0
11
14.7536831606549
21
31.0932549155795
31
0
210
0
220
0
230
1
40
0.341999
41
-1.09123958575287
42
-0.157806186645432
0
ELLIPSE
5
117
100
AcDbEntity
8
1
62
256
6
ByLayer
370
18
48
1
60
0
100
AcDbEllipse
10
26.347154
20
0
30
0
11
-14.7536831606557
21
31.0932549155804
31
0
210
0
220
0
230
1
40
0.341999
41
0.157806186645432
42
1.09123958575284
0
ELLIPSE
5
118
100
AcDbEntity
8
1
62
256
6
ByLayer
370
18
48
1
60
0
100
AcDbEllipse
10
-2.347154
20
0
30
0
11
-14.7536831606554
21
31.0932549155799
31
0
210
0
220
0
230
1
40
0.341999
41
-2.98378646694436
42
-2.05035306783694
0
ELLIPSE
5
119
100
AcDbEntity
8
1
62
256
6
ByLayer
370
18
48
1
60
0
100
AcDbEllipse
10
26.347154
20
0
30
0
11
14.7536831606575
21
31.0932549155826
31
0
210
0
220
0
230
1
40
0.341999
41
2.050353067837
42
2.98378646694437
0
POINT
5
6C
100
AcDbEntity
8
80
62
256
6
ByLayer
370
18
48
1
60
0
100
AcDbPoint
10
0
20
0
30
0
39
0
210
0
220
0
230
1
50
360
0
POINT
5
6E
100
AcDbEntity
8
81
62
256
6
ByLayer
370
18
48
1
60
0
100
AcDbPoint
10
295
20
10
30
0
39
0
210
0
220
0
230
1
50
360
0
SPLINE
5
11A
100
AcDbEntity
8
1
62
256
6
ByLayer
370
18
48
1
60
0
100
AcDbSpline
70
4
71
1
72
4
73
2
40
0
40
0
40
1
40
1
41
1
10
293
20
26.4625
30
0
41
1
10
292.5
20
26.9110169491526
30
0
0
SPLINE
5
11B
100
AcDbEntity
8
1
62
256
6
ByLayer
370
18
48
1
60
0
100
AcDbSpline
70
4
71
3
72
13
73
9
40
0
40
0
40
0
40
0
40
0.150404286365304
40
0.317028573705163
40
0.49988247904673
40
0.666599581305613
40
0.833305149793905
40
1
40
1
40
1
40
1
41
1
10
292.58856405781
20
27.9823344634338
30
0
41
1
10
292.620425984439
20
28.1823633960999
30
0
41
1
10
292.682774547243
20
28.5731357044897
30
0
41
1
10
292.763278577095
20
29.0877345531623
30
0
41
1
10
292.832136738584
20
29.5002260562154
30
0
41
1
10
292.893181162549
20
29.7920799607194
30
0
41
1
10
292.949083374415
20
29.9621730064427
30
0
41
1
10
292.983468051537
20
29.9999618169814
30
0
41
1
10
293
20
30
30
0
0
SPLINE
5
11C
100
AcDbEntity
8
1
62
256
6
ByLayer
370
18
48
1
60
0
100
AcDbSpline
70
4
71
2
72
6
73
3
40
0
40
0
40
0
40
1
40
1
40
1
41
1
10
292.5
20
26.9110169491526
30
0
41
1
10
292.503170054093
20
27.501521737375
30
0
41
1
10
292.58856405781
20
27.9823344634338
30
0
0
SPLINE
5
11D
100
AcDbEntity
8
1
62
256
6
ByLayer
370
18
48
1
60
0
100
AcDbSpline
70
4
71
1
72
4
73
2
40
0
40
0
40
1
40
1
41
1
10
293.000121768637
20
26.5230820550306
30
0
41
1
10
293
20
26.4625
30
0
0
SPLINE
5
11E
100
AcDbEntity
8
1
62
256
6
ByLayer
370
18
48
1
60
0
100
AcDbSpline
70
4
71
2
72
6
73
3
40
0
40
0
40
0
40
1
40
1
40
1
41
1
10
293.059042705207
20
27.6606414815844
30
0
41
1
10
293.002673002419
20
27.15453240118
30
0
41
1
10
293.000121768637
20
26.5230820550306
30
0
0
SPLINE
5
11F
100
AcDbEntity
8
1
62
256
6
ByLayer
370
18
48
1
60
0
100
AcDbSpline
70
4
71
3
72
12
73
8
40
0
40
0
40
0
40
0
40
0.0814684080198122
40
0.282954387161682
40
0.496494800032571
40
0.831758491132766
40
1
40
1
40
1
40
1
41
1
10
294.555
20
29.77
30
0
41
1
10
294.555015582329
20
29.7699841495472
30
0
41
1
10
294.556077393944
20
29.7689115960186
30
0
41
1
10
294.564760637255
20
29.7601387505968
30
0
41
1
10
294.589381414209
20
29.7352841727275
30
0
41
1
10
294.622628100026
20
29.701772156945
30
0
41
1
10
294.648254823464
20
29.6759963201806
30
0
41
1
10
294.657250000005
20
29.6669526077322
30
0
0
SPLINE
5
120
100
AcDbEntity
8
1
62
256
6
ByLayer
370
18
48
1
60
0
100
AcDbSpline
70
4
71
1
72
4
73
2
40
0
40
0
40
1
40
1
41
1
10
294.65725
20
29.6669526077377
30
0
41
1
10
295.325
20
28.991667907708
30
0
0
SPLINE
5
121
100
AcDbEntity
8
1
62
256
6
ByLayer
370
18
48
1
60
0
100
AcDbSpline
70
4
71
1
72
4
73
2
40
0
40
0
40
1
40
1
41
1
10
295.325
20
28.9768631082337
30
0
41
1
10
294.65725
20
29.6232090000648
30
0
0
SPLINE
5
122
100
AcDbEntity
8
1
62
256
6
ByLayer
370
18
48
1
60
0
100
AcDbSpline
70
4
71
3
72
10
73
6
40
0
40
0
40
0
40
0
40
0.4208132337203
40
0.709275987469704
40
1
40
1
40
1
40
1
41
1
10
294.65725
20
29.6232090000647
30
0
41
1
10
294.636507587212
20
29.6432655346522
30
0
41
1
10
294.606247411039
20
29.6718183371001
30
0
41
1
10
294.570645937364
20
29.7037065058532
30
0
41
1
10
294.560087947498
20
29.7114894215747
30
0
41
1
10
294.556760432117
20
29.7132672240648
30
0
0
SPLINE
5
123
100
AcDbEntity
8
1
62
256
6
ByLayer
370
18
48
1
60
0
100
AcDbSpline
70
4
71
1
72
4
73
2
40
0
40
0
40
1
40
1
41
1
10
294.65725
20
29.5961148774388
30
0
41
1
10
295.325
20
28.8877094006841
30
0
0
SPLINE
5
124
100
AcDbEntity
8
1
62
256
6
ByLayer
370
18
48
1
60
0
100
AcDbSpline
70
4
71
1
72
4
73
2
40
0
40
0
40
1
40
1
41
1
10
295.325
20
28.8430150703283
30
0
41
1
10
294.65725
20
29.4641115400998
30
0
0
SPLINE
5
125
100
AcDbEntity
8
1
62
256
6
ByLayer
370
18
48
1
60
0
100
AcDbSpline
70
4
71
3
72
11
73
7
40
0
40
0
40
0
40
0
40
0.304632312554778
40
0.566084194491783
40
0.784880098668203
40
1
40
1
40
1
40
1
41
1
10
294.65725
20
29.4641115400997
30
0
41
1
10
294.64055915088
20
29.4796684885192
30
0
41
1
10
294.612558144472
20
29.5047063539096
30
0
41
1
10
294.578899199237
20
29.5321569777169
30
0
41
1
10
294.559153228532
20
29.5445727998412
30
0
41
1
10
294.555154530637
20
29.5435466217527
30
0
41
1
10
294.555000003065
20
29.5410513391963
30
0
0
SPLINE
5
126
100
AcDbEntity
8
1
62
256
6
ByLayer
370
18
48
1
60
0
100
AcDbSpline
70
4
71
1
72
4
73
2
40
0
40
0
40
1
40
1
41
1
10
294.65725
20
29.4094413032565
30
0
41
1
10
295.325
20
28.6630030512968
30
0
0
SPLINE
5
127
100
AcDbEntity
8
1
62
256
6
ByLayer
370
18
48
1
60
0
100
AcDbSpline
70
4
71
1
72
4
73
2
40
0
40
0
40
1
40
1
41
1
10
295.325
20
28.587552298584
30
0
41
1
10
294.65725
20
29.1867908893245
30
0
0
SPLINE
5
128
100
AcDbEntity
8
1
62
256
6
ByLayer
370
18
48
1
60
0
100
AcDbSpline
70
4
71
3
72
12
73
8
40
0
40
0
40
0
40
0
40
0.282977018566781
40
0.536553999364193
40
0.750837094272301
40
0.96561343547643
40
1
40
1
40
1
40
1
41
1
10
294.65725
20
29.1867908893245
30
0
41
1
10
294.641760186522
20
29.2007697381244
30
0
41
1
10
294.614943225208
20
29.2235385350738
30
0
41
1
10
294.581692039333
20
29.248055497566
30
0
41
1
10
294.561024500697
20
29.258175617789
30
0
41
1
10
294.555340370391
20
29.2556494640045
30
0
41
1
10
294.554996731975
20
29.2516310044636
30
0
41
1
10
294.555000030127
20
29.2510233429179
30
0
0
SPLINE
5
129
100
AcDbEntity
8
1
62
256
6
ByLayer
370
18
48
1
60
0
100
AcDbSpline
70
4
71
1
72
4
73
2
40
0
40
0
40
1
40
1
41
1
10
294.65725
20
29.1035364558329
30
0
41
1
10
295.325
20
28.3131045806204
30
0
0
SPLINE
5
12A
100
AcDbEntity
8
1
62
256
6
ByLayer
370
18
48
1
60
0
100
AcDbSpline
70
4
71
1
72
4
73
2
40
0
40
0
40
1
40
1
41
1
10
295.325
20
28.2053559142514
30
0
41
1
10
294.65725
20
28.786012115824
30
0
0
SPLINE
5
12B
100
AcDbEntity
8
1
62
256
6
ByLayer
370
18
48
1
60
0
100
AcDbSpline
70
4
71
3
72
12
73
8
40
0
40
0
40
0
40
0
40
0.261192139426515
40
0.505956728872205
40
0.752535483089829
40
0.96156357478195
40
1
40
1
40
1
40
1
41
1
10
294.65725
20
28.786012115824
30
0
41
1
10
294.64295433266
20
28.7985553899809
30
0
41
1
10
294.617380061952
20
28.8192714267596
30
0
41
1
10
294.583004380813
20
28.8423427456429
30
0
41
1
10
294.561085004116
20
28.8496710722452
30
0
41
1
10
294.555355221632
20
28.8437531907419
30
0
41
1
10
294.554994103838
20
28.8383826837501
30
0
41
1
10
294.555000075114
20
28.8374837408244
30
0
0
SPLINE
5
12C
100
AcDbEntity
8
1
62
256
6
ByLayer
370
18
48
1
60
0
100
AcDbSpline
70
4
71
1
72
4
73
2
40
0
40
0
40
1
40
1
41
1
10
294.65725
20
28.6725412982303
30
0
41
1
10
295.325
20
27.8306454136905
30
0
0
SPLINE
5
12D
100
AcDbEntity
8
1
62
256
6
ByLayer
370
18
48
1
60
0
100
AcDbSpline
70
4
71
1
72
4
73
2
40
0
40
0
40
1
40
1
41
1
10
295.325
20
27.6882126704918
30
0
41
1
10
294.65725
20
28.2536450551968
30
0
0
SPLINE
5
12E
100
AcDbEntity
8
1
62
256
6
ByLayer
370
18
48
1
60
0
100
AcDbSpline
70
4
71
3
72
12
73
8
40
0
40
0
40
0
40
0
40
0.238383637776399
40
0.472578322840649
40
0.708422830413782
40
0.909970655360731
40
1
40
1
40
1
40
1
41
1
10
294.65725
20
28.2536450551967
30
0
41
1
10
294.644154353144
20
28.264869634683
30
0
41
1
10
294.619908768226
20
28.2837252912934
30
0
41
1
10
294.586411318166
20
28.3043177379196
30
0
41
1
10
294.563744385307
20
28.3097189328798
30
0
41
1
10
294.555900889281
20
28.3020816888986
30
0
41
1
10
294.554957692867
20
28.2945959471497
30
0
41
1
10
294.555000724703
20
28.2919300405605
30
0
0
SPLINE
5
12F
100
AcDbEntity
8
1
62
256
6
ByLayer
370
18
48
1
60
0
100
AcDbSpline
70
4
71
1
72
4
73
2
40
0
40
0
40
1
40
1
41
1
10
294.65725
20
28.1075258373112
30
0
41
1
10
295.325
20
27.204477102103
30
0
0
SPLINE
5
130
100
AcDbEntity
8
1
62
256
6
ByLayer
370
18
48
1
60
0
100
AcDbSpline
70
4
71
1
72
4
73
2
40
0
40
0
40
1
40
1
41
1
10
295.325
20
27.0238289168014
30
0
41
1
10
294.65725
20
27.57773774939
30
0
0
SPLINE
5
131
100
AcDbEntity
8
1
62
256
6
ByLayer
370
18
48
1
60
0
100
AcDbSpline
70
4
71
3
72
12
73
8
40
0
40
0
40
0
40
0
40
0.215086515550344
40
0.437438636714354
40
0.661293538621374
40
0.853843971396831
40
1
40
1
40
1
40
1
41
1
10
294.65725
20
27.5777377493899
30
0
41
1
10
294.645373678305
20
27.5877389163178
30
0
41
1
10
294.622562049811
20
27.6048994976594
30
0
41
1
10
294.590147318654
20
27.6233332368948
30
0
41
1
10
294.566888680885
20
27.6271121694883
30
0
41
1
10
294.556591726899
20
27.6176023962012
30
0
41
1
10
294.554873954984
20
27.607528238927
30
0
41
1
10
294.55500147232
20
27.6022405721771
30
0
0
SPLINE
5
132
100
AcDbEntity
8
1
62
256
6
ByLayer
370
18
48
1
60
0
100
AcDbSpline
70
4
71
1
72
4
73
2
40
0
40
0
40
1
40
1
41
1
10
294.65725
20
27.3954357623968
30
0
41
1
10
295.325
20
26.4181652094505
30
0
0
SPLINE
5
133
100
AcDbEntity
8
1
62
256
6
ByLayer
370
18
48
1
60
0
100
AcDbSpline
70
4
71
1
72
4
73
2
40
0
40
0
40
1
40
1
41
1
10
295.325
20
26.1940925803361
30
0
41
1
10
294.65725
20
26.7409130865539
30
0
0
SPLINE
5
134
100
AcDbEntity
8
1
62
256
6
ByLayer
370
18
48
1
60
0
100
AcDbSpline
70
4
71
3
72
12
73
8
40
0
40
0
40
0
40
0
40
0.191366235578447
40
0.400705424394787
40
0.611426159911804
40
0.793354321085381
40
1
40
1
40
1
40
1
41
1
10
294.65725
20
26.7409130865538
30
0
41
1
10
294.646627503722
20
26.7497667997621
30
0
41
1
10
294.625380799525
20
26.7653795144078
30
0
41
1
10
294.594288505919
20
26.7819777186297
30
0
41
1
10
294.570624438789
20
26.7844723098295
30
0
41
1
10
294.557467676365
20
26.7729577055611
30
0
41
1
10
294.554735111693
20
26.7597810462402
30
0
41
1
10
294.555000725937
20
26.7508635079356
30
0
0
SPLINE
5
135
100
AcDbEntity
8
1
62
256
6
ByLayer
370
18
48
1
60
0
100
AcDbSpline
70
4
71
1
72
4
73
2
40
0
40
0
40
1
40
1
41
1
10
294.65725
20
26.5172600263618
30
0
41
1
10
295.325
20
25.4472737184539
30
0
0
SPLINE
5
136
100
AcDbEntity
8
1
62
256
6
ByLayer
370
18
48
1
60
0
100
AcDbSpline
70
4
71
1
72
4
73
2
40
0
40
0
40
1
40
1
41
1
10
295.325
20
25.1718989586826
30
0
41
1
10
294.65725
20
25.7174895437145
30
0
0
SPLINE
5
137
100
AcDbEntity
8
1
62
256
6
ByLayer
370
18
48
1
60
0
100
AcDbSpline
70
4
71
3
72
13
73
9
40
0
40
0
40
0
40
0
40
0.166242911183272
40
0.360375890725418
40
0.555799720089457
40
0.724316208407447
40
0.963610848020791
40
1
40
1
40
1
40
1
41
1
10
294.657250000001
20
25.7174895437142
30
0
41
1
10
294.647934269862
20
25.7252528119712
30
0
41
1
10
294.628418910791
20
25.739446680958
30
0
41
1
10
294.598923790555
20
25.7545791493184
30
0
41
1
10
294.575130693618
20
25.756077901086
30
0
41
1
10
294.559249471884
20
25.7435020486445
30
0
41
1
10
294.555257148098
20
25.7256644826509
30
0
41
1
10
294.554989085092
20
25.712940665717
30
0
41
1
10
294.555000472764
20
25.7112166191105
30
0
0
SPLINE
5
138
100
AcDbEntity
8
1
62
256
6
ByLayer
370
18
48
1
60
0
100
AcDbSpline
70
4
71
1
72
4
73
2
40
0
40
0
40
1
40
1
41
1
10
294.65725
20
25.4446939818576
30
0
41
1
10
295.325
20
24.2541356041277
30
0
0
SPLINE
5
139
100
AcDbEntity
8
1
62
256
6
ByLayer
370
18
48
1
60
0
100
AcDbSpline
70
4
71
1
72
4
73
2
40
0
40
0
40
1
40
1
41
1
10
295.325
20
23.9148985452446
30
0
41
1
10
294.65725
20
24.4679225924801
30
0
0
SPLINE
5
13A
100
AcDbEntity
8
1
62
256
6
ByLayer
370
18
48
1
60
0
100
AcDbSpline
70
4
71
3
72
13
73
9
40
0
40
0
40
0
40
0
40
0.13885339064043
40
0.341511995921784
40
0.51849475997362
40
0.669260172089066
40
0.905494557461835
40
1
40
1
40
1
40
1
41
1
10
294.657250000002
20
24.4679225924795
30
0
41
1
10
294.64930360173
20
24.4746550714136
30
0
41
1
10
294.63025527438
20
24.4886415791471
30
0
41
1
10
294.60109405941
20
24.5028441627021
30
0
41
1
10
294.577380561363
20
24.5015211440536
30
0
41
1
10
294.561214372378
20
24.4866340293344
30
0
41
1
10
294.55569115143
20
24.4645423845891
30
0
41
1
10
294.554915850397
20
24.4472215794256
30
0
41
1
10
294.555003412463
20
24.4419827618974
30
0
0
SPLINE
5
13B
100
AcDbEntity
8
1
62
256
6
ByLayer
370
18
48
1
60
0
100
AcDbSpline
70
4
71
1
72
4
73
2
40
0
40
0
40
1
40
1
41
1
10
294.65725
20
24.1335510614993
30
0
41
1
10
295.325
20
22.7766387719495
30
0
0
SPLINE
5
13C
100
AcDbEntity
8
1
62
256
6
ByLayer
370
18
48
1
60
0
100
AcDbSpline
70
4
71
1
72
4
73
2
40
0
40
0
40
1
40
1
41
1
10
295.325
20
22.3516106251948
30
0
41
1
10
294.65725
20
22.9267973886504
30
0
0
SPLINE
5
13D
100
AcDbEntity
8
1
62
256
6
ByLayer
370
18
48
1
60
0
100
AcDbSpline
70
4
71
3
72
13
73
9
40
0
40
0
40
0
40
0
40
0.110242213151723
40
0.28255727552969
40
0.412606166269178
40
0.542428032766085
40
0.73373208768885
40
1
40
1
40
1
40
1
41
1
10
294.657250000004
20
22.9267973886487
30
0
41
1
10
294.650803050241
20
22.9324740321066
30
0
41
1
10
294.634460670417
20
22.9449728016787
30
0
41
1
10
294.609769049183
20
22.9576961890999
30
0
41
1
10
294.587437063048
20
22.9584727781846
30
0
41
1
10
294.569985716961
20
22.9480918057827
30
0
41
1
10
294.557500913942
20
22.9211431497263
30
0
41
1
10
294.554230160885
20
22.8950860188414
30
0
41
1
10
294.555002425298
20
22.8772250208738
30
0
0
SPLINE
5
13E
100
AcDbEntity
8
1
62
256
6
ByLayer
370
18
48
1
60
0
100
AcDbSpline
70
4
71
1
72
4
73
2
40
0
40
0
40
1
40
1
41
1
10
294.65725
20
22.5090350955934
30
0
41
1
10
295.325
20
20.899752969536
30
0
0
SPLINE
5
13F
100
AcDbEntity
8
1
62
256
6
ByLayer
370
18
48
1
60
0
100
AcDbSpline
70
4
71
1
72
4
73
2
40
0
40
0
40
1
40
1
41
1
10
295.325
20
20.3440885798799
30
0
41
1
10
294.65725
20
20.9719368077126
30
0
0
SPLINE
5
140
100
AcDbEntity
8
1
62
256
6
ByLayer
370
18
48
1
60
0
100
AcDbSpline
70
4
71
3
72
14
73
10
40
0
40
0
40
0
40
0
40
0.0783829871389853
40
0.215707446421043
40
0.317812290823398
40
0.419869148103628
40
0.563517127420544
40
0.809794822448492
40
1
40
1
40
1
40
1
41
1
10
294.65725000001
20
20.9719368077072
30
0
41
1
10
294.652444151996
20
20.9765324929058
30
0
41
1
10
294.639151691486
20
20.9877108997616
30
0
41
1
10
294.618336548231
20
21.0001173756792
30
0
41
1
10
294.597444554273
20
21.0028007933594
30
0
41
1
10
294.580149715048
20
20.995355575134
30
0
41
1
10
294.563926018898
20
20.9720067645134
30
0
41
1
10
294.556259895161
20
20.932851065505
30
0
41
1
10
294.554587480467
20
20.9011800376172
30
0
41
1
10
294.555017244399
20
20.8864398912318
30
0
0
SPLINE
5
141
100
AcDbEntity
8
1
62
256
6
ByLayer
370
18
48
1
60
0
100
AcDbSpline
70
4
71
1
72
4
73
2
40
0
40
0
40
1
40
1
41
1
10
294.65725
20
20.4256727570726
30
0
41
1
10
295.325
20
18.3586321419795
30
0
0
SPLINE
5
142
100
AcDbEntity
8
1
62
256
6
ByLayer
370
18
48
1
60
0
100
AcDbSpline
70
4
71
1
72
4
73
2
40
0
40
0
40
1
40
1
41
1
10
295.325
20
17.5457307174572
30
0
41
1
10
294.65725
20
18.3165319633644
30
0
0
SPLINE
5
143
100
AcDbEntity
8
1
62
256
6
ByLayer
370
18
48
1
60
0
100
AcDbSpline
70
4
71
3
72
14
73
10
40
0
40
0
40
0
40
0
40
0.108418701022077
40
0.180167597011281
40
0.252422528712417
40
0.317844072553418
40
0.418649479187806
40
0.60700401253404
40
1
40
1
40
1
40
1
41
1
10
294.657250000027
20
18.3165319633417
30
0
41
1
10
294.64997141586
20
18.3252661533819
30
0
41
1
10
294.637423488915
20
18.3367232035546
30
0
41
1
10
294.6181585045
20
18.3474656485804
30
0
41
1
10
294.602527381033
20
18.3486467044096
30
0
41
1
10
294.587727804689
20
18.3412071876312
30
0
41
1
10
294.572043538821
20
18.3193318484155
30
0
41
1
10
294.557258581184
20
18.2613586317059
30
0
41
1
10
294.552549383968
20
18.208024994444
30
0
41
1
10
294.555038128083
20
18.1675712688108
30
0
0
SPLINE
5
144
100
AcDbEntity
8
1
62
256
6
ByLayer
370
18
48
1
60
0
100
AcDbSpline
70
4
71
2
72
6
73
3
40
0
40
0
40
0
40
1
40
1
40
1
41
1
10
294.65725
20
17.5108818292092
30
0
41
1
10
295.083894802745
20
15.8059612581618
30
0
41
1
10
295.325
20
14.0532515062548
30
0
0
SPLINE
5
145
100
AcDbEntity
8
1
62
256
6
ByLayer
370
18
48
1
60
0
100
AcDbSpline
70
4
71
2
72
6
73
3
40
0
40
0
40
0
40
1
40
1
40
1
41
1
10
295.325
20
11.5414070106085
30
0
41
1
10
295.10386024345
20
12.6512945594196
30
0
41
1
10
294.65725
20
13.6668802111467
30
0
0
SPLINE
5
146
100
AcDbEntity
8
1
62
256
6
ByLayer
370
18
48
1
60
0
100
AcDbSpline
70
4
71
3
72
18
73
14
40
0
40
0
40
0
40
0
40
0.0092762999037752
40
0.0685629895046853
40
0.0951304196522065
40
0.117592414041097
40
0.133540352750834
40
0.149529937945295
40
0.169950422043744
40
0.205700982088351
40
0.318776697949876
40
0.839906372198474
40
1
40
1
40
1
40
1
41
1
10
294.657249999999
20
13.6668802111463
30
0
41
1
10
294.656530488487
20
13.6685631789281
30
0
41
1
10
294.651090051696
20
13.6808852222394
30
0
41
1
10
294.642732472879
20
13.697601541462
30
0
41
1
10
294.630691624416
20
13.7135695448212
30
0
41
1
10
294.622113310392
20
13.7207104323246
30
0
41
1
10
294.614212181307
20
13.7231127764669
30
0
41
1
10
294.606874679365
20
13.7215233840358
30
0
41
1
10
294.598465296463
20
13.7143767022246
30
0
41
1
10
294.584596086648
20
13.6888833145969
30
0
41
1
10
294.558360975623
20
13.563906054245
30
0
41
1
10
294.556219231417
20
13.4050532787705
30
0
41
1
10
294.554724613401
20
13.2697515585733
30
0
41
1
10
294.555022756186
20
13.237748237267
30
0
0
SPLINE
5
147
100
AcDbEntity
8
1
62
256
6
ByLayer
370
18
48
1
60
0
100
AcDbSpline
70
4
71
2
72
6
73
3
40
0
40
0
40
0
40
1
40
1
40
1
41
1
10
294.65725
20
6.33311978885511
30
0
41
1
10
295.10370184491
20
7.34863682979558
30
0
41
1
10
295.325
20
8.45859298939155
30
0
0
SPLINE
5
148
100
AcDbEntity
8
1
62
256
6
ByLayer
370
18
48
1
60
0
100
AcDbSpline
70
4
71
2
72
6
73
3
40
0
40
0
40
0
40
1
40
1
40
1
41
1
10
295.325
20
5.9467484937452
30
0
41
1
10
295.083904837032
20
4.19404952352347
30
0
41
1
10
294.65725
20
2.48911817079085
30
0
0
SPLINE
5
149
100
AcDbEntity
8
1
62
256
6
ByLayer
370
18
48
1
60
0
100
AcDbSpline
70
4
71
3
72
10
73
6
40
0
40
0
40
0
40
0
40
0.532327471743753
40
0.833599534487867
40
1
40
1
40
1
40
1
41
1
10
294.65725
20
2.48911817079085
30
0
41
1
10
294.627311546927
20
2.37052410937614
30
0
41
1
10
294.591106560034
20
2.18676744357674
30
0
41
1
10
294.558371562559
20
1.96607651328291
30
0
41
1
10
294.55512048653
20
1.86668100652047
30
0
41
1
10
294.55503138987
20
1.8316060267774
30
0
0
SPLINE
5
14A
100
AcDbEntity
8
1
62
256
6
ByLayer
370
18
48
1
60
0
100
AcDbSpline
70
4
71
1
72
4
73
2
40
0
40
0
40
1
40
1
41
1
10
294.65725
20
1.68346803663566
30
0
41
1
10
295.325
20
2.4542692825428
30
0
0
SPLINE
5
14B
100
AcDbEntity
8
1
62
256
6
ByLayer
370
18
48
1
60
0
100
AcDbSpline
70
4
71
1
72
4
73
2
40
0
40
0
40
1
40
1
41
1
10
295.325
20
1.64136785802053
30
0
41
1
10
294.65725
20
-0.425672757072636
30
0
0
SPLINE
5
14C
100
AcDbEntity
8
1
62
256
6
ByLayer
370
18
48
1
60
0
100
AcDbSpline
70
4
71
2
72
6
73
3
40
0
40
0
40
0
40
1
40
1
40
1
41
1
10
294.65725
20
-0.425672757072643
30
0
41
1
10
294.564248120374
20
-0.668794774766761
30
0
41
1
10
294.555011360507
20
-0.88720871497629
30
0
0
SPLINE
5
14D
100
AcDbEntity
8
1
62
256
6
ByLayer
370
18
48
1
60
0
100
AcDbSpline
70
4
71
1
72
4
73
2
40
0
40
0
40
1
40
1
41
1
10
294.65725
20
-0.971936807712612
30
0
41
1
10
295.325
20
-0.344088579879873
30
0
0
SPLINE
5
14E
100
AcDbEntity
8
1
62
256
6
ByLayer
370
18
48
1
60
0
100
AcDbSpline
70
4
71
1
72
4
73
2
40
0
40
0
40
1
40
1
41
1
10
295.325
20
-0.899752969535981
30
0
41
1
10
294.65725
20
-2.50903509559339
30
0
0
SPLINE
5
14F
100
AcDbEntity
8
1
62
256
6
ByLayer
370
18
48
1
60
0
100
AcDbSpline
70
4
71
2
72
6
73
3
40
0
40
0
40
0
40
1
40
1
40
1
41
1
10
294.65725
20
-2.50903509559339
30
0
41
1
10
294.56449452426
20
-2.70763626904261
30
0
41
1
10
294.555002402522
20
-2.87723051658865
30
0
0
SPLINE
5
150
100
AcDbEntity
8
1
62
256
6
ByLayer
370
18
48
1
60
0
100
AcDbSpline
70
4
71
1
72
4
73
2
40
0
40
0
40
1
40
1
41
1
10
294.65725
20
-2.92679738865034
30
0
41
1
10
295.325
20
-2.35161062519482
30
0
0
SPLINE
5
151
100
AcDbEntity
8
1
62
256
6
ByLayer
370
18
48
1
60
0
100
AcDbSpline
70
4
71
1
72
4
73
2
40
0
40
0
40
1
40
1
41
1
10
295.325
20
-2.77663877194953
30
0
41
1
10
294.65725
20
-4.13355106149932
30
0
0
SPLINE
5
152
100
AcDbEntity
8
1
62
256
6
ByLayer
370
18
48
1
60
0
100
AcDbSpline
70
4
71
3
72
10
73
6
40
0
40
0
40
0
40
0
40
0.613007207669489
40
0.83959227789802
40
1
40
1
40
1
40
1
41
1
10
294.65725
20
-4.13355106149932
30
0
41
1
10
294.621142460231
20
-4.20196192581199
30
0
41
1
10
294.584893743717
20
-4.29074427879308
30
0
41
1
10
294.558712646654
20
-4.3926061992163
30
0
41
1
10
294.555429709201
20
-4.42786247776354
30
0
41
1
10
294.555003423148
20
-4.44198101996942
30
0
0
SPLINE
5
153
100
AcDbEntity
8
1
62
256
6
ByLayer
370
18
48
1
60
0
100
AcDbSpline
70
4
71
1
72
4
73
2
40
0
40
0
40
1
40
1
41
1
10
294.65725
20
-4.46792259248008
30
0
41
1
10
295.325
20
-3.91489854524457
30
0
0
SPLINE
5
154
100
AcDbEntity
8
1
62
256
6
ByLayer
370
18
48
1
60
0
100
AcDbSpline
70
4
71
1
72
4
73
2
40
0
40
0
40
1
40
1
41
1
10
295.325
20
-4.25413560412767
30
0
41
1
10
294.65725
20
-5.44469398185763
30
0
0
SPLINE
5
155
100
AcDbEntity
8
1
62
256
6
ByLayer
370
18
48
1
60
0
100
AcDbSpline
70
4
71
3
72
10
73
6
40
0
40
0
40
0
40
0
40
0.547301222737381
40
0.825627972936587
40
1
40
1
40
1
40
1
41
1
10
294.65725
20
-5.44469398185762
30
0
41
1
10
294.625542403747
20
-5.49827079513352
30
0
41
1
10
294.588937240184
20
-5.57440183807077
30
0
41
1
10
294.559737360317
20
-5.66326596573221
30
0
41
1
10
294.555569917055
20
-5.69751789420706
30
0
41
1
10
294.555008535533
20
-5.71011512203547
30
0
0
SPLINE
5
156
100
AcDbEntity
8
1
62
256
6
ByLayer
370
18
48
1
60
0
100
AcDbSpline
70
4
71
1
72
4
73
2
40
0
40
0
40
1
40
1
41
1
10
294.65725
20
-5.71748954371448
30
0
41
1
10
295.325
20
-5.17189895868259
30
0
0
SPLINE
5
157
100
AcDbEntity
8
1
62
256
6
ByLayer
370
18
48
1
60
0
100
AcDbSpline
70
4
71
1
72
4
73
2
40
0
40
0
40
1
40
1
41
1
10
295.325
20
-5.44727371845388
30
0
41
1
10
294.65725
20
-6.51726002636184
30
0
0
SPLINE
5
158
100
AcDbEntity
8
1
62
256
6
ByLayer
370
18
48
1
60
0
100
AcDbSpline
70
4
71
3
72
10
73
6
40
0
40
0
40
0
40
0
40
0.538057462057152
40
0.818130138821766
40
1
40
1
40
1
40
1
41
1
10
294.65725
20
-6.51726002636183
30
0
41
1
10
294.626027033555
20
-6.56506666340611
30
0
41
1
10
294.589523572285
20
-6.63247965231935
30
0
41
1
10
294.559690658731
20
-6.71075633175921
30
0
41
1
10
294.55549982106
20
-6.74002354170152
30
0
41
1
10
294.555000929875
20
-6.75081825358064
30
0
0
SPLINE
5
159
100
AcDbEntity
8
1
62
256
6
ByLayer
370
18
48
1
60
0
100
AcDbSpline
70
4
71
1
72
4
73
2
40
0
40
0
40
1
40
1
41
1
10
294.65725
20
-6.74091308655392
30
0
41
1
10
295.325
20
-6.19409258033613
30
0
0
SPLINE
5
15A
100
AcDbEntity
8
1
62
256
6
ByLayer
370
18
48
1
60
0
100
AcDbSpline
70
4
71
1
72
4
73
2
40
0
40
0
40
1
40
1
41
1
10
295.325
20
-6.41816520945052
30
0
41
1
10
294.65725
20
-7.39543576239674
30
0
0
SPLINE
5
15B
100
AcDbEntity
8
1
62
256
6
ByLayer
370
18
48
1
60
0
100
AcDbSpline
70
4
71
3
72
10
73
6
40
0
40
0
40
0
40
0
40
0.500655634822147
40
0.790172015434898
40
1
40
1
40
1
40
1
41
1
10
294.65725
20
-7.39543576239674
30
0
41
1
10
294.628459400728
20
-7.43605133598315
30
0
41
1
10
294.592593064923
20
-7.495054100592
30
0
41
1
10
294.560646526087
20
-7.56541069315901
30
0
41
1
10
294.555617495467
20
-7.59227133147388
30
0
41
1
10
294.555000081396
20
-7.60254562574501
30
0
0
SPLINE
5
15C
100
AcDbEntity
8
1
62
256
6
ByLayer
370
18
48
1
60
0
100
AcDbSpline
70
4
71
1
72
4
73
2
40
0
40
0
40
1
40
1
41
1
10
294.65725
20
-7.57773774939001
30
0
41
1
10
295.325
20
-7.02382891680135
30
0
0
SPLINE
5
15D
100
AcDbEntity
8
1
62
256
6
ByLayer
370
18
48
1
60
0
100
AcDbSpline
70
4
71
1
72
4
73
2
40
0
40
0
40
1
40
1
41
1
10
295.325
20
-7.20447710210303
30
0
41
1
10
294.65725
20
-8.10752583731121
30
0
0
SPLINE
5
15E
100
AcDbEntity
8
1
62
256
6
ByLayer
370
18
48
1
60
0
100
AcDbSpline
70
4
71
3
72
11
73
7
40
0
40
0
40
0
40
0
40
0.46935175865454
40
0.761993777863444
40
0.988709287791774
40
1
40
1
40
1
40
1
41
1
10
294.65725
20
-8.10752583731122
30
0
41
1
10
294.630514136621
20
-8.14262321483817
30
0
41
1
10
294.595252507033
20
-8.19494849384423
30
0
41
1
10
294.562509008145
20
-8.25708633813107
30
0
41
1
10
294.555160567663
20
-8.28299015132049
30
0
41
1
10
294.555001680443
20
-8.29167942370461
30
0
41
1
10
294.555000066085
20
-8.29208657548702
30
0
0
SPLINE
5
15F
100
AcDbEntity
8
1
62
256
6
ByLayer
370
18
48
1
60
0
100
AcDbSpline
70
4
71
1
72
4
73
2
40
0
40
0
40
1
40
1
41
1
10
294.65725
20
-8.25364505519675
30
0
41
1
10
295.325
20
-7.68821267049178
30
0
0
SPLINE
5
160
100
AcDbEntity
8
1
62
256
6
ByLayer
370
18
48
1
60
0
100
AcDbSpline
70
4
71
1
72
4
73
2
40
0
40
0
40
1
40
1
41
1
10
295.325
20
-7.83064541369054
30
0
41
1
10
294.65725
20
-8.67254129823025
30
0
0
SPLINE
5
161
100
AcDbEntity
8
1
62
256
6
ByLayer
370
18
48
1
60
0
100
AcDbSpline
70
4
71
3
72
11
73
7
40
0
40
0
40
0
40
0
40
0.441839920560033
40
0.734050487715048
40
0.961867500839329
40
1
40
1
40
1
40
1
41
1
10
294.65725
20
-8.67254129823026
30
0
41
1
10
294.632309326615
20
-8.7032457165448
30
0
41
1
10
294.59797900152
20
-8.74973898570258
30
0
41
1
10
294.564594625596
20
-8.80464831703825
30
0
41
1
10
294.555573313105
20
-8.82852269695489
30
0
41
1
10
294.555015021059
20
-8.83635947173543
30
0
41
1
10
294.555000312325
20
-8.83742547741925
30
0
0
SPLINE
5
162
100
AcDbEntity
8
1
62
256
6
ByLayer
370
18
48
1
60
0
100
AcDbSpline
70
4
71
1
72
4
73
2
40
0
40
0
40
1
40
1
41
1
10
294.65725
20
-8.78601211582403
30
0
41
1
10
295.325
20
-8.20535591425145
30
0
0
SPLINE
5
163
100
AcDbEntity
8
1
62
256
6
ByLayer
370
18
48
1
60
0
100
AcDbSpline
70
4
71
1
72
4
73
2
40
0
40
0
40
1
40
1
41
1
10
295.325
20
-8.31310458062038
30
0
41
1
10
294.65725
20
-9.10353645583288
30
0
0
SPLINE
5
164
100
AcDbEntity
8
1
62
256
6
ByLayer
370
18
48
1
60
0
100
AcDbSpline
70
4
71
3
72
11
73
7
40
0
40
0
40
0
40
0
40
0.329250067109474
40
0.647313353418043
40
0.887590104473764
40
1
40
1
40
1
40
1
41
1
10
294.65725
20
-9.10353645583289
30
0
41
1
10
294.639125826007
20
-9.1246406317614
30
0
41
1
10
294.60760557301
20
-9.16334055714126
30
0
41
1
10
294.572379703214
20
-9.21190759983645
30
0
41
1
10
294.557086797367
20
-9.23968900769928
30
0
41
1
10
294.555109283244
20
-9.24860113689859
30
0
41
1
10
294.555000241861
20
-9.250975551376
30
0
0
SPLINE
5
165
100
AcDbEntity
8
1
62
256
6
ByLayer
370
18
48
1
60
0
100
AcDbSpline
70
4
71
1
72
4
73
2
40
0
40
0
40
1
40
1
41
1
10
294.65725
20
-9.1867908893245
30
0
41
1
10
295.325
20
-8.58755229858398
30
0
0
SPLINE
5
166
100
AcDbEntity
8
1
62
256
6
ByLayer
370
18
48
1
60
0
100
AcDbSpline
70
4
71
1
72
4
73
2
40
0
40
0
40
1
40
1
41
1
10
295.325
20
-8.66300305129684
30
0
41
1
10
294.65725
20
-9.40944130325644
30
0
0
SPLINE
5
167
100
AcDbEntity
8
1
62
256
6
ByLayer
370
18
48
1
60
0
100
AcDbSpline
70
4
71
3
72
11
73
7
40
0
40
0
40
0
40
0
40
0.342011787836961
40
0.642198228721843
40
0.876725351047498
40
1
40
1
40
1
40
1
41
1
10
294.65725
20
-9.40944130325643
30
0
41
1
10
294.638405962704
20
-9.43023152168821
30
0
41
1
10
294.607246454178
20
-9.46597832353636
30
0
41
1
10
294.572478698652
20
-9.50938125448707
30
0
41
1
10
294.557238712117
20
-9.53262169175954
30
0
41
1
10
294.555107377871
20
-9.53931124263749
30
0
41
1
10
294.555000074588
20
-9.54102988726207
30
0
0
SPLINE
5
168
100
AcDbEntity
8
1
62
256
6
ByLayer
370
18
48
1
60
0
100
AcDbSpline
70
4
71
1
72
4
73
2
40
0
40
0
40
1
40
1
41
1
10
294.65725
20
-9.46411154009974
30
0
41
1
10
295.325
20
-8.84301507032827
30
0
0
SPLINE
5
169
100
AcDbEntity
8
1
62
256
6
ByLayer
370
18
48
1
60
0
100
AcDbSpline
70
4
71
1
72
4
73
2
40
0
40
0
40
1
40
1
41
1
10
295.325
20
-8.88770940068411
30
0
41
1
10
294.65725
20
-9.59611487743882
30
0
0
SPLINE
5
16A
100
AcDbEntity
8
1
62
256
6
ByLayer
370
18
48
1
60
0
100
AcDbSpline
70
4
71
3
72
11
73
7
40
0
40
0
40
0
40
0
40
0.35354489500491
40
0.637649992213691
40
0.866481616419199
40
1
40
1
40
1
40
1
41
1
10
294.65725
20
-9.5961148774388
30
0
41
1
10
294.637736231931
20
-9.61662120111078
30
0
41
1
10
294.606877005414
20
-9.64976242080796
30
0
41
1
10
294.572532958045
20
-9.68843414922992
30
0
41
1
10
294.557376965567
20
-9.7075135390098
30
0
41
1
10
294.555102572038
20
-9.71204957208264
30
0
41
1
10
294.555000029089
20
-9.71300513910092
30
0
0
SPLINE
5
16B
100
AcDbEntity
8
1
62
256
6
ByLayer
370
18
48
1
60
0
100
AcDbSpline
70
4
71
1
72
4
73
2
40
0
40
0
40
1
40
1
41
1
10
294.65725
20
-9.62320900006475
30
0
41
1
10
295.325
20
-8.97686310823374
30
0
0
SPLINE
5
16C
100
AcDbEntity
8
1
62
256
6
ByLayer
370
18
48
1
60
0
100
AcDbSpline
70
4
71
1
72
4
73
2
40
0
40
0
40
1
40
1
41
1
10
295.325
20
-8.99166790770802
30
0
41
1
10
294.65725
20
-9.6669526077377
30
0
0
SPLINE
5
16D
100
AcDbEntity
8
1
62
256
6
ByLayer
370
18
48
1
60
0
100
AcDbSpline
70
4
71
3
72
11
73
7
40
0
40
0
40
0
40
0
40
0.363787721950207
40
0.633109824668601
40
0.856330372739903
40
1
40
1
40
1
40
1
41
1
10
294.65725
20
-9.66695260773768
30
0
41
1
10
294.637106503078
20
-9.68721199693142
30
0
41
1
10
294.606499723285
20
-9.71801584235943
30
0
41
1
10
294.572549591026
20
-9.75227249198012
30
0
41
1
10
294.557491476118
20
-9.76748294072095
30
0
41
1
10
294.555088777225
20
-9.76990974091864
30
0
41
1
10
294.555
20
-9.77000000000001
30
0
0
SPLINE
5
16E
100
AcDbEntity
8
1
62
256
6
ByLayer
370
18
48
1
60
0
100
AcDbSpline
70
4
71
3
72
18
73
14
40
0
40
0
40
0
40
0
40
0.0048006415399491
40
0.118741624692275
40
0.233116378196172
40
0.331274882624732
40
0.429715055919481
40
0.529029138866688
40
0.628645781923491
40
0.720799772201125
40
0.813212114919795
40
0.90645349966051
40
1
40
1
40
1
40
1
41
1
10
293
20
30
30
0
41
1
10
293.002264780055
20
30.0000000017482
30
0
41
1
10
293.058271128986
20
29.9994384225029
30
0
41
1
10
293.168220210912
20
29.9710469989922
30
0
41
1
10
293.319027442371
20
29.8578937084604
30
0
41
1
10
293.457097068353
20
29.6853134102256
30
0
41
1
10
293.581330597948
20
29.4643624890044
30
0
41
1
10
293.696477299872
20
29.1854220163607
30
0
41
1
10
293.796861955345
20
28.8569187290135
30
0
41
1
10
293.880271230868
20
28.4846981805135
30
0
41
1
10
293.944706457918
20
28.0731398506304
30
0
41
1
10
293.988901182059
20
27.6120820964184
30
0
41
1
10
293.999213008853
20
27.2729083261744
30
0
41
1
10
294
20
27.0952380952381
30
0
0
SPLINE
5
16F
100
AcDbEntity
8
1
62
256
6
ByLayer
370
18
48
1
60
0
100
AcDbSpline
70
4
71
3
72
18
73
14
40
0
40
0
40
0
40
0
40
0.0395444285546114
40
0.678020344593833
40
0.73843085753605
40
0.801710634763944
40
0.823803287787209
40
0.846100958305213
40
0.862570653675259
40
0.879008358520712
40
0.90514127831784
40
0.957073783460549
40
1
40
1
40
1
40
1
41
1
10
294.55502714837
20
6.72406232064906
30
0
41
1
10
294.553140836076
20
6.7167801463652
30
0
41
1
10
294.522476480582
20
6.59213363403932
30
0
41
1
10
294.555777472251
20
6.450085586815
30
0
41
1
10
294.58352979887
20
6.31927294274563
30
0
41
1
10
294.59201001328
20
6.29578980216914
30
0
41
1
10
294.60164332981
20
6.28248486296213
30
0
41
1
10
294.608716698742
20
6.27759935177042
30
0
41
1
10
294.61616749737
20
6.27717104100129
30
0
41
1
10
294.624105074743
20
6.28055530270283
30
0
41
1
10
294.635418046789
20
6.29130243275443
30
0
41
1
10
294.646658383322
20
6.31014202751859
30
0
41
1
10
294.654218463867
20
6.32565238044456
30
0
41
1
10
294.65725
20
6.33311978885512
30
0
0
SPLINE
5
170
100
AcDbEntity
8
1
62
256
6
ByLayer
370
18
48
1
60
0
100
AcDbSpline
70
4
71
3
72
13
73
9
40
0
40
0
40
0
40
0
40
0.0811644644506266
40
0.177297495013596
40
0.43385616087598
40
0.690627755606279
40
0.946967123454821
40
1
40
1
40
1
40
1
41
1
10
294.555022756186
20
13.237748237267
30
0
41
1
10
294.556685354627
20
13.0629443615115
30
0
41
1
10
294.563432827021
20
12.680353559239
30
0
41
1
10
294.615581614574
20
11.7386196864308
30
0
41
1
10
294.637544089998
20
10.412467172217
30
0
41
1
10
294.612774682813
20
8.73611925429117
30
0
41
1
10
294.565957676769
20
7.50477944647324
30
0
41
1
10
294.556512388558
20
6.83821624320748
30
0
41
1
10
294.55502714837
20
6.72406232064906
30
0
0
SPLINE
5
171
100
AcDbEntity
8
1
62
256
6
ByLayer
370
18
48
1
60
0
100
AcDbSpline
70
4
71
3
72
14
73
10
40
0
40
0
40
0
40
0
40
0.287575987652842
40
0.590056088248505
40
0.679730591769904
40
0.750554707084318
40
0.821712627379433
40
0.902192848596998
40
1
40
1
40
1
40
1
41
1
10
294.55503138987
20
1.8316060267774
30
0
41
1
10
294.553750469308
20
1.80274150389196
30
0
41
1
10
294.557233909262
20
1.74827528017315
30
0
41
1
10
294.567713507382
20
1.68614308568194
30
0
41
1
10
294.588436644206
20
1.658307857314
30
0
41
1
10
294.60287063449
20
1.65120877241601
30
0
41
1
10
294.619472193805
20
1.65286077652301
30
0
41
1
10
294.638437550163
20
1.66419082283289
30
0
41
1
10
294.650736120681
20
1.67570078629763
30
0
41
1
10
294.65725
20
1.68346803663556
30
0
0
SPLINE
5
172
100
AcDbEntity
8
1
62
256
6
ByLayer
370
18
48
1
60
0
100
AcDbSpline
70
4
71
3
72
10
73
6
40
0
40
0
40
0
40
0
40
0.0927554397792964
40
0.545697818068048
40
1
40
1
40
1
40
1
41
1
10
294.555038128083
20
18.1675712688108
30
0
41
1
10
294.555388989701
20
18.1479841945516
30
0
41
1
10
294.559039956352
20
18.0323212615758
30
0
41
1
10
294.588693640007
20
17.8116779316107
30
0
41
1
10
294.630758281869
20
17.6119288053598
30
0
41
1
10
294.65725
20
17.5108818292092
30
0
0
SPLINE
5
173
100
AcDbEntity
8
1
62
256
6
ByLayer
370
18
48
1
60
0
100
AcDbSpline
70
4
71
3
72
14
73
10
40
0
40
0
40
0
40
0
40
0.134830546589821
40
0.43227857117499
40
0.556416845271886
40
0.681679785607218
40
0.793859150360552
40
0.921826329766502
40
1
40
1
40
1
40
1
41
1
10
294.555011360507
20
-0.88720871497629
30
0
41
1
10
294.554794910831
20
-0.897521353889725
30
0
41
1
10
294.555917857636
20
-0.92911664548921
30
0
41
1
10
294.562018268893
20
-0.967838796523702
30
0
41
1
10
294.579160760749
20
-0.994361584869745
30
0
41
1
10
294.596635088183
20
-1.00325990897652
30
0
41
1
10
294.619157766394
20
-0.999752268205397
30
0
41
1
10
294.639812086508
20
-0.987154565654795
30
0
41
1
10
294.652478051636
20
-0.976493840301466
30
0
41
1
10
294.65725
20
-0.971936807712706
30
0
0
SPLINE
5
174
100
AcDbEntity
8
1
62
256
6
ByLayer
370
18
48
1
60
0
100
AcDbSpline
70
4
71
3
72
10
73
6
40
0
40
0
40
0
40
0
40
0.183048331563966
40
0.859515705816221
40
1
40
1
40
1
40
1
41
1
10
294.555017244399
20
20.8864398912318
30
0
41
1
10
294.555942472327
20
20.8599843976353
30
0
41
1
10
294.564464988636
20
20.7346650724018
30
0
41
1
10
294.606509813793
20
20.5749695797472
30
0
41
1
10
294.649401846816
20
20.4476588174966
30
0
41
1
10
294.65725
20
20.4256727570728
30
0
0
SPLINE
5
175
100
AcDbEntity
8
1
62
256
6
ByLayer
370
18
48
1
60
0
100
AcDbSpline
70
4
71
3
72
12
73
8
40
0
40
0
40
0
40
0
40
0.0979770994025929
40
0.417761348084557
40
0.739992192872144
40
0.956420333147925
40
1
40
1
40
1
40
1
41
1
10
294.555002402522
20
-2.87723051658865
30
0
41
1
10
294.554969421878
20
-2.88114455028815
30
0
41
1
10
294.555291463342
20
-2.89747134314104
30
0
41
1
10
294.558605880554
20
-2.92456314953187
30
0
41
1
10
294.570428322715
20
-2.94900370630714
30
0
41
1
10
294.585130850077
20
-2.9568037966047
30
0
41
1
10
294.592932332292
20
-2.95762985583139
30
0
41
1
10
294.594277264758
20
-2.95770342968759
30
0
0
SPLINE
5
176
100
AcDbEntity
8
1
62
256
6
ByLayer
370
18
48
1
60
0
100
AcDbSpline
70
4
71
3
72
10
73
6
40
0
40
0
40
0
40
0
40
0.296083748072297
40
0.646553452433839
40
1
40
1
40
1
40
1
41
1
10
294.594277264758
20
-2.95770342968759
30
0
41
1
10
294.599841711317
20
-2.95785074718485
30
0
41
1
10
294.612429874276
20
-2.95608305997823
30
0
41
1
10
294.634453442418
20
-2.94485774792137
30
0
41
1
10
294.649564454984
20
-2.93357622746184
30
0
41
1
10
294.65725
20
-2.9267973886504
30
0
0
SPLINE
5
177
100
AcDbEntity
8
1
62
256
6
ByLayer
370
18
48
1
60
0
100
AcDbSpline
70
4
71
3
72
10
73
6
40
0
40
0
40
0
40
0
40
0.0340274245099672
40
0.415044787858729
40
1
40
1
40
1
40
1
41
1
10
294.555002425298
20
22.8772250208738
30
0
41
1
10
294.555036900651
20
22.8735391069519
30
0
41
1
10
294.55598463012
20
22.8283224309488
30
0
41
1
10
294.58089688564
20
22.7052962332345
30
0
41
1
10
294.622322050846
20
22.585293665942
30
0
41
1
10
294.65725
20
22.5090350955934
30
0
0
SPLINE
5
178
100
AcDbEntity
8
1
62
256
6
ByLayer
370
18
48
1
60
0
100
AcDbSpline
70
4
71
3
72
13
73
9
40
0
40
0
40
0
40
0
40
0.106322020951502
40
0.308092026541314
40
0.511861720183855
40
0.687387669813443
40
0.838178876361259
40
1
40
1
40
1
40
1
41
1
10
294.555003423148
20
-4.44198101996942
30
0
41
1
10
294.554902748484
20
-4.44788074348428
30
0
41
1
10
294.5557309423
20
-4.46395285738035
30
0
41
1
10
294.561449200834
20
-4.48733599954961
30
0
41
1
10
294.578391104751
20
-4.50284483394634
30
0
41
1
10
294.603424866665
20
-4.50148916190902
30
0
41
1
10
294.630477830277
20
-4.48835017570579
30
0
41
1
10
294.647958903935
20
-4.47580161303446
30
0
41
1
10
294.65725
20
-4.46792259248013
30
0
0
SPLINE
5
179
100
AcDbEntity
8
1
62
256
6
ByLayer
370
18
48
1
60
0
100
AcDbSpline
70
4
71
3
72
10
73
6
40
0
40
0
40
0
40
0
40
0.192958189275785
40
0.662877134872629
40
1
40
1
40
1
40
1
41
1
10
294.555003412463
20
24.4419827618974
30
0
41
1
10
294.555775357579
20
24.4247468535211
30
0
41
1
10
294.562247184345
20
24.3638370838714
30
0
41
1
10
294.599082328815
20
24.2562196219807
30
0
41
1
10
294.638177661418
20
24.1703207309281
30
0
41
1
10
294.65725
20
24.1335510614993
30
0
0
SPLINE
5
17A
100
AcDbEntity
8
1
62
256
6
ByLayer
370
18
48
1
60
0
100
AcDbSpline
70
4
71
1
72
4
73
2
40
0
40
0
40
1
40
1
41
1
10
293.059042705207
20
27.6606414815843
30
0
41
1
10
292.58856405781
20
27.9823344634338
30
0
0
SPLINE
5
17B
100
AcDbEntity
8
1
62
256
6
ByLayer
370
18
48
1
60
0
100
AcDbSpline
70
4
71
3
72
13
73
9
40
0
40
0
40
0
40
0
40
0.156938698583198
40
0.349316531427329
40
0.543113493975461
40
0.71431267786017
40
0.930589975771647
40
1
40
1
40
1
40
1
41
1
10
294.555008535533
20
-5.71011512203547
30
0
41
1
10
294.554764424077
20
-5.71788257424267
30
0
41
1
10
294.556326840231
20
-5.73301995238035
30
0
41
1
10
294.565117235662
20
-5.75101916999045
30
0
41
1
10
294.58431428651
20
-5.75710963497732
30
0
41
1
10
294.612372194197
20
-5.74899564906
30
0
41
1
10
294.637679226159
20
-5.73293603487164
30
0
41
1
10
294.653396743984
20
-5.72066053655999
30
0
41
1
10
294.657250000002
20
-5.71748954371392
30
0
0
SPLINE
5
17C
100
AcDbEntity
8
1
62
256
6
ByLayer
370
18
48
1
60
0
100
AcDbSpline
70
4
71
3
72
10
73
6
40
0
40
0
40
0
40
0
40
0.23054392805293
40
0.670249368460619
40
1
40
1
40
1
40
1
41
1
10
294.555000472764
20
25.7112166191105
30
0
41
1
10
294.555973870088
20
25.6941926951023
30
0
41
1
10
294.563390370998
20
25.6424094026312
30
0
41
1
10
294.601280134767
20
25.5483980008889
30
0
41
1
10
294.638677503405
20
25.4764629670545
30
0
41
1
10
294.65725
20
25.4446939818576
30
0
0
SPLINE
5
17D
100
AcDbEntity
8
1
62
256
6
ByLayer
370
18
48
1
60
0
100
AcDbSpline
70
4
71
3
72
13
73
9
40
0
40
0
40
0
40
0
40
0.166744196503614
40
0.333420031538871
40
0.499708238098187
40
0.666788419012119
40
0.833481745095767
40
1
40
1
40
1
40
1
41
1
10
293
20
30
30
0
41
1
10
293.013888457046
20
30.0001446679326
30
0
41
1
10
293.040809370022
20
29.9563759930654
30
0
41
1
10
293.081529017272
20
29.7589906768713
30
0
41
1
10
293.11389127285
20
29.4290342374043
30
0
41
1
10
293.12976142467
20
28.9688797048101
30
0
41
1
10
293.120806684019
20
28.3809419195368
30
0
41
1
10
293.083967273989
20
27.9137582978018
30
0
41
1
10
293.059042705207
20
27.660641481585
30
0
0
SPLINE
5
17E
100
AcDbEntity
8
1
62
256
6
ByLayer
370
18
48
1
60
0
100
AcDbSpline
70
4
71
3
72
13
73
9
40
0
40
0
40
0
40
0
40
0.0632694644458502
40
0.27666384045859
40
0.491667190860397
40
0.676297285291772
40
0.911346290098113
40
1
40
1
40
1
40
1
41
1
10
294.555000929875
20
-6.75081825358064
30
0
41
1
10
294.554969985234
20
-6.75342970234351
30
0
41
1
10
294.55550091994
20
-6.76418291230981
30
0
41
1
10
294.560935326727
20
-6.77947481258402
30
0
41
1
10
294.579425426928
20
-6.78514783188438
30
0
41
1
10
294.607960906403
20
-6.77592740243695
30
0
41
1
10
294.635043745723
20
-6.75848021994964
30
0
41
1
10
294.652419939031
20
-6.74489668026594
30
0
41
1
10
294.657250000005
20
-6.74091308655227
30
0
0
SPLINE
5
17F
100
AcDbEntity
8
1
62
256
6
ByLayer
370
18
48
1
60
0
100
AcDbSpline
70
4
71
3
72
11
73
7
40
0
40
0
40
0
40
0
40
0.0302362271658362
40
0.300567593954858
40
0.740596753790164
40
1
40
1
40
1
40
1
41
1
10
294.555000725937
20
26.7508635079356
30
0
41
1
10
294.555017361135
20
26.7491477519593
30
0
41
1
10
294.555575568672
20
26.7318046022458
30
0
41
1
10
294.569149254964
20
26.6789954170123
30
0
41
1
10
294.607837049872
20
26.5985027415873
30
0
41
1
10
294.642867396602
20
26.5396035419022
30
0
41
1
10
294.65725
20
26.5172600263618
30
0
0
SPLINE
5
180
100
AcDbEntity
8
1
62
256
6
ByLayer
370
18
48
1
60
0
100
AcDbSpline
70
4
71
3
72
13
73
9
40
0
40
0
40
0
40
0
40
0.0212809377381033
40
0.238561386112185
40
0.457168607694625
40
0.649648659773466
40
0.90350849712615
40
1
40
1
40
1
40
1
41
1
10
294.555000081396
20
-7.60254562574501
30
0
41
1
10
294.55499712244
20
-7.60328523213858
30
0
41
1
10
294.555161987586
20
-7.6113772392832
30
0
41
1
10
294.559253003597
20
-7.6236047693758
30
0
41
1
10
294.57688156024
20
-7.62692444517213
30
0
41
1
10
294.605349565434
20
-7.61585804479341
30
0
41
1
10
294.633524661658
20
-7.59683292807725
30
0
41
1
10
294.652052428589
20
-7.58207319629562
30
0
41
1
10
294.657250000005
20
-7.57773774938837
30
0
0
SPLINE
5
181
100
AcDbEntity
8
1
62
256
6
ByLayer
370
18
48
1
60
0
100
AcDbSpline
70
4
71
3
72
11
73
7
40
0
40
0
40
0
40
0
40
0.0812329922284468
40
0.361133281663057
40
0.796537058091946
40
1
40
1
40
1
40
1
41
1
10
294.55500147232
20
27.6022405721771
30
0
41
1
10
294.555099462372
20
27.5984504549655
30
0
41
1
10
294.556719074078
20
27.580709703447
30
0
41
1
10
294.574802179398
20
27.5294836558492
30
0
41
1
10
294.613632517066
20
27.4603267694139
30
0
41
1
10
294.646115482642
20
27.4113458694242
30
0
41
1
10
294.65725
20
27.3954357623967
30
0
0
SPLINE
5
182
100
AcDbEntity
8
1
62
256
6
ByLayer
370
18
48
1
60
0
100
AcDbSpline
70
4
71
3
72
12
73
8
40
0
40
0
40
0
40
0
40
0.203982101215646
40
0.422892038300948
40
0.621225759785391
40
0.890379488772205
40
1
40
1
40
1
40
1
41
1
10
294.555000066086
20
-8.29208657548702
30
0
41
1
10
294.554897963952
20
-8.29830037852107
30
0
41
1
10
294.558176529177
20
-8.30717357536942
30
0
41
1
10
294.574243124086
20
-8.30847352931761
30
0
41
1
10
294.602275393741
20
-8.29559874733048
30
0
41
1
10
294.631553976018
20
-8.27482459649757
30
0
41
1
10
294.651377526233
20
-8.25863847176402
30
0
41
1
10
294.657250000007
20
-8.25364505519424
30
0
0
SPLINE
5
183
100
AcDbEntity
8
1
62
256
6
ByLayer
370
18
48
1
60
0
100
AcDbSpline
70
4
71
3
72
11
73
7
40
0
40
0
40
0
40
0
40
0.130632392229609
40
0.415548682631254
40
0.843413418810588
40
1
40
1
40
1
40
1
41
1
10
294.555000724703
20
28.2919300405605
30
0
41
1
10
294.555219444983
20
28.2869735895815
30
0
41
1
10
294.55799512545
20
28.2695849031442
30
0
41
1
10
294.580249725645
20
28.2201944449455
30
0
41
1
10
294.618700276632
20
28.1601189387494
30
0
41
1
10
294.648761892694
20
28.1187907830027
30
0
41
1
10
294.65725
20
28.1075258373112
30
0
0
SPLINE
5
184
100
AcDbEntity
8
1
62
256
6
ByLayer
370
18
48
1
60
0
100
AcDbSpline
70
4
71
3
72
12
73
8
40
0
40
0
40
0
40
0
40
0.171820385506385
40
0.389124108028783
40
0.591678114719568
40
0.873622739349976
40
1
40
1
40
1
40
1
41
1
10
294.555000312325
20
-8.83742547741925
30
0
41
1
10
294.554945951919
20
-8.84158594212342
30
0
41
1
10
294.557566085496
20
-8.8479456508417
30
0
41
1
10
294.571645644364
20
-8.84715478759569
30
0
41
1
10
294.598948282838
20
-8.83252461006487
30
0
41
1
10
294.629289303415
20
-8.80975173405261
30
0
41
1
10
294.65049089334
20
-8.79190554733768
30
0
41
1
10
294.657250000011
20
-8.78601211581952
30
0
0
SPLINE
5
185
100
AcDbEntity
8
1
62
256
6
ByLayer
370
18
48
1
60
0
100
AcDbSpline
70
4
71
3
72
11
73
7
40
0
40
0
40
0
40
0
40
0.143406160135577
40
0.41617940966099
40
0.813457131820093
40
1
40
1
40
1
40
1
41
1
10
294.555000075114
20
28.8374837408244
30
0
41
1
10
294.555218734815
20
28.8332559112073
30
0
41
1
10
294.558158421244
20
28.8190743086718
30
0
41
1
10
294.579864871635
20
28.7772067985676
30
0
41
1
10
294.617427602226
20
28.7232747229728
30
0
41
1
10
294.647143977536
20
28.685075854437
30
0
41
1
10
294.65725
20
28.6725412982299
30
0
0
SPLINE
5
186
100
AcDbEntity
8
1
62
256
6
ByLayer
370
18
48
1
60
0
100
AcDbSpline
70
4
71
3
72
12
73
8
40
0
40
0
40
0
40
0
40
0.0937750043520257
40
0.3150792939643
40
0.520086113400728
40
0.799364997268509
40
1
40
1
40
1
40
1
41
1
10
294.555000241861
20
-9.250975551376
30
0
41
1
10
294.554980723118
20
-9.25266033055196
30
0
41
1
10
294.556166673441
20
-9.25698204609553
30
0
41
1
10
294.56547045096
20
-9.25671815226704
30
0
41
1
10
294.589775411851
20
-9.24265193129516
30
0
41
1
10
294.621987058705
20
-9.21763866786431
30
0
41
1
10
294.646436280983
20
-9.19652251828051
30
0
41
1
10
294.65725
20
-9.1867908893245
30
0
0
SPLINE
5
187
100
AcDbEntity
8
1
62
256
6
ByLayer
370
18
48
1
60
0
100
AcDbSpline
70
4
71
3
72
11
73
7
40
0
40
0
40
0
40
0
40
0.151510210552037
40
0.411847092875886
40
0.780628591293174
40
1
40
1
40
1
40
1
41
1
10
294.555000030127
20
29.2510233429179
30
0
41
1
10
294.555213291713
20
29.2477351167947
30
0
41
1
10
294.558226651058
20
29.2366590343581
30
0
41
1
10
294.57901732713
20
29.2017481251854
30
0
41
1
10
294.615762487581
20
29.1531383553435
30
0
41
1
10
294.645364287079
20
29.1174078722661
30
0
41
1
10
294.65725
20
29.1035364558304
30
0
0
SPLINE
5
188
100
AcDbEntity
8
1
62
256
6
ByLayer
370
18
48
1
60
0
100
AcDbSpline
70
4
71
3
72
12
73
8
40
0
40
0
40
0
40
0
40
0.0805814427706053
40
0.294856636486439
40
0.501424598235906
40
0.795507813486105
40
1
40
1
40
1
40
1
41
1
10
294.555000074588
20
-9.54102988726207
30
0
41
1
10
294.554994909587
20
-9.54199805620341
30
0
41
1
10
294.555997909948
20
-9.54446591988109
30
0
41
1
10
294.564538790173
20
-9.54174157756298
30
0
41
1
10
294.588322652416
20
-9.52490050612498
30
0
41
1
10
294.620983720608
20
-9.49723378358651
30
0
41
1
10
294.646251711464
20
-9.47433995069364
30
0
41
1
10
294.65725
20
-9.46411154009974
30
0
0
SPLINE
5
189
100
AcDbEntity
8
1
62
256
6
ByLayer
370
18
48
1
60
0
100
AcDbSpline
70
4
71
3
72
12
73
8
40
0
40
0
40
0
40
0
40
0.0040678379005959
40
0.19325918499377
40
0.453930994611847
40
0.816503936930208
40
1
40
1
40
1
40
1
41
1
10
294.555000003065
20
29.5410513391963
30
0
41
1
10
294.555000102346
20
29.540998898705
30
0
41
1
10
294.555041908087
20
29.5384715788752
30
0
41
1
10
294.559763366211
20
29.5278958526447
30
0
41
1
10
294.583394766297
20
29.494953440049
30
0
41
1
10
294.61968179993
20
29.4515850423524
30
0
41
1
10
294.64738507519
20
29.4203496943217
30
0
41
1
10
294.657250000001
20
29.4094413032536
30
0
0
SPLINE
5
18A
100
AcDbEntity
8
1
62
256
6
ByLayer
370
18
48
1
60
0
100
AcDbSpline
70
4
71
3
72
11
73
7
40
0
40
0
40
0
40
0
40
0.231131739999579
40
0.466628672010506
40
0.825968942986361
40
1
40
1
40
1
40
1
41
1
10
294.556420372692
20
-9.71340517318358
30
0
41
1
10
294.55867953327
20
-9.71239410088867
30
0
41
1
10
294.566217544613
20
-9.70717662938001
30
0
41
1
10
294.591921726393
20
-9.68491956401674
30
0
41
1
10
294.62442260669
20
-9.65466173136031
30
0
41
1
10
294.648908641859
20
-9.63125447077218
30
0
41
1
10
294.657250000007
20
-9.62320900005927
30
0
0
SPLINE
5
18B
100
AcDbEntity
8
1
62
256
6
ByLayer
370
18
48
1
60
0
100
AcDbSpline
70
4
71
3
72
12
73
8
40
0
40
0
40
0
40
0
40
0.101523682145539
40
0.298670259603614
40
0.579960061486411
40
0.971009684658956
40
1
40
1
40
1
40
1
41
1
10
294.555000044759
20
29.7130031276509
30
0
41
1
10
294.555046733676
20
29.7123126748356
30
0
41
1
10
294.556492157933
20
29.7090003075641
30
0
41
1
10
294.567719690897
20
29.6941913394474
30
0
41
1
10
294.599047395785
20
29.6582641268284
30
0
41
1
10
294.633679505405
20
29.6209690724058
30
0
41
1
10
294.655717722443
20
29.5977282863562
30
0
41
1
10
294.65725
20
29.5961148774388
30
0
0
SPLINE
5
18C
100
AcDbEntity
8
1
62
256
6
ByLayer
370
18
48
1
60
0
100
AcDbSpline
70
4
71
3
72
12
73
8
40
0
40
0
40
0
40
0
40
0.268812720709515
40
0.597605301872777
40
0.761234284787711
40
0.896143503604592
40
1
40
1
40
1
40
1
41
1
10
13.8943375672974
20
29.9139548464691
30
0
41
1
10
13.8789102783285
20
29.9344364341763
30
0
41
1
10
13.831605345163
20
29.9775637976282
30
0
41
1
10
13.7433941200963
20
30.0291632435093
30
0
41
1
10
13.634722007306
20
30.0627691562056
30
0
41
1
10
13.5458378558719
20
30.0777080286646
30
0
41
1
10
13.4878204468283
20
30.0803887582689
30
0
41
1
10
13.4613248654052
20
30.080592760317
30
0
0
SPLINE
5
18D
100
AcDbEntity
8
1
62
256
6
ByLayer
370
18
48
1
60
0
100
AcDbSpline
70
4
71
3
72
13
73
9
40
0
40
0
40
0
40
0
40
0.0049544420437586
40
0.113866519425948
40
0.253452115449271
40
0.473535455387175
40
0.894568595884783
40
1
40
1
40
1
40
1
41
1
10
10.5386751345948
20
30.0805927603169
30
0
41
1
10
10.537450872409
20
30.0805926868535
30
0
41
1
10
10.5093477717048
20
30.0805290593978
30
0
41
1
10
10.4465510164428
20
30.0768838316286
30
0
41
1
10
10.3457330197466
20
30.058773313866
30
0
41
1
10
10.2197164028837
20
30.013815703074
30
0
41
1
10
10.1481083506258
20
29.9607825352996
30
0
41
1
10
10.1120558984644
20
29.9218822348292
30
0
41
1
10
10.1056624327026
20
29.9139548464691
30
0
0
SPLINE
5
18E
100
AcDbEntity
8
1
62
256
6
ByLayer
370
18
48
1
60
0
100
AcDbSpline
70
4
71
3
72
12
73
8
40
0
40
0
40
0
40
0
40
0.268812720709377
40
0.597605301872741
40
0.761234284787674
40
0.89614350360459
40
1
40
1
40
1
40
1
41
1
10
10.1056624327026
20
9.86941261896613
30
0
41
1
10
10.1210897216714
20
9.80723406842817
30
0
41
1
10
10.168394654837
20
9.67528895226031
30
0
41
1
10
10.2566058799036
20
9.51348309748259
30
0
41
1
10
10.365277992694
20
9.40646168968887
30
0
41
1
10
10.454162144128
20
9.35849990178995
30
0
41
1
10
10.5121795531717
20
9.34989401091092
30
0
41
1
10
10.5386751345948
20
9.349221314525
30
0
0
SPLINE
5
18F
100
AcDbEntity
8
1
62
256
6
ByLayer
370
18
48
1
60
0
100
AcDbSpline
70
4
71
3
72
13
73
9
40
0
40
0
40
0
40
0
40
0.0049544420437877
40
0.113866519426003
40
0.253452115449331
40
0.473535455387237
40
0.894568595884835
40
1
40
1
40
1
40
1
41
1
10
13.4613248654052
20
9.34922131452502
30
0
41
1
10
13.462549127591
20
9.34922155870898
30
0
41
1
10
13.4906522282952
20
9.34942610523151
30
0
41
1
10
13.5534489835572
20
9.36116231186524
30
0
41
1
10
13.6542669802534
20
9.41926340653962
30
0
41
1
10
13.7802835971163
20
9.56214647013261
30
0
41
1
10
13.8518916493741
20
9.72702906428665
30
0
41
1
10
13.8879441015356
20
9.84537467551148
30
0
41
1
10
13.8943375672974
20
9.8694126189661
30
0
0
SPLINE
5
190
100
AcDbEntity
8
1
62
256
6
ByLayer
370
18
48
1
60
0
100
AcDbSpline
70
4
71
3
72
12
73
8
40
0
40
0
40
0
40
0
40
0.268812720709501
40
0.597605301872746
40
0.76123428478768
40
0.896143503604592
40
1
40
1
40
1
40
1
41
1
10
13.8943375672974
20
-9.8694126189661
30
0
41
1
10
13.8789102783285
20
-9.80723406842812
30
0
41
1
10
13.831605345163
20
-9.67528895226027
30
0
41
1
10
13.7433941200963
20
-9.51348309748256
30
0
41
1
10
13.634722007306
20
-9.40646168968885
30
0
41
1
10
13.5458378558719
20
-9.35849990178995
30
0
41
1
10
13.4878204468283
20
-9.34989401091092
30
0
41
1
10
13.4613248654052
20
-9.34922131452502
30
0
0
SPLINE
5
191
100
AcDbEntity
8
1
62
256
6
ByLayer
370
18
48
1
60
0
100
AcDbSpline
70
4
71
3
72
13
73
9
40
0
40
0
40
0
40
0
40
0.0049544420438113
40
0.113866519426002
40
0.253452115449338
40
0.473535455387304
40
0.894568595884991
40
1
40
1
40
1
40
1
41
1
10
10.5386751345948
20
-9.34922131452503
30
0
41
1
10
10.537450872409
20
-9.34922155870898
30
0
41
1
10
10.5093477717048
20
-9.34942610523135
30
0
41
1
10
10.4465510164428
20
-9.36116231186533
30
0
41
1
10
10.3457330197465
20
-9.4192634065396
30
0
41
1
10
10.2197164028837
20
-9.56214647013267
30
0
41
1
10
10.1481083506258
20
-9.72702906428669
30
0
41
1
10
10.1120558984644
20
-9.84537467551155
30
0
41
1
10
10.1056624327026
20
-9.86941261896613
30
0
0
SPLINE
5
192
100
AcDbEntity
8
1
62
256
6
ByLayer
370
18
48
1
60
0
100
AcDbSpline
70
4
71
3
72
12
73
8
40
0
40
0
40
0
40
0
40
0.268812720709649
40
0.597605301872837
40
0.761234284787778
40
0.896143503604649
40
1
40
1
40
1
40
1
41
1
10
10.1056624327026
20
-29.9139548464691
30
0
41
1
10
10.1210897216715
20
-29.9344364341763
30
0
41
1
10
10.168394654837
20
-29.9775637976282
30
0
41
1
10
10.2566058799037
20
-30.0291632435093
30
0
41
1
10
10.365277992694
20
-30.0627691562057
30
0
41
1
10
10.4541621441281
20
-30.0777080286645
30
0
41
1
10
10.5121795531717
20
-30.0803887582689
30
0
41
1
10
10.5386751345948
20
-30.080592760317
30
0
0
SPLINE
5
193
100
AcDbEntity
8
1
62
256
6
ByLayer
370
18
48
1
60
0
100
AcDbSpline
70
4
71
3
72
13
73
9
40
0
40
0
40
0
40
0
40
0.0049544420438141
40
0.113866519426005
40
0.253452115449327
40
0.473535455387254
40
0.894568595884904
40
1
40
1
40
1
40
1
41
1
10
13.4613248654052
20
-30.080592760317
30
0
41
1
10
13.462549127591
20
-30.0805926868535
30
0
41
1
10
13.4906522282952
20
-30.0805290593975
30
0
41
1
10
13.5534489835572
20
-30.0768838316287
30
0
41
1
10
13.6542669802534
20
-30.0587733138659
30
0
41
1
10
13.7802835971163
20
-30.013815703074
30
0
41
1
10
13.8518916493742
20
-29.9607825352996
30
0
41
1
10
13.8879441015356
20
-29.9218822348292
30
0
41
1
10
13.8943375672974
20
-29.9139548464691
30
0
0
SPLINE
5
194
100
AcDbEntity
8
SK1
62
256
6
ByLayer
370
18
48
1
60
0
100
AcDbSpline
70
4
71
2
72
6
73
3
40
0
40
0
40
0
40
1
40
1
40
1
41
1
10
-0.200000000000089
20
-7.06635637915041
30
0
41
1
10
-0.0908774378592295
20
-6.8482871594545
30
0
41
1
10
-0.0226473140816548
20
-6.61412663688556
30
0
0
SPLINE
5
195
100
AcDbEntity
8
SK1
62
256
6
ByLayer
370
18
48
1
60
0
100
AcDbSpline
70
4
71
1
72
4
73
2
40
0
40
0
40
1
40
1
41
1
10
-0.0226473140816548
20
-6.61412663688556
30
0
41
1
10
-2.26E-14
20
-6.53762631735264
30
0
0
SPLINE
5
196
100
AcDbEntity
8
SK1
62
256
6
ByLayer
370
18
48
1
60
0
100
AcDbSpline
70
4
71
3
72
17
73
13
40
0
40
0
40
0
40
0
40
0.0298547527790953
40
0.052578198006911
40
0.0702552594573891
40
0.0879570282206643
40
0.111562258438715
40
0.153224651801843
40
0.282447345849141
40
0.553767947019242
40
0.826225344353765
40
1
40
1
40
1
40
1
41
1
10
-0.400000000000049
20
-6.10423156158008
30
0
41
1
10
-0.394253616263358
20
-6.09797454756709
30
0
41
1
10
-0.382913537569244
20
-6.08923142505258
30
0
41
1
10
-0.364786670968268
20
-6.08123431234803
30
0
41
1
10
-0.348123200226276
20
-6.0804818862395
30
0
41
1
10
-0.331686692288052
20
-6.08578067628336
30
0
41
1
10
-0.312103115453588
20
-6.10063829425719
30
0
41
1
10
-0.278950759627469
20
-6.14757789301996
30
0
41
1
10
-0.240075114125955
20
-6.2708407343505
30
0
41
1
10
-0.210538570778164
20
-6.46014710085136
30
0
41
1
10
-0.20220707679149
20
-6.66173364401414
30
0
41
1
10
-0.199932550514476
20
-6.78606967214937
30
0
41
1
10
-0.200000000000062
20
-6.83438537300094
30
0
0
SPLINE
5
197
100
AcDbEntity
8
SK1
62
256
6
ByLayer
370
18
48
1
60
0
100
AcDbSpline
70
4
71
3
72
17
73
13
40
0
40
0
40
0
40
0
40
0.360388834701791
40
0.519640600666497
40
0.67839891772967
40
0.772241509152276
40
0.823699029242447
40
0.861599276791073
40
0.892054497062475
40
0.922526976554756
40
0.965050194969286
40
1
40
1
40
1
40
1
41
1
10
-1.30710678118655
20
-4.69591747913022
30
0
41
1
10
-1.26951009656687
20
-4.92964404310758
30
0
41
1
10
-1.19176340545647
20
-5.2579422153627
30
0
41
1
10
-1.05845153787931
20
-5.67455265875979
30
0
41
1
10
-0.945912591166129
20
-5.91604105281958
30
0
41
1
10
-0.831518990177396
20
-6.07946520186086
30
0
41
1
10
-0.738555650587858
20
-6.16058876265616
30
0
41
1
10
-0.663094378710056
20
-6.19662231403712
30
0
41
1
10
-0.593007090783791
20
-6.20557486895366
30
0
41
1
10
-0.520694131435162
20
-6.19149467219484
30
0
41
1
10
-0.455543672786569
20
-6.15430434256451
30
0
41
1
10
-0.41620534051347
20
-6.12122792076277
30
0
41
1
10
-0.400000000000049
20
-6.10423156158008
30
0
0
SPLINE
5
198
100
AcDbEntity
8
SK1
62
256
6
ByLayer
370
18
48
1
60
0
100
AcDbSpline
70
4
71
3
72
17
73
13
40
0
40
0
40
0
40
0
40
0.0428240807904635
40
0.0860264986202464
40
0.116365121966661
40
0.146702344469371
40
0.190290998791686
40
0.271171318917586
40
0.405589755792736
40
0.540658493132764
40
0.770235905399022
40
1
40
1
40
1
40
1
41
1
10
-0.40000000000005
20
6.10423197315534
30
0
41
1
10
-0.41981193980787
20
6.12545634712005
30
0
41
1
10
-0.464215810549309
20
6.16118054942612
30
0
41
1
10
-0.537404296379805
20
6.19762954520598
30
0
41
1
10
-0.611358310763094
20
6.20533675022222
30
0
41
1
10
-0.683800317523165
20
6.18970784507662
30
0
41
1
10
-0.776263428667177
20
6.13544055421006
30
0
41
1
10
-0.890570771917318
20
6.00617655880065
30
0
41
1
10
-1.00159332888065
20
5.80742857092608
30
0
41
1
10
-1.1159204496703
20
5.50690539843637
30
0
41
1
10
-1.2209539259083
20
5.13705997602487
30
0
41
1
10
-1.28227297420907
20
4.84440881641285
30
0
41
1
10
-1.30710678118655
20
4.69591515673877
30
0
0
SPLINE
5
199
100
AcDbEntity
8
SK1
62
256
6
ByLayer
370
18
48
1
60
0
100
AcDbSpline
70
4
71
3
72
17
73
13
40
0
40
0
40
0
40
0
40
0.457633424849974
40
0.67027448296458
40
0.777135339777238
40
0.855324815689425
40
0.882088585193544
40
0.909057217927397
40
0.9270273315596
40
0.945054321714209
40
0.967246413769247
40
1
40
1
40
1
40
1
41
1
10
-0.200000000000049
20
6.83438539664966
30
0
41
1
10
-0.19628855547743
20
6.70659076258015
30
0
41
1
10
-0.206710872223509
20
6.51939672024762
30
0
41
1
10
-0.235891573374867
20
6.29989326841263
30
0
41
1
10
-0.264954443748576
20
6.18942720275304
30
0
41
1
10
-0.289286076797238
20
6.13229386341347
30
0
41
1
10
-0.312333470522282
20
6.10132427523637
30
0
41
1
10
-0.328516525282539
20
6.08745968733143
30
0
41
1
10
-0.34576018447529
20
6.08083833453206
30
0
41
1
10
-0.362547690295123
20
6.08071787621869
30
0
41
1
10
-0.38172696305778
20
6.08831704427054
30
0
41
1
10
-0.39369162359809
20
6.09726577368612
30
0
41
1
10
-0.400000000000049
20
6.10423197315534
30
0
0
SPLINE
5
19A
100
AcDbEntity
8
SK1
62
256
6
ByLayer
370
18
48
1
60
0
100
AcDbSpline
70
4
71
2
72
6
73
3
40
0
40
0
40
0
40
1
40
1
40
1
41
1
10
-2.51E-14
20
6.5376264469174
30
0
41
1
10
-0.0701685688190141
20
6.81436012170808
30
0
41
1
10
-0.200000000000397
20
7.0663565904932
30
0
0
SPLINE
5
19B
100
AcDbEntity
8
SK1
62
256
6
ByLayer
370
18
48
1
60
0
100
AcDbSpline
70
4
71
2
72
6
73
3
40
0
40
0
40
0
40
1
40
1
40
1
41
1
10
-3
20
22.0000004375346
30
0
41
1
10
-19.7502365839533
20
21.5791761834949
30
0
41
1
10
-36.5004731679067
20
21.1583519294552
30
0
0
SPLINE
5
19C
100
AcDbEntity
8
SK1
62
256
6
ByLayer
370
18
48
1
60
0
100
AcDbSpline
70
4
71
2
72
6
73
3
40
0
40
0
40
0
40
1
40
1
40
1
41
1
10
-36.5004731679067
20
-21.1583519212895
30
0
41
1
10
-19.7502365839533
20
-21.5791761751668
30
0
41
1
10
-3
20
-22.0000004290441
30
0
0
SPLINE
5
19D
100
AcDbEntity
8
SK1
62
256
6
ByLayer
370
18
48
1
60
0
100
AcDbSpline
70
4
71
3
72
17
73
13
40
0
40
0
40
0
40
0
40
0.05802250217143
40
0.118348646683329
40
0.23904560972145
40
0.359733865206065
40
0.420057338372256
40
0.540737215820521
40
0.661413456711566
40
0.782087095625332
40
0.890936363871378
40
1
40
1
40
1
40
1
41
1
10
-2.1999369715594
20
22.0201008059928
30
0
41
1
10
-2.19994111039233
20
22.0199534703522
30
0
41
1
10
-2.19994895187911
20
22.0110355150373
30
0
41
1
10
-2.19996201027101
20
21.95673198262
30
0
41
1
10
-2.19997487537822
20
21.8226368730382
30
0
41
1
10
-2.1999836282154
20
21.6082265291292
30
0
41
1
10
-2.19999009564896
20
21.3379022147511
30
0
41
1
10
-2.19999459160162
20
21.0133951954851
30
0
41
1
10
-2.19999774021868
20
20.5423530489728
30
0
41
1
10
-2.19999929933425
20
20.0117273492259
30
0
41
1
10
-2.19999990715402
20
19.4326140671218
30
0
41
1
10
-2.20000002952678
20
19.02140556981
30
0
41
1
10
-2.2
20
18.8057993596818
30
0
0
SPLINE
5
19E
100
AcDbEntity
8
SK1
62
256
6
ByLayer
370
18
48
1
60
0
100
AcDbSpline
70
4
71
1
72
4
73
2
40
0
40
0
40
1
40
1
41
1
10
-2.1949248885741
20
22.0202267269672
30
0
41
1
10
-2.20680206555644
20
22.0199283309345
30
0
0
SPLINE
5
19F
100
AcDbEntity
8
SK1
62
256
6
ByLayer
370
18
48
1
60
0
100
AcDbSpline
70
4
71
2
72
6
73
3
40
0
40
0
40
0
40
1
40
1
40
1
41
1
10
-2.20680206555644
20
22.0199283309345
30
0
41
1
10
-2.60340103277822
20
22.0099643842345
30
0
41
1
10
-3
20
22.0000004375346
30
0
0
SPLINE
5
1A0
100
AcDbEntity
8
SK1
62
256
6
ByLayer
370
18
48
1
60
0
100
AcDbSpline
70
4
71
2
72
6
73
3
40
0
40
0
40
0
40
1
40
1
40
1
41
1
10
-3
20
-22.0000004290441
30
0
41
1
10
-2.60518235475303
20
-22.0099196227311
30
0
41
1
10
-2.21036470950606
20
-22.019838816418
30
0
0
SPLINE
5
1A1
100
AcDbEntity
8
SK1
62
256
6
ByLayer
370
18
48
1
60
0
100
AcDbSpline
70
4
71
1
72
4
73
2
40
0
40
0
40
1
40
1
41
1
10
-2.21036470950606
20
-22.019838816418
30
0
41
1
10
-2.1949248885741
20
-22.0202267184689
30
0
0
SPLINE
5
1A2
100
AcDbEntity
8
SK1
62
256
6
ByLayer
370
18
48
1
60
0
100
AcDbSpline
70
4
71
3
72
17
73
13
40
0
40
0
40
0
40
0
40
0.110687715864243
40
0.221598832441259
40
0.401505980701359
40
0.491413086613026
40
0.581321307758235
40
0.671230942573734
40
0.761142395498122
40
0.851056195500553
40
0.940973208109431
40
1
40
1
40
1
40
1
41
1
10
-2.2
20
-18.8057994981525
30
0
41
1
10
-2.20000003103069
20
-19.0246237171162
30
0
41
1
10
-2.19999990450804
20
-19.4425012451433
30
0
41
1
10
-2.19999916418251
20
-20.1274238366396
30
0
41
1
10
-2.19999717995272
20
-20.6829072947467
30
0
41
1
10
-2.19999322568005
20
-21.1192240035044
30
0
41
1
10
-2.19998888045221
20
-21.4003821399875
30
0
41
1
10
-2.1999827900086
20
-21.6334064688807
30
0
41
1
10
-2.19997446616065
20
-21.8158350479727
30
0
41
1
10
-2.1999635375559
20
-21.9447098349005
30
0
41
1
10
-2.19995101539095
20
-22.0085414008449
30
0
41
1
10
-2.19994116247006
20
-22.019913752436
30
0
41
1
10
-2.19993697064149
20
-22.020100797442
30
0
0
SPLINE
5
1A3
100
AcDbEntity
8
SK1
62
256
6
ByLayer
370
18
48
1
60
0
100
AcDbSpline
70
4
71
3
72
13
73
9
40
0
40
0
40
0
40
0
40
0.239458034039705
40
0.368362242523276
40
0.500001719408241
40
0.631640907399708
40
0.760544321541671
40
1
40
1
40
1
40
1
41
1
10
-2
20
21.8251283317571
30
0
41
1
10
-2.02607218220657
20
21.8253815759776
30
0
41
1
10
-2.06363558166034
20
21.832499461233
30
0
41
1
10
-2.11047835037541
20
21.8567272581279
30
0
41
1
10
-2.14242263587786
20
21.8827049843058
30
0
41
1
10
-2.16840067179329
20
21.9146489043199
30
0
41
1
10
-2.19262875645049
20
21.9614911190379
30
0
41
1
10
-2.19974671976325
20
21.9990541435572
30
0
41
1
10
-2.2
20
22.0251260837645
30
0
0
SPLINE
5
1A4
100
AcDbEntity
8
SK1
62
256
6
ByLayer
370
18
48
1
60
0
100
AcDbSpline
70
4
71
3
72
13
73
9
40
0
40
0
40
0
40
0
40
0.239455673358913
40
0.368359087136628
40
0.499998275767228
40
0.631637753936906
40
0.760541963956603
40
1
40
1
40
1
40
1
41
1
10
-2.2
20
-22.0251260775077
30
0
41
1
10
-2.19974671959666
20
-21.9990541369822
30
0
41
1
10
-2.19262875626099
20
-21.9614911120955
30
0
41
1
10
-2.16840067169747
20
-21.9146488976998
30
0
41
1
10
-2.14242263580763
20
-21.8827049776713
30
0
41
1
10
-2.11047835033027
20
-21.8567272514908
30
0
41
1
10
-2.06363558177699
20
-21.8324994546095
30
0
41
1
10
-2.02607218225584
20
-21.8253815693237
30
0
41
1
10
-2
20
-21.8251283250689
30
0
0
SPLINE
5
1A5
100
AcDbEntity
8
SK1
62
256
6
ByLayer
370
18
48
1
60
0
100
AcDbSpline
70
4
71
3
72
17
73
13
40
0
40
0
40
0
40
0
40
0.16508119161326
40
0.248797061165655
40
0.332496679566273
40
0.4152778257439
40
0.498046968683712
40
0.583249585425342
40
0.668465384839874
40
0.750712143588914
40
0.8329741026578
40
1
40
1
40
1
40
1
41
1
10
-1.30710678118655
20
-4.69591747913022
30
0
41
1
10
-1.39798477932826
20
-4.20540076485722
30
0
41
1
10
-1.51864992901832
20
-3.45199087458013
30
0
41
1
10
-1.65120335434383
20
-2.41585133978331
30
0
41
1
10
-1.72812095010369
20
-1.62293542031028
30
0
41
1
10
-1.77718425553148
20
-0.82244658042709
30
0
41
1
10
-1.79522923957652
20
-0.0111379780860681
30
0
41
1
10
-1.77806664947628
20
0.808218120760719
30
0
41
1
10
-1.72842463498329
20
1.61975783719164
30
0
41
1
10
-1.65159875379371
20
2.41111733942194
30
0
41
1
10
-1.51984228358818
20
3.44452139763647
30
0
41
1
10
-1.39909887084114
20
4.19959953418671
30
0
41
1
10
-1.30710678118656
20
4.69591515673877
30
0
0
SPLINE
5
1A6
100
AcDbEntity
8
SK1
62
256
6
ByLayer
370
18
48
1
60
0
100
AcDbSpline
70
4
71
2
72
6
73
3
40
0
40
0
40
0
40
1
40
1
40
1
41
1
10
-2
20
-21.8251283250689
30
0
41
1
10
-1.20000000000001
20
-21.8251283250689
30
0
41
1
10
-0.400000000000019
20
-21.8251283250689
30
0
0
SPLINE
5
1A7
100
AcDbEntity
8
SK1
62
256
6
ByLayer
370
18
48
1
60
0
100
AcDbSpline
70
4
71
2
72
6
73
3
40
0
40
0
40
0
40
1
40
1
40
1
41
1
10
-0.400000000000019
20
21.8251283317571
30
0
41
1
10
-1.20000000000001
20
21.8251283317571
30
0
41
1
10
-2
20
21.8251283317571
30
0
0
SPLINE
5
1A8
100
AcDbEntity
8
SK1
62
256
6
ByLayer
370
18
48
1
60
0
100
AcDbSpline
70
4
71
2
72
6
73
3
40
0
40
0
40
0
40
1
40
1
40
1
41
1
10
-36.5004321682704
20
21.1581061531923
30
0
41
1
10
-37.250216097561
20
20.6997323883077
30
0
41
1
10
-38
20
20.2413583528791
30
0
0
SPLINE
5
1A9
100
AcDbEntity
8
SK1
62
256
6
ByLayer
370
18
48
1
60
0
100
AcDbSpline
70
4
71
2
72
6
73
3
40
0
40
0
40
0
40
1
40
1
40
1
41
1
10
-38
20
-20.2397162883162
30
0
41
1
10
-37.2502068935606
20
-20.6982812567361
30
0
41
1
10
-36.500413873027
20
-21.1568446673342
30
0
0
SPLINE
5
1AA
100
AcDbEntity
8
SK1
62
256
6
ByLayer
370
18
48
1
60
0
100
AcDbSpline
70
4
71
3
72
16
73
12
40
0
40
0
40
0
40
0
40
0.364843755239059
40
0.438264665950732
40
0.502559692640952
40
0.561145902141926
40
0.590896276431408
40
0.622649211855402
40
0.697422389592585
40
0.795291806319464
40
1
40
1
40
1
40
1
41
1
10
-0.400000000000019
20
-21.8251283250689
30
0
41
1
10
-0.390604659320629
20
-21.8244677899363
30
0
41
1
10
-0.375777355945149
20
-21.8259169458727
30
0
41
1
10
-0.354943834900732
20
-21.8301137134804
30
0
41
1
10
-0.345440387493047
20
-21.8325381240732
30
0
41
1
10
-0.33713251305207
20
-21.8351212638499
30
0
41
1
10
-0.330841808626839
20
-21.8373542026795
30
0
41
1
10
-0.324198727790458
20
-21.8399060929045
30
0
41
1
10
-0.315890408366848
20
-21.8435145006078
30
0
41
1
10
-0.304746465369965
20
-21.8490940953945
30
0
41
1
10
-0.298006277518849
20
-21.8528581494286
30
0
41
1
10
-0.294864998971673
20
-21.8549890547624
30
0
0
SPLINE
5
1AB
100
AcDbEntity
8
SK1
62
256
6
ByLayer
370
18
48
1
60
0
100
AcDbSpline
70
4
71
3
72
11
73
7
40
0
40
0
40
0
40
0
40
0.0552291375986852
40
0.213689577879209
40
0.62289648225362
40
1
40
1
40
1
40
1
41
1
10
-0.294864998971673
20
-21.8549890547624
30
0
41
1
10
-0.290216631084812
20
-21.8579922290321
30
0
41
1
10
-0.273526490458734
20
-21.8691065112696
30
0
41
1
10
-0.247141487646985
20
-21.8930299449347
30
0
41
1
10
-0.224354955877282
20
-21.9214181070131
30
0
41
1
10
-0.212635390757692
20
-21.9394382286858
30
0
41
1
10
-0.209674875085744
20
-21.946515511193
30
0
0
SPLINE
5
1AC
100
AcDbEntity
8
SK1
62
256
6
ByLayer
370
18
48
1
60
0
100
AcDbSpline
70
4
71
1
72
4
73
2
40
0
40
0
40
1
40
1
41
1
10
-2.49E-14
20
-7.47795498707187
30
0
41
1
10
-0.2
20
-7.45410184860193
30
0
0
SPLINE
5
1AD
100
AcDbEntity
8
SK1
62
256
6
ByLayer
370
18
48
1
60
0
100
AcDbSpline
70
4
71
1
72
4
73
2
40
0
40
0
40
1
40
1
41
1
10
-0.20000000000006
20
-7.06635637915059
30
0
41
1
10
-0.20000000000006
20
-7.45410184860193
30
0
0
SPLINE
5
1AE
100
AcDbEntity
8
SK1
62
256
6
ByLayer
370
18
48
1
60
0
100
AcDbSpline
70
4
71
1
72
4
73
2
40
0
40
0
40
1
40
1
41
1
10
-0.20000000000006
20
7.45410255809306
30
0
41
1
10
-0.20000000000006
20
7.0663565904932
30
0
0
SPLINE
5
1AF
100
AcDbEntity
8
SK1
62
256
6
ByLayer
370
18
48
1
60
0
100
AcDbSpline
70
4
71
1
72
4
73
2
40
0
40
0
40
1
40
1
41
1
10
-0.2
20
7.45410255809307
30
0
41
1
10
-2.49E-14
20
7.47795571927755
30
0
0
SPLINE
5
1B0
100
AcDbEntity
8
SK1
62
256
6
ByLayer
370
18
48
1
60
0
100
AcDbSpline
70
4
71
3
72
21
73
17
40
0
40
0
40
0
40
0
40
0.266740665119978
40
0.542753416939952
40
0.704987784238329
40
0.746297078147175
40
0.758903451773549
40
0.763634932558066
40
0.767610447081355
40
0.771174217202555
40
0.774735301839256
40
0.778655368518831
40
0.783170941611854
40
0.808636104145112
40
0.892207370419724
40
1
40
1
40
1
40
1
41
1
10
-0.205098628252128
20
21.9656846630301
30
0
41
1
10
-0.206603667099119
20
21.9618491696173
30
0
41
1
10
-0.213128118682537
20
21.9492549735724
30
0
41
1
10
-0.227068092150019
20
21.9237182270559
30
0
41
1
10
-0.245556112415675
20
21.8956337197254
30
0
41
1
10
-0.267822434158461
20
21.8729537743078
30
0
41
1
10
-0.279672291563407
20
21.8632984802186
30
0
41
1
10
-0.285884984066638
20
21.8587638747809
30
0
41
1
10
-0.290271368274116
20
21.8557616121883
30
0
41
1
10
-0.294839670826391
20
21.8528389024438
30
0
41
1
10
-0.299438538169337
20
21.8500967243401
30
0
41
1
10
-0.303963380400936
20
21.8475818371075
30
0
41
1
10
-0.315037133435257
20
21.8418614936857
30
0
41
1
10
-0.339272370101872
20
21.8323057882051
30
0
41
1
10
-0.366934076937239
20
21.8269525193025
30
0
41
1
10
-0.390048069436675
20
21.8242656569877
30
0
41
1
10
-0.400000000000019
20
21.8251283317571
30
0
0
INSERT
5
1E6
100
AcDbEntity
8
2
62
256
6
ByLayer
370
25
48
1
60
0
100
AcDbBlockReference
2
DimnDraft3D55
10
0
20
0
30
0
41
1
42
1
43
1
50
0
210
0
220
0
230
1
0
LINE
5
70
100
AcDbEntity
8
81
62
256
6
ByLayer
370
18
48
1
60
0
100
AcDbLine
10
295
20
10
30
0
11
324.5
21
10
31
0
39
0
210
0
220
0
230
1
0
LINE
5
71
100
AcDbEntity
8
4
62
256
6
ByLayer
370
18
48
0.05
60
0
100
AcDbLine
10
0
20
0
30
0
11
295
21
0
31
0
39
0
210
0
220
0
230
1
0
LINE
5
73
100
AcDbEntity
8
SK4
62
256
6
ByLayer
370
18
48
0.05
60
0
100
AcDbLine
10
-43
20
0
30
0
11
300
21
0
31
0
39
0
210
0
220
0
230
1
0
LINE
5
75
100
AcDbEntity
8
80
62
256
6
ByLayer
370
18
48
1
60
0
100
AcDbLine
10
0
20
0
30
0
11
-29.5
21
0
31
0
39
0
210
0
220
0
230
1
0
LINE
5
76
100
AcDbEntity
8
1
62
256
6
ByLayer
370
18
48
1
60
0
100
AcDbLine
10
292.5
20
-30
30
0
11
293
21
-29.5
31
0
39
0
210
0
220
0
230
1
0
LINE
5
78
100
AcDbEntity
8
1
62
256
6
ByLayer
370
18
48
1
60
0
100
AcDbLine
10
291.4
20
-30
30
0
11
292.5
21
-30
31
0
39
0
210
0
220
0
230
1
0
LINE
5
79
100
AcDbEntity
8
1
62
256
6
ByLayer
370
18
48
1
60
0
100
AcDbLine
10
293
20
30
30
0
11
291.4
21
30
31
0
39
0
210
0
220
0
230
1
0
LINE
5
7A
100
AcDbEntity
8
1
62
256
6
ByLayer
370
18
48
1
60
0
100
AcDbLine
10
294.325
20
-10
30
0
11
294.556678
21
-9.768322
31
0
39
0
210
0
220
0
230
1
0
LINE
5
7B
100
AcDbEntity
8
1
62
256
6
ByLayer
370
18
48
1
60
0
100
AcDbLine
10
294.556678
20
29.768322
30
0
11
294.325
21
30
31
0
39
0
210
0
220
0
230
1
0
LINE
5
7C
100
AcDbEntity
8
1
62
256
6
ByLayer
370
18
48
1
60
0
100
AcDbLine
10
294
20
-10
30
0
11
294.325
21
-10
31
0
39
0
210
0
220
0
230
1
0
LINE
5
7D
100
AcDbEntity
8
1
62
256
6
ByLayer
370
18
48
1
60
0
100
AcDbLine
10
294.325
20
30
30
0
11
293
21
30
31
0
39
0
210
0
220
0
230
1
0
LINE
5
7E
100
AcDbEntity
8
1
62
256
6
ByLayer
370
18
48
1
60
0
100
AcDbLine
10
294.65725
20
13.66688
30
0
11
294.65725
21
6.33312
31
0
39
0
210
0
220
0
230
1
0
LINE
5
7F
100
AcDbEntity
8
1
62
256
6
ByLayer
370
18
48
1
60
0
100
AcDbLine
10
295.325
20
11.541407
30
0
11
295.325
21
8.458593
31
0
39
0
210
0
220
0
230
1
0
LINE
5
80
100
AcDbEntity
8
1
62
256
6
ByLayer
370
18
48
1
60
0
100
AcDbLine
10
294.65725
20
18.316532
30
0
11
294.65725
21
17.510882
31
0
39
0
210
0
220
0
230
1
0
LINE
5
81
100
AcDbEntity
8
1
62
256
6
ByLayer
370
18
48
1
60
0
100
AcDbLine
10
294.65725
20
2.489118
30
0
11
294.65725
21
1.683468
31
0
39
0
210
0
220
0
230
1
0
LINE
5
82
100
AcDbEntity
8
1
62
256
6
ByLayer
370
18
48
1
60
0
100
AcDbLine
10
295.325
20
17.545731
30
0
11
295.325
21
14.053252
31
0
39
0
210
0
220
0
230
1
0
LINE
5
83
100
AcDbEntity
8
1
62
256
6
ByLayer
370
18
48
1
60
0
100
AcDbLine
10
295.325
20
5.946748
30
0
11
295.325
21
2.454269
31
0
39
0
210
0
220
0
230
1
0
LINE
5
84
100
AcDbEntity
8
1
62
256
6
ByLayer
370
18
48
1
60
0
100
AcDbLine
10
294.65725
20
20.971937
30
0
11
294.65725
21
20.425673
31
0
39
0
210
0
220
0
230
1
0
LINE
5
85
100
AcDbEntity
8
1
62
256
6
ByLayer
370
18
48
1
60
0
100
AcDbLine
10
294.65725
20
-0.425673
30
0
11
294.65725
21
-0.971937
31
0
39
0
210
0
220
0
230
1
0
LINE
5
86
100
AcDbEntity
8
1
62
256
6
ByLayer
370
18
48
1
60
0
100
AcDbLine
10
295.325
20
20.344089
30
0
11
295.325
21
18.358632
31
0
39
0
210
0
220
0
230
1
0
LINE
5
87
100
AcDbEntity
8
1
62
256
6
ByLayer
370
18
48
1
60
0
100
AcDbLine
10
295.325
20
1.641368
30
0
11
295.325
21
-0.344089
31
0
39
0
210
0
220
0
230
1
0
LINE
5
88
100
AcDbEntity
8
1
62
256
6
ByLayer
370
18
48
1
60
0
100
AcDbLine
10
294.65725
20
22.926797
30
0
11
294.65725
21
22.509035
31
0
39
0
210
0
220
0
230
1
0
LINE
5
89
100
AcDbEntity
8
1
62
256
6
ByLayer
370
18
48
1
60
0
100
AcDbLine
10
294.65725
20
-2.509035
30
0
11
294.65725
21
-2.926797
31
0
39
0
210
0
220
0
230
1
0
LINE
5
8A
100
AcDbEntity
8
1
62
256
6
ByLayer
370
18
48
1
60
0
100
AcDbLine
10
295.325
20
22.351611
30
0
11
295.325
21
20.899753
31
0
39
0
210
0
220
0
230
1
0
LINE
5
8B
100
AcDbEntity
8
1
62
256
6
ByLayer
370
18
48
1
60
0
100
AcDbLine
10
295.325
20
-0.899753
30
0
11
295.325
21
-2.351611
31
0
39
0
210
0
220
0
230
1
0
LINE
5
8C
100
AcDbEntity
8
1
62
256
6
ByLayer
370
18
48
1
60
0
100
AcDbLine
10
294.65725
20
24.467923
30
0
11
294.65725
21
24.133551
31
0
39
0
210
0
220
0
230
1
0
LINE
5
8D
100
AcDbEntity
8
1
62
256
6
ByLayer
370
18
48
1
60
0
100
AcDbLine
10
294.65725
20
-4.133551
30
0
11
294.65725
21
-4.467923
31
0
39
0
210
0
220
0
230
1
0
LINE
5
8E
100
AcDbEntity
8
1
62
256
6
ByLayer
370
18
48
1
60
0
100
AcDbLine
10
295.325
20
-2.776639
30
0
11
295.325
21
-3.914899
31
0
39
0
210
0
220
0
230
1
0
LINE
5
8F
100
AcDbEntity
8
1
62
256
6
ByLayer
370
18
48
1
60
0
100
AcDbLine
10
295.325
20
23.914899
30
0
11
295.325
21
22.776639
31
0
39
0
210
0
220
0
230
1
0
LINE
5
90
100
AcDbEntity
8
1
62
256
6
ByLayer
370
18
48
1
60
0
100
AcDbLine
10
294.65725
20
-5.444694
30
0
11
294.65725
21
-5.71749
31
0
39
0
210
0
220
0
230
1
0
LINE
5
91
100
AcDbEntity
8
1
62
256
6
ByLayer
370
18
48
1
60
0
100
AcDbLine
10
294.65725
20
25.71749
30
0
11
294.65725
21
25.444694
31
0
39
0
210
0
220
0
230
1
0
LINE
5
92
100
AcDbEntity
8
1
62
256
6
ByLayer
370
18
48
1
60
0
100
AcDbLine
10
295.325
20
-4.254136
30
0
11
295.325
21
-5.171899
31
0
39
0
210
0
220
0
230
1
0
LINE
5
93
100
AcDbEntity
8
1
62
256
6
ByLayer
370
18
48
1
60
0
100
AcDbLine
10
295.325
20
25.171899
30
0
11
295.325
21
24.254136
31
0
39
0
210
0
220
0
230
1
0
LINE
5
94
100
AcDbEntity
8
1
62
256
6
ByLayer
370
18
48
1
60
0
100
AcDbLine
10
294.65725
20
-6.51726
30
0
11
294.65725
21
-6.740913
31
0
39
0
210
0
220
0
230
1
0
LINE
5
95
100
AcDbEntity
8
1
62
256
6
ByLayer
370
18
48
1
60
0
100
AcDbLine
10
294.65725
20
26.740913
30
0
11
294.65725
21
26.51726
31
0
39
0
210
0
220
0
230
1
0
LINE
5
96
100
AcDbEntity
8
1
62
256
6
ByLayer
370
18
48
1
60
0
100
AcDbLine
10
295.325
20
-5.447274
30
0
11
295.325
21
-6.194093
31
0
39
0
210
0
220
0
230
1
0
LINE
5
97
100
AcDbEntity
8
1
62
256
6
ByLayer
370
18
48
1
60
0
100
AcDbLine
10
295.325
20
26.194093
30
0
11
295.325
21
25.447274
31
0
39
0
210
0
220
0
230
1
0
LINE
5
98
100
AcDbEntity
8
1
62
256
6
ByLayer
370
18
48
1
60
0
100
AcDbLine
10
294.65725
20
-7.395436
30
0
11
294.65725
21
-7.577738
31
0
39
0
210
0
220
0
230
1
0
LINE
5
99
100
AcDbEntity
8
1
62
256
6
ByLayer
370
18
48
1
60
0
100
AcDbLine
10
294.65725
20
27.577738
30
0
11
294.65725
21
27.395436
31
0
39
0
210
0
220
0
230
1
0
LINE
5
9A
100
AcDbEntity
8
1
62
256
6
ByLayer
370
18
48
1
60
0
100
AcDbLine
10
295.325
20
-6.418165
30
0
11
295.325
21
-7.023829
31
0
39
0
210
0
220
0
230
1
0
LINE
5
9B
100
AcDbEntity
8
1
62
256
6
ByLayer
370
18
48
1
60
0
100
AcDbLine
10
295.325
20
27.023829
30
0
11
295.325
21
26.418165
31
0
39
0
210
0
220
0
230
1
0
LINE
5
9C
100
AcDbEntity
8
1
62
256
6
ByLayer
370
18
48
1
60
0
100
AcDbLine
10
294.65725
20
-8.107526
30
0
11
294.65725
21
-8.253645
31
0
39
0
210
0
220
0
230
1
0
LINE
5
9D
100
AcDbEntity
8
1
62
256
6
ByLayer
370
18
48
1
60
0
100
AcDbLine
10
294.65725
20
28.253645
30
0
11
294.65725
21
28.107526
31
0
39
0
210
0
220
0
230
1
0
LINE
5
9E
100
AcDbEntity
8
1
62
256
6
ByLayer
370
18
48
1
60
0
100
AcDbLine
10
295.325
20
27.688213
30
0
11
295.325
21
27.204477
31
0
39
0
210
0
220
0
230
1
0
LINE
5
9F
100
AcDbEntity
8
1
62
256
6
ByLayer
370
18
48
1
60
0
100
AcDbLine
10
295.325
20
-7.204477
30
0
11
295.325
21
-7.688213
31
0
39
0
210
0
220
0
230
1
0
LINE
5
A0
100
AcDbEntity
8
1
62
256
6
ByLayer
370
18
48
1
60
0
100
AcDbLine
10
294.65725
20
28.786012
30
0
11
294.65725
21
28.672541
31
0
39
0
210
0
220
0
230
1
0
LINE
5
A1
100
AcDbEntity
8
1
62
256
6
ByLayer
370
18
48
1
60
0
100
AcDbLine
10
294.65725
20
-8.672541
30
0
11
294.65725
21
-8.786012
31
0
39
0
210
0
220
0
230
1
0
LINE
5
A2
100
AcDbEntity
8
1
62
256
6
ByLayer
370
18
48
1
60
0
100
AcDbLine
10
295.325
20
28.205356
30
0
11
295.325
21
27.830645
31
0
39
0
210
0
220
0
230
1
0
LINE
5
A3
100
AcDbEntity
8
1
62
256
6
ByLayer
370
18
48
1
60
0
100
AcDbLine
10
295.325
20
-7.830645
30
0
11
295.325
21
-8.205356
31
0
39
0
210
0
220
0
230
1
0
LINE
5
A4
100
AcDbEntity
8
1
62
256
6
ByLayer
370
18
48
1
60
0
100
AcDbLine
10
294.65725
20
-9.103536
30
0
11
294.65725
21
-9.186791
31
0
39
0
210
0
220
0
230
1
0
LINE
5
A5
100
AcDbEntity
8
1
62
256
6
ByLayer
370
18
48
1
60
0
100
AcDbLine
10
294.65725
20
29.186791
30
0
11
294.65725
21
29.103536
31
0
39
0
210
0
220
0
230
1
0
LINE
5
A6
100
AcDbEntity
8
1
62
256
6
ByLayer
370
18
48
1
60
0
100
AcDbLine
10
295.325
20
28.587552
30
0
11
295.325
21
28.313105
31
0
39
0
210
0
220
0
230
1
0
LINE
5
A7
100
AcDbEntity
8
1
62
256
6
ByLayer
370
18
48
1
60
0
100
AcDbLine
10
295.325
20
-8.313105
30
0
11
295.325
21
-8.587552
31
0
39
0
210
0
220
0
230
1
0
LINE
5
A8
100
AcDbEntity
8
1
62
256
6
ByLayer
370
18
48
1
60
0
100
AcDbLine
10
294.65725
20
-9.409441
30
0
11
294.65725
21
-9.464112
31
0
39
0
210
0
220
0
230
1
0
LINE
5
A9
100
AcDbEntity
8
1
62
256
6
ByLayer
370
18
48
1
60
0
100
AcDbLine
10
294.65725
20
29.464112
30
0
11
294.65725
21
29.409441
31
0
39
0
210
0
220
0
230
1
0
LINE
5
AA
100
AcDbEntity
8
1
62
256
6
ByLayer
370
18
48
1
60
0
100
AcDbLine
10
295.325
20
28.843015
30
0
11
295.325
21
28.663003
31
0
39
0
210
0
220
0
230
1
0
LINE
5
AB
100
AcDbEntity
8
1
62
256
6
ByLayer
370
18
48
1
60
0
100
AcDbLine
10
295.325
20
-8.663003
30
0
11
295.325
21
-8.843015
31
0
39
0
210
0
220
0
230
1
0
LINE
5
AC
100
AcDbEntity
8
1
62
256
6
ByLayer
370
18
48
1
60
0
100
AcDbLine
10
294.65725
20
-9.596115
30
0
11
294.65725
21
-9.623209
31
0
39
0
210
0
220
0
230
1
0
LINE
5
AD
100
AcDbEntity
8
1
62
256
6
ByLayer
370
18
48
1
60
0
100
AcDbLine
10
294.65725
20
29.623209
30
0
11
294.65725
21
29.596115
31
0
39
0
210
0
220
0
230
1
0
LINE
5
AE
100
AcDbEntity
8
1
62
256
6
ByLayer
370
18
48
1
60
0
100
AcDbLine
10
295.325
20
28.976863
30
0
11
295.325
21
28.887709
31
0
39
0
210
0
220
0
230
1
0
LINE
5
AF
100
AcDbEntity
8
1
62
256
6
ByLayer
370
18
48
1
60
0
100
AcDbLine
10
295.325
20
-8.887709
30
0
11
295.325
21
-8.976863
31
0
39
0
210
0
220
0
230
1
0
LINE
5
B0
100
AcDbEntity
8
SK1
62
256
6
ByLayer
370
18
48
1
60
0
100
AcDbLine
10
305
20
24.899495
30
0
11
299
21
24.899495
31
0
39
0
210
0
220
0
230
1
0
LINE
5
B2
100
AcDbEntity
8
SK1
62
256
6
ByLayer
370
18
48
1
60
0
100
AcDbLine
10
299
20
14.899495
30
0
11
305
21
14.899495
31
0
39
0
210
0
220
0
230
1
0
LINE
5
B3
100
AcDbEntity
8
SK1
62
256
6
ByLayer
370
18
48
1
60
0
100
AcDbLine
10
299
20
22.899495
30
0
11
295.325
21
22.899495
31
0
39
0
210
0
220
0
230
1
0
LINE
5
B4
100
AcDbEntity
8
SK1
62
256
6
ByLayer
370
18
48
1
60
0
100
AcDbLine
10
295.325
20
16.899495
30
0
11
299
21
16.899495
31
0
39
0
210
0
220
0
230
1
0
LINE
5
B5
100
AcDbEntity
8
1
62
256
6
ByLayer
370
18
48
1
60
0
100
AcDbLine
10
0.3
20
31.5
30
0
11
0
21
31.2
31
0
39
0
210
0
220
0
230
1
0
LINE
5
B6
100
AcDbEntity
8
1
62
256
6
ByLayer
370
18
48
1
60
0
100
AcDbLine
10
0
20
-31.2
30
0
11
0.3
21
-31.5
31
0
39
0
210
0
220
0
230
1
0
LINE
5
B7
100
AcDbEntity
8
1
62
256
6
ByLayer
370
18
48
1
60
0
100
AcDbLine
10
22
20
31.5
30
0
11
0.3
21
31.5
31
0
39
0
210
0
220
0
230
1
0
LINE
5
B8
100
AcDbEntity
8
1
62
256
6
ByLayer
370
18
48
1
60
0
100
AcDbLine
10
0.3
20
-31.5
30
0
11
22
21
-31.5
31
0
39
0
210
0
220
0
230
1
0
LINE
5
B9
100
AcDbEntity
8
1
62
256
6
ByLayer
370
18
48
1
60
0
100
AcDbLine
10
10.538675
20
30.080593
30
0
11
13.461325
21
30.080593
31
0
39
0
210
0
220
0
230
1
0
LINE
5
BA
100
AcDbEntity
8
1
62
256
6
ByLayer
370
18
48
1
60
0
100
AcDbLine
10
13.461325
20
9.349221
30
0
11
10.538675
21
9.349221
31
0
39
0
210
0
220
0
230
1
0
LINE
5
BB
100
AcDbEntity
8
1
62
256
6
ByLayer
370
18
48
1
60
0
100
AcDbLine
10
10.538675
20
-9.349221
30
0
11
13.461325
21
-9.349221
31
0
39
0
210
0
220
0
230
1
0
LINE
5
BC
100
AcDbEntity
8
1
62
256
6
ByLayer
370
18
48
1
60
0
100
AcDbLine
10
13.461325
20
-30.080593
30
0
11
10.538675
21
-30.080593
31
0
39
0
210
0
220
0
230
1
0
LINE
5
BD
100
AcDbEntity
8
1
62
256
6
ByLayer
370
18
48
1
60
0
100
AcDbLine
10
13.461325
20
9.349221
30
0
11
13.461325
21
30.080593
31
0
39
0
210
0
220
0
230
1
0
LINE
5
BE
100
AcDbEntity
8
1
62
256
6
ByLayer
370
18
48
1
60
0
100
AcDbLine
10
13.894338
20
9.869413
30
0
11
13.894338
21
29.913955
31
0
39
0
210
0
220
0
230
1
0
LINE
5
BF
100
AcDbEntity
8
1
62
256
6
ByLayer
370
18
48
1
60
0
100
AcDbLine
10
10.105662
20
-29.913955
30
0
11
10.105662
21
-9.869413
31
0
39
0
210
0
220
0
230
1
0
LINE
5
C0
100
AcDbEntity
8
1
62
256
6
ByLayer
370
18
48
1
60
0
100
AcDbLine
10
10.538675
20
-30.080593
30
0
11
10.538675
21
-9.349221
31
0
39
0
210
0
220
0
230
1
0
LINE
5
C1
100
AcDbEntity
8
1
62
256
6
ByLayer
370
18
48
1
60
0
100
AcDbLine
10
10.105662
20
9.869413
30
0
11
10.105662
21
29.913955
31
0
39
0
210
0
220
0
230
1
0
LINE
5
C2
100
AcDbEntity
8
1
62
256
6
ByLayer
370
18
48
1
60
0
100
AcDbLine
10
10.538675
20
9.349221
30
0
11
10.538675
21
30.080593
31
0
39
0
210
0
220
0
230
1
0
LINE
5
C3
100
AcDbEntity
8
1
62
256
6
ByLayer
370
18
48
1
60
0
100
AcDbLine
10
13.461325
20
-30.080593
30
0
11
13.461325
21
-9.349221
31
0
39
0
210
0
220
0
230
1
0
LINE
5
C4
100
AcDbEntity
8
1
62
256
6
ByLayer
370
18
48
1
60
0
100
AcDbLine
10
13.894338
20
-29.913955
30
0
11
13.894338
21
-9.869413
31
0
39
0
210
0
220
0
230
1
0
LINE
5
C5
100
AcDbEntity
8
1
62
256
6
ByLayer
370
18
48
1
60
0
100
AcDbLine
10
290.6
20
30
30
0
11
23
21
30
31
0
39
0
210
0
220
0
230
1
0
LINE
5
C6
100
AcDbEntity
8
1
62
256
6
ByLayer
370
18
48
1
60
0
100
AcDbLine
10
23
20
-30
30
0
11
290.6
21
-30
31
0
39
0
210
0
220
0
230
1
0
LINE
5
C7
100
AcDbEntity
8
SK1
62
256
6
ByLayer
370
18
48
1
60
0
100
AcDbLine
10
-0.2
20
-22.45
30
0
11
0
21
-22.45
31
0
39
0
210
0
220
0
230
1
0
LINE
5
C8
100
AcDbEntity
8
SK1
62
256
6
ByLayer
370
18
48
1
60
0
100
AcDbLine
10
0
20
22.45
30
0
11
-0.2
21
22.45
31
0
39
0
210
0
220
0
230
1
0
LINE
5
C9
100
AcDbEntity
8
SK1
62
256
6
ByLayer
370
18
48
1
60
0
100
AcDbLine
10
305
20
5.100505
30
0
11
299
21
5.100505
31
0
39
0
210
0
220
0
230
1
0
LINE
5
CA
100
AcDbEntity
8
SK1
62
256
6
ByLayer
370
18
48
1
60
0
100
AcDbLine
10
299
20
-4.899495
30
0
11
305
21
-4.899495
31
0
39
0
210
0
220
0
230
1
0
LINE
5
CB
100
AcDbEntity
8
SK1
62
256
6
ByLayer
370
18
48
1
60
0
100
AcDbLine
10
299
20
3.100505
30
0
11
295.325
21
3.100505
31
0
39
0
210
0
220
0
230
1
0
LINE
5
CC
100
AcDbEntity
8
SK1
62
256
6
ByLayer
370
18
48
1
60
0
100
AcDbLine
10
295.325
20
-2.899495
30
0
11
299
21
-2.899495
31
0
39
0
210
0
220
0
230
1
0
LINE
5
CD
100
AcDbEntity
8
1
62
256
6
ByLayer
370
18
48
1
60
0
100
AcDbLine
10
292.5
20
-30
30
0
11
292.5
21
26.911017
31
0
39
0
210
0
220
0
230
1
0
LINE
5
CE
100
AcDbEntity
8
1
62
256
6
ByLayer
370
18
48
1
60
0
100
AcDbLine
10
293
20
26.4625
30
0
11
293
21
-29.5
31
0
39
0
210
0
220
0
230
1
0
LINE
5
CF
100
AcDbEntity
8
1
62
256
6
ByLayer
370
18
48
1
60
0
100
AcDbLine
10
291.4
20
30
30
0
11
291.4
21
-30
31
0
39
0
210
0
220
0
230
1
0
LINE
5
D0
100
AcDbEntity
8
1
62
256
6
ByLayer
370
18
48
1
60
0
100
AcDbLine
10
291
20
-29.6
30
0
11
291
21
0
31
0
39
0
210
0
220
0
230
1
0
LINE
5
D1
100
AcDbEntity
8
1
62
256
6
ByLayer
370
18
48
1
60
0
100
AcDbLine
10
291
20
0
30
0
11
291
21
29.6
31
0
39
0
210
0
220
0
230
1
0
LINE
5
D2
100
AcDbEntity
8
1
62
256
6
ByLayer
370
18
48
1
60
0
100
AcDbLine
10
294
20
27.095238
30
0
11
294
21
-10
31
0
39
0
210
0
220
0
230
1
0
LINE
5
D3
100
AcDbEntity
8
1
62
256
6
ByLayer
370
18
48
1
60
0
100
AcDbLine
10
294.325
20
-10
30
0
11
294.325
21
10
31
0
39
0
210
0
220
0
230
1
0
LINE
5
D4
100
AcDbEntity
8
1
62
256
6
ByLayer
370
18
48
1
60
0
100
AcDbLine
10
295.325
20
28.976863
30
0
11
295.325
21
28.991668
31
0
39
0
210
0
220
0
230
1
0
LINE
5
D5
100
AcDbEntity
8
1
62
256
6
ByLayer
370
18
48
1
60
0
100
AcDbLine
10
295.325
20
28.843015
30
0
11
295.325
21
28.887709
31
0
39
0
210
0
220
0
230
1
0
LINE
5
D6
100
AcDbEntity
8
1
62
256
6
ByLayer
370
18
48
1
60
0
100
AcDbLine
10
295.325
20
28.587552
30
0
11
295.325
21
28.663003
31
0
39
0
210
0
220
0
230
1
0
LINE
5
D7
100
AcDbEntity
8
1
62
256
6
ByLayer
370
18
48
1
60
0
100
AcDbLine
10
295.325
20
28.205356
30
0
11
295.325
21
28.313105
31
0
39
0
210
0
220
0
230
1
0
LINE
5
D8
100
AcDbEntity
8
1
62
256
6
ByLayer
370
18
48
1
60
0
100
AcDbLine
10
295.325
20
27.688213
30
0
11
295.325
21
27.830645
31
0
39
0
210
0
220
0
230
1
0
LINE
5
D9
100
AcDbEntity
8
1
62
256
6
ByLayer
370
18
48
1
60
0
100
AcDbLine
10
295.325
20
27.023829
30
0
11
295.325
21
27.204477
31
0
39
0
210
0
220
0
230
1
0
LINE
5
DA
100
AcDbEntity
8
1
62
256
6
ByLayer
370
18
48
1
60
0
100
AcDbLine
10
295.325
20
26.194093
30
0
11
295.325
21
26.418165
31
0
39
0
210
0
220
0
230
1
0
LINE
5
DB
100
AcDbEntity
8
1
62
256
6
ByLayer
370
18
48
1
60
0
100
AcDbLine
10
295.325
20
25.171899
30
0
11
295.325
21
25.447274
31
0
39
0
210
0
220
0
230
1
0
LINE
5
DC
100
AcDbEntity
8
1
62
256
6
ByLayer
370
18
48
1
60
0
100
AcDbLine
10
295.325
20
23.914899
30
0
11
295.325
21
24.254136
31
0
39
0
210
0
220
0
230
1
0
LINE
5
DD
100
AcDbEntity
8
1
62
256
6
ByLayer
370
18
48
1
60
0
100
AcDbLine
10
295.325
20
22.351611
30
0
11
295.325
21
22.776639
31
0
39
0
210
0
220
0
230
1
0
LINE
5
DE
100
AcDbEntity
8
1
62
256
6
ByLayer
370
18
48
1
60
0
100
AcDbLine
10
295.325
20
20.344089
30
0
11
295.325
21
20.899753
31
0
39
0
210
0
220
0
230
1
0
LINE
5
DF
100
AcDbEntity
8
1
62
256
6
ByLayer
370
18
48
1
60
0
100
AcDbLine
10
295.325
20
17.545731
30
0
11
295.325
21
18.358632
31
0
39
0
210
0
220
0
230
1
0
LINE
5
E0
100
AcDbEntity
8
1
62
256
6
ByLayer
370
18
48
1
60
0
100
AcDbLine
10
295.325
20
11.541407
30
0
11
295.325
21
14.053252
31
0
39
0
210
0
220
0
230
1
0
LINE
5
E1
100
AcDbEntity
8
1
62
256
6
ByLayer
370
18
48
1
60
0
100
AcDbLine
10
295.325
20
5.946748
30
0
11
295.325
21
8.458593
31
0
39
0
210
0
220
0
230
1
0
LINE
5
E2
100
AcDbEntity
8
1
62
256
6
ByLayer
370
18
48
1
60
0
100
AcDbLine
10
295.325
20
1.641368
30
0
11
295.325
21
2.454269
31
0
39
0
210
0
220
0
230
1
0
LINE
5
E3
100
AcDbEntity
8
1
62
256
6
ByLayer
370
18
48
1
60
0
100
AcDbLine
10
295.325
20
-0.899753
30
0
11
295.325
21
-0.344089
31
0
39
0
210
0
220
0
230
1
0
LINE
5
E4
100
AcDbEntity
8
1
62
256
6
ByLayer
370
18
48
1
60
0
100
AcDbLine
10
295.325
20
-2.776639
30
0
11
295.325
21
-2.351611
31
0
39
0
210
0
220
0
230
1
0
LINE
5
E5
100
AcDbEntity
8
1
62
256
6
ByLayer
370
18
48
1
60
0
100
AcDbLine
10
295.325
20
-4.254136
30
0
11
295.325
21
-3.914899
31
0
39
0
210
0
220
0
230
1
0
LINE
5
E6
100
AcDbEntity
8
1
62
256
6
ByLayer
370
18
48
1
60
0
100
AcDbLine
10
295.325
20
-5.447274
30
0
11
295.325
21
-5.171899
31
0
39
0
210
0
220
0
230
1
0
LINE
5
E7
100
AcDbEntity
8
1
62
256
6
ByLayer
370
18
48
1
60
0
100
AcDbLine
10
295.325
20
-6.418165
30
0
11
295.325
21
-6.194093
31
0
39
0
210
0
220
0
230
1
0
LINE
5
E8
100
AcDbEntity
8
1
62
256
6
ByLayer
370
18
48
1
60
0
100
AcDbLine
10
295.325
20
-7.204477
30
0
11
295.325
21
-7.023829
31
0
39
0
210
0
220
0
230
1
0
LINE
5
E9
100
AcDbEntity
8
1
62
256
6
ByLayer
370
18
48
1
60
0
100
AcDbLine
10
295.325
20
-7.830645
30
0
11
295.325
21
-7.688213
31
0
39
0
210
0
220
0
230
1
0
LINE
5
EA
100
AcDbEntity
8
1
62
256
6
ByLayer
370
18
48
1
60
0
100
AcDbLine
10
295.325
20
-8.313105
30
0
11
295.325
21
-8.205356
31
0
39
0
210
0
220
0
230
1
0
LINE
5
EB
100
AcDbEntity
8
1
62
256
6
ByLayer
370
18
48
1
60
0
100
AcDbLine
10
295.325
20
-8.663003
30
0
11
295.325
21
-8.587552
31
0
39
0
210
0
220
0
230
1
0
LINE
5
EC
100
AcDbEntity
8
1
62
256
6
ByLayer
370
18
48
1
60
0
100
AcDbLine
10
295.325
20
-8.887709
30
0
11
295.325
21
-8.843015
31
0
39
0
210
0
220
0
230
1
0
LINE
5
ED
100
AcDbEntity
8
1
62
256
6
ByLayer
370
18
48
1
60
0
100
AcDbLine
10
295.325
20
-8.991668
30
0
11
295.325
21
-8.976863
31
0
39
0
210
0
220
0
230
1
0
LINE
5
EE
100
AcDbEntity
8
1
62
256
6
ByLayer
370
18
48
1
60
0
100
AcDbLine
10
294.325
20
10
30
0
11
294.325
21
30
31
0
39
0
210
0
220
0
230
1
0
LINE
5
EF
100
AcDbEntity
8
SK1
62
256
6
ByLayer
370
18
48
1
60
0
100
AcDbLine
10
305
20
24.899495
30
0
11
305
21
19.899495
31
0
39
0
210
0
220
0
230
1
0
LINE
5
F0
100
AcDbEntity
8
SK1
62
256
6
ByLayer
370
18
48
1
60
0
100
AcDbLine
10
299
20
24.899495
30
0
11
299
21
19.899495
31
0
39
0
210
0
220
0
230
1
0
LINE
5
F1
100
AcDbEntity
8
SK1
62
256
6
ByLayer
370
18
48
1
60
0
100
AcDbLine
10
299
20
19.899495
30
0
11
299
21
14.899495
31
0
39
0
210
0
220
0
230
1
0
LINE
5
F2
100
AcDbEntity
8
SK1
62
256
6
ByLayer
370
18
48
1
60
0
100
AcDbLine
10
305
20
19.899495
30
0
11
305
21
14.899495
31
0
39
0
210
0
220
0
230
1
0
LINE
5
F3
100
AcDbEntity
8
1
62
256
6
ByLayer
370
18
48
1
60
0
100
AcDbLine
10
0.3
20
31.5
30
0
11
0.3
21
-31.5
31
0
39
0
210
0
220
0
230
1
0
LINE
5
F4
100
AcDbEntity
8
1
62
256
6
ByLayer
370
18
48
1
60
0
100
AcDbLine
10
0
20
-31.2
30
0
11
0
21
31.2
31
0
39
0
210
0
220
0
230
1
0
LINE
5
F5
100
AcDbEntity
8
1
62
256
6
ByLayer
370
18
48
1
60
0
100
AcDbLine
10
22
20
-31.5
30
0
11
22
21
31.5
31
0
39
0
210
0
220
0
230
1
0
LINE
5
F6
100
AcDbEntity
8
1
62
256
6
ByLayer
370
18
48
1
60
0
100
AcDbLine
10
23
20
30
30
0
11
23
21
-30
31
0
39
0
210
0
220
0
230
1
0
LINE
5
F7
100
AcDbEntity
8
1
62
256
6
ByLayer
370
18
48
1
60
0
100
AcDbLine
10
290.6
20
-30
30
0
11
290.6
21
0
31
0
39
0
210
0
220
0
230
1
0
LINE
5
F8
100
AcDbEntity
8
1
62
256
6
ByLayer
370
18
48
1
60
0
100
AcDbLine
10
291
20
29.6
30
0
11
291
21
0
31
0
39
0
210
0
220
0
230
1
0
LINE
5
F9
100
AcDbEntity
8
1
62
256
6
ByLayer
370
18
48
1
60
0
100
AcDbLine
10
291
20
0
30
0
11
291
21
-29.6
31
0
39
0
210
0
220
0
230
1
0
LINE
5
FA
100
AcDbEntity
8
1
62
256
6
ByLayer
370
18
48
1
60
0
100
AcDbLine
10
290.6
20
0
30
0
11
290.6
21
30
31
0
39
0
210
0
220
0
230
1
0
LINE
5
FB
100
AcDbEntity
8
SK1
62
256
6
ByLayer
370
18
48
1
60
0
100
AcDbLine
10
-0.2
20
-7.066356
30
0
11
-0.2
21
-6.834385
31
0
39
0
210
0
220
0
230
1
0
LINE
5
FC
100
AcDbEntity
8
SK1
62
256
6
ByLayer
370
18
48
1
60
0
100
AcDbLine
10
-1.307107
20
4.695915
30
0
11
-1.307107
21
-4.695917
31
0
39
0
210
0
220
0
230
1
0
LINE
5
FD
100
AcDbEntity
8
SK1
62
256
6
ByLayer
370
18
48
1
60
0
100
AcDbLine
10
-0.2
20
6.834385
30
0
11
-0.2
21
7.066357
31
0
39
0
210
0
220
0
230
1
0
LINE
5
FE
100
AcDbEntity
8
SK1
62
256
6
ByLayer
370
18
48
1
60
0
100
AcDbLine
10
-0.2
20
-22.45
30
0
11
-0.2
21
-7.454102
31
0
39
0
210
0
220
0
230
1
0
LINE
5
FF
100
AcDbEntity
8
SK1
62
256
6
ByLayer
370
18
48
1
60
0
100
AcDbLine
10
-0.2
20
7.454103
30
0
11
-0.2
21
22.45
31
0
39
0
210
0
220
0
230
1
0
LINE
5
100
100
AcDbEntity
8
SK1
62
256
6
ByLayer
370
18
48
1
60
0
100
AcDbLine
10
305
20
5.100505
30
0
11
305
21
0.100505
31
0
39
0
210
0
220
0
230
1
0
LINE
5
101
100
AcDbEntity
8
SK1
62
256
6
ByLayer
370
18
48
1
60
0
100
AcDbLine
10
299
20
5.100505
30
0
11
299
21
0.100505
31
0
39
0
210
0
220
0
230
1
0
LINE
5
102
100
AcDbEntity
8
SK1
62
256
6
ByLayer
370
18
48
1
60
0
100
AcDbLine
10
299
20
0.100505
30
0
11
299
21
-4.899495
31
0
39
0
210
0
220
0
230
1
0
LINE
5
103
100
AcDbEntity
8
SK1
62
256
6
ByLayer
370
18
48
1
60
0
100
AcDbLine
10
305
20
0.100505
30
0
11
305
21
-4.899495
31
0
39
0
210
0
220
0
230
1
0
LINE
5
104
100
AcDbEntity
8
SK1
62
256
6
ByLayer
370
18
48
1
60
0
100
AcDbLine
10
-3
20
-22
30
0
11
-3
21
22
31
0
39
0
210
0
220
0
230
1
0
LINE
5
105
100
AcDbEntity
8
SK1
62
256
6
ByLayer
370
18
48
1
60
0
100
AcDbLine
10
-2.2
20
-13.01722
30
0
11
-2.2
21
-18.805799
31
0
39
0
210
0
220
0
230
1
0
LINE
5
106
100
AcDbEntity
8
SK1
62
256
6
ByLayer
370
18
48
1
60
0
100
AcDbLine
10
-2.2
20
18.805799
30
0
11
-2.2
21
13.017221
31
0
39
0
210
0
220
0
230
1
0
LINE
5
107
100
AcDbEntity
8
SK1
62
256
6
ByLayer
370
18
48
1
60
0
100
AcDbLine
10
-2.2
20
13.017221
30
0
11
-2.2
21
-13.01722
31
0
39
0
210
0
220
0
230
1
0
LINE
5
108
100
AcDbEntity
8
SK1
62
256
6
ByLayer
370
18
48
1
60
0
100
AcDbLine
10
-2
20
21.825128
30
0
11
-2
21
-21.825128
31
0
39
0
210
0
220
0
230
1
0
LINE
5
109
100
AcDbEntity
8
SK1
62
256
6
ByLayer
370
18
48
1
60
0
100
AcDbLine
10
-0.4
20
21.825128
30
0
11
-0.4
21
6.104232
31
0
39
0
210
0
220
0
230
1
0
LINE
5
10A
100
AcDbEntity
8
SK1
62
256
6
ByLayer
370
18
48
1
60
0
100
AcDbLine
10
-0.4
20
-6.104232
30
0
11
-0.4
21
-21.825128
31
0
39
0
210
0
220
0
230
1
0
LINE
5
10B
100
AcDbEntity
8
SK1
62
256
6
ByLayer
370
18
48
1
60
0
100
AcDbLine
10
-36.500473
20
21.157872
30
0
11
-36.500473
21
-21.157996
31
0
39
0
210
0
220
0
230
1
0
LINE
5
10C
100
AcDbEntity
8
SK1
62
256
6
ByLayer
370
18
48
1
60
0
100
AcDbLine
10
-38
20
-20.239988
30
0
11
-38
21
20.247289
31
0
39
0
210
0
220
0
230
1
0
MTEXT
5
1B1
100
AcDbEntity
8
SK6
62
256
6
ByLayer
370
13
48
1
60
0
100
AcDbMText
10
41.108067
20
60.600674
30
0
210
0
220
0
230
1
1
\W0.7281;C6-570-3C 60 295-40R
40
3.175
41
0
44
1.084337
50
0
71
7
72
5
7
iso_b_vert
0
DIMENSION
5
1BF
100
AcDbEntity
8
2
62
256
6
ByLayer
370
13
48
1
60
0
100
AcDbDimension
2
DimnDraft3D1
10
295
20
56.63077
30
0
11
144.416908
21
56.63077
31
0
70
32
71
5
72
1
41
1
210
0
220
0
230
1
3
Standard
100
AcDbAlignedDimension
13
0
23
1.5875
33
0
14
295
24
11.5875
34
0
50
0
100
AcDbRotatedDimension
1001
ACAD
1000
DSTYLE
1002
{
1070
   279
1070
     0
1070
   173
1070
     1
1070
   340
1005
1B2
1070
   271
1070
     1
1070
   272
1070
     2
1070
    77
1070
     1
1070
    73
1070
     0
1070
   171
1070
     3
1070
   274
1070
     4
1070
   177
1070
     7
1070
   176
1070
     7
1070
   178
1070
     7
1070
    78
1070
     8
1070
    48
1040
-0.005
1070
    41
1041
3.175
1070
   147
1041
1.5875
1070
    42
1041
1.5875
1070
    44
1041
3.175
1070
   140
1041
3.175
1070
   343
1005
0
1070
   344
1005
0
1002
}
0
DIMENSION
5
1CA
100
AcDbEntity
8
2
62
256
6
ByLayer
370
13
48
1
60
0
100
AcDbDimension
2
DimnDraft3D2
10
-60.685039
20
-31.5
30
0
11
-60.685039
21
-6.659145
31
0
70
32
71
5
72
1
41
1
210
0
220
0
230
1
3
Standard
100
AcDbAlignedDimension
13
-1.2875
23
31.5
33
0
14
-1.2875
24
-31.5
34
0
50
90
100
AcDbRotatedDimension
1001
ACAD
1000
DSTYLE
1002
{
1070
    74
1070
     0
1070
   279
1070
     0
1070
   173
1070
     1
1070
   340
1005
1B2
1070
   271
1070
     1
1070
   272
1070
     2
1070
    77
1070
     1
1070
    73
1070
     0
1070
   171
1070
     3
1070
   274
1070
     4
1070
   177
1070
     7
1070
   176
1070
     7
1070
   178
1070
     7
1070
    78
1070
     8
1070
    48
1040
-0.005
1070
    41
1041
3.175
1070
   147
1041
1.5875
1070
    42
1041
1.5875
1070
    44
1041
3.175
1070
   140
1041
3.175
1070
   343
1005
0
1070
   344
1005
0
1002
}
0
DIMENSION
5
1D4
100
AcDbEntity
8
2
62
256
6
ByLayer
370
13
48
1
60
0
100
AcDbDimension
2
DimnDraft3D3
10
0
20
-45.723433
30
0
11
8.549022
21
-45.723433
31
0
70
32
71
5
72
1
41
1
210
0
220
0
230
1
3
Standard
100
AcDbAlignedDimension
13
22
23
-33.0875
33
0
14
0
24
-32.7875
34
0
50
0
100
AcDbRotatedDimension
1001
ACAD
1000
DSTYLE
1002
{
1070
   279
1070
     0
1070
   173
1070
     1
1070
   340
1005
1B2
1070
   271
1070
     1
1070
   272
1070
     2
1070
    77
1070
     1
1070
    73
1070
     0
1070
   171
1070
     3
1070
   274
1070
     4
1070
   177
1070
     7
1070
   176
1070
     7
1070
   178
1070
     7
1070
    78
1070
     8
1070
    48
1040
-0.005
1070
    41
1041
3.175
1070
   147
1041
1.5875
1070
    42
1041
1.5875
1070
    44
1041
3.175
1070
   140
1041
3.175
1070
   343
1005
0
1070
   344
1005
0
1002
}
0
DIMENSION
5
1DC
100
AcDbEntity
8
2
62
256
6
ByLayer
370
13
48
1
60
0
100
AcDbDimension
2
DimnDraft3D4
10
23
20
31
30
0
11
38.92742
21
39.948945
31
0
70
36
71
5
72
1
41
1
210
0
220
0
230
1
3
Standard
100
AcDbRadialDimension
15
0
25
0
35
0
40
0
1001
ACAD
1000
DSTYLE
1002
{
1070
   279
1070
     0
1070
   173
1070
     1
1070
   340
1005
1B2
1070
    75
1070
     1
1070
    76
1070
     1
1070
   271
1070
     1
1070
   272
1070
     2
1070
    77
1070
     1
1070
    73
1070
     0
1070
   171
1070
     3
1070
   274
1070
     4
1070
   177
1070
     7
1070
   176
1070
     7
1070
   178
1070
     7
1070
    78
1070
     8
1070
    48
1040
-0.005
1070
    41
1041
3.175
1070
   147
1041
1.5875
1070
    42
1041
1.5875
1070
    44
1041
3.175
1070
   140
1041
3.175
1070
   343
1005
0
1070
   344
1005
0
1002
}
0
DIMENSION
5
1F1
100
AcDbEntity
8
2
62
256
6
ByLayer
370
13
48
1
60
0
100
AcDbDimension
2
DimnDraft3D6
10
387.881313
20
-30
30
0
11
387.881313
21
-16.365526
31
0
70
32
71
5
72
1
41
1
210
0
220
0
230
1
3
Standard
100
AcDbAlignedDimension
13
292.1875
23
30
33
0
14
292.1875
24
-30
34
0
50
90
100
AcDbRotatedDimension
1001
ACAD
1000
DSTYLE
1002
{
1070
    74
1070
     0
1070
   279
1070
     0
1070
   173
1070
     1
1070
   340
1005
1B2
1070
   271
1070
     1
1070
   272
1070
     2
1070
    77
1070
     1
1070
    73
1070
     0
1070
   171
1070
     3
1070
   274
1070
     4
1070
   177
1070
     7
1070
   176
1070
     7
1070
   178
1070
     7
1070
    78
1070
     8
1070
    48
1040
-0.005
1070
    41
1041
3.175
1070
   147
1041
1.5875
1070
    42
1041
1.5875
1070
    44
1041
3.175
1070
   140
1041
3.175
1070
   343
1005
0
1070
   344
1005
0
1002
}
0
DIMENSION
5
1FC
100
AcDbEntity
8
2
62
256
6
ByLayer
370
13
48
1
60
0
100
AcDbDimension
2
DimnDraft3D7
10
375.192262
20
30
30
0
11
375.192262
21
3.17375
31
0
70
32
71
5
72
1
41
1
210
0
220
0
230
1
3
Standard
100
AcDbAlignedDimension
13
295.9125
23
-10
33
0
14
295.9125
24
30
34
0
50
90
100
AcDbRotatedDimension
1001
ACAD
1000
DSTYLE
1002
{
1070
    74
1070
     0
1070
   279
1070
     0
1070
   173
1070
     1
1070
   340
1005
1B2
1070
   271
1070
     1
1070
   272
1070
     2
1070
    77
1070
     1
1070
    73
1070
     0
1070
   171
1070
     3
1070
   274
1070
     4
1070
   177
1070
     7
1070
   176
1070
     7
1070
   178
1070
     7
1070
    78
1070
     8
1070
    48
1040
-0.005
1070
    41
1041
3.175
1070
   147
1041
1.5875
1070
    42
1041
1.5875
1070
    44
1041
3.175
1070
   140
1041
3.175
1070
   343
1005
0
1070
   344
1005
0
1002
}
0
DIMENSION
5
206
100
AcDbEntity
8
2
62
256
6
ByLayer
370
13
48
1
60
0
100
AcDbDimension
2
DimnDraft3D8
10
361.743428
20
0
30
0
11
361.743428
21
3.50023
31
0
70
32
71
5
72
1
41
1
210
0
220
0
230
1
3
Standard
100
AcDbAlignedDimension
13
326.0875
23
10
33
0
14
301.5875
24
0
34
0
50
90
100
AcDbRotatedDimension
1001
ACAD
1000
DSTYLE
1002
{
1070
    74
1070
     0
1070
   279
1070
     0
1070
   173
1070
     1
1070
   340
1005
1B2
1070
   271
1070
     1
1070
   272
1070
     2
1070
    77
1070
     1
1070
    73
1070
     0
1070
   171
1070
     3
1070
   274
1070
     4
1070
   177
1070
     7
1070
   176
1070
     7
1070
   178
1070
     7
1070
    78
1070
     8
1070
    48
1040
-0.005
1070
    41
1041
3.175
1070
   147
1041
1.5875
1070
    42
1041
1.5875
1070
    44
1041
3.175
1070
   140
1041
3.175
1070
   343
1005
0
1070
   344
1005
0
1002
}
0
ENDSEC
0
SECTION
2
OBJECTS
0
DICTIONARY
5
270
330
0
100
AcDbDictionary
280
0
281
1
3
ACAD_GROUP
350
271
3
ACAD_MLINESTYLE
350
272
0
DICTIONARY
5
271
330
0
100
AcDbDictionary
280
0
281
1
0
DICTIONARY
5
272
330
0
100
AcDbDictionary
280
0
281
1
3
Standard
350
18
0
MLINESTYLE
5
18
330
272
100
AcDbMlineStyle
2
Standard
70
0
3

62
256
51
90
52
90
71
2
49
-0.5
62
256
6
ByLayer
49
0.5
62
256
6
ByLayer
0
RASTERVARIABLES
5
25f
330

100
AcDbRasterVariables
90
0
70
1
71
1
72
1
0
ENDSEC
0
EOF
