0
SECTION
2
HEADER
9
$ACADVER
1
AC1015
9
$DWGCODEPAGE
3
ANSI_1252
9
$HANDSEED
5
29f
9
$ANGBASE
50
0
9
$ANGDIR
70
0
9
$ATTMODE
70
1
9
$AUNITS
70
0
9
$AUPREC
70
0
9
$CECOLOR
62
256
9
$CELTSCALE
40
1
9
$CELTYPE
6
ByLayer
9
$CELWEIGHT
370
18
9
$CLAYER
8
0
9
$CMLJUST
70
0
9
$CMLSCALE
40
1
9
$CMLSTYLE
2
Standard
9
$DIMSTYLE
2
Standard
9
$TEXTSIZE
40
0.2
9
$TEXTSTYLE
7
Standard
9
$LUNITS
70
2
9
$LUPREC
70
4
9
$EXTNAMES
290
1
9
$INSUNITS
70
4
9
$LTSCALE
40
1
9
$LWDISPLAY
290
1
9
$PDMODE
70
0
9
$PDSIZE
40
0
9
$PLINEGEN
70
0
0
ENDSEC
0
SECTION
2
CLASSES
0
CLASS
1
RASTERVARIABLES
2
AcDbRasterVariables
3
ISM
90
0
280
0
281
0
0
ENDSEC
0
SECTION
2
TABLES
0
TABLE
2
VPORT
5
295
100
AcDbSymbolTable
0
VPORT
5
1
100
AcDbSymbolTableRecord
100
AcDbViewportTableRecord
2
*Active
70
0
10
0
20
0
11
1
21
1
12
-1
22
1
13
0
23
0
14
0.5
24
0.5
15
10
25
10
16
0
26
0
36
1
17
0
27
0
37
0
0
ENDTAB
0
TABLE
2
LTYPE
5
296
100
AcDbSymbolTable
0
LTYPE
5
14
100
AcDbSymbolTableRecord
100
AcDbLinetypeTableRecord
70
0
2
ByBlock
3

72
65
73
0
40
0
0
LTYPE
5
15
100
AcDbSymbolTableRecord
100
AcDbLinetypeTableRecord
70
0
2
ByLayer
3

72
65
73
0
40
0
0
LTYPE
5
16
100
AcDbSymbolTableRecord
100
AcDbLinetypeTableRecord
70
0
2
CONTINUOUS
3
Solid line
72
65
73
0
40
0
0
LTYPE
5
6A
100
AcDbSymbolTableRecord
100
AcDbLinetypeTableRecord
70
0
2
CENTER
3
____ _ ____ _ ____ _ ____
72
65
73
4
40
47.5
49
22
74
0
49
-8.5
74
0
49
8.5
74
0
49
-8.5
74
0
0
LTYPE
5
6B
100
AcDbSymbolTableRecord
100
AcDbLinetypeTableRecord
70
0
2
DASHED
3
__ __ __ __ __ __ __ __ __
72
65
73
2
40
25.72
49
12.86
74
0
49
-12.86
74
0
0
ENDTAB
0
TABLE
2
LAYER
5
297
100
AcDbSymbolTable
0
LAYER
5
10
100
AcDbSymbolTableRecord
100
AcDbLayerTableRecord
2
0
70
0
62
7
6
CONTINUOUS
290
1
370
-3
390
0
0
LAYER
5
6D
100
AcDbSymbolTableRecord
100
AcDbLayerTableRecord
2
80
70
0
62
-6
6
CONTINUOUS
290
1
370
-3
390
0
0
LAYER
5
6F
100
AcDbSymbolTableRecord
100
AcDbLayerTableRecord
2
81
70
0
62
-3
6
CONTINUOUS
290
1
370
-3
390
0
0
LAYER
5
76
100
AcDbSymbolTableRecord
100
AcDbLayerTableRecord
2
1
70
0
62
4
6
CONTINUOUS
290
1
370
-3
390
0
0
LAYER
5
98
100
AcDbSymbolTableRecord
100
AcDbLayerTableRecord
2
4
70
0
62
-2
6
CENTER
290
1
370
-3
390
0
0
LAYER
5
209
100
AcDbSymbolTableRecord
100
AcDbLayerTableRecord
2
2
70
0
62
7
6
CONTINUOUS
290
1
370
-3
390
0
0
LAYER
5
281
100
AcDbSymbolTableRecord
100
AcDbLayerTableRecord
2
SK2
70
0
62
7
6
CONTINUOUS
290
1
370
-3
390
0
0
LAYER
5
282
100
AcDbSymbolTableRecord
100
AcDbLayerTableRecord
2
SK1
70
0
62
4
6
CONTINUOUS
290
1
370
-3
390
0
0
LAYER
5
283
100
AcDbSymbolTableRecord
100
AcDbLayerTableRecord
2
SK4
70
0
62
2
6
CENTER
290
1
370
-3
390
0
0
LAYER
5
284
100
AcDbSymbolTableRecord
100
AcDbLayerTableRecord
2
SK6
70
0
62
5
6
CONTINUOUS
290
1
370
-3
390
0
0
ENDTAB
0
TABLE
2
STYLE
5
298
100
AcDbSymbolTable
0
STYLE
5
11
100
AcDbSymbolTableRecord
100
AcDbTextStyleTableRecord
2
Standard
3
txt
70
0
71
0
40
0
41
1
42
0
50
0
0
STYLE
5
1E5
100
AcDbSymbolTableRecord
100
AcDbTextStyleTableRecord
2
iso_b_vert
3
simplex.shx
70
0
71
0
40
0
41
1
42
0
50
0
0
STYLE
5
1E6
100
AcDbSymbolTableRecord
100
AcDbTextStyleTableRecord
2
DWGDirectTextStyle
3
simplex
70
0
71
0
40
0
41
1
42
0
50
0
0
ENDTAB
0
TABLE
2
DIMSTYLE
5
299
100
AcDbSymbolTable
100
AcDbDimStyleTable
0
DIMSTYLE
105
27
100
AcDbSymbolTableRecord
100
AcDbDimStyleTableRecord
2
Standard
70
0
3
<>
41
0.18
42
0.0625
44
0.18
140
0.18
147
0.09
73
0
74
0
77
1
271
2
275
0
278
52
280
0
340
11
0
ENDTAB
0
TABLE
2
VIEW
5
29a
100
AcDbSymbolTable
0
ENDTAB
0
TABLE
2
UCS
5
29b
100
AcDbSymbolTable
0
ENDTAB
0
TABLE
2
APPID
5
29c
100
AcDbSymbolTable
0
APPID
5
12
100
AcDbSymbolTableRecord
100
AcDbRegAppTableRecord
2
ACAD
70
0
0
ENDTAB
0
TABLE
2
BLOCK_RECORD
5
29d
100
AcDbSymbolTable
0
BLOCK_RECORD
5
1F
100
AcDbSymbolTableRecord
100
AcDbBlockTableRecord
2
*Model_Space
340
0
70
0
0
BLOCK_RECORD
5
1B
100
AcDbSymbolTableRecord
100
AcDbBlockTableRecord
2
*Paper_Space
340
0
70
0
0
BLOCK_RECORD
5
23
100
AcDbSymbolTableRecord
100
AcDbBlockTableRecord
2
*Paper_Space0
340
0
70
0
0
BLOCK_RECORD
5
1E8
100
AcDbSymbolTableRecord
100
AcDbBlockTableRecord
2
DimnDraft3D1
340
0
70
0
0
BLOCK_RECORD
5
1F2
100
AcDbSymbolTableRecord
100
AcDbBlockTableRecord
2
DimnDraft3D2
340
0
70
0
0
BLOCK_RECORD
5
1FD
100
AcDbSymbolTableRecord
100
AcDbBlockTableRecord
2
DimnDraft3D3
340
0
70
0
0
BLOCK_RECORD
5
207
100
AcDbSymbolTableRecord
100
AcDbBlockTableRecord
2
DimnDraft3D4
340
0
70
0
0
BLOCK_RECORD
5
212
100
AcDbSymbolTableRecord
100
AcDbBlockTableRecord
2
DimnDraft3D5
340
0
70
0
0
BLOCK_RECORD
5
21D
100
AcDbSymbolTableRecord
100
AcDbBlockTableRecord
2
DimnDraft3D6
340
0
70
0
0
ENDTAB
0
ENDSEC
0
SECTION
2
BLOCKS
0
BLOCK
5
20
100
AcDbEntity
8
0
100
AcDbBlockBegin
2
*Model_Space
70
0
10
0
20
0
30
0
3
*Model_Space
0
ENDBLK
5
21
100
AcDbEntity
8
0
100
AcDbBlockEnd
0
BLOCK
5
1C
100
AcDbEntity
8
0
100
AcDbBlockBegin
2
*Paper_Space
70
0
10
0
20
0
30
0
3
*Paper_Space
0
ENDBLK
5
1D
100
AcDbEntity
8
0
100
AcDbBlockEnd
0
BLOCK
5
24
100
AcDbEntity
8
0
100
AcDbBlockBegin
2
*Paper_Space0
70
0
10
0
20
0
30
0
3
*Paper_Space0
0
ENDBLK
5
25
100
AcDbEntity
8
0
100
AcDbBlockEnd
0
BLOCK
5
1EF
100
AcDbEntity
8
0
100
AcDbBlockBegin
2
DimnDraft3D1
70
0
10
0
20
0
30
0
3
DimnDraft3D1
0
MTEXT
5
1E9
100
AcDbEntity
8
SK2
62
256
6
ByLayer
370
18
48
1
60
0
100
AcDbMText
10
64.367801
20
-40.724866
30
0
210
0
220
0
230
1
1
\W0.7346;88.8
40
3.5
41
0
44
1.084337
50
0
71
7
72
5
7
iso_b_vert
0
LINE
5
1EA
100
AcDbEntity
8
SK2
62
256
6
ByLayer
370
13
48
1
60
0
100
AcDbLine
10
23.2
20
-31.5875
30
0
11
23.2
21
-43.6
31
0
39
0
210
0
220
0
230
1
0
LINE
5
1EB
100
AcDbEntity
8
SK2
62
256
6
ByLayer
370
13
48
1
60
0
100
AcDbLine
10
112
20
-11.5875
30
0
11
112
21
-43.6
31
0
39
0
210
0
220
0
230
1
0
LINE
5
1EC
100
AcDbEntity
8
SK2
62
256
6
ByLayer
370
13
48
1
60
0
100
AcDbLine
10
23.2
20
-41.6
30
0
11
112
21
-41.6
31
0
39
0
210
0
220
0
230
1
0
SOLID
5
1ED
100
AcDbEntity
8
SK2
62
256
6
ByLayer
370
13
48
1
60
0
100
AcDbTrace
10
23.2
20
-41.6
30
0
11
26.699998
21
-41.139216
31
0
12
26.700002
22
-42.060784
32
0
13
23.2
23
-41.6
33
0
39
0
210
0
220
0
230
1
0
SOLID
5
1EE
100
AcDbEntity
8
SK2
62
256
6
ByLayer
370
13
48
1
60
0
100
AcDbTrace
10
112
20
-41.6
30
0
11
108.500002
21
-42.060784
31
0
12
108.499998
22
-41.139216
32
0
13
112
23
-41.6
33
0
39
0
210
0
220
0
230
1
0
ENDBLK
5
1F0
100
AcDbEntity
8
0
100
AcDbBlockEnd
0
BLOCK
5
1FA
100
AcDbEntity
8
0
100
AcDbBlockBegin
2
DimnDraft3D2
70
0
10
0
20
0
30
0
3
DimnDraft3D2
0
MTEXT
5
1F3
100
AcDbEntity
8
SK2
62
256
6
ByLayer
370
18
48
1
60
0
100
AcDbMText
10
151.138077
20
3.159534
30
0
210
0
220
0
230
1
1
\W0.6740;60
40
3.5
41
0
44
1.084337
50
90
71
7
72
5
7
iso_b_vert
0
MTEXT
5
1F4
100
AcDbEntity
8
SK2
62
256
6
ByLayer
370
18
48
1
60
0
100
AcDbMText
10
151.138077
20
-3.813122
30
0
210
0
220
0
230
1
1
%%c
40
3.5
41
0
44
1.084337
50
90
71
7
72
5
7
iso_b_vert
0
LINE
5
1F5
100
AcDbEntity
8
SK2
62
256
6
ByLayer
370
13
48
1
60
0
100
AcDbLine
10
113.5875
20
30
30
0
11
154.888211
21
30
31
0
39
0
210
0
220
0
230
1
0
LINE
5
1F6
100
AcDbEntity
8
SK2
62
256
6
ByLayer
370
13
48
1
60
0
100
AcDbLine
10
104.028516
20
-30
30
0
11
154.888211
21
-30
31
0
39
0
210
0
220
0
230
1
0
LINE
5
1F7
100
AcDbEntity
8
SK2
62
256
6
ByLayer
370
13
48
1
60
0
100
AcDbLine
10
152.888211
20
30
30
0
11
152.888211
21
-30
31
0
39
0
210
0
220
0
230
1
0
SOLID
5
1F8
100
AcDbEntity
8
SK2
62
256
6
ByLayer
370
13
48
1
60
0
100
AcDbTrace
10
152.888211
20
30
30
0
11
153.348994
21
26.500002
31
0
12
152.427427
22
26.499998
32
0
13
152.888211
23
30
33
0
39
0
210
0
220
0
230
1
0
SOLID
5
1F9
100
AcDbEntity
8
SK2
62
256
6
ByLayer
370
13
48
1
60
0
100
AcDbTrace
10
152.888211
20
-30
30
0
11
152.427427
21
-26.500002
31
0
12
153.348994
22
-26.499998
32
0
13
152.888211
23
-30
33
0
39
0
210
0
220
0
230
1
0
ENDBLK
5
1FB
100
AcDbEntity
8
0
100
AcDbBlockEnd
0
BLOCK
5
204
100
AcDbEntity
8
0
100
AcDbBlockBegin
2
DimnDraft3D3
70
0
10
0
20
0
30
0
3
DimnDraft3D3
0
MTEXT
5
1FE
100
AcDbEntity
8
SK2
62
256
6
ByLayer
370
18
48
1
60
0
100
AcDbMText
10
132.013077
20
20.875
30
0
210
0
220
0
230
1
1
\W0.6563;10.0
40
3.5
41
0
44
1.084337
50
90
71
7
72
5
7
iso_b_vert
0
LINE
5
1FF
100
AcDbEntity
8
SK2
62
256
6
ByLayer
370
13
48
1
60
0
100
AcDbLine
10
113.5875
20
10
30
0
11
134.888211
21
10
31
0
39
0
210
0
220
0
230
1
0
LINE
5
200
100
AcDbEntity
8
SK2
62
256
6
ByLayer
370
13
48
1
60
0
100
AcDbLine
10
113.5875
20
0
30
0
11
134.888211
21
0
31
0
39
0
210
0
220
0
230
1
0
LINE
5
201
100
AcDbEntity
8
SK2
62
256
6
ByLayer
370
13
48
1
60
0
100
AcDbLine
10
132.888211
20
0
30
0
11
132.888211
21
27.339532
31
0
39
0
210
0
220
0
230
1
0
SOLID
5
202
100
AcDbEntity
8
SK2
62
256
6
ByLayer
370
13
48
1
60
0
100
AcDbTrace
10
132.888211
20
10
30
0
11
133.348994
21
6.500002
31
0
12
132.427427
22
6.499998
32
0
13
132.888211
23
10
33
0
39
0
210
0
220
0
230
1
0
SOLID
5
203
100
AcDbEntity
8
SK2
62
256
6
ByLayer
370
13
48
1
60
0
100
AcDbTrace
10
132.888211
20
0
30
0
11
132.427427
21
3.499998
31
0
12
133.348994
22
3.500002
32
0
13
132.888211
23
0
33
0
39
0
210
0
220
0
230
1
0
ENDBLK
5
205
100
AcDbEntity
8
0
100
AcDbBlockEnd
0
BLOCK
5
20F
100
AcDbEntity
8
0
100
AcDbBlockBegin
2
DimnDraft3D4
70
0
10
0
20
0
30
0
3
DimnDraft3D4
0
MTEXT
5
208
100
AcDbEntity
8
2
62
256
6
ByLayer
370
18
48
1
60
0
100
AcDbMText
10
52.334934
20
-50.724866
30
0
210
0
220
0
230
1
1
\W0.6261;112.0
40
3.5
41
0
44
1.084337
50
0
71
7
72
5
7
iso_b_vert
0
LINE
5
20A
100
AcDbEntity
8
2
62
256
6
ByLayer
370
13
48
1
60
0
100
AcDbLine
10
0
20
-33.0875
30
0
11
0
21
-53.6
31
0
39
0
210
0
220
0
230
1
0
LINE
5
20B
100
AcDbEntity
8
2
62
256
6
ByLayer
370
13
48
1
60
0
100
AcDbLine
10
112
20
-11.5875
30
0
11
112
21
-53.6
31
0
39
0
210
0
220
0
230
1
0
LINE
5
20C
100
AcDbEntity
8
2
62
256
6
ByLayer
370
13
48
1
60
0
100
AcDbLine
10
0
20
-51.6
30
0
11
112
21
-51.6
31
0
39
0
210
0
220
0
230
1
0
SOLID
5
20D
100
AcDbEntity
8
2
62
256
6
ByLayer
370
13
48
1
60
0
100
AcDbTrace
10
0
20
-51.6
30
0
11
3.499998
21
-51.139216
31
0
12
3.500002
22
-52.060784
32
0
13
0
23
-51.6
33
0
39
0
210
0
220
0
230
1
0
SOLID
5
20E
100
AcDbEntity
8
2
62
256
6
ByLayer
370
13
48
1
60
0
100
AcDbTrace
10
112
20
-51.6
30
0
11
108.500002
21
-52.060784
31
0
12
108.499998
22
-51.139216
32
0
13
112
23
-51.6
33
0
39
0
210
0
220
0
230
1
0
ENDBLK
5
210
100
AcDbEntity
8
0
100
AcDbBlockEnd
0
BLOCK
5
21A
100
AcDbEntity
8
0
100
AcDbBlockBegin
2
DimnDraft3D5
70
0
10
0
20
0
30
0
3
DimnDraft3D5
0
MTEXT
5
213
100
AcDbEntity
8
SK2
62
256
6
ByLayer
370
18
48
1
60
0
100
AcDbMText
10
-61.350134
20
3.159534
30
0
210
0
220
0
230
1
1
\W0.6740;63
40
3.5
41
0
44
1.084337
50
90
71
7
72
5
7
iso_b_vert
0
MTEXT
5
214
100
AcDbEntity
8
SK2
62
256
6
ByLayer
370
18
48
1
60
0
100
AcDbMText
10
-61.350134
20
-3.813122
30
0
210
0
220
0
230
1
1
%%c
40
3.5
41
0
44
1.084337
50
90
71
7
72
5
7
iso_b_vert
0
LINE
5
215
100
AcDbEntity
8
SK2
62
256
6
ByLayer
370
13
48
1
60
0
100
AcDbLine
10
-1.5875
20
31.5
30
0
11
-61.6
21
31.5
31
0
39
0
210
0
220
0
230
1
0
LINE
5
216
100
AcDbEntity
8
SK2
62
256
6
ByLayer
370
13
48
1
60
0
100
AcDbLine
10
-1.5875
20
-31.5
30
0
11
-61.6
21
-31.5
31
0
39
0
210
0
220
0
230
1
0
LINE
5
217
100
AcDbEntity
8
SK2
62
256
6
ByLayer
370
13
48
1
60
0
100
AcDbLine
10
-59.6
20
31.5
30
0
11
-59.6
21
-31.5
31
0
39
0
210
0
220
0
230
1
0
SOLID
5
218
100
AcDbEntity
8
SK2
62
256
6
ByLayer
370
13
48
1
60
0
100
AcDbTrace
10
-59.6
20
31.5
30
0
11
-59.139216
21
28.000002
31
0
12
-60.060784
22
27.999998
32
0
13
-59.6
23
31.5
33
0
39
0
210
0
220
0
230
1
0
SOLID
5
219
100
AcDbEntity
8
SK2
62
256
6
ByLayer
370
13
48
1
60
0
100
AcDbTrace
10
-59.6
20
-31.5
30
0
11
-60.060784
21
-28.000002
31
0
12
-59.139216
22
-27.999998
32
0
13
-59.6
23
-31.5
33
0
39
0
210
0
220
0
230
1
0
ENDBLK
5
21B
100
AcDbEntity
8
0
100
AcDbBlockEnd
0
BLOCK
5
225
100
AcDbEntity
8
0
100
AcDbBlockBegin
2
DimnDraft3D6
70
0
10
0
20
0
30
0
3
DimnDraft3D6
0
MTEXT
5
21E
100
AcDbEntity
8
SK2
62
256
6
ByLayer
370
18
48
1
60
0
100
AcDbMText
10
141.138077
20
12.975267
30
0
210
0
220
0
230
1
1
\W0.7361;40
40
3.5
41
0
44
1.084337
50
90
71
7
72
5
7
iso_b_vert
0
MTEXT
5
21F
100
AcDbEntity
8
SK2
62
256
6
ByLayer
370
18
48
1
60
0
100
AcDbMText
10
141.138077
20
6.002611
30
0
210
0
220
0
230
1
1
%%c
40
3.5
41
0
44
1.084337
50
90
71
7
72
5
7
iso_b_vert
0
LINE
5
220
100
AcDbEntity
8
SK2
62
256
6
ByLayer
370
13
48
1
60
0
100
AcDbLine
10
113.5875
20
30
30
0
11
144.888211
21
30
31
0
39
0
210
0
220
0
230
1
0
LINE
5
221
100
AcDbEntity
8
SK2
62
256
6
ByLayer
370
13
48
1
60
0
100
AcDbLine
10
113.5875
20
-10
30
0
11
144.888211
21
-10
31
0
39
0
210
0
220
0
230
1
0
LINE
5
222
100
AcDbEntity
8
SK2
62
256
6
ByLayer
370
13
48
1
60
0
100
AcDbLine
10
142.888211
20
30
30
0
11
142.888211
21
-10
31
0
39
0
210
0
220
0
230
1
0
SOLID
5
223
100
AcDbEntity
8
SK2
62
256
6
ByLayer
370
13
48
1
60
0
100
AcDbTrace
10
142.888211
20
30
30
0
11
143.348994
21
26.500002
31
0
12
142.427427
22
26.499998
32
0
13
142.888211
23
30
33
0
39
0
210
0
220
0
230
1
0
SOLID
5
224
100
AcDbEntity
8
SK2
62
256
6
ByLayer
370
13
48
1
60
0
100
AcDbTrace
10
142.888211
20
-10
30
0
11
142.427427
21
-6.500002
31
0
12
143.348994
22
-6.499998
32
0
13
142.888211
23
-10
33
0
39
0
210
0
220
0
230
1
0
ENDBLK
5
226
100
AcDbEntity
8
0
100
AcDbBlockEnd
0
ENDSEC
0
SECTION
2
ENTITIES
0
ARC
5
125
100
AcDbEntity
8
1
62
256
6
ByLayer
370
18
48
1
60
0
100
AcDbCircle
39
0
10
121.9255
20
24.299495
30
0
40
0.6
210
0
220
0
230
1
100
AcDbArc
50
0
51
90
0
ARC
5
126
100
AcDbEntity
8
1
62
256
6
ByLayer
370
18
48
1
60
0
100
AcDbCircle
39
0
10
-116.4255
20
16.649495
30
0
40
0.25
210
0
220
0
230
-1
100
AcDbArc
50
90
51
180
0
ARC
5
127
100
AcDbEntity
8
1
62
256
6
ByLayer
370
18
48
1
60
0
100
AcDbCircle
39
0
10
121.9255
20
15.499495
30
0
40
0.6
210
0
220
0
230
1
100
AcDbArc
50
270
51
0
0
ARC
5
128
100
AcDbEntity
8
1
62
256
6
ByLayer
370
18
48
1
60
0
100
AcDbCircle
39
0
10
-116.4255
20
23.149495
30
0
40
0.25
210
0
220
0
230
-1
100
AcDbArc
50
180
51
270
0
ARC
5
129
100
AcDbEntity
8
1
62
256
6
ByLayer
370
18
48
1
60
0
100
AcDbCircle
39
0
10
121.9255
20
4.500505
30
0
40
0.6
210
0
220
0
230
1
100
AcDbArc
50
0
51
90
0
ARC
5
12A
100
AcDbEntity
8
1
62
256
6
ByLayer
370
18
48
1
60
0
100
AcDbCircle
39
0
10
121.9255
20
-4.299495
30
0
40
0.6
210
0
220
0
230
1
100
AcDbArc
50
270
51
0
0
ARC
5
12B
100
AcDbEntity
8
1
62
256
6
ByLayer
370
18
48
1
60
0
100
AcDbCircle
39
0
10
-116.4255
20
3.350505
30
0
40
0.25
210
0
220
0
230
-1
100
AcDbArc
50
180
51
270
0
ARC
5
12C
100
AcDbEntity
8
1
62
256
6
ByLayer
370
18
48
1
60
0
100
AcDbCircle
39
0
10
-116.4255
20
23.149495
30
0
40
0.25
210
0
220
0
230
-1
100
AcDbArc
50
180
51
270
0
ARC
5
12D
100
AcDbEntity
8
1
62
256
6
ByLayer
370
18
48
1
60
0
100
AcDbCircle
39
0
10
-23.2
20
-31
30
0
40
1
210
0
220
0
230
-1
100
AcDbArc
50
17.095272
51
90
0
ARC
5
12E
100
AcDbEntity
8
1
62
256
6
ByLayer
370
18
48
1
60
0
100
AcDbCircle
39
0
10
-23.2
20
31
30
0
40
1
210
0
220
0
230
-1
100
AcDbArc
50
270
51
342.904728
0
ARC
5
12F
100
AcDbEntity
8
1
62
256
6
ByLayer
370
18
48
1
60
0
100
AcDbCircle
39
0
10
-116.4255
20
-3.149495
30
0
40
0.25
210
0
220
0
230
-1
100
AcDbArc
50
90
51
180
0
ARC
5
130
100
AcDbEntity
8
1
62
256
6
ByLayer
370
18
48
1
60
0
100
AcDbCircle
39
0
10
-107.8
20
-11
30
0
40
1
210
0
220
0
230
-1
100
AcDbArc
50
15
51
90
0
ARC
5
131
100
AcDbEntity
8
1
62
256
6
ByLayer
370
18
48
1
60
0
100
AcDbCircle
39
0
10
121.9255
20
24.299495
30
0
40
0.6
210
0
220
0
230
1
100
AcDbArc
50
0
51
90
0
ARC
5
132
100
AcDbEntity
8
1
62
256
6
ByLayer
370
18
48
1
60
0
100
AcDbCircle
39
0
10
121.9255
20
15.499495
30
0
40
0.6
210
0
220
0
230
1
100
AcDbArc
50
270
51
0
0
ARC
5
133
100
AcDbEntity
8
1
62
256
6
ByLayer
370
18
48
1
60
0
100
AcDbCircle
39
0
10
-116.4255
20
16.649495
30
0
40
0.25
210
0
220
0
230
-1
100
AcDbArc
50
90
51
180
0
ELLIPSE
5
134
100
AcDbEntity
8
1
62
256
6
ByLayer
370
18
48
1
60
0
100
AcDbEllipse
10
-2.347154
20
0
30
0
11
14.7536831606556
21
-31.0932549155803
31
0
210
0
220
0
230
-1
40
0.341999
41
-1.09123958575285
42
-0.157806186645435
0
ELLIPSE
5
135
100
AcDbEntity
8
1
62
256
6
ByLayer
370
18
48
1
60
0
100
AcDbEllipse
10
-2.347154
20
0
30
0
11
14.7536831606554
21
31.0932549155802
31
0
210
0
220
0
230
-1
40
0.341999
41
0.157806186645436
42
1.09123958575285
0
ELLIPSE
5
136
100
AcDbEntity
8
1
62
256
6
ByLayer
370
18
48
1
60
0
100
AcDbEllipse
10
26.347154
20
0
30
0
11
14.7536831606564
21
31.093254915581
31
0
210
0
220
0
230
-1
40
0.341999
41
-2.98378646694436
42
-2.05035306783697
0
ELLIPSE
5
137
100
AcDbEntity
8
1
62
256
6
ByLayer
370
18
48
1
60
0
100
AcDbEllipse
10
26.347154
20
0
30
0
11
14.7536831606565
21
-31.0932549155812
31
0
210
0
220
0
230
-1
40
0.341999
41
2.05035306783697
42
2.98378646694437
0
POINT
5
6C
100
AcDbEntity
8
80
62
256
6
ByLayer
370
18
48
1
60
0
100
AcDbPoint
10
0
20
0
30
0
39
0
210
0
220
0
230
1
50
360
0
POINT
5
6E
100
AcDbEntity
8
81
62
256
6
ByLayer
370
18
48
1
60
0
100
AcDbPoint
10
112
20
10
30
0
39
0
210
0
220
0
230
1
50
360
0
POINT
5
70
100
AcDbEntity
8
SK2
62
256
6
ByLayer
370
18
48
1
60
1
100
AcDbPoint
10
0
20
31.5
30
0
39
0
210
0
220
0
230
1
50
360
0
POINT
5
72
100
AcDbEntity
8
SK2
62
256
6
ByLayer
370
18
48
1
60
1
100
AcDbPoint
10
0
20
-31.5
30
0
39
0
210
0
220
0
230
1
50
360
0
POINT
5
73
100
AcDbEntity
8
SK2
62
256
6
ByLayer
370
18
48
1
60
1
100
AcDbPoint
10
112
20
30
30
0
39
0
210
0
220
0
230
1
50
360
0
POINT
5
74
100
AcDbEntity
8
SK2
62
256
6
ByLayer
370
18
48
1
60
1
100
AcDbPoint
10
112
20
-10
30
0
39
0
210
0
220
0
230
1
50
360
0
SPLINE
5
138
100
AcDbEntity
8
SK1
62
256
6
ByLayer
370
18
48
1
60
0
100
AcDbSpline
70
4
71
2
72
6
73
3
40
0
40
0
40
0
40
1
40
1
40
1
41
1
10
-36.5
20
-21.152454254977
30
0
41
1
10
-19.3500000008244
20
-21.5830602558515
30
0
41
1
10
-2.19999999999999
20
-22.0136645469338
30
0
0
SPLINE
5
139
100
AcDbEntity
8
SK1
62
256
6
ByLayer
370
18
48
1
60
0
100
AcDbSpline
70
4
71
2
72
6
73
3
40
0
40
0
40
0
40
1
40
1
40
1
41
1
10
-0.394913799811292
20
21.8654705382346
30
0
41
1
10
-1.19497688887515
20
21.8453761190377
30
0
41
1
10
-1.99503997793928
20
21.8252816998361
30
0
0
SPLINE
5
13A
100
AcDbEntity
8
SK1
62
256
6
ByLayer
370
18
48
1
60
0
100
AcDbSpline
70
4
71
3
72
13
73
9
40
0
40
0
40
0
40
0
40
0.239488446613183
40
0.368403116187316
40
0.500046645745301
40
0.631682415479715
40
0.760575689762896
40
1
40
1
40
1
40
1
41
1
10
-1.99503997793928
20
21.825286524797
30
0
41
1
10
-2.02110964951223
20
21.8248845959364
30
0
41
1
10
-2.05883938576716
20
21.8310551084546
30
0
41
1
10
-2.10627619976853
20
21.8540920367489
30
0
41
1
10
-2.13886292183542
20
21.8792518859041
30
0
41
1
10
-2.16563526915772
20
21.9105242864784
30
0
41
1
10
-2.19103234710852
20
21.9567296167895
30
0
41
1
10
-2.19909149085342
20
21.9940920912339
30
0
41
1
10
-2.19999999999999
20
22.0201427571469
30
0
0
SPLINE
5
13B
100
AcDbEntity
8
SK1
62
256
6
ByLayer
370
18
48
1
60
0
100
AcDbSpline
70
4
71
2
72
6
73
3
40
0
40
0
40
0
40
1
40
1
40
1
41
1
10
-2.19999999999999
20
22.0136642719968
30
0
41
1
10
-19.3500000008246
20
21.5830599810351
30
0
41
1
10
-36.5
20
21.1524539804128
30
0
0
SPLINE
5
13C
100
AcDbEntity
8
SK1
62
256
6
ByLayer
370
18
48
1
60
0
100
AcDbSpline
70
4
71
3
72
13
73
9
40
0
40
0
40
0
40
0
40
0.239424309708974
40
0.368317583820914
40
0.499953353497707
40
0.631596883124514
40
0.760511552875588
40
1
40
1
40
1
40
1
41
1
10
-2.19999999999999
20
-22.0201428284389
30
0
41
1
10
-2.19909149084521
20
-21.994092162624
30
0
41
1
10
-2.19103234710033
20
-21.9567296883261
30
0
41
1
10
-2.16563526914683
20
-21.910524358218
30
0
41
1
10
-2.13886292182102
20
-21.8792519577777
30
0
41
1
10
-2.10627619975313
20
-21.854092108733
30
0
41
1
10
-2.05883938574672
20
-21.8310551805396
30
0
41
1
10
-2.02110964950145
20
-21.8248846680468
30
0
41
1
10
-1.99503997793928
20
-21.8252865969123
30
0
0
SPLINE
5
13D
100
AcDbEntity
8
SK1
62
256
6
ByLayer
370
18
48
1
60
0
100
AcDbSpline
70
4
71
2
72
6
73
3
40
0
40
0
40
0
40
1
40
1
40
1
41
1
10
-1.99503997793928
20
-21.8252817664983
30
0
41
1
10
-1.19497688887515
20
-21.8453761856051
30
0
41
1
10
-0.394913799811292
20
-21.8654706047072
30
0
0
SPLINE
5
13E
100
AcDbEntity
8
SK1
62
256
6
ByLayer
370
18
48
1
60
0
100
AcDbSpline
70
4
71
2
72
6
73
3
40
0
40
0
40
0
40
1
40
1
40
1
41
1
10
-38
20
-20.2900295032223
30
0
41
1
10
-37.2500000202654
20
-20.7228363958853
30
0
41
1
10
-36.5
20
-21.1556411516461
30
0
0
SPLINE
5
13F
100
AcDbEntity
8
SK1
62
256
6
ByLayer
370
18
48
1
60
0
100
AcDbSpline
70
4
71
2
72
6
73
3
40
0
40
0
40
0
40
1
40
1
40
1
41
1
10
-36.5
20
21.1556411500792
30
0
41
1
10
-37.2500000202692
20
20.7228363924584
30
0
41
1
10
-38
20
20.2900294978113
30
0
0
SPLINE
5
140
100
AcDbEntity
8
SK1
62
256
6
ByLayer
370
18
48
1
60
0
100
AcDbSpline
70
4
71
3
72
11
73
7
40
0
40
0
40
0
40
0
40
0.238951655662017
40
0.497426891855135
40
0.757350231106678
40
1
40
1
40
1
40
1
41
1
10
-0.394913799811292
20
-21.8654754627471
30
0
41
1
10
-0.369687531346841
20
-21.8663994433358
30
0
41
1
10
-0.321131332200991
20
-21.8764453257208
30
0
41
1
10
-0.255172538244239
20
-21.9196711806814
30
0
41
1
10
-0.211244315154573
20
-21.9856609122028
30
0
41
1
10
-0.200954685769119
20
-22.0346807004484
30
0
41
1
10
-0.200000000000017
20
-22.0603316944383
30
0
0
SPLINE
5
141
100
AcDbEntity
8
SK1
62
256
6
ByLayer
370
18
48
1
60
0
100
AcDbSpline
70
4
71
3
72
11
73
7
40
0
40
0
40
0
40
0
40
0.242683451557236
40
0.502591507400088
40
0.761074756885805
40
1
40
1
40
1
40
1
41
1
10
-0.200000000000017
20
22.060331623316
30
0
41
1
10
-0.200952962174824
20
22.034682367515
30
0
41
1
10
-0.211240739082683
20
21.9856690515798
30
0
41
1
10
-0.255176498314313
20
21.9196668868322
30
0
41
1
10
-0.321125379120303
20
21.8764480552956
30
0
41
1
10
-0.369686289021757
20
21.8664005871852
30
0
41
1
10
-0.394913799811292
20
21.8654753908017
30
0
0
SPLINE
5
142
100
AcDbEntity
8
SK1
62
256
6
ByLayer
370
18
48
1
60
0
100
AcDbSpline
70
4
71
3
72
49
73
45
40
0
40
0
40
0
40
0
40
0.0136745485487856
40
0.0422819417816214
40
0.0708893350144571
40
0.0994967282472928
40
0.128104121480129
40
0.156711514712964
40
0.213926301178636
40
0.242533694411471
40
0.271141087644307
40
0.299748480877143
40
0.328355874109979
40
0.356963267342814
40
0.38557066057565
40
0.414178053808486
40
0.428481750424904
40
0.442785447041322
40
0.457089143657739
40
0.471392840274157
40
0.485696536890575
40
0.492848385198784
40
0.500000233506993
40
0.507152081815202
40
0.514303930123411
40
0.528607626739829
40
0.542911323356247
40
0.557215019972664
40
0.571518716589082
40
0.5858224132055
40
0.614429806438336
40
0.643037199671172
40
0.671644592904007
40
0.700251986136843
40
0.728859379369679
40
0.757466772602514
40
0.78607416583535
40
0.843288952301022
40
0.871896345533858
40
0.900503738766693
40
0.929111131999529
40
0.957718525232365
40
0.9863259184652
40
1
40
1
40
1
40
1
41
1
10
-2.19999999999999
20
22.0135803375966
30
0
41
1
10
-2.19999999999999
20
22.0052602908636
30
0
41
1
10
-2.20000000000002
20
21.955363370672
30
0
41
1
10
-2.19999999999999
20
21.7550269215783
30
0
41
1
10
-2.19999999999999
20
21.3416333570605
30
0
41
1
10
-2.19999999999999
20
20.7725957724454
30
0
41
1
10
-2.19999999999999
20
20.0589162847047
30
0
41
1
10
-2.19999999999999
20
18.9263267207688
30
0
41
1
10
-2.19999999999999
20
17.5367466797247
30
0
41
1
10
-2.19999999999999
20
15.9097478536278
30
0
41
1
10
-2.19999999999999
20
14.5742840575192
30
0
41
1
10
-2.19999999999999
20
13.1259218425112
30
0
41
1
10
-2.19999999999999
20
11.5668148046225
30
0
41
1
10
-2.19999999999999
20
9.89853996914994
30
0
41
1
10
-2.19999999999999
20
8.12208977576526
30
0
41
1
10
-2.19999999999999
20
6.55235660022586
30
0
41
1
10
-2.19999999999999
20
5.24422917335971
30
0
41
1
10
-2.19999999999999
20
4.2375522406841
30
0
41
1
10
-2.19999999999999
20
3.20644372216566
30
0
41
1
10
-2.19999999999999
20
2.15314018801408
30
0
41
1
10
-2.19999999999999
20
1.26034253962158
30
0
41
1
10
-2.19999999999999
20
0.540965390862567
30
0
41
1
10
-2.19999999999999
20
2.64082871E-08
30
0
41
1
10
-2.19999999999999
20
-0.540965319759067
30
0
41
1
10
-2.19999999999999
20
-1.26034245765445
30
0
41
1
10
-2.19999999999999
20
-2.15314020845369
30
0
41
1
10
-2.19999999999999
20
-3.20644349821168
30
0
41
1
10
-2.19999999999999
20
-4.23755215854527
30
0
41
1
10
-2.19999999999999
20
-5.24422924769226
30
0
41
1
10
-2.19999999999999
20
-6.55235618011341
30
0
41
1
10
-2.19999999999999
20
-8.12208991237509
30
0
41
1
10
-2.19999999999999
20
-9.89853979541107
30
0
41
1
10
-2.19999999999999
20
-11.566814441512
30
0
41
1
10
-2.19999999999999
20
-13.1259221492872
30
0
41
1
10
-2.19999999999999
20
-14.574283866752
30
0
41
1
10
-2.19999999999999
20
-15.9097476492909
30
0
41
1
10
-2.19999999999999
20
-17.5367471514895
30
0
41
1
10
-2.19999999999999
20
-18.9263265026412
30
0
41
1
10
-2.19999999999999
20
-20.0589164660072
30
0
41
1
10
-2.19999999999999
20
-20.7725964921017
30
0
41
1
10
-2.19999999999999
20
-21.3416331895302
30
0
41
1
10
-2.19999999999999
20
-21.7550273348429
30
0
41
1
10
-2.19999999999999
20
-21.9553627344761
30
0
41
1
10
-2.20000000000002
20
-22.0052594616549
30
0
41
1
10
-2.19999999999999
20
-22.0135796624175
30
0
0
SPLINE
5
143
100
AcDbEntity
8
SK1
62
256
6
ByLayer
370
18
48
1
60
0
100
AcDbSpline
70
4
71
3
72
31
73
27
40
0
40
0
40
0
40
0
40
0.125
40
0.125
40
0.25
40
0.25
40
0.3125
40
0.3125
40
0.34375
40
0.34375
40
0.375
40
0.375
40
0.4375
40
0.4375
40
0.5
40
0.5625
40
0.5625
40
0.625
40
0.625
40
0.6875
40
0.6875
40
0.75
40
0.75
40
0.875
40
0.875
40
1
40
1
40
1
40
1
41
1
10
-1.30710678118655
20
-4.81115156937963
30
0
41
1
10
-1.37464191770107
20
-4.42920989906068
30
0
41
1
10
-1.43848245106358
20
-4.04286538655003
30
0
41
1
10
-1.55492025426076
20
-3.25980613133493
30
0
41
1
10
-1.60753025207398
20
-2.86309861159856
30
0
41
1
10
-1.67414509281366
20
-2.25856982386534
30
0
41
1
10
-1.69427910225542
20
-2.05547235697082
30
0
41
1
10
-1.720809668903
20
-1.74818388274395
30
0
41
1
10
-1.72904283683667
20
-1.64528138410392
30
0
41
1
10
-1.74411754427723
20
-1.43972015377184
30
0
41
1
10
-1.75097190728465
20
-1.33692150334679
30
0
41
1
10
-1.76938952483024
20
-1.02847005779316
30
0
41
1
10
-1.77881369580271
20
-0.822761881301403
30
0
41
1
10
-1.79137807494828
20
-0.411189125581387
30
0
41
1
10
-1.79754609551321
20
0.0005418097730967
30
0
41
1
10
-1.79135312802683
20
0.41258213473958
30
0
41
1
10
-1.7787347782095
20
0.824781359776097
30
0
41
1
10
-1.76926982289669
20
1.03095952328064
30
0
41
1
10
-1.74458111668804
20
1.44346492154577
30
0
41
1
10
-1.72931046442918
20
1.65009418594534
30
0
41
1
10
-1.69395938565037
20
2.05879746438538
30
0
41
1
10
-1.67384597566203
20
2.26145078101041
30
0
41
1
10
-1.60730494401747
20
2.86481056040481
30
0
41
1
10
-1.55475828557684
20
3.26095452027206
30
0
41
1
10
-1.43842306954181
20
4.04321174825225
30
0
41
1
10
-1.37462279329503
20
4.42931851789504
30
0
41
1
10
-1.3071067811866
20
4.81115177825134
30
0
0
SPLINE
5
144
100
AcDbEntity
8
SK1
62
256
6
ByLayer
370
18
48
1
60
0
100
AcDbSpline
70
4
71
3
72
8
73
4
40
0
40
0
40
0
40
0
40
1
40
1
40
1
40
1
41
0.980125716641416
10
-0.200000000000031
20
-7.0539004516485
30
0
41
0.980125716641416
10
-0.200000000000031
20
-7.04732170563697
30
0
41
0.980125716641416
10
-0.200000000000031
20
-7.04074103874976
30
0
41
0.980125716641416
10
-0.200000000000031
20
-7.03415845155804
30
0
0
SPLINE
5
145
100
AcDbEntity
8
SK1
62
256
6
ByLayer
370
18
48
1
60
0
100
AcDbSpline
70
4
71
3
72
49
73
45
40
0
40
0
40
0
40
0
40
0.020532913792097
40
0.0487334801386653
40
0.0769340464852337
40
0.105134612831802
40
0.133335179178371
40
0.161535745524939
40
0.217936878218076
40
0.246137444564644
40
0.274338010911213
40
0.302538577257781
40
0.330739143604349
40
0.358939709950918
40
0.387140276297486
40
0.415340842644055
40
0.429441125817339
40
0.443541408990623
40
0.457641692163907
40
0.471741975337191
40
0.485842258510476
40
0.492892400097118
40
0.49994254168376
40
0.506992683270402
40
0.514042824857044
40
0.528143108030328
40
0.542243391203613
40
0.556343674376897
40
0.570443957550181
40
0.584544240723465
40
0.612744807070033
40
0.640945373416602
40
0.66914593976317
40
0.697346506109739
40
0.725547072456307
40
0.753747638802875
40
0.781948205149444
40
0.838349337842581
40
0.866549904189149
40
0.894750470535717
40
0.922951036882286
40
0.951151603228855
40
0.979352169575423
40
1
40
1
40
1
40
1
41
1
10
-38
20
-20.2928923511026
30
0
41
1
10
-38
20
-20.2928756990969
30
0
41
1
10
-38
20
-20.2516084849953
30
0
41
1
10
-38
20
-20.0459066437045
30
0
41
1
10
-38
20
-19.6579362347721
30
0
41
1
10
-38
20
-19.1216505379956
30
0
41
1
10
-38
20
-18.4471799717542
30
0
41
1
10
-38
20
-17.3708466567051
30
0
41
1
10
-38
20
-16.0627718728323
30
0
41
1
10
-38
20
-14.5156181768617
30
0
41
1
10
-38
20
-13.2517907463501
30
0
41
1
10
-38
20
-11.8841222937699
30
0
41
1
10
-38
20
-10.4165562193454
30
0
41
1
10
-38
20
-8.853726723139
30
0
41
1
10
-38
20
-7.20134092284707
30
0
41
1
10
-38
20
-5.76201911469511
30
0
41
1
10
-38
20
-4.56407656073523
30
0
41
1
10
-38
20
-3.65884583736087
30
0
41
1
10
-38
20
-2.74483905839463
30
0
41
1
10
-38
20
-1.82748828650284
30
0
41
1
10
-38
20
-1.0694776760397
30
0
41
1
10
-38
20
-0.455018198724417
30
0
41
1
10
-38
20
4.514861303E-07
30
0
41
1
10
-38
20
0.455018630552104
30
0
41
1
10
-38
20
1.06947718042707
30
0
41
1
10
-38
20
1.82748862261295
30
0
41
1
10
-38
20
2.74483966025932
30
0
41
1
10
-38
20
3.65884523285217
30
0
41
1
10
-38
20
4.56407688146012
30
0
41
1
10
-38
20
5.76201962732216
30
0
41
1
10
-38
20
7.20134053529
30
0
41
1
10
-38
20
8.85372716578038
30
0
41
1
10
-38
20
10.4165563625368
30
0
41
1
10
-38
20
11.884121927153
30
0
41
1
10
-38
20
13.2517911056129
30
0
41
1
10
-38
20
14.5156182315173
30
0
41
1
10
-38
20
16.0627714181563
30
0
41
1
10
-38
20
17.3708469037194
30
0
41
1
10
-38
20
18.4471796582741
30
0
41
1
10
-38
20
19.121649880576
30
0
41
1
10
-38
20
19.6579364097435
30
0
41
1
10
-38
20
20.0459061788578
30
0
41
1
10
-38
20
20.2519150744937
30
0
41
1
10
-38
20
20.2930697056378
30
0
41
1
10
-38
20
20.2928909201906
30
0
0
SPLINE
5
146
100
AcDbEntity
8
SK1
62
256
6
ByLayer
370
13
48
1
60
0
100
AcDbSpline
70
4
71
3
72
21
73
17
40
0
40
0
40
0
40
0
40
0.0502202387041858
40
0.118505744019935
40
0.186791249335685
40
0.255076754651434
40
0.323362259967184
40
0.391647765282933
40
0.528218775914432
40
0.596504281230182
40
0.664789786545931
40
0.733075291861681
40
0.80136079717743
40
0.869646302493179
40
0.937931807808929
40
1
40
1
40
1
40
1
41
1
10
-0.394913799811292
20
21.8654694310013
30
0
41
1
10
-0.394913799811263
20
21.8658585491198
30
0
41
1
10
-0.394913799811263
20
21.8217984981983
30
0
41
1
10
-0.394913799811292
20
21.6019829919255
30
0
41
1
10
-0.394913799811292
20
21.1908660117695
30
0
41
1
10
-0.394913799811292
20
20.6247611340725
30
0
41
1
10
-0.394913799811292
20
19.9145926563567
30
0
41
1
10
-0.394913799811292
20
18.7870406318774
30
0
41
1
10
-0.394913799811292
20
17.4047589502432
30
0
41
1
10
-0.394913799811292
20
15.7849099352292
30
0
41
1
10
-0.394913799811292
20
14.4558608746283
30
0
41
1
10
-0.394913799811292
20
13.014724351229
30
0
41
1
10
-0.394913799811292
20
11.4638144327396
30
0
41
1
10
-0.394913799811292
20
9.80498177095927
30
0
41
1
10
-0.394913799811292
20
8.09321828866484
30
0
41
1
10
-0.394913799811292
20
6.90653972901183
30
0
41
1
10
-0.394913799811292
20
6.32722135061283
30
0
0
SPLINE
5
147
100
AcDbEntity
8
SK1
62
256
6
ByLayer
370
18
48
1
60
0
100
AcDbSpline
70
4
71
3
72
8
73
4
40
0
40
0
40
0
40
0
40
1
40
1
40
1
40
1
41
0.980125716641413
10
-0.200000000000002
20
7.03416121607608
30
0
41
0.980125716641413
10
-0.199999999999973
20
7.06207342499979
30
0
41
0.980125716641413
10
-0.199999999999973
20
7.08995110616732
30
0
41
0.980125716641413
10
-0.199999999999973
20
7.11779421607617
30
0
0
SPLINE
5
148
100
AcDbEntity
8
SK1
62
256
6
ByLayer
370
18
48
1
60
0
100
AcDbSpline
70
4
71
3
72
49
73
45
40
0
40
0
40
0
40
0
40
0.0160124149809981
40
0.0444830930612946
40
0.0729537711415911
40
0.101424449221887
40
0.129895127302184
40
0.15836580538248
40
0.215307161543074
40
0.24377783962337
40
0.272248517703666
40
0.300719195783963
40
0.329189873864259
40
0.357660551944556
40
0.386131230024852
40
0.414601908105149
40
0.428837247145297
40
0.443072586185445
40
0.457307925225594
40
0.471543264265742
40
0.48577860330589
40
0.492896272825964
40
0.500013942346038
40
0.507131611866112
40
0.514249281386186
40
0.528484620426335
40
0.542719959466483
40
0.556955298506631
40
0.571190637546779
40
0.585425976586928
40
0.613896654667224
40
0.642367332747521
40
0.670838010827817
40
0.699308688908114
40
0.72777936698841
40
0.756250045068706
40
0.784720723149003
40
0.841662079309596
40
0.870132757389892
40
0.898603435470189
40
0.927074113550485
40
0.955544791630782
40
0.984015469711078
40
1
40
1
40
1
40
1
41
1
10
-36.5
20
21.1558714112304
30
0
41
1
10
-36.5
20
21.1495818101618
30
0
41
1
10
-36.5
20
21.1027904772144
30
0
41
1
10
-36.5
20
20.9025884164263
30
0
41
1
10
-36.5
20
20.5018751860753
30
0
41
1
10
-36.5
20
19.9491724688865
30
0
41
1
10
-36.5
20
19.2550489357272
30
0
41
1
10
-36.5
20
18.1505179338899
30
0
41
1
10
-36.5
20
16.8015889830236
30
0
41
1
10
-36.5
20
15.2144138486304
30
0
41
1
10
-36.5
20
13.9146794509994
30
0
41
1
10
-36.5
20
12.5065635742002
30
0
41
1
10
-36.5
20
10.9931136245939
30
0
41
1
10
-36.5
20
9.37743069816284
30
0
41
1
10
-36.5
20
7.66285826183417
30
0
41
1
10
-36.5
20
6.15816931379928
30
0
41
1
10
-36.5
20
4.9049974336175
30
0
41
1
10
-36.5
20
3.94891719908253
30
0
41
1
10
-36.5
20
2.9762147707124
30
0
41
1
10
-36.5
20
1.99071870036127
30
0
41
1
10
-36.5
20
1.16514681856441
30
0
41
1
10
-36.5
20
0.49809871324851
30
0
41
1
10
-36.5
20
2.384194602E-07
30
0
41
1
10
-36.5
20
-0.498098462230757
30
0
41
1
10
-36.5
20
-1.16514702467009
30
0
41
1
10
-36.5
20
-1.99071854296866
30
0
41
1
10
-36.5
20
-2.97621435827224
30
0
41
1
10
-36.5
20
-3.94891745941499
30
0
41
1
10
-36.5
20
-4.90499731091177
30
0
41
1
10
-36.5
20
-6.15816884754437
30
0
41
1
10
-36.5
20
-7.66285852360605
30
0
41
1
10
-36.5
20
-9.37743039030656
30
0
41
1
10
-36.5
20
-10.99311337117
30
0
41
1
10
-36.5
20
-12.5065639108223
30
0
41
1
10
-36.5
20
-13.9146791761935
30
0
41
1
10
-36.5
20
-15.2144137189483
30
0
41
1
10
-36.5
20
-16.8015894462653
30
0
41
1
10
-36.5
20
-18.1505177013547
30
0
41
1
10
-36.5
20
-19.2550491829544
30
0
41
1
10
-36.5
20
-19.9491731575017
30
0
41
1
10
-36.5
20
-20.5018750148337
30
0
41
1
10
-36.5
20
-20.9025888554179
30
0
41
1
10
-36.5
20
-21.1027146292102
30
0
41
1
10
-36.5
20
-21.1495233403902
30
0
41
1
10
-36.5
20
-21.1558385889332
30
0
0
SPLINE
5
149
100
AcDbEntity
8
SK1
62
256
6
ByLayer
370
18
48
1
60
0
100
AcDbSpline
70
4
71
3
72
21
73
17
40
0
40
0
40
0
40
0
40
0.039240224457858
40
0.109216369493603
40
0.179192514529348
40
0.249168659565093
40
0.319144804600838
40
0.389120949636583
40
0.459097094672328
40
0.599049384743817
40
0.669025529779562
40
0.739001674815307
40
0.808977819851052
40
0.878953964886797
40
0.948930109922542
40
1
40
1
40
1
40
1
41
1
10
-0.200000000000017
20
-7.08539735388831
30
0
41
1
10
-0.200000000000017
20
-7.4394852386969
30
0
41
1
10
-0.200000000000017
20
-8.40948806464002
30
0
41
1
10
-0.200000000000017
20
-9.9289251834638
30
0
41
1
10
-0.200000000000017
20
-11.6002663989664
30
0
41
1
10
-0.200000000000017
20
-13.162036332288
30
0
41
1
10
-0.200000000000017
20
-14.6127447816534
30
0
41
1
10
-0.200000000000017
20
-15.950291901789
30
0
41
1
10
-0.200000000000017
20
-17.5796134899866
30
0
41
1
10
-0.200000000000017
20
-18.9715631674393
30
0
41
1
10
-0.200000000000017
20
-20.105789193882
30
0
41
1
10
-0.200000000000017
20
-20.8206095145274
30
0
41
1
10
-0.200000000000017
20
-21.3905986807661
30
0
41
1
10
-0.200000000000017
20
-21.8047322024479
30
0
41
1
10
-0.200000000000017
20
-22.0258590710115
30
0
41
1
10
-0.200000000000017
20
-22.0704755313363
30
0
41
1
10
-0.200000000000017
20
-22.0703745453458
30
0
0
SPLINE
5
14A
100
AcDbEntity
8
SK1
62
256
6
ByLayer
370
18
48
1
60
0
100
AcDbSpline
70
4
71
3
72
32
73
28
40
0
40
0
40
0
40
0
40
0.250000000000002
40
0.250000000000002
40
0.375000000000002
40
0.375000000000002
40
0.500000000000002
40
0.500000000000002
40
0.625000000000002
40
0.625000000000002
40
0.687500000000001
40
0.687500000000001
40
0.75
40
0.75
40
0.812499999999999
40
0.812499999999999
40
0.843749999999999
40
0.843749999999999
40
0.874999999999999
40
0.874999999999999
40
0.906249999999999
40
0.906249999999999
40
0.9375
40
0.9375
40
0.96875
40
0.96875
40
1
40
1
40
1
40
1
41
1
10
-1.30710678118655
20
4.81115177825137
30
0
41
1
10
-1.27776094215346
20
4.97711562958051
30
0
41
1
10
-1.24445474088378
20
5.14127607213072
30
0
41
1
10
-1.18536324259091
20
5.38437609466135
30
0
41
1
10
-1.16411410166916
20
5.46491938757273
30
0
41
1
10
-1.11750013847299
20
5.62462479791699
30
0
41
1
10
-1.09222933922737
20
5.70354894528955
30
0
41
1
10
-1.03597558707773
20
5.85897875620597
30
0
41
1
10
-1.00507947149296
20
5.93551305897702
30
0
41
1
10
-0.951537336733935
20
6.04756122695201
30
0
41
1
10
-0.932473247849941
20
6.0844461354001
30
0
41
1
10
-0.890745707221811
20
6.15690597798803
30
0
41
1
10
-0.867964363687918
20
6.19272059446288
30
0
41
1
10
-0.81712123483328
20
6.26114842409615
30
0
41
1
10
-0.789394425858006
20
6.29356478838167
30
0
41
1
10
-0.74105353006513
20
6.33702795492954
30
0
41
1
10
-0.723634935305967
20
6.35074513132108
30
0
41
1
10
-0.685806402556381
20
6.3748637181028
30
0
41
1
10
-0.665603370023774
20
6.38514303600903
30
0
41
1
10
-0.622102468665389
20
6.39998734213981
30
0
41
1
10
-0.599687731218722
20
6.40423336369167
30
0
41
1
10
-0.553245972254786
20
6.40502240224978
30
0
41
1
10
-0.530471361560558
20
6.40147524378972
30
0
41
1
10
-0.486753113655226
20
6.38787241492469
30
0
41
1
10
-0.466607865993751
20
6.37816775067614
30
0
41
1
10
-0.428885771233183
20
6.35508794642672
30
0
41
1
10
-0.411293294227562
20
6.34166087006349
30
0
41
1
10
-0.394913799811292
20
6.32722135062437
30
0
0
SPLINE
5
14B
100
AcDbEntity
8
SK1
62
256
6
ByLayer
370
18
48
1
60
0
100
AcDbSpline
70
4
71
3
72
32
73
28
40
0
40
0
40
0
40
0
40
0.0312500000000005
40
0.0312500000000005
40
0.062500000000001
40
0.062500000000001
40
0.0937500000000015
40
0.0937500000000015
40
0.125000000000002
40
0.125000000000002
40
0.156250000000002
40
0.156250000000002
40
0.187500000000003
40
0.187500000000003
40
0.250000000000003
40
0.250000000000003
40
0.312500000000004
40
0.312500000000004
40
0.375000000000004
40
0.375000000000004
40
0.500000000000004
40
0.500000000000004
40
0.625000000000004
40
0.625000000000004
40
0.750000000000003
40
0.750000000000003
40
1
40
1
40
1
40
1
41
1
10
-0.394913799811292
20
-6.32721828439907
30
0
41
1
10
-0.411169702827039
20
-6.34154884003183
30
0
41
1
10
-0.428432689769153
20
-6.35475565889098
30
0
41
1
10
-0.465972582494885
20
-6.37782646793315
30
0
41
1
10
-0.486169045069261
20
-6.38756903357609
30
0
41
1
10
-0.528834802002649
20
-6.40107546113694
30
0
41
1
10
-0.551911827630931
20
-6.40484674033527
30
0
41
1
10
-0.59759647995736
20
-6.4044468991618
30
0
41
1
10
-0.620666657453
20
-6.40029767867216
30
0
41
1
10
-0.663770142860585
20
-6.38592912502901
30
0
41
1
10
-0.684186273479156
20
-6.37571954267724
30
0
41
1
10
-0.72165089236654
20
-6.35216508603165
30
0
41
1
10
-0.739125153205379
20
-6.33860938748936
30
0
41
1
10
-0.788099585621694
20
-6.29500212833881
30
0
41
1
10
-0.815900527777785
20
-6.26261583511771
30
0
41
1
10
-0.866746075133221
20
-6.19452170639306
30
0
41
1
10
-0.889657313576322
20
-6.15866825589436
30
0
41
1
10
-0.931589886782092
20
-6.08609644673814
30
0
41
1
10
-0.950735693127655
20
-6.04915001273997
30
0
41
1
10
-1.00449108222139
20
-5.93690912819588
30
0
41
1
10
-1.03548744556028
20
-5.86023563385643
30
0
41
1
10
-1.09190951976356
20
-5.70451929766094
30
0
41
1
10
-1.11725974479188
20
-5.62540226977166
30
0
41
1
10
-1.1639578554223
20
-5.46549802550047
30
0
41
1
10
-1.18522246232581
20
-5.38492681950908
30
0
41
1
10
-1.24438554784462
20
-5.14161561829977
30
0
41
1
10
-1.27772950254064
20
-4.97729333579235
30
0
41
1
10
-1.30710678118655
20
-4.81115156937966
30
0
0
SPLINE
5
14C
100
AcDbEntity
8
SK1
62
256
6
ByLayer
370
13
48
1
60
0
100
AcDbSpline
70
4
71
3
72
21
73
17
40
0
40
0
40
0
40
0
40
0.0620686614459542
40
0.13035457225977
40
0.198640483073585
40
0.266926393887401
40
0.335212304701216
40
0.403498215515032
40
0.471784126328847
40
0.608355947956478
40
0.676641858770294
40
0.744927769584109
40
0.813213680397925
40
0.88149959121174
40
0.949785502025556
40
1
40
1
40
1
40
1
41
1
10
-0.394913799811292
20
-6.32721828439904
30
0
41
1
10
-0.394913799811292
20
-6.90653762641452
30
0
41
1
10
-0.394913799811292
20
-8.09321756934099
30
0
41
1
10
-0.394913799811292
20
-9.80498157314145
30
0
41
1
10
-0.394913799811292
20
-11.4638140893219
30
0
41
1
10
-0.394913799811292
20
-13.0147246633635
30
0
41
1
10
-0.394913799811292
20
-14.4558606687731
30
0
41
1
10
-0.394913799811292
20
-15.7849097442956
30
0
41
1
10
-0.394913799811292
20
-17.4047594204778
30
0
41
1
10
-0.394913799811292
20
-18.7870404111631
30
0
41
1
10
-0.394913799811292
20
-19.9145928494951
30
0
41
1
10
-0.394913799811292
20
-20.6247618481558
30
0
41
1
10
-0.394913799811292
20
-21.1908658435729
30
0
41
1
10
-0.394913799811292
20
-21.6019834098091
30
0
41
1
10
-0.394913799811292
20
-21.8217920994108
30
0
41
1
10
-0.394913799811292
20
-21.8658541715515
30
0
41
1
10
-0.394913799811292
20
-21.8654696411395
30
0
0
SPLINE
5
14D
100
AcDbEntity
8
SK1
62
256
6
ByLayer
370
18
48
1
60
0
100
AcDbSpline
70
4
71
3
72
10
73
6
40
0
40
0
40
0
40
0
40
0.5
40
0.5
40
1
40
1
40
1
40
1
41
1
10
-0.200000000000017
20
7.08540004767101
30
0
41
1
10
-0.156583385644495
20
6.99642670418811
30
0
41
1
10
-0.120283283599946
20
6.90513296551012
30
0
41
1
10
-0.0550209890645874
20
6.71973937652893
30
0
41
1
10
-0.0262457922467547
20
6.62558864937205
30
0
41
1
10
1.99E-13
20
6.53032573994014
30
0
0
SPLINE
5
14E
100
AcDbEntity
8
SK1
62
256
6
ByLayer
370
18
48
1
60
0
100
AcDbSpline
70
4
71
3
72
26
73
22
40
0
40
0
40
0
40
0
40
0.0312499999999993
40
0.0312499999999993
40
0.0624999999999985
40
0.0624999999999985
40
0.0937499999999978
40
0.0937499999999978
40
0.124999999999997
40
0.124999999999997
40
0.187499999999996
40
0.187499999999996
40
0.249999999999994
40
0.249999999999994
40
0.374999999999993
40
0.374999999999993
40
0.499999999999992
40
0.499999999999992
40
0.749999999999996
40
0.749999999999996
40
1
40
1
40
1
40
1
41
1
10
-0.394913799811292
20
6.32722135061283
30
0
41
1
10
-0.388622933830277
20
6.3216755700586
30
0
41
1
10
-0.381718055746631
20
6.31678135987394
30
0
41
1
10
-0.366393862507692
20
6.31000229927824
30
0
41
1
10
-0.357848061635252
20
6.30823128443399
30
0
41
1
10
-0.340711445902173
20
6.31011955599652
30
0
41
1
10
-0.33229375517368
20
6.31383663914289
30
0
41
1
10
-0.317887705763468
20
6.32417971455038
30
0
41
1
10
-0.311700702543959
20
6.33067859325854
30
0
41
1
10
-0.295298997789331
20
6.35157922031652
30
0
41
1
10
-0.287085973884672
20
6.36730565066384
30
0
41
1
10
-0.272955344086341
20
6.39930333387281
30
0
41
1
10
-0.267171029982904
20
6.41559723945602
30
0
41
1
10
-0.251809441444351
20
6.4649237465031
30
0
41
1
10
-0.244218821653675
20
6.49843170227936
30
0
41
1
10
-0.231491141946464
20
6.56582630636504
30
0
41
1
10
-0.226489017484681
20
6.59947291062286
30
0
41
1
10
-0.213927703741945
20
6.70027098060299
30
0
41
1
10
-0.20878121269368
20
6.76728109810057
30
0
41
1
10
-0.201940349251345
20
6.90096555412316
30
0
41
1
10
-0.200330815103399
20
6.96763966545905
30
0
41
1
10
-0.200000000000017
20
7.0341612160729
30
0
0
SPLINE
5
14F
100
AcDbEntity
8
SK1
62
256
6
ByLayer
370
13
48
1
60
0
100
AcDbSpline
70
4
71
3
72
49
73
45
40
0
40
0
40
0
40
0
40
0.0208873842652973
40
0.0490707106785565
40
0.0772540370918156
40
0.105437363505075
40
0.133620689918334
40
0.161804016331593
40
0.218170669158112
40
0.246353995571371
40
0.27453732198463
40
0.302720648397889
40
0.330903974811148
40
0.359087301224407
40
0.387270627637666
40
0.415453954050926
40
0.429545617257555
40
0.443637280464185
40
0.457728943670814
40
0.471820606877444
40
0.485912270084073
40
0.492958101687388
40
0.500003933290703
40
0.507049764894018
40
0.514095596497333
40
0.528187259703962
40
0.542278922910592
40
0.556370586117221
40
0.570462249323851
40
0.584553912530481
40
0.61273723894374
40
0.640920565356999
40
0.669103891770258
40
0.697287218183517
40
0.725470544596776
40
0.753653871010035
40
0.781837197423295
40
0.838203850249813
40
0.866387176663072
40
0.894570503076331
40
0.92275382948959
40
0.95093715590285
40
0.979120482316109
40
1
40
1
40
1
40
1
41
1
10
-1.99503997793928
20
21.8252682031773
30
0
41
1
10
-1.99503997793926
20
21.8259553008075
30
0
41
1
10
-1.99503997793928
20
21.7821406775469
30
0
41
1
10
-1.99503997793928
20
21.5622159608078
30
0
41
1
10
-1.99503997793928
20
21.1516905297669
30
0
41
1
10
-1.99503997793928
20
20.5863476884834
30
0
41
1
10
-1.99503997793928
20
19.8770915138249
30
0
41
1
10
-1.99503997793928
20
18.7508484467722
30
0
41
1
10
-1.99503997793928
20
17.370463175446
30
0
41
1
10
-1.99503997793928
20
15.752471971849
30
0
41
1
10
-1.99503997793928
20
14.4250897201646
30
0
41
1
10
-1.99503997793928
20
12.985830725026
30
0
41
1
10
-1.99503997793928
20
11.4370507512064
30
0
41
1
10
-1.99503997793928
20
9.78067154978811
30
0
41
1
10
-1.99503997793928
20
8.01821733349291
30
0
41
1
10
-1.99503997793928
20
6.46319635117558
30
0
41
1
10
-1.99503997793928
20
5.16749918372619
30
0
41
1
10
-1.99503997793928
20
4.17226659327741
30
0
41
1
10
-1.99503997793928
20
3.15436880408234
30
0
41
1
10
-1.99503997793928
20
2.11640247274801
30
0
41
1
10
-1.99503997793928
20
1.23881045451827
30
0
41
1
10
-1.99503997793928
20
0.531269482892839
30
0
41
1
10
-1.99503997793928
20
7.43625606E-08
30
0
41
1
10
-1.99503997793928
20
-0.531269371094965
30
0
41
1
10
-1.99503997793928
20
-1.23881043770962
30
0
41
1
10
-1.99503997793928
20
-2.11640245296419
30
0
41
1
10
-1.99503997793928
20
-3.15436853749512
30
0
41
1
10
-1.99503997793928
20
-4.17226658860133
30
0
41
1
10
-1.99503997793928
20
-5.16749921349111
30
0
41
1
10
-1.99503997793928
20
-6.46319592062628
30
0
41
1
10
-1.99503997793928
20
-8.01821749841284
30
0
41
1
10
-1.99503997793928
20
-9.78067134571356
30
0
41
1
10
-1.99503997793928
20
-11.4370504129057
30
0
41
1
10
-1.99503997793928
20
-12.9858310385528
30
0
41
1
10
-1.99503997793928
20
-14.4250895103889
30
0
41
1
10
-1.99503997793928
20
-15.7524717843982
30
0
41
1
10
-1.99503997793928
20
-17.370463645283
30
0
41
1
10
-1.99503997793928
20
-18.7508482253859
30
0
41
1
10
-1.99503997793928
20
-19.8770917100388
30
0
41
1
10
-1.99503997793928
20
-20.5863484011186
30
0
41
1
10
-1.99503997793928
20
-21.1516903613971
30
0
41
1
10
-1.99503997793928
20
-21.5622163798915
30
0
41
1
10
-1.99503997793928
20
-21.7821189905351
30
0
41
1
10
-1.99503997793928
20
-21.825941359932
30
0
41
1
10
-1.99503997793928
20
-21.8252690411193
30
0
0
SPLINE
5
150
100
AcDbEntity
8
SK1
62
256
6
ByLayer
370
18
48
1
60
0
100
AcDbSpline
70
4
71
3
72
10
73
6
40
0
40
0
40
0
40
0
40
0.5
40
0.5
40
1
40
1
40
1
40
1
41
1
10
0
20
-6.53032259051451
30
0
41
1
10
-0.026245814054306
20
-6.62558556045749
30
0
41
1
10
-0.0550210228789467
20
-6.71973635662815
30
0
41
1
10
-0.120283318990403
20
-6.90513009808126
30
0
41
1
10
-0.156583410983217
20
-6.99642392008917
30
0
41
1
10
-0.199999999995868
20
-7.08539735389175
30
0
0
SPLINE
5
151
100
AcDbEntity
8
SK1
62
256
6
ByLayer
370
18
48
1
60
0
100
AcDbSpline
70
4
71
3
72
21
73
17
40
0
40
0
40
0
40
0
40
0.0510243012262696
40
0.12100381488423
40
0.190983328542191
40
0.260962842200152
40
0.330942355858112
40
0.400921869516073
40
0.540880896831994
40
0.610860410489955
40
0.680839924147916
40
0.750819437805876
40
0.820798951463837
40
0.890778465121797
40
0.960757978779758
40
1
40
1
40
1
40
1
41
1
10
-0.200000000000017
20
22.0703747092736
30
0
41
1
10
-0.200000000000017
20
22.0704399815059
30
0
41
1
10
-0.200000000000017
20
22.0258027419346
30
0
41
1
10
-0.200000000000017
20
21.8047317906834
30
0
41
1
10
-0.200000000000017
20
21.3905988480801
30
0
41
1
10
-0.200000000000017
20
20.8206087930611
30
0
41
1
10
-0.200000000000017
20
20.1057890164235
30
0
41
1
10
-0.200000000000017
20
18.9715633847268
30
0
41
1
10
-0.200000000000017
20
17.5796130177247
30
0
41
1
10
-0.200000000000017
20
15.9502921104789
30
0
41
1
10
-0.200000000000017
20
14.6127449675204
30
0
41
1
10
-0.200000000000017
20
13.1620360272524
30
0
41
1
10
-0.200000000000017
20
11.6002667684726
30
0
41
1
10
-0.200000000000017
20
9.92892534938241
30
0
41
1
10
-0.200000000000017
20
8.40948876069857
30
0
41
1
10
-0.200000000000017
20
7.43948702371975
30
0
41
1
10
-0.200000000000017
20
7.08540004766849
30
0
0
SPLINE
5
152
100
AcDbEntity
8
SK1
62
256
6
ByLayer
370
18
48
1
60
0
100
AcDbSpline
70
4
71
3
72
26
73
22
40
0
40
0
40
0
40
0
40
0.250000000000003
40
0.250000000000003
40
0.500000000000005
40
0.500000000000005
40
0.625000000000005
40
0.625000000000005
40
0.750000000000005
40
0.750000000000005
40
0.812500000000005
40
0.812500000000005
40
0.875000000000005
40
0.875000000000005
40
0.906250000000004
40
0.906250000000004
40
0.937500000000002
40
0.937500000000002
40
0.968750000000001
40
0.968750000000001
40
1
40
1
40
1
40
1
41
1
10
-0.200000000000017
20
-7.03415845154649
30
0
41
1
10
-0.200331074104781
20
-6.96758473110336
30
0
41
1
10
-0.201942367211302
20
-6.90082001004905
30
0
41
1
10
-0.208808543904695
20
-6.76684756093874
30
0
41
1
10
-0.213983771375126
20
-6.69957538529093
30
0
41
1
10
-0.226629907857188
20
-6.59846295366884
30
0
41
1
10
-0.231660540619856
20
-6.56479252713407
30
0
41
1
10
-0.244399284272816
20
-6.49761038234263
30
0
41
1
10
-0.252034596555262
20
-6.46403779666735
30
0
41
1
10
-0.267439101060745
20
-6.41481626716131
30
0
41
1
10
-0.273236212730978
20
-6.39857720931931
30
0
41
1
10
-0.287365755981511
20
-6.36675955901481
30
0
41
1
10
-0.295589616969494
20
-6.35108461281911
30
0
41
1
10
-0.312078412290106
20
-6.33025774259011
30
0
41
1
10
-0.318222328461729
20
-6.32386838427428
30
0
41
1
10
-0.332669805034271
20
-6.31363504737973
30
0
41
1
10
-0.34096760945684
20
-6.31005507464133
30
0
41
1
10
-0.357929669282612
20
-6.30825311318185
30
0
41
1
10
-0.366577726601548
20
-6.31005499812113
30
0
41
1
10
-0.381850124236138
20
-6.31686284615012
30
0
41
1
10
-0.388651860853372
20
-6.32169800880939
30
0
41
1
10
-0.394913799811292
20
-6.32721828439904
30
0
0
SPLINE
5
153
100
AcDbEntity
8
1
62
256
6
ByLayer
370
18
48
1
60
0
100
AcDbSpline
70
4
71
3
72
14
73
10
40
0
40
0
40
0
40
0
40
0.25
40
0.25
40
0.5
40
0.5
40
0.75
40
0.75
40
1
40
1
40
1
40
1
41
1
10
112.3245
20
28.8780838423543
30
0
41
1
10
112.3245
20
28.8798173955346
30
0
41
1
10
112.322101363894
20
28.8839223696909
30
0
41
1
10
112.313803229543
20
28.8952982718544
30
0
41
1
10
112.307850216532
20
28.9026622738455
30
0
41
1
10
112.293951093776
20
28.9190232687972
30
0
41
1
10
112.285833579189
20
28.928226363608
30
0
41
1
10
112.268493944553
20
28.9474193398036
30
0
41
1
10
112.259242453395
20
28.9574479050799
30
0
41
1
10
112.2495
20
28.9678441313361
30
0
0
SPLINE
5
154
100
AcDbEntity
8
1
62
256
6
ByLayer
370
18
48
1
60
0
100
AcDbSpline
70
4
71
3
72
8
73
4
40
0
40
0
40
0
40
0
40
1
40
1
40
1
40
1
41
1
10
112.2495
20
17.6335829581342
30
0
41
1
10
112.037366545293
20
17.8831983032507
30
0
41
1
10
111.822529300301
20
18.1296763983233
30
0
41
1
10
111.6055
20
18.373611017426
30
0
0
SPLINE
5
155
100
AcDbEntity
8
1
62
256
6
ByLayer
370
18
48
1
60
0
100
AcDbSpline
70
4
71
3
72
8
73
4
40
0
40
0
40
0
40
0
40
1
40
1
40
1
40
1
41
1
10
112.2495
20
-5.57037022471317
30
0
41
1
10
112.038207131738
20
-5.9155530145199
30
0
41
1
10
111.823431123556
20
-6.25782382538765
30
0
41
1
10
111.6055
20
-6.59745689280405
30
0
0
SPLINE
5
156
100
AcDbEntity
8
1
62
256
6
ByLayer
370
18
48
1
60
0
100
AcDbSpline
70
4
71
3
72
24
73
20
40
0
40
0
40
0
40
0
40
0.0624999999999979
40
0.0624999999999979
40
0.124999999999996
40
0.124999999999996
40
0.187499999999994
40
0.187499999999994
40
0.249999999999991
40
0.249999999999991
40
0.374999999999993
40
0.374999999999993
40
0.499999999999994
40
0.499999999999994
40
0.624999999999996
40
0.624999999999996
40
0.749999999999997
40
0.749999999999997
40
1
40
1
40
1
40
1
41
1
10
111.6055
20
22.9705056015292
30
0
41
1
10
111.597228437567
20
22.9776122011715
30
0
41
1
10
111.588914419841
20
22.9837280890158
30
0
41
1
10
111.57215708379
20
22.9929284146393
30
0
41
1
10
111.563911018039
20
22.9957843445631
30
0
41
1
10
111.549332527511
20
22.9966079268731
30
0
41
1
10
111.543058514406
20
22.9945698287035
30
0
41
1
10
111.533175608736
20
22.9866643331887
30
0
41
1
10
111.529511798149
20
22.9808577601684
30
0
41
1
10
111.521618643724
20
22.9606395868765
30
0
41
1
10
111.520184061725
20
22.9433949621493
30
0
41
1
10
111.520919902298
20
22.9077348478638
30
0
41
1
10
111.523123853493
20
22.8888737778533
30
0
41
1
10
111.529813307373
20
22.8498542855238
30
0
41
1
10
111.534358710199
20
22.8296306068069
30
0
41
1
10
111.544946601497
20
22.7892938647489
30
0
41
1
10
111.551022507126
20
22.7690160851208
30
0
41
1
10
111.571175868445
20
22.7079111464973
30
0
41
1
10
111.58712561472
20
22.6668188134641
30
0
41
1
10
111.6055
20
22.6253933182574
30
0
0
SPLINE
5
157
100
AcDbEntity
8
1
62
256
6
ByLayer
370
18
48
1
60
0
100
AcDbSpline
70
4
71
3
72
22
73
18
40
0
40
0
40
0
40
0
40
0.249999999999969
40
0.249999999999969
40
0.499999999999938
40
0.499999999999938
40
0.624999999999929
40
0.624999999999929
40
0.68749999999993
40
0.68749999999993
40
0.749999999999931
40
0.749999999999931
40
0.874999999999964
40
0.874999999999964
40
0.937499999999982
40
0.937499999999982
40
1
40
1
40
1
40
1
41
1
10
111.6055
20
-7.4690368442115
30
0
41
1
10
111.585591553727
20
-7.49752806532211
30
0
41
1
10
111.56769567603
20
-7.52586355086004
30
0
41
1
10
111.53866727079
20
-7.57918286283316
30
0
41
1
10
111.527054952205
20
-7.60492376221544
30
0
41
1
10
111.520158147362
20
-7.63574603904058
30
0
41
1
10
111.519699948156
20
-7.6445659272814
30
0
41
1
10
111.523212287993
20
-7.65380009585834
30
0
41
1
10
111.525072332122
20
-7.65614042199283
30
0
41
1
10
111.53027554466
20
-7.65909613896906
30
0
41
1
10
111.533673850252
20
-7.65969620129985
30
0
41
1
10
111.545626844133
20
-7.65870969770654
30
0
41
1
10
111.556327295088
20
-7.65426513223795
30
0
41
1
10
111.573923678963
20
-7.64376076796089
30
0
41
1
10
111.580143203835
20
-7.63958111739964
30
0
41
1
10
111.592686016535
20
-7.63042545548601
30
0
41
1
10
111.599053312079
20
-7.62542756273885
30
0
41
1
10
111.6055
20
-7.62008296619467
30
0
0
SPLINE
5
158
100
AcDbEntity
8
1
62
256
6
ByLayer
370
18
48
1
60
0
100
AcDbSpline
70
4
71
3
72
16
73
12
40
0
40
0
40
0
40
0
40
0.249999999999904
40
0.249999999999904
40
0.499999999999807
40
0.499999999999807
40
0.624999999999816
40
0.624999999999816
40
0.749999999999824
40
0.749999999999824
40
1
40
1
40
1
40
1
41
1
10
112.3245
20
-3.99465257289466
30
0
41
1
10
112.3245
20
-3.98479393112498
30
0
41
1
10
112.323364700352
20
-3.97572240151135
30
0
41
1
10
112.317618439847
20
-3.96107339831065
30
0
41
1
10
112.312832257615
20
-3.95543494674323
30
0
41
1
10
112.302386234609
20
-3.9521189582845
30
0
41
1
10
112.298459762373
20
-3.9518627336725
30
0
41
1
10
112.289703529877
20
-3.95308054565186
30
0
41
1
10
112.284909287438
20
-3.95457894976235
30
0
41
1
10
112.270258456793
20
-3.96110600176402
30
0
41
1
10
112.25972922897
20
-3.968299885058
30
0
41
1
10
112.2495
20
-3.97677529871237
30
0
0
SPLINE
5
159
100
AcDbEntity
8
1
62
256
6
ByLayer
370
18
48
1
60
0
100
AcDbSpline
70
4
71
3
72
8
73
4
40
0
40
0
40
0
40
0
40
1
40
1
40
1
40
1
41
1
10
111.6055
20
22.6253933182574
30
0
41
1
10
111.829910422179
20
22.1194546037457
30
0
41
1
10
112.044943589855
20
21.6082675252431
30
0
41
1
10
112.2495
20
21.0912167009134
30
0
0
SPLINE
5
15A
100
AcDbEntity
8
1
62
256
6
ByLayer
370
18
48
1
60
0
100
AcDbSpline
70
4
71
3
72
29
73
25
40
0
40
0
40
0
40
0
40
0.250000000000007
40
0.250000000000007
40
0.500000000000015
40
0.625000000000015
40
0.625000000000015
40
0.750000000000016
40
0.750000000000016
40
0.812500000000023
40
0.812500000000023
40
0.843750000000032
40
0.843750000000032
40
0.859375000000025
40
0.859375000000025
40
0.875000000000018
40
0.875000000000018
40
0.890625000000011
40
0.890625000000011
40
0.906250000000004
40
0.906250000000004
40
0.937499999999994
40
0.937499999999994
40
1
40
1
40
1
40
1
41
1
10
112.3245
20
7.62563670284891
30
0
41
1
10
112.3245
20
7.68059358944936
30
0
41
1
10
112.324032399932
20
7.73550368542433
30
0
41
1
10
112.321844723872
20
7.84517458638476
30
0
41
1
10
112.319316428687
20
7.92732487817304
30
0
41
1
10
112.314310421224
20
8.00911972658835
30
0
41
1
10
112.309978969288
20
8.06349287188172
30
0
41
1
10
112.307406823544
20
8.09060039460792
30
0
41
1
10
112.301580753402
20
8.13051590493956
30
0
41
1
10
112.299363093008
20
8.14374448479899
30
0
41
1
10
112.294437082563
20
8.16293146340391
30
0
41
1
10
112.29259372161
20
8.16917506541202
30
0
41
1
10
112.288543171497
20
8.17756141367184
30
0
41
1
10
112.286963273436
20
8.18022595179337
30
0
41
1
10
112.282840776615
20
8.18377723418911
30
0
41
1
10
112.280153150168
20
8.18420096454869
30
0
41
1
10
112.275457159849
20
8.18152034701737
30
0
41
1
10
112.273463656978
20
8.17895514407132
30
0
41
1
10
112.270073900227
20
8.17356961353798
30
0
41
1
10
112.268601361044
20
8.17059765945234
30
0
41
1
10
112.264535543431
20
8.16142498399856
30
0
41
1
10
112.262285393521
20
8.15495493341737
30
0
41
1
10
112.256068674689
20
8.13530473573874
30
0
41
1
10
112.252660481926
20
8.12181384003603
30
0
41
1
10
112.2495
20
8.10825412522996
30
0
0
SPLINE
5
15B
100
AcDbEntity
8
1
62
256
6
ByLayer
370
18
48
1
60
0
100
AcDbSpline
70
4
71
3
72
12
73
8
40
0
40
0
40
0
40
0
40
0.24999999999998
40
0.24999999999998
40
0.499999999999961
40
0.499999999999961
40
1
40
1
40
1
40
1
41
1
10
112.324500000009
20
26.3675876053922
30
0
41
1
10
112.324500000008
20
26.3772221576382
30
0
41
1
10
112.321873699401
20
26.3890583159479
30
0
41
1
10
112.313449392423
20
26.4145929308426
30
0
41
1
10
112.307670540604
20
26.4282616213631
30
0
41
1
10
112.287041271642
20
26.4708624306539
30
0
41
1
10
112.269646391906
20
26.5001337171809
30
0
41
1
10
112.2495
20
26.5300799335829
30
0
0
SPLINE
5
15C
100
AcDbEntity
8
1
62
256
6
ByLayer
370
18
48
1
60
0
100
AcDbSpline
70
4
71
3
72
14
73
10
40
0
40
0
40
0
40
0
40
0.25
40
0.25
40
0.5
40
0.5
40
0.75
40
0.75
40
1
40
1
40
1
40
1
41
1
10
112.2495
20
28.9129704705177
30
0
41
1
10
112.259218158141
20
28.903905065842
30
0
41
1
10
112.268664569286
20
28.8952835726591
30
0
41
1
10
112.286149535274
20
28.8797984618444
30
0
41
1
10
112.294375221403
20
28.8727705037188
30
0
41
1
10
112.308474637326
20
28.8614390573629
30
0
41
1
10
112.314381647126
20
28.8571198467059
30
0
41
1
10
112.322377751326
20
28.8525031712642
30
0
41
1
10
112.3245
20
28.8522049260041
30
0
41
1
10
112.3245
20
28.8539790198802
30
0
0
SPLINE
5
15D
100
AcDbEntity
8
1
62
256
6
ByLayer
370
18
48
1
60
0
100
AcDbSpline
70
4
71
3
72
14
73
10
40
0
40
0
40
0
40
0
40
0.25
40
0.25
40
0.5
40
0.5
40
0.75
40
0.75
40
1
40
1
40
1
40
1
41
1
10
112.2495
20
26.2553382123748
30
0
41
1
10
112.259398868046
20
26.2472314250126
30
0
41
1
10
112.269223229739
20
26.2400961103482
30
0
41
1
10
112.287974418792
20
26.2291854674856
30
0
41
1
10
112.296731434281
20
26.2256010647453
30
0
41
1
10
112.310852246407
20
26.2237352895698
30
0
41
1
10
112.316292465155
20
26.2254991105442
30
0
41
1
10
112.323020110113
20
26.2333581500304
30
0
41
1
10
112.3245
20
26.2394805992425
30
0
41
1
10
112.3245
20
26.2467427634159
30
0
0
SPLINE
5
15E
100
AcDbEntity
8
1
62
256
6
ByLayer
370
18
48
1
60
0
100
AcDbSpline
70
4
71
3
72
8
73
4
40
0
40
0
40
0
40
0
40
1
40
1
40
1
40
1
41
1
10
112.2495
20
-8.96784413133614
30
0
41
1
10
112.035547222369
20
-9.19615433146583
30
0
41
1
10
111.820860303431
20
-9.42354053540089
30
0
41
1
10
111.6055
20
-9.65007921215766
30
0
0
SPLINE
5
15F
100
AcDbEntity
8
1
62
256
6
ByLayer
370
18
48
1
60
0
100
AcDbSpline
70
4
71
3
72
30
73
26
40
0
40
0
40
0
40
0
40
0.062499999999994
40
0.062499999999994
40
0.093750000000004
40
0.093750000000004
40
0.109375000000007
40
0.109375000000007
40
0.125000000000009
40
0.125000000000009
40
0.140625000000012
40
0.140625000000012
40
0.156250000000014
40
0.156250000000014
40
0.187500000000021
40
0.187500000000021
40
0.25000000000002
40
0.25000000000002
40
0.375000000000018
40
0.375000000000018
40
0.500000000000015
40
0.500000000000015
40
0.750000000000008
40
0.750000000000008
40
1
40
1
40
1
40
1
41
1
10
112.2495
20
11.8917458747731
30
0
41
1
10
112.252585251602
20
11.878508927744
30
0
41
1
10
112.255899597279
20
11.8653817742966
30
0
41
1
10
112.261905380729
20
11.8461786989534
30
0
41
1
10
112.264083682185
20
11.8398191000677
30
0
41
1
10
112.267983901483
20
11.8307159738997
30
0
41
1
10
112.269379755249
20
11.8277761785657
30
0
41
1
10
112.272581160924
20
11.8223002413131
30
0
41
1
10
112.27439750269
20
11.8196829649793
30
0
41
1
10
112.27884813873
20
11.8161978103408
30
0
41
1
10
112.281541189178
20
11.8158117140872
30
0
41
1
10
112.285946402378
20
11.8184859567125
30
0
41
1
10
112.287666132916
20
11.8210000637133
30
0
41
1
10
112.291963767712
20
11.829012688655
30
0
41
1
10
112.293902185556
20
11.8352909182857
30
0
41
1
10
112.298993106347
20
11.8543167517449
30
0
41
1
10
112.301268828838
20
11.8676148741118
30
0
41
1
10
112.307234219055
20
11.9077317957785
30
0
41
1
10
112.30983512522
20
11.9349529775243
30
0
41
1
10
112.314214938181
20
11.9894435372769
30
0
41
1
10
112.315900690146
20
12.0167876440388
30
0
41
1
10
112.320121868679
20
12.0989705495431
30
0
41
1
10
112.321822727285
20
12.1539705993091
30
0
41
1
10
112.324029349182
20
12.2640982784596
30
0
41
1
10
112.324500000005
20
12.3192150884166
30
0
41
1
10
112.324500000005
20
12.3743632971158
30
0
0
SPLINE
5
160
100
AcDbEntity
8
1
62
256
6
ByLayer
370
18
48
1
60
0
100
AcDbSpline
70
4
71
3
72
8
73
4
40
0
40
0
40
0
40
0
40
1
40
1
40
1
40
1
41
1
10
111.6055
20
26.5974568928041
30
0
41
1
10
111.823431123556
20
26.2578238253877
30
0
41
1
10
112.038207131738
20
25.9155530145199
30
0
41
1
10
112.2495
20
25.5703702247132
30
0
0
SPLINE
5
161
100
AcDbEntity
8
1
62
256
6
ByLayer
370
18
48
1
60
0
100
AcDbSpline
70
4
71
3
72
14
73
10
40
0
40
0
40
0
40
0
40
0.25
40
0.25
40
0.5
40
0.5
40
0.75
40
0.75
40
1
40
1
40
1
40
1
41
1
10
112.2495
20
27.7516701480928
30
0
41
1
10
112.259247241143
20
27.7434093616652
30
0
41
1
10
112.268784239155
20
27.7358911180699
30
0
41
1
10
112.286942676012
20
27.7231617994199
30
0
41
1
10
112.295401197738
20
27.7180938406677
30
0
41
1
10
112.309600369956
20
27.7119377182011
30
0
41
1
10
112.31533264485
20
27.7109091615286
30
0
41
1
10
112.322732668699
20
27.7133385198427
30
0
41
1
10
112.3245
20
27.7167960692811
30
0
41
1
10
112.3245
20
27.7218227111435
30
0
0
SPLINE
5
162
100
AcDbEntity
8
1
62
256
6
ByLayer
370
18
48
1
60
0
100
AcDbSpline
70
4
71
3
72
12
73
8
40
0
40
0
40
0
40
0
40
0.5
40
0.5
40
0.75
40
0.75
40
1
40
1
40
1
40
1
41
1
10
112.2495
20
-1.09121670091341
30
0
41
1
10
112.270749376286
20
-1.037505318721
30
0
41
1
10
112.288114006892
20
-0.984092352796921
30
0
41
1
10
112.308033340519
20
-0.90441863644881
30
0
41
1
10
112.313647104952
20
-0.877806242247431
30
0
41
1
10
112.321857566803
20
-0.825404233072845
30
0
41
1
10
112.3245
20
-0.799843273402871
30
0
41
1
10
112.3245
20
-0.775463961685887
30
0
0
SPLINE
5
163
100
AcDbEntity
8
1
62
256
6
ByLayer
370
18
48
1
60
0
100
AcDbSpline
70
4
71
3
72
8
73
4
40
0
40
0
40
0
40
0
40
1
40
1
40
1
40
1
41
1
10
111.6055
20
28.7363442052146
30
0
41
1
10
111.821632798019
20
28.46793539229
30
0
41
1
10
112.036344592726
20
28.1980199940686
30
0
41
1
10
112.2495
20
27.9264544727241
30
0
0
SPLINE
5
164
100
AcDbEntity
8
1
62
256
6
ByLayer
370
18
48
1
60
0
100
AcDbSpline
70
4
71
3
72
14
73
10
40
0
40
0
40
0
40
0
40
0.25
40
0.25
40
0.5
40
0.5
40
0.75
40
0.75
40
1
40
1
40
1
40
1
41
1
10
112.2495
20
-8.96784413133614
30
0
41
1
10
112.259249604116
20
-8.95744027450567
30
0
41
1
10
112.268519251578
20
-8.94739218523767
30
0
41
1
10
112.285911691607
20
-8.92813903966282
30
0
41
1
10
112.293983863503
20
-8.918985371031
30
0
41
1
10
112.307857926255
20
-8.90265252029246
30
0
41
1
10
112.313812257457
20
-8.89528742570511
30
0
41
1
10
112.322116596227
20
-8.88389995302404
30
0
41
1
10
112.3245
20
-8.87981315485089
30
0
41
1
10
112.3245
20
-8.87808384235433
30
0
0
SPLINE
5
165
100
AcDbEntity
8
1
62
256
6
ByLayer
370
18
48
1
60
0
100
AcDbSpline
70
4
71
3
72
22
73
18
40
0
40
0
40
0
40
0
40
0.06250000000001
40
0.06250000000001
40
0.12500000000002
40
0.12500000000002
40
0.18750000000003
40
0.18750000000003
40
0.25000000000004
40
0.25000000000004
40
0.375000000000035
40
0.375000000000035
40
0.500000000000031
40
0.500000000000031
40
0.750000000000015
40
0.750000000000015
40
1
40
1
40
1
40
1
41
1
10
111.6055
20
24.5100772776504
30
0
41
1
10
111.597953135099
20
24.5163237035142
30
0
41
1
10
111.590330974831
20
24.5219282456636
30
0
41
1
10
111.575215001469
20
24.5310758420371
30
0
41
1
10
111.567808263291
20
24.5345413709489
30
0
41
1
10
111.554107443175
20
24.5383181156671
30
0
41
1
10
111.547904073597
20
24.5385925023582
30
0
41
1
10
111.537369962298
20
24.5357904907593
30
0
41
1
10
111.533213831342
20
24.532825207766
30
0
41
1
10
111.52342445853
20
24.52014194122
30
0
41
1
10
111.520891479662
20
24.5072078372263
30
0
41
1
10
111.520192653502
20
24.4789157426783
30
0
41
1
10
111.521965579882
20
24.4633166237993
30
0
41
1
10
111.53125227634
20
24.4137784840492
30
0
41
1
10
111.542520094208
20
24.3781366276164
30
0
41
1
10
111.570215633343
20
24.3062248876231
30
0
41
1
10
111.586679720459
20
24.2699815629601
30
0
41
1
10
111.6055
20
24.2334897125276
30
0
0
SPLINE
5
166
100
AcDbEntity
8
1
62
256
6
ByLayer
370
18
48
1
60
0
100
AcDbSpline
70
4
71
3
72
14
73
10
40
0
40
0
40
0
40
0
40
0.25
40
0.25
40
0.5
40
0.5
40
0.75
40
0.75
40
1
40
1
40
1
40
1
41
1
10
112.3245
20
-8.85397901988017
30
0
41
1
10
112.3245
20
-8.85218574992598
30
0
41
1
10
112.322387809429
20
-8.85249392290669
30
0
41
1
10
112.31432502053
20
-8.85715600206029
30
0
41
1
10
112.308413901572
20
-8.86148552893178
30
0
41
1
10
112.294315803534
20
-8.87282061749636
30
0
41
1
10
112.286083471685
20
-8.87985451031298
30
0
41
1
10
112.268476646095
20
-8.89545249680592
30
0
41
1
10
112.25918196488
20
-8.90393882805765
30
0
41
1
10
112.2495
20
-8.91297047051773
30
0
0
SPLINE
5
167
100
AcDbEntity
8
1
62
256
6
ByLayer
370
18
48
1
60
0
100
AcDbSpline
70
4
71
3
72
14
73
10
40
0
40
0
40
0
40
0
40
0.25
40
0.25
40
0.5
40
0.5
40
0.75
40
0.75
40
1
40
1
40
1
40
1
41
1
10
112.2495
20
-6.53007993358287
30
0
41
1
10
112.259575518723
20
-6.51510337274502
30
0
41
1
10
112.26893994717
20
-6.50028213773103
30
0
41
1
10
112.286161317257
20
-6.4709631921383
30
0
41
1
10
112.294078365003
20
-6.45635044895781
30
0
41
1
10
112.307745770548
20
-6.42808583423718
30
0
41
1
10
112.313467963412
20
-6.41454149086701
30
0
41
1
10
112.321870739995
20
-6.38906242721706
30
0
41
1
10
112.324500000008
20
-6.37721853651038
30
0
41
1
10
112.324500000009
20
-6.36758760539206
30
0
0
SPLINE
5
168
100
AcDbEntity
8
1
62
256
6
ByLayer
370
18
48
1
60
0
100
AcDbSpline
70
4
71
3
72
14
73
10
40
0
40
0
40
0
40
0
40
0.25
40
0.25
40
0.5
40
0.5
40
0.75
40
0.75
40
1
40
1
40
1
40
1
41
1
10
112.249500000001
20
29.0497595350347
30
0
41
1
10
112.259250762044
20
29.0402857484307
30
0
41
1
10
112.268531564471
20
29.0313407515936
30
0
41
1
10
112.285956831417
20
29.0147203145367
30
0
41
1
10
112.294181236189
20
29.006972118358
30
0
41
1
10
112.308177764175
20
28.9940407991515
30
0
41
1
10
112.314130113209
20
28.9886933373445
30
0
41
1
10
112.322274316532
20
28.9818216055316
30
0
41
1
10
112.3245
20
28.9802755671428
30
0
41
1
10
112.3245
20
28.9809298975149
30
0
0
SPLINE
5
169
100
AcDbEntity
8
1
62
256
6
ByLayer
370
18
48
1
60
0
100
AcDbSpline
70
4
71
3
72
8
73
4
40
0
40
0
40
0
40
0
40
1
40
1
40
1
40
1
41
1
10
111.6055
20
29.1635661381751
30
0
41
1
10
111.821310496289
20
28.9112851613349
30
0
41
1
10
112.036011628907
20
28.6577519784765
30
0
41
1
10
112.2495
20
28.4028498781752
30
0
0
SPLINE
5
16A
100
AcDbEntity
8
1
62
256
6
ByLayer
370
18
48
1
60
0
100
AcDbSpline
70
4
71
3
72
14
73
10
40
0
40
0
40
0
40
0
40
0.25
40
0.25
40
0.5
40
0.5
40
0.75
40
0.75
40
1
40
1
40
1
40
1
41
1
10
112.2495
20
23.9767752987124
30
0
41
1
10
112.259733022903
20
23.9682967416001
30
0
41
1
10
112.270234663605
20
23.9611039699823
30
0
41
1
10
112.289965723692
20
23.9523389980604
30
0
41
1
10
112.299095384783
20
23.9510252133538
30
0
41
1
10
112.31290217886
20
23.9555071749107
30
0
41
1
10
112.317639435507
20
23.9611014471509
30
0
41
1
10
112.323378773838
20
23.9757839108189
30
0
41
1
10
112.324500000004
20
23.9848636445606
30
0
41
1
10
112.324500000004
20
23.9946525728915
30
0
0
SPLINE
5
16B
100
AcDbEntity
8
1
62
256
6
ByLayer
370
18
48
1
60
0
100
AcDbSpline
70
4
71
3
72
8
73
4
40
0
40
0
40
0
40
0
40
1
40
1
40
1
40
1
41
1
10
112.2495
20
28.654960886978
30
0
41
1
10
112.035047370323
20
28.8478202535533
30
0
41
1
10
111.820374683942
20
29.0403524947096
30
0
41
1
10
111.6055
20
29.232584456276
30
0
0
SPLINE
5
16C
100
AcDbEntity
8
1
62
256
6
ByLayer
370
18
48
1
60
0
100
AcDbSpline
70
4
71
3
72
22
73
18
40
0
40
0
40
0
40
0
40
0.125
40
0.125
40
0.25
40
0.25
40
0.375
40
0.375
40
0.5
40
0.5
40
0.625
40
0.625
40
0.75
40
0.75
40
0.875
40
0.875
40
1
40
1
40
1
40
1
41
1
10
111.6055
20
29.232584456276
30
0
41
1
10
111.593739100244
20
29.2431060346604
30
0
41
1
10
111.582242551691
20
29.2529637034774
30
0
41
1
10
111.561004489412
20
29.2700210168544
30
0
41
1
10
111.551171313917
20
29.2772898909988
30
0
41
1
10
111.534859454679
20
29.287508216025
30
0
41
1
10
111.528448239208
20
29.2903652507063
30
0
41
1
10
111.520922723968
20
29.2903897893652
30
0
41
1
10
111.519748598788
20
29.2875543836234
30
0
41
1
10
111.522224174389
20
29.277369159435
30
0
41
1
10
111.52578250787
20
29.2700835318898
30
0
41
1
10
111.536008302682
20
29.2529765435597
30
0
41
1
10
111.542700715944
20
29.2431003754386
30
0
41
1
10
111.55792775034
20
29.2221399537162
30
0
41
1
10
111.566628668
20
29.2108285302577
30
0
41
1
10
111.585192455251
20
29.1876523821414
30
0
41
1
10
111.595079721552
20
29.1757473715766
30
0
41
1
10
111.6055
20
29.1635661381751
30
0
0
SPLINE
5
16D
100
AcDbEntity
8
1
62
256
6
ByLayer
370
18
48
1
60
0
100
AcDbSpline
70
4
71
3
72
12
73
8
40
0
40
0
40
0
40
0
40
0.249999999999969
40
0.249999999999969
40
0.499999999999939
40
0.499999999999939
40
1
40
1
40
1
40
1
41
1
10
112.324500000001
20
27.1637626739618
30
0
41
1
10
112.324500000001
20
27.1715373958858
30
0
41
1
10
112.321911983203
20
27.1813988967018
30
0
41
1
10
112.313432961461
20
27.2035631073316
30
0
41
1
10
112.307648294226
20
27.2155633646174
30
0
41
1
10
112.28692603742
20
27.2535669467308
30
0
41
1
10
112.26945325247
20
27.2802033455514
30
0
41
1
10
112.2495
20
27.3075317791603
30
0
0
SPLINE
5
16E
100
AcDbEntity
8
1
62
256
6
ByLayer
370
18
48
1
60
0
100
AcDbSpline
70
4
71
3
72
8
73
4
40
0
40
0
40
0
40
0
40
1
40
1
40
1
40
1
41
1
10
112.2495
20
26.2553382123749
30
0
41
1
10
112.034840117021
20
26.4311362953957
30
0
41
1
10
111.820173237194
20
26.6069229874504
30
0
41
1
10
111.6055
20
26.7826993267326
30
0
0
SPLINE
5
16F
100
AcDbEntity
8
1
62
256
6
ByLayer
370
18
48
1
60
0
100
AcDbSpline
70
4
71
3
72
28
73
24
40
0
40
0
40
0
40
0
40
0.0312500000000008
40
0.0312500000000008
40
0.0625000000000017
40
0.0625000000000017
40
0.0937500000000024
40
0.0937500000000024
40
0.125000000000003
40
0.125000000000003
40
0.156250000000004
40
0.156250000000004
40
0.187500000000005
40
0.187500000000005
40
0.249999999999996
40
0.249999999999996
40
0.374999999999994
40
0.374999999999994
40
0.499999999999991
40
0.499999999999991
40
0.749999999999995
40
0.749999999999995
40
1
40
1
40
1
40
1
41
1
10
111.6055
20
18.3736110174265
30
0
41
1
10
111.600004737356
20
18.3797875327546
30
0
41
1
10
111.594211799427
20
18.385440004199
30
0
41
1
10
111.582136331548
20
18.3944658059905
30
0
41
1
10
111.57576477563
20
18.3978512493377
30
0
41
1
10
111.563317296278
20
18.4002949759263
30
0
41
1
10
111.557514772273
20
18.3991964835392
30
0
41
1
10
111.547823371798
20
18.3934003488371
30
0
41
1
10
111.543809077888
20
18.388776261346
30
0
41
1
10
111.537237166688
20
18.3779639553225
30
0
41
1
10
111.534613239458
20
18.3717112771188
30
0
41
1
10
111.530308572924
20
18.3586075473056
30
0
41
1
10
111.528603869242
20
18.3516955018505
30
0
41
1
10
111.524370352316
20
18.3302465554497
30
0
41
1
10
111.52272221291
20
18.3150076820548
30
0
41
1
10
111.519763477303
20
18.2692045549593
30
0
41
1
10
111.520294258414
20
18.2378635210707
30
0
41
1
10
111.523619220996
20
18.1744196062315
30
0
41
1
10
111.526514159926
20
18.142285553798
30
0
41
1
10
111.537644146478
20
18.045035343152
30
0
41
1
10
111.548337322641
20
17.9788780529986
30
0
41
1
10
111.573783904193
20
17.8469187893535
30
0
41
1
10
111.588606152318
20
17.780864123037
30
0
41
1
10
111.6055
20
17.7147398224981
30
0
0
SPLINE
5
170
100
AcDbEntity
8
1
62
256
6
ByLayer
370
18
48
1
60
0
100
AcDbSpline
70
4
71
3
72
18
73
14
40
0
40
0
40
0
40
0
40
0.249968095842053
40
0.249968095842053
40
0.499936191684107
40
0.499936191684107
40
0.74990428752616
40
0.74990428752616
40
0.87488833544719
40
0.87488833544719
40
0.999872383368221
40
0.999872383368221
40
1
40
1
40
1
40
1
41
1
10
111.6055
20
-9.71845039550519
30
0
41
1
10
111.594473615081
20
-9.72952461901494
30
0
41
1
10
111.583803369287
20
-9.74025054482783
30
0
41
1
10
111.564083431371
20
-9.76008724804402
30
0
41
1
10
111.555014921523
20
-9.76921681013593
30
0
41
1
10
111.538999468337
20
-9.78534863253779
30
0
41
1
10
111.53232660182
20
-9.79207480980369
30
0
41
1
10
111.525334326431
20
-9.79912462020755
30
0
41
1
10
111.523536304035
20
-9.80093782392666
30
0
41
1
10
111.521100737935
20
-9.80339407740644
30
0
41
1
10
111.520483021234
20
-9.80401712451362
30
0
41
1
10
111.520499697021
20
-9.80400030557934
30
0
41
1
10
111.52050040117
20
-9.80399959538602
30
0
41
1
10
111.520501105316
20
-9.80399888518953
30
0
0
SPLINE
5
171
100
AcDbEntity
8
1
62
256
6
ByLayer
370
18
48
1
60
0
100
AcDbSpline
70
4
71
3
72
20
73
16
40
0
40
0
40
0
40
0
40
0.0624999999999975
40
0.0624999999999975
40
0.124999999999995
40
0.124999999999995
40
0.249999999999994
40
0.249999999999994
40
0.374999999999993
40
0.374999999999993
40
0.499999999999992
40
0.499999999999992
40
0.749999999999996
40
0.749999999999996
40
1
40
1
40
1
40
1
41
1
10
13.4613248654051
20
30.0805927603169
30
0
41
1
10
13.4770644463612
20
30.0805927603169
30
0
41
1
10
13.4925182901835
20
30.0801205034908
30
0
41
1
10
13.5229048530191
20
30.0783134473998
30
0
41
1
10
13.5379543967302
20
30.0769634801343
30
0
41
1
10
13.5815263070002
20
30.0717959485601
30
0
41
1
10
13.6079581046675
20
30.0669872793661
30
0
41
1
10
13.6571615474718
20
30.055427253592
30
0
41
1
10
13.6790876596515
20
30.048869374708
30
0
41
1
10
13.7192040363286
20
30.0347407881727
30
0
41
1
10
13.7374937976137
20
30.0271072862759
30
0
41
1
10
13.7874862877331
20
30.0032932993814
30
0
41
1
10
13.8142652669256
20
29.9863830332716
30
0
41
1
10
13.8599440812238
20
29.9511519005795
30
0
41
1
10
13.8787443055273
20
29.9327613369587
30
0
41
1
10
13.8943375672974
20
29.9139548464691
30
0
0
SPLINE
5
172
100
AcDbEntity
8
1
62
256
6
ByLayer
370
18
48
1
60
0
100
AcDbSpline
70
4
71
3
72
12
73
8
40
0
40
0
40
0
40
0
40
0.249999999999991
40
0.249999999999991
40
0.499999999999981
40
0.499999999999981
40
1
40
1
40
1
40
1
41
1
10
112.3245
20
22.6809876861899
30
0
41
1
10
112.3245
20
22.6997071452707
30
0
41
1
10
112.321855324873
20
22.719794914746
30
0
41
1
10
112.313599942066
20
22.7614838723725
30
0
41
1
10
112.30788129739
20
22.78314743734
30
0
41
1
10
112.287783443018
20
22.8478323650262
30
0
41
1
10
112.270417001908
20
22.8913749481953
30
0
41
1
10
112.2495
20
22.9353083296312
30
0
0
SPLINE
5
173
100
AcDbEntity
8
1
62
256
6
ByLayer
370
18
48
1
60
0
100
AcDbSpline
70
4
71
3
72
8
73
4
40
0
40
0
40
0
40
0
40
1
40
1
40
1
40
1
41
1
10
111.6055
20
1.62638898257399
30
0
41
1
10
111.822529300301
20
1.87032360167675
30
0
41
1
10
112.037366545293
20
2.11680169674935
30
0
41
1
10
112.2495
20
2.36641704186579
30
0
0
SPLINE
5
174
100
AcDbEntity
8
1
62
256
6
ByLayer
370
18
48
1
60
0
100
AcDbSpline
70
4
71
3
72
22
73
18
40
0
40
0
40
0
40
0
40
0.250000000000006
40
0.250000000000006
40
0.375000000000005
40
0.375000000000005
40
0.500000000000003
40
0.500000000000003
40
0.625000000000002
40
0.625000000000002
40
0.75
40
0.75
40
0.812499999999998
40
0.812499999999998
40
0.874999999999996
40
0.874999999999996
40
1
40
1
40
1
40
1
41
1
10
13.8943375672973
20
-29.9139548464691
30
0
41
1
10
13.8787501654511
20
-29.9327542695084
30
0
41
1
10
13.8600981524863
20
-29.9510098933136
30
0
41
1
10
13.8259097308548
20
-29.977413331973
30
0
41
1
10
13.8134681559941
20
-29.9860499646858
30
0
41
1
10
13.7859660569446
20
-30.0029372147449
30
0
41
1
10
13.7708313351931
20
-30.011226780568
30
0
41
1
10
13.7374904471463
20
-30.0271090091071
30
0
41
1
10
13.7193382950672
20
-30.0346937657148
30
0
41
1
10
13.6789402941255
20
-30.048921013161
30
0
41
1
10
13.6568439565998
20
-30.0554993245996
30
0
41
1
10
13.6205171073693
20
-30.0640378913833
30
0
41
1
10
13.6078439741679
20
-30.0666711051738
30
0
41
1
10
13.5810949420214
20
-30.0714138984386
30
0
41
1
10
13.567014259034
20
-30.0735144081009
30
0
41
1
10
13.5238105256953
20
-30.0786461490401
30
0
41
1
10
13.4927587974109
20
-30.0805927603169
30
0
41
1
10
13.4613248654052
20
-30.0805927603169
30
0
0
SPLINE
5
175
100
AcDbEntity
8
1
62
256
6
ByLayer
370
18
48
1
60
0
100
AcDbSpline
70
4
71
3
72
8
73
4
40
0
40
0
40
0
40
0
40
1
40
1
40
1
40
1
41
1
10
112.2495
20
28.2705960321683
30
0
41
1
10
112.034973355329
20
28.4574120577276
30
0
41
1
10
111.820302546545
20
28.6440075237985
30
0
41
1
10
111.6055
20
28.8304003628101
30
0
0
SPLINE
5
176
100
AcDbEntity
8
1
62
256
6
ByLayer
370
18
48
1
60
0
100
AcDbSpline
70
4
71
3
72
12
73
8
40
0
40
0
40
0
40
0
40
0.250000000000001
40
0.250000000000001
40
0.500000000000003
40
0.500000000000003
40
1
40
1
40
1
40
1
41
1
10
112.3245
20
20.7754639616859
30
0
41
1
10
112.3245
20
20.7999091198558
30
0
41
1
10
112.321817981306
20
20.8257509458841
30
0
41
1
10
112.313562475329
20
20.8782508842314
30
0
41
1
10
112.307981564277
20
20.9046421962933
30
0
41
1
10
112.288101027238
20
20.9841111952551
30
0
41
1
10
112.270762412543
20
21.0374723673838
30
0
41
1
10
112.2495
20
21.0912167009134
30
0
0
SPLINE
5
177
100
AcDbEntity
8
1
62
256
6
ByLayer
370
18
48
1
60
0
100
AcDbSpline
70
4
71
3
72
14
73
10
40
0
40
0
40
0
40
0
40
0.25
40
0.25
40
0.5
40
0.5
40
0.75
40
0.75
40
1
40
1
40
1
40
1
41
1
10
112.2495
20
28.654960886978
30
0
41
1
10
112.259215998502
20
28.646223193626
30
0
41
1
10
112.268726165071
20
28.6379823211317
30
0
41
1
10
112.286346638797
20
28.6235082432094
30
0
41
1
10
112.294625799941
20
28.6171378972796
30
0
41
1
10
112.308773781988
20
28.6074583306913
30
0
41
1
10
112.314644882502
20
28.6041706494089
30
0
41
1
10
112.322485000347
20
28.6018182843393
30
0
41
1
10
112.3245
20
28.6027592296193
30
0
41
1
10
112.3245
20
28.6056268367875
30
0
0
SPLINE
5
178
100
AcDbEntity
8
1
62
256
6
ByLayer
370
18
48
1
60
0
100
AcDbSpline
70
4
71
3
72
14
73
10
40
0
40
0
40
0
40
0
40
0.25
40
0.25
40
0.5
40
0.5
40
0.75
40
0.75
40
1
40
1
40
1
40
1
41
1
10
112.3245
20
-8.23091262382377
30
0
41
1
10
112.3245
20
-8.22691789710078
30
0
41
1
10
112.322626132983
20
-8.22475946430143
30
0
41
1
10
112.314843542028
20
-8.2248115931792
30
0
41
1
10
112.309162894578
20
-8.22698104097398
30
0
41
1
10
112.294854222523
20
-8.23503253593012
30
0
41
1
10
112.286589612437
20
-8.2407014516844
30
0
41
1
10
112.26861271811
20
-8.25437559966096
30
0
41
1
10
112.259209704467
20
-8.26214053984162
30
0
41
1
10
112.2495
20
-8.2705960321683
30
0
0
SPLINE
5
179
100
AcDbEntity
8
1
62
256
6
ByLayer
370
18
48
1
60
0
100
AcDbSpline
70
4
71
3
72
12
73
8
40
0
40
0
40
0
40
0
40
0.25
40
0.25
40
0.5
40
0.5
40
1
40
1
40
1
40
1
41
1
10
112.3245
20
18.1800854813311
30
0
41
1
10
112.3245
20
18.2149391508413
30
0
41
1
10
112.321916951756
20
18.2505459171109
30
0
41
1
10
112.313952554405
20
18.3225386608404
30
0
41
1
10
112.308463266611
20
18.3590590332577
30
0
41
1
10
112.288693751875
20
18.4684794525101
30
0
41
1
10
112.271251087085
20
18.5414311115801
30
0
41
1
10
112.2495
20
18.614405042173
30
0
0
SPLINE
5
17A
100
AcDbEntity
8
1
62
256
6
ByLayer
370
18
48
1
60
0
100
AcDbSpline
70
4
71
3
72
20
73
16
40
0
40
0
40
0
40
0
40
0.124999999999972
40
0.124999999999972
40
0.187499999999961
40
0.187499999999961
40
0.249999999999949
40
0.249999999999949
40
0.374999999999963
40
0.374999999999963
40
0.499999999999976
40
0.499999999999976
40
0.749999999999988
40
0.749999999999988
40
1
40
1
40
1
40
1
41
1
10
111.6055
20
25.7591455874816
30
0
41
1
10
111.591241209992
20
25.7707955390167
30
0
41
1
10
111.576882009736
20
25.7804531729583
30
0
41
1
10
111.557418433899
20
25.7884657702569
30
0
41
1
10
111.55141786387
20
25.7899919676717
30
0
41
1
10
111.540736957698
20
25.7903960135115
30
0
41
1
10
111.536294750605
20
25.789278403277
30
0
41
1
10
111.525397558399
20
25.7823442394068
30
0
41
1
10
111.521806464736
20
25.7729752613701
30
0
41
1
10
111.519817784919
20
25.7505443210121
30
0
41
1
10
111.521200723363
20
25.7375040508776
30
0
41
1
10
111.529841545333
20
25.6949118150192
30
0
41
1
10
111.541334881166
20
25.663103963605
30
0
41
1
10
111.569508859252
20
25.598922252976
30
0
41
1
10
111.586315553106
20
25.5663315348299
30
0
41
1
10
111.6055
20
25.5333158840139
30
0
0
SPLINE
5
17B
100
AcDbEntity
8
1
62
256
6
ByLayer
370
18
48
1
60
0
100
AcDbSpline
70
4
71
3
72
8
73
4
40
0
40
0
40
0
40
0
40
1
40
1
40
1
40
1
41
1
10
111.6055
20
-6.78269932673257
30
0
41
1
10
111.820173237194
20
-6.60692298745033
30
0
41
1
10
112.034840117021
20
-6.43113629539568
30
0
41
1
10
112.2495
20
-6.25533821237494
30
0
0
SPLINE
5
17C
100
AcDbEntity
8
1
62
256
6
ByLayer
370
18
48
1
60
0
100
AcDbSpline
70
4
71
3
72
34
73
30
40
0
40
0
40
0
40
0
40
0.0156250000000046
40
0.0156250000000046
40
0.0234375000000068
40
0.0234375000000068
40
0.031250000000009
40
0.031250000000009
40
0.0390625000000112
40
0.0390625000000112
40
0.0468750000000134
40
0.0468750000000134
40
0.0625000000000123
40
0.0625000000000123
40
0.0937500000000124
40
0.0937500000000124
40
0.125000000000012
40
0.125000000000012
40
0.187500000000011
40
0.187500000000011
40
0.250000000000011
40
0.250000000000011
40
0.375000000000009
40
0.375000000000009
40
0.500000000000008
40
0.500000000000008
40
0.750000000000004
40
0.750000000000004
40
1
40
1
40
1
40
1
41
1
10
111.6055
20
13.7827284368678
30
0
41
1
10
111.600770565557
20
13.7934128371715
30
0
41
1
10
111.595549054338
20
13.8039389499717
30
0
41
1
10
111.585900390277
20
13.8174750715076
30
0
41
1
10
111.582318343786
20
13.8216552662913
30
0
41
1
10
111.574314046877
20
13.8273723295758
30
0
41
1
10
111.56971601516
20
13.8286222789857
30
0
41
1
10
111.561718660099
20
13.8261309539014
30
0
41
1
10
111.558300967182
20
13.8227328087736
30
0
41
1
10
111.552786193003
20
13.8147135537979
30
0
41
1
10
111.550603107456
20
13.8101189826933
30
0
41
1
10
111.544820911684
20
13.7955510410409
30
0
41
1
10
111.542027970043
20
13.7848099310431
30
0
41
1
10
111.534988669662
20
13.7520660876275
30
0
41
1
10
111.532125846609
20
13.7295957892228
30
0
41
1
10
111.527546360837
20
13.6845910010535
30
0
41
1
10
111.525936675823
20
13.6619277234906
30
0
41
1
10
111.522187937599
20
13.5936705320072
30
0
41
1
10
111.521123714516
20
13.5478104896583
30
0
41
1
10
111.520277547574
20
13.455735877557
30
0
41
1
10
111.520544772605
20
13.4095102779931
30
0
41
1
10
111.522565645691
20
13.2704594063637
30
0
41
1
10
111.525520224338
20
13.1771930597436
30
0
41
1
10
111.532835222886
20
12.9906986667347
30
0
41
1
10
111.537238897876
20
12.8973822391248
30
0
41
1
10
111.551541689553
20
12.6172541796707
30
0
41
1
10
111.562501630545
20
12.430264609913
30
0
41
1
10
111.584379308983
20
12.0558814416811
30
0
41
1
10
111.595352138883
20
11.8684580369184
30
0
41
1
10
111.6055
20
11.6809335420851
30
0
0
SPLINE
5
17D
100
AcDbEntity
8
1
62
256
6
ByLayer
370
18
48
1
60
0
100
AcDbSpline
70
4
71
3
72
8
73
4
40
0
40
0
40
0
40
0
40
1
40
1
40
1
40
1
41
1
10
111.6055
20
28.1757784213043
30
0
41
1
10
111.822056039247
20
27.8882313992869
30
0
41
1
10
112.036782319601
20
27.5988748078191
30
0
41
1
10
112.2495
20
27.3075317791603
30
0
0
SPLINE
5
17E
100
AcDbEntity
8
1
62
256
6
ByLayer
370
18
48
1
60
0
100
AcDbSpline
70
4
71
3
72
8
73
4
40
0
40
0
40
0
40
0
40
1
40
1
40
1
40
1
41
1
10
111.6055
20
-9.67254327625002
30
0
41
1
10
111.820569637573
20
-9.46550429427512
30
0
41
1
10
112.035247896482
20
-9.25792569674107
30
0
41
1
10
112.2495
20
-9.04975953503538
30
0
0
SPLINE
5
17F
100
AcDbEntity
8
1
62
256
6
ByLayer
370
18
48
1
60
0
100
AcDbSpline
70
4
71
3
72
8
73
4
40
0
40
0
40
0
40
0
40
1
40
1
40
1
40
1
41
1
10
111.6055
20
-9.51155124309344
30
0
41
1
10
111.820462678659
20
-9.31244894935
30
0
41
1
10
112.035137860735
20
-9.11293424054929
30
0
41
1
10
112.2495
20
-8.91297047051773
30
0
0
SPLINE
5
180
100
AcDbEntity
8
1
62
256
6
ByLayer
370
18
48
1
60
0
100
AcDbSpline
70
4
71
3
72
20
73
16
40
0
40
0
40
0
40
0
40
0.0625000000000013
40
0.0625000000000013
40
0.125000000000003
40
0.125000000000003
40
0.250000000000004
40
0.250000000000004
40
0.375000000000005
40
0.375000000000005
40
0.500000000000006
40
0.500000000000006
40
0.750000000000003
40
0.750000000000003
40
1
40
1
40
1
40
1
41
1
10
10.5386751345949
20
9.34922131452512
30
0
41
1
10
10.5229355536388
20
9.34922131452512
30
0
41
1
10
10.5074817098165
20
9.35074113394288
30
0
41
1
10
10.4770951469809
20
9.35655221855276
30
0
41
1
10
10.4620456032698
20
9.36089212483333
30
0
41
1
10
10.4184736929998
20
9.37748487924964
30
0
41
1
10
10.3920418953325
20
9.39290424748307
30
0
41
1
10
10.3428384525281
20
9.42982857023335
30
0
41
1
10
10.3209123403485
20
9.45071431640773
30
0
41
1
10
10.2807959636713
20
9.49551986864822
30
0
41
1
10
10.2625062023862
20
9.51963835126784
30
0
41
1
10
10.2125137122669
20
9.59453680346903
30
0
41
1
10
10.1857347330744
20
9.64728479257934
30
0
41
1
10
10.1400559187761
20
9.75611455014879
30
0
41
1
10
10.1212556944726
20
9.8124105937143
30
0
41
1
10
10.1056624327026
20
9.86941261896621
30
0
0
SPLINE
5
181
100
AcDbEntity
8
1
62
256
6
ByLayer
370
18
48
1
60
0
100
AcDbSpline
70
4
71
3
72
20
73
16
40
0
40
0
40
0
40
0
40
0.0625000000000002
40
0.0625000000000002
40
0.125000000000001
40
0.125000000000001
40
0.250000000000003
40
0.250000000000003
40
0.375000000000005
40
0.375000000000005
40
0.500000000000007
40
0.500000000000007
40
0.750000000000003
40
0.750000000000003
40
1
40
1
40
1
40
1
41
1
10
13.4613248654051
20
-9.34922131452518
30
0
41
1
10
13.4770644463612
20
-9.34922131452518
30
0
41
1
10
13.4925182901835
20
-9.35074113394293
30
0
41
1
10
13.522904853019
20
-9.35655221855282
30
0
41
1
10
13.5379543967302
20
-9.36089212483338
30
0
41
1
10
13.5815263070002
20
-9.37748487924969
30
0
41
1
10
13.6079581046675
20
-9.39290424748313
30
0
41
1
10
13.6571615474718
20
-9.42982857023338
30
0
41
1
10
13.6790876596514
20
-9.45071431640775
30
0
41
1
10
13.7192040363286
20
-9.49551986864824
30
0
41
1
10
13.7374937976137
20
-9.51963835126784
30
0
41
1
10
13.7874862877331
20
-9.594536803469
30
0
41
1
10
13.8142652669255
20
-9.64728479257931
30
0
41
1
10
13.8599440812238
20
-9.75611455014871
30
0
41
1
10
13.8787443055273
20
-9.81241059371428
30
0
41
1
10
13.8943375672974
20
-9.86941261896615
30
0
0
SPLINE
5
182
100
AcDbEntity
8
1
62
256
6
ByLayer
370
18
48
1
60
0
100
AcDbSpline
70
4
71
3
72
8
73
4
40
0
40
0
40
0
40
0
40
1
40
1
40
1
40
1
41
1
10
111.6055
20
29.6500792121577
30
0
41
1
10
111.820860303431
20
29.4235405354009
30
0
41
1
10
112.035547222369
20
29.1961543314659
30
0
41
1
10
112.2495
20
28.9678441313361
30
0
0
SPLINE
5
183
100
AcDbEntity
8
1
62
256
6
ByLayer
370
18
48
1
60
0
100
AcDbSpline
70
4
71
3
72
8
73
4
40
0
40
0
40
0
40
0
40
1
40
1
40
1
40
1
41
1
10
112.2495
20
22.4160122997164
30
0
41
1
10
112.035005737834
20
22.6011103791873
30
0
41
1
10
111.820331960648
20
22.7859304687195
30
0
41
1
10
111.6055
20
22.9705056015292
30
0
0
SPLINE
5
184
100
AcDbEntity
8
1
62
256
6
ByLayer
370
18
48
1
60
0
100
AcDbSpline
70
4
71
3
72
14
73
10
40
0
40
0
40
0
40
0
40
0.25
40
0.25
40
0.5
40
0.5
40
0.75
40
0.75
40
1
40
1
40
1
40
1
41
1
10
112.2495
20
28.2705960321683
30
0
41
1
10
112.259229511984
20
28.2621232908817
30
0
41
1
10
112.268802577543
20
28.2542265447333
30
0
41
1
10
112.286601863368
20
28.2406968240446
30
0
41
1
10
112.29495424747
20
28.2349725137476
30
0
41
1
10
112.309141149508
20
28.2269970357158
30
0
41
1
10
112.314957231867
20
28.2247944411961
30
0
41
1
10
112.322603033857
20
28.2247762044744
30
0
41
1
10
112.3245
20
28.2269651603499
30
0
41
1
10
112.3245
20
28.2309126238237
30
0
0
SPLINE
5
185
100
AcDbEntity
8
1
62
256
6
ByLayer
370
18
48
1
60
0
100
AcDbSpline
70
4
71
3
72
26
73
22
40
0
40
0
40
0
40
0
40
0.249999999999976
40
0.249999999999976
40
0.499999999999953
40
0.499999999999953
40
0.62499999999994
40
0.62499999999994
40
0.687499999999938
40
0.687499999999938
40
0.749999999999936
40
0.749999999999936
40
0.812499999999934
40
0.812499999999934
40
0.843749999999933
40
0.843749999999933
40
0.874999999999932
40
0.874999999999932
40
0.937499999999966
40
0.937499999999966
40
1
40
1
40
1
40
1
41
1
10
111.6055
20
-0.569242332578398
30
0
41
1
10
111.587643156855
20
-0.618796140023136
30
0
41
1
10
111.572015153518
20
-0.668512631275263
30
0
41
1
10
111.545768365898
20
-0.766660157987985
30
0
41
1
10
111.534984812796
20
-0.81530227965402
30
0
41
1
10
111.524406680009
20
-0.887272810571545
30
0
41
1
10
111.521852859371
20
-0.91104365054295
30
0
41
1
10
111.520418804176
20
-0.945280661147507
30
0
41
1
10
111.520340103259
20
-0.956485071097006
30
0
41
1
10
111.521316572032
20
-0.978309271276174
30
0
41
1
10
111.522379144929
20
-0.988995986053084
30
0
41
1
10
111.526211670088
20
-1.00878926677996
30
0
41
1
10
111.528987116134
20
-1.01807519162159
30
0
41
1
10
111.535310298849
20
-1.0297189979099
30
0
41
1
10
111.537755477579
20
-1.03316287372382
30
0
41
1
10
111.543557893523
20
-1.03887205255532
30
0
41
1
10
111.546935275676
20
-1.04111371998775
30
0
41
1
10
111.558257275307
20
-1.045142446326
30
0
41
1
10
111.567713171199
20
-1.0439723663317
30
0
41
1
10
111.586740793639
20
-1.03515342783055
30
0
41
1
10
111.596375598404
20
-1.0278428099312
30
0
41
1
10
111.605500000001
20
-1.01933248955041
30
0
0
SPLINE
5
186
100
AcDbEntity
8
1
62
256
6
ByLayer
370
18
48
1
60
0
100
AcDbSpline
70
4
71
3
72
23
73
19
40
0
40
0
40
0
40
0
40
0.25
40
0.25
40
0.5
40
0.5
40
0.625
40
0.625
40
0.75
40
0.75
40
0.875
40
0.875
40
0.9375
40
0.96875
40
0.984375
40
0.9921875
40
0.9921875
40
1
40
1
40
1
40
1
41
1
10
106.834074173711
20
28.4901706298098
30
0
41
1
10
106.866506005314
20
28.741216166415
30
0
41
1
10
106.919066255081
20
28.9602764039587
30
0
41
1
10
107.049699398132
20
29.3363328575595
30
0
41
1
10
107.127950378954
20
29.4933174258647
30
0
41
1
10
107.257628256163
20
29.6824564087143
30
0
41
1
10
107.302929301754
20
29.7377683557899
30
0
41
1
10
107.39670122019
20
29.8328271238712
30
0
41
1
10
107.445196176207
20
29.8725882576055
30
0
41
1
10
107.544344211991
20
29.9362989009164
30
0
41
1
10
107.59486615512
20
29.9601726441739
30
0
41
1
10
107.671382229891
20
29.9840579180018
30
0
41
1
10
107.709824074906
20
29.9930181025982
30
0
41
1
10
107.754847465967
20
29.9982509299658
30
0
41
1
10
107.777384520055
20
29.9995611142083
30
0
41
1
10
107.787046728407
20
29.9998425822051
30
0
41
1
10
107.793488753862
20
29.9999679793595
30
0
41
1
10
107.79674309583
20
30
30
0
41
1
10
107.8
20
30
30
0
0
SPLINE
5
187
100
AcDbEntity
8
1
62
256
6
ByLayer
370
18
48
1
60
0
100
AcDbSpline
70
4
71
3
72
20
73
16
40
0
40
0
40
0
40
0
40
0.249999999999963
40
0.249999999999963
40
0.374999999999969
40
0.374999999999969
40
0.499999999999976
40
0.499999999999976
40
0.624999999999982
40
0.624999999999982
40
0.749999999999988
40
0.749999999999988
40
0.874999999999994
40
0.874999999999994
40
1
40
1
40
1
40
1
41
1
10
111.6055
20
-9.46622562512158
30
0
41
1
10
111.584252717749
20
-9.4897321106051
30
0
41
1
10
111.564759178412
20
-9.51224560233797
30
0
41
1
10
111.541538810157
20
-9.54124559106106
30
0
41
1
10
111.534819153131
20
-9.55011437807022
30
0
41
1
10
111.524848890269
20
-9.56471044004024
30
0
41
1
10
111.52154227505
20
-9.57053861408653
30
0
41
1
10
111.519879790056
20
-9.57734398175862
30
0
41
1
10
111.521526851207
20
-9.57828103051983
30
0
41
1
10
111.529927354216
20
-9.57478519074729
30
0
41
1
10
111.536474905501
20
-9.57045413706857
30
0
41
1
10
111.552728930923
20
-9.55806718415045
30
0
41
1
10
111.562321241512
20
-9.55010660988768
30
0
41
1
10
111.583076711062
20
-9.53206471485089
30
0
41
1
10
111.594055349581
20
-9.52215148385912
30
0
41
1
10
111.6055
20
-9.51155124309344
30
0
0
SPLINE
5
188
100
AcDbEntity
8
1
62
256
6
ByLayer
370
18
48
1
60
0
100
AcDbSpline
70
4
71
3
72
22
73
18
40
0
40
0
40
0
40
0
40
0.12500000000003
40
0.12500000000003
40
0.25000000000006
40
0.25000000000006
40
0.312500000000056
40
0.312500000000056
40
0.375000000000051
40
0.375000000000051
40
0.500000000000048
40
0.500000000000048
40
0.625000000000046
40
0.625000000000046
40
0.750000000000043
40
0.750000000000043
40
1
40
1
40
1
40
1
41
1
10
111.6055
20
28.2968754376164
30
0
41
1
10
111.592993500049
20
28.3074523250385
30
0
41
1
10
111.580706276432
20
28.3169884662057
30
0
41
1
10
111.558138730979
20
28.3320952215856
30
0
41
1
10
111.547727595054
20
28.3377169168032
30
0
41
1
10
111.535443493164
20
28.3413685698684
30
0
41
1
10
111.531968282765
20
28.3417770780818
30
0
41
1
10
111.526382198925
20
28.3409817366965
30
0
41
1
10
111.52422997549
20
28.3397516724482
30
0
41
1
10
111.519946272536
20
28.3338790234322
30
0
41
1
10
111.519899733555
20
28.3270135233085
30
0
41
1
10
111.523871617955
20
28.3100249021396
30
0
41
1
10
111.52788622281
20
28.299761289305
30
0
41
1
10
111.538430599233
20
28.277690421516
30
0
41
1
10
111.544991563262
20
28.2657814976337
30
0
41
1
10
111.567418182231
20
28.228501555755
30
0
41
1
10
111.585340647127
20
28.2025463743235
30
0
41
1
10
111.6055
20
28.1757784213043
30
0
0
SPLINE
5
189
100
AcDbEntity
8
1
62
256
6
ByLayer
370
18
48
1
60
0
100
AcDbSpline
70
4
71
3
72
18
73
14
40
0
40
0
40
0
40
0
40
0.125000000000004
40
0.125000000000004
40
0.250000000000008
40
0.250000000000008
40
0.375000000000012
40
0.375000000000012
40
0.500000000000017
40
0.500000000000017
40
0.750000000000008
40
0.750000000000008
40
1
40
1
40
1
40
1
41
1
10
112.249499999998
20
17.6335829581314
30
0
41
1
10
112.255413958302
20
17.6266240616903
30
0
41
1
10
112.261770458563
20
17.620309723728
30
0
41
1
10
112.275305680587
20
17.6114240544774
30
0
41
1
10
112.282553982376
20
17.6091772882425
30
0
41
1
10
112.295087758634
20
17.611654955515
30
0
41
1
10
112.300230069096
20
17.6160994770658
30
0
41
1
10
112.308159051547
20
17.627511653736
30
0
41
1
10
112.31112797194
20
17.6345170795921
30
0
41
1
10
112.318222409956
20
17.6566935589684
30
0
41
1
10
112.32074518818
20
17.6733780266883
30
0
41
1
10
112.323912195392
20
17.7071517001382
30
0
41
1
10
112.3245
20
17.7245106959301
30
0
41
1
10
112.3245
20
17.7421428531869
30
0
0
SPLINE
5
18A
100
AcDbEntity
8
1
62
256
6
ByLayer
370
18
48
1
60
0
100
AcDbSpline
70
4
71
3
72
8
73
4
40
0
40
0
40
0
40
0
40
1
40
1
40
1
40
1
41
1
10
112.2495
20
23.9767752987127
30
0
41
1
10
112.034872069188
20
24.1546049768551
30
0
41
1
10
111.820203979195
20
24.3323700434185
30
0
41
1
10
111.6055
20
24.5100772776498
30
0
0
SPLINE
5
18B
100
AcDbEntity
8
1
62
256
6
ByLayer
370
18
48
1
60
0
100
AcDbSpline
70
4
71
3
72
14
73
10
40
0
40
0
40
0
40
0
40
0.25
40
0.25
40
0.5
40
0.5
40
0.75
40
0.75
40
1
40
1
40
1
40
1
41
1
10
112.2495
20
25.2329620912907
30
0
41
1
10
112.259575474704
20
25.224729678792
30
0
41
1
10
112.26966349178
20
25.2176576935563
30
0
41
1
10
112.288734068695
20
25.2077835490402
30
0
41
1
10
112.297672368402
20
25.2051360238348
30
0
41
1
10
112.31177716259
20
25.2060335303122
30
0
41
1
10
112.316905532375
20
25.2095373596982
30
0
41
1
10
112.323198953868
20
25.2205854056193
30
0
41
1
10
112.324500000001
20
25.228127808386
30
0
41
1
10
112.324500000001
20
25.2365834598277
30
0
0
SPLINE
5
18C
100
AcDbEntity
8
1
62
256
6
ByLayer
370
18
48
1
60
0
100
AcDbSpline
70
4
71
3
72
12
73
8
40
0
40
0
40
0
40
0
40
0.250000000000022
40
0.250000000000022
40
0.500000000000044
40
0.500000000000044
40
1
40
1
40
1
40
1
41
1
10
112.324500000007
20
24.1775976034331
30
0
41
1
10
112.324500000006
20
24.1924378510664
30
0
41
1
10
112.321810105843
20
24.2092659533737
30
0
41
1
10
112.313502648554
20
24.2438881515721
30
0
41
1
10
112.307829005166
20
24.2618847017252
30
0
41
1
10
112.287476650065
20
24.3171419602466
30
0
41
1
10
112.270072992639
20
24.3543885787198
30
0
41
1
10
112.2495
20
24.3919878841886
30
0
0
SPLINE
5
18D
100
AcDbEntity
8
1
62
256
6
ByLayer
370
18
48
1
60
0
100
AcDbSpline
70
4
71
3
72
12
73
8
40
0
40
0
40
0
40
0
40
0.567291002789968
40
0.567291002789968
40
0.850936504184941
40
0.850936504184941
40
1
40
1
40
1
40
1
41
1
10
111.6055
20
29.6725432762501
30
0
41
1
10
111.582995531699
20
29.6942074323789
30
0
41
1
10
111.561880388332
20
29.7140674209438
30
0
41
1
10
111.537703837473
20
29.7354993425979
30
0
41
1
10
111.531044068949
20
29.7411000824371
30
0
41
1
10
111.524328360077
20
29.7460435311611
30
0
41
1
10
111.522644752756
20
29.7470829990585
30
0
41
1
10
111.521632044219
20
29.747437707207
30
0
0
SPLINE
5
18E
100
AcDbEntity
8
1
62
256
6
ByLayer
370
18
48
1
60
0
100
AcDbSpline
70
4
71
3
72
16
73
12
40
0
40
0
40
0
40
0
40
0.0197386845479462
40
0.0197386845479462
40
0.26480401341096
40
0.26480401341096
40
0.509869342273973
40
0.509869342273973
40
0.754934671136987
40
0.754934671136987
40
1
40
1
40
1
40
1
41
1
10
111.520502875857
20
29.7470721475957
30
0
41
1
10
111.520505348206
20
29.7469673436304
30
0
41
1
10
111.520524302163
20
29.746846080293
30
0
41
1
10
111.521001668514
20
29.7449974364367
30
0
41
1
10
111.523988903455
20
29.7407194293516
30
0
41
1
10
111.533694886272
20
29.7286365874096
30
0
41
1
10
111.540469432587
20
29.7207454646149
30
0
41
1
10
111.556128818467
20
29.703103159907
30
0
41
1
10
111.565209562342
20
29.6931288968653
30
0
41
1
10
111.584481683939
20
29.6723146861223
30
0
41
1
10
111.594730817489
20
29.6614073739258
30
0
41
1
10
111.6055
20
29.6500792121577
30
0
0
SPLINE
5
18F
100
AcDbEntity
8
1
62
256
6
ByLayer
370
18
48
1
60
0
100
AcDbSpline
70
4
71
3
72
22
73
18
40
0
40
0
40
0
40
0
40
0.125000000000001
40
0.125000000000001
40
0.250000000000002
40
0.250000000000002
40
0.312500000000002
40
0.312500000000002
40
0.375000000000002
40
0.375000000000002
40
0.500000000000009
40
0.500000000000009
40
0.625000000000016
40
0.625000000000016
40
0.750000000000024
40
0.750000000000024
40
1
40
1
40
1
40
1
41
1
10
111.6055
20
27.6200829661946
30
0
41
1
10
111.592533498862
20
27.6308327834681
30
0
41
1
10
111.579753193094
20
27.6402864467316
30
0
41
1
10
111.556254451705
20
27.654302916153
30
0
41
1
10
111.545490827475
20
27.6587687434616
30
0
41
1
10
111.533489226953
20
27.6596867674203
30
0
41
1
10
111.530205563054
20
27.6590766548954
30
0
41
1
10
111.525017733385
20
27.6560886458349
30
0
41
1
10
111.523156119715
20
27.653697451913
30
0
41
1
10
111.519717166478
20
27.6445192588561
30
0
41
1
10
111.520181417857
20
27.6355833444457
30
0
41
1
10
111.524792588522
20
27.6150938819369
30
0
41
1
10
111.528964218601
20
27.6033152733689
30
0
41
1
10
111.539577226902
20
27.5786246428309
30
0
41
1
10
111.546127538049
20
27.5654512705205
30
0
41
1
10
111.568108475269
20
27.5251641327109
30
0
41
1
10
111.585654455034
20
27.4974380464925
30
0
41
1
10
111.6055
20
27.4690368442115
30
0
0
SPLINE
5
190
100
AcDbEntity
8
1
62
256
6
ByLayer
370
18
48
1
60
0
100
AcDbSpline
70
4
71
3
72
22
73
18
40
0
40
0
40
0
40
0
40
0.250000000000003
40
0.250000000000003
40
0.375000000000001
40
0.375000000000001
40
0.499999999999999
40
0.499999999999999
40
0.624999999999997
40
0.624999999999997
40
0.749999999999996
40
0.749999999999996
40
0.812499999999995
40
0.812499999999995
40
0.874999999999994
40
0.874999999999994
40
1
40
1
40
1
40
1
41
1
10
10.1056624327026
20
29.9139548464691
30
0
41
1
10
10.1212498345488
20
29.9327542695084
30
0
41
1
10
10.1399018475136
20
29.9510098933135
30
0
41
1
10
10.1740902691451
20
29.977413331973
30
0
41
1
10
10.1865318440058
20
29.9860499646858
30
0
41
1
10
10.2140339430554
20
30.0029372147449
30
0
41
1
10
10.2291686648068
20
30.011226780568
30
0
41
1
10
10.2625095528537
20
30.0271090091071
30
0
41
1
10
10.2806617049328
20
30.0346937657148
30
0
41
1
10
10.3210597058744
20
30.048921013161
30
0
41
1
10
10.3431560434001
20
30.0554993245996
30
0
41
1
10
10.3794828926306
20
30.0640378913834
30
0
41
1
10
10.392156025832
20
30.0666711051738
30
0
41
1
10
10.4189050579785
20
30.0714138984386
30
0
41
1
10
10.4329857409659
20
30.073514408101
30
0
41
1
10
10.4761894743047
20
30.0786461490401
30
0
41
1
10
10.5072412025891
20
30.0805927603169
30
0
41
1
10
10.5386751345948
20
30.0805927603169
30
0
0
SPLINE
5
191
100
AcDbEntity
8
1
62
256
6
ByLayer
370
18
48
1
60
0
100
AcDbSpline
70
4
71
3
72
8
73
4
40
0
40
0
40
0
40
0
40
1
40
1
40
1
40
1
41
1
10
112.2495
20
29.0497595350354
30
0
41
1
10
112.035247896482
20
29.2579256967411
30
0
41
1
10
111.820569637573
20
29.4655042942751
30
0
41
1
10
111.6055
20
29.6725432762501
30
0
0
SPLINE
5
192
100
AcDbEntity
8
1
62
256
6
ByLayer
370
18
48
1
60
0
100
AcDbSpline
70
4
71
3
72
8
73
4
40
0
40
0
40
0
40
0
40
1
40
1
40
1
40
1
41
1
10
112.2495
20
-7.30753177916031
30
0
41
1
10
112.036782319601
20
-7.59887480781904
30
0
41
1
10
111.822056039247
20
-7.88823139928687
30
0
41
1
10
111.6055
20
-8.17577842130424
30
0
0
SPLINE
5
193
100
AcDbEntity
8
1
62
256
6
ByLayer
370
18
48
1
60
0
100
AcDbSpline
70
4
71
3
72
14
73
10
40
0
40
0
40
0
40
0
40
0.25
40
0.25
40
0.5
40
0.5
40
0.75
40
0.75
40
1
40
1
40
1
40
1
41
1
10
112.3245
20
-7.06633602484456
30
0
41
1
10
112.3245
20
-7.06020634488158
30
0
41
1
10
112.322879088429
20
-7.05544171188552
30
0
41
1
10
112.315723768599
20
-7.05039445904796
30
0
41
1
10
112.31012433525
20
-7.05014580877651
30
0
41
1
10
112.2959401497
20
-7.05431473101984
30
0
41
1
10
112.287363709046
20
-7.05868446623614
30
0
41
1
10
112.269011155193
20
-7.07046530434124
30
0
41
1
10
112.259309512901
20
-7.0777868692096
30
0
41
1
10
112.2495
20
-7.08592715431888
30
0
0
SPLINE
5
194
100
AcDbEntity
8
1
62
256
6
ByLayer
370
18
48
1
60
0
100
AcDbSpline
70
4
71
3
72
14
73
10
40
0
40
0
40
0
40
0
40
0.25
40
0.25
40
0.5
40
0.5
40
0.75
40
0.75
40
1
40
1
40
1
40
1
41
1
10
112.3245
20
28.2890240128757
30
0
41
1
10
112.3245
20
28.2934918735213
30
0
41
1
10
112.321992346342
20
28.3002811047651
30
0
41
1
10
112.313542185526
20
28.3166495690633
30
0
41
1
10
112.307671738472
20
28.326113517657
30
0
41
1
10
112.293819783589
20
28.3464514484414
30
0
41
1
10
112.285784157645
20
28.3573907805796
30
0
41
1
10
112.268585224205
20
28.3796566607554
30
0
41
1
10
112.259332829839
20
28.3911096182016
30
0
41
1
10
112.2495
20
28.4028498781752
30
0
0
SPLINE
5
195
100
AcDbEntity
8
1
62
256
6
ByLayer
370
18
48
1
60
0
100
AcDbSpline
70
4
71
3
72
101
73
97
40
0
40
0
40
0
40
0
40
0.0312499077119685
40
0.0312499077119685
40
0.0624998154239371
40
0.0624998154239371
40
0.0703122923519292
40
0.0703122923519292
40
0.0781247692799213
40
0.0781247692799213
40
0.0937497231359054
40
0.0937497231359054
40
0.124999630847873
40
0.124999630847873
40
0.156249538559842
40
0.156249538559842
40
0.18749944627181
40
0.18749944627181
40
0.195311923199802
40
0.195311923199802
40
0.203124400127794
40
0.203124400127794
40
0.218749353983778
40
0.218749353983778
40
0.249999261695746
40
0.249999261695746
40
0.281249169407715
40
0.281249169407715
40
0.312499077119684
40
0.312499077119684
40
0.320311554047676
40
0.320311554047676
40
0.328124030975668
40
0.328124030975668
40
0.343748984831652
40
0.343748984831652
40
0.374998892543621
40
0.40624880025559
40
0.40624880025559
40
0.421873754111574
40
0.421873754111574
40
0.429686231039566
40
0.429686231039566
40
0.437498707967558
40
0.437498707967558
40
0.468748615679527
40
0.468748615679527
40
0.499998523391496
40
0.499998523391496
40
0.531248431103465
40
0.531248431103465
40
0.546873384959449
40
0.546873384959449
40
0.554685861887441
40
0.554685861887441
40
0.562498338815433
40
0.562498338815433
40
0.593748246527402
40
0.593748246527402
40
0.624998154239371
40
0.624998154239371
40
0.656248061951339
40
0.656248061951339
40
0.671873015807324
40
0.671873015807324
40
0.679685492735316
40
0.679685492735316
40
0.687497969663308
40
0.687497969663308
40
0.718747877375277
40
0.718747877375277
40
0.749997785087246
40
0.749997785087246
40
0.781247692799215
40
0.781247692799215
40
0.789060169727207
40
0.789060169727207
40
0.796872646655199
40
0.796872646655199
40
0.812497600511184
40
0.812497600511184
40
0.843747508223153
40
0.843747508223153
40
0.874997415935122
40
0.874997415935122
40
0.906247323647091
40
0.906247323647091
40
0.921872277503076
40
0.921872277503076
40
0.93749723135906
40
0.93749723135906
40
0.968747139071029
40
0.968747139071029
40
0.999997046782999
40
0.999997046782999
40
1
40
1
40
1
40
1
41
1
10
106.834074173711
20
28.4901706298121
30
0
41
1
10
106.798446155915
20
28.2143843296285
30
0
41
1
10
106.758496330026
20
27.9025140981579
30
0
41
1
10
106.670509330691
20
27.2067784128283
30
0
41
1
10
106.622472570848
20
26.8229155765159
30
0
41
1
10
106.557622926723
20
26.2971343601593
30
0
41
1
10
106.544412412745
20
26.1896761548996
30
0
41
1
10
106.517514826931
20
25.9701140492733
30
0
41
1
10
106.503812120142
20
25.8578814814673
30
0
41
1
10
106.462112171354
20
25.5151049837673
30
0
41
1
10
106.433580252772
20
25.2789551343687
30
0
41
1
10
106.34593331646
20
24.548047845897
30
0
41
1
10
106.284773317509
20
24.0308764235697
30
0
41
1
10
106.157605678027
20
22.9379529229059
30
0
41
1
10
106.091597218742
20
22.3621986913892
30
0
41
1
10
105.955151381825
20
21.1519413956776
30
0
41
1
10
105.884713681518
20
20.5174415786978
30
0
41
1
10
105.79405309273
20
19.6866259640047
30
0
41
1
10
105.77578727834
20
19.5185505642049
30
0
41
1
10
105.739006313752
20
19.1786822310733
30
0
41
1
10
105.720554930096
20
19.0074786498664
30
0
41
1
10
105.665026833358
20
18.4900996861377
30
0
41
1
10
105.627776452815
20
18.140158026772
30
0
41
1
10
105.515389741762
20
17.0755132892295
30
0
41
1
10
105.439621506785
20
16.3460187338347
30
0
41
1
10
105.286615680592
20
14.8481695846445
30
0
41
1
10
105.209377458351
20
14.0798143620754
30
0
41
1
10
105.05353807367
20
12.503942684409
30
0
41
1
10
104.974936689379
20
11.6964291796532
30
0
41
1
10
104.875839021699
20
10.6617921732087
30
0
41
1
10
104.85598306106
20
10.4536612113744
30
0
41
1
10
104.816383835738
20
10.0369420536537
30
0
41
1
10
104.796616036966
20
9.82809824641052
30
0
41
1
10
104.737407148588
20
9.20012780952405
30
0
41
1
10
104.698060619305
20
8.77956288413654
30
0
41
1
10
104.580389707074
20
7.51219671607592
30
0
41
1
10
104.424479728883
20
5.80727275314641
30
0
41
1
10
104.270400245511
20
4.07248991978258
30
0
41
1
10
104.155459679624
20
2.76007796801716
30
0
41
1
10
104.117249179895
20
2.32071717725071
30
0
41
1
10
104.060078156995
20
1.65879969814321
30
0
41
1
10
104.041045260724
20
1.43768097573832
30
0
41
1
10
104.003025935756
20
0.994475310840244
30
0
41
1
10
103.984015716271
20
0.772108529413259
30
0
41
1
10
103.88943059251
20
-0.338006940075331
30
0
41
1
10
103.815256832392
20
-1.22050556796268
30
0
41
1
10
103.669646724349
20
-2.97463975999668
30
0
41
1
10
103.598210734013
20
-3.84627452673828
30
0
41
1
10
103.457877878465
20
-5.57874252635065
30
0
41
1
10
103.38898122137
20
-6.43957596090613
30
0
41
1
10
103.287424533473
20
-7.72258321072613
30
0
41
1
10
103.253870675825
20
-8.14887649657999
30
0
41
1
10
103.203975701463
20
-8.78621614498448
30
0
41
1
10
103.187416697625
20
-8.99831251136854
30
0
41
1
10
103.154442266833
20
-9.42179707475967
30
0
41
1
10
103.138076642064
20
-9.63254603030086
30
0
41
1
10
103.056935833214
20
-10.6801694160809
30
0
41
1
10
102.994120222315
20
-11.4999735986955
30
0
41
1
10
102.872366073711
20
-13.1039470269467
30
0
41
1
10
102.813428123442
20
-13.8881141911912
30
0
41
1
10
102.69921275116
20
-15.4209178826008
30
0
41
1
10
102.643935567256
20
-16.1695555673953
30
0
41
1
10
102.563667531754
20
-17.2653231720874
30
0
41
1
10
102.537353464488
20
-17.6260409840236
30
0
41
1
10
102.498538944724
20
-18.1601798225239
30
0
41
1
10
102.485704093958
20
-18.3371551710503
30
0
41
1
10
102.460378458948
20
-18.6870250037138
30
0
41
1
10
102.447871926838
20
-18.8601357600032
30
0
41
1
10
102.386105712595
20
-19.7166547454881
30
0
41
1
10
102.339140009223
20
-20.3730129077892
30
0
41
1
10
102.249809232705
20
-21.6293216993692
30
0
41
1
10
102.207444720116
20
-22.2292698500007
30
0
41
1
10
102.12714957733
20
-23.3727285684299
30
0
41
1
10
102.089219035772
20
-23.9162418094444
30
0
41
1
10
102.044544981872
20
-24.5595134793677
30
0
41
1
10
102.03574741129
20
-24.6863584089097
30
0
41
1
10
102.018427098491
20
-24.936394153251
30
0
41
1
10
102.009894123574
20
-25.0597331389009
30
0
41
1
10
101.984791867822
20
-25.423002552648
30
0
41
1
10
101.968733125402
20
-25.6559816951969
30
0
41
1
10
101.922522446801
20
-26.3278255533552
30
0
41
1
10
101.894331577286
20
-26.7396492070364
30
0
41
1
10
101.842964369949
20
-27.4925209328532
30
0
41
1
10
101.819788414296
20
-27.8335669411858
30
0
41
1
10
101.778373604054
20
-28.4445826185621
30
0
41
1
10
101.760134584437
20
-28.7145567617578
30
0
41
1
10
101.736522388136
20
-29.0647191471489
30
0
41
1
10
101.72926707386
20
-29.1724428187828
30
0
41
1
10
101.716144025343
20
-29.3674504301446
30
0
41
1
10
101.710258715307
20
-29.454994627954
30
0
41
1
10
101.694588510966
20
-29.6882384688666
30
0
41
1
10
101.686784810728
20
-29.8046059891986
30
0
41
1
10
101.6763498967
20
-29.9602660051996
30
0
41
1
10
101.67371880964
20
-29.999557434891
30
0
41
1
10
101.673689473271
20
-29.9999953741636
30
0
41
1
10
101.673689406427
20
-29.9999963720272
30
0
41
1
10
101.673689339582
20
-29.9999973698908
30
0
0
SPLINE
5
196
100
AcDbEntity
8
1
62
256
6
ByLayer
370
18
48
1
60
0
100
AcDbSpline
70
4
71
3
72
28
73
24
40
0
40
0
40
0
40
0
40
0.250000000000007
40
0.250000000000007
40
0.500000000000014
40
0.500000000000014
40
0.625000000000015
40
0.625000000000015
40
0.750000000000016
40
0.750000000000016
40
0.812500000000018
40
0.812500000000018
40
0.843750000000015
40
0.843750000000015
40
0.875000000000012
40
0.875000000000012
40
0.906250000000009
40
0.906250000000009
40
0.937500000000006
40
0.937500000000006
40
0.968750000000003
40
0.968750000000003
40
1
40
1
40
1
40
1
41
1
10
111.6055
20
2.28526017750192
30
0
41
1
10
111.588576985242
20
2.21902171395223
30
0
41
1
10
111.573778640626
20
2.15303206385076
30
0
41
1
10
111.548417493048
20
2.02155947645977
30
0
41
1
10
111.537797636014
20
1.95607155526702
30
0
41
1
10
111.526574325012
20
1.85835513593244
30
0
41
1
10
111.523621888495
20
1.82580364474046
30
0
41
1
10
111.520256070083
20
1.76123362881683
30
0
41
1
10
111.51977379898
20
1.7295499371142
30
0
41
1
10
111.522833074229
20
1.68385093864518
30
0
41
1
10
111.524493209776
20
1.6688512106517
30
0
41
1
10
111.528800694706
20
1.64746023335198
30
0
41
1
10
111.53053112703
20
1.6405905053164
30
0
41
1
10
111.53487591584
20
1.62762839166177
30
0
41
1
10
111.53751759955
20
1.62145994044943
30
0
41
1
10
111.544135407032
20
1.61081264513373
30
0
41
1
10
111.548160280846
20
1.60628216534551
30
0
41
1
10
111.557970832039
20
1.60065654981801
30
0
41
1
10
111.563796586259
20
1.59971774473644
30
0
41
1
10
111.576048721416
20
1.60229111161416
30
0
41
1
10
111.582429655099
20
1.60571214695346
30
0
41
1
10
111.594489804997
20
1.61481108769195
30
0
41
1
10
111.600109447799
20
1.62033015873712
30
0
41
1
10
111.6055
20
1.62638898257399
30
0
0
SPLINE
5
197
100
AcDbEntity
8
1
62
256
6
ByLayer
370
18
48
1
60
0
100
AcDbSpline
70
4
71
3
72
8
73
4
40
0
40
0
40
0
40
0
40
1
40
1
40
1
40
1
41
1
10
111.6055
20
-2.97050560152917
30
0
41
1
10
111.820331960648
20
-2.78593046871947
30
0
41
1
10
112.035005737834
20
-2.60111037918728
30
0
41
1
10
112.2495
20
-2.41601229971641
30
0
0
SPLINE
5
198
100
AcDbEntity
8
1
62
256
6
ByLayer
370
18
48
1
60
0
100
AcDbSpline
70
4
71
3
72
16
73
12
40
0
40
0
40
0
40
0
40
0.244870256113397
40
0.244870256113397
40
0.489740512226795
40
0.489740512226795
40
0.734610768340192
40
0.734610768340192
40
0.979481024453589
40
0.979481024453589
40
1
40
1
40
1
40
1
41
1
10
111.6055
20
-9.65007921215764
30
0
41
1
10
111.594645499765
20
-9.66149712010528
30
0
41
1
10
111.584309331155
20
-9.6724989869337
30
0
41
1
10
111.56505550703
20
-9.69329715370091
30
0
41
1
10
111.555990486058
20
-9.70325561668443
30
0
41
1
10
111.54029226655
20
-9.72094852604587
30
0
41
1
10
111.533596073865
20
-9.7287511946129
30
0
41
1
10
111.523858984405
20
-9.74088976579199
30
0
41
1
10
111.520927423352
20
-9.74511212545744
30
0
41
1
10
111.52051236312
20
-9.74691035743601
30
0
41
1
10
111.520498569531
20
-9.74703115009265
30
0
41
1
10
111.520502839793
20
-9.74713385309326
30
0
0
SPLINE
5
199
100
AcDbEntity
8
1
62
256
6
ByLayer
370
18
48
1
60
0
100
AcDbSpline
70
4
71
3
72
14
73
10
40
0
40
0
40
0
40
0
40
0.137563763768946
40
0.137563763768946
40
0.425042509179297
40
0.425042509179297
40
0.712521254589649
40
0.712521254589649
40
1
40
1
40
1
40
1
41
1
10
111.522014959554
20
-9.74728407288322
30
0
41
1
10
111.523080566018
20
-9.74681489936003
30
0
41
1
10
111.524695456824
20
-9.74578149130556
30
0
41
1
10
111.531247893089
20
-9.74093185970744
30
0
41
1
10
111.537981591735
20
-9.73525911468468
30
0
41
1
10
111.554046439389
20
-9.721005839838
30
0
41
1
10
111.563557694582
20
-9.71227262935665
30
0
41
1
10
111.583646628483
20
-9.69346399287309
30
0
41
1
10
111.594317921063
20
-9.68330781868173
30
0
41
1
10
111.6055
20
-9.67254327625005
30
0
0
SPLINE
5
19A
100
AcDbEntity
8
1
62
256
6
ByLayer
370
18
48
1
60
0
100
AcDbSpline
70
4
71
3
72
12
73
8
40
0
40
0
40
0
40
0
40
0.250000000000017
40
0.250000000000017
40
0.500000000000034
40
0.500000000000034
40
1
40
1
40
1
40
1
41
1
10
112.324500000003
20
25.3850933995421
30
0
41
1
10
112.324500000003
20
25.3970787264872
30
0
41
1
10
112.321814823682
20
25.4112191757296
30
0
41
1
10
112.313432917887
20
25.440781483875
30
0
41
1
10
112.307644159211
20
25.4564966194783
30
0
41
1
10
112.287203970073
20
25.5044683083614
30
0
41
1
10
112.269842865354
20
25.5371366987856
30
0
41
1
10
112.2495
20
25.5703702247132
30
0
0
SPLINE
5
19B
100
AcDbEntity
8
1
62
256
6
ByLayer
370
18
48
1
60
0
100
AcDbSpline
70
4
71
3
72
24
73
20
40
0
40
0
40
0
40
0
40
0.0625000000000254
40
0.0625000000000254
40
0.0937500000000157
40
0.0937500000000157
40
0.125000000000006
40
0.125000000000006
40
0.187499999999999
40
0.187499999999999
40
0.249999999999993
40
0.249999999999993
40
0.374999999999989
40
0.374999999999989
40
0.499999999999985
40
0.499999999999985
40
0.749999999999992
40
0.749999999999992
40
1
40
1
40
1
40
1
41
1
10
111.605500000001
20
21.0193324895506
30
0
41
1
10
111.596351499942
20
21.0278652865441
30
0
41
1
10
111.586687669786
20
21.0351999066992
30
0
41
1
10
111.572333089937
20
21.041820006238
30
0
41
1
10
111.567554778791
20
21.0432723168304
30
0
41
1
10
111.558641496353
20
21.0442508533819
30
0
41
1
10
111.554365500145
20
21.0437754546187
30
0
41
1
10
111.543093981622
20
21.0397104876866
30
0
41
1
10
111.537346922296
20
21.0335113934086
30
0
41
1
10
111.5289338815
20
21.01793447613
30
0
41
1
10
111.526157472395
20
21.0085824314792
30
0
41
1
10
111.520450088133
20
20.9788847800533
30
0
41
1
10
111.519936430234
20
20.9563668452073
30
0
41
1
10
111.521890124223
20
20.9105914997112
30
0
41
1
10
111.524441710891
20
20.8869493256596
30
0
41
1
10
111.53512134905
20
20.8145461173041
30
0
41
1
10
111.545959817937
20
20.7658633474734
30
0
41
1
10
111.572183989675
20
20.6679632963494
30
0
41
1
10
111.58766472211
20
20.6187362951507
30
0
41
1
10
111.6055
20
20.5692423325784
30
0
0
SPLINE
5
19C
100
AcDbEntity
8
1
62
256
6
ByLayer
370
18
48
1
60
0
100
AcDbSpline
70
4
71
3
72
8
73
4
40
0
40
0
40
0
40
0
40
1
40
1
40
1
40
1
41
1
10
111.6055
20
17.7147398224981
30
0
41
1
10
111.869706220596
20
16.6806088261538
30
0
41
1
10
112.086430061288
20
15.6335061812585
30
0
41
1
10
112.2495
20
14.5717458978613
30
0
0
SPLINE
5
19D
100
AcDbEntity
8
1
62
256
6
ByLayer
370
18
48
1
60
0
100
AcDbSpline
70
4
71
3
72
14
73
10
40
0
40
0
40
0
40
0
40
0.249999999999994
40
0.249999999999994
40
0.499999999999996
40
0.499999999999996
40
0.749999999999998
40
0.749999999999998
40
1
40
1
40
1
40
1
41
1
10
112.3245
20
-8.60562683678754
30
0
41
1
10
112.3245
20
-8.60272361609637
30
0
41
1
10
112.322517994515
20
-8.60180093796856
30
0
41
1
10
112.314553010295
20
-8.60420571698586
30
0
41
1
10
112.308714308758
20
-8.6074938193305
30
0
41
1
10
112.294527150197
20
-8.61721064932215
30
0
41
1
10
112.286278550289
20
-8.62355972343536
30
0
41
1
10
112.268517881695
20
-8.63815793233925
30
0
41
1
10
112.259182938242
20
-8.646252925044
30
0
41
1
10
112.2495
20
-8.65496088697802
30
0
0
SPLINE
5
19E
100
AcDbEntity
8
1
62
256
6
ByLayer
370
18
48
1
60
0
100
AcDbSpline
70
4
71
3
72
8
73
4
40
0
40
0
40
0
40
0
40
1
40
1
40
1
40
1
41
1
10
111.6055
20
-8.83040036281014
30
0
41
1
10
111.820302546545
20
-8.64400752379848
30
0
41
1
10
112.034973355329
20
-8.45741205772757
30
0
41
1
10
112.2495
20
-8.27059603216833
30
0
0
SPLINE
5
19F
100
AcDbEntity
8
1
62
256
6
ByLayer
370
18
48
1
60
0
100
AcDbSpline
70
4
71
3
72
8
73
4
40
0
40
0
40
0
40
0
40
1
40
1
40
1
40
1
41
1
10
112.2495
20
-4.39198788418855
30
0
41
1
10
112.039439331602
20
-4.77589582489912
30
0
41
1
10
111.824618246661
20
-5.15622231655206
30
0
41
1
10
111.6055
20
-5.53331588401392
30
0
0
SPLINE
5
1A0
100
AcDbEntity
8
1
62
256
6
ByLayer
370
18
48
1
60
0
100
AcDbSpline
70
4
71
3
72
8
73
4
40
0
40
0
40
0
40
0
40
1
40
1
40
1
40
1
41
1
10
111.6055
20
25.5333158840139
30
0
41
1
10
111.824618246661
20
25.1562223165521
30
0
41
1
10
112.039439331602
20
24.7758958248991
30
0
41
1
10
112.2495
20
24.3919878841886
30
0
0
SPLINE
5
1A1
100
AcDbEntity
8
1
62
256
6
ByLayer
370
18
48
1
60
0
100
AcDbSpline
70
4
71
3
72
8
73
4
40
0
40
0
40
0
40
0
40
1
40
1
40
1
40
1
41
1
10
111.6055
20
11.6809335420851
30
0
41
1
10
111.666142318209
20
10.560311180695
30
0
41
1
10
111.666142318209
20
9.43968881930496
30
0
41
1
10
111.6055
20
8.31906645791491
30
0
0
SPLINE
5
1A2
100
AcDbEntity
8
1
62
256
6
ByLayer
370
18
48
1
60
0
100
AcDbSpline
70
4
71
3
72
8
73
4
40
0
40
0
40
0
40
0
40
1
40
1
40
1
40
1
41
1
10
112.2495
20
-1.09121670091341
30
0
41
1
10
112.044943589855
20
-1.60826752524304
30
0
41
1
10
111.829910422179
20
-2.11945460374568
30
0
41
1
10
111.6055
20
-2.62539331825738
30
0
0
SPLINE
5
1A3
100
AcDbEntity
8
1
62
256
6
ByLayer
370
18
48
1
60
0
100
AcDbSpline
70
4
71
3
72
14
73
10
40
0
40
0
40
0
40
0
40
0.25
40
0.25
40
0.5
40
0.5
40
0.75
40
0.75
40
1
40
1
40
1
40
1
41
1
10
112.3245
20
27.7986396737458
30
0
41
1
10
112.3245
20
27.80466776027
30
0
41
1
10
112.321958595129
20
27.8129038412025
30
0
41
1
10
112.31345050483
20
27.8320919898525
30
0
41
1
10
112.30764570247
20
27.8426975094091
30
0
41
1
10
112.293816071692
20
27.8653586799415
30
0
41
1
10
112.285845445367
20
27.8772918268094
30
0
41
1
10
112.268672225887
20
27.9014801599266
30
0
41
1
10
112.259398489399
20
27.9138435403137
30
0
41
1
10
112.2495
20
27.9264544727241
30
0
0
SPLINE
5
1A4
100
AcDbEntity
8
1
62
256
6
ByLayer
370
18
48
1
60
0
100
AcDbSpline
70
4
71
3
72
14
73
10
40
0
40
0
40
0
40
0
40
0.25
40
0.25
40
0.5
40
0.5
40
0.75
40
0.75
40
1
40
1
40
1
40
1
41
1
10
112.2495
20
-7.92645447272406
30
0
41
1
10
112.25944527166
20
-7.91378393849806
30
0
41
1
10
112.268857873782
20
-7.90122969250046
30
0
41
1
10
112.286063126254
20
-7.87697394801239
30
0
41
1
10
112.293918864435
20
-7.86520040882098
30
0
41
1
10
112.307730134248
20
-7.84254885667187
30
0
41
1
10
112.313549981919
20
-7.83188345238705
30
0
41
1
10
112.321938888577
20
-7.81293232271577
30
0
41
1
10
112.324500000001
20
-7.80459382552553
30
0
41
1
10
112.324500000001
20
-7.79863967374487
30
0
0
SPLINE
5
1A5
100
AcDbEntity
8
1
62
256
6
ByLayer
370
18
48
1
60
0
100
AcDbSpline
70
4
71
3
72
8
73
4
40
0
40
0
40
0
40
0
40
1
40
1
40
1
40
1
41
1
10
112.2495
20
-8.74758643971691
30
0
41
1
10
112.03575253422
20
-8.98823114273273
30
0
41
1
10
111.821059437748
20
-9.22774595819482
30
0
41
1
10
111.6055
20
-9.46622562512158
30
0
0
SPLINE
5
1A6
100
AcDbEntity
8
1
62
256
6
ByLayer
370
18
48
1
60
0
100
AcDbSpline
70
4
71
3
72
8
73
4
40
0
40
0
40
0
40
0
40
1
40
1
40
1
40
1
41
1
10
112.2495
20
-7.92645447272406
30
0
41
1
10
112.036344592726
20
-8.19801999406857
30
0
41
1
10
111.821632798019
20
-8.46793539229
30
0
41
1
10
111.6055
20
-8.73634420521464
30
0
0
SPLINE
5
1A7
100
AcDbEntity
8
1
62
256
6
ByLayer
370
18
48
1
60
0
100
AcDbSpline
70
4
71
3
72
8
73
4
40
0
40
0
40
0
40
0
40
1
40
1
40
1
40
1
41
1
10
112.2495
20
-2.93530832963117
30
0
41
1
10
112.04140572646
20
-3.37238268351757
30
0
41
1
10
111.826510348702
20
-3.80495853309316
30
0
41
1
10
111.6055
20
-4.23348971252759
30
0
0
SPLINE
5
1A8
100
AcDbEntity
8
1
62
256
6
ByLayer
370
18
48
1
60
0
100
AcDbSpline
70
4
71
3
72
24
73
20
40
0
40
0
40
0
40
0
40
0.250000000000026
40
0.250000000000026
40
0.375000000000022
40
0.375000000000022
40
0.500000000000017
40
0.500000000000017
40
0.625000000000013
40
0.625000000000013
40
0.750000000000009
40
0.750000000000009
40
0.812500000000007
40
0.812500000000007
40
0.875000000000004
40
0.875000000000004
40
0.937500000000002
40
0.937500000000002
40
1
40
1
40
1
40
1
41
1
10
111.6055
20
-6.59745689280408
30
0
41
1
10
111.585930635048
20
-6.62795461767098
30
0
41
1
10
111.568404377661
20
-6.6584924379041
30
0
41
1
10
111.546981041172
20
-6.70216124575421
30
0
41
1
10
111.540636798332
20
-6.71638520395871
30
0
41
1
10
111.530004961665
20
-6.7439749121277
30
0
41
1
10
111.525755068741
20
-6.7572748958537
30
0
41
1
10
111.520602301041
20
-6.78136976131526
30
0
41
1
10
111.519658004616
20
-6.79245129397529
30
0
41
1
10
111.523058586786
20
-6.8094781184495
30
0
41
1
10
111.527571821705
20
-6.81549656170012
30
0
41
1
10
111.53929320376
20
-6.81791333140416
30
0
41
1
10
111.543873715488
20
-6.81764209510803
30
0
41
1
10
111.55432599517
20
-6.81504132474817
30
0
41
1
10
111.56020425055
20
-6.8126777169457
30
0
41
1
10
111.572428193163
20
-6.80638673119918
30
0
41
1
10
111.578926831088
20
-6.80239304641526
30
0
41
1
10
111.592111319828
20
-6.79328818198587
30
0
41
1
10
111.598776586911
20
-6.78820451664743
30
0
41
1
10
111.6055
20
-6.78269932673274
30
0
0
SPLINE
5
1A9
100
AcDbEntity
8
1
62
256
6
ByLayer
370
18
48
1
60
0
100
AcDbSpline
70
4
71
3
72
8
73
4
40
0
40
0
40
0
40
0
40
1
40
1
40
1
40
1
41
1
10
111.6055
20
-8.29687543761639
30
0
41
1
10
111.820244754008
20
-8.11526338815997
30
0
41
1
10
112.034913814811
20
-7.93353193033676
30
0
41
1
10
112.2495
20
-7.75167014809279
30
0
0
SPLINE
5
1AA
100
AcDbEntity
8
1
62
256
6
ByLayer
370
18
48
1
60
0
100
AcDbSpline
70
4
71
3
72
8
73
4
40
0
40
0
40
0
40
0
40
1
40
1
40
1
40
1
41
1
10
111.6055
20
20.5692423325784
30
0
41
1
10
111.837557523584
20
19.9252688291729
30
0
41
1
10
112.052909503293
20
19.2739574225088
30
0
41
1
10
112.2495
20
18.614405042173
30
0
0
SPLINE
5
1AB
100
AcDbEntity
8
1
62
256
6
ByLayer
370
18
48
1
60
0
100
AcDbSpline
70
4
71
3
72
14
73
10
40
0
40
0
40
0
40
0
40
0.25
40
0.25
40
0.5
40
0.5
40
0.75
40
0.75
40
1
40
1
40
1
40
1
41
1
10
112.3245
20
-5.23658345982869
30
0
41
1
10
112.3245
20
-5.22805747154848
30
0
41
1
10
112.323226579452
20
-5.22063324054571
30
0
41
1
10
112.31687672309
20
-5.20948744691867
30
0
41
1
10
112.311677177387
20
-5.20600714625874
30
0
41
1
10
112.297631713328
20
-5.20515366042227
30
0
41
1
10
112.28871910896
20
-5.20779371034203
30
0
41
1
10
112.269715629015
20
-5.21762828763596
30
0
41
1
10
112.259536321132
20
-5.22476167017359
30
0
41
1
10
112.2495
20
-5.23296209129057
30
0
0
SPLINE
5
1AC
100
AcDbEntity
8
1
62
256
6
ByLayer
370
18
48
1
60
0
100
AcDbSpline
70
4
71
3
72
8
73
4
40
0
40
0
40
0
40
0
40
1
40
1
40
1
40
1
41
1
10
112.2495
20
20.4146279387558
30
0
41
1
10
112.035436607666
20
20.6170527580396
30
0
41
1
10
111.820739969169
20
20.8185783823276
30
0
41
1
10
111.6055
20
21.0193324895489
30
0
0
SPLINE
5
1AD
100
AcDbEntity
8
1
62
256
6
ByLayer
370
18
48
1
60
0
100
AcDbSpline
70
4
71
3
72
8
73
4
40
0
40
0
40
0
40
0
40
1
40
1
40
1
40
1
41
1
10
111.6055
20
-5.75914558748158
30
0
41
1
10
111.820168300833
20
-5.58375375553973
30
0
41
1
10
112.034835023948
20
-5.40835934886272
30
0
41
1
10
112.2495
20
-5.23296209129074
30
0
0
SPLINE
5
1AE
100
AcDbEntity
8
1
62
256
6
ByLayer
370
18
48
1
60
0
100
AcDbSpline
70
4
71
3
72
14
73
10
40
0
40
0
40
0
40
0
40
0.25
40
0.25
40
0.5
40
0.5
40
0.75
40
0.75
40
1
40
1
40
1
40
1
41
1
10
112.3245
20
-8.9809298975149
30
0
41
1
10
112.3245
20
-8.9802749397073
30
0
41
1
10
112.322268657052
20
-8.98182568569072
30
0
41
1
10
112.314108956146
20
-8.98871188613191
30
0
41
1
10
112.308141619218
20
-8.99407332113617
30
0
41
1
10
112.294092745741
20
-9.00705475414978
30
0
41
1
10
112.285840184445
20
-9.01483078529475
30
0
41
1
10
112.268427871024
20
-9.03144045432288
30
0
41
1
10
112.259184127082
20
-9.04035049059203
30
0
41
1
10
112.2495
20
-9.04975953503541
30
0
0
SPLINE
5
1AF
100
AcDbEntity
8
1
62
256
6
ByLayer
370
18
48
1
60
0
100
AcDbSpline
70
4
71
3
72
8
73
4
40
0
40
0
40
0
40
0
40
1
40
1
40
1
40
1
41
1
10
112.2495
20
-8.4028498781752
30
0
41
1
10
112.036011628907
20
-8.65775197847645
30
0
41
1
10
111.821310496289
20
-8.91128516133492
30
0
41
1
10
111.6055
20
-9.16356613817507
30
0
0
SPLINE
5
1B0
100
AcDbEntity
8
1
62
256
6
ByLayer
370
18
48
1
60
0
100
AcDbSpline
70
4
71
3
72
8
73
4
40
0
40
0
40
0
40
0
40
1
40
1
40
1
40
1
41
1
10
112.2495
20
1.38559495782698
30
0
41
1
10
112.052909503293
20
0.726042577491199
30
0
41
1
10
111.837557523584
20
0.0747311708271639
30
0
41
1
10
111.6055
20
-0.569242332578398
30
0
0
SPLINE
5
1B1
100
AcDbEntity
8
1
62
256
6
ByLayer
370
18
48
1
60
0
100
AcDbSpline
70
4
71
3
72
12
73
8
40
0
40
0
40
0
40
0
40
0.250000000000002
40
0.250000000000002
40
0.500000000000004
40
0.500000000000004
40
1
40
1
40
1
40
1
41
1
10
112.3245
20
13.6355155582359
30
0
41
1
10
112.3245
20
13.7132532449589
30
0
41
1
10
112.322321213052
20
13.7911336041311
30
0
41
1
10
112.315157628452
20
13.9470255495373
30
0
41
1
10
112.310118654055
20
14.025042555399
30
0
41
1
10
112.29112293735
20
14.2592597093766
30
0
41
1
10
112.273453541426
20
14.4157826398053
30
0
41
1
10
112.2495
20
14.5717458978613
30
0
0
SPLINE
5
1B2
100
AcDbEntity
8
1
62
256
6
ByLayer
370
18
48
1
60
0
100
AcDbSpline
70
4
71
3
72
26
73
22
40
0
40
0
40
0
40
0
40
0.125000000000003
40
0.125000000000003
40
0.250000000000007
40
0.250000000000007
40
0.37500000000001
40
0.37500000000001
40
0.500000000000014
40
0.500000000000014
40
0.625000000000017
40
0.625000000000017
40
0.687500000000022
40
0.687500000000022
40
0.750000000000028
40
0.750000000000028
40
0.812500000000033
40
0.812500000000033
40
0.875000000000039
40
0.875000000000039
40
1
40
1
40
1
40
1
41
1
10
111.6055
20
-5.53331588401392
30
0
41
1
10
111.595891848487
20
-5.54985112097327
30
0
41
1
10
111.586867923903
20
-5.56633158933232
30
0
41
1
10
111.570018960149
20
-5.59917637377143
30
0
41
1
10
111.562162348524
20
-5.61561649899903
30
0
41
1
10
111.54808217205
20
-5.6477765695351
30
0
41
1
10
111.541826548599
20
-5.66354020377597
30
0
41
1
10
111.531248218515
20
-5.69428824600496
30
0
41
1
10
111.526880540947
20
-5.7094347697568
30
0
41
1
10
111.521184962534
20
-5.73765536417923
30
0
41
1
10
111.519788361478
20
-5.75088666467892
30
0
41
1
10
111.521376195424
20
-5.76776765809365
30
0
41
1
10
111.522519045604
20
-5.77280141497209
30
0
41
1
10
111.526402372343
20
-5.78132977144733
30
0
41
1
10
111.529173651342
20
-5.78479365708114
30
0
41
1
10
111.536453758024
20
-5.78933100679299
30
0
41
1
10
111.541055609124
20
-5.79042053023184
30
0
41
1
10
111.551571459623
20
-5.78994790271219
30
0
41
1
10
111.557659690864
20
-5.78838503057452
30
0
41
1
10
111.576989835237
20
-5.78037076132622
30
0
41
1
10
111.591355988743
20
-5.77070176059092
30
0
41
1
10
111.6055
20
-5.75914558748184
30
0
0
SPLINE
5
1B3
100
AcDbEntity
8
1
62
256
6
ByLayer
370
18
48
1
60
0
100
AcDbSpline
70
4
71
3
72
20
73
16
40
0
40
0
40
0
40
0
40
0.249999999999995
40
0.249999999999995
40
0.374999999999996
40
0.374999999999996
40
0.499999999999997
40
0.499999999999997
40
0.624999999999998
40
0.624999999999998
40
0.749999999999998
40
0.749999999999998
40
0.874999999999999
40
0.874999999999999
40
1
40
1
40
1
40
1
41
1
10
112.32450000001
20
-0.475874705785714
30
0
41
1
10
112.324500000011
20
-0.462248068512451
30
0
41
1
10
112.323720006666
20
-0.448951831185354
30
0
41
1
10
112.32056082149
20
-0.43055454074775
30
0
41
1
10
112.319177438201
20
-0.424704653760955
30
0
41
1
10
112.315460180535
20
-0.413821920766395
30
0
41
1
10
112.313094294282
20
-0.40874036058014
30
0
41
1
10
112.307107301193
20
-0.400316933406458
30
0
41
1
10
112.30339385025
20
-0.396884739219899
30
0
41
1
10
112.294518318095
20
-0.392905916586244
30
0
41
1
10
112.289273781814
20
-0.392398090805699
30
0
41
1
10
112.278148020212
20
-0.394641860152035
30
0
41
1
10
112.272240259158
20
-0.397354136836299
30
0
41
1
10
112.26073610745
20
-0.404719943493262
30
0
41
1
10
112.254995241478
20
-0.40943147217979
30
0
41
1
10
112.2495
20
-0.414627938754563
30
0
0
SPLINE
5
1B4
100
AcDbEntity
8
1
62
256
6
ByLayer
370
18
48
1
60
0
100
AcDbSpline
70
4
71
3
72
12
73
8
40
0
40
0
40
0
40
0
40
0.499999999999995
40
0.499999999999995
40
0.749999999999998
40
0.749999999999998
40
1
40
1
40
1
40
1
41
1
10
112.2495
20
-4.39198788418855
30
0
41
1
10
112.27010032095
20
-4.35433863335896
30
0
41
1
10
112.287778739477
20
-4.31639138113368
30
0
41
1
10
112.307880398042
20
-4.26170983946582
30
0
41
1
10
112.313525962551
20
-4.2438253173232
30
0
41
1
10
112.321860478618
20
-4.20902138583114
30
0
41
1
10
112.3245
20
-4.19240690666078
30
0
41
1
10
112.3245
20
-4.17759760343785
30
0
0
SPLINE
5
1B5
100
AcDbEntity
8
1
62
256
6
ByLayer
370
18
48
1
60
0
100
AcDbSpline
70
4
71
3
72
18
73
14
40
0
40
0
40
0
40
0
40
0.249999999999965
40
0.249999999999965
40
0.49999999999993
40
0.49999999999993
40
0.624999999999947
40
0.624999999999947
40
0.749999999999965
40
0.749999999999965
40
0.874999999999982
40
0.874999999999982
40
1
40
1
40
1
40
1
41
1
10
112.3245
20
2.25785714681311
30
0
41
1
10
112.3245
20
2.27548230061657
30
0
41
1
10
112.32391229198
20
2.29282825149821
30
0
41
1
10
112.32075290832
20
2.32655861535886
30
0
41
1
10
112.31823321225
20
2.34325714912006
30
0
41
1
10
112.311139893004
20
2.36545339053333
30
0
41
1
10
112.30817714617
20
2.37245780137351
30
0
41
1
10
112.300230880857
20
2.3839038451807
30
0
41
1
10
112.295135545578
20
2.38834541478627
30
0
41
1
10
112.282451033099
20
2.39083320311249
30
0
41
1
10
112.275264485858
20
2.38856410104626
30
0
41
1
10
112.261672465469
20
2.37961058955207
30
0
41
1
10
112.255362671196
20
2.37331558927278
30
0
41
1
10
112.2495
20
2.36641704186579
30
0
0
SPLINE
5
1B6
100
AcDbEntity
8
1
62
256
6
ByLayer
370
18
48
1
60
0
100
AcDbSpline
70
4
71
3
72
22
73
18
40
0
40
0
40
0
40
0
40
0.249999999999964
40
0.249999999999964
40
0.374999999999946
40
0.374999999999946
40
0.499999999999928
40
0.499999999999928
40
0.62499999999991
40
0.62499999999991
40
0.687499999999909
40
0.687499999999909
40
0.749999999999908
40
0.749999999999908
40
0.874999999999954
40
0.874999999999954
40
1
40
1
40
1
40
1
41
1
10
111.6055
20
-9.16356613817507
30
0
41
1
10
111.58461800242
20
-9.18797704885168
30
0
41
1
10
111.565507179619
20
-9.21170452346368
30
0
41
1
10
111.542689990122
20
-9.24311621293879
30
0
41
1
10
111.5359677808
20
-9.25304139761775
30
0
41
1
10
111.525788698556
20
-9.27007612126548
30
0
41
1
10
111.522209442212
20
-9.27740453746307
30
0
41
1
10
111.519750506565
20
-9.28757190034952
30
0
41
1
10
111.520917187491
20
-9.29040379508697
30
0
41
1
10
111.526613240173
20
-9.2903641595357
30
0
41
1
10
111.529188583589
20
-9.28964184067766
30
0
41
1
10
111.535367825739
20
-9.28691904013826
30
0
41
1
10
111.53899628437
20
-9.28492127035091
30
0
41
1
10
111.551354752463
20
-9.27716579027219
30
0
41
1
10
111.561088840106
20
-9.26995966962352
30
0
41
1
10
111.58248539173
20
-9.25276216936015
30
0
41
1
10
111.593773139625
20
-9.24307558222696
30
0
41
1
10
111.6055
20
-9.23258445627604
30
0
0
SPLINE
5
1B7
100
AcDbEntity
8
1
62
256
6
ByLayer
370
18
48
1
60
0
100
AcDbSpline
70
4
71
3
72
8
73
4
40
0
40
0
40
0
40
0
40
1
40
1
40
1
40
1
41
1
10
111.6055
20
-9.23258445627604
30
0
41
1
10
111.820374683942
20
-9.04035249470957
30
0
41
1
10
112.035047370323
20
-8.84782025355332
30
0
41
1
10
112.2495
20
-8.65496088697805
30
0
0
SPLINE
5
1B8
100
AcDbEntity
8
1
62
256
6
ByLayer
370
18
48
1
60
0
100
AcDbSpline
70
4
71
3
72
20
73
16
40
0
40
0
40
0
40
0
40
0.249999999999981
40
0.249999999999981
40
0.499999999999963
40
0.499999999999963
40
0.624999999999958
40
0.624999999999958
40
0.749999999999954
40
0.749999999999954
40
0.81249999999995
40
0.81249999999995
40
0.874999999999947
40
0.874999999999947
40
1
40
1
40
1
40
1
41
1
10
111.6055
20
-4.23348971252759
30
0
41
1
10
111.58665178262
20
-4.27003573343365
30
0
41
1
10
111.570003929807
20
-4.30671329751289
30
0
41
1
10
111.54235401958
20
-4.37862996449147
30
0
41
1
10
111.531260620271
20
-4.41370522734991
30
0
41
1
10
111.521945970035
20
-4.46343563837195
30
0
41
1
10
111.520163421698
20
-4.47912909962159
30
0
41
1
10
111.520937540741
20
-4.50764370250548
30
0
41
1
10
111.523531889678
20
-4.52041336831104
30
0
41
1
10
111.533361056321
20
-4.53294778043076
30
0
41
1
10
111.53766255767
20
-4.53593419765923
30
0
41
1
10
111.548184540343
20
-4.53859752683897
30
0
41
1
10
111.554395521324
20
-4.53827832524203
30
0
41
1
10
111.574973031665
20
-4.53248446860627
30
0
41
1
10
111.590454765483
20
-4.52252999056461
30
0
41
1
10
111.6055
20
-4.51007727765031
30
0
0
SPLINE
5
1B9
100
AcDbEntity
8
1
62
256
6
ByLayer
370
18
48
1
60
0
100
AcDbSpline
70
4
71
3
72
14
73
10
40
0
40
0
40
0
40
0
40
0.25
40
0.25
40
0.5
40
0.5
40
0.75
40
0.75
40
1
40
1
40
1
40
1
41
1
10
112.3245
20
28.6463193271823
30
0
41
1
10
112.3245
20
28.6493536764683
30
0
41
1
10
112.322034011465
20
28.6547938153032
30
0
41
1
10
112.313694135752
20
28.6685224069777
30
0
41
1
10
112.307759088246
20
28.6769402543422
30
0
41
1
10
112.293931735253
20
28.6951434737655
30
0
41
1
10
112.285875277587
20
28.7051515681115
30
0
41
1
10
112.268553746702
20
28.7258583546616
30
0
41
1
10
112.259286714282
20
28.7365681993686
30
0
41
1
10
112.2495
20
28.7475864397169
30
0
0
SPLINE
5
1BA
100
AcDbEntity
8
1
62
256
6
ByLayer
370
18
48
1
60
0
100
AcDbSpline
70
4
71
3
72
12
73
8
40
0
40
0
40
0
40
0
40
0.499999999999947
40
0.499999999999947
40
0.749999999999973
40
0.749999999999973
40
1
40
1
40
1
40
1
41
1
10
112.2495
20
-8.4028498781752
30
0
41
1
10
112.269213771312
20
-8.37931191361727
30
0
41
1
10
112.287076122895
20
-8.35636702847958
30
0
41
1
10
112.307711737403
20
-8.32604757221742
30
0
41
1
10
112.313626340585
20
-8.31650080786648
30
0
41
1
10
112.322002481336
20
-8.30024705945348
30
0
41
1
10
112.3245
20
-8.29344049445601
30
0
41
1
10
112.3245
20
-8.28902401287547
30
0
0
SPLINE
5
1BB
100
AcDbEntity
8
1
62
256
6
ByLayer
370
18
48
1
60
0
100
AcDbSpline
70
4
71
3
72
14
73
10
40
0
40
0
40
0
40
0
40
0.25
40
0.25
40
0.5
40
0.5
40
0.75
40
0.75
40
1
40
1
40
1
40
1
41
1
10
112.3245
20
28.988914520495
30
0
41
1
10
112.3245
20
28.9894247455032
30
0
41
1
10
112.322179475846
20
28.9922388158724
30
0
41
1
10
112.313940423871
20
29.0013490604847
30
0
41
1
10
112.307976181869
20
29.0077021283887
30
0
41
1
10
112.294003407622
20
29.0223363275757
30
0
41
1
10
112.285821046889
20
29.0308010647053
30
0
41
1
10
112.268451733647
20
29.0486391867036
30
0
41
1
10
112.259208205955
20
29.0580727111611
30
0
41
1
10
112.2495
20
29.0679370847154
30
0
0
SPLINE
5
1BC
100
AcDbEntity
8
1
62
256
6
ByLayer
370
18
48
1
60
0
100
AcDbSpline
70
4
71
3
72
14
73
10
40
0
40
0
40
0
40
0
40
0.25
40
0.25
40
0.5
40
0.5
40
0.75
40
0.75
40
1
40
1
40
1
40
1
41
1
10
112.2495
20
-5.57037022471317
30
0
41
1
10
112.259689218242
20
-5.55372440600854
30
0
41
1
10
112.269141071217
20
-5.53714799554734
30
0
41
1
10
112.286488561992
20
-5.50413622284947
30
0
41
1
10
112.294346422854
20
-5.48775814626913
30
0
41
1
10
112.307827214093
20
-5.4560122948547
30
0
41
1
10
112.313524884287
20
-5.44053149202622
30
0
41
1
10
112.321919534253
20
-5.41077374695647
30
0
41
1
10
112.3245
20
-5.39702568391098
30
0
41
1
10
112.3245
20
-5.38509339954473
30
0
0
SPLINE
5
1BD
100
AcDbEntity
8
1
62
256
6
ByLayer
370
18
48
1
60
0
100
AcDbSpline
70
4
71
3
72
12
73
8
40
0
40
0
40
0
40
0
40
0.500000000000001
40
0.500000000000001
40
0.75
40
0.75
40
1
40
1
40
1
40
1
41
1
10
112.2495
20
1.38559495782698
30
0
41
1
10
112.27125461873
20
1.45858073693196
30
0
41
1
10
112.288718680672
20
1.53160737004282
30
0
41
1
10
112.308511489959
20
1.64123356811788
30
0
41
1
10
112.313971523825
20
1.6776116229926
30
0
41
1
10
112.321917021225
20
1.7494759484992
30
0
41
1
10
112.3245
20
1.78504717170776
30
0
41
1
10
112.3245
20
1.81991451866895
30
0
0
SPLINE
5
1BE
100
AcDbEntity
8
1
62
256
6
ByLayer
370
18
48
1
60
0
100
AcDbSpline
70
4
71
3
72
22
73
18
40
0
40
0
40
0
40
0
40
0.25
40
0.25
40
0.375
40
0.375
40
0.499999999999999
40
0.499999999999999
40
0.624999999999998
40
0.624999999999998
40
0.749999999999998
40
0.749999999999998
40
0.812499999999999
40
0.812499999999999
40
0.875
40
0.875
40
1
40
1
40
1
40
1
41
1
10
13.8943375672973
20
9.86941261896624
30
0
41
1
10
13.8787501654511
20
9.81243201498808
30
0
41
1
10
13.8600981524864
20
9.75655023082976
30
0
41
1
10
13.8259097308548
20
9.67499387250794
30
0
41
1
10
13.8134681559942
20
9.64819007031207
30
0
41
1
10
13.7859660569446
20
9.59554701961167
30
0
41
1
10
13.7708313351931
20
9.5695848386712
30
0
41
1
10
13.7374904471463
20
9.51963294536131
30
0
41
1
10
13.7193382950672
20
9.49566900868393
30
0
41
1
10
13.6789402941255
20
9.45055053780234
30
0
41
1
10
13.6568439565998
20
9.42959825985633
30
0
41
1
10
13.6205171073693
20
9.40232505361257
30
0
41
1
10
13.6078439741679
20
9.39389972204384
30
0
41
1
10
13.5810949420214
20
9.37870617320459
30
0
41
1
10
13.567014259034
20
9.37196693550729
30
0
41
1
10
13.5238105256953
20
9.35548920253862
30
0
41
1
10
13.4927587974109
20
9.34922131452512
30
0
41
1
10
13.4613248654052
20
9.34922131452512
30
0
0
SPLINE
5
1BF
100
AcDbEntity
8
1
62
256
6
ByLayer
370
18
48
1
60
0
100
AcDbSpline
70
4
71
3
72
14
73
10
40
0
40
0
40
0
40
0
40
0.25
40
0.25
40
0.5
40
0.5
40
0.75
40
0.75
40
1
40
1
40
1
40
1
41
1
10
112.2495
20
27.0859271543189
30
0
41
1
10
112.259305222304
20
27.0777904297006
30
0
41
1
10
112.268941650508
20
27.0705123566371
30
0
41
1
10
112.287372796518
20
27.0586762048217
30
0
41
1
10
112.295964745964
20
27.0543030091875
30
0
41
1
10
112.310152692604
20
27.0501419836255
30
0
41
1
10
112.315769240382
20
27.0504143348533
30
0
41
1
10
112.322871011082
20
27.05544827789
30
0
41
1
10
112.3245
20
27.0602107169181
30
0
41
1
10
112.3245
20
27.0663360248446
30
0
0
SPLINE
5
1C0
100
AcDbEntity
8
1
62
256
6
ByLayer
370
18
48
1
60
0
100
AcDbSpline
70
4
71
3
72
10
73
6
40
0
40
0
40
0
40
0
40
0.5
40
0.5
40
1
40
1
40
1
40
1
41
1
10
111.605500000001
20
6.21727156313185
30
0
41
1
10
111.739622539874
20
6.52027162010765
30
0
41
1
10
111.862125005522
20
6.82854779960857
30
0
41
1
10
112.07871107186
20
7.45800381229148
30
0
41
1
10
112.172800078506
20
7.77918119088568
30
0
41
1
10
112.249500000001
20
8.10825412522968
30
0
0
SPLINE
5
1C1
100
AcDbEntity
8
1
62
256
6
ByLayer
370
18
48
1
60
0
100
AcDbSpline
70
4
71
3
72
22
73
18
40
0
40
0
40
0
40
0
40
0.12499999999995
40
0.12499999999995
40
0.187499999999955
40
0.187499999999955
40
0.249999999999959
40
0.249999999999959
40
0.312499999999964
40
0.312499999999964
40
0.374999999999968
40
0.374999999999968
40
0.499999999999969
40
0.499999999999969
40
0.749999999999984
40
0.749999999999984
40
1
40
1
40
1
40
1
41
1
10
111.6055
20
26.7826993267326
30
0
41
1
10
111.591974522899
20
26.79377410663
30
0
41
1
10
111.578572891949
20
26.8032351891506
30
0
41
1
10
111.560072832448
20
26.8127399031511
30
0
41
1
10
111.554246459773
20
26.8150706091348
30
0
41
1
10
111.543782254935
20
26.8176552021779
30
0
41
1
10
111.539080357025
20
26.8178985994964
30
0
41
1
10
111.531404308881
20
26.8162564980175
30
0
41
1
10
111.52830691468
20
26.814376925707
30
0
41
1
10
111.523684963868
20
26.8087898475587
30
0
41
1
10
111.522185737906
20
26.8051654829402
30
0
41
1
10
111.519647436547
20
26.792280964629
30
0
41
1
10
111.52060442944
20
26.7813013056084
30
0
41
1
10
111.528430006134
20
26.7448847871389
30
0
41
1
10
111.540081448102
20
26.7161474341274
30
0
41
1
10
111.568801388406
20
26.6577627074369
30
0
41
1
10
111.585973014625
20
26.6278885715471
30
0
41
1
10
111.6055
20
26.5974568928041
30
0
0
SPLINE
5
1C2
100
AcDbEntity
8
1
62
256
6
ByLayer
370
18
48
1
60
0
100
AcDbSpline
70
4
71
3
72
12
73
8
40
0
40
0
40
0
40
0
40
0.5
40
0.5
40
0.75
40
0.75
40
1
40
1
40
1
40
1
41
1
10
112.2495
20
-7.30753177916031
30
0
41
1
10
112.269569104578
20
-7.28004467183931
30
0
41
1
10
112.287037981678
20
-7.25338922779704
30
0
41
1
10
112.307741596853
20
-7.21537831210608
30
0
41
1
10
112.313491339927
20
-7.20342166398154
30
0
41
1
10
112.321898093649
20
-7.18142398664253
30
0
41
1
10
112.324500000003
20
-7.17143233126953
30
0
41
1
10
112.324500000003
20
-7.16376267396035
30
0
0
SPLINE
5
1C3
100
AcDbEntity
8
1
62
256
6
ByLayer
370
18
48
1
60
0
100
AcDbSpline
70
4
71
3
72
8
73
4
40
0
40
0
40
0
40
0
40
1
40
1
40
1
40
1
41
1
10
112.2495
20
28.9129704705177
30
0
41
1
10
112.035137860735
20
29.1129342405493
30
0
41
1
10
111.820462678659
20
29.31244894935
30
0
41
1
10
111.6055
20
29.5115512430934
30
0
0
SPLINE
5
1C4
100
AcDbEntity
8
1
62
256
6
ByLayer
370
18
48
1
60
0
100
AcDbSpline
70
4
71
3
72
14
73
10
40
0
40
0
40
0
40
0
40
0.249137035935557
40
0.249137035935557
40
0.499424690623705
40
0.499424690623705
40
0.749712345311852
40
0.749712345311852
40
1
40
1
40
1
40
1
41
1
10
111.520501007097
20
29.8039989842347
30
0
41
1
10
111.520559199647
20
29.8039402888371
30
0
41
1
10
111.523178205313
20
29.8012984444748
30
0
41
1
10
111.532509978376
20
29.791889964152
30
0
41
1
10
111.539284482808
20
29.7850614653389
30
0
41
1
10
111.555149357874
20
29.7690814809519
30
0
41
1
10
111.564434787015
20
29.7597336572633
30
0
41
1
10
111.584091600717
20
29.7399607665405
30
0
41
1
10
111.59453851892
20
29.729459433587
30
0
41
1
10
111.6055
20
29.7184503955052
30
0
0
SPLINE
5
1C5
100
AcDbEntity
8
1
62
256
6
ByLayer
370
18
48
1
60
0
100
AcDbSpline
70
4
71
3
72
14
73
10
40
0
40
0
40
0
40
0
40
0.25
40
0.25
40
0.5
40
0.5
40
0.75
40
0.75
40
1
40
1
40
1
40
1
41
1
10
112.2495
20
22.4160122997162
30
0
41
1
10
112.260085369069
20
22.4068776428476
30
0
41
1
10
112.27112172787
20
22.3993650651572
30
0
41
1
10
112.291967553371
20
22.3921063777257
30
0
41
1
10
112.301175936096
20
22.3929374305926
30
0
41
1
10
112.31440749166
20
22.4024577934998
30
0
41
1
10
112.318609915423
20
22.4108018870577
30
0
41
1
10
112.323586945423
20
22.4297872600658
30
0
41
1
10
112.3245
20
22.4404527178704
30
0
41
1
10
112.3245
20
22.4517920695673
30
0
0
SPLINE
5
1C6
100
AcDbEntity
8
1
62
256
6
ByLayer
370
18
48
1
60
0
100
AcDbSpline
70
4
71
3
72
18
73
14
40
0
40
0
40
0
40
0
40
0.125000000000013
40
0.125000000000013
40
0.250000000000025
40
0.250000000000025
40
0.375000000000038
40
0.375000000000038
40
0.50000000000005
40
0.50000000000005
40
0.750000000000025
40
0.750000000000025
40
1
40
1
40
1
40
1
41
1
10
112.2495
20
20.414627938755
30
0
41
1
10
112.25500497881
20
20.4094222642644
30
0
41
1
10
112.260747198982
20
20.4047102840507
30
0
41
1
10
112.272271983717
20
20.3973363917775
30
0
41
1
10
112.278205664729
20
20.394621772586
30
0
41
1
10
112.2893124648
20
20.3923988253768
30
0
41
1
10
112.294555762787
20
20.3929125974019
30
0
41
1
10
112.303434328157
20
20.3969130794659
30
0
41
1
10
112.307128635141
20
20.4003404441785
30
0
41
1
10
112.316095454751
20
20.4129759221183
30
0
41
1
10
112.319554238696
20
20.4245951089764
30
0
41
1
10
112.323742183536
20
20.4491802546458
30
0
41
1
10
112.3245
20
20.4622966572633
30
0
41
1
10
112.3245
20
20.4758747057917
30
0
0
SPLINE
5
1C7
100
AcDbEntity
8
1
62
256
6
ByLayer
370
18
48
1
60
0
100
AcDbSpline
70
4
71
3
72
8
73
4
40
0
40
0
40
0
40
0
40
1
40
1
40
1
40
1
41
1
10
111.6055
20
-7.62008296619456
30
0
41
1
10
111.820200946825
20
-7.4420861479081
30
0
41
1
10
112.034868684835
20
-7.26403590614652
30
0
41
1
10
112.2495
20
-7.08592715431894
30
0
0
SPLINE
5
1C8
100
AcDbEntity
8
1
62
256
6
ByLayer
370
18
48
1
60
0
100
AcDbSpline
70
4
71
3
72
8
73
4
40
0
40
0
40
0
40
0
40
1
40
1
40
1
40
1
41
1
10
112.2495
20
27.7516701480928
30
0
41
1
10
112.034913814811
20
27.9335319303368
30
0
41
1
10
111.820244754008
20
28.11526338816
30
0
41
1
10
111.6055
20
28.2968754376164
30
0
0
SPLINE
5
1C9
100
AcDbEntity
8
1
62
256
6
ByLayer
370
18
48
1
60
0
100
AcDbSpline
70
4
71
3
72
8
73
4
40
0
40
0
40
0
40
0
40
1
40
1
40
1
40
1
41
1
10
111.6055
20
24.2334897125276
30
0
41
1
10
111.826510348702
20
23.8049585330932
30
0
41
1
10
112.04140572646
20
23.3723826835176
30
0
41
1
10
112.2495
20
22.9353083296312
30
0
0
SPLINE
5
1CA
100
AcDbEntity
8
1
62
256
6
ByLayer
370
18
48
1
60
0
100
AcDbSpline
70
4
71
3
72
22
73
18
40
0
40
0
40
0
40
0
40
0.124999999999945
40
0.124999999999945
40
0.24999999999989
40
0.24999999999989
40
0.312499999999889
40
0.312499999999889
40
0.374999999999887
40
0.374999999999887
40
0.499999999999906
40
0.499999999999906
40
0.624999999999924
40
0.624999999999924
40
0.749999999999943
40
0.749999999999943
40
1
40
1
40
1
40
1
41
1
10
111.6055
20
28.8304003628101
30
0
41
1
10
111.593380808039
20
28.8409166748025
30
0
41
1
10
111.581502968404
20
28.850599351319
30
0
41
1
10
111.559693945803
20
28.8666789353283
30
0
41
1
10
111.549522162378
20
28.8732288666946
30
0
41
1
10
111.537271537993
20
28.8790458665807
30
0
41
1
10
111.533636580047
20
28.8803378471185
30
0
41
1
10
111.527722419873
20
28.8814041831677
30
0
41
1
10
111.525390108167
20
28.8812105482548
30
0
41
1
10
111.520318726839
20
28.8783850311454
30
0
41
1
10
111.51974863245
20
28.8735609996964
30
0
41
1
10
111.523039271001
20
28.8599134489843
30
0
41
1
10
111.526840175741
20
28.8511757274978
30
0
41
1
10
111.537301085598
20
28.8315374121518
30
0
41
1
10
111.54386990924
20
28.8207762383678
30
0
41
1
10
111.56664699131
20
28.7863364356785
30
0
41
1
10
111.585022833209
20
28.7617741819729
30
0
41
1
10
111.6055
20
28.7363442052146
30
0
0
SPLINE
5
1CB
100
AcDbEntity
8
1
62
256
6
ByLayer
370
18
48
1
60
0
100
AcDbSpline
70
4
71
3
72
8
73
4
40
0
40
0
40
0
40
0
40
1
40
1
40
1
40
1
41
1
10
111.6055
20
-4.51007727764983
30
0
41
1
10
111.820203979195
20
-4.33237004341845
30
0
41
1
10
112.034872069188
20
-4.1546049768551
30
0
41
1
10
112.2495
20
-3.97677529871268
30
0
0
SPLINE
5
1CC
100
AcDbEntity
8
1
62
256
6
ByLayer
370
18
48
1
60
0
100
AcDbSpline
70
4
71
3
72
10
73
6
40
0
40
0
40
0
40
0
40
0.5
40
0.5
40
1
40
1
40
1
40
1
41
1
10
112.2495
20
11.8917458747731
30
0
41
1
10
112.172800078505
20
12.2208188091166
30
0
41
1
10
112.078711071859
20
12.5419961877103
30
0
41
1
10
111.862125005522
20
13.1714522003923
30
0
41
1
10
111.739622539874
20
13.4797283798928
30
0
41
1
10
111.605500000001
20
13.7827284368681
30
0
0
SPLINE
5
1CD
100
AcDbEntity
8
1
62
256
6
ByLayer
370
18
48
1
60
0
100
AcDbSpline
70
4
71
3
72
8
73
4
40
0
40
0
40
0
40
0
40
1
40
1
40
1
40
1
41
1
10
112.2495
20
25.2329620912908
30
0
41
1
10
112.034835023948
20
25.4083593488627
30
0
41
1
10
111.820168300833
20
25.5837537555398
30
0
41
1
10
111.6055
20
25.7591455874816
30
0
0
SPLINE
5
1CE
100
AcDbEntity
8
1
62
256
6
ByLayer
370
18
48
1
60
0
100
AcDbSpline
70
4
71
3
72
8
73
4
40
0
40
0
40
0
40
0
40
1
40
1
40
1
40
1
41
1
10
111.6055
20
-1.01933248954893
30
0
41
1
10
111.820739969169
20
-0.818578382327615
30
0
41
1
10
112.035436607666
20
-0.61705275803962
30
0
41
1
10
112.2495
20
-0.414627938755785
30
0
0
SPLINE
5
1CF
100
AcDbEntity
8
1
62
256
6
ByLayer
370
18
48
1
60
0
100
AcDbSpline
70
4
71
3
72
8
73
4
40
0
40
0
40
0
40
0
40
1
40
1
40
1
40
1
41
1
10
111.6055
20
27.4690368442115
30
0
41
1
10
111.822628100131
20
27.1583021627902
30
0
41
1
10
112.037374649206
20
26.845389577551
30
0
41
1
10
112.2495
20
26.5300799335829
30
0
0
SPLINE
5
1D0
100
AcDbEntity
8
1
62
256
6
ByLayer
370
18
48
1
60
0
100
AcDbSpline
70
4
71
3
72
12
73
8
40
0
40
0
40
0
40
0
40
0.499999999999992
40
0.499999999999992
40
0.749999999999996
40
0.749999999999996
40
1
40
1
40
1
40
1
41
1
10
112.2495
20
-8.74758643971691
30
0
41
1
10
112.269096039341
20
-8.7255245029813
30
0
41
1
10
112.287055571439
20
-8.70419806167527
30
0
41
1
10
112.307771252659
20
-8.67692305652264
30
0
41
1
10
112.313708424421
20
-8.6685026888432
30
0
41
1
10
112.322055283879
20
-8.65475497873769
30
0
41
1
10
112.3245
20
-8.64934249794734
30
0
41
1
10
112.3245
20
-8.64631932718225
30
0
0
SPLINE
5
1D1
100
AcDbEntity
8
1
62
256
6
ByLayer
370
18
48
1
60
0
100
AcDbSpline
70
4
71
3
72
8
73
4
40
0
40
0
40
0
40
0
40
1
40
1
40
1
40
1
41
1
10
112.2495
20
-6.53007993358287
30
0
41
1
10
112.037374649206
20
-6.84538957755098
30
0
41
1
10
111.822628100131
20
-7.15830216279019
30
0
41
1
10
111.6055
20
-7.4690368442115
30
0
0
SPLINE
5
1D2
100
AcDbEntity
8
1
62
256
6
ByLayer
370
18
48
1
60
0
100
AcDbSpline
70
4
71
3
72
8
73
4
40
0
40
0
40
0
40
0
40
1
40
1
40
1
40
1
41
1
10
111.6055
20
29.4662256251216
30
0
41
1
10
111.821059437748
20
29.2277459581948
30
0
41
1
10
112.03575253422
20
28.9882311427328
30
0
41
1
10
112.2495
20
28.7475864397169
30
0
0
SPLINE
5
1D3
100
AcDbEntity
8
1
62
256
6
ByLayer
370
18
48
1
60
0
100
AcDbSpline
70
4
71
3
72
8
73
4
40
0
40
0
40
0
40
0
40
1
40
1
40
1
40
1
41
1
10
112.2495
20
-9.06793708471545
30
0
41
1
10
112.035382142102
20
-9.28549927331085
30
0
41
1
10
111.820700052471
20
-9.50231668552041
30
0
41
1
10
111.6055
20
-9.71845039550519
30
0
0
SPLINE
5
1D4
100
AcDbEntity
8
1
62
256
6
ByLayer
370
18
48
1
60
0
100
AcDbSpline
70
4
71
3
72
8
73
4
40
0
40
0
40
0
40
0
40
1
40
1
40
1
40
1
41
1
10
111.6055
20
29.7184503955052
30
0
41
1
10
111.820700052471
20
29.5023166855204
30
0
41
1
10
112.035382142102
20
29.2854992733109
30
0
41
1
10
112.2495
20
29.0679370847154
30
0
0
SPLINE
5
1D5
100
AcDbEntity
8
1
62
256
6
ByLayer
370
18
48
1
60
0
100
AcDbSpline
70
4
71
3
72
16
73
12
40
0
40
0
40
0
40
0
40
0.249999999999994
40
0.249999999999994
40
0.499999999999988
40
0.499999999999988
40
0.624999999999996
40
0.624999999999996
40
0.750000000000004
40
0.750000000000004
40
1
40
1
40
1
40
1
41
1
10
112.324500000002
20
-2.45179206956567
30
0
41
1
10
112.324500000002
20
-2.44036738397301
30
0
41
1
10
112.323574330635
20
-2.42962575443096
30
0
41
1
10
112.318509386911
20
-2.41053436840278
30
0
41
1
10
112.314345247719
20
-2.40236670973761
30
0
41
1
10
112.304383043625
20
-2.39526861956361
30
0
41
1
10
112.300413994865
20
-2.39380310939325
30
0
41
1
10
112.291511208776
20
-2.39315843487674
30
0
41
1
10
112.286527021205
20
-2.39397960463765
30
0
41
1
10
112.271023676201
20
-2.39944279294949
30
0
41
1
10
112.260027379858
20
-2.40692768470586
30
0
41
1
10
112.2495
20
-2.41601229971576
30
0
0
SPLINE
5
1D6
100
AcDbEntity
8
1
62
256
6
ByLayer
370
18
48
1
60
0
100
AcDbSpline
70
4
71
3
72
24
73
20
40
0
40
0
40
0
40
0
40
0.249999999999976
40
0.249999999999976
40
0.374999999999967
40
0.374999999999967
40
0.499999999999957
40
0.499999999999957
40
0.624999999999947
40
0.624999999999947
40
0.687499999999955
40
0.687499999999955
40
0.749999999999963
40
0.749999999999963
40
0.812499999999971
40
0.812499999999971
40
0.874999999999978
40
0.874999999999978
40
1
40
1
40
1
40
1
41
1
10
111.6055
20
-8.73634420521464
30
0
41
1
10
111.584933659893
20
-8.76188492362914
30
0
41
1
10
111.566264229825
20
-8.78688629101268
30
0
41
1
10
111.543766769786
20
-8.8209469214415
30
0
41
1
10
111.537092163987
20
-8.83189905501041
30
0
41
1
10
111.526746101153
20
-8.85138380638278
30
0
41
1
10
111.522951087146
20
-8.86014684398444
30
0
41
1
10
111.519744344447
20
-8.87371494124409
30
0
41
1
10
111.520396419323
20
-8.87850012587873
30
0
41
1
10
111.525477759379
20
-8.88122211238453
30
0
41
1
10
111.527888375931
20
-8.88139890581382
30
0
41
1
10
111.533838386635
20
-8.88027523716585
30
0
41
1
10
111.537384868344
20
-8.87899995110041
30
0
41
1
10
111.545559270928
20
-8.87510245091323
30
0
41
1
10
111.550188285926
20
-8.87246787434364
30
0
41
1
10
111.559992242756
20
-8.86623294202704
30
0
41
1
10
111.565218656667
20
-8.86260933302262
30
0
41
1
10
111.581754020229
20
-8.85040668963256
30
0
41
1
10
111.593447968638
20
-8.84085839684005
30
0
41
1
10
111.6055
20
-8.83040036281017
30
0
0
SPLINE
5
1D7
100
AcDbEntity
8
1
62
256
6
ByLayer
370
18
48
1
60
0
100
AcDbSpline
70
4
71
3
72
12
73
8
40
0
40
0
40
0
40
0
40
0.500000000000001
40
0.500000000000001
40
0.75
40
0.75
40
1
40
1
40
1
40
1
41
1
10
112.2495
20
5.42825410213877
30
0
41
1
10
112.273449874967
20
5.58419348761174
30
0
41
1
10
112.291067937376
20
5.74021037292263
30
0
41
1
10
112.310080956516
20
5.9744188988231
30
0
41
1
10
112.315133100644
20
6.05251762558106
30
0
41
1
10
112.322320194146
20
6.20876755337994
30
0
41
1
10
112.3245
20
6.28676184247223
30
0
41
1
10
112.3245
20
6.36448444176409
30
0
0
SPLINE
5
1D8
100
AcDbEntity
8
1
62
256
6
ByLayer
370
18
48
1
60
0
100
AcDbSpline
70
4
71
3
72
20
73
16
40
0
40
0
40
0
40
0
40
0.0624999999999984
40
0.0624999999999984
40
0.124999999999997
40
0.124999999999997
40
0.249999999999995
40
0.249999999999995
40
0.374999999999994
40
0.374999999999994
40
0.499999999999992
40
0.499999999999992
40
0.749999999999996
40
0.749999999999996
40
1
40
1
40
1
40
1
41
1
10
10.5386751345949
20
-30.0805927603169
30
0
41
1
10
10.5229355536388
20
-30.0805927603169
30
0
41
1
10
10.5074817098165
20
-30.0801205034908
30
0
41
1
10
10.4770951469809
20
-30.0783134473999
30
0
41
1
10
10.4620456032698
20
-30.0769634801343
30
0
41
1
10
10.4184736929998
20
-30.0717959485601
30
0
41
1
10
10.3920418953325
20
-30.0669872793662
30
0
41
1
10
10.3428384525281
20
-30.055427253592
30
0
41
1
10
10.3209123403485
20
-30.048869374708
30
0
41
1
10
10.2807959636713
20
-30.0347407881727
30
0
41
1
10
10.2625062023862
20
-30.027107286276
30
0
41
1
10
10.2125137122669
20
-30.0032932993815
30
0
41
1
10
10.1857347330744
20
-29.9863830332716
30
0
41
1
10
10.1400559187761
20
-29.9511519005795
30
0
41
1
10
10.1212556944726
20
-29.9327613369588
30
0
41
1
10
10.1056624327026
20
-29.9139548464691
30
0
0
SPLINE
5
1D9
100
AcDbEntity
8
1
62
256
6
ByLayer
370
18
48
1
60
0
100
AcDbSpline
70
4
71
3
72
24
73
20
40
0
40
0
40
0
40
0
40
0.249999999999994
40
0.249999999999994
40
0.499999999999987
40
0.499999999999987
40
0.62499999999999
40
0.62499999999999
40
0.687499999999992
40
0.687499999999992
40
0.749999999999994
40
0.749999999999994
40
0.812499999999995
40
0.812499999999995
40
0.874999999999997
40
0.874999999999997
40
0.937499999999998
40
0.937499999999998
40
1
40
1
40
1
40
1
41
1
10
111.6055
20
-2.62539331825738
30
0
41
1
10
111.587105291382
20
-2.66686463292226
30
0
41
1
10
111.571091296136
20
-2.70811059154727
30
0
41
1
10
111.54408524399
20
-2.7901074712467
30
0
41
1
10
111.532951748391
20
-2.83123352578204
30
0
41
1
10
111.523038409465
20
-2.88953381308153
30
0
41
1
10
111.520831971449
20
-2.90860424620743
30
0
41
1
10
111.520383997625
20
-2.93554705147898
30
0
41
1
10
111.520719822513
20
-2.94415877578894
30
0
41
1
10
111.522734725193
20
-2.96036613942022
30
0
41
1
10
111.524438115292
20
-2.96805443036521
30
0
41
1
10
111.529778126137
20
-2.98132983238486
30
0
41
1
10
111.533454559674
20
-2.98700331628697
30
0
41
1
10
111.543404949431
20
-2.99472355235827
30
0
41
1
10
111.549750260255
20
-2.99666179797026
30
0
41
1
10
111.564259028938
20
-2.99568300473277
30
0
41
1
10
111.572454592052
20
-2.99278212791487
30
0
41
1
10
111.588892883095
20
-2.98372256947047
30
0
41
1
10
111.59733722664
20
-2.9775187338987
30
0
41
1
10
111.6055
20
-2.97050560152999
30
0
0
SPLINE
5
1DA
100
AcDbEntity
8
1
62
256
6
ByLayer
370
18
48
1
60
0
100
AcDbSpline
70
4
71
3
72
34
73
30
40
0
40
0
40
0
40
0
40
0.250000000000006
40
0.250000000000006
40
0.500000000000013
40
0.500000000000013
40
0.625000000000016
40
0.625000000000016
40
0.750000000000019
40
0.750000000000019
40
0.812500000000021
40
0.812500000000021
40
0.875000000000022
40
0.875000000000022
40
0.906250000000022
40
0.906250000000022
40
0.937500000000022
40
0.937500000000022
40
0.953125000000021
40
0.953125000000021
40
0.960937500000019
40
0.960937500000019
40
0.968750000000017
40
0.968750000000017
40
0.976562500000016
40
0.976562500000016
40
0.984375000000014
40
0.984375000000014
40
1
40
1
40
1
40
1
41
1
10
111.6055
20
8.31906645791491
30
0
41
1
10
111.595346533292
20
8.13143837616877
30
0
41
1
10
111.584370807237
20
7.94397377130073
30
0
41
1
10
111.562481488741
20
7.56939001159913
30
0
41
1
10
111.551513851723
20
7.38227015709626
30
0
41
1
10
111.537202736881
20
7.10187456705947
30
0
41
1
10
111.532796830085
20
7.00845684572096
30
0
41
1
10
111.525483149715
20
6.82172600955175
30
0
41
1
10
111.522535167938
20
6.72845418273084
30
0
41
1
10
111.520533676288
20
6.58921089605209
30
0
41
1
10
111.520274752555
20
6.54289378811987
30
0
41
1
10
111.52115465809
20
6.45055227188575
30
0
41
1
10
111.522240748443
20
6.40451896355097
30
0
41
1
10
111.52608172868
20
6.33588487923927
30
0
41
1
10
111.527736744004
20
6.31306860325785
30
0
41
1
10
111.532408665708
20
6.26814463230252
30
0
41
1
10
111.535313860698
20
6.24594742126928
30
0
41
1
10
111.542369992768
20
6.21386251708134
30
0
41
1
10
111.545178365622
20
6.2032874283978
30
0
41
1
10
111.551015675626
20
6.18899299911809
30
0
41
1
10
111.553273328892
20
6.18440494418294
30
0
41
1
10
111.55884924938
20
6.17667862215797
30
0
41
1
10
111.562256999408
20
6.1734876183385
30
0
41
1
10
111.570382070726
20
6.17141827895674
30
0
41
1
10
111.574817602389
20
6.17287080937828
30
0
41
1
10
111.582709235835
20
6.17875447601119
30
0
41
1
10
111.586129694689
20
6.18281279194107
30
0
41
1
10
111.595657580156
20
6.19628407168096
30
0
41
1
10
111.600811615614
20
6.20667990018364
30
0
41
1
10
111.6055
20
6.21727156313221
30
0
0
SPLINE
5
1DB
100
AcDbEntity
8
1
62
256
6
ByLayer
370
18
48
1
60
0
100
AcDbSpline
70
4
71
3
72
14
73
10
40
0
40
0
40
0
40
0
40
0.25
40
0.25
40
0.5
40
0.5
40
0.75
40
0.75
40
1
40
1
40
1
40
1
41
1
10
112.2495
20
-9.06793708471545
30
0
41
1
10
112.259211278108
20
-9.05806958958942
30
0
41
1
10
112.268463174683
20
-9.04862754838615
30
0
41
1
10
112.285857479136
20
-9.03076353730253
30
0
41
1
10
112.294025317656
20
-9.02231348002823
30
0
41
1
10
112.307974433677
20
-9.00770385955556
30
0
41
1
10
112.313940209129
20
-9.00134943491219
30
0
41
1
10
112.322186827721
20
-8.99223054951653
30
0
41
1
10
112.3245
20
-8.98942425856282
30
0
41
1
10
112.3245
20
-8.98891452049503
30
0
0
SPLINE
5
1DC
100
AcDbEntity
8
1
62
256
6
ByLayer
370
18
48
1
60
0
100
AcDbSpline
70
4
71
3
72
14
73
10
40
0
40
0
40
0
40
0
40
0.25
40
0.25
40
0.5
40
0.5
40
0.75
40
0.75
40
1
40
1
40
1
40
1
41
1
10
112.3245
20
-7.72182271114355
30
0
41
1
10
112.3245
20
-7.71676368279179
30
0
41
1
10
112.322749381051
20
-7.7133264469951
30
0
41
1
10
112.315245830478
20
-7.71089838561963
30
0
41
1
10
112.309604124007
20
-7.7119307814348
30
0
41
1
10
112.295315870072
20
-7.71813617449538
30
0
41
1
10
112.286939122699
20
-7.72316339137086
30
0
41
1
10
112.268758907568
20
-7.7359097762675
30
0
41
1
10
112.259245573468
20
-7.74341077501916
30
0
41
1
10
112.2495
20
-7.75167014809276
30
0
0
SPLINE
5
1DD
100
AcDbEntity
8
1
62
256
6
ByLayer
370
18
48
1
60
0
100
AcDbSpline
70
4
71
3
72
14
73
10
40
0
40
0
40
0
40
0
40
0.25
40
0.25
40
0.5
40
0.5
40
0.75
40
0.75
40
1
40
1
40
1
40
1
41
1
10
112.3245
20
-6.24674276341619
30
0
41
1
10
112.3245
20
-6.23947100022878
30
0
41
1
10
112.32305055261
20
-6.23339110756947
30
0
41
1
10
112.316255949266
20
-6.2254590605736
30
0
41
1
10
112.31080187969
20
-6.22373326973889
30
0
41
1
10
112.296702547042
20
-6.22561360527897
30
0
41
1
10
112.287942439373
20
-6.22920776357208
30
0
41
1
10
112.269327473126
20
-6.2400317807444
30
0
41
1
10
112.259405815922
20
-6.24722573497269
30
0
41
1
10
112.2495
20
-6.25533821237485
30
0
0
SPLINE
5
1DE
100
AcDbEntity
8
1
62
256
6
ByLayer
370
18
48
1
60
0
100
AcDbSpline
70
4
71
3
72
8
73
4
40
0
40
0
40
0
40
0
40
1
40
1
40
1
40
1
41
1
10
112.2495
20
5.42825410213868
30
0
41
1
10
112.086430061288
20
4.36649381874147
30
0
41
1
10
111.869706220596
20
3.31939117384627
30
0
41
1
10
111.6055
20
2.28526017750195
30
0
0
SPLINE
5
1DF
100
AcDbEntity
8
1
62
256
6
ByLayer
370
18
48
1
60
0
100
AcDbSpline
70
4
71
3
72
12
73
8
40
0
40
0
40
0
40
0
40
0.499999999999978
40
0.499999999999978
40
0.749999999999989
40
0.749999999999989
40
1
40
1
40
1
40
1
41
1
10
112.2495
20
-2.93530832963117
30
0
41
1
10
112.270400739195
20
-2.89140910586204
30
0
41
1
10
112.287982247592
20
-2.84726814618173
30
0
41
1
10
112.307957251677
20
-2.78286466217494
30
0
41
1
10
112.313571379324
20
-2.76161763003279
30
0
41
1
10
112.3218661042
20
-2.71975093931732
30
0
41
1
10
112.3245
20
-2.69962540528076
30
0
41
1
10
112.3245
20
-2.68098768618987
30
0
0
SPLINE
5
1E0
100
AcDbEntity
8
1
62
256
6
ByLayer
370
18
48
1
60
0
100
AcDbSpline
70
4
71
3
72
22
73
18
40
0
40
0
40
0
40
0
40
0.250000000000006
40
0.250000000000006
40
0.375000000000007
40
0.375000000000007
40
0.500000000000008
40
0.500000000000008
40
0.62500000000001
40
0.62500000000001
40
0.750000000000011
40
0.750000000000011
40
0.81250000000001
40
0.81250000000001
40
0.87500000000001
40
0.87500000000001
40
1
40
1
40
1
40
1
41
1
10
10.1056624327026
20
-9.86941261896621
30
0
41
1
10
10.1212498345488
20
-9.81243201498808
30
0
41
1
10
10.1399018475136
20
-9.7565502308297
30
0
41
1
10
10.1740902691451
20
-9.67499387250788
30
0
41
1
10
10.1865318440058
20
-9.64819007031198
30
0
41
1
10
10.2140339430554
20
-9.59554701961162
30
0
41
1
10
10.2291686648068
20
-9.56958483867115
30
0
41
1
10
10.2625095528537
20
-9.51963294536122
30
0
41
1
10
10.2806617049328
20
-9.49566900868385
30
0
41
1
10
10.3210597058744
20
-9.45055053780223
30
0
41
1
10
10.3431560434001
20
-9.42959825985622
30
0
41
1
10
10.3794828926306
20
-9.40232505361246
30
0
41
1
10
10.392156025832
20
-9.39389972204373
30
0
41
1
10
10.4189050579785
20
-9.37870617320448
30
0
41
1
10
10.4329857409659
20
-9.37196693550717
30
0
41
1
10
10.4761894743047
20
-9.35548920253851
30
0
41
1
10
10.5072412025891
20
-9.34922131452501
30
0
41
1
10
10.5386751345948
20
-9.34922131452501
30
0
0
SPLINE
5
1E1
100
AcDbEntity
8
1
62
256
6
ByLayer
370
18
48
1
60
0
100
AcDbSpline
70
4
71
3
72
8
73
4
40
0
40
0
40
0
40
0
40
1
40
1
40
1
40
1
41
1
10
112.2495
20
27.0859271543189
30
0
41
1
10
112.034868684835
20
27.2640359061465
30
0
41
1
10
111.820200946825
20
27.4420861479081
30
0
41
1
10
111.6055
20
27.6200829661946
30
0
0
SPLINE
5
1E2
100
AcDbEntity
8
1
62
256
6
ByLayer
370
18
48
1
60
0
100
AcDbSpline
70
4
71
3
72
22
73
18
40
0
40
0
40
0
40
0
40
0.250000000000118
40
0.250000000000118
40
0.312500000000118
40
0.312500000000118
40
0.375000000000119
40
0.375000000000119
40
0.500000000000095
40
0.500000000000095
40
0.625000000000071
40
0.625000000000071
40
0.750000000000048
40
0.750000000000048
40
0.875000000000024
40
0.875000000000024
40
1
40
1
40
1
40
1
41
1
10
111.6055
20
29.5115512430934
30
0
41
1
10
111.582537997433
20
29.5328190622729
30
0
41
1
10
111.560753547666
20
29.5519654120075
30
0
41
1
10
111.54040488847
20
29.567455670588
30
0
41
1
10
111.536759223766
20
29.5700669054193
30
0
41
1
10
111.530414457453
20
29.574200409037
30
0
41
1
10
111.527719044753
20
29.5757123360829
30
0
41
1
10
111.521544858164
20
29.5782568081098
30
0
41
1
10
111.519876109205
20
29.5773008110934
30
0
41
1
10
111.521565633523
20
29.5705019246576
30
0
41
1
10
111.5248695786
20
29.5646759138372
30
0
41
1
10
111.534864493797
20
29.5500522686143
30
0
41
1
10
111.541609733461
20
29.5411548521571
30
0
41
1
10
111.557055124618
20
29.521869396227
30
0
41
1
10
111.565941228382
20
29.5112472832549
30
0
41
1
10
111.584848961551
20
29.4893103171526
30
0
41
1
10
111.594911439579
20
29.4779400570609
30
0
41
1
10
111.6055
20
29.4662256251216
30
0
0
SPLINE
5
1E3
100
AcDbEntity
8
1
62
256
6
ByLayer
370
18
48
1
60
0
100
AcDbSpline
70
4
71
3
72
22
73
18
40
0
40
0
40
0
40
0
40
0.250000000000025
40
0.250000000000025
40
0.375000000000021
40
0.375000000000021
40
0.500000000000018
40
0.500000000000018
40
0.625000000000014
40
0.625000000000014
40
0.750000000000011
40
0.750000000000011
40
0.812500000000008
40
0.812500000000008
40
0.875000000000005
40
0.875000000000005
40
1
40
1
40
1
40
1
41
1
10
111.6055
20
-8.17577842130424
30
0
41
1
10
111.585273555258
20
-8.20263546011836
30
0
41
1
10
111.566956451892
20
-8.22922294002427
30
0
41
1
10
111.544833531636
20
-8.26606788440651
30
0
41
1
10
111.538266574183
20
-8.27799812662093
30
0
41
1
10
111.527742828944
20
-8.30009810825527
30
0
41
1
10
111.523823971669
20
-8.3101313539303
30
0
41
1
10
111.519863891674
20
-8.32726622683643
30
0
41
1
10
111.519984207007
20
-8.33405332846945
30
0
41
1
10
111.525780981227
20
-8.34175221500868
30
0
41
1
10
111.531601008418
20
-8.34253955784334
30
0
41
1
10
111.54372645532
20
-8.33889155427826
30
0
41
1
10
111.548412658276
20
-8.33686664309874
30
0
41
1
10
111.558472329125
20
-8.33155126206574
30
0
41
1
10
111.563846554174
20
-8.3282779831857
30
0
41
1
10
111.580853219547
20
-8.31688283584526
30
0
41
1
10
111.593068792019
20
-8.3073886497742
30
0
41
1
10
111.6055
20
-8.29687543761645
30
0
0
LINE
5
75
100
AcDbEntity
8
1
62
256
6
ByLayer
370
18
48
1
60
0
100
AcDbLine
10
111.3245
20
30
30
0
11
107.8
21
30
31
0
39
0
210
0
220
0
230
1
0
LINE
5
77
100
AcDbEntity
8
1
62
256
6
ByLayer
370
18
48
1
60
0
100
AcDbLine
10
22
20
-31.5
30
0
11
22.244183
21
-30.706039
31
0
39
0
210
0
220
0
230
1
0
LINE
5
78
100
AcDbEntity
8
1
62
256
6
ByLayer
370
18
48
1
60
0
100
AcDbLine
10
22.244183
20
30.706039
30
0
11
22
21
31.5
31
0
39
0
210
0
220
0
230
1
0
LINE
5
79
100
AcDbEntity
8
1
62
256
6
ByLayer
370
18
48
1
60
0
100
AcDbLine
10
116.4255
20
3.100505
30
0
11
112.324484
21
3.100505
31
0
39
0
210
0
220
0
230
1
0
LINE
5
7A
100
AcDbEntity
8
1
62
256
6
ByLayer
370
18
48
1
60
0
100
AcDbLine
10
116.6755
20
-4.899495
30
0
11
121.9255
21
-4.899495
31
0
39
0
210
0
220
0
230
1
0
LINE
5
7B
100
AcDbEntity
8
1
62
256
6
ByLayer
370
18
48
1
60
0
100
AcDbLine
10
112.324484
20
-2.899495
30
0
11
116.4255
21
-2.899495
31
0
39
0
210
0
220
0
230
1
0
LINE
5
7C
100
AcDbEntity
8
1
62
256
6
ByLayer
370
18
48
1
60
0
100
AcDbLine
10
121.9255
20
5.100505
30
0
11
116.6755
21
5.100505
31
0
39
0
210
0
220
0
230
1
0
LINE
5
7D
100
AcDbEntity
8
1
62
256
6
ByLayer
370
18
48
1
60
0
100
AcDbLine
10
116.6755
20
14.899495
30
0
11
121.9255
21
14.899495
31
0
39
0
210
0
220
0
230
1
0
LINE
5
7E
100
AcDbEntity
8
1
62
256
6
ByLayer
370
18
48
1
60
0
100
AcDbLine
10
121.9255
20
24.899495
30
0
11
116.6755
21
24.899495
31
0
39
0
210
0
220
0
230
1
0
LINE
5
7F
100
AcDbEntity
8
1
62
256
6
ByLayer
370
18
48
1
60
0
100
AcDbLine
10
107.8
20
-10
30
0
11
111.3245
21
-10
31
0
39
0
210
0
220
0
230
1
0
LINE
5
80
100
AcDbEntity
8
SK1
62
256
6
ByLayer
370
18
48
1
60
0
100
AcDbLine
10
-0.2
20
-22.070375
30
0
11
0
21
-22.070375
31
0
39
0
210
0
220
0
230
1
0
LINE
5
82
100
AcDbEntity
8
1
62
256
6
ByLayer
370
18
48
1
60
0
100
AcDbLine
10
107.8
20
30
30
0
11
23.2
21
30
31
0
39
0
210
0
220
0
230
1
0
LINE
5
83
100
AcDbEntity
8
1
62
256
6
ByLayer
370
18
48
1
60
0
100
AcDbLine
10
23.2
20
-30
30
0
11
101.674219
21
-30
31
0
39
0
210
0
220
0
230
1
0
LINE
5
84
100
AcDbEntity
8
1
62
256
6
ByLayer
370
18
48
1
60
0
100
AcDbLine
10
101.673689
20
-30
30
0
11
106.834074
21
-10.741181
31
0
39
0
210
0
220
0
230
1
0
LINE
5
85
100
AcDbEntity
8
1
62
256
6
ByLayer
370
18
48
1
60
0
100
AcDbLine
10
0
20
-31.2
30
0
11
0.3
21
-31.5
31
0
39
0
210
0
220
0
230
1
0
LINE
5
86
100
AcDbEntity
8
1
62
256
6
ByLayer
370
18
48
1
60
0
100
AcDbLine
10
0.3
20
31.5
30
0
11
0
21
31.2
31
0
39
0
210
0
220
0
230
1
0
LINE
5
87
100
AcDbEntity
8
1
62
256
6
ByLayer
370
18
48
1
60
0
100
AcDbLine
10
22
20
31.5
30
0
11
0.3
21
31.5
31
0
39
0
210
0
220
0
230
1
0
LINE
5
88
100
AcDbEntity
8
1
62
256
6
ByLayer
370
18
48
1
60
0
100
AcDbLine
10
0.3
20
-31.5
30
0
11
22
21
-31.5
31
0
39
0
210
0
220
0
230
1
0
LINE
5
89
100
AcDbEntity
8
1
62
256
6
ByLayer
370
18
48
1
60
0
100
AcDbLine
10
111.3245
20
-10
30
0
11
111.521897
21
-9.802603
31
0
39
0
210
0
220
0
230
1
0
LINE
5
8A
100
AcDbEntity
8
1
62
256
6
ByLayer
370
18
48
1
60
0
100
AcDbLine
10
111.521897
20
29.802603
30
0
11
111.3245
21
30
31
0
39
0
210
0
220
0
230
1
0
LINE
5
8B
100
AcDbEntity
8
1
62
256
6
ByLayer
370
18
48
1
60
0
100
AcDbLine
10
121.9255
20
24.899495
30
0
11
116.6755
21
24.899495
31
0
39
0
210
0
220
0
230
1
0
LINE
5
8C
100
AcDbEntity
8
1
62
256
6
ByLayer
370
18
48
1
60
0
100
AcDbLine
10
116.6755
20
14.899495
30
0
11
121.9255
21
14.899495
31
0
39
0
210
0
220
0
230
1
0
LINE
5
8D
100
AcDbEntity
8
1
62
256
6
ByLayer
370
18
48
1
60
0
100
AcDbLine
10
116.4255
20
22.899495
30
0
11
112.324484
21
22.899495
31
0
39
0
210
0
220
0
230
1
0
LINE
5
8E
100
AcDbEntity
8
1
62
256
6
ByLayer
370
18
48
1
60
0
100
AcDbLine
10
112.324484
20
16.899495
30
0
11
116.4255
21
16.899495
31
0
39
0
210
0
220
0
230
1
0
LINE
5
8F
100
AcDbEntity
8
SK1
62
256
6
ByLayer
370
18
48
1
60
0
100
AcDbLine
10
0
20
22.070375
30
0
11
-0.2
21
22.070375
31
0
39
0
210
0
220
0
230
1
0
LINE
5
90
100
AcDbEntity
8
1
62
256
6
ByLayer
370
18
48
1
60
0
100
AcDbLine
10
116.4255
20
22.899495
30
0
11
112.324484
21
22.899495
31
0
39
0
210
0
220
0
230
1
0
LINE
5
91
100
AcDbEntity
8
1
62
256
6
ByLayer
370
18
48
1
60
0
100
AcDbLine
10
112.324484
20
16.899495
30
0
11
116.4255
21
16.899495
31
0
39
0
210
0
220
0
230
1
0
LINE
5
92
100
AcDbEntity
8
1
62
256
6
ByLayer
370
13
48
1
60
0
100
AcDbLine
10
112.324383
20
22.285995
30
0
11
116.4255
21
22.285995
31
0
39
0
210
0
220
0
230
1
0
LINE
5
93
100
AcDbEntity
8
1
62
256
6
ByLayer
370
13
48
1
60
0
100
AcDbLine
10
112.324383
20
17.512995
30
0
11
116.4255
21
17.512995
31
0
39
0
210
0
220
0
230
1
0
LINE
5
94
100
AcDbEntity
8
1
62
256
6
ByLayer
370
18
48
1
60
0
100
AcDbLine
10
116.4255
20
18.284089
30
0
11
116.4255
21
16.899495
31
0
39
0
210
0
220
0
230
1
0
LINE
5
95
100
AcDbEntity
8
80
62
256
6
ByLayer
370
18
48
1
60
0
100
AcDbLine
10
0
20
0
30
0
11
-5
21
0
31
0
39
0
210
0
220
0
230
1
0
LINE
5
96
100
AcDbEntity
8
81
62
256
6
ByLayer
370
18
48
1
60
0
100
AcDbLine
10
112
20
10
30
0
11
117
21
10
31
0
39
0
210
0
220
0
230
1
0
LINE
5
97
100
AcDbEntity
8
4
62
256
6
ByLayer
370
18
48
0.05
60
0
100
AcDbLine
10
0
20
0
30
0
11
112
21
0
31
0
39
0
210
0
220
0
230
1
0
LINE
5
99
100
AcDbEntity
8
SK4
62
256
6
ByLayer
370
18
48
0.05
60
0
100
AcDbLine
10
-43
20
0
30
0
11
117
21
0
31
0
39
0
210
0
220
0
230
1
0
LINE
5
9B
100
AcDbEntity
8
SK1
62
256
6
ByLayer
370
13
48
1
60
0
100
AcDbLine
10
-1.307107
20
4.811152
30
0
11
-1.307107
21
-4.811152
31
0
39
0
210
0
220
0
230
1
0
LINE
5
9C
100
AcDbEntity
8
SK1
62
256
6
ByLayer
370
18
48
1
60
0
100
AcDbLine
10
-0.2
20
7.0854
30
0
11
-0.2
21
7.034161
31
0
39
0
210
0
220
0
230
1
0
LINE
5
9D
100
AcDbEntity
8
SK1
62
256
6
ByLayer
370
18
48
1
60
0
100
AcDbLine
10
-0.2
20
-7.034158
30
0
11
-0.2
21
-7.085397
31
0
39
0
210
0
220
0
230
1
0
LINE
5
9E
100
AcDbEntity
8
1
62
256
6
ByLayer
370
18
48
1
60
0
100
AcDbLine
10
112.3245
20
28.98093
30
0
11
112.3245
21
28.877899
31
0
39
0
210
0
220
0
230
1
0
LINE
5
9F
100
AcDbEntity
8
1
62
256
6
ByLayer
370
13
48
1
60
0
100
AcDbLine
10
112.2495
20
28.967827
30
0
11
112.2495
21
29.04976
31
0
39
0
210
0
220
0
230
1
0
LINE
5
A0
100
AcDbEntity
8
1
62
256
6
ByLayer
370
18
48
1
60
0
100
AcDbLine
10
112.3245
20
24.177598
30
0
11
112.3245
21
23.994653
31
0
39
0
210
0
220
0
230
1
0
LINE
5
A1
100
AcDbEntity
8
1
62
256
6
ByLayer
370
13
48
1
60
0
100
AcDbLine
10
111.6055
20
-9.649908
30
0
11
111.6055
21
-9.672543
31
0
39
0
210
0
220
0
230
1
0
LINE
5
A2
100
AcDbEntity
8
1
62
256
6
ByLayer
370
13
48
1
60
0
100
AcDbLine
10
111.6055
20
13.782728
30
0
11
111.6055
21
11.680832
31
0
39
0
210
0
220
0
230
1
0
LINE
5
A3
100
AcDbEntity
8
1
62
256
6
ByLayer
370
13
48
1
60
0
100
AcDbLine
10
111.6055
20
8.319168
30
0
11
111.6055
21
6.217272
31
0
39
0
210
0
220
0
230
1
0
LINE
5
A4
100
AcDbEntity
8
1
62
256
6
ByLayer
370
18
48
1
60
0
100
AcDbLine
10
112.3245
20
-8.289015
30
0
11
112.3245
21
-8.605627
31
0
39
0
210
0
220
0
230
1
0
LINE
5
A5
100
AcDbEntity
8
1
62
256
6
ByLayer
370
18
48
1
60
0
100
AcDbLine
10
112.3245
20
28.605627
30
0
11
112.3245
21
28.289015
31
0
39
0
210
0
220
0
230
1
0
LINE
5
A6
100
AcDbEntity
8
1
62
256
6
ByLayer
370
13
48
1
60
0
100
AcDbLine
10
111.6055
20
25.759146
30
0
11
111.6055
21
25.533307
31
0
39
0
210
0
220
0
230
1
0
LINE
5
A7
100
AcDbEntity
8
1
62
256
6
ByLayer
370
13
48
1
60
0
100
AcDbLine
10
10.105662
20
-9.869413
30
0
11
10.105662
21
-29.913955
31
0
39
0
210
0
220
0
230
1
0
LINE
5
A8
100
AcDbEntity
8
1
62
256
6
ByLayer
370
18
48
1
60
0
100
AcDbLine
10
112.3245
20
-4.177621
30
0
11
112.3245
21
-5.236583
31
0
39
0
210
0
220
0
230
1
0
LINE
5
A9
100
AcDbEntity
8
1
62
256
6
ByLayer
370
18
48
1
60
0
100
AcDbLine
10
112.3245
20
-8.646315
30
0
11
112.3245
21
-8.853979
31
0
39
0
210
0
220
0
230
1
0
LINE
5
AA
100
AcDbEntity
8
1
62
256
6
ByLayer
370
18
48
1
60
0
100
AcDbLine
10
112.3245
20
7.625637
30
0
11
112.3245
21
6.364484
31
0
39
0
210
0
220
0
230
1
0
LINE
5
AB
100
AcDbEntity
8
1
62
256
6
ByLayer
370
18
48
1
60
0
100
AcDbLine
10
112.3245
20
-7.066336
30
0
11
112.3245
21
-7.163763
31
0
39
0
210
0
220
0
230
1
0
LINE
5
AC
100
AcDbEntity
8
1
62
256
6
ByLayer
370
13
48
1
60
0
100
AcDbLine
10
112.2495
20
-3.976775
30
0
11
112.2495
21
-2.935311
31
0
39
0
210
0
220
0
230
1
0
LINE
5
AD
100
AcDbEntity
8
1
62
256
6
ByLayer
370
13
48
1
60
0
100
AcDbLine
10
10.538675
20
-9.349221
30
0
11
10.538675
21
-30.080593
31
0
39
0
210
0
220
0
230
1
0
LINE
5
AE
100
AcDbEntity
8
1
62
256
6
ByLayer
370
18
48
1
60
0
100
AcDbLine
10
112.3245
20
28.878084
30
0
11
112.3245
21
28.853979
31
0
39
0
210
0
220
0
230
1
0
LINE
5
AF
100
AcDbEntity
8
1
62
256
6
ByLayer
370
13
48
1
60
0
100
AcDbLine
10
112.2495
20
24.391974
30
0
11
112.2495
21
25.232962
31
0
39
0
210
0
220
0
230
1
0
LINE
5
B0
100
AcDbEntity
8
1
62
256
6
ByLayer
370
18
48
1
60
0
100
AcDbLine
10
112.3245
20
12.374363
30
0
11
112.3245
21
7.625637
31
0
39
0
210
0
220
0
230
1
0
LINE
5
B1
100
AcDbEntity
8
1
62
256
6
ByLayer
370
13
48
1
60
0
100
AcDbLine
10
111.6055
20
-6.597446
30
0
11
111.6055
21
-6.782699
31
0
39
0
210
0
220
0
230
1
0
LINE
5
B2
100
AcDbEntity
8
1
62
256
6
ByLayer
370
13
48
1
60
0
100
AcDbLine
10
111.6055
20
26.782699
30
0
11
111.6055
21
26.597446
31
0
39
0
210
0
220
0
230
1
0
LINE
5
B3
100
AcDbEntity
8
1
62
256
6
ByLayer
370
18
48
1
60
0
100
AcDbLine
10
112.3245
20
18.180085
30
0
11
112.3245
21
17.742143
31
0
39
0
210
0
220
0
230
1
0
LINE
5
B4
100
AcDbEntity
8
1
62
256
6
ByLayer
370
13
48
1
60
0
100
AcDbLine
10
106.834074
20
28.490171
30
0
11
106.834074
21
-10.741181
31
0
39
0
210
0
220
0
230
1
0
LINE
5
B5
100
AcDbEntity
8
1
62
256
6
ByLayer
370
18
48
1
60
0
100
AcDbLine
10
112.3245
20
-7.798581
30
0
11
112.3245
21
-8.230913
31
0
39
0
210
0
220
0
230
1
0
LINE
5
B6
100
AcDbEntity
8
1
62
256
6
ByLayer
370
13
48
1
60
0
100
AcDbLine
10
22.244183
20
30.706039
30
0
11
22.244183
21
-30.706039
31
0
39
0
210
0
220
0
230
1
0
LINE
5
B7
100
AcDbEntity
8
1
62
256
6
ByLayer
370
18
48
1
60
0
100
AcDbLine
10
112.3245
20
23.994653
30
0
11
112.3245
21
22.681014
31
0
39
0
210
0
220
0
230
1
0
LINE
5
B8
100
AcDbEntity
8
1
62
256
6
ByLayer
370
18
48
1
60
0
100
AcDbLine
10
112.3245
20
26.246743
30
0
11
112.3245
21
25.385072
31
0
39
0
210
0
220
0
230
1
0
LINE
5
B9
100
AcDbEntity
8
1
62
256
6
ByLayer
370
13
48
1
60
0
100
AcDbLine
10
23.2
20
30
30
0
11
23.2
21
-30
31
0
39
0
210
0
220
0
230
1
0
LINE
5
BA
100
AcDbEntity
8
1
62
256
6
ByLayer
370
13
48
1
60
0
100
AcDbLine
10
111.6055
20
27.620083
30
0
11
111.6055
21
27.468992
31
0
39
0
210
0
220
0
230
1
0
LINE
5
BB
100
AcDbEntity
8
1
62
256
6
ByLayer
370
13
48
1
60
0
100
AcDbLine
10
111.6055
20
-5.533307
30
0
11
111.6055
21
-5.759146
31
0
39
0
210
0
220
0
230
1
0
LINE
5
BC
100
AcDbEntity
8
1
62
256
6
ByLayer
370
18
48
1
60
0
100
AcDbLine
10
112.3245
20
17.742143
30
0
11
112.3245
21
13.63542
31
0
39
0
210
0
220
0
230
1
0
LINE
5
BD
100
AcDbEntity
8
1
62
256
6
ByLayer
370
18
48
1
60
0
100
AcDbLine
10
112.3245
20
6.36458
30
0
11
112.3245
21
2.257857
31
0
39
0
210
0
220
0
230
1
0
LINE
5
BE
100
AcDbEntity
8
1
62
256
6
ByLayer
370
13
48
1
60
0
100
AcDbLine
10
111.6055
20
-7.468992
30
0
11
111.6055
21
-7.620083
31
0
39
0
210
0
220
0
230
1
0
LINE
5
BF
100
AcDbEntity
8
1
62
256
6
ByLayer
370
18
48
1
60
0
100
AcDbLine
10
112.3245
20
-7.721823
30
0
11
112.3245
21
-7.79864
31
0
39
0
210
0
220
0
230
1
0
LINE
5
C0
100
AcDbEntity
8
1
62
256
6
ByLayer
370
13
48
1
60
0
100
AcDbLine
10
111.6055
20
-9.163428
30
0
11
111.6055
21
-9.232584
31
0
39
0
210
0
220
0
230
1
0
LINE
5
C1
100
AcDbEntity
8
1
62
256
6
ByLayer
370
18
48
1
60
0
100
AcDbLine
10
112.3245
20
-6.246743
30
0
11
112.3245
21
-6.367588
31
0
39
0
210
0
220
0
230
1
0
LINE
5
C2
100
AcDbEntity
8
1
62
256
6
ByLayer
370
18
48
1
60
0
100
AcDbLine
10
112.3245
20
25.385093
30
0
11
112.3245
21
25.236583
31
0
39
0
210
0
220
0
230
1
0
LINE
5
C3
100
AcDbEntity
8
1
62
256
6
ByLayer
370
13
48
1
60
0
100
AcDbLine
10
111.6055
20
29.511551
30
0
11
111.6055
21
29.466108
31
0
39
0
210
0
220
0
230
1
0
LINE
5
C4
100
AcDbEntity
8
1
62
256
6
ByLayer
370
13
48
1
60
0
100
AcDbLine
10
111.6055
20
28.296875
30
0
11
111.6055
21
28.175685
31
0
39
0
210
0
220
0
230
1
0
LINE
5
C5
100
AcDbEntity
8
1
62
256
6
ByLayer
370
13
48
1
60
0
100
AcDbLine
10
112.2495
20
-2.416012
30
0
11
112.2495
21
-1.090991
31
0
39
0
210
0
220
0
230
1
0
LINE
5
C6
100
AcDbEntity
8
1
62
256
6
ByLayer
370
13
48
1
60
0
100
AcDbLine
10
112.2495
20
21.090991
30
0
11
112.2495
21
22.416012
31
0
39
0
210
0
220
0
230
1
0
LINE
5
C7
100
AcDbEntity
8
1
62
256
6
ByLayer
370
13
48
1
60
0
100
AcDbLine
10
13.461325
20
-9.349221
30
0
11
13.461325
21
-30.080593
31
0
39
0
210
0
220
0
230
1
0
LINE
5
C8
100
AcDbEntity
8
1
62
256
6
ByLayer
370
13
48
1
60
0
100
AcDbLine
10
112.2495
20
8.108254
30
0
11
112.2495
21
11.891746
31
0
39
0
210
0
220
0
230
1
0
LINE
5
C9
100
AcDbEntity
8
1
62
256
6
ByLayer
370
18
48
1
60
0
100
AcDbLine
10
112.3245
20
20.775464
30
0
11
112.3245
21
20.475875
31
0
39
0
210
0
220
0
230
1
0
LINE
5
CA
100
AcDbEntity
8
1
62
256
6
ByLayer
370
18
48
1
60
0
100
AcDbLine
10
10.538675
20
-9.349221
30
0
11
13.461325
21
-9.349221
31
0
39
0
210
0
220
0
230
1
0
LINE
5
CB
100
AcDbEntity
8
1
62
256
6
ByLayer
370
13
48
1
60
0
100
AcDbLine
10
13.461325
20
30.080593
30
0
11
13.461325
21
9.349221
31
0
39
0
210
0
220
0
230
1
0
LINE
5
CC
100
AcDbEntity
8
1
62
256
6
ByLayer
370
13
48
1
60
0
100
AcDbLine
10
111.6055
20
21.019332
30
0
11
111.6055
21
20.568917
31
0
39
0
210
0
220
0
230
1
0
LINE
5
CD
100
AcDbEntity
8
1
62
256
6
ByLayer
370
13
48
1
60
0
100
AcDbLine
10
111.6055
20
-0.568917
30
0
11
111.6055
21
-1.019332
31
0
39
0
210
0
220
0
230
1
0
LINE
5
CE
100
AcDbEntity
8
1
62
256
6
ByLayer
370
18
48
1
60
0
100
AcDbLine
10
10.538675
20
30.080593
30
0
11
13.461325
21
30.080593
31
0
39
0
210
0
220
0
230
1
0
LINE
5
CF
100
AcDbEntity
8
1
62
256
6
ByLayer
370
13
48
1
60
0
100
AcDbLine
10
111.6055
20
29.672543
30
0
11
111.6055
21
29.649908
31
0
39
0
210
0
220
0
230
1
0
LINE
5
D0
100
AcDbEntity
8
1
62
256
6
ByLayer
370
18
48
1
60
0
100
AcDbLine
10
112.3245
20
28.988915
30
0
11
112.3245
21
28.98093
31
0
39
0
210
0
220
0
230
1
0
LINE
5
D1
100
AcDbEntity
8
1
62
256
6
ByLayer
370
13
48
1
60
0
100
AcDbLine
10
112.2495
20
-7.75167
30
0
11
112.2495
21
-7.30746
31
0
39
0
210
0
220
0
230
1
0
LINE
5
D2
100
AcDbEntity
8
1
62
256
6
ByLayer
370
18
48
1
60
0
100
AcDbLine
10
112.3245
20
-8.853979
30
0
11
112.3245
21
-8.878084
31
0
39
0
210
0
220
0
230
1
0
LINE
5
D3
100
AcDbEntity
8
1
62
256
6
ByLayer
370
13
48
1
60
0
100
AcDbLine
10
112.2495
20
22.935311
30
0
11
112.2495
21
23.976775
31
0
39
0
210
0
220
0
230
1
0
LINE
5
D4
100
AcDbEntity
8
1
62
256
6
ByLayer
370
18
48
1
60
0
100
AcDbLine
10
112.3245
20
-8.230913
30
0
11
112.3245
21
-8.289024
31
0
39
0
210
0
220
0
230
1
0
LINE
5
D5
100
AcDbEntity
8
1
62
256
6
ByLayer
370
18
48
1
60
0
100
AcDbLine
10
112.3245
20
-3.994653
30
0
11
112.3245
21
-4.177598
31
0
39
0
210
0
220
0
230
1
0
LINE
5
D6
100
AcDbEntity
8
1
62
256
6
ByLayer
370
13
48
1
60
0
100
AcDbLine
10
112.2495
20
28.402698
30
0
11
112.2495
21
28.654961
31
0
39
0
210
0
220
0
230
1
0
LINE
5
D7
100
AcDbEntity
8
1
62
256
6
ByLayer
370
18
48
1
60
0
100
AcDbLine
10
112.3245
20
27.721823
30
0
11
112.3245
21
27.163684
31
0
39
0
210
0
220
0
230
1
0
LINE
5
D8
100
AcDbEntity
8
1
62
256
6
ByLayer
370
13
48
1
60
0
100
AcDbLine
10
111.6055
20
18.373611
30
0
11
111.6055
21
17.714713
31
0
39
0
210
0
220
0
230
1
0
LINE
5
D9
100
AcDbEntity
8
1
62
256
6
ByLayer
370
13
48
1
60
0
100
AcDbLine
10
111.6055
20
2.285287
30
0
11
111.6055
21
1.626389
31
0
39
0
210
0
220
0
230
1
0
LINE
5
DA
100
AcDbEntity
8
1
62
256
6
ByLayer
370
18
48
1
60
0
100
AcDbLine
10
112.3245
20
27.066336
30
0
11
112.3245
21
26.367557
31
0
39
0
210
0
220
0
230
1
0
LINE
5
DB
100
AcDbEntity
8
1
62
256
6
ByLayer
370
18
48
1
60
0
100
AcDbLine
10
0.3
20
-31.5
30
0
11
0.3
21
31.5
31
0
39
0
210
0
220
0
230
1
0
LINE
5
DC
100
AcDbEntity
8
1
62
256
6
ByLayer
370
18
48
1
60
0
100
AcDbLine
10
112.3245
20
22.680988
30
0
11
112.3245
21
22.451792
31
0
39
0
210
0
220
0
230
1
0
LINE
5
DD
100
AcDbEntity
8
1
62
256
6
ByLayer
370
18
48
1
60
0
100
AcDbLine
10
22
20
31.5
30
0
11
22
21
-31.5
31
0
39
0
210
0
220
0
230
1
0
LINE
5
DE
100
AcDbEntity
8
1
62
256
6
ByLayer
370
18
48
1
60
0
100
AcDbLine
10
112.3245
20
28.230913
30
0
11
112.3245
21
27.798581
31
0
39
0
210
0
220
0
230
1
0
LINE
5
DF
100
AcDbEntity
8
1
62
256
6
ByLayer
370
13
48
1
60
0
100
AcDbLine
10
112.2495
20
27.30746
30
0
11
112.2495
21
27.75167
31
0
39
0
210
0
220
0
230
1
0
LINE
5
E0
100
AcDbEntity
8
1
62
256
6
ByLayer
370
13
48
1
60
0
100
AcDbLine
10
111.6055
20
29.232584
30
0
11
111.6055
21
29.163428
31
0
39
0
210
0
220
0
230
1
0
LINE
5
E1
100
AcDbEntity
8
1
62
256
6
ByLayer
370
13
48
1
60
0
100
AcDbLine
10
10.538675
20
30.080593
30
0
11
10.538675
21
9.349221
31
0
39
0
210
0
220
0
230
1
0
LINE
5
E2
100
AcDbEntity
8
1
62
256
6
ByLayer
370
18
48
1
60
0
100
AcDbLine
10
112.3245
20
-7.163684
30
0
11
112.3245
21
-7.721823
31
0
39
0
210
0
220
0
230
1
0
LINE
5
E3
100
AcDbEntity
8
1
62
256
6
ByLayer
370
18
48
1
60
0
100
AcDbLine
10
112.3245
20
-8.605627
30
0
11
112.3245
21
-8.646319
31
0
39
0
210
0
220
0
230
1
0
LINE
5
E4
100
AcDbEntity
8
1
62
256
6
ByLayer
370
18
48
1
60
0
100
AcDbLine
10
112.3245
20
-2.681014
30
0
11
112.3245
21
-3.994653
31
0
39
0
210
0
220
0
230
1
0
LINE
5
E5
100
AcDbEntity
8
1
62
256
6
ByLayer
370
18
48
1
60
0
100
AcDbLine
10
112.3245
20
27.79864
30
0
11
112.3245
21
27.721823
31
0
39
0
210
0
220
0
230
1
0
LINE
5
E6
100
AcDbEntity
8
1
62
256
6
ByLayer
370
13
48
1
60
0
100
AcDbLine
10
112.2495
20
-9.04976
30
0
11
112.2495
21
-8.967827
31
0
39
0
210
0
220
0
230
1
0
LINE
5
E7
100
AcDbEntity
8
1
62
256
6
ByLayer
370
13
48
1
60
0
100
AcDbLine
10
111.6055
20
28.8304
30
0
11
111.6055
21
28.736267
31
0
39
0
210
0
220
0
230
1
0
LINE
5
E8
100
AcDbEntity
8
1
62
256
6
ByLayer
370
13
48
1
60
0
100
AcDbLine
10
13.894338
20
29.913955
30
0
11
13.894338
21
9.869413
31
0
39
0
210
0
220
0
230
1
0
LINE
5
E9
100
AcDbEntity
8
1
62
256
6
ByLayer
370
13
48
1
60
0
100
AcDbLine
10
112.2495
20
-7.085927
30
0
11
112.2495
21
-6.530049
31
0
39
0
210
0
220
0
230
1
0
LINE
5
EA
100
AcDbEntity
8
1
62
256
6
ByLayer
370
18
48
1
60
0
100
AcDbLine
10
112.3245
20
26.367588
30
0
11
112.3245
21
26.246743
31
0
39
0
210
0
220
0
230
1
0
LINE
5
EB
100
AcDbEntity
8
1
62
256
6
ByLayer
370
18
48
1
60
0
100
AcDbLine
10
112.3245
20
-8.98093
30
0
11
112.3245
21
-8.988915
31
0
39
0
210
0
220
0
230
1
0
LINE
5
EC
100
AcDbEntity
8
1
62
256
6
ByLayer
370
13
48
1
60
0
100
AcDbLine
10
112.2495
20
26.530049
30
0
11
112.2495
21
27.085927
31
0
39
0
210
0
220
0
230
1
0
LINE
5
ED
100
AcDbEntity
8
1
62
256
6
ByLayer
370
13
48
1
60
0
100
AcDbLine
10
111.6055
20
22.970506
30
0
11
111.6055
21
22.625166
31
0
39
0
210
0
220
0
230
1
0
LINE
5
EE
100
AcDbEntity
8
1
62
256
6
ByLayer
370
13
48
1
60
0
100
AcDbLine
10
111.6055
20
-2.625166
30
0
11
111.6055
21
-2.970506
31
0
39
0
210
0
220
0
230
1
0
LINE
5
EF
100
AcDbEntity
8
1
62
256
6
ByLayer
370
18
48
1
60
0
100
AcDbLine
10
112.3245
20
20.475875
30
0
11
112.3245
21
18.180021
31
0
39
0
210
0
220
0
230
1
0
LINE
5
F0
100
AcDbEntity
8
1
62
256
6
ByLayer
370
18
48
1
60
0
100
AcDbLine
10
112.3245
20
1.819979
30
0
11
112.3245
21
-0.475875
31
0
39
0
210
0
220
0
230
1
0
LINE
5
F1
100
AcDbEntity
8
1
62
256
6
ByLayer
370
13
48
1
60
0
100
AcDbLine
10
13.894338
20
-9.869413
30
0
11
13.894338
21
-29.913955
31
0
39
0
210
0
220
0
230
1
0
LINE
5
F2
100
AcDbEntity
8
1
62
256
6
ByLayer
370
13
48
1
60
0
100
AcDbLine
10
111.6055
20
-8.175685
30
0
11
111.6055
21
-8.296875
31
0
39
0
210
0
220
0
230
1
0
LINE
5
F3
100
AcDbEntity
8
1
62
256
6
ByLayer
370
18
48
1
60
0
100
AcDbLine
10
112.3245
20
27.163763
30
0
11
112.3245
21
27.066336
31
0
39
0
210
0
220
0
230
1
0
LINE
5
F4
100
AcDbEntity
8
1
62
256
6
ByLayer
370
13
48
1
60
0
100
AcDbLine
10
111.6055
20
-9.466108
30
0
11
111.6055
21
-9.511551
31
0
39
0
210
0
220
0
230
1
0
LINE
5
F5
100
AcDbEntity
8
1
62
256
6
ByLayer
370
18
48
1
60
0
100
AcDbLine
10
112.3245
20
22.451792
30
0
11
112.3245
21
20.77508
31
0
39
0
210
0
220
0
230
1
0
LINE
5
F6
100
AcDbEntity
8
1
62
256
6
ByLayer
370
18
48
1
60
0
100
AcDbLine
10
112.3245
20
-0.77508
30
0
11
112.3245
21
-2.451792
31
0
39
0
210
0
220
0
230
1
0
LINE
5
F7
100
AcDbEntity
8
1
62
256
6
ByLayer
370
18
48
1
60
0
100
AcDbLine
10
112.3245
20
-5.385072
30
0
11
112.3245
21
-6.246743
31
0
39
0
210
0
220
0
230
1
0
LINE
5
F8
100
AcDbEntity
8
1
62
256
6
ByLayer
370
18
48
1
60
0
100
AcDbLine
10
112.3245
20
-8.877899
30
0
11
112.3245
21
-8.98093
31
0
39
0
210
0
220
0
230
1
0
LINE
5
F9
100
AcDbEntity
8
1
62
256
6
ByLayer
370
18
48
1
60
0
100
AcDbLine
10
112.3245
20
-5.236583
30
0
11
112.3245
21
-5.385093
31
0
39
0
210
0
220
0
230
1
0
LINE
5
FA
100
AcDbEntity
8
1
62
256
6
ByLayer
370
13
48
1
60
0
100
AcDbLine
10
112.2495
20
-6.255338
30
0
11
112.2495
21
-5.570347
31
0
39
0
210
0
220
0
230
1
0
LINE
5
FB
100
AcDbEntity
8
1
62
256
6
ByLayer
370
13
48
1
60
0
100
AcDbLine
10
111.6055
20
24.510077
30
0
11
111.6055
21
24.233479
31
0
39
0
210
0
220
0
230
1
0
LINE
5
FC
100
AcDbEntity
8
1
62
256
6
ByLayer
370
13
48
1
60
0
100
AcDbLine
10
111.6055
20
-4.233479
30
0
11
111.6055
21
-4.510077
31
0
39
0
210
0
220
0
230
1
0
LINE
5
FD
100
AcDbEntity
8
1
62
256
6
ByLayer
370
18
48
1
60
0
100
AcDbLine
10
112.3245
20
-6.367557
30
0
11
112.3245
21
-7.066336
31
0
39
0
210
0
220
0
230
1
0
LINE
5
FE
100
AcDbEntity
8
1
62
256
6
ByLayer
370
13
48
1
60
0
100
AcDbLine
10
112.2495
20
27.926445
30
0
11
112.2495
21
28.270596
31
0
39
0
210
0
220
0
230
1
0
LINE
5
FF
100
AcDbEntity
8
1
62
256
6
ByLayer
370
13
48
1
60
0
100
AcDbLine
10
112.2495
20
-8.654961
30
0
11
112.2495
21
-8.402698
31
0
39
0
210
0
220
0
230
1
0
LINE
5
100
100
AcDbEntity
8
1
62
256
6
ByLayer
370
13
48
1
60
0
100
AcDbLine
10
112.2495
20
2.366417
30
0
11
112.2495
21
5.428438
31
0
39
0
210
0
220
0
230
1
0
LINE
5
101
100
AcDbEntity
8
1
62
256
6
ByLayer
370
13
48
1
60
0
100
AcDbLine
10
112.2495
20
14.571562
30
0
11
112.2495
21
17.633583
31
0
39
0
210
0
220
0
230
1
0
LINE
5
102
100
AcDbEntity
8
1
62
256
6
ByLayer
370
18
48
1
60
0
100
AcDbLine
10
112.3245
20
-0.475875
30
0
11
112.3245
21
-0.775464
31
0
39
0
210
0
220
0
230
1
0
LINE
5
103
100
AcDbEntity
8
1
62
256
6
ByLayer
370
18
48
1
60
0
100
AcDbLine
10
13.461325
20
9.349221
30
0
11
10.538675
21
9.349221
31
0
39
0
210
0
220
0
230
1
0
LINE
5
104
100
AcDbEntity
8
1
62
256
6
ByLayer
370
13
48
1
60
0
100
AcDbLine
10
112.2495
20
-5.232962
30
0
11
112.2495
21
-4.391974
31
0
39
0
210
0
220
0
230
1
0
LINE
5
105
100
AcDbEntity
8
1
62
256
6
ByLayer
370
13
48
1
60
0
100
AcDbLine
10
112.2495
20
-8.91297
30
0
11
112.2495
21
-8.747456
31
0
39
0
210
0
220
0
230
1
0
LINE
5
106
100
AcDbEntity
8
1
62
256
6
ByLayer
370
18
48
1
60
0
100
AcDbLine
10
111.3245
20
30
30
0
11
111.3245
21
-10
31
0
39
0
210
0
220
0
230
1
0
LINE
5
107
100
AcDbEntity
8
1
62
256
6
ByLayer
370
18
48
1
60
0
100
AcDbLine
10
112.3245
20
2.257857
30
0
11
112.3245
21
1.819915
31
0
39
0
210
0
220
0
230
1
0
LINE
5
108
100
AcDbEntity
8
1
62
256
6
ByLayer
370
18
48
1
60
0
100
AcDbLine
10
112.3245
20
28.646319
30
0
11
112.3245
21
28.605627
31
0
39
0
210
0
220
0
230
1
0
LINE
5
109
100
AcDbEntity
8
1
62
256
6
ByLayer
370
18
48
1
60
0
100
AcDbLine
10
0
20
-31.2
30
0
11
0
21
31.2
31
0
39
0
210
0
220
0
230
1
0
LINE
5
10A
100
AcDbEntity
8
1
62
256
6
ByLayer
370
13
48
1
60
0
100
AcDbLine
10
112.2495
20
-0.414628
30
0
11
112.2495
21
1.385801
31
0
39
0
210
0
220
0
230
1
0
LINE
5
10B
100
AcDbEntity
8
1
62
256
6
ByLayer
370
13
48
1
60
0
100
AcDbLine
10
112.2495
20
18.614199
30
0
11
112.2495
21
20.414628
31
0
39
0
210
0
220
0
230
1
0
LINE
5
10C
100
AcDbEntity
8
1
62
256
6
ByLayer
370
13
48
1
60
0
100
AcDbLine
10
107.8
20
30
30
0
11
107.8
21
-10
31
0
39
0
210
0
220
0
230
1
0
LINE
5
10D
100
AcDbEntity
8
1
62
256
6
ByLayer
370
18
48
1
60
0
100
AcDbLine
10
112.3245
20
28.289024
30
0
11
112.3245
21
28.230913
31
0
39
0
210
0
220
0
230
1
0
LINE
5
10E
100
AcDbEntity
8
1
62
256
6
ByLayer
370
13
48
1
60
0
100
AcDbLine
10
112.2495
20
25.570347
30
0
11
112.2495
21
26.255338
31
0
39
0
210
0
220
0
230
1
0
LINE
5
10F
100
AcDbEntity
8
1
62
256
6
ByLayer
370
13
48
1
60
0
100
AcDbLine
10
111.6055
20
-8.736267
30
0
11
111.6055
21
-8.8304
31
0
39
0
210
0
220
0
230
1
0
LINE
5
110
100
AcDbEntity
8
1
62
256
6
ByLayer
370
18
48
1
60
0
100
AcDbLine
10
112.3245
20
28.853979
30
0
11
112.3245
21
28.646315
31
0
39
0
210
0
220
0
230
1
0
LINE
5
111
100
AcDbEntity
8
1
62
256
6
ByLayer
370
13
48
1
60
0
100
AcDbLine
10
112.2495
20
-8.270596
30
0
11
112.2495
21
-7.926445
31
0
39
0
210
0
220
0
230
1
0
LINE
5
112
100
AcDbEntity
8
1
62
256
6
ByLayer
370
18
48
1
60
0
100
AcDbLine
10
112.3245
20
13.635516
30
0
11
112.3245
21
12.374363
31
0
39
0
210
0
220
0
230
1
0
LINE
5
113
100
AcDbEntity
8
1
62
256
6
ByLayer
370
13
48
1
60
0
100
AcDbLine
10
10.105662
20
29.913955
30
0
11
10.105662
21
9.869413
31
0
39
0
210
0
220
0
230
1
0
LINE
5
114
100
AcDbEntity
8
1
62
256
6
ByLayer
370
13
48
1
60
0
100
AcDbLine
10
112.2495
20
28.747456
30
0
11
112.2495
21
28.91297
31
0
39
0
210
0
220
0
230
1
0
LINE
5
115
100
AcDbEntity
8
1
62
256
6
ByLayer
370
18
48
1
60
0
100
AcDbLine
10
112.3245
20
25.236583
30
0
11
112.3245
21
24.177621
31
0
39
0
210
0
220
0
230
1
0
LINE
5
116
100
AcDbEntity
8
1
62
256
6
ByLayer
370
18
48
1
60
0
100
AcDbLine
10
112.3245
20
-2.451792
30
0
11
112.3245
21
-2.680988
31
0
39
0
210
0
220
0
230
1
0
LINE
5
117
100
AcDbEntity
8
1
62
256
6
ByLayer
370
18
48
1
60
0
100
AcDbLine
10
13.461325
20
-30.080593
30
0
11
10.538675
21
-30.080593
31
0
39
0
210
0
220
0
230
1
0
LINE
5
118
100
AcDbEntity
8
1
62
256
6
ByLayer
370
13
48
1
60
0
100
AcDbLine
10
121.9255
20
24.899495
30
0
11
121.9255
21
14.899495
31
0
39
0
210
0
220
0
230
1
0
LINE
5
119
100
AcDbEntity
8
1
62
256
6
ByLayer
370
18
48
1
60
0
100
AcDbLine
10
122.5255
20
24.299495
30
0
11
122.5255
21
15.499495
31
0
39
0
210
0
220
0
230
1
0
LINE
5
11A
100
AcDbEntity
8
1
62
256
6
ByLayer
370
18
48
1
60
0
100
AcDbLine
10
122.5255
20
0.100505
30
0
11
122.5255
21
4.500505
31
0
39
0
210
0
220
0
230
1
0
LINE
5
11B
100
AcDbEntity
8
1
62
256
6
ByLayer
370
13
48
1
60
0
100
AcDbLine
10
116.4255
20
22.899495
30
0
11
116.4255
21
16.899495
31
0
39
0
210
0
220
0
230
1
0
LINE
5
11C
100
AcDbEntity
8
1
62
256
6
ByLayer
370
18
48
1
60
0
100
AcDbLine
10
116.6755
20
24.899495
30
0
11
116.6755
21
14.899495
31
0
39
0
210
0
220
0
230
1
0
LINE
5
11D
100
AcDbEntity
8
1
62
256
6
ByLayer
370
13
48
1
60
0
100
AcDbLine
10
121.9255
20
5.100505
30
0
11
121.9255
21
-4.899495
31
0
39
0
210
0
220
0
230
1
0
LINE
5
11E
100
AcDbEntity
8
1
62
256
6
ByLayer
370
18
48
1
60
0
100
AcDbLine
10
122.5255
20
-4.299495
30
0
11
122.5255
21
4.500505
31
0
39
0
210
0
220
0
230
1
0
LINE
5
11F
100
AcDbEntity
8
1
62
256
6
ByLayer
370
13
48
1
60
0
100
AcDbLine
10
116.4255
20
3.100505
30
0
11
116.4255
21
-2.899495
31
0
39
0
210
0
220
0
230
1
0
LINE
5
120
100
AcDbEntity
8
1
62
256
6
ByLayer
370
18
48
1
60
0
100
AcDbLine
10
116.6755
20
-4.899495
30
0
11
116.6755
21
5.100505
31
0
39
0
210
0
220
0
230
1
0
LINE
5
121
100
AcDbEntity
8
1
62
256
6
ByLayer
370
18
48
1
60
0
100
AcDbLine
10
116.6755
20
24.899495
30
0
11
116.6755
21
14.899495
31
0
39
0
210
0
220
0
230
1
0
LINE
5
122
100
AcDbEntity
8
1
62
256
6
ByLayer
370
13
48
1
60
0
100
AcDbLine
10
121.9255
20
24.899495
30
0
11
121.9255
21
14.899495
31
0
39
0
210
0
220
0
230
1
0
LINE
5
123
100
AcDbEntity
8
1
62
256
6
ByLayer
370
18
48
1
60
0
100
AcDbLine
10
122.5255
20
24.299495
30
0
11
122.5255
21
15.499495
31
0
39
0
210
0
220
0
230
1
0
LINE
5
124
100
AcDbEntity
8
1
62
256
6
ByLayer
370
13
48
1
60
0
100
AcDbLine
10
116.4255
20
22.899495
30
0
11
116.4255
21
16.899495
31
0
39
0
210
0
220
0
230
1
0
MTEXT
5
1E4
100
AcDbEntity
8
SK6
62
256
6
ByLayer
370
18
48
1
60
0
100
AcDbMText
10
0.875
20
40.625134
30
0
210
0
220
0
230
1
1
\W0.7095;C6-570-2C 60 112R40
40
3.5
41
0
44
1.084337
50
0
71
7
72
5
7
iso_b_vert
0
DIMENSION
5
1F1
100
AcDbEntity
8
SK2
62
256
6
ByLayer
370
13
48
1
60
0
100
AcDbDimension
2
DimnDraft3D1
10
112
20
-41.6
30
0
11
63.492801
21
-41.6
31
0
70
32
71
5
72
1
41
1
210
0
220
0
230
1
3
Standard
100
AcDbAlignedDimension
13
23.2
23
-31.5875
33
0
14
112
24
-11.5875
34
0
50
0
100
AcDbRotatedDimension
1001
ACAD
1000
DSTYLE
1002
{
1070
   279
1070
     0
1070
   172
1070
     1
1070
   173
1070
     1
1070
   340
1005
1E5
1070
   271
1070
     2
1070
   272
1070
     2
1070
    77
1070
     1
1070
    73
1070
     0
1070
   171
1070
     3
1070
   274
1070
     4
1070
   177
1070
     2
1070
   176
1070
     2
1070
   178
1070
     2
1070
    78
1070
     8
1070
    48
1040
-0.005
1070
    41
1041
3.5
1070
   147
1041
1.75
1070
    42
1041
1.5875
1070
    44
1041
2.0
1070
   140
1041
3.5
1070
   343
1005
0
1070
   344
1005
0
1002
}
0
DIMENSION
5
1FC
100
AcDbEntity
8
SK2
62
256
6
ByLayer
370
13
48
1
60
0
100
AcDbDimension
2
DimnDraft3D2
10
154.888211
20
-30
30
0
11
150.263211
21
2.284534
31
0
70
33
71
5
72
1
41
1
210
0
220
0
230
1
3
Standard
100
AcDbAlignedDimension
13
113.5875
23
30
33
0
14
104.028516
24
-30
34
0
1001
ACAD
1000
DSTYLE
1002
{
1070
   279
1070
     0
1070
    74
1070
     0
1070
   173
1070
     1
1070
   340
1005
1E5
1070
   271
1070
     2
1070
   272
1070
     2
1070
    77
1070
     1
1070
    73
1070
     0
1070
   171
1070
     3
1070
   274
1070
     4
1070
   177
1070
     2
1070
   176
1070
     2
1070
   178
1070
     2
1070
    78
1070
     8
1070
    48
1040
-0.005
1070
    41
1041
3.5
1070
   147
1041
1.75
1070
    42
1041
1.5875
1070
    44
1041
2.0
1070
   140
1041
3.5
1070
   343
1005
0
1070
   344
1005
0
1002
}
0
DIMENSION
5
206
100
AcDbEntity
8
SK2
62
256
6
ByLayer
370
13
48
1
60
0
100
AcDbDimension
2
DimnDraft3D3
10
132.888211
20
0
30
0
11
132.888211
21
20
31
0
70
32
71
5
72
1
41
1
210
0
220
0
230
1
3
Standard
100
AcDbAlignedDimension
13
113.5875
23
10
33
0
14
113.5875
24
0
34
0
50
90
100
AcDbRotatedDimension
1001
ACAD
1000
DSTYLE
1002
{
1070
    74
1070
     0
1070
   279
1070
     0
1070
   172
1070
     1
1070
   173
1070
     1
1070
   340
1005
1E5
1070
   271
1070
     2
1070
   272
1070
     2
1070
    77
1070
     1
1070
    73
1070
     0
1070
   171
1070
     3
1070
   274
1070
     4
1070
   177
1070
     2
1070
   176
1070
     2
1070
   178
1070
     2
1070
    78
1070
     8
1070
    48
1040
-0.005
1070
    41
1041
3.5
1070
   147
1041
1.75
1070
    42
1041
1.5875
1070
    44
1041
2.0
1070
   140
1041
3.5
1070
   343
1005
0
1070
   344
1005
0
1002
}
0
DIMENSION
5
211
100
AcDbEntity
8
2
62
256
6
ByLayer
370
13
48
1
60
0
100
AcDbDimension
2
DimnDraft3D4
10
112
20
-51.6
30
0
11
51.459934
21
-51.6
31
0
70
32
71
5
72
1
41
1
210
0
220
0
230
1
3
Standard
100
AcDbAlignedDimension
13
0
23
-33.0875
33
0
14
112
24
-11.5875
34
0
50
0
100
AcDbRotatedDimension
1001
ACAD
1000
DSTYLE
1002
{
1070
   279
1070
     0
1070
   172
1070
     1
1070
   173
1070
     1
1070
   340
1005
1E5
1070
   271
1070
     2
1070
   272
1070
     2
1070
    77
1070
     1
1070
    73
1070
     0
1070
   171
1070
     3
1070
   274
1070
     4
1070
   177
1070
     2
1070
   176
1070
     2
1070
   178
1070
     2
1070
    78
1070
     8
1070
    48
1040
-0.005
1070
    41
1041
3.5
1070
   147
1041
1.75
1070
    42
1041
1.5875
1070
    44
1041
2.0
1070
   140
1041
3.5
1070
   343
1005
0
1070
   344
1005
0
1002
}
0
DIMENSION
5
21C
100
AcDbEntity
8
SK2
62
256
6
ByLayer
370
13
48
1
60
0
100
AcDbDimension
2
DimnDraft3D5
10
-61.6
20
-31.5
30
0
11
-62.225
21
2.284534
31
0
70
33
71
5
72
1
41
1
210
0
220
0
230
1
3
Standard
100
AcDbAlignedDimension
13
-1.5875
23
31.5
33
0
14
-1.5875
24
-31.5
34
0
1001
ACAD
1000
DSTYLE
1002
{
1070
   279
1070
     0
1070
    74
1070
     0
1070
   173
1070
     1
1070
   340
1005
1E5
1070
   271
1070
     2
1070
   272
1070
     2
1070
    77
1070
     1
1070
    73
1070
     0
1070
   171
1070
     3
1070
   274
1070
     4
1070
   177
1070
     2
1070
   176
1070
     2
1070
   178
1070
     2
1070
    78
1070
     8
1070
    48
1040
-0.005
1070
    41
1041
3.5
1070
   147
1041
1.75
1070
    42
1041
1.5875
1070
    44
1041
2.0
1070
   140
1041
3.5
1070
   343
1005
0
1070
   344
1005
0
1002
}
0
DIMENSION
5
227
100
AcDbEntity
8
SK2
62
256
6
ByLayer
370
13
48
1
60
0
100
AcDbDimension
2
DimnDraft3D6
10
144.888211
20
-10
30
0
11
140.263211
21
12.100267
31
0
70
33
71
5
72
1
41
1
210
0
220
0
230
1
3
Standard
100
AcDbAlignedDimension
13
113.5875
23
30
33
0
14
113.5875
24
-10
34
0
1001
ACAD
1000
DSTYLE
1002
{
1070
   279
1070
     0
1070
    74
1070
     0
1070
   173
1070
     1
1070
   340
1005
1E5
1070
   271
1070
     2
1070
   272
1070
     2
1070
    77
1070
     1
1070
    73
1070
     0
1070
   171
1070
     3
1070
   274
1070
     4
1070
   177
1070
     2
1070
   176
1070
     2
1070
   178
1070
     2
1070
    78
1070
     8
1070
    48
1040
-0.005
1070
    41
1041
3.5
1070
   147
1041
1.75
1070
    42
1041
1.5875
1070
    44
1041
2.0
1070
   140
1041
3.5
1070
   343
1005
0
1070
   344
1005
0
1002
}
0
ENDSEC
0
SECTION
2
OBJECTS
0
DICTIONARY
5
292
330
0
100
AcDbDictionary
280
0
281
1
3
ACAD_GROUP
350
293
3
ACAD_MLINESTYLE
350
294
0
DICTIONARY
5
293
330
0
100
AcDbDictionary
280
0
281
1
0
DICTIONARY
5
294
330
0
100
AcDbDictionary
280
0
281
1
3
Standard
350
18
0
MLINESTYLE
5
18
330
294
100
AcDbMlineStyle
2
Standard
70
0
3

62
256
51
90
52
90
71
2
49
-0.5
62
256
6
ByLayer
49
0.5
62
256
6
ByLayer
0
RASTERVARIABLES
5
280
330

100
AcDbRasterVariables
90
0
70
1
71
1
72
1
0
ENDSEC
0
EOF
