0
SECTION
2
HEADER
9
$ACADVER
1
AC1015
9
$DWGCODEPAGE
3
ANSI_1252
9
$HANDSEED
5
29f
9
$ANGBASE
50
0
9
$ANGDIR
70
0
9
$ATTMODE
70
1
9
$AUNITS
70
0
9
$AUPREC
70
0
9
$CECOLOR
62
256
9
$CELTSCALE
40
1
9
$CELTYPE
6
ByLayer
9
$CELWEIGHT
370
18
9
$CLAYER
8
0
9
$CMLJUST
70
0
9
$CMLSCALE
40
1
9
$CMLSTYLE
2
Standard
9
$DIMSTYLE
2
Standard
9
$TEXTSIZE
40
0.2
9
$TEXTSTYLE
7
Standard
9
$LUNITS
70
2
9
$LUPREC
70
4
9
$EXTNAMES
290
1
9
$INSUNITS
70
4
9
$LTSCALE
40
1
9
$LWDISPLAY
290
1
9
$PDMODE
70
0
9
$PDSIZE
40
0
9
$PLINEGEN
70
0
0
ENDSEC
0
SECTION
2
CLASSES
0
CLASS
1
RASTERVARIABLES
2
AcDbRasterVariables
3
ISM
90
0
280
0
281
0
0
ENDSEC
0
SECTION
2
TABLES
0
TABLE
2
VPORT
5
295
100
AcDbSymbolTable
0
VPORT
5
1
100
AcDbSymbolTableRecord
100
AcDbViewportTableRecord
2
*Active
70
0
10
0
20
0
11
1
21
1
12
-1
22
1
13
0
23
0
14
0.5
24
0.5
15
10
25
10
16
0
26
0
36
1
17
0
27
0
37
0
0
ENDTAB
0
TABLE
2
LTYPE
5
296
100
AcDbSymbolTable
0
LTYPE
5
14
100
AcDbSymbolTableRecord
100
AcDbLinetypeTableRecord
70
0
2
ByBlock
3

72
65
73
0
40
0
0
LTYPE
5
15
100
AcDbSymbolTableRecord
100
AcDbLinetypeTableRecord
70
0
2
ByLayer
3

72
65
73
0
40
0
0
LTYPE
5
16
100
AcDbSymbolTableRecord
100
AcDbLinetypeTableRecord
70
0
2
CONTINUOUS
3
Solid line
72
65
73
0
40
0
0
LTYPE
5
6A
100
AcDbSymbolTableRecord
100
AcDbLinetypeTableRecord
70
0
2
CENTER
3
____ _ ____ _ ____ _ ____
72
65
73
4
40
47.5
49
22
74
0
49
-8.5
74
0
49
8.5
74
0
49
-8.5
74
0
0
LTYPE
5
6B
100
AcDbSymbolTableRecord
100
AcDbLinetypeTableRecord
70
0
2
DASHED
3
__ __ __ __ __ __ __ __ __
72
65
73
2
40
25.72
49
12.86
74
0
49
-12.86
74
0
0
ENDTAB
0
TABLE
2
LAYER
5
297
100
AcDbSymbolTable
0
LAYER
5
10
100
AcDbSymbolTableRecord
100
AcDbLayerTableRecord
2
0
70
0
62
7
6
CONTINUOUS
290
1
370
-3
390
0
0
LAYER
5
6D
100
AcDbSymbolTableRecord
100
AcDbLayerTableRecord
2
80
70
0
62
-6
6
CONTINUOUS
290
1
370
-3
390
0
0
LAYER
5
6F
100
AcDbSymbolTableRecord
100
AcDbLayerTableRecord
2
81
70
0
62
-3
6
CONTINUOUS
290
1
370
-3
390
0
0
LAYER
5
76
100
AcDbSymbolTableRecord
100
AcDbLayerTableRecord
2
1
70
0
62
4
6
CONTINUOUS
290
1
370
-3
390
0
0
LAYER
5
98
100
AcDbSymbolTableRecord
100
AcDbLayerTableRecord
2
4
70
0
62
-2
6
CENTER
290
1
370
-3
390
0
0
LAYER
5
1FE
100
AcDbSymbolTableRecord
100
AcDbLayerTableRecord
2
2
70
0
62
7
6
CONTINUOUS
290
1
370
-3
390
0
0
LAYER
5
281
100
AcDbSymbolTableRecord
100
AcDbLayerTableRecord
2
SK2
70
0
62
7
6
CONTINUOUS
290
1
370
-3
390
0
0
LAYER
5
282
100
AcDbSymbolTableRecord
100
AcDbLayerTableRecord
2
SK1
70
0
62
4
6
CONTINUOUS
290
1
370
-3
390
0
0
LAYER
5
283
100
AcDbSymbolTableRecord
100
AcDbLayerTableRecord
2
SK4
70
0
62
2
6
CENTER
290
1
370
-3
390
0
0
LAYER
5
284
100
AcDbSymbolTableRecord
100
AcDbLayerTableRecord
2
SK6
70
0
62
5
6
CONTINUOUS
290
1
370
-3
390
0
0
ENDTAB
0
TABLE
2
STYLE
5
298
100
AcDbSymbolTable
0
STYLE
5
11
100
AcDbSymbolTableRecord
100
AcDbTextStyleTableRecord
2
Standard
3
txt
70
0
71
0
40
0
41
1
42
0
50
0
0
STYLE
5
1E5
100
AcDbSymbolTableRecord
100
AcDbTextStyleTableRecord
2
iso_b_vert
3
simplex.shx
70
0
71
0
40
0
41
1
42
0
50
0
0
STYLE
5
1E6
100
AcDbSymbolTableRecord
100
AcDbTextStyleTableRecord
2
DWGDirectTextStyle
3
simplex
70
0
71
0
40
0
41
1
42
0
50
0
0
ENDTAB
0
TABLE
2
DIMSTYLE
5
299
100
AcDbSymbolTable
100
AcDbDimStyleTable
0
DIMSTYLE
105
27
100
AcDbSymbolTableRecord
100
AcDbDimStyleTableRecord
2
Standard
70
0
3
<>
41
0.18
42
0.0625
44
0.18
140
0.18
147
0.09
73
0
74
0
77
1
271
2
275
0
278
52
280
0
340
11
0
ENDTAB
0
TABLE
2
VIEW
5
29a
100
AcDbSymbolTable
0
ENDTAB
0
TABLE
2
UCS
5
29b
100
AcDbSymbolTable
0
ENDTAB
0
TABLE
2
APPID
5
29c
100
AcDbSymbolTable
0
APPID
5
12
100
AcDbSymbolTableRecord
100
AcDbRegAppTableRecord
2
ACAD
70
0
0
ENDTAB
0
TABLE
2
BLOCK_RECORD
5
29d
100
AcDbSymbolTable
0
BLOCK_RECORD
5
1F
100
AcDbSymbolTableRecord
100
AcDbBlockTableRecord
2
*Model_Space
340
0
70
0
0
BLOCK_RECORD
5
1B
100
AcDbSymbolTableRecord
100
AcDbBlockTableRecord
2
*Paper_Space
340
0
70
0
0
BLOCK_RECORD
5
23
100
AcDbSymbolTableRecord
100
AcDbBlockTableRecord
2
*Paper_Space0
340
0
70
0
0
BLOCK_RECORD
5
1E8
100
AcDbSymbolTableRecord
100
AcDbBlockTableRecord
2
DimnDraft3D1
340
0
70
0
0
BLOCK_RECORD
5
1F2
100
AcDbSymbolTableRecord
100
AcDbBlockTableRecord
2
DimnDraft3D2
340
0
70
0
0
BLOCK_RECORD
5
1FC
100
AcDbSymbolTableRecord
100
AcDbBlockTableRecord
2
DimnDraft3D3
340
0
70
0
0
BLOCK_RECORD
5
207
100
AcDbSymbolTableRecord
100
AcDbBlockTableRecord
2
DimnDraft3D4
340
0
70
0
0
BLOCK_RECORD
5
212
100
AcDbSymbolTableRecord
100
AcDbBlockTableRecord
2
DimnDraft3D5
340
0
70
0
0
BLOCK_RECORD
5
21D
100
AcDbSymbolTableRecord
100
AcDbBlockTableRecord
2
DimnDraft3D6
340
0
70
0
0
ENDTAB
0
ENDSEC
0
SECTION
2
BLOCKS
0
BLOCK
5
20
100
AcDbEntity
8
0
100
AcDbBlockBegin
2
*Model_Space
70
0
10
0
20
0
30
0
3
*Model_Space
0
ENDBLK
5
21
100
AcDbEntity
8
0
100
AcDbBlockEnd
0
BLOCK
5
1C
100
AcDbEntity
8
0
100
AcDbBlockBegin
2
*Paper_Space
70
0
10
0
20
0
30
0
3
*Paper_Space
0
ENDBLK
5
1D
100
AcDbEntity
8
0
100
AcDbBlockEnd
0
BLOCK
5
24
100
AcDbEntity
8
0
100
AcDbBlockBegin
2
*Paper_Space0
70
0
10
0
20
0
30
0
3
*Paper_Space0
0
ENDBLK
5
25
100
AcDbEntity
8
0
100
AcDbBlockEnd
0
BLOCK
5
1EF
100
AcDbEntity
8
0
100
AcDbBlockBegin
2
DimnDraft3D1
70
0
10
0
20
0
30
0
3
DimnDraft3D1
0
MTEXT
5
1E9
100
AcDbEntity
8
SK2
62
256
6
ByLayer
370
18
48
1
60
0
100
AcDbMText
10
71.767801
20
38.975134
30
0
210
0
220
0
230
1
1
\W0.7346;98.0
40
3.5
41
0
44
1.084337
50
0
71
7
72
5
7
iso_b_vert
0
LINE
5
1EA
100
AcDbEntity
8
SK2
62
256
6
ByLayer
370
13
48
1
60
0
100
AcDbLine
10
26
20
26.5875
30
0
11
26
21
40.1
31
0
39
0
210
0
220
0
230
1
0
LINE
5
1EB
100
AcDbEntity
8
SK2
62
256
6
ByLayer
370
13
48
1
60
0
100
AcDbLine
10
124
20
16.5875
30
0
11
124
21
40.1
31
0
39
0
210
0
220
0
230
1
0
LINE
5
1EC
100
AcDbEntity
8
SK2
62
256
6
ByLayer
370
13
48
1
60
0
100
AcDbLine
10
26
20
38.1
30
0
11
124
21
38.1
31
0
39
0
210
0
220
0
230
1
0
SOLID
5
1ED
100
AcDbEntity
8
SK2
62
256
6
ByLayer
370
13
48
1
60
0
100
AcDbTrace
10
26
20
38.1
30
0
11
29.499998
21
38.560784
31
0
12
29.500002
22
37.639216
32
0
13
26
23
38.1
33
0
39
0
210
0
220
0
230
1
0
SOLID
5
1EE
100
AcDbEntity
8
SK2
62
256
6
ByLayer
370
13
48
1
60
0
100
AcDbTrace
10
124
20
38.1
30
0
11
120.500002
21
37.639216
31
0
12
120.499998
22
38.560784
32
0
13
124
23
38.1
33
0
39
0
210
0
220
0
230
1
0
ENDBLK
5
1F0
100
AcDbEntity
8
0
100
AcDbBlockEnd
0
BLOCK
5
1F9
100
AcDbEntity
8
0
100
AcDbBlockBegin
2
DimnDraft3D2
70
0
10
0
20
0
30
0
3
DimnDraft3D2
0
MTEXT
5
1F3
100
AcDbEntity
8
SK2
62
256
6
ByLayer
370
18
48
1
60
0
100
AcDbMText
10
144.013077
20
10.875
30
0
210
0
220
0
230
1
1
\W0.7121;5.0
40
3.5
41
0
44
1.084337
50
90
71
7
72
5
7
iso_b_vert
0
LINE
5
1F4
100
AcDbEntity
8
SK2
62
256
6
ByLayer
370
13
48
1
60
0
100
AcDbLine
10
125.5875
20
-5
30
0
11
146.888211
21
-5
31
0
39
0
210
0
220
0
230
1
0
LINE
5
1F5
100
AcDbEntity
8
SK2
62
256
6
ByLayer
370
13
48
1
60
0
100
AcDbLine
10
125.5875
20
0
30
0
11
146.888211
21
0
31
0
39
0
210
0
220
0
230
1
0
LINE
5
1F6
100
AcDbEntity
8
SK2
62
256
6
ByLayer
370
13
48
1
60
0
100
AcDbLine
10
144.888211
20
15.598932
30
0
11
144.888211
21
-13.75
31
0
39
0
210
0
220
0
230
1
0
SOLID
5
1F7
100
AcDbEntity
8
SK2
62
256
6
ByLayer
370
13
48
1
60
0
100
AcDbTrace
10
144.888211
20
-5
30
0
11
145.348994
21
-8.499998
31
0
12
144.427427
22
-8.500002
32
0
13
144.888211
23
-5
33
0
39
0
210
0
220
0
230
1
0
SOLID
5
1F8
100
AcDbEntity
8
SK2
62
256
6
ByLayer
370
13
48
1
60
0
100
AcDbTrace
10
144.888211
20
0
30
0
11
144.427427
21
3.499998
31
0
12
145.348994
22
3.500002
32
0
13
144.888211
23
0
33
0
39
0
210
0
220
0
230
1
0
ENDBLK
5
1FA
100
AcDbEntity
8
0
100
AcDbBlockEnd
0
BLOCK
5
204
100
AcDbEntity
8
0
100
AcDbBlockBegin
2
DimnDraft3D3
70
0
10
0
20
0
30
0
3
DimnDraft3D3
0
MTEXT
5
1FD
100
AcDbEntity
8
2
62
256
6
ByLayer
370
18
48
1
60
0
100
AcDbMText
10
57.713234
20
48.975134
30
0
210
0
220
0
230
1
1
\W0.7091;124.0
40
3.5
41
0
44
1.084337
50
0
71
7
72
5
7
iso_b_vert
0
LINE
5
1FF
100
AcDbEntity
8
2
62
256
6
ByLayer
370
13
48
1
60
0
100
AcDbLine
10
0
20
33.0875
30
0
11
0
21
50.1
31
0
39
0
210
0
220
0
230
1
0
LINE
5
200
100
AcDbEntity
8
2
62
256
6
ByLayer
370
13
48
1
60
0
100
AcDbLine
10
124
20
16.5875
30
0
11
124
21
50.1
31
0
39
0
210
0
220
0
230
1
0
LINE
5
201
100
AcDbEntity
8
2
62
256
6
ByLayer
370
13
48
1
60
0
100
AcDbLine
10
0
20
48.1
30
0
11
124
21
48.1
31
0
39
0
210
0
220
0
230
1
0
SOLID
5
202
100
AcDbEntity
8
2
62
256
6
ByLayer
370
13
48
1
60
0
100
AcDbTrace
10
0
20
48.1
30
0
11
3.499998
21
48.560784
31
0
12
3.500002
22
47.639216
32
0
13
0
23
48.1
33
0
39
0
210
0
220
0
230
1
0
SOLID
5
203
100
AcDbEntity
8
2
62
256
6
ByLayer
370
13
48
1
60
0
100
AcDbTrace
10
124
20
48.1
30
0
11
120.500002
21
47.639216
31
0
12
120.499998
22
48.560784
32
0
13
124
23
48.1
33
0
39
0
210
0
220
0
230
1
0
ENDBLK
5
205
100
AcDbEntity
8
0
100
AcDbBlockEnd
0
BLOCK
5
20F
100
AcDbEntity
8
0
100
AcDbBlockBegin
2
DimnDraft3D4
70
0
10
0
20
0
30
0
3
DimnDraft3D4
0
MTEXT
5
208
100
AcDbEntity
8
SK2
62
256
6
ByLayer
370
18
48
1
60
0
100
AcDbMText
10
-61.350134
20
3.159534
30
0
210
0
220
0
230
1
1
\W0.6740;63
40
3.5
41
0
44
1.084337
50
90
71
7
72
5
7
iso_b_vert
0
MTEXT
5
209
100
AcDbEntity
8
SK2
62
256
6
ByLayer
370
18
48
1
60
0
100
AcDbMText
10
-61.350134
20
-3.813122
30
0
210
0
220
0
230
1
1
%%c
40
3.5
41
0
44
1.084337
50
90
71
7
72
5
7
iso_b_vert
0
LINE
5
20A
100
AcDbEntity
8
SK2
62
256
6
ByLayer
370
13
48
1
60
0
100
AcDbLine
10
-1.5875
20
31.5
30
0
11
-61.6
21
31.5
31
0
39
0
210
0
220
0
230
1
0
LINE
5
20B
100
AcDbEntity
8
SK2
62
256
6
ByLayer
370
13
48
1
60
0
100
AcDbLine
10
-1.5875
20
-31.5
30
0
11
-61.6
21
-31.5
31
0
39
0
210
0
220
0
230
1
0
LINE
5
20C
100
AcDbEntity
8
SK2
62
256
6
ByLayer
370
13
48
1
60
0
100
AcDbLine
10
-59.6
20
31.5
30
0
11
-59.6
21
-31.5
31
0
39
0
210
0
220
0
230
1
0
SOLID
5
20D
100
AcDbEntity
8
SK2
62
256
6
ByLayer
370
13
48
1
60
0
100
AcDbTrace
10
-59.6
20
31.5
30
0
11
-59.139216
21
28.000002
31
0
12
-60.060784
22
27.999998
32
0
13
-59.6
23
31.5
33
0
39
0
210
0
220
0
230
1
0
SOLID
5
20E
100
AcDbEntity
8
SK2
62
256
6
ByLayer
370
13
48
1
60
0
100
AcDbTrace
10
-59.6
20
-31.5
30
0
11
-60.060784
21
-28.000002
31
0
12
-59.139216
22
-27.999998
32
0
13
-59.6
23
-31.5
33
0
39
0
210
0
220
0
230
1
0
ENDBLK
5
210
100
AcDbEntity
8
0
100
AcDbBlockEnd
0
BLOCK
5
21A
100
AcDbEntity
8
0
100
AcDbBlockBegin
2
DimnDraft3D5
70
0
10
0
20
0
30
0
3
DimnDraft3D5
0
MTEXT
5
213
100
AcDbEntity
8
SK2
62
256
6
ByLayer
370
18
48
1
60
0
100
AcDbMText
10
153.138077
20
-2.024733
30
0
210
0
220
0
230
1
1
\W0.7361;40
40
3.5
41
0
44
1.084337
50
90
71
7
72
5
7
iso_b_vert
0
MTEXT
5
214
100
AcDbEntity
8
SK2
62
256
6
ByLayer
370
18
48
1
60
0
100
AcDbMText
10
153.138077
20
-8.997389
30
0
210
0
220
0
230
1
1
%%c
40
3.5
41
0
44
1.084337
50
90
71
7
72
5
7
iso_b_vert
0
LINE
5
215
100
AcDbEntity
8
SK2
62
256
6
ByLayer
370
13
48
1
60
0
100
AcDbLine
10
125.5875
20
15
30
0
11
156.888211
21
15
31
0
39
0
210
0
220
0
230
1
0
LINE
5
216
100
AcDbEntity
8
SK2
62
256
6
ByLayer
370
13
48
1
60
0
100
AcDbLine
10
125.5875
20
-25
30
0
11
156.888211
21
-25
31
0
39
0
210
0
220
0
230
1
0
LINE
5
217
100
AcDbEntity
8
SK2
62
256
6
ByLayer
370
13
48
1
60
0
100
AcDbLine
10
154.888211
20
15
30
0
11
154.888211
21
-25
31
0
39
0
210
0
220
0
230
1
0
SOLID
5
218
100
AcDbEntity
8
SK2
62
256
6
ByLayer
370
13
48
1
60
0
100
AcDbTrace
10
154.888211
20
15
30
0
11
155.348994
21
11.500002
31
0
12
154.427427
22
11.499998
32
0
13
154.888211
23
15
33
0
39
0
210
0
220
0
230
1
0
SOLID
5
219
100
AcDbEntity
8
SK2
62
256
6
ByLayer
370
13
48
1
60
0
100
AcDbTrace
10
154.888211
20
-25
30
0
11
154.427427
21
-21.500002
31
0
12
155.348994
22
-21.499998
32
0
13
154.888211
23
-25
33
0
39
0
210
0
220
0
230
1
0
ENDBLK
5
21B
100
AcDbEntity
8
0
100
AcDbBlockEnd
0
BLOCK
5
225
100
AcDbEntity
8
0
100
AcDbBlockBegin
2
DimnDraft3D6
70
0
10
0
20
0
30
0
3
DimnDraft3D6
0
MTEXT
5
21E
100
AcDbEntity
8
SK2
62
256
6
ByLayer
370
18
48
1
60
0
100
AcDbMText
10
163.138077
20
3.159534
30
0
210
0
220
0
230
1
1
\W0.6740;50
40
3.5
41
0
44
1.084337
50
90
71
7
72
5
7
iso_b_vert
0
MTEXT
5
21F
100
AcDbEntity
8
SK2
62
256
6
ByLayer
370
18
48
1
60
0
100
AcDbMText
10
163.138077
20
-3.813122
30
0
210
0
220
0
230
1
1
%%c
40
3.5
41
0
44
1.084337
50
90
71
7
72
5
7
iso_b_vert
0
LINE
5
220
100
AcDbEntity
8
SK2
62
256
6
ByLayer
370
13
48
1
60
0
100
AcDbLine
10
125.5875
20
-25
30
0
11
166.888211
21
-25
31
0
39
0
210
0
220
0
230
1
0
LINE
5
221
100
AcDbEntity
8
SK2
62
256
6
ByLayer
370
13
48
1
60
0
100
AcDbLine
10
118.708008
20
25
30
0
11
166.888211
21
25
31
0
39
0
210
0
220
0
230
1
0
LINE
5
222
100
AcDbEntity
8
SK2
62
256
6
ByLayer
370
13
48
1
60
0
100
AcDbLine
10
164.888211
20
-25
30
0
11
164.888211
21
25
31
0
39
0
210
0
220
0
230
1
0
SOLID
5
223
100
AcDbEntity
8
SK2
62
256
6
ByLayer
370
13
48
1
60
0
100
AcDbTrace
10
164.888211
20
-25
30
0
11
164.427427
21
-21.500002
31
0
12
165.348994
22
-21.499998
32
0
13
164.888211
23
-25
33
0
39
0
210
0
220
0
230
1
0
SOLID
5
224
100
AcDbEntity
8
SK2
62
256
6
ByLayer
370
13
48
1
60
0
100
AcDbTrace
10
164.888211
20
25
30
0
11
165.348994
21
21.500002
31
0
12
164.427427
22
21.499998
32
0
13
164.888211
23
25
33
0
39
0
210
0
220
0
230
1
0
ENDBLK
5
226
100
AcDbEntity
8
0
100
AcDbBlockEnd
0
ENDSEC
0
SECTION
2
ENTITIES
0
ARC
5
125
100
AcDbEntity
8
1
62
256
6
ByLayer
370
18
48
1
60
0
100
AcDbCircle
39
0
10
-26
20
28
30
0
40
3
210
0
220
0
230
-1
100
AcDbArc
50
270
51
345.548819
0
ARC
5
126
100
AcDbEntity
8
1
62
256
6
ByLayer
370
18
48
1
60
0
100
AcDbCircle
39
0
10
-128.4255
20
1.649495
30
0
40
0.25
210
0
220
0
230
-1
100
AcDbArc
50
90
51
180
0
ARC
5
127
100
AcDbEntity
8
1
62
256
6
ByLayer
370
18
48
1
60
0
100
AcDbCircle
39
0
10
-128.4255
20
8.149495
30
0
40
0.25
210
0
220
0
230
-1
100
AcDbArc
50
180
51
270
0
ARC
5
128
100
AcDbEntity
8
1
62
256
6
ByLayer
370
18
48
1
60
0
100
AcDbCircle
39
0
10
-26
20
-28
30
0
40
3
210
0
220
0
230
-1
100
AcDbArc
50
14.451181
51
90
0
ARC
5
129
100
AcDbEntity
8
1
62
256
6
ByLayer
370
18
48
1
60
0
100
AcDbCircle
39
0
10
-128.4255
20
-18.149495
30
0
40
0.25
210
0
220
0
230
-1
100
AcDbArc
50
90
51
180
0
ARC
5
12A
100
AcDbEntity
8
1
62
256
6
ByLayer
370
18
48
1
60
0
100
AcDbCircle
39
0
10
-119.8
20
16
30
0
40
1
210
0
220
0
230
-1
100
AcDbArc
50
270
51
345
0
ARC
5
12B
100
AcDbEntity
8
1
62
256
6
ByLayer
370
18
48
1
60
0
100
AcDbCircle
39
0
10
133.9255
20
-10.499495
30
0
40
0.6
210
0
220
0
230
1
100
AcDbArc
50
0
51
90
0
ARC
5
12C
100
AcDbEntity
8
1
62
256
6
ByLayer
370
18
48
1
60
0
100
AcDbCircle
39
0
10
133.9255
20
-19.299495
30
0
40
0.6
210
0
220
0
230
1
100
AcDbArc
50
270
51
0
0
ARC
5
12D
100
AcDbEntity
8
1
62
256
6
ByLayer
370
18
48
1
60
0
100
AcDbCircle
39
0
10
-128.4255
20
-11.649495
30
0
40
0.25
210
0
220
0
230
-1
100
AcDbArc
50
180
51
270
0
ARC
5
12E
100
AcDbEntity
8
1
62
256
6
ByLayer
370
18
48
1
60
0
100
AcDbCircle
39
0
10
133.9255
20
9.299495
30
0
40
0.6
210
0
220
0
230
1
100
AcDbArc
50
0
51
90
0
ARC
5
12F
100
AcDbEntity
8
1
62
256
6
ByLayer
370
18
48
1
60
0
100
AcDbCircle
39
0
10
133.9255
20
0.499495
30
0
40
0.6
210
0
220
0
230
1
100
AcDbArc
50
270
51
0
0
ARC
5
130
100
AcDbEntity
8
1
62
256
6
ByLayer
370
18
48
1
60
0
100
AcDbCircle
39
0
10
-128.4255
20
8.149495
30
0
40
0.25
210
0
220
0
230
-1
100
AcDbArc
50
180
51
270
0
ARC
5
131
100
AcDbEntity
8
1
62
256
6
ByLayer
370
18
48
1
60
0
100
AcDbCircle
39
0
10
133.9255
20
9.299495
30
0
40
0.6
210
0
220
0
230
1
100
AcDbArc
50
0
51
90
0
ARC
5
132
100
AcDbEntity
8
1
62
256
6
ByLayer
370
18
48
1
60
0
100
AcDbCircle
39
0
10
133.9255
20
0.499495
30
0
40
0.6
210
0
220
0
230
1
100
AcDbArc
50
270
51
0
0
ARC
5
133
100
AcDbEntity
8
1
62
256
6
ByLayer
370
18
48
1
60
0
100
AcDbCircle
39
0
10
-128.4255
20
1.649495
30
0
40
0.25
210
0
220
0
230
-1
100
AcDbArc
50
90
51
180
0
ELLIPSE
5
134
100
AcDbEntity
8
1
62
256
6
ByLayer
370
18
48
1
60
0
100
AcDbEllipse
10
26.347154
20
0
30
0
11
14.7536831606563
21
31.0932549155809
31
0
210
0
220
0
230
-1
40
0.341999
41
-2.98378646694436
42
-2.05035306783697
0
ELLIPSE
5
135
100
AcDbEntity
8
1
62
256
6
ByLayer
370
18
48
1
60
0
100
AcDbEllipse
10
-2.347154
20
0
30
0
11
14.7536831606577
21
31.093254915583
31
0
210
0
220
0
230
-1
40
0.341999
41
0.157806186645425
42
1.09123958575278
0
ELLIPSE
5
136
100
AcDbEntity
8
1
62
256
6
ByLayer
370
18
48
1
60
0
100
AcDbEllipse
10
26.347154
20
0
30
0
11
14.7536831606561
21
-31.0932549155808
31
0
210
0
220
0
230
-1
40
0.341999
41
2.05035306783696
42
2.98378646694437
0
ELLIPSE
5
137
100
AcDbEntity
8
1
62
256
6
ByLayer
370
18
48
1
60
0
100
AcDbEllipse
10
-2.347154
20
0
30
0
11
14.7536831606582
21
-31.0932549155836
31
0
210
0
220
0
230
-1
40
0.341999
41
-1.09123958575277
42
-0.157806186645422
0
POINT
5
6C
100
AcDbEntity
8
80
62
256
6
ByLayer
370
18
48
1
60
0
100
AcDbPoint
10
0
20
0
30
0
39
0
210
0
220
0
230
1
50
360
0
POINT
5
6E
100
AcDbEntity
8
81
62
256
6
ByLayer
370
18
48
1
60
0
100
AcDbPoint
10
124
20
-5
30
0
39
0
210
0
220
0
230
1
50
360
0
POINT
5
70
100
AcDbEntity
8
SK2
62
256
6
ByLayer
370
18
48
1
60
1
100
AcDbPoint
10
0
20
31.5
30
0
39
0
210
0
220
0
230
1
50
360
0
POINT
5
72
100
AcDbEntity
8
SK2
62
256
6
ByLayer
370
18
48
1
60
1
100
AcDbPoint
10
0
20
-31.5
30
0
39
0
210
0
220
0
230
1
50
360
0
POINT
5
73
100
AcDbEntity
8
SK2
62
256
6
ByLayer
370
18
48
1
60
1
100
AcDbPoint
10
124
20
15
30
0
39
0
210
0
220
0
230
1
50
360
0
POINT
5
74
100
AcDbEntity
8
SK2
62
256
6
ByLayer
370
18
48
1
60
1
100
AcDbPoint
10
124
20
-25
30
0
39
0
210
0
220
0
230
1
50
360
0
SPLINE
5
138
100
AcDbEntity
8
SK1
62
256
6
ByLayer
370
18
48
1
60
0
100
AcDbSpline
70
4
71
2
72
6
73
3
40
0
40
0
40
0
40
1
40
1
40
1
41
1
10
-36.5
20
-21.152454254977
30
0
41
1
10
-19.3500000008244
20
-21.5830602558515
30
0
41
1
10
-2.19999999999999
20
-22.0136645469338
30
0
0
SPLINE
5
139
100
AcDbEntity
8
SK1
62
256
6
ByLayer
370
18
48
1
60
0
100
AcDbSpline
70
4
71
2
72
6
73
3
40
0
40
0
40
0
40
1
40
1
40
1
41
1
10
-0.394913799811292
20
21.8654705382346
30
0
41
1
10
-1.19497688887515
20
21.8453761190377
30
0
41
1
10
-1.99503997793928
20
21.8252816998361
30
0
0
SPLINE
5
13A
100
AcDbEntity
8
SK1
62
256
6
ByLayer
370
18
48
1
60
0
100
AcDbSpline
70
4
71
3
72
13
73
9
40
0
40
0
40
0
40
0
40
0.239488446613183
40
0.368403116187316
40
0.500046645745301
40
0.631682415479715
40
0.760575689762896
40
1
40
1
40
1
40
1
41
1
10
-1.99503997793928
20
21.825286524797
30
0
41
1
10
-2.02110964951223
20
21.8248845959364
30
0
41
1
10
-2.05883938576716
20
21.8310551084546
30
0
41
1
10
-2.10627619976853
20
21.8540920367489
30
0
41
1
10
-2.13886292183542
20
21.8792518859041
30
0
41
1
10
-2.16563526915772
20
21.9105242864784
30
0
41
1
10
-2.19103234710852
20
21.9567296167895
30
0
41
1
10
-2.19909149085342
20
21.9940920912339
30
0
41
1
10
-2.19999999999999
20
22.0201427571469
30
0
0
SPLINE
5
13B
100
AcDbEntity
8
SK1
62
256
6
ByLayer
370
18
48
1
60
0
100
AcDbSpline
70
4
71
2
72
6
73
3
40
0
40
0
40
0
40
1
40
1
40
1
41
1
10
-2.19999999999999
20
22.0136642719968
30
0
41
1
10
-19.3500000008246
20
21.5830599810351
30
0
41
1
10
-36.5
20
21.1524539804128
30
0
0
SPLINE
5
13C
100
AcDbEntity
8
SK1
62
256
6
ByLayer
370
18
48
1
60
0
100
AcDbSpline
70
4
71
3
72
13
73
9
40
0
40
0
40
0
40
0
40
0.239424309708974
40
0.368317583820914
40
0.499953353497707
40
0.631596883124514
40
0.760511552875588
40
1
40
1
40
1
40
1
41
1
10
-2.19999999999999
20
-22.0201428284389
30
0
41
1
10
-2.19909149084521
20
-21.994092162624
30
0
41
1
10
-2.19103234710033
20
-21.9567296883261
30
0
41
1
10
-2.16563526914683
20
-21.910524358218
30
0
41
1
10
-2.13886292182102
20
-21.8792519577777
30
0
41
1
10
-2.10627619975313
20
-21.854092108733
30
0
41
1
10
-2.05883938574672
20
-21.8310551805396
30
0
41
1
10
-2.02110964950145
20
-21.8248846680468
30
0
41
1
10
-1.99503997793928
20
-21.8252865969123
30
0
0
SPLINE
5
13D
100
AcDbEntity
8
SK1
62
256
6
ByLayer
370
18
48
1
60
0
100
AcDbSpline
70
4
71
2
72
6
73
3
40
0
40
0
40
0
40
1
40
1
40
1
41
1
10
-1.99503997793928
20
-21.8252817664983
30
0
41
1
10
-1.19497688887515
20
-21.8453761856051
30
0
41
1
10
-0.394913799811292
20
-21.8654706047072
30
0
0
SPLINE
5
13E
100
AcDbEntity
8
SK1
62
256
6
ByLayer
370
18
48
1
60
0
100
AcDbSpline
70
4
71
2
72
6
73
3
40
0
40
0
40
0
40
1
40
1
40
1
41
1
10
-38
20
-20.2900295032223
30
0
41
1
10
-37.2500000202654
20
-20.7228363958853
30
0
41
1
10
-36.5
20
-21.1556411516461
30
0
0
SPLINE
5
13F
100
AcDbEntity
8
SK1
62
256
6
ByLayer
370
18
48
1
60
0
100
AcDbSpline
70
4
71
2
72
6
73
3
40
0
40
0
40
0
40
1
40
1
40
1
41
1
10
-36.5
20
21.1556411500792
30
0
41
1
10
-37.2500000202692
20
20.7228363924584
30
0
41
1
10
-38
20
20.2900294978113
30
0
0
SPLINE
5
140
100
AcDbEntity
8
SK1
62
256
6
ByLayer
370
18
48
1
60
0
100
AcDbSpline
70
4
71
3
72
11
73
7
40
0
40
0
40
0
40
0
40
0.238951655662017
40
0.497426891855135
40
0.757350231106678
40
1
40
1
40
1
40
1
41
1
10
-0.394913799811292
20
-21.8654754627471
30
0
41
1
10
-0.369687531346841
20
-21.8663994433358
30
0
41
1
10
-0.321131332200991
20
-21.8764453257208
30
0
41
1
10
-0.255172538244239
20
-21.9196711806814
30
0
41
1
10
-0.211244315154573
20
-21.9856609122028
30
0
41
1
10
-0.200954685769119
20
-22.0346807004484
30
0
41
1
10
-0.200000000000017
20
-22.0603316944383
30
0
0
SPLINE
5
141
100
AcDbEntity
8
SK1
62
256
6
ByLayer
370
18
48
1
60
0
100
AcDbSpline
70
4
71
3
72
11
73
7
40
0
40
0
40
0
40
0
40
0.242683451557236
40
0.502591507400088
40
0.761074756885805
40
1
40
1
40
1
40
1
41
1
10
-0.200000000000017
20
22.060331623316
30
0
41
1
10
-0.200952962174824
20
22.034682367515
30
0
41
1
10
-0.211240739082683
20
21.9856690515798
30
0
41
1
10
-0.255176498314313
20
21.9196668868322
30
0
41
1
10
-0.321125379120303
20
21.8764480552956
30
0
41
1
10
-0.369686289021757
20
21.8664005871852
30
0
41
1
10
-0.394913799811292
20
21.8654753908017
30
0
0
SPLINE
5
142
100
AcDbEntity
8
1
62
256
6
ByLayer
370
18
48
1
60
0
100
AcDbSpline
70
4
71
3
72
22
73
18
40
0
40
0
40
0
40
0
40
0.249999999999999
40
0.249999999999999
40
0.375
40
0.375
40
0.5
40
0.5
40
0.625000000000001
40
0.625000000000001
40
0.750000000000002
40
0.750000000000002
40
0.812500000000003
40
0.812500000000003
40
0.875000000000005
40
0.875000000000005
40
1
40
1
40
1
40
1
41
1
10
10.1056624327026
20
-9.86941261896618
30
0
41
1
10
10.1212498345488
20
-9.81243201498805
30
0
41
1
10
10.1399018475136
20
-9.75655023082967
30
0
41
1
10
10.1740902691451
20
-9.67499387250786
30
0
41
1
10
10.1865318440058
20
-9.64819007031196
30
0
41
1
10
10.2140339430554
20
-9.59554701961159
30
0
41
1
10
10.2291686648069
20
-9.56958483867112
30
0
41
1
10
10.2625095528537
20
-9.51963294536122
30
0
41
1
10
10.2806617049328
20
-9.49566900868385
30
0
41
1
10
10.3210597058744
20
-9.45055053780223
30
0
41
1
10
10.3431560434001
20
-9.42959825985622
30
0
41
1
10
10.3794828926306
20
-9.40232505361246
30
0
41
1
10
10.392156025832
20
-9.39389972204373
30
0
41
1
10
10.4189050579785
20
-9.37870617320448
30
0
41
1
10
10.4329857409659
20
-9.37196693550717
30
0
41
1
10
10.4761894743047
20
-9.35548920253851
30
0
41
1
10
10.5072412025891
20
-9.34922131452501
30
0
41
1
10
10.5386751345948
20
-9.34922131452501
30
0
0
SPLINE
5
143
100
AcDbEntity
8
1
62
256
6
ByLayer
370
18
48
1
60
0
100
AcDbSpline
70
4
71
3
72
20
73
16
40
0
40
0
40
0
40
0
40
0.0624999999999961
40
0.0624999999999961
40
0.124999999999992
40
0.124999999999992
40
0.249999999999992
40
0.249999999999992
40
0.374999999999992
40
0.374999999999992
40
0.499999999999993
40
0.499999999999993
40
0.749999999999996
40
0.749999999999996
40
1
40
1
40
1
40
1
41
1
10
10.5386751345949
20
-30.0805927603169
30
0
41
1
10
10.5229355536388
20
-30.0805927603169
30
0
41
1
10
10.5074817098165
20
-30.0801205034908
30
0
41
1
10
10.4770951469809
20
-30.0783134473999
30
0
41
1
10
10.4620456032698
20
-30.0769634801343
30
0
41
1
10
10.4184736929998
20
-30.0717959485601
30
0
41
1
10
10.3920418953324
20
-30.0669872793661
30
0
41
1
10
10.3428384525281
20
-30.055427253592
30
0
41
1
10
10.3209123403485
20
-30.048869374708
30
0
41
1
10
10.2807959636713
20
-30.0347407881727
30
0
41
1
10
10.2625062023862
20
-30.027107286276
30
0
41
1
10
10.2125137122668
20
-30.0032932993814
30
0
41
1
10
10.1857347330744
20
-29.9863830332716
30
0
41
1
10
10.1400559187761
20
-29.9511519005795
30
0
41
1
10
10.1212556944726
20
-29.9327613369588
30
0
41
1
10
10.1056624327026
20
-29.9139548464691
30
0
0
SPLINE
5
144
100
AcDbEntity
8
SK1
62
256
6
ByLayer
370
18
48
1
60
0
100
AcDbSpline
70
4
71
3
72
8
73
4
40
0
40
0
40
0
40
0
40
1
40
1
40
1
40
1
41
0.980125716641413
10
-0.200000000000002
20
7.0341612160761
30
0
41
0.980125716641413
10
-0.199999999999973
20
7.06207342499976
30
0
41
0.980125716641413
10
-0.199999999999973
20
7.08995110616729
30
0
41
0.980125716641413
10
-0.199999999999973
20
7.11779421607614
30
0
0
SPLINE
5
145
100
AcDbEntity
8
1
62
256
6
ByLayer
370
18
48
1
60
0
100
AcDbSpline
70
4
71
3
72
20
73
16
40
0
40
0
40
0
40
0
40
0.0624999999999978
40
0.0624999999999978
40
0.124999999999996
40
0.124999999999996
40
0.249999999999995
40
0.249999999999995
40
0.374999999999995
40
0.374999999999995
40
0.499999999999994
40
0.499999999999994
40
0.749999999999997
40
0.749999999999997
40
1
40
1
40
1
40
1
41
1
10
13.4613248654051
20
30.0805927603169
30
0
41
1
10
13.4770644463612
20
30.0805927603169
30
0
41
1
10
13.4925182901835
20
30.0801205034908
30
0
41
1
10
13.522904853019
20
30.0783134473998
30
0
41
1
10
13.5379543967302
20
30.0769634801343
30
0
41
1
10
13.5815263070002
20
30.0717959485601
30
0
41
1
10
13.6079581046675
20
30.0669872793661
30
0
41
1
10
13.6571615474718
20
30.055427253592
30
0
41
1
10
13.6790876596515
20
30.048869374708
30
0
41
1
10
13.7192040363286
20
30.0347407881727
30
0
41
1
10
13.7374937976137
20
30.027107286276
30
0
41
1
10
13.7874862877331
20
30.0032932993814
30
0
41
1
10
13.8142652669256
20
29.9863830332716
30
0
41
1
10
13.8599440812238
20
29.9511519005795
30
0
41
1
10
13.8787443055273
20
29.9327613369587
30
0
41
1
10
13.8943375672974
20
29.9139548464691
30
0
0
SPLINE
5
146
100
AcDbEntity
8
1
62
256
6
ByLayer
370
18
48
1
60
0
100
AcDbSpline
70
4
71
3
72
22
73
18
40
0
40
0
40
0
40
0
40
0.250000000000001
40
0.250000000000001
40
0.375
40
0.375
40
0.499999999999999
40
0.499999999999999
40
0.624999999999997
40
0.624999999999997
40
0.749999999999996
40
0.749999999999996
40
0.812499999999997
40
0.812499999999997
40
0.874999999999997
40
0.874999999999997
40
1
40
1
40
1
40
1
41
1
10
13.8943375672973
20
9.86941261896624
30
0
41
1
10
13.8787501654511
20
9.8124320149881
30
0
41
1
10
13.8600981524864
20
9.75655023082976
30
0
41
1
10
13.8259097308548
20
9.67499387250794
30
0
41
1
10
13.8134681559942
20
9.64819007031207
30
0
41
1
10
13.7859660569446
20
9.59554701961167
30
0
41
1
10
13.7708313351931
20
9.5695848386712
30
0
41
1
10
13.7374904471463
20
9.51963294536131
30
0
41
1
10
13.7193382950672
20
9.49566900868393
30
0
41
1
10
13.6789402941255
20
9.45055053780234
30
0
41
1
10
13.6568439565999
20
9.42959825985633
30
0
41
1
10
13.6205171073694
20
9.40232505361257
30
0
41
1
10
13.6078439741679
20
9.39389972204384
30
0
41
1
10
13.5810949420214
20
9.37870617320456
30
0
41
1
10
13.567014259034
20
9.37196693550729
30
0
41
1
10
13.5238105256953
20
9.35548920253859
30
0
41
1
10
13.4927587974109
20
9.34922131452512
30
0
41
1
10
13.4613248654052
20
9.34922131452512
30
0
0
SPLINE
5
147
100
AcDbEntity
8
1
62
256
6
ByLayer
370
18
48
1
60
0
100
AcDbSpline
70
4
71
3
72
22
73
18
40
0
40
0
40
0
40
0
40
0.250000000000004
40
0.250000000000004
40
0.375000000000002
40
0.375000000000002
40
0.500000000000001
40
0.500000000000001
40
0.624999999999999
40
0.624999999999999
40
0.749999999999998
40
0.749999999999998
40
0.812499999999998
40
0.812499999999998
40
0.874999999999998
40
0.874999999999998
40
1
40
1
40
1
40
1
41
1
10
10.1056624327026
20
29.9139548464691
30
0
41
1
10
10.1212498345488
20
29.9327542695084
30
0
41
1
10
10.1399018475136
20
29.9510098933135
30
0
41
1
10
10.1740902691451
20
29.977413331973
30
0
41
1
10
10.1865318440058
20
29.9860499646858
30
0
41
1
10
10.2140339430554
20
30.0029372147449
30
0
41
1
10
10.2291686648069
20
30.011226780568
30
0
41
1
10
10.2625095528537
20
30.0271090091071
30
0
41
1
10
10.2806617049328
20
30.0346937657148
30
0
41
1
10
10.3210597058744
20
30.048921013161
30
0
41
1
10
10.3431560434001
20
30.0554993245996
30
0
41
1
10
10.3794828926306
20
30.0640378913834
30
0
41
1
10
10.392156025832
20
30.0666711051738
30
0
41
1
10
10.4189050579785
20
30.0714138984386
30
0
41
1
10
10.4329857409659
20
30.073514408101
30
0
41
1
10
10.4761894743047
20
30.0786461490401
30
0
41
1
10
10.5072412025891
20
30.0805927603169
30
0
41
1
10
10.5386751345948
20
30.0805927603169
30
0
0
SPLINE
5
148
100
AcDbEntity
8
1
62
256
6
ByLayer
370
18
48
1
60
0
100
AcDbSpline
70
4
71
3
72
20
73
16
40
0
40
0
40
0
40
0
40
0.0625
40
0.0625
40
0.125
40
0.125
40
0.249999999999998
40
0.249999999999998
40
0.374999999999997
40
0.374999999999997
40
0.499999999999995
40
0.499999999999995
40
0.749999999999998
40
0.749999999999998
40
1
40
1
40
1
40
1
41
1
10
10.5386751345949
20
9.34922131452512
30
0
41
1
10
10.5229355536388
20
9.34922131452512
30
0
41
1
10
10.5074817098165
20
9.35074113394288
30
0
41
1
10
10.477095146981
20
9.35655221855276
30
0
41
1
10
10.4620456032698
20
9.36089212483333
30
0
41
1
10
10.4184736929998
20
9.37748487924964
30
0
41
1
10
10.3920418953325
20
9.39290424748307
30
0
41
1
10
10.3428384525281
20
9.42982857023335
30
0
41
1
10
10.3209123403485
20
9.45071431640773
30
0
41
1
10
10.2807959636713
20
9.49551986864822
30
0
41
1
10
10.2625062023862
20
9.51963835126784
30
0
41
1
10
10.2125137122669
20
9.59453680346903
30
0
41
1
10
10.1857347330744
20
9.64728479257934
30
0
41
1
10
10.1400559187761
20
9.75611455014877
30
0
41
1
10
10.1212556944726
20
9.8124105937143
30
0
41
1
10
10.1056624327026
20
9.86941261896621
30
0
0
SPLINE
5
149
100
AcDbEntity
8
1
62
256
6
ByLayer
370
18
48
1
60
0
100
AcDbSpline
70
4
71
3
72
22
73
18
40
0
40
0
40
0
40
0
40
0.249999999999998
40
0.249999999999998
40
0.374999999999996
40
0.374999999999996
40
0.499999999999995
40
0.499999999999995
40
0.624999999999994
40
0.624999999999994
40
0.749999999999993
40
0.749999999999993
40
0.812499999999995
40
0.812499999999995
40
0.874999999999997
40
0.874999999999997
40
1
40
1
40
1
40
1
41
1
10
13.8943375672973
20
-29.9139548464691
30
0
41
1
10
13.8787501654511
20
-29.9327542695084
30
0
41
1
10
13.8600981524863
20
-29.9510098933136
30
0
41
1
10
13.8259097308548
20
-29.977413331973
30
0
41
1
10
13.8134681559941
20
-29.9860499646858
30
0
41
1
10
13.7859660569446
20
-30.0029372147449
30
0
41
1
10
13.7708313351931
20
-30.011226780568
30
0
41
1
10
13.7374904471463
20
-30.0271090091071
30
0
41
1
10
13.7193382950672
20
-30.0346937657148
30
0
41
1
10
13.6789402941255
20
-30.048921013161
30
0
41
1
10
13.6568439565998
20
-30.0554993245996
30
0
41
1
10
13.6205171073693
20
-30.0640378913833
30
0
41
1
10
13.6078439741679
20
-30.0666711051738
30
0
41
1
10
13.5810949420214
20
-30.0714138984386
30
0
41
1
10
13.567014259034
20
-30.0735144081009
30
0
41
1
10
13.5238105256953
20
-30.0786461490401
30
0
41
1
10
13.4927587974109
20
-30.0805927603169
30
0
41
1
10
13.4613248654052
20
-30.0805927603169
30
0
0
SPLINE
5
14A
100
AcDbEntity
8
1
62
256
6
ByLayer
370
18
48
1
60
0
100
AcDbSpline
70
4
71
3
72
20
73
16
40
0
40
0
40
0
40
0
40
0.0624999999999965
40
0.0624999999999965
40
0.124999999999993
40
0.124999999999993
40
0.249999999999994
40
0.249999999999994
40
0.374999999999995
40
0.374999999999995
40
0.499999999999996
40
0.499999999999996
40
0.749999999999998
40
0.749999999999998
40
1
40
1
40
1
40
1
41
1
10
13.4613248654051
20
-9.34922131452518
30
0
41
1
10
13.4770644463612
20
-9.34922131452518
30
0
41
1
10
13.4925182901835
20
-9.3507411339429
30
0
41
1
10
13.522904853019
20
-9.35655221855282
30
0
41
1
10
13.5379543967302
20
-9.36089212483338
30
0
41
1
10
13.5815263070002
20
-9.37748487924972
30
0
41
1
10
13.6079581046675
20
-9.39290424748313
30
0
41
1
10
13.6571615474718
20
-9.42982857023338
30
0
41
1
10
13.6790876596514
20
-9.45071431640775
30
0
41
1
10
13.7192040363286
20
-9.49551986864824
30
0
41
1
10
13.7374937976137
20
-9.51963835126787
30
0
41
1
10
13.7874862877331
20
-9.59453680346903
30
0
41
1
10
13.8142652669255
20
-9.64728479257934
30
0
41
1
10
13.8599440812238
20
-9.75611455014874
30
0
41
1
10
13.8787443055273
20
-9.81241059371428
30
0
41
1
10
13.8943375672974
20
-9.86941261896618
30
0
0
SPLINE
5
14B
100
AcDbEntity
8
SK1
62
256
6
ByLayer
370
18
48
1
60
0
100
AcDbSpline
70
4
71
3
72
21
73
17
40
0
40
0
40
0
40
0
40
0.0510243316702948
40
0.121003843083247
40
0.1909833544962
40
0.260962865909153
40
0.330942377322105
40
0.400921888735058
40
0.540880911560963
40
0.610860422973916
40
0.680839934386868
40
0.750819445799821
40
0.820798957212774
40
0.890778468625726
40
0.960757980038679
40
1
40
1
40
1
40
1
41
1
10
-0.200000000000017
20
22.0703747091505
30
0
41
1
10
-0.200000000000017
20
22.0704400051746
30
0
41
1
10
-0.200000000000017
20
22.0258027790696
30
0
41
1
10
-0.200000000000017
20
21.8047317906834
30
0
41
1
10
-0.200000000000017
20
21.3905988480801
30
0
41
1
10
-0.200000000000017
20
20.8206087930611
30
0
41
1
10
-0.200000000000017
20
20.1057890164235
30
0
41
1
10
-0.200000000000017
20
18.9715633847268
30
0
41
1
10
-0.200000000000017
20
17.5796130177247
30
0
41
1
10
-0.200000000000017
20
15.9502921104789
30
0
41
1
10
-0.200000000000017
20
14.6127449675204
30
0
41
1
10
-0.200000000000017
20
13.1620360272524
30
0
41
1
10
-0.200000000000017
20
11.6002667684726
30
0
41
1
10
-0.200000000000017
20
9.92892534938241
30
0
41
1
10
-0.200000000000017
20
8.40948876069857
30
0
41
1
10
-0.200000000000017
20
7.43948702371975
30
0
41
1
10
-0.200000000000017
20
7.08540004766849
30
0
0
SPLINE
5
14C
100
AcDbEntity
8
1
62
256
6
ByLayer
370
18
48
1
60
0
100
AcDbSpline
70
4
71
3
72
90
73
86
40
0
40
0
40
0
40
0
40
0.0078128222722624
40
0.0078128222722624
40
0.0156256445445249
40
0.0156256445445249
40
0.0312512890890498
40
0.0312512890890498
40
0.0625025781780996
40
0.0625025781780996
40
0.0937538672671494
40
0.0937538672671494
40
0.125005156356199
40
0.125005156356199
40
0.140630800900724
40
0.140630800900724
40
0.156256445445249
40
0.156256445445249
40
0.187507734534299
40
0.187507734534299
40
0.218759023623348
40
0.218759023623348
40
0.250010312712398
40
0.250010312712398
40
0.265635957256923
40
0.265635957256923
40
0.273448779529185
40
0.273448779529185
40
0.281261601801447
40
0.281261601801447
40
0.312512890890497
40
0.312512890890497
40
0.343764179979546
40
0.343764179979546
40
0.375015469068596
40
0.375015469068596
40
0.39064111361312
40
0.39064111361312
40
0.398453935885383
40
0.398453935885383
40
0.406266758157645
40
0.406266758157645
40
0.437518047246694
40
0.437518047246694
40
0.468769336335744
40
0.468769336335744
40
0.500020625424793
40
0.500020625424793
40
0.515646269969318
40
0.515646269969318
40
0.531271914513842
40
0.531271914513842
40
0.562523203602892
40
0.562523203602892
40
0.593774492691941
40
0.62502578178099
40
0.62502578178099
40
0.640651426325515
40
0.640651426325515
40
0.648464248597778
40
0.648464248597778
40
0.65627707087004
40
0.65627707087004
40
0.687528359959089
40
0.687528359959089
40
0.718779649048139
40
0.750030938137189
40
0.750030938137189
40
0.765656582681713
40
0.765656582681713
40
0.773469404953976
40
0.773469404953976
40
0.781282227226238
40
0.781282227226238
40
0.812533516315288
40
0.812533516315288
40
0.843784805404338
40
0.875036094493388
40
0.875036094493388
40
0.906287383582438
40
0.906287383582438
40
0.937538672671488
40
0.937538672671488
40
0.968789961760538
40
1
40
1
40
1
40
1
41
1
10
118.834074173711
20
-21.9803412596153
30
0
41
1
10
118.828749640625
20
-21.8979098828099
30
0
41
1
10
118.823323348548
20
-21.8137847141685
30
0
41
1
10
118.81226704993
20
-21.6421160465601
30
0
41
1
10
118.806630333272
20
-21.5544679035497
30
0
41
1
10
118.789481305118
20
-21.2873923589252
30
0
41
1
10
118.77772374274
20
-21.1037363028938
30
0
41
1
10
118.741513354188
20
-20.5362462490433
30
0
41
1
10
118.716124576571
20
-20.1359186191878
30
0
41
1
10
118.663001716653
20
-19.2921159612998
30
0
41
1
10
118.635267471565
20
-18.8486395405713
30
0
41
1
10
118.577550752502
20
-17.9184987548433
30
0
41
1
10
118.547568278749
20
-17.4318360299437
30
0
41
1
10
118.500942514563
20
-16.6687532197436
30
0
41
1
10
118.485115052788
20
-16.4087087579526
30
0
41
1
10
118.452949932999
20
-15.8780388601646
30
0
41
1
10
118.436706220817
20
-15.608964162246
30
0
41
1
10
118.387515569115
20
-14.7907254661075
30
0
41
1
10
118.354110362984
20
-14.2305657379357
30
0
41
1
10
118.286172042879
20
-13.0815207993911
30
0
41
1
10
118.251638772855
20
-12.4926345222294
30
0
41
1
10
118.181500683451
20
-11.2861490075272
30
0
41
1
10
118.145895825283
20
-10.6685507147463
30
0
41
1
10
118.091700770994
20
-9.72018652241161
30
0
41
1
10
118.073504186698
20
-9.40039930627302
30
0
41
1
10
118.046011454794
20
-8.91512071096713
30
0
41
1
10
118.036821740765
20
-8.75255978926344
30
0
41
1
10
118.018461259115
20
-8.42706774358999
30
0
41
1
10
118.009280666535
20
-8.26396333282082
30
0
41
1
10
117.9633768564
20
-7.44666523402193
30
0
41
1
10
117.926651659807
20
-6.78715279157421
30
0
41
1
10
117.853210893576
20
-5.45703247963138
30
0
41
1
10
117.816495260943
20
-4.78642414289871
30
0
41
1
10
117.74307425101
20
-3.43413397906102
30
0
41
1
10
117.706368857087
20
-2.75245245861339
30
0
41
1
10
117.651310007691
20
-1.72147223102374
30
0
41
1
10
117.632956839836
20
-1.37640070251135
30
0
41
1
10
117.605424863649
20
-0.856639970775802
30
0
41
1
10
117.596237035041
20
-0.682834980828744
30
0
41
1
10
117.577934679901
20
-0.33591219987531
30
0
41
1
10
117.568815331122
20
-0.16270422273314
30
0
41
1
10
117.523375211908
20
0.702080347823568
30
0
41
1
10
117.487523778447
20
1.3898977043564
30
0
41
1
10
117.416766685393
20
2.75770205531129
30
0
41
1
10
117.381861084133
20
3.43768867453053
30
0
41
1
10
117.312952856267
20
4.78985752129566
30
0
41
1
10
117.278950253437
20
5.46203992375439
30
0
41
1
10
117.228599988593
20
6.46436011798886
30
0
41
1
10
117.211925593484
20
6.79747335019334
30
0
41
1
10
117.17879196191
20
7.46168008343173
30
0
41
1
10
117.162308017662
20
7.79327669968157
30
0
41
1
10
117.113614908592
20
8.77607805047239
30
0
41
1
10
117.082030775131
20
9.4179546926716
30
0
41
1
10
117.020518316627
20
10.6757409810181
30
0
41
1
10
116.960661984425
20
11.9075574681041
30
0
41
1
10
116.903986151979
20
13.0877096483206
30
0
41
1
10
116.862645921707
20
13.9531563127987
30
0
41
1
10
116.84906051598
20
14.2383564125995
30
0
41
1
10
116.828973309058
20
14.6611573027783
30
0
41
1
10
116.822326072238
20
14.8012574393509
30
0
41
1
10
116.809128598455
20
15.0797745137984
30
0
41
1
10
116.802580364104
20
15.2181496993658
30
0
41
1
10
116.770233248707
20
15.902564893252
30
0
41
1
10
116.74549005174
20
16.4288816948496
30
0
41
1
10
116.698153389668
20
17.4402486283751
30
0
41
1
10
116.652966899823
20
18.4103438945993
30
0
41
1
10
116.611941718309
20
19.2984834772157
30
0
41
1
10
116.582715478027
20
19.9334459517053
30
0
41
1
10
116.573230847992
20
20.1399031195552
30
0
41
1
10
116.55939104875
20
20.4416803169982
30
0
41
1
10
116.554842329365
20
20.5409541787333
30
0
41
1
10
116.545874425957
20
20.7368404495467
30
0
41
1
10
116.541450198912
20
20.8335632760144
30
0
41
1
10
116.519735984324
20
21.3086692566558
30
0
41
1
10
116.503645107979
20
21.6619884968753
30
0
41
1
10
116.473906889657
20
22.3166630660616
30
0
41
1
10
116.446612646207
20
22.9193665178094
30
0
41
1
10
116.424089697681
20
23.419054681758
30
0
41
1
10
116.403948806059
20
23.8666423242037
30
0
41
1
10
116.395066758517
20
24.0644451481894
30
0
41
1
10
116.379747229793
20
24.4060241251159
30
0
41
1
10
116.373412733742
20
24.5475012718422
30
0
41
1
10
116.363294153187
20
24.7736519531458
30
0
41
1
10
116.355731420992
20
24.9428789713543
30
0
41
1
10
116.353188234653
20
24.9998399460205
30
0
41
1
10
116.353181117755
20
24.9999993271785
30
0
0
SPLINE
5
14D
100
AcDbEntity
8
SK1
62
256
6
ByLayer
370
18
48
1
60
0
100
AcDbSpline
70
4
71
3
72
32
73
28
40
0
40
0
40
0
40
0
40
0.0312500000000005
40
0.0312500000000005
40
0.062500000000001
40
0.062500000000001
40
0.0937500000000015
40
0.0937500000000015
40
0.125000000000002
40
0.125000000000002
40
0.156250000000002
40
0.156250000000002
40
0.187500000000003
40
0.187500000000003
40
0.250000000000003
40
0.250000000000003
40
0.312500000000004
40
0.312500000000004
40
0.375000000000004
40
0.375000000000004
40
0.500000000000004
40
0.500000000000004
40
0.625000000000004
40
0.625000000000004
40
0.750000000000003
40
0.750000000000003
40
1
40
1
40
1
40
1
41
1
10
-0.394913799811292
20
-6.32721828439907
30
0
41
1
10
-0.411169702827039
20
-6.34154884003183
30
0
41
1
10
-0.428432689769153
20
-6.35475565889098
30
0
41
1
10
-0.465972582494885
20
-6.37782646793315
30
0
41
1
10
-0.486169045069261
20
-6.38756903357609
30
0
41
1
10
-0.528834802002649
20
-6.40107546113694
30
0
41
1
10
-0.551911827630931
20
-6.40484674033527
30
0
41
1
10
-0.59759647995736
20
-6.4044468991618
30
0
41
1
10
-0.620666657453
20
-6.40029767867216
30
0
41
1
10
-0.663770142860585
20
-6.38592912502901
30
0
41
1
10
-0.684186273479156
20
-6.37571954267724
30
0
41
1
10
-0.72165089236654
20
-6.35216508603165
30
0
41
1
10
-0.739125153205379
20
-6.33860938748939
30
0
41
1
10
-0.788099585621694
20
-6.29500212833881
30
0
41
1
10
-0.815900527777785
20
-6.26261583511771
30
0
41
1
10
-0.866746075133221
20
-6.19452170639306
30
0
41
1
10
-0.889657313576322
20
-6.15866825589436
30
0
41
1
10
-0.931589886782092
20
-6.08609644673814
30
0
41
1
10
-0.950735693127655
20
-6.04915001273997
30
0
41
1
10
-1.00449108222139
20
-5.93690912819588
30
0
41
1
10
-1.03548744556028
20
-5.86023563385643
30
0
41
1
10
-1.09190951976356
20
-5.70451929766094
30
0
41
1
10
-1.11725974479188
20
-5.62540226977166
30
0
41
1
10
-1.1639578554223
20
-5.46549802550047
30
0
41
1
10
-1.18522246232581
20
-5.38492681950908
30
0
41
1
10
-1.24438554784462
20
-5.14161561829974
30
0
41
1
10
-1.27772950254064
20
-4.97729333579235
30
0
41
1
10
-1.30710678118655
20
-4.81115156937966
30
0
0
SPLINE
5
14E
100
AcDbEntity
8
SK1
62
256
6
ByLayer
370
18
48
1
60
0
100
AcDbSpline
70
4
71
3
72
26
73
22
40
0
40
0
40
0
40
0
40
0.250000000000003
40
0.250000000000003
40
0.500000000000005
40
0.500000000000005
40
0.625000000000005
40
0.625000000000005
40
0.750000000000005
40
0.750000000000005
40
0.812500000000005
40
0.812500000000005
40
0.875000000000005
40
0.875000000000005
40
0.906250000000004
40
0.906250000000004
40
0.937500000000002
40
0.937500000000002
40
0.968750000000001
40
0.968750000000001
40
1
40
1
40
1
40
1
41
1
10
-0.200000000000017
20
-7.03415845154649
30
0
41
1
10
-0.200331074104781
20
-6.96758473110336
30
0
41
1
10
-0.201942367211302
20
-6.90082001004905
30
0
41
1
10
-0.208808543904695
20
-6.76684756093874
30
0
41
1
10
-0.213983771375126
20
-6.69957538529093
30
0
41
1
10
-0.226629907857188
20
-6.59846295366884
30
0
41
1
10
-0.231660540619856
20
-6.5647925271341
30
0
41
1
10
-0.244399284272816
20
-6.49761038234263
30
0
41
1
10
-0.252034596555262
20
-6.46403779666735
30
0
41
1
10
-0.267439101060745
20
-6.41481626716131
30
0
41
1
10
-0.273236212730978
20
-6.39857720931931
30
0
41
1
10
-0.287365755981511
20
-6.36675955901481
30
0
41
1
10
-0.295589616969494
20
-6.35108461281911
30
0
41
1
10
-0.312078412290106
20
-6.33025774259011
30
0
41
1
10
-0.318222328461729
20
-6.32386838427428
30
0
41
1
10
-0.332669805034271
20
-6.31363504737973
30
0
41
1
10
-0.34096760945684
20
-6.31005507464133
30
0
41
1
10
-0.357929669282612
20
-6.30825311318185
30
0
41
1
10
-0.366577726601548
20
-6.31005499812113
30
0
41
1
10
-0.381850124236138
20
-6.31686284615012
30
0
41
1
10
-0.388651860853372
20
-6.32169800880939
30
0
41
1
10
-0.394913799811292
20
-6.32721828439907
30
0
0
SPLINE
5
14F
100
AcDbEntity
8
SK1
62
256
6
ByLayer
370
18
48
1
60
0
100
AcDbSpline
70
4
71
3
72
26
73
22
40
0
40
0
40
0
40
0
40
0.0312499999999993
40
0.0312499999999993
40
0.0624999999999985
40
0.0624999999999985
40
0.0937499999999978
40
0.0937499999999978
40
0.124999999999997
40
0.124999999999997
40
0.187499999999996
40
0.187499999999996
40
0.249999999999994
40
0.249999999999994
40
0.374999999999993
40
0.374999999999993
40
0.499999999999992
40
0.499999999999992
40
0.749999999999996
40
0.749999999999996
40
1
40
1
40
1
40
1
41
1
10
-0.394913799811292
20
6.32722135061283
30
0
41
1
10
-0.388622933830277
20
6.3216755700586
30
0
41
1
10
-0.381718055746631
20
6.31678135987394
30
0
41
1
10
-0.366393862507692
20
6.31000229927824
30
0
41
1
10
-0.357848061635252
20
6.30823128443399
30
0
41
1
10
-0.340711445902173
20
6.31011955599649
30
0
41
1
10
-0.33229375517368
20
6.31383663914289
30
0
41
1
10
-0.317887705763468
20
6.32417971455038
30
0
41
1
10
-0.311700702543959
20
6.33067859325854
30
0
41
1
10
-0.295298997789331
20
6.35157922031652
30
0
41
1
10
-0.287085973884672
20
6.36730565066384
30
0
41
1
10
-0.272955344086341
20
6.39930333387281
30
0
41
1
10
-0.267171029982904
20
6.41559723945602
30
0
41
1
10
-0.251809441444351
20
6.4649237465031
30
0
41
1
10
-0.244218821653675
20
6.49843170227936
30
0
41
1
10
-0.231491141946464
20
6.56582630636504
30
0
41
1
10
-0.226489017484681
20
6.59947291062286
30
0
41
1
10
-0.213927703741945
20
6.70027098060299
30
0
41
1
10
-0.20878121269368
20
6.76728109810057
30
0
41
1
10
-0.201940349251345
20
6.90096555412316
30
0
41
1
10
-0.200330815103399
20
6.96763966545905
30
0
41
1
10
-0.200000000000017
20
7.0341612160729
30
0
0
SPLINE
5
150
100
AcDbEntity
8
SK1
62
256
6
ByLayer
370
18
48
1
60
0
100
AcDbSpline
70
4
71
3
72
32
73
28
40
0
40
0
40
0
40
0
40
0.250000000000002
40
0.250000000000002
40
0.375000000000002
40
0.375000000000002
40
0.500000000000002
40
0.500000000000002
40
0.625000000000002
40
0.625000000000002
40
0.687500000000001
40
0.687500000000001
40
0.75
40
0.75
40
0.812499999999999
40
0.812499999999999
40
0.843749999999999
40
0.843749999999999
40
0.874999999999999
40
0.874999999999999
40
0.906249999999999
40
0.906249999999999
40
0.9375
40
0.9375
40
0.96875
40
0.96875
40
1
40
1
40
1
40
1
41
1
10
-1.30710678118655
20
4.81115177825137
30
0
41
1
10
-1.27776094215346
20
4.97711562958051
30
0
41
1
10
-1.24445474088378
20
5.14127607213072
30
0
41
1
10
-1.18536324259091
20
5.38437609466135
30
0
41
1
10
-1.16411410166916
20
5.46491938757273
30
0
41
1
10
-1.11750013847299
20
5.62462479791699
30
0
41
1
10
-1.09222933922737
20
5.70354894528955
30
0
41
1
10
-1.03597558707773
20
5.85897875620597
30
0
41
1
10
-1.00507947149296
20
5.93551305897702
30
0
41
1
10
-0.951537336733935
20
6.04756122695201
30
0
41
1
10
-0.932473247849941
20
6.0844461354001
30
0
41
1
10
-0.890745707221811
20
6.15690597798803
30
0
41
1
10
-0.867964363687918
20
6.19272059446288
30
0
41
1
10
-0.81712123483328
20
6.26114842409615
30
0
41
1
10
-0.789394425858006
20
6.29356478838167
30
0
41
1
10
-0.74105353006513
20
6.33702795492954
30
0
41
1
10
-0.723634935305967
20
6.35074513132108
30
0
41
1
10
-0.685806402556381
20
6.3748637181028
30
0
41
1
10
-0.665603370023774
20
6.38514303600903
30
0
41
1
10
-0.622102468665389
20
6.39998734213981
30
0
41
1
10
-0.599687731218722
20
6.40423336369167
30
0
41
1
10
-0.553245972254786
20
6.40502240224978
30
0
41
1
10
-0.530471361560558
20
6.40147524378972
30
0
41
1
10
-0.486753113655226
20
6.38787241492469
30
0
41
1
10
-0.466607865993751
20
6.37816775067614
30
0
41
1
10
-0.428885771233183
20
6.35508794642672
30
0
41
1
10
-0.411293294227562
20
6.34166087006349
30
0
41
1
10
-0.394913799811292
20
6.32722135062437
30
0
0
SPLINE
5
151
100
AcDbEntity
8
SK1
62
256
6
ByLayer
370
18
48
1
60
0
100
AcDbSpline
70
4
71
3
72
31
73
27
40
0
40
0
40
0
40
0
40
0.125
40
0.125
40
0.25
40
0.25
40
0.3125
40
0.3125
40
0.34375
40
0.34375
40
0.375
40
0.375
40
0.4375
40
0.4375
40
0.5
40
0.5625
40
0.5625
40
0.625
40
0.625
40
0.6875
40
0.6875
40
0.75
40
0.75
40
0.875
40
0.875
40
1
40
1
40
1
40
1
41
1
10
-1.30710678118655
20
-4.81115156937963
30
0
41
1
10
-1.37464191770107
20
-4.42920989906065
30
0
41
1
10
-1.43848245106358
20
-4.04286538655003
30
0
41
1
10
-1.55492025426076
20
-3.25980613133493
30
0
41
1
10
-1.60753025207398
20
-2.86309861159856
30
0
41
1
10
-1.67414509281366
20
-2.25856982386534
30
0
41
1
10
-1.69427910225542
20
-2.05547235697082
30
0
41
1
10
-1.720809668903
20
-1.74818388274395
30
0
41
1
10
-1.72904283683667
20
-1.64528138410392
30
0
41
1
10
-1.74411754427723
20
-1.43972015377184
30
0
41
1
10
-1.75097190728465
20
-1.33692150334679
30
0
41
1
10
-1.76938952483024
20
-1.02847005779316
30
0
41
1
10
-1.77881369580271
20
-0.822761881301403
30
0
41
1
10
-1.79137807494828
20
-0.411189125581387
30
0
41
1
10
-1.79754609551321
20
0.0005418097730967
30
0
41
1
10
-1.79135312802683
20
0.41258213473958
30
0
41
1
10
-1.7787347782095
20
0.824781359776097
30
0
41
1
10
-1.76926982289669
20
1.03095952328064
30
0
41
1
10
-1.74458111668804
20
1.44346492154577
30
0
41
1
10
-1.72931046442918
20
1.65009418594534
30
0
41
1
10
-1.69395938565037
20
2.05879746438538
30
0
41
1
10
-1.67384597566203
20
2.26145078101041
30
0
41
1
10
-1.60730494401747
20
2.86481056040481
30
0
41
1
10
-1.55475828557684
20
3.26095452027206
30
0
41
1
10
-1.43842306954181
20
4.04321174825225
30
0
41
1
10
-1.37462279329503
20
4.42931851789504
30
0
41
1
10
-1.3071067811866
20
4.81115177825134
30
0
0
SPLINE
5
152
100
AcDbEntity
8
SK1
62
256
6
ByLayer
370
13
48
1
60
0
100
AcDbSpline
70
4
71
3
72
49
73
45
40
0
40
0
40
0
40
0
40
0.0208873676185147
40
0.0490706940174628
40
0.0772540204164108
40
0.105437346815359
40
0.133620673214307
40
0.161803999613255
40
0.218170652411151
40
0.246353978810099
40
0.274537305209047
40
0.302720631607995
40
0.330903958006944
40
0.359087284405891
40
0.38727061080484
40
0.415453937203788
40
0.429545600403262
40
0.443637263602736
40
0.45772892680221
40
0.471820590001684
40
0.485912253201158
40
0.492958084800895
40
0.500003916400632
40
0.507049748000369
40
0.514095579600106
40
0.52818724279958
40
0.542278905999054
40
0.556370569198528
40
0.570462232398002
40
0.584553895597476
40
0.612737221996424
40
0.640920548395372
40
0.66910387479432
40
0.697287201193268
40
0.725470527592217
40
0.753653853991165
40
0.781837180390113
40
0.838203833188009
40
0.866387159586957
40
0.894570485985905
40
0.922753812384853
40
0.950937138783801
40
0.979120465182749
40
1
40
1
40
1
40
1
41
1
10
-1.99503997793928
20
21.825268204819
30
0
41
1
10
-1.99503997793931
20
21.825955271099
30
0
41
1
10
-1.99503997793931
20
21.7821406301875
30
0
41
1
10
-1.99503997793928
20
21.5622159608078
30
0
41
1
10
-1.99503997793928
20
21.1516905297669
30
0
41
1
10
-1.99503997793928
20
20.5863476884834
30
0
41
1
10
-1.99503997793928
20
19.8770915138249
30
0
41
1
10
-1.99503997793928
20
18.7508484467722
30
0
41
1
10
-1.99503997793928
20
17.370463175446
30
0
41
1
10
-1.99503997793928
20
15.752471971849
30
0
41
1
10
-1.99503997793928
20
14.4250897201646
30
0
41
1
10
-1.99503997793928
20
12.985830725026
30
0
41
1
10
-1.99503997793928
20
11.4370507512064
30
0
41
1
10
-1.99503997793928
20
9.78067154978811
30
0
41
1
10
-1.99503997793928
20
8.01821733349291
30
0
41
1
10
-1.99503997793928
20
6.46319635117558
30
0
41
1
10
-1.99503997793928
20
5.16749918372619
30
0
41
1
10
-1.99503997793928
20
4.17226659327741
30
0
41
1
10
-1.99503997793928
20
3.15436880408234
30
0
41
1
10
-1.99503997793928
20
2.11640247274801
30
0
41
1
10
-1.99503997793928
20
1.23881045451827
30
0
41
1
10
-1.99503997793928
20
0.531269482892839
30
0
41
1
10
-1.99503997793928
20
7.43625606E-08
30
0
41
1
10
-1.99503997793928
20
-0.531269371094965
30
0
41
1
10
-1.99503997793928
20
-1.23881043770962
30
0
41
1
10
-1.99503997793928
20
-2.11640245296419
30
0
41
1
10
-1.99503997793928
20
-3.15436853749512
30
0
41
1
10
-1.99503997793928
20
-4.17226658860133
30
0
41
1
10
-1.99503997793928
20
-5.16749921349111
30
0
41
1
10
-1.99503997793928
20
-6.46319592062628
30
0
41
1
10
-1.99503997793928
20
-8.01821749841281
30
0
41
1
10
-1.99503997793928
20
-9.78067134571356
30
0
41
1
10
-1.99503997793928
20
-11.4370504129057
30
0
41
1
10
-1.99503997793928
20
-12.9858310385528
30
0
41
1
10
-1.99503997793928
20
-14.4250895103889
30
0
41
1
10
-1.99503997793928
20
-15.7524717843982
30
0
41
1
10
-1.99503997793928
20
-17.370463645283
30
0
41
1
10
-1.99503997793928
20
-18.7508482253859
30
0
41
1
10
-1.99503997793928
20
-19.8770917100388
30
0
41
1
10
-1.99503997793928
20
-20.5863484011186
30
0
41
1
10
-1.99503997793928
20
-21.1516903613971
30
0
41
1
10
-1.99503997793928
20
-21.5622163798915
30
0
41
1
10
-1.99503997793928
20
-21.7821190393401
30
0
41
1
10
-1.99503997793926
20
-21.8259413905576
30
0
41
1
10
-1.99503997793926
20
-21.8252690394632
30
0
0
SPLINE
5
153
100
AcDbEntity
8
SK1
62
256
6
ByLayer
370
18
48
1
60
0
100
AcDbSpline
70
4
71
3
72
49
73
45
40
0
40
0
40
0
40
0
40
0.0160124143833927
40
0.0444830924877737
40
0.0729537705921547
40
0.101424448696536
40
0.129895126800917
40
0.158365804905298
40
0.21530716111406
40
0.243777839218441
40
0.272248517322822
40
0.300719195427203
40
0.329189873531584
40
0.357660551635965
40
0.386131229740346
40
0.414601907844727
40
0.428837246896917
40
0.443072585949108
40
0.457307925001298
40
0.471543264053489
40
0.485778603105679
40
0.492896272631775
40
0.50001394215787
40
0.507131611683965
40
0.51424928121006
40
0.528484620262251
40
0.542719959314442
40
0.556955298366632
40
0.571190637418822
40
0.585425976471013
40
0.613896654575394
40
0.642367332679775
40
0.670838010784156
40
0.699308688888537
40
0.727779366992918
40
0.756250045097299
40
0.78472072320168
40
0.841662079410442
40
0.870132757514823
40
0.898603435619204
40
0.927074113723585
40
0.955544791827966
40
0.984015469932347
40
1
40
1
40
1
40
1
41
1
10
-36.5
20
21.1558714105102
30
0
41
1
10
-36.5
20
21.1495818088761
30
0
41
1
10
-36.5
20
21.1027904755372
30
0
41
1
10
-36.5
20
20.9025884164263
30
0
41
1
10
-36.5
20
20.5018751860753
30
0
41
1
10
-36.5
20
19.9491724688865
30
0
41
1
10
-36.5
20
19.2550489357272
30
0
41
1
10
-36.5
20
18.1505179338899
30
0
41
1
10
-36.5
20
16.8015889830236
30
0
41
1
10
-36.5
20
15.2144138486304
30
0
41
1
10
-36.5
20
13.9146794509994
30
0
41
1
10
-36.5
20
12.5065635742002
30
0
41
1
10
-36.5
20
10.9931136245939
30
0
41
1
10
-36.5
20
9.37743069816284
30
0
41
1
10
-36.5
20
7.66285826183417
30
0
41
1
10
-36.5
20
6.15816931379928
30
0
41
1
10
-36.5
20
4.9049974336175
30
0
41
1
10
-36.5
20
3.94891719908253
30
0
41
1
10
-36.5
20
2.9762147707124
30
0
41
1
10
-36.5
20
1.99071870036127
30
0
41
1
10
-36.5
20
1.16514681856441
30
0
41
1
10
-36.5
20
0.49809871324851
30
0
41
1
10
-36.5
20
2.384194602E-07
30
0
41
1
10
-36.5
20
-0.498098462230757
30
0
41
1
10
-36.5
20
-1.16514702467009
30
0
41
1
10
-36.5
20
-1.99071854296866
30
0
41
1
10
-36.5
20
-2.97621435827224
30
0
41
1
10
-36.5
20
-3.94891745941499
30
0
41
1
10
-36.5
20
-4.90499731091177
30
0
41
1
10
-36.5
20
-6.15816884754437
30
0
41
1
10
-36.5
20
-7.66285852360605
30
0
41
1
10
-36.5
20
-9.37743039030656
30
0
41
1
10
-36.5
20
-10.99311337117
30
0
41
1
10
-36.5
20
-12.5065639108223
30
0
41
1
10
-36.5
20
-13.9146791761935
30
0
41
1
10
-36.5
20
-15.2144137189483
30
0
41
1
10
-36.5
20
-16.8015894462653
30
0
41
1
10
-36.5
20
-18.1505177013547
30
0
41
1
10
-36.5
20
-19.2550491829544
30
0
41
1
10
-36.5
20
-19.9491731575017
30
0
41
1
10
-36.5
20
-20.5018750148337
30
0
41
1
10
-36.5
20
-20.9025888554179
30
0
41
1
10
-36.5
20
-21.1027146285658
30
0
41
1
10
-36.5
20
-21.1495233398958
30
0
41
1
10
-36.5
20
-21.1558385886549
30
0
0
SPLINE
5
154
100
AcDbEntity
8
SK1
62
256
6
ByLayer
370
18
48
1
60
0
100
AcDbSpline
70
4
71
3
72
49
73
45
40
0
40
0
40
0
40
0
40
0.0136745478007302
40
0.0422819410250798
40
0.0708893342494294
40
0.099496727473779
40
0.128104120698128
40
0.156711513922478
40
0.213926300371177
40
0.242533693595527
40
0.271141086819876
40
0.299748480044226
40
0.328355873268576
40
0.356963266492925
40
0.385570659717275
40
0.414178052941625
40
0.428481749553799
40
0.442785446165974
40
0.457089142778149
40
0.471392839390324
40
0.485696536002499
40
0.492848384308586
40
0.500000232614673
40
0.507152080920761
40
0.514303929226848
40
0.528607625839023
40
0.542911322451198
40
0.557215019063372
40
0.571518715675547
40
0.585822412287722
40
0.614429805512072
40
0.643037198736421
40
0.671644591960771
40
0.70025198518512
40
0.72885937840947
40
0.75746677163382
40
0.786074164858169
40
0.843288951306868
40
0.871896344531218
40
0.900503737755568
40
0.929111130979917
40
0.957718524204267
40
0.986325917428616
40
1
40
1
40
1
40
1
41
1
10
-2.19999999999999
20
22.0135803362386
30
0
41
1
10
-2.20000000000002
20
22.0052602891076
30
0
41
1
10
-2.20000000000002
20
21.9553633685694
30
0
41
1
10
-2.19999999999999
20
21.7550269215783
30
0
41
1
10
-2.19999999999999
20
21.3416333570605
30
0
41
1
10
-2.19999999999999
20
20.7725957724454
30
0
41
1
10
-2.19999999999999
20
20.0589162847047
30
0
41
1
10
-2.19999999999999
20
18.9263267207688
30
0
41
1
10
-2.19999999999999
20
17.5367466797247
30
0
41
1
10
-2.19999999999999
20
15.9097478536278
30
0
41
1
10
-2.19999999999999
20
14.5742840575192
30
0
41
1
10
-2.19999999999999
20
13.1259218425112
30
0
41
1
10
-2.19999999999999
20
11.5668148046225
30
0
41
1
10
-2.19999999999999
20
9.89853996914991
30
0
41
1
10
-2.19999999999999
20
8.12208977576526
30
0
41
1
10
-2.19999999999999
20
6.55235660022586
30
0
41
1
10
-2.19999999999999
20
5.24422917335971
30
0
41
1
10
-2.19999999999999
20
4.2375522406841
30
0
41
1
10
-2.19999999999999
20
3.20644372216566
30
0
41
1
10
-2.19999999999999
20
2.15314018801408
30
0
41
1
10
-2.19999999999999
20
1.26034253962158
30
0
41
1
10
-2.19999999999999
20
0.540965390862567
30
0
41
1
10
-2.19999999999999
20
2.64082871E-08
30
0
41
1
10
-2.19999999999999
20
-0.540965319759067
30
0
41
1
10
-2.19999999999999
20
-1.26034245765445
30
0
41
1
10
-2.19999999999999
20
-2.15314020845369
30
0
41
1
10
-2.19999999999999
20
-3.20644349821168
30
0
41
1
10
-2.19999999999999
20
-4.23755215854527
30
0
41
1
10
-2.19999999999999
20
-5.24422924769226
30
0
41
1
10
-2.19999999999999
20
-6.55235618011341
30
0
41
1
10
-2.19999999999999
20
-8.12208991237509
30
0
41
1
10
-2.19999999999999
20
-9.89853979541107
30
0
41
1
10
-2.19999999999999
20
-11.566814441512
30
0
41
1
10
-2.19999999999999
20
-13.1259221492872
30
0
41
1
10
-2.19999999999999
20
-14.574283866752
30
0
41
1
10
-2.19999999999999
20
-15.9097476492909
30
0
41
1
10
-2.19999999999999
20
-17.5367471514895
30
0
41
1
10
-2.19999999999999
20
-18.9263265026412
30
0
41
1
10
-2.19999999999999
20
-20.0589164660072
30
0
41
1
10
-2.19999999999999
20
-20.7725964921017
30
0
41
1
10
-2.19999999999999
20
-21.3416331895302
30
0
41
1
10
-2.19999999999999
20
-21.7550273348429
30
0
41
1
10
-2.19999999999999
20
-21.955362737417
30
0
41
1
10
-2.19999999999996
20
-22.005259464111
30
0
41
1
10
-2.19999999999999
20
-22.013579664317
30
0
0
SPLINE
5
155
100
AcDbEntity
8
SK1
62
256
6
ByLayer
370
13
48
1
60
0
100
AcDbSpline
70
4
71
3
72
21
73
17
40
0
40
0
40
0
40
0
40
0.0502202382711232
40
0.118505743618008
40
0.186791248964893
40
0.255076754311778
40
0.323362259658663
40
0.391647765005548
40
0.528218775699318
40
0.596504281046203
40
0.664789786393088
40
0.733075291739973
40
0.801360797086858
40
0.869646302433743
40
0.937931807780628
40
1
40
1
40
1
40
1
41
1
10
-0.39491379981132
20
21.8654694310119
30
0
41
1
10
-0.394913799811292
20
21.8658585487807
30
0
41
1
10
-0.394913799811292
20
21.8217984976617
30
0
41
1
10
-0.394913799811292
20
21.6019829919256
30
0
41
1
10
-0.394913799811292
20
21.1908660117695
30
0
41
1
10
-0.394913799811292
20
20.6247611340725
30
0
41
1
10
-0.394913799811292
20
19.9145926563567
30
0
41
1
10
-0.394913799811292
20
18.7870406318774
30
0
41
1
10
-0.394913799811292
20
17.4047589502432
30
0
41
1
10
-0.394913799811292
20
15.7849099352292
30
0
41
1
10
-0.394913799811292
20
14.4558608746283
30
0
41
1
10
-0.394913799811292
20
13.014724351229
30
0
41
1
10
-0.394913799811292
20
11.4638144327396
30
0
41
1
10
-0.394913799811292
20
9.80498177095927
30
0
41
1
10
-0.394913799811292
20
8.09321828866484
30
0
41
1
10
-0.394913799811292
20
6.90653972901183
30
0
41
1
10
-0.394913799811292
20
6.32722135061283
30
0
0
SPLINE
5
156
100
AcDbEntity
8
SK1
62
256
6
ByLayer
370
13
48
1
60
0
100
AcDbSpline
70
4
71
3
72
21
73
17
40
0
40
0
40
0
40
0
40
0.0620686612866094
40
0.130354571925119
40
0.198640482563629
40
0.266926393202138
40
0.335212303840648
40
0.403498214479157
40
0.471784125117667
40
0.608355946394686
40
0.676641857033196
40
0.744927767671705
40
0.813213678310215
40
0.881499588948725
40
0.949785499587234
40
1
40
1
40
1
40
1
41
1
10
-0.394913799811292
20
-6.32721828439907
30
0
41
1
10
-0.394913799811292
20
-6.90653762641452
30
0
41
1
10
-0.394913799811292
20
-8.09321756934099
30
0
41
1
10
-0.394913799811292
20
-9.80498157314145
30
0
41
1
10
-0.394913799811292
20
-11.4638140893219
30
0
41
1
10
-0.394913799811292
20
-13.0147246633635
30
0
41
1
10
-0.394913799811292
20
-14.4558606687731
30
0
41
1
10
-0.394913799811292
20
-15.7849097442956
30
0
41
1
10
-0.394913799811292
20
-17.4047594204778
30
0
41
1
10
-0.394913799811292
20
-18.7870404111631
30
0
41
1
10
-0.394913799811292
20
-19.9145928494951
30
0
41
1
10
-0.394913799811292
20
-20.6247618481558
30
0
41
1
10
-0.394913799811292
20
-21.1908658435729
30
0
41
1
10
-0.394913799811292
20
-21.6019834098091
30
0
41
1
10
-0.394913799811292
20
-21.8217921024319
30
0
41
1
10
-0.394913799811292
20
-21.8658541734606
30
0
41
1
10
-0.394913799811263
20
-21.8654696410804
30
0
0
SPLINE
5
157
100
AcDbEntity
8
SK1
62
256
6
ByLayer
370
18
48
1
60
0
100
AcDbSpline
70
4
71
3
72
10
73
6
40
0
40
0
40
0
40
0
40
0.5
40
0.5
40
1
40
1
40
1
40
1
41
1
10
-0.200000000000017
20
7.08540004767101
30
0
41
1
10
-0.156583385644495
20
6.99642670418811
30
0
41
1
10
-0.120283283599946
20
6.90513296551012
30
0
41
1
10
-0.0550209890645874
20
6.71973937652893
30
0
41
1
10
-0.0262457922467547
20
6.62558864937205
30
0
41
1
10
1.99E-13
20
6.53032573994014
30
0
0
SPLINE
5
158
100
AcDbEntity
8
SK1
62
256
6
ByLayer
370
18
48
1
60
0
100
AcDbSpline
70
4
71
3
72
10
73
6
40
0
40
0
40
0
40
0
40
0.5
40
0.5
40
1
40
1
40
1
40
1
41
1
10
0
20
-6.53032259051451
30
0
41
1
10
-0.026245814054306
20
-6.62558556045749
30
0
41
1
10
-0.0550210228789467
20
-6.71973635662815
30
0
41
1
10
-0.120283318990403
20
-6.90513009808126
30
0
41
1
10
-0.156583410983217
20
-6.99642392008917
30
0
41
1
10
-0.199999999995868
20
-7.08539735389175
30
0
0
SPLINE
5
159
100
AcDbEntity
8
SK1
62
256
6
ByLayer
370
18
48
1
60
0
100
AcDbSpline
70
4
71
3
72
49
73
45
40
0
40
0
40
0
40
0
40
0.0205324788553934
40
0.0487330564408596
40
0.0769336340263259
40
0.105134211611792
40
0.133334789197259
40
0.161535366782725
40
0.217936521953658
40
0.246137099539124
40
0.27433767712459
40
0.302538254710057
40
0.330738832295523
40
0.358939409880989
40
0.387139987466456
40
0.415340565051922
40
0.429440853844655
40
0.443541142637388
40
0.457641431430121
40
0.471741720222854
40
0.485842009015588
40
0.492892153411954
40
0.499942297808321
40
0.506992442204687
40
0.514042586601054
40
0.528142875393787
40
0.54224316418652
40
0.556343452979253
40
0.570443741771987
40
0.58454403056472
40
0.612744608150186
40
0.640945185735652
40
0.669145763321119
40
0.697346340906585
40
0.725546918492051
40
0.753747496077517
40
0.781948073662984
40
0.838349228833916
40
0.866549806419383
40
0.894750384004849
40
0.922950961590315
40
0.951151539175782
40
0.979352116761248
40
1
40
1
40
1
40
1
41
1
10
-38
20
-20.2928923500002
30
0
41
1
10
-38
20
-20.2928749486276
30
0
41
1
10
-38
20
-20.2516073002075
30
0
41
1
10
-38
20
-20.0459066437045
30
0
41
1
10
-38
20
-19.6579362347721
30
0
41
1
10
-38
20
-19.1216505379956
30
0
41
1
10
-38
20
-18.4471799717542
30
0
41
1
10
-38
20
-17.3708466567051
30
0
41
1
10
-38
20
-16.0627718728323
30
0
41
1
10
-38
20
-14.5156181768617
30
0
41
1
10
-38
20
-13.2517907463501
30
0
41
1
10
-38
20
-11.8841222937699
30
0
41
1
10
-38
20
-10.4165562193454
30
0
41
1
10
-38
20
-8.853726723139
30
0
41
1
10
-38
20
-7.20134092284707
30
0
41
1
10
-38
20
-5.76201911469511
30
0
41
1
10
-38
20
-4.56407656073523
30
0
41
1
10
-38
20
-3.65884583736087
30
0
41
1
10
-38
20
-2.74483905839463
30
0
41
1
10
-38
20
-1.82748828650284
30
0
41
1
10
-38
20
-1.0694776760397
30
0
41
1
10
-38
20
-0.455018198724417
30
0
41
1
10
-38
20
4.514861303E-07
30
0
41
1
10
-38
20
0.455018630552104
30
0
41
1
10
-38
20
1.06947718042707
30
0
41
1
10
-38
20
1.82748862261295
30
0
41
1
10
-38
20
2.74483966025932
30
0
41
1
10
-38
20
3.65884523285217
30
0
41
1
10
-38
20
4.56407688146012
30
0
41
1
10
-38
20
5.76201962732216
30
0
41
1
10
-38
20
7.20134053529
30
0
41
1
10
-38
20
8.85372716578041
30
0
41
1
10
-38
20
10.4165563625368
30
0
41
1
10
-38
20
11.884121927153
30
0
41
1
10
-38
20
13.2517911056129
30
0
41
1
10
-38
20
14.5156182315173
30
0
41
1
10
-38
20
16.0627714181563
30
0
41
1
10
-38
20
17.3708469037194
30
0
41
1
10
-38
20
18.4471796582741
30
0
41
1
10
-38
20
19.121649880576
30
0
41
1
10
-38
20
19.6579364097435
30
0
41
1
10
-38
20
20.0459061788578
30
0
41
1
10
-38
20
20.2519151937032
30
0
41
1
10
-38
20
20.2930697807637
30
0
41
1
10
-38
20
20.2928909190321
30
0
0
SPLINE
5
15A
100
AcDbEntity
8
SK1
62
256
6
ByLayer
370
18
48
1
60
0
100
AcDbSpline
70
4
71
3
72
8
73
4
40
0
40
0
40
0
40
0
40
1
40
1
40
1
40
1
41
0.980125716641416
10
-0.200000000000002
20
-7.05390045164615
30
0
41
0.980125716641416
10
-0.200000000000002
20
-7.04732170563537
30
0
41
0.980125716641416
10
-0.200000000000002
20
-7.04074103874897
30
0
41
0.980125716641416
10
-0.200000000000002
20
-7.03415845155804
30
0
0
SPLINE
5
15B
100
AcDbEntity
8
1
62
256
6
ByLayer
370
18
48
1
60
0
100
AcDbSpline
70
4
71
3
72
24
73
20
40
0
40
0
40
0
40
0
40
0.0625
40
0.0625
40
0.125
40
0.125
40
0.1875
40
0.1875
40
0.25
40
0.25
40
0.500000000000001
40
0.500000000000001
40
0.750000000000001
40
0.750000000000001
40
0.812500000000001
40
0.812500000000001
40
0.875000000000001
40
0.875000000000001
40
1
40
1
40
1
40
1
41
1
10
119.8
20
-25
30
0
41
1
10
119.774048290001
20
-25
30
0
41
1
10
119.748072494525
20
-24.9959539661956
30
0
41
1
10
119.696294663552
20
-24.979785834159
30
0
41
1
10
119.67047467658
20
-24.9676642800024
30
0
41
1
10
119.619077196376
20
-24.9353406516131
30
0
41
1
10
119.593473337034
20
-24.9151099909454
30
0
41
1
10
119.542782640934
20
-24.8667118823448
30
0
41
1
10
119.517690955492
20
-24.8385520280099
30
0
41
1
10
119.393748975234
20
-24.6781859213011
30
0
41
1
10
119.299405524499
20
-24.4875152016746
30
0
41
1
10
119.127165078734
20
-23.9835988413703
30
0
41
1
10
119.049185877754
20
-23.6703625040782
30
0
41
1
10
118.967598559766
20
-23.1998085301681
30
0
41
1
10
118.952085013635
20
-23.1017317719012
30
0
41
1
10
118.922856569527
20
-22.8975206840256
30
0
41
1
10
118.909169520806
20
-22.7915642776686
30
0
41
1
10
118.871263215682
20
-22.4628618516339
30
0
41
1
10
118.850136326921
20
-22.2290063317091
30
0
41
1
10
118.83407417371
20
-21.9803412596108
30
0
0
SPLINE
5
15C
100
AcDbEntity
8
1
62
256
6
ByLayer
370
18
48
1
60
0
100
AcDbSpline
70
4
71
3
72
29
73
25
40
0
40
0
40
0
40
0
40
0.250000000000039
40
0.250000000000039
40
0.500000000000077
40
0.625000000000093
40
0.625000000000093
40
0.750000000000109
40
0.750000000000109
40
0.812500000000125
40
0.812500000000125
40
0.843750000000131
40
0.843750000000131
40
0.859375000000122
40
0.859375000000122
40
0.875000000000113
40
0.875000000000113
40
0.890625000000104
40
0.890625000000104
40
0.906250000000096
40
0.906250000000096
40
0.93750000000007
40
0.93750000000007
40
1
40
1
40
1
40
1
41
1
10
124.3245
20
-7.37436329715158
30
0
41
1
10
124.3245
20
-7.31940641055113
30
0
41
1
10
124.324032399932
20
-7.26449631457615
30
0
41
1
10
124.321844723872
20
-7.15482541361575
30
0
41
1
10
124.319316428687
20
-7.07267512182753
30
0
41
1
10
124.314310421224
20
-6.99088027341219
30
0
41
1
10
124.309978969288
20
-6.93650712811885
30
0
41
1
10
124.307406823544
20
-6.90939960539265
30
0
41
1
10
124.301580753402
20
-6.86948409506101
30
0
41
1
10
124.299363093008
20
-6.85625551520161
30
0
41
1
10
124.294437082563
20
-6.83706853659669
30
0
41
1
10
124.29259372161
20
-6.83082493458861
30
0
41
1
10
124.288543171497
20
-6.82243858632879
30
0
41
1
10
124.286963273436
20
-6.81977404820722
30
0
41
1
10
124.282840776615
20
-6.81622276581155
30
0
41
1
10
124.280153150168
20
-6.81579903545199
30
0
41
1
10
124.275457159849
20
-6.81847965298334
30
0
41
1
10
124.273463656978
20
-6.82104485592936
30
0
41
1
10
124.270073900227
20
-6.82643038646273
30
0
41
1
10
124.268601361044
20
-6.82940234054834
30
0
41
1
10
124.264535543431
20
-6.83857501600215
30
0
41
1
10
124.262285393521
20
-6.84504506658334
30
0
41
1
10
124.256068674689
20
-6.86469526426194
30
0
41
1
10
124.252660481926
20
-6.87818615996463
30
0
41
1
10
124.2495
20
-6.89174587477069
30
0
0
SPLINE
5
15D
100
AcDbEntity
8
1
62
256
6
ByLayer
370
18
48
1
60
0
100
AcDbSpline
70
4
71
3
72
12
73
8
40
0
40
0
40
0
40
0
40
0.500000000000002
40
0.500000000000002
40
0.750000000000001
40
0.750000000000001
40
1
40
1
40
1
40
1
41
1
10
124.2495
20
-9.57174589786155
30
0
41
1
10
124.273449874967
20
-9.41580651238857
30
0
41
1
10
124.291067937376
20
-9.25978962707771
30
0
41
1
10
124.310080956516
20
-9.02558110117724
30
0
41
1
10
124.315133100644
20
-8.94748237441928
30
0
41
1
10
124.322320194146
20
-8.79123244662043
30
0
41
1
10
124.3245
20
-8.71323815752814
30
0
41
1
10
124.3245
20
-8.63551555823631
30
0
0
SPLINE
5
15E
100
AcDbEntity
8
1
62
256
6
ByLayer
370
18
48
1
60
0
100
AcDbSpline
70
4
71
3
72
8
73
4
40
0
40
0
40
0
40
0
40
1
40
1
40
1
40
1
41
1
10
124.2495
20
-9.5717458978616
30
0
41
1
10
124.086430061288
20
-10.6335061812588
30
0
41
1
10
123.869706220596
20
-11.680608826154
30
0
41
1
10
123.6055
20
-12.7147398224982
30
0
0
SPLINE
5
15F
100
AcDbEntity
8
1
62
256
6
ByLayer
370
18
48
1
60
0
100
AcDbSpline
70
4
71
3
72
28
73
24
40
0
40
0
40
0
40
0
40
0.250000000000001
40
0.250000000000001
40
0.500000000000002
40
0.500000000000002
40
0.625000000000004
40
0.625000000000004
40
0.750000000000006
40
0.750000000000006
40
0.812500000000005
40
0.812500000000005
40
0.843750000000004
40
0.843750000000004
40
0.875000000000003
40
0.875000000000003
40
0.906250000000002
40
0.906250000000002
40
0.937500000000002
40
0.937500000000002
40
0.968750000000001
40
0.968750000000001
40
1
40
1
40
1
40
1
41
1
10
123.6055
20
-12.7147398224983
30
0
41
1
10
123.588576985242
20
-12.780978286048
30
0
41
1
10
123.573778640626
20
-12.8469679361494
30
0
41
1
10
123.548417493048
20
-12.9784405235404
30
0
41
1
10
123.537797636014
20
-13.0439284447331
30
0
41
1
10
123.526574325012
20
-13.1416448640677
30
0
41
1
10
123.523621888495
20
-13.1741963552597
30
0
41
1
10
123.520256070083
20
-13.2387663711833
30
0
41
1
10
123.51977379898
20
-13.2704500628859
30
0
41
1
10
123.522833074229
20
-13.316149061355
30
0
41
1
10
123.524493209777
20
-13.3311487893485
30
0
41
1
10
123.528800694706
20
-13.3525397666482
30
0
41
1
10
123.53053112703
20
-13.3594094946838
30
0
41
1
10
123.53487591584
20
-13.3723716083384
30
0
41
1
10
123.53751759955
20
-13.3785400595507
30
0
41
1
10
123.544135407032
20
-13.3891873548664
30
0
41
1
10
123.548160280846
20
-13.3937178346547
30
0
41
1
10
123.557970832039
20
-13.3993434501822
30
0
41
1
10
123.563796586259
20
-13.4002822552637
30
0
41
1
10
123.576048721416
20
-13.397708888386
30
0
41
1
10
123.582429655099
20
-13.3942878530467
30
0
41
1
10
123.594489804997
20
-13.3851889123082
30
0
41
1
10
123.600109447799
20
-13.379669841263
30
0
41
1
10
123.6055
20
-13.3736110174262
30
0
0
SPLINE
5
160
100
AcDbEntity
8
1
62
256
6
ByLayer
370
18
48
1
60
0
100
AcDbSpline
70
4
71
3
72
8
73
4
40
0
40
0
40
0
40
0
40
1
40
1
40
1
40
1
41
1
10
123.6055
20
-13.3736110174262
30
0
41
1
10
123.822529300301
20
-13.1296763983234
30
0
41
1
10
124.037366545293
20
-12.8831983032508
30
0
41
1
10
124.2495
20
-12.6335829581343
30
0
0
SPLINE
5
161
100
AcDbEntity
8
1
62
256
6
ByLayer
370
18
48
1
60
0
100
AcDbSpline
70
4
71
3
72
18
73
14
40
0
40
0
40
0
40
0
40
0.24999999999997
40
0.24999999999997
40
0.499999999999939
40
0.499999999999939
40
0.624999999999955
40
0.624999999999955
40
0.74999999999997
40
0.74999999999997
40
0.874999999999985
40
0.874999999999985
40
1
40
1
40
1
40
1
41
1
10
124.3245
20
-12.742142853187
30
0
41
1
10
124.3245
20
-12.7245176993835
30
0
41
1
10
124.32391229198
20
-12.7071717485019
30
0
41
1
10
124.32075290832
20
-12.6734413846413
30
0
41
1
10
124.31823321225
20
-12.6567428508801
30
0
41
1
10
124.311139893004
20
-12.6345466094668
30
0
41
1
10
124.30817714617
20
-12.6275421986266
30
0
41
1
10
124.300230880857
20
-12.6160961548194
30
0
41
1
10
124.295135545578
20
-12.6116545852138
30
0
41
1
10
124.282451033099
20
-12.6091667968876
30
0
41
1
10
124.275264485858
20
-12.6114358989539
30
0
41
1
10
124.261672465469
20
-12.620389410448
30
0
41
1
10
124.255362671196
20
-12.6266844107273
30
0
41
1
10
124.2495
20
-12.6335829581343
30
0
0
SPLINE
5
162
100
AcDbEntity
8
1
62
256
6
ByLayer
370
18
48
1
60
0
100
AcDbSpline
70
4
71
3
72
12
73
8
40
0
40
0
40
0
40
0
40
0.5
40
0.5
40
0.75
40
0.75
40
1
40
1
40
1
40
1
41
1
10
124.2495
20
-13.6144050421731
30
0
41
1
10
124.27125461873
20
-13.5414192630682
30
0
41
1
10
124.288718680672
20
-13.4683926299573
30
0
41
1
10
124.308511489959
20
-13.3587664318823
30
0
41
1
10
124.313971523825
20
-13.3223883770075
30
0
41
1
10
124.321917021225
20
-13.2505240515009
30
0
41
1
10
124.3245
20
-13.2149528282924
30
0
41
1
10
124.3245
20
-13.1800854813312
30
0
0
SPLINE
5
163
100
AcDbEntity
8
1
62
256
6
ByLayer
370
18
48
1
60
0
100
AcDbSpline
70
4
71
3
72
8
73
4
40
0
40
0
40
0
40
0
40
1
40
1
40
1
40
1
41
1
10
124.2495
20
-13.6144050421731
30
0
41
1
10
124.052909503293
20
-14.2739574225089
30
0
41
1
10
123.837557523584
20
-14.925268829173
30
0
41
1
10
123.6055
20
-15.5692423325785
30
0
0
SPLINE
5
164
100
AcDbEntity
8
1
62
256
6
ByLayer
370
18
48
1
60
0
100
AcDbSpline
70
4
71
3
72
26
73
22
40
0
40
0
40
0
40
0
40
0.25
40
0.25
40
0.499999999999999
40
0.499999999999999
40
0.624999999999992
40
0.624999999999992
40
0.687499999999988
40
0.687499999999988
40
0.749999999999985
40
0.749999999999985
40
0.812499999999981
40
0.812499999999981
40
0.843749999999985
40
0.843749999999985
40
0.874999999999989
40
0.874999999999989
40
0.937499999999995
40
0.937499999999995
40
1
40
1
40
1
40
1
41
1
10
123.6055
20
-15.5692423325785
30
0
41
1
10
123.587643156855
20
-15.6187961400232
30
0
41
1
10
123.572015153518
20
-15.6685126312754
30
0
41
1
10
123.545768365898
20
-15.7666601579881
30
0
41
1
10
123.534984812796
20
-15.8153022796541
30
0
41
1
10
123.524406680009
20
-15.8872728105717
30
0
41
1
10
123.521852859371
20
-15.9110436505431
30
0
41
1
10
123.520418804176
20
-15.9452806611476
30
0
41
1
10
123.520340103259
20
-15.9564850710971
30
0
41
1
10
123.521316572032
20
-15.9783092712763
30
0
41
1
10
123.522379144929
20
-15.9889959860532
30
0
41
1
10
123.526211670088
20
-16.0087892667801
30
0
41
1
10
123.528987116134
20
-16.0180751916217
30
0
41
1
10
123.535310298849
20
-16.02971899791
30
0
41
1
10
123.537755477579
20
-16.0331628737239
30
0
41
1
10
123.543557893523
20
-16.0388720525554
30
0
41
1
10
123.546935275676
20
-16.0411137199879
30
0
41
1
10
123.558257275307
20
-16.0451424463261
30
0
41
1
10
123.567713171199
20
-16.0439723663318
30
0
41
1
10
123.586740793639
20
-16.0351534278306
30
0
41
1
10
123.596375598404
20
-16.0278428099313
30
0
41
1
10
123.605500000001
20
-16.0193324895505
30
0
0
SPLINE
5
165
100
AcDbEntity
8
1
62
256
6
ByLayer
370
18
48
1
60
0
100
AcDbSpline
70
4
71
3
72
8
73
4
40
0
40
0
40
0
40
0
40
1
40
1
40
1
40
1
41
1
10
123.6055
20
-16.019332489549
30
0
41
1
10
123.820739969169
20
-15.8185783823277
30
0
41
1
10
124.035436607666
20
-15.6170527580397
30
0
41
1
10
124.2495
20
-15.4146279387559
30
0
0
SPLINE
5
166
100
AcDbEntity
8
1
62
256
6
ByLayer
370
18
48
1
60
0
100
AcDbSpline
70
4
71
3
72
20
73
16
40
0
40
0
40
0
40
0
40
0.249999999999939
40
0.249999999999939
40
0.374999999999949
40
0.374999999999949
40
0.499999999999959
40
0.499999999999959
40
0.624999999999969
40
0.624999999999969
40
0.74999999999998
40
0.74999999999998
40
0.87499999999999
40
0.87499999999999
40
1
40
1
40
1
40
1
41
1
10
124.32450000001
20
-15.4758747057858
30
0
41
1
10
124.324500000011
20
-15.4622480685125
30
0
41
1
10
124.323720006666
20
-15.4489518311854
30
0
41
1
10
124.32056082149
20
-15.4305545407478
30
0
41
1
10
124.319177438201
20
-15.424704653761
30
0
41
1
10
124.315460180535
20
-15.4138219207665
30
0
41
1
10
124.313094294282
20
-15.4087403605802
30
0
41
1
10
124.307107301193
20
-15.4003169334065
30
0
41
1
10
124.30339385025
20
-15.39688473922
30
0
41
1
10
124.294518318095
20
-15.3929059165863
30
0
41
1
10
124.289273781814
20
-15.3923980908058
30
0
41
1
10
124.278148020212
20
-15.3946418601521
30
0
41
1
10
124.272240259158
20
-15.3973541368364
30
0
41
1
10
124.26073610745
20
-15.4047199434933
30
0
41
1
10
124.254995241478
20
-15.4094314721799
30
0
41
1
10
124.2495
20
-15.4146279387547
30
0
0
SPLINE
5
167
100
AcDbEntity
8
1
62
256
6
ByLayer
370
18
48
1
60
0
100
AcDbSpline
70
4
71
3
72
12
73
8
40
0
40
0
40
0
40
0
40
0.5
40
0.5
40
0.75
40
0.75
40
1
40
1
40
1
40
1
41
1
10
124.2495
20
-16.0912167009135
30
0
41
1
10
124.270749376286
20
-16.0375053187211
30
0
41
1
10
124.288114006892
20
-15.984092352797
30
0
41
1
10
124.308033340519
20
-15.9044186364489
30
0
41
1
10
124.313647104952
20
-15.8778062422475
30
0
41
1
10
124.321857566803
20
-15.8254042330729
30
0
41
1
10
124.3245
20
-15.7998432734029
30
0
41
1
10
124.3245
20
-15.7754639616859
30
0
0
SPLINE
5
168
100
AcDbEntity
8
1
62
256
6
ByLayer
370
18
48
1
60
0
100
AcDbSpline
70
4
71
3
72
8
73
4
40
0
40
0
40
0
40
0
40
1
40
1
40
1
40
1
41
1
10
124.2495
20
-16.0912167009135
30
0
41
1
10
124.044943589855
20
-16.6082675252431
30
0
41
1
10
123.829910422179
20
-17.1194546037458
30
0
41
1
10
123.6055
20
-17.6253933182575
30
0
0
SPLINE
5
169
100
AcDbEntity
8
1
62
256
6
ByLayer
370
18
48
1
60
0
100
AcDbSpline
70
4
71
3
72
24
73
20
40
0
40
0
40
0
40
0
40
0.25000000000001
40
0.25000000000001
40
0.500000000000021
40
0.500000000000021
40
0.625000000000026
40
0.625000000000026
40
0.687500000000022
40
0.687500000000022
40
0.750000000000018
40
0.750000000000018
40
0.812500000000013
40
0.812500000000013
40
0.875000000000009
40
0.875000000000009
40
0.937500000000004
40
0.937500000000004
40
1
40
1
40
1
40
1
41
1
10
123.6055
20
-17.6253933182575
30
0
41
1
10
123.587105291382
20
-17.6668646329223
30
0
41
1
10
123.571091296136
20
-17.7081105915473
30
0
41
1
10
123.54408524399
20
-17.7901074712468
30
0
41
1
10
123.532951748391
20
-17.8312335257821
30
0
41
1
10
123.523038409465
20
-17.8895338130816
30
0
41
1
10
123.520831971449
20
-17.9086042462075
30
0
41
1
10
123.520383997625
20
-17.9355470514791
30
0
41
1
10
123.520719822513
20
-17.944158775789
30
0
41
1
10
123.522734725193
20
-17.9603661394203
30
0
41
1
10
123.524438115292
20
-17.9680544303653
30
0
41
1
10
123.529778126137
20
-17.9813298323849
30
0
41
1
10
123.533454559674
20
-17.9870033162871
30
0
41
1
10
123.543404949431
20
-17.9947235523583
30
0
41
1
10
123.549750260256
20
-17.9966617979704
30
0
41
1
10
123.564259028938
20
-17.9956830047328
30
0
41
1
10
123.572454592052
20
-17.9927821279149
30
0
41
1
10
123.588892883095
20
-17.9837225694705
30
0
41
1
10
123.59733722664
20
-17.9775187338988
30
0
41
1
10
123.6055
20
-17.9705056015301
30
0
0
SPLINE
5
16A
100
AcDbEntity
8
1
62
256
6
ByLayer
370
18
48
1
60
0
100
AcDbSpline
70
4
71
3
72
8
73
4
40
0
40
0
40
0
40
0
40
1
40
1
40
1
40
1
41
1
10
123.6055
20
-17.9705056015292
30
0
41
1
10
123.820331960648
20
-17.7859304687195
30
0
41
1
10
124.035005737834
20
-17.6011103791873
30
0
41
1
10
124.2495
20
-17.4160122997164
30
0
0
SPLINE
5
16B
100
AcDbEntity
8
1
62
256
6
ByLayer
370
18
48
1
60
0
100
AcDbSpline
70
4
71
3
72
16
73
12
40
0
40
0
40
0
40
0
40
0.249999999999985
40
0.249999999999985
40
0.499999999999969
40
0.499999999999969
40
0.624999999999973
40
0.624999999999973
40
0.749999999999978
40
0.749999999999978
40
1
40
1
40
1
40
1
41
1
10
124.324500000002
20
-17.4517920695657
30
0
41
1
10
124.324500000002
20
-17.440367383973
30
0
41
1
10
124.323574330635
20
-17.429625754431
30
0
41
1
10
124.318509386911
20
-17.4105343684028
30
0
41
1
10
124.314345247719
20
-17.4023667097376
30
0
41
1
10
124.304383043625
20
-17.3952686195636
30
0
41
1
10
124.300413994865
20
-17.3938031093933
30
0
41
1
10
124.291511208776
20
-17.3931584348768
30
0
41
1
10
124.286527021205
20
-17.3939796046377
30
0
41
1
10
124.271023676201
20
-17.3994427929495
30
0
41
1
10
124.260027379858
20
-17.4069276847059
30
0
41
1
10
124.2495
20
-17.4160122997158
30
0
0
SPLINE
5
16C
100
AcDbEntity
8
1
62
256
6
ByLayer
370
18
48
1
60
0
100
AcDbSpline
70
4
71
3
72
12
73
8
40
0
40
0
40
0
40
0
40
0.499999999999978
40
0.499999999999978
40
0.749999999999989
40
0.749999999999989
40
1
40
1
40
1
40
1
41
1
10
124.2495
20
-17.9353083296312
30
0
41
1
10
124.270400739195
20
-17.8914091058621
30
0
41
1
10
124.287982247592
20
-17.8472681461818
30
0
41
1
10
124.307957251677
20
-17.782864662175
30
0
41
1
10
124.313571379324
20
-17.7616176300328
30
0
41
1
10
124.3218661042
20
-17.7197509393174
30
0
41
1
10
124.3245
20
-17.6996254052808
30
0
41
1
10
124.3245
20
-17.6809876861899
30
0
0
SPLINE
5
16D
100
AcDbEntity
8
1
62
256
6
ByLayer
370
18
48
1
60
0
100
AcDbSpline
70
4
71
3
72
8
73
4
40
0
40
0
40
0
40
0
40
1
40
1
40
1
40
1
41
1
10
124.2495
20
-17.9353083296312
30
0
41
1
10
124.04140572646
20
-18.3723826835176
30
0
41
1
10
123.826510348702
20
-18.8049585330932
30
0
41
1
10
123.6055
20
-19.2334897125276
30
0
0
SPLINE
5
16E
100
AcDbEntity
8
1
62
256
6
ByLayer
370
18
48
1
60
0
100
AcDbSpline
70
4
71
3
72
20
73
16
40
0
40
0
40
0
40
0
40
0.25
40
0.25
40
0.5
40
0.5
40
0.624999999999986
40
0.624999999999986
40
0.749999999999972
40
0.749999999999972
40
0.812499999999965
40
0.812499999999965
40
0.874999999999958
40
0.874999999999958
40
1
40
1
40
1
40
1
41
1
10
123.6055
20
-19.2334897125276
30
0
41
1
10
123.58665178262
20
-19.2700357334337
30
0
41
1
10
123.570003929807
20
-19.3067132975129
30
0
41
1
10
123.54235401958
20
-19.3786299644915
30
0
41
1
10
123.531260620271
20
-19.41370522735
30
0
41
1
10
123.521945970035
20
-19.463435638372
30
0
41
1
10
123.520163421698
20
-19.4791290996216
30
0
41
1
10
123.520937540741
20
-19.5076437025055
30
0
41
1
10
123.523531889678
20
-19.5204133683111
30
0
41
1
10
123.533361056321
20
-19.5329477804308
30
0
41
1
10
123.53766255767
20
-19.5359341976593
30
0
41
1
10
123.548184540343
20
-19.538597526839
30
0
41
1
10
123.554395521324
20
-19.5382783252421
30
0
41
1
10
123.574973031665
20
-19.5324844686063
30
0
41
1
10
123.590454765483
20
-19.5225299905646
30
0
41
1
10
123.6055
20
-19.5100772776503
30
0
0
SPLINE
5
16F
100
AcDbEntity
8
1
62
256
6
ByLayer
370
18
48
1
60
0
100
AcDbSpline
70
4
71
3
72
8
73
4
40
0
40
0
40
0
40
0
40
1
40
1
40
1
40
1
41
1
10
123.6055
20
-19.5100772776499
30
0
41
1
10
123.820203979195
20
-19.3323700434185
30
0
41
1
10
124.034872069188
20
-19.1546049768551
30
0
41
1
10
124.2495
20
-18.9767752987127
30
0
0
SPLINE
5
170
100
AcDbEntity
8
1
62
256
6
ByLayer
370
18
48
1
60
0
100
AcDbSpline
70
4
71
3
72
16
73
12
40
0
40
0
40
0
40
0
40
0.249999999999916
40
0.249999999999916
40
0.499999999999831
40
0.499999999999831
40
0.624999999999832
40
0.624999999999832
40
0.749999999999834
40
0.749999999999834
40
1
40
1
40
1
40
1
41
1
10
124.3245
20
-18.9946525728947
30
0
41
1
10
124.3245
20
-18.984793931125
30
0
41
1
10
124.323364700352
20
-18.9757224015114
30
0
41
1
10
124.317618439847
20
-18.9610733983106
30
0
41
1
10
124.312832257615
20
-18.9554349467432
30
0
41
1
10
124.302386234609
20
-18.9521189582845
30
0
41
1
10
124.298459762373
20
-18.9518627336725
30
0
41
1
10
124.289703529877
20
-18.9530805456519
30
0
41
1
10
124.284909287438
20
-18.9545789497624
30
0
41
1
10
124.270258456793
20
-18.9611060017641
30
0
41
1
10
124.25972922897
20
-18.968299885058
30
0
41
1
10
124.2495
20
-18.9767752987124
30
0
0
SPLINE
5
171
100
AcDbEntity
8
1
62
256
6
ByLayer
370
18
48
1
60
0
100
AcDbSpline
70
4
71
3
72
12
73
8
40
0
40
0
40
0
40
0
40
0.500000000000005
40
0.500000000000005
40
0.750000000000002
40
0.750000000000002
40
1
40
1
40
1
40
1
41
1
10
124.2495
20
-19.3919878841886
30
0
41
1
10
124.27010032095
20
-19.354338633359
30
0
41
1
10
124.287778739477
20
-19.3163913811337
30
0
41
1
10
124.307880398042
20
-19.2617098394659
30
0
41
1
10
124.313525962551
20
-19.2438253173232
30
0
41
1
10
124.321860478618
20
-19.2090213858311
30
0
41
1
10
124.3245
20
-19.1924069066608
30
0
41
1
10
124.3245
20
-19.1775976034379
30
0
0
SPLINE
5
172
100
AcDbEntity
8
1
62
256
6
ByLayer
370
18
48
1
60
0
100
AcDbSpline
70
4
71
3
72
8
73
4
40
0
40
0
40
0
40
0
40
1
40
1
40
1
40
1
41
1
10
124.2495
20
-19.3919878841886
30
0
41
1
10
124.039439331602
20
-19.7758958248991
30
0
41
1
10
123.824618246661
20
-20.1562223165521
30
0
41
1
10
123.6055
20
-20.5333158840139
30
0
0
SPLINE
5
173
100
AcDbEntity
8
1
62
256
6
ByLayer
370
18
48
1
60
0
100
AcDbSpline
70
4
71
3
72
26
73
22
40
0
40
0
40
0
40
0
40
0.12499999999999
40
0.12499999999999
40
0.24999999999998
40
0.24999999999998
40
0.37499999999997
40
0.37499999999997
40
0.49999999999996
40
0.49999999999996
40
0.62499999999995
40
0.62499999999995
40
0.687499999999949
40
0.687499999999949
40
0.749999999999948
40
0.749999999999948
40
0.812499999999947
40
0.812499999999947
40
0.874999999999946
40
0.874999999999946
40
1
40
1
40
1
40
1
41
1
10
123.6055
20
-20.533315884014
30
0
41
1
10
123.595891848487
20
-20.5498511209733
30
0
41
1
10
123.586867923903
20
-20.5663315893324
30
0
41
1
10
123.570018960149
20
-20.5991763737715
30
0
41
1
10
123.562162348524
20
-20.6156164989991
30
0
41
1
10
123.54808217205
20
-20.6477765695351
30
0
41
1
10
123.541826548599
20
-20.663540203776
30
0
41
1
10
123.531248218515
20
-20.694288246005
30
0
41
1
10
123.526880540947
20
-20.7094347697568
30
0
41
1
10
123.521184962534
20
-20.7376553641793
30
0
41
1
10
123.519788361477
20
-20.750886664679
30
0
41
1
10
123.521376195424
20
-20.7677676580937
30
0
41
1
10
123.522519045604
20
-20.7728014149721
30
0
41
1
10
123.526402372343
20
-20.7813297714474
30
0
41
1
10
123.529173651342
20
-20.7847936570812
30
0
41
1
10
123.536453758024
20
-20.789331006793
30
0
41
1
10
123.541055609124
20
-20.7904205302319
30
0
41
1
10
123.551571459623
20
-20.7899479027122
30
0
41
1
10
123.557659690864
20
-20.7883850305745
30
0
41
1
10
123.576989835237
20
-20.7803707613262
30
0
41
1
10
123.591355988743
20
-20.7707017605909
30
0
41
1
10
123.6055
20
-20.7591455874819
30
0
0
SPLINE
5
174
100
AcDbEntity
8
1
62
256
6
ByLayer
370
18
48
1
60
0
100
AcDbSpline
70
4
71
3
72
8
73
4
40
0
40
0
40
0
40
0
40
1
40
1
40
1
40
1
41
1
10
123.6055
20
-20.7591455874816
30
0
41
1
10
123.820168300833
20
-20.5837537555398
30
0
41
1
10
124.034835023948
20
-20.4083593488627
30
0
41
1
10
124.2495
20
-20.2329620912908
30
0
0
SPLINE
5
175
100
AcDbEntity
8
1
62
256
6
ByLayer
370
18
48
1
60
0
100
AcDbSpline
70
4
71
3
72
14
73
10
40
0
40
0
40
0
40
0
40
0.25
40
0.25
40
0.5
40
0.5
40
0.75
40
0.75
40
1
40
1
40
1
40
1
41
1
10
124.3245
20
-20.2365834598287
30
0
41
1
10
124.3245
20
-20.2280574715485
30
0
41
1
10
124.323226579452
20
-20.2206332405457
30
0
41
1
10
124.31687672309
20
-20.2094874469187
30
0
41
1
10
124.311677177387
20
-20.2060071462587
30
0
41
1
10
124.297631713328
20
-20.2051536604223
30
0
41
1
10
124.28871910896
20
-20.207793710342
30
0
41
1
10
124.269715629015
20
-20.217628287636
30
0
41
1
10
124.259536321132
20
-20.2247616701736
30
0
41
1
10
124.2495
20
-20.2329620912906
30
0
0
SPLINE
5
176
100
AcDbEntity
8
1
62
256
6
ByLayer
370
18
48
1
60
0
100
AcDbSpline
70
4
71
3
72
14
73
10
40
0
40
0
40
0
40
0
40
0.25
40
0.25
40
0.5
40
0.5
40
0.75
40
0.75
40
1
40
1
40
1
40
1
41
1
10
124.2495
20
-20.5703702247132
30
0
41
1
10
124.259689218242
20
-20.5537244060085
30
0
41
1
10
124.269141071217
20
-20.5371479955473
30
0
41
1
10
124.286488561992
20
-20.5041362228495
30
0
41
1
10
124.294346422854
20
-20.4877581462692
30
0
41
1
10
124.307827214093
20
-20.4560122948547
30
0
41
1
10
124.313524884287
20
-20.4405314920262
30
0
41
1
10
124.321919534253
20
-20.4107737469565
30
0
41
1
10
124.3245
20
-20.397025683911
30
0
41
1
10
124.3245
20
-20.3850933995447
30
0
0
SPLINE
5
177
100
AcDbEntity
8
1
62
256
6
ByLayer
370
18
48
1
60
0
100
AcDbSpline
70
4
71
3
72
8
73
4
40
0
40
0
40
0
40
0
40
1
40
1
40
1
40
1
41
1
10
124.2495
20
-20.5703702247132
30
0
41
1
10
124.038207131738
20
-20.9155530145199
30
0
41
1
10
123.823431123556
20
-21.2578238253877
30
0
41
1
10
123.6055
20
-21.5974568928041
30
0
0
SPLINE
5
178
100
AcDbEntity
8
1
62
256
6
ByLayer
370
18
48
1
60
0
100
AcDbSpline
70
4
71
3
72
24
73
20
40
0
40
0
40
0
40
0
40
0.250000000000016
40
0.250000000000016
40
0.375000000000009
40
0.375000000000009
40
0.500000000000002
40
0.500000000000002
40
0.624999999999996
40
0.624999999999996
40
0.749999999999989
40
0.749999999999989
40
0.812499999999992
40
0.812499999999992
40
0.874999999999994
40
0.874999999999994
40
0.937499999999997
40
0.937499999999997
40
1
40
1
40
1
40
1
41
1
10
123.6055
20
-21.5974568928041
30
0
41
1
10
123.585930635048
20
-21.627954617671
30
0
41
1
10
123.568404377661
20
-21.6584924379041
30
0
41
1
10
123.546981041172
20
-21.7021612457542
30
0
41
1
10
123.540636798332
20
-21.7163852039587
30
0
41
1
10
123.530004961665
20
-21.7439749121277
30
0
41
1
10
123.525755068741
20
-21.7572748958538
30
0
41
1
10
123.520602301041
20
-21.7813697613153
30
0
41
1
10
123.519658004616
20
-21.7924512939754
30
0
41
1
10
123.523058586786
20
-21.8094781184496
30
0
41
1
10
123.527571821705
20
-21.8154965617002
30
0
41
1
10
123.53929320376
20
-21.8179133314042
30
0
41
1
10
123.543873715488
20
-21.817642095108
30
0
41
1
10
123.55432599517
20
-21.8150413247482
30
0
41
1
10
123.56020425055
20
-21.8126777169457
30
0
41
1
10
123.572428193163
20
-21.8063867311992
30
0
41
1
10
123.578926831088
20
-21.8023930464153
30
0
41
1
10
123.592111319828
20
-21.7932881819859
30
0
41
1
10
123.598776586911
20
-21.7882045166475
30
0
41
1
10
123.6055
20
-21.7826993267328
30
0
0
SPLINE
5
179
100
AcDbEntity
8
1
62
256
6
ByLayer
370
18
48
1
60
0
100
AcDbSpline
70
4
71
3
72
8
73
4
40
0
40
0
40
0
40
0
40
1
40
1
40
1
40
1
41
1
10
123.6055
20
-21.7826993267326
30
0
41
1
10
123.820173237194
20
-21.6069229874504
30
0
41
1
10
124.034840117021
20
-21.4311362953957
30
0
41
1
10
124.2495
20
-21.2553382123749
30
0
0
SPLINE
5
17A
100
AcDbEntity
8
1
62
256
6
ByLayer
370
18
48
1
60
0
100
AcDbSpline
70
4
71
3
72
14
73
10
40
0
40
0
40
0
40
0
40
0.25
40
0.25
40
0.5
40
0.5
40
0.75
40
0.75
40
1
40
1
40
1
40
1
41
1
10
124.3245
20
-21.2467427634162
30
0
41
1
10
124.3245
20
-21.2394710002288
30
0
41
1
10
124.32305055261
20
-21.2333911075695
30
0
41
1
10
124.316255949266
20
-21.2254590605736
30
0
41
1
10
124.31080187969
20
-21.2237332697389
30
0
41
1
10
124.296702547042
20
-21.225613605279
30
0
41
1
10
124.287942439373
20
-21.2292077635721
30
0
41
1
10
124.269327473126
20
-21.2400317807444
30
0
41
1
10
124.259405815922
20
-21.2472257349727
30
0
41
1
10
124.2495
20
-21.2553382123748
30
0
0
SPLINE
5
17B
100
AcDbEntity
8
1
62
256
6
ByLayer
370
18
48
1
60
0
100
AcDbSpline
70
4
71
3
72
14
73
10
40
0
40
0
40
0
40
0
40
0.25
40
0.25
40
0.5
40
0.5
40
0.75
40
0.75
40
1
40
1
40
1
40
1
41
1
10
124.2495
20
-21.5300799335829
30
0
41
1
10
124.259575518723
20
-21.515103372745
30
0
41
1
10
124.26893994717
20
-21.500282137731
30
0
41
1
10
124.286161317257
20
-21.4709631921383
30
0
41
1
10
124.294078365003
20
-21.4563504489578
30
0
41
1
10
124.307745770548
20
-21.4280858342372
30
0
41
1
10
124.313467963412
20
-21.414541490867
30
0
41
1
10
124.321870739995
20
-21.3890624272171
30
0
41
1
10
124.324500000008
20
-21.3772185365104
30
0
41
1
10
124.324500000009
20
-21.3675876053921
30
0
0
SPLINE
5
17C
100
AcDbEntity
8
1
62
256
6
ByLayer
370
18
48
1
60
0
100
AcDbSpline
70
4
71
3
72
8
73
4
40
0
40
0
40
0
40
0
40
1
40
1
40
1
40
1
41
1
10
124.2495
20
-21.5300799335829
30
0
41
1
10
124.037374649206
20
-21.845389577551
30
0
41
1
10
123.822628100131
20
-22.1583021627902
30
0
41
1
10
123.6055
20
-22.4690368442115
30
0
0
SPLINE
5
17D
100
AcDbEntity
8
1
62
256
6
ByLayer
370
18
48
1
60
0
100
AcDbSpline
70
4
71
3
72
22
73
18
40
0
40
0
40
0
40
0
40
0.249999999999971
40
0.249999999999971
40
0.499999999999942
40
0.499999999999942
40
0.624999999999939
40
0.624999999999939
40
0.687499999999937
40
0.687499999999937
40
0.749999999999936
40
0.749999999999936
40
0.874999999999964
40
0.874999999999964
40
0.937499999999982
40
0.937499999999982
40
1
40
1
40
1
40
1
41
1
10
123.6055
20
-22.4690368442115
30
0
41
1
10
123.585591553727
20
-22.4975280653221
30
0
41
1
10
123.56769567603
20
-22.52586355086
30
0
41
1
10
123.53866727079
20
-22.5791828628332
30
0
41
1
10
123.527054952205
20
-22.6049237622154
30
0
41
1
10
123.520158147362
20
-22.6357460390406
30
0
41
1
10
123.519699948155
20
-22.6445659272814
30
0
41
1
10
123.523212287993
20
-22.6538000958583
30
0
41
1
10
123.525072332122
20
-22.6561404219928
30
0
41
1
10
123.53027554466
20
-22.6590961389691
30
0
41
1
10
123.533673850252
20
-22.6596962012999
30
0
41
1
10
123.545626844133
20
-22.6587096977065
30
0
41
1
10
123.556327295088
20
-22.6542651322379
30
0
41
1
10
123.573923678963
20
-22.6437607679609
30
0
41
1
10
123.580143203835
20
-22.6395811173996
30
0
41
1
10
123.592686016535
20
-22.630425455486
30
0
41
1
10
123.599053312079
20
-22.6254275627389
30
0
41
1
10
123.6055
20
-22.6200829661947
30
0
0
SPLINE
5
17E
100
AcDbEntity
8
1
62
256
6
ByLayer
370
18
48
1
60
0
100
AcDbSpline
70
4
71
3
72
8
73
4
40
0
40
0
40
0
40
0
40
1
40
1
40
1
40
1
41
1
10
123.6055
20
-22.6200829661946
30
0
41
1
10
123.820200946825
20
-22.4420861479081
30
0
41
1
10
124.034868684835
20
-22.2640359061465
30
0
41
1
10
124.2495
20
-22.0859271543189
30
0
0
SPLINE
5
17F
100
AcDbEntity
8
1
62
256
6
ByLayer
370
18
48
1
60
0
100
AcDbSpline
70
4
71
3
72
14
73
10
40
0
40
0
40
0
40
0
40
0.25
40
0.25
40
0.5
40
0.5
40
0.75
40
0.75
40
1
40
1
40
1
40
1
41
1
10
124.3245
20
-22.0663360248446
30
0
41
1
10
124.3245
20
-22.0602063448816
30
0
41
1
10
124.322879088429
20
-22.0554417118855
30
0
41
1
10
124.315723768599
20
-22.050394459048
30
0
41
1
10
124.31012433525
20
-22.0501458087765
30
0
41
1
10
124.2959401497
20
-22.0543147310198
30
0
41
1
10
124.287363709046
20
-22.0586844662361
30
0
41
1
10
124.269011155193
20
-22.0704653043412
30
0
41
1
10
124.259309512901
20
-22.0777868692096
30
0
41
1
10
124.2495
20
-22.0859271543189
30
0
0
SPLINE
5
180
100
AcDbEntity
8
1
62
256
6
ByLayer
370
18
48
1
60
0
100
AcDbSpline
70
4
71
3
72
12
73
8
40
0
40
0
40
0
40
0
40
0.5
40
0.5
40
0.75
40
0.75
40
1
40
1
40
1
40
1
41
1
10
124.2495
20
-22.3075317791603
30
0
41
1
10
124.269569104578
20
-22.2800446718393
30
0
41
1
10
124.287037981678
20
-22.253389227797
30
0
41
1
10
124.307741596853
20
-22.2153783121061
30
0
41
1
10
124.313491339927
20
-22.2034216639815
30
0
41
1
10
124.321898093649
20
-22.1814239866425
30
0
41
1
10
124.324500000003
20
-22.1714323312695
30
0
41
1
10
124.324500000003
20
-22.1637626739603
30
0
0
SPLINE
5
181
100
AcDbEntity
8
1
62
256
6
ByLayer
370
18
48
1
60
0
100
AcDbSpline
70
4
71
3
72
8
73
4
40
0
40
0
40
0
40
0
40
1
40
1
40
1
40
1
41
1
10
124.2495
20
-22.3075317791603
30
0
41
1
10
124.036782319601
20
-22.598874807819
30
0
41
1
10
123.822056039247
20
-22.8882313992868
30
0
41
1
10
123.6055
20
-23.1757784213042
30
0
0
SPLINE
5
182
100
AcDbEntity
8
1
62
256
6
ByLayer
370
18
48
1
60
0
100
AcDbSpline
70
4
71
3
72
22
73
18
40
0
40
0
40
0
40
0
40
0.250000000000053
40
0.250000000000053
40
0.375000000000061
40
0.375000000000061
40
0.500000000000069
40
0.500000000000069
40
0.625000000000077
40
0.625000000000077
40
0.750000000000085
40
0.750000000000085
40
0.812500000000064
40
0.812500000000064
40
0.875000000000042
40
0.875000000000042
40
1
40
1
40
1
40
1
41
1
10
123.6055
20
-23.1757784213043
30
0
41
1
10
123.585273555258
20
-23.2026354601184
30
0
41
1
10
123.566956451892
20
-23.2292229400243
30
0
41
1
10
123.544833531636
20
-23.2660678844065
30
0
41
1
10
123.538266574183
20
-23.2779981266209
30
0
41
1
10
123.527742828944
20
-23.3000981082553
30
0
41
1
10
123.523823971669
20
-23.3101313539303
30
0
41
1
10
123.519863891674
20
-23.3272662268364
30
0
41
1
10
123.519984207007
20
-23.3340533284695
30
0
41
1
10
123.525780981227
20
-23.3417522150087
30
0
41
1
10
123.531601008418
20
-23.3425395578433
30
0
41
1
10
123.54372645532
20
-23.3388915542783
30
0
41
1
10
123.548412658276
20
-23.3368666430987
30
0
41
1
10
123.558472329125
20
-23.3315512620657
30
0
41
1
10
123.563846554174
20
-23.3282779831857
30
0
41
1
10
123.580853219547
20
-23.3168828358452
30
0
41
1
10
123.593068792019
20
-23.3073886497742
30
0
41
1
10
123.6055
20
-23.2968754376165
30
0
0
SPLINE
5
183
100
AcDbEntity
8
1
62
256
6
ByLayer
370
18
48
1
60
0
100
AcDbSpline
70
4
71
3
72
8
73
4
40
0
40
0
40
0
40
0
40
1
40
1
40
1
40
1
41
1
10
123.6055
20
-23.2968754376164
30
0
41
1
10
123.820244754008
20
-23.11526338816
30
0
41
1
10
124.034913814811
20
-22.9335319303368
30
0
41
1
10
124.2495
20
-22.7516701480928
30
0
0
SPLINE
5
184
100
AcDbEntity
8
1
62
256
6
ByLayer
370
18
48
1
60
0
100
AcDbSpline
70
4
71
3
72
14
73
10
40
0
40
0
40
0
40
0
40
0.25
40
0.25
40
0.5
40
0.5
40
0.75
40
0.75
40
1
40
1
40
1
40
1
41
1
10
124.3245
20
-22.7218227111435
30
0
41
1
10
124.3245
20
-22.7167636827918
30
0
41
1
10
124.322749381051
20
-22.7133264469951
30
0
41
1
10
124.315245830478
20
-22.7108983856196
30
0
41
1
10
124.309604124007
20
-22.7119307814348
30
0
41
1
10
124.295315870072
20
-22.7181361744954
30
0
41
1
10
124.286939122699
20
-22.7231633913709
30
0
41
1
10
124.268758907568
20
-22.7359097762675
30
0
41
1
10
124.259245573468
20
-22.7434107750192
30
0
41
1
10
124.2495
20
-22.7516701480928
30
0
0
SPLINE
5
185
100
AcDbEntity
8
1
62
256
6
ByLayer
370
18
48
1
60
0
100
AcDbSpline
70
4
71
3
72
14
73
10
40
0
40
0
40
0
40
0
40
0.25
40
0.25
40
0.5
40
0.5
40
0.75
40
0.75
40
1
40
1
40
1
40
1
41
1
10
124.2495
20
-22.9264544727241
30
0
41
1
10
124.25944527166
20
-22.913783938498
30
0
41
1
10
124.268857873782
20
-22.9012296925004
30
0
41
1
10
124.286063126254
20
-22.8769739480124
30
0
41
1
10
124.293918864435
20
-22.865200408821
30
0
41
1
10
124.307730134248
20
-22.8425488566718
30
0
41
1
10
124.313549981919
20
-22.831883452387
30
0
41
1
10
124.321938888577
20
-22.8129323227157
30
0
41
1
10
124.324500000001
20
-22.8045938255255
30
0
41
1
10
124.324500000001
20
-22.7986396737448
30
0
0
SPLINE
5
186
100
AcDbEntity
8
1
62
256
6
ByLayer
370
18
48
1
60
0
100
AcDbSpline
70
4
71
3
72
8
73
4
40
0
40
0
40
0
40
0
40
1
40
1
40
1
40
1
41
1
10
124.2495
20
-22.9264544727241
30
0
41
1
10
124.036344592726
20
-23.1980199940686
30
0
41
1
10
123.821632798019
20
-23.46793539229
30
0
41
1
10
123.6055
20
-23.7363442052146
30
0
0
SPLINE
5
187
100
AcDbEntity
8
1
62
256
6
ByLayer
370
18
48
1
60
0
100
AcDbSpline
70
4
71
3
72
24
73
20
40
0
40
0
40
0
40
0
40
0.249999999999997
40
0.249999999999997
40
0.374999999999998
40
0.374999999999998
40
0.499999999999998
40
0.499999999999998
40
0.624999999999998
40
0.624999999999998
40
0.687499999999999
40
0.687499999999999
40
0.749999999999999
40
0.749999999999999
40
0.812499999999999
40
0.812499999999999
40
0.875
40
0.875
40
1
40
1
40
1
40
1
41
1
10
123.6055
20
-23.7363442052146
30
0
41
1
10
123.584933659893
20
-23.7618849236291
30
0
41
1
10
123.566264229825
20
-23.7868862910127
30
0
41
1
10
123.543766769786
20
-23.8209469214415
30
0
41
1
10
123.537092163987
20
-23.8318990550104
30
0
41
1
10
123.526746101153
20
-23.8513838063828
30
0
41
1
10
123.522951087146
20
-23.8601468439844
30
0
41
1
10
123.519744344447
20
-23.8737149412441
30
0
41
1
10
123.520396419323
20
-23.8785001258787
30
0
41
1
10
123.525477759379
20
-23.8812221123845
30
0
41
1
10
123.527888375931
20
-23.8813989058138
30
0
41
1
10
123.533838386635
20
-23.8802752371658
30
0
41
1
10
123.537384868344
20
-23.8789999511004
30
0
41
1
10
123.545559270928
20
-23.8751024509132
30
0
41
1
10
123.550188285926
20
-23.8724678743436
30
0
41
1
10
123.559992242756
20
-23.866232942027
30
0
41
1
10
123.565218656667
20
-23.8626093330226
30
0
41
1
10
123.581754020229
20
-23.8504066896325
30
0
41
1
10
123.593447968638
20
-23.8408583968401
30
0
41
1
10
123.6055
20
-23.8304003628101
30
0
0
SPLINE
5
188
100
AcDbEntity
8
1
62
256
6
ByLayer
370
18
48
1
60
0
100
AcDbSpline
70
4
71
3
72
8
73
4
40
0
40
0
40
0
40
0
40
1
40
1
40
1
40
1
41
1
10
123.6055
20
-23.8304003628101
30
0
41
1
10
123.820302546545
20
-23.6440075237985
30
0
41
1
10
124.034973355329
20
-23.4574120577275
30
0
41
1
10
124.2495
20
-23.2705960321683
30
0
0
SPLINE
5
189
100
AcDbEntity
8
1
62
256
6
ByLayer
370
18
48
1
60
0
100
AcDbSpline
70
4
71
3
72
14
73
10
40
0
40
0
40
0
40
0
40
0.25
40
0.25
40
0.5
40
0.5
40
0.75
40
0.75
40
1
40
1
40
1
40
1
41
1
10
124.3245
20
-23.2309126238237
30
0
41
1
10
124.3245
20
-23.2269178971008
30
0
41
1
10
124.322626132983
20
-23.2247594643014
30
0
41
1
10
124.314843542028
20
-23.2248115931792
30
0
41
1
10
124.309162894578
20
-23.226981040974
30
0
41
1
10
124.294854222523
20
-23.2350325359301
30
0
41
1
10
124.286589612437
20
-23.2407014516844
30
0
41
1
10
124.26861271811
20
-23.254375599661
30
0
41
1
10
124.259209704467
20
-23.2621405398416
30
0
41
1
10
124.2495
20
-23.2705960321683
30
0
0
SPLINE
5
18A
100
AcDbEntity
8
1
62
256
6
ByLayer
370
18
48
1
60
0
100
AcDbSpline
70
4
71
3
72
12
73
8
40
0
40
0
40
0
40
0
40
0.499999999999943
40
0.499999999999943
40
0.749999999999971
40
0.749999999999971
40
1
40
1
40
1
40
1
41
1
10
124.2495
20
-23.4028498781752
30
0
41
1
10
124.269213771312
20
-23.3793119136172
30
0
41
1
10
124.287076122895
20
-23.3563670284796
30
0
41
1
10
124.307711737403
20
-23.3260475722174
30
0
41
1
10
124.313626340585
20
-23.3165008078664
30
0
41
1
10
124.322002481336
20
-23.3002470594534
30
0
41
1
10
124.3245
20
-23.293440494456
30
0
41
1
10
124.3245
20
-23.2890240128754
30
0
0
SPLINE
5
18B
100
AcDbEntity
8
1
62
256
6
ByLayer
370
18
48
1
60
0
100
AcDbSpline
70
4
71
3
72
8
73
4
40
0
40
0
40
0
40
0
40
1
40
1
40
1
40
1
41
1
10
124.2495
20
-23.4028498781752
30
0
41
1
10
124.036011628907
20
-23.6577519784764
30
0
41
1
10
123.821310496289
20
-23.9112851613349
30
0
41
1
10
123.6055
20
-24.1635661381751
30
0
0
SPLINE
5
18C
100
AcDbEntity
8
1
62
256
6
ByLayer
370
18
48
1
60
0
100
AcDbSpline
70
4
71
3
72
22
73
18
40
0
40
0
40
0
40
0
40
0.249999999999986
40
0.249999999999986
40
0.374999999999985
40
0.374999999999985
40
0.499999999999984
40
0.499999999999984
40
0.624999999999983
40
0.624999999999983
40
0.687499999999968
40
0.687499999999968
40
0.749999999999954
40
0.749999999999954
40
0.874999999999977
40
0.874999999999977
40
1
40
1
40
1
40
1
41
1
10
123.6055
20
-24.1635661381751
30
0
41
1
10
123.58461800242
20
-24.1879770488517
30
0
41
1
10
123.565507179619
20
-24.2117045234637
30
0
41
1
10
123.542689990122
20
-24.2431162129388
30
0
41
1
10
123.5359677808
20
-24.2530413976178
30
0
41
1
10
123.525788698556
20
-24.2700761212655
30
0
41
1
10
123.522209442212
20
-24.2774045374631
30
0
41
1
10
123.519750506565
20
-24.2875719003495
30
0
41
1
10
123.520917187491
20
-24.290403795087
30
0
41
1
10
123.526613240173
20
-24.2903641595357
30
0
41
1
10
123.529188583589
20
-24.2896418406777
30
0
41
1
10
123.535367825739
20
-24.2869190401382
30
0
41
1
10
123.53899628437
20
-24.2849212703509
30
0
41
1
10
123.551354752463
20
-24.2771657902722
30
0
41
1
10
123.561088840106
20
-24.2699596696235
30
0
41
1
10
123.58248539173
20
-24.2527621693601
30
0
41
1
10
123.593773139625
20
-24.2430755822269
30
0
41
1
10
123.6055
20
-24.232584456276
30
0
0
SPLINE
5
18D
100
AcDbEntity
8
1
62
256
6
ByLayer
370
18
48
1
60
0
100
AcDbSpline
70
4
71
3
72
8
73
4
40
0
40
0
40
0
40
0
40
1
40
1
40
1
40
1
41
1
10
123.6055
20
-24.232584456276
30
0
41
1
10
123.820374683942
20
-24.0403524947095
30
0
41
1
10
124.035047370323
20
-23.8478202535533
30
0
41
1
10
124.2495
20
-23.654960886978
30
0
0
SPLINE
5
18E
100
AcDbEntity
8
1
62
256
6
ByLayer
370
18
48
1
60
0
100
AcDbSpline
70
4
71
3
72
14
73
10
40
0
40
0
40
0
40
0
40
0.25
40
0.25
40
0.5
40
0.5
40
0.75
40
0.75
40
1
40
1
40
1
40
1
41
1
10
124.3245
20
-23.6056268367875
30
0
41
1
10
124.3245
20
-23.6027236160963
30
0
41
1
10
124.322517994515
20
-23.6018009379685
30
0
41
1
10
124.314553010295
20
-23.6042057169858
30
0
41
1
10
124.308714308758
20
-23.6074938193304
30
0
41
1
10
124.294527150197
20
-23.6172106493221
30
0
41
1
10
124.286278550289
20
-23.6235597234353
30
0
41
1
10
124.268517881696
20
-23.6381579323392
30
0
41
1
10
124.259182938242
20
-23.6462529250439
30
0
41
1
10
124.2495
20
-23.654960886978
30
0
0
SPLINE
5
18F
100
AcDbEntity
8
1
62
256
6
ByLayer
370
18
48
1
60
0
100
AcDbSpline
70
4
71
3
72
12
73
8
40
0
40
0
40
0
40
0
40
0.5
40
0.5
40
0.75
40
0.75
40
1
40
1
40
1
40
1
41
1
10
124.2495
20
-23.7475864397169
30
0
41
1
10
124.269096039341
20
-23.7255245029813
30
0
41
1
10
124.287055571439
20
-23.7041980616752
30
0
41
1
10
124.307771252659
20
-23.6769230565226
30
0
41
1
10
124.313708424421
20
-23.6685026888432
30
0
41
1
10
124.322055283879
20
-23.6547549787376
30
0
41
1
10
124.3245
20
-23.6493424979473
30
0
41
1
10
124.3245
20
-23.6463193271822
30
0
0
SPLINE
5
190
100
AcDbEntity
8
1
62
256
6
ByLayer
370
18
48
1
60
0
100
AcDbSpline
70
4
71
3
72
8
73
4
40
0
40
0
40
0
40
0
40
1
40
1
40
1
40
1
41
1
10
124.2495
20
-23.7475864397169
30
0
41
1
10
124.03575253422
20
-23.9882311427327
30
0
41
1
10
123.821059437748
20
-24.2277459581948
30
0
41
1
10
123.6055
20
-24.4662256251215
30
0
0
SPLINE
5
191
100
AcDbEntity
8
1
62
256
6
ByLayer
370
18
48
1
60
0
100
AcDbSpline
70
4
71
3
72
20
73
16
40
0
40
0
40
0
40
0
40
0.249999999999965
40
0.249999999999965
40
0.374999999999971
40
0.374999999999971
40
0.499999999999977
40
0.499999999999977
40
0.624999999999982
40
0.624999999999982
40
0.749999999999988
40
0.749999999999988
40
0.874999999999994
40
0.874999999999994
40
1
40
1
40
1
40
1
41
1
10
123.6055
20
-24.4662256251215
30
0
41
1
10
123.584252717749
20
-24.4897321106051
30
0
41
1
10
123.564759178412
20
-24.512245602338
30
0
41
1
10
123.541538810157
20
-24.541245591061
30
0
41
1
10
123.534819153131
20
-24.5501143780702
30
0
41
1
10
123.524848890269
20
-24.5647104400402
30
0
41
1
10
123.52154227505
20
-24.5705386140865
30
0
41
1
10
123.519879790056
20
-24.5773439817586
30
0
41
1
10
123.521526851207
20
-24.5782810305198
30
0
41
1
10
123.529927354216
20
-24.5747851907473
30
0
41
1
10
123.536474905501
20
-24.5704541370685
30
0
41
1
10
123.552728930923
20
-24.5580671841504
30
0
41
1
10
123.562321241512
20
-24.5501066098877
30
0
41
1
10
123.583076711062
20
-24.5320647148509
30
0
41
1
10
123.594055349581
20
-24.5221514838591
30
0
41
1
10
123.6055
20
-24.5115512430934
30
0
0
SPLINE
5
192
100
AcDbEntity
8
1
62
256
6
ByLayer
370
18
48
1
60
0
100
AcDbSpline
70
4
71
3
72
8
73
4
40
0
40
0
40
0
40
0
40
1
40
1
40
1
40
1
41
1
10
123.6055
20
-24.5115512430934
30
0
41
1
10
123.820462678659
20
-24.31244894935
30
0
41
1
10
124.035137860735
20
-24.1129342405493
30
0
41
1
10
124.2495
20
-23.9129704705177
30
0
0
SPLINE
5
193
100
AcDbEntity
8
1
62
256
6
ByLayer
370
18
48
1
60
0
100
AcDbSpline
70
4
71
3
72
14
73
10
40
0
40
0
40
0
40
0
40
0.25
40
0.25
40
0.5
40
0.5
40
0.75
40
0.75
40
1
40
1
40
1
40
1
41
1
10
124.3245
20
-23.8539790198801
30
0
41
1
10
124.3245
20
-23.8521857499259
30
0
41
1
10
124.322387809429
20
-23.8524939229066
30
0
41
1
10
124.31432502053
20
-23.8571560020603
30
0
41
1
10
124.308413901572
20
-23.8614855289317
30
0
41
1
10
124.294315803534
20
-23.8728206174963
30
0
41
1
10
124.286083471685
20
-23.8798545103129
30
0
41
1
10
124.268476646095
20
-23.8954524968059
30
0
41
1
10
124.259181964881
20
-23.9039388280576
30
0
41
1
10
124.2495
20
-23.9129704705177
30
0
0
SPLINE
5
194
100
AcDbEntity
8
1
62
256
6
ByLayer
370
18
48
1
60
0
100
AcDbSpline
70
4
71
3
72
14
73
10
40
0
40
0
40
0
40
0
40
0.25
40
0.25
40
0.5
40
0.5
40
0.75
40
0.75
40
1
40
1
40
1
40
1
41
1
10
124.2495
20
-23.9678441313361
30
0
41
1
10
124.259249604116
20
-23.9574402745056
30
0
41
1
10
124.268519251578
20
-23.9473921852377
30
0
41
1
10
124.285911691607
20
-23.9281390396628
30
0
41
1
10
124.293983863503
20
-23.9189853710309
30
0
41
1
10
124.307857926255
20
-23.9026525202924
30
0
41
1
10
124.313812257457
20
-23.8952874257051
30
0
41
1
10
124.322116596227
20
-23.883899953024
30
0
41
1
10
124.3245
20
-23.8798131548508
30
0
41
1
10
124.3245
20
-23.8780838423543
30
0
0
SPLINE
5
195
100
AcDbEntity
8
1
62
256
6
ByLayer
370
18
48
1
60
0
100
AcDbSpline
70
4
71
3
72
8
73
4
40
0
40
0
40
0
40
0
40
1
40
1
40
1
40
1
41
1
10
124.2495
20
-23.9678441313361
30
0
41
1
10
124.035547222369
20
-24.1961543314658
30
0
41
1
10
123.820860303431
20
-24.4235405354009
30
0
41
1
10
123.6055
20
-24.6500792121576
30
0
0
SPLINE
5
196
100
AcDbEntity
8
1
62
256
6
ByLayer
370
18
48
1
60
0
100
AcDbSpline
70
4
71
3
72
16
73
12
40
0
40
0
40
0
40
0
40
0.244870256128311
40
0.244870256128311
40
0.489740512256622
40
0.489740512256622
40
0.734610768384932
40
0.734610768384932
40
0.979481024513243
40
0.979481024513243
40
1
40
1
40
1
40
1
41
1
10
123.6055
20
-24.6500792121576
30
0
41
1
10
123.594645499765
20
-24.6614971201053
30
0
41
1
10
123.584309331155
20
-24.6724989869337
30
0
41
1
10
123.56505550703
20
-24.6932971537009
30
0
41
1
10
123.555990486058
20
-24.7032556166844
30
0
41
1
10
123.54029226655
20
-24.7209485260458
30
0
41
1
10
123.533596073865
20
-24.7287511946129
30
0
41
1
10
123.523858984405
20
-24.7408897657919
30
0
41
1
10
123.520927423352
20
-24.7451121254574
30
0
41
1
10
123.52051236312
20
-24.7469103574355
30
0
41
1
10
123.520498569531
20
-24.7470311500919
30
0
41
1
10
123.520502839793
20
-24.7471338530923
30
0
0
SPLINE
5
197
100
AcDbEntity
8
1
62
256
6
ByLayer
370
18
48
1
60
0
100
AcDbSpline
70
4
71
3
72
14
73
10
40
0
40
0
40
0
40
0
40
0.137563763801755
40
0.137563763801755
40
0.42504250920117
40
0.42504250920117
40
0.712521254600585
40
0.712521254600585
40
1
40
1
40
1
40
1
41
1
10
123.522014959553
20
-24.7472840728836
30
0
41
1
10
123.523080566017
20
-24.7468148993606
30
0
41
1
10
123.524695456824
20
-24.745781491306
30
0
41
1
10
123.531247893089
20
-24.7409318597074
30
0
41
1
10
123.537981591735
20
-24.7352591146846
30
0
41
1
10
123.554046439389
20
-24.721005839838
30
0
41
1
10
123.563557694582
20
-24.7122726293566
30
0
41
1
10
123.583646628483
20
-24.6934639928731
30
0
41
1
10
123.594317921063
20
-24.6833078186817
30
0
41
1
10
123.6055
20
-24.67254327625
30
0
0
SPLINE
5
198
100
AcDbEntity
8
1
62
256
6
ByLayer
370
18
48
1
60
0
100
AcDbSpline
70
4
71
3
72
8
73
4
40
0
40
0
40
0
40
0
40
1
40
1
40
1
40
1
41
1
10
123.6055
20
-24.67254327625
30
0
41
1
10
123.820569637573
20
-24.4655042942751
30
0
41
1
10
124.035247896483
20
-24.257925696741
30
0
41
1
10
124.2495
20
-24.0497595350354
30
0
0
SPLINE
5
199
100
AcDbEntity
8
1
62
256
6
ByLayer
370
18
48
1
60
0
100
AcDbSpline
70
4
71
3
72
14
73
10
40
0
40
0
40
0
40
0
40
0.25
40
0.25
40
0.5
40
0.5
40
0.75
40
0.75
40
1
40
1
40
1
40
1
41
1
10
124.3245
20
-23.9809298975149
30
0
41
1
10
124.3245
20
-23.9802749397073
30
0
41
1
10
124.322268657052
20
-23.9818256856907
30
0
41
1
10
124.314108956146
20
-23.9887118861319
30
0
41
1
10
124.308141619218
20
-23.9940733211361
30
0
41
1
10
124.294092745741
20
-24.0070547541498
30
0
41
1
10
124.285840184445
20
-24.0148307852947
30
0
41
1
10
124.268427871024
20
-24.0314404543229
30
0
41
1
10
124.259184127082
20
-24.040350490592
30
0
41
1
10
124.2495
20
-24.0497595350354
30
0
0
SPLINE
5
19A
100
AcDbEntity
8
1
62
256
6
ByLayer
370
18
48
1
60
0
100
AcDbSpline
70
4
71
3
72
14
73
10
40
0
40
0
40
0
40
0
40
0.25
40
0.25
40
0.5
40
0.5
40
0.75
40
0.75
40
1
40
1
40
1
40
1
41
1
10
124.2495
20
-24.0679370847154
30
0
41
1
10
124.259211278108
20
-24.0580695895894
30
0
41
1
10
124.268463174683
20
-24.0486275483861
30
0
41
1
10
124.285857479136
20
-24.0307635373025
30
0
41
1
10
124.294025317656
20
-24.0223134800282
30
0
41
1
10
124.307974433677
20
-24.0077038595555
30
0
41
1
10
124.313940209129
20
-24.0013494349122
30
0
41
1
10
124.322186827721
20
-23.9922305495165
30
0
41
1
10
124.3245
20
-23.9894242585628
30
0
41
1
10
124.3245
20
-23.988914520495
30
0
0
SPLINE
5
19B
100
AcDbEntity
8
1
62
256
6
ByLayer
370
18
48
1
60
0
100
AcDbSpline
70
4
71
3
72
8
73
4
40
0
40
0
40
0
40
0
40
1
40
1
40
1
40
1
41
1
10
124.2495
20
-24.0679370847154
30
0
41
1
10
124.035382142102
20
-24.2854992733109
30
0
41
1
10
123.820700052471
20
-24.5023166855204
30
0
41
1
10
123.6055
20
-24.7184503955052
30
0
0
SPLINE
5
19C
100
AcDbEntity
8
1
62
256
6
ByLayer
370
18
48
1
60
0
100
AcDbSpline
70
4
71
3
72
18
73
14
40
0
40
0
40
0
40
0
40
0.249968095799241
40
0.249968095799241
40
0.499936191598481
40
0.499936191598481
40
0.749904287397721
40
0.749904287397721
40
0.874888335297334
40
0.874888335297334
40
0.999872383196948
40
0.999872383196948
40
1
40
1
40
1
40
1
41
1
10
123.6055
20
-24.7184503955052
30
0
41
1
10
123.594473615081
20
-24.7295246190149
30
0
41
1
10
123.583803369287
20
-24.7402505448278
30
0
41
1
10
123.564083431371
20
-24.760087248044
30
0
41
1
10
123.555014921523
20
-24.7692168101359
30
0
41
1
10
123.538999468337
20
-24.7853486325378
30
0
41
1
10
123.53232660182
20
-24.7920748098037
30
0
41
1
10
123.525334326431
20
-24.7991246202075
30
0
41
1
10
123.523536304035
20
-24.8009378239266
30
0
41
1
10
123.521100737935
20
-24.8033940774064
30
0
41
1
10
123.520483021234
20
-24.8040171245136
30
0
41
1
10
123.520499697022
20
-24.8040003055793
30
0
41
1
10
123.52050040117
20
-24.8039995953859
30
0
41
1
10
123.520501105315
20
-24.8039988851889
30
0
0
SPLINE
5
19D
100
AcDbEntity
8
1
62
256
6
ByLayer
370
18
48
1
60
0
100
AcDbSpline
70
4
71
3
72
14
73
10
40
0
40
0
40
0
40
0
40
0.249137035643927
40
0.249137035643927
40
0.499424690429284
40
0.499424690429284
40
0.749712345214642
40
0.749712345214642
40
1
40
1
40
1
40
1
41
1
10
123.520501007097
20
14.8039989842345
30
0
41
1
10
123.520559199655
20
14.8039402888289
30
0
41
1
10
123.52317820532
20
14.8012984444675
30
0
41
1
10
123.532509978376
20
14.791889964152
30
0
41
1
10
123.539284482808
20
14.7850614653389
30
0
41
1
10
123.555149357874
20
14.7690814809519
30
0
41
1
10
123.564434787015
20
14.7597336572633
30
0
41
1
10
123.584091600717
20
14.7399607665405
30
0
41
1
10
123.59453851892
20
14.7294594335869
30
0
41
1
10
123.6055
20
14.7184503955052
30
0
0
SPLINE
5
19E
100
AcDbEntity
8
1
62
256
6
ByLayer
370
18
48
1
60
0
100
AcDbSpline
70
4
71
3
72
8
73
4
40
0
40
0
40
0
40
0
40
1
40
1
40
1
40
1
41
1
10
123.6055
20
14.7184503955052
30
0
41
1
10
123.820700052471
20
14.5023166855204
30
0
41
1
10
124.035382142102
20
14.2854992733108
30
0
41
1
10
124.2495
20
14.0679370847154
30
0
0
SPLINE
5
19F
100
AcDbEntity
8
1
62
256
6
ByLayer
370
18
48
1
60
0
100
AcDbSpline
70
4
71
3
72
14
73
10
40
0
40
0
40
0
40
0
40
0.25
40
0.25
40
0.5
40
0.5
40
0.75
40
0.75
40
1
40
1
40
1
40
1
41
1
10
124.3245
20
13.988914520495
30
0
41
1
10
124.3245
20
13.9894247455032
30
0
41
1
10
124.322179475846
20
13.9922388158723
30
0
41
1
10
124.313940423871
20
14.0013490604847
30
0
41
1
10
124.307976181869
20
14.0077021283887
30
0
41
1
10
124.294003407622
20
14.0223363275757
30
0
41
1
10
124.285821046889
20
14.0308010647053
30
0
41
1
10
124.268451733647
20
14.0486391867036
30
0
41
1
10
124.259208205955
20
14.0580727111611
30
0
41
1
10
124.2495
20
14.0679370847154
30
0
0
SPLINE
5
1A0
100
AcDbEntity
8
1
62
256
6
ByLayer
370
18
48
1
60
0
100
AcDbSpline
70
4
71
3
72
14
73
10
40
0
40
0
40
0
40
0
40
0.25
40
0.25
40
0.5
40
0.5
40
0.75
40
0.75
40
1
40
1
40
1
40
1
41
1
10
124.249500000001
20
14.0497595350346
30
0
41
1
10
124.259250762044
20
14.0402857484307
30
0
41
1
10
124.268531564471
20
14.0313407515936
30
0
41
1
10
124.285956831417
20
14.0147203145367
30
0
41
1
10
124.294181236189
20
14.0069721183579
30
0
41
1
10
124.308177764175
20
13.9940407991515
30
0
41
1
10
124.314130113209
20
13.9886933373445
30
0
41
1
10
124.322274316532
20
13.9818216055315
30
0
41
1
10
124.3245
20
13.9802755671428
30
0
41
1
10
124.3245
20
13.9809298975149
30
0
0
SPLINE
5
1A1
100
AcDbEntity
8
1
62
256
6
ByLayer
370
18
48
1
60
0
100
AcDbSpline
70
4
71
3
72
8
73
4
40
0
40
0
40
0
40
0
40
1
40
1
40
1
40
1
41
1
10
124.2495
20
14.0497595350353
30
0
41
1
10
124.035247896483
20
14.257925696741
30
0
41
1
10
123.820569637573
20
14.4655042942751
30
0
41
1
10
123.6055
20
14.67254327625
30
0
0
SPLINE
5
1A2
100
AcDbEntity
8
1
62
256
6
ByLayer
370
18
48
1
60
0
100
AcDbSpline
70
4
71
3
72
12
73
8
40
0
40
0
40
0
40
0
40
0.56729100279808
40
0.56729100279808
40
0.850936504197127
40
0.850936504197127
40
1
40
1
40
1
40
1
41
1
10
123.6055
20
14.67254327625
30
0
41
1
10
123.582995531699
20
14.6942074323788
30
0
41
1
10
123.561880388332
20
14.7140674209438
30
0
41
1
10
123.537703837473
20
14.7354993425979
30
0
41
1
10
123.531044068949
20
14.7411000824371
30
0
41
1
10
123.524328360078
20
14.746043531161
30
0
41
1
10
123.522644752756
20
14.7470829990583
30
0
41
1
10
123.52163204422
20
14.7474377072068
30
0
0
SPLINE
5
1A3
100
AcDbEntity
8
1
62
256
6
ByLayer
370
18
48
1
60
0
100
AcDbSpline
70
4
71
3
72
16
73
12
40
0
40
0
40
0
40
0
40
0.0197386845526471
40
0.0197386845526471
40
0.264804013414486
40
0.264804013414486
40
0.509869342276324
40
0.509869342276324
40
0.754934671138162
40
0.754934671138162
40
1
40
1
40
1
40
1
41
1
10
123.520502875857
20
14.7470721475957
30
0
41
1
10
123.520505348206
20
14.7469673436304
30
0
41
1
10
123.520524302163
20
14.746846080293
30
0
41
1
10
123.521001668514
20
14.7449974364367
30
0
41
1
10
123.523988903455
20
14.7407194293516
30
0
41
1
10
123.533694886272
20
14.7286365874095
30
0
41
1
10
123.540469432587
20
14.7207454646148
30
0
41
1
10
123.556128818467
20
14.703103159907
30
0
41
1
10
123.565209562342
20
14.6931288968652
30
0
41
1
10
123.584481683939
20
14.6723146861223
30
0
41
1
10
123.594730817489
20
14.6614073739258
30
0
41
1
10
123.6055
20
14.6500792121576
30
0
0
SPLINE
5
1A4
100
AcDbEntity
8
1
62
256
6
ByLayer
370
18
48
1
60
0
100
AcDbSpline
70
4
71
3
72
8
73
4
40
0
40
0
40
0
40
0
40
1
40
1
40
1
40
1
41
1
10
123.6055
20
14.6500792121576
30
0
41
1
10
123.820860303431
20
14.4235405354009
30
0
41
1
10
124.035547222369
20
14.1961543314658
30
0
41
1
10
124.2495
20
13.9678441313361
30
0
0
SPLINE
5
1A5
100
AcDbEntity
8
1
62
256
6
ByLayer
370
18
48
1
60
0
100
AcDbSpline
70
4
71
3
72
14
73
10
40
0
40
0
40
0
40
0
40
0.25
40
0.25
40
0.5
40
0.5
40
0.75
40
0.75
40
1
40
1
40
1
40
1
41
1
10
124.3245
20
13.8780838423543
30
0
41
1
10
124.3245
20
13.8798173955346
30
0
41
1
10
124.322101363894
20
13.8839223696908
30
0
41
1
10
124.313803229543
20
13.8952982718544
30
0
41
1
10
124.307850216532
20
13.9026622738455
30
0
41
1
10
124.293951093776
20
13.9190232687972
30
0
41
1
10
124.285833579189
20
13.928226363608
30
0
41
1
10
124.268493944553
20
13.9474193398035
30
0
41
1
10
124.259242453395
20
13.9574479050798
30
0
41
1
10
124.2495
20
13.9678441313361
30
0
0
SPLINE
5
1A6
100
AcDbEntity
8
1
62
256
6
ByLayer
370
18
48
1
60
0
100
AcDbSpline
70
4
71
3
72
14
73
10
40
0
40
0
40
0
40
0
40
0.25
40
0.25
40
0.5
40
0.5
40
0.75
40
0.75
40
1
40
1
40
1
40
1
41
1
10
124.2495
20
13.9129704705177
30
0
41
1
10
124.259218158141
20
13.903905065842
30
0
41
1
10
124.268664569286
20
13.895283572659
30
0
41
1
10
124.286149535274
20
13.8797984618443
30
0
41
1
10
124.294375221404
20
13.8727705037187
30
0
41
1
10
124.308474637326
20
13.8614390573628
30
0
41
1
10
124.314381647126
20
13.8571198467058
30
0
41
1
10
124.322377751326
20
13.8525031712641
30
0
41
1
10
124.3245
20
13.8522049260041
30
0
41
1
10
124.3245
20
13.8539790198801
30
0
0
SPLINE
5
1A7
100
AcDbEntity
8
1
62
256
6
ByLayer
370
18
48
1
60
0
100
AcDbSpline
70
4
71
3
72
8
73
4
40
0
40
0
40
0
40
0
40
1
40
1
40
1
40
1
41
1
10
124.2495
20
13.9129704705177
30
0
41
1
10
124.035137860735
20
14.1129342405493
30
0
41
1
10
123.820462678659
20
14.3124489493499
30
0
41
1
10
123.6055
20
14.5115512430934
30
0
0
SPLINE
5
1A8
100
AcDbEntity
8
1
62
256
6
ByLayer
370
18
48
1
60
0
100
AcDbSpline
70
4
71
3
72
22
73
18
40
0
40
0
40
0
40
0
40
0.249999999999993
40
0.249999999999993
40
0.312500000000004
40
0.312500000000004
40
0.375000000000015
40
0.375000000000015
40
0.500000000000012
40
0.500000000000012
40
0.625000000000009
40
0.625000000000009
40
0.750000000000006
40
0.750000000000006
40
0.875000000000003
40
0.875000000000003
40
1
40
1
40
1
40
1
41
1
10
123.6055
20
14.5115512430934
30
0
41
1
10
123.582537997433
20
14.5328190622728
30
0
41
1
10
123.560753547666
20
14.5519654120075
30
0
41
1
10
123.54040488847
20
14.5674556705879
30
0
41
1
10
123.536759223766
20
14.5700669054193
30
0
41
1
10
123.530414457453
20
14.5742004090369
30
0
41
1
10
123.527719044753
20
14.5757123360829
30
0
41
1
10
123.521544858164
20
14.5782568081098
30
0
41
1
10
123.519876109205
20
14.5773008110934
30
0
41
1
10
123.521565633523
20
14.5705019246575
30
0
41
1
10
123.5248695786
20
14.5646759138372
30
0
41
1
10
123.534864493797
20
14.5500522686143
30
0
41
1
10
123.541609733461
20
14.541154852157
30
0
41
1
10
123.557055124618
20
14.521869396227
30
0
41
1
10
123.565941228382
20
14.5112472832549
30
0
41
1
10
123.584848961551
20
14.4893103171526
30
0
41
1
10
123.594911439579
20
14.4779400570608
30
0
41
1
10
123.6055
20
14.4662256251216
30
0
0
SPLINE
5
1A9
100
AcDbEntity
8
1
62
256
6
ByLayer
370
18
48
1
60
0
100
AcDbSpline
70
4
71
3
72
8
73
4
40
0
40
0
40
0
40
0
40
1
40
1
40
1
40
1
41
1
10
123.6055
20
14.4662256251216
30
0
41
1
10
123.821059437748
20
14.2277459581948
30
0
41
1
10
124.03575253422
20
13.9882311427327
30
0
41
1
10
124.2495
20
13.7475864397169
30
0
0
SPLINE
5
1AA
100
AcDbEntity
8
1
62
256
6
ByLayer
370
18
48
1
60
0
100
AcDbSpline
70
4
71
3
72
14
73
10
40
0
40
0
40
0
40
0
40
0.25
40
0.25
40
0.5
40
0.5
40
0.75
40
0.75
40
1
40
1
40
1
40
1
41
1
10
124.3245
20
13.6463193271822
30
0
41
1
10
124.3245
20
13.6493536764682
30
0
41
1
10
124.322034011465
20
13.6547938153031
30
0
41
1
10
124.313694135752
20
13.6685224069777
30
0
41
1
10
124.307759088246
20
13.6769402543422
30
0
41
1
10
124.293931735253
20
13.6951434737654
30
0
41
1
10
124.285875277587
20
13.7051515681115
30
0
41
1
10
124.268553746702
20
13.7258583546615
30
0
41
1
10
124.259286714282
20
13.7365681993686
30
0
41
1
10
124.2495
20
13.7475864397169
30
0
0
SPLINE
5
1AB
100
AcDbEntity
8
1
62
256
6
ByLayer
370
18
48
1
60
0
100
AcDbSpline
70
4
71
3
72
14
73
10
40
0
40
0
40
0
40
0
40
0.249999999999998
40
0.249999999999998
40
0.499999999999996
40
0.499999999999996
40
0.749999999999994
40
0.749999999999994
40
1
40
1
40
1
40
1
41
1
10
124.2495
20
13.654960886978
30
0
41
1
10
124.259215998502
20
13.6462231936259
30
0
41
1
10
124.268726165071
20
13.6379823211316
30
0
41
1
10
124.286346638797
20
13.6235082432093
30
0
41
1
10
124.294625799941
20
13.6171378972795
30
0
41
1
10
124.308773781988
20
13.6074583306912
30
0
41
1
10
124.314644882502
20
13.6041706494088
30
0
41
1
10
124.322485000347
20
13.6018182843393
30
0
41
1
10
124.3245
20
13.6027592296193
30
0
41
1
10
124.3245
20
13.6056268367875
30
0
0
SPLINE
5
1AC
100
AcDbEntity
8
1
62
256
6
ByLayer
370
18
48
1
60
0
100
AcDbSpline
70
4
71
3
72
8
73
4
40
0
40
0
40
0
40
0
40
1
40
1
40
1
40
1
41
1
10
124.2495
20
13.654960886978
30
0
41
1
10
124.035047370323
20
13.8478202535533
30
0
41
1
10
123.820374683942
20
14.0403524947095
30
0
41
1
10
123.6055
20
14.232584456276
30
0
0
SPLINE
5
1AD
100
AcDbEntity
8
1
62
256
6
ByLayer
370
18
48
1
60
0
100
AcDbSpline
70
4
71
3
72
22
73
18
40
0
40
0
40
0
40
0
40
0.125
40
0.125
40
0.25
40
0.25
40
0.375
40
0.375
40
0.5
40
0.5
40
0.625
40
0.625
40
0.75
40
0.75
40
0.875
40
0.875
40
1
40
1
40
1
40
1
41
1
10
123.6055
20
14.232584456276
30
0
41
1
10
123.593739100244
20
14.2431060346604
30
0
41
1
10
123.582242551691
20
14.2529637034774
30
0
41
1
10
123.561004489412
20
14.2700210168543
30
0
41
1
10
123.551171313917
20
14.2772898909988
30
0
41
1
10
123.534859454679
20
14.2875082160249
30
0
41
1
10
123.528448239208
20
14.2903652507063
30
0
41
1
10
123.520922723968
20
14.2903897893651
30
0
41
1
10
123.519748598788
20
14.2875543836234
30
0
41
1
10
123.522224174389
20
14.277369159435
30
0
41
1
10
123.52578250787
20
14.2700835318897
30
0
41
1
10
123.536008302682
20
14.2529765435597
30
0
41
1
10
123.542700715944
20
14.2431003754386
30
0
41
1
10
123.55792775034
20
14.2221399537161
30
0
41
1
10
123.566628668
20
14.2108285302577
30
0
41
1
10
123.585192455251
20
14.1876523821413
30
0
41
1
10
123.595079721552
20
14.1757473715766
30
0
41
1
10
123.6055
20
14.163566138175
30
0
0
SPLINE
5
1AE
100
AcDbEntity
8
1
62
256
6
ByLayer
370
18
48
1
60
0
100
AcDbSpline
70
4
71
3
72
8
73
4
40
0
40
0
40
0
40
0
40
1
40
1
40
1
40
1
41
1
10
123.6055
20
14.163566138175
30
0
41
1
10
123.821310496289
20
13.9112851613349
30
0
41
1
10
124.036011628907
20
13.6577519784764
30
0
41
1
10
124.2495
20
13.4028498781752
30
0
0
SPLINE
5
1AF
100
AcDbEntity
8
1
62
256
6
ByLayer
370
18
48
1
60
0
100
AcDbSpline
70
4
71
3
72
14
73
10
40
0
40
0
40
0
40
0
40
0.25
40
0.25
40
0.5
40
0.5
40
0.75
40
0.75
40
1
40
1
40
1
40
1
41
1
10
124.3245
20
13.2890240128757
30
0
41
1
10
124.3245
20
13.2934918735213
30
0
41
1
10
124.321992346342
20
13.300281104765
30
0
41
1
10
124.313542185526
20
13.3166495690633
30
0
41
1
10
124.307671738472
20
13.3261135176569
30
0
41
1
10
124.293819783589
20
13.3464514484413
30
0
41
1
10
124.285784157645
20
13.3573907805796
30
0
41
1
10
124.268585224204
20
13.3796566607554
30
0
41
1
10
124.259332829839
20
13.3911096182016
30
0
41
1
10
124.2495
20
13.4028498781752
30
0
0
SPLINE
5
1B0
100
AcDbEntity
8
1
62
256
6
ByLayer
370
18
48
1
60
0
100
AcDbSpline
70
4
71
3
72
14
73
10
40
0
40
0
40
0
40
0
40
0.25
40
0.25
40
0.5
40
0.5
40
0.75
40
0.75
40
1
40
1
40
1
40
1
41
1
10
124.2495
20
13.2705960321683
30
0
41
1
10
124.259229511984
20
13.2621232908817
30
0
41
1
10
124.268802577543
20
13.2542265447333
30
0
41
1
10
124.286601863368
20
13.2406968240446
30
0
41
1
10
124.29495424747
20
13.2349725137476
30
0
41
1
10
124.309141149508
20
13.2269970357157
30
0
41
1
10
124.314957231867
20
13.2247944411961
30
0
41
1
10
124.322603033857
20
13.2247762044744
30
0
41
1
10
124.3245
20
13.2269651603499
30
0
41
1
10
124.3245
20
13.2309126238237
30
0
0
SPLINE
5
1B1
100
AcDbEntity
8
1
62
256
6
ByLayer
370
18
48
1
60
0
100
AcDbSpline
70
4
71
3
72
8
73
4
40
0
40
0
40
0
40
0
40
1
40
1
40
1
40
1
41
1
10
124.2495
20
13.2705960321683
30
0
41
1
10
124.034973355329
20
13.4574120577275
30
0
41
1
10
123.820302546545
20
13.6440075237985
30
0
41
1
10
123.6055
20
13.8304003628101
30
0
0
SPLINE
5
1B2
100
AcDbEntity
8
1
62
256
6
ByLayer
370
18
48
1
60
0
100
AcDbSpline
70
4
71
3
72
22
73
18
40
0
40
0
40
0
40
0
40
0.124999999999949
40
0.124999999999949
40
0.249999999999897
40
0.249999999999897
40
0.312499999999897
40
0.312499999999897
40
0.374999999999897
40
0.374999999999897
40
0.499999999999918
40
0.499999999999918
40
0.624999999999938
40
0.624999999999938
40
0.749999999999959
40
0.749999999999959
40
1
40
1
40
1
40
1
41
1
10
123.6055
20
13.8304003628101
30
0
41
1
10
123.593380808039
20
13.8409166748025
30
0
41
1
10
123.581502968404
20
13.850599351319
30
0
41
1
10
123.559693945803
20
13.8666789353283
30
0
41
1
10
123.549522162378
20
13.8732288666946
30
0
41
1
10
123.537271537993
20
13.8790458665806
30
0
41
1
10
123.533636580047
20
13.8803378471185
30
0
41
1
10
123.527722419873
20
13.8814041831677
30
0
41
1
10
123.525390108167
20
13.8812105482548
30
0
41
1
10
123.520318726839
20
13.8783850311454
30
0
41
1
10
123.51974863245
20
13.8735609996964
30
0
41
1
10
123.523039271001
20
13.8599134489843
30
0
41
1
10
123.526840175741
20
13.8511757274978
30
0
41
1
10
123.537301085598
20
13.8315374121517
30
0
41
1
10
123.54386990924
20
13.8207762383678
30
0
41
1
10
123.56664699131
20
13.7863364356785
30
0
41
1
10
123.585022833209
20
13.7617741819729
30
0
41
1
10
123.6055
20
13.7363442052146
30
0
0
SPLINE
5
1B3
100
AcDbEntity
8
1
62
256
6
ByLayer
370
18
48
1
60
0
100
AcDbSpline
70
4
71
3
72
8
73
4
40
0
40
0
40
0
40
0
40
1
40
1
40
1
40
1
41
1
10
123.6055
20
13.7363442052146
30
0
41
1
10
123.821632798019
20
13.46793539229
30
0
41
1
10
124.036344592726
20
13.1980199940686
30
0
41
1
10
124.2495
20
12.926454472724
30
0
0
SPLINE
5
1B4
100
AcDbEntity
8
1
62
256
6
ByLayer
370
18
48
1
60
0
100
AcDbSpline
70
4
71
3
72
14
73
10
40
0
40
0
40
0
40
0
40
0.25
40
0.25
40
0.5
40
0.5
40
0.75
40
0.75
40
1
40
1
40
1
40
1
41
1
10
124.3245
20
12.7986396737458
30
0
41
1
10
124.3245
20
12.8046677602699
30
0
41
1
10
124.321958595129
20
12.8129038412025
30
0
41
1
10
124.31345050483
20
12.8320919898524
30
0
41
1
10
124.30764570247
20
12.8426975094091
30
0
41
1
10
124.293816071692
20
12.8653586799415
30
0
41
1
10
124.285845445367
20
12.8772918268094
30
0
41
1
10
124.268672225887
20
12.9014801599265
30
0
41
1
10
124.259398489399
20
12.9138435403137
30
0
41
1
10
124.2495
20
12.9264544727241
30
0
0
SPLINE
5
1B5
100
AcDbEntity
8
1
62
256
6
ByLayer
370
18
48
1
60
0
100
AcDbSpline
70
4
71
3
72
14
73
10
40
0
40
0
40
0
40
0
40
0.25
40
0.25
40
0.5
40
0.5
40
0.75
40
0.75
40
1
40
1
40
1
40
1
41
1
10
124.2495
20
12.7516701480928
30
0
41
1
10
124.259247241143
20
12.7434093616652
30
0
41
1
10
124.268784239155
20
12.7358911180699
30
0
41
1
10
124.286942676012
20
12.7231617994199
30
0
41
1
10
124.295401197738
20
12.7180938406677
30
0
41
1
10
124.309600369956
20
12.7119377182011
30
0
41
1
10
124.31533264485
20
12.7109091615286
30
0
41
1
10
124.322732668699
20
12.7133385198427
30
0
41
1
10
124.3245
20
12.7167960692811
30
0
41
1
10
124.3245
20
12.7218227111435
30
0
0
SPLINE
5
1B6
100
AcDbEntity
8
1
62
256
6
ByLayer
370
18
48
1
60
0
100
AcDbSpline
70
4
71
3
72
8
73
4
40
0
40
0
40
0
40
0
40
1
40
1
40
1
40
1
41
1
10
124.2495
20
12.7516701480928
30
0
41
1
10
124.034913814811
20
12.9335319303368
30
0
41
1
10
123.820244754008
20
13.11526338816
30
0
41
1
10
123.6055
20
13.2968754376164
30
0
0
SPLINE
5
1B7
100
AcDbEntity
8
1
62
256
6
ByLayer
370
18
48
1
60
0
100
AcDbSpline
70
4
71
3
72
22
73
18
40
0
40
0
40
0
40
0
40
0.124999999999969
40
0.124999999999969
40
0.249999999999938
40
0.249999999999938
40
0.312499999999946
40
0.312499999999946
40
0.374999999999953
40
0.374999999999953
40
0.499999999999971
40
0.499999999999971
40
0.624999999999988
40
0.624999999999988
40
0.750000000000006
40
0.750000000000006
40
1
40
1
40
1
40
1
41
1
10
123.6055
20
13.2968754376164
30
0
41
1
10
123.592993500049
20
13.3074523250384
30
0
41
1
10
123.580706276432
20
13.3169884662057
30
0
41
1
10
123.558138730979
20
13.3320952215856
30
0
41
1
10
123.547727595054
20
13.3377169168032
30
0
41
1
10
123.535443493164
20
13.3413685698684
30
0
41
1
10
123.531968282765
20
13.3417770780818
30
0
41
1
10
123.526382198925
20
13.3409817366965
30
0
41
1
10
123.52422997549
20
13.3397516724482
30
0
41
1
10
123.519946272536
20
13.3338790234322
30
0
41
1
10
123.519899733555
20
13.3270135233085
30
0
41
1
10
123.523871617955
20
13.3100249021396
30
0
41
1
10
123.52788622281
20
13.299761289305
30
0
41
1
10
123.538430599233
20
13.2776904215159
30
0
41
1
10
123.544991563262
20
13.2657814976337
30
0
41
1
10
123.567418182231
20
13.228501555755
30
0
41
1
10
123.585340647127
20
13.2025463743235
30
0
41
1
10
123.6055
20
13.1757784213042
30
0
0
SPLINE
5
1B8
100
AcDbEntity
8
1
62
256
6
ByLayer
370
18
48
1
60
0
100
AcDbSpline
70
4
71
3
72
8
73
4
40
0
40
0
40
0
40
0
40
1
40
1
40
1
40
1
41
1
10
123.6055
20
13.1757784213042
30
0
41
1
10
123.822056039247
20
12.8882313992868
30
0
41
1
10
124.036782319601
20
12.598874807819
30
0
41
1
10
124.2495
20
12.3075317791603
30
0
0
SPLINE
5
1B9
100
AcDbEntity
8
1
62
256
6
ByLayer
370
18
48
1
60
0
100
AcDbSpline
70
4
71
3
72
12
73
8
40
0
40
0
40
0
40
0
40
0.250000000000022
40
0.250000000000022
40
0.500000000000044
40
0.500000000000044
40
1
40
1
40
1
40
1
41
1
10
124.324500000001
20
12.1637626739618
30
0
41
1
10
124.324500000001
20
12.1715373958858
30
0
41
1
10
124.321911983203
20
12.1813988967017
30
0
41
1
10
124.313432961461
20
12.2035631073316
30
0
41
1
10
124.307648294226
20
12.2155633646174
30
0
41
1
10
124.28692603742
20
12.2535669467308
30
0
41
1
10
124.26945325247
20
12.2802033455514
30
0
41
1
10
124.2495
20
12.3075317791603
30
0
0
SPLINE
5
1BA
100
AcDbEntity
8
1
62
256
6
ByLayer
370
18
48
1
60
0
100
AcDbSpline
70
4
71
3
72
14
73
10
40
0
40
0
40
0
40
0
40
0.25
40
0.25
40
0.5
40
0.5
40
0.75
40
0.75
40
1
40
1
40
1
40
1
41
1
10
124.2495
20
12.0859271543188
30
0
41
1
10
124.259305222304
20
12.0777904297006
30
0
41
1
10
124.268941650508
20
12.070512356637
30
0
41
1
10
124.287372796518
20
12.0586762048216
30
0
41
1
10
124.295964745964
20
12.0543030091874
30
0
41
1
10
124.310152692604
20
12.0501419836254
30
0
41
1
10
124.315769240382
20
12.0504143348533
30
0
41
1
10
124.322871011082
20
12.05544827789
30
0
41
1
10
124.3245
20
12.0602107169181
30
0
41
1
10
124.3245
20
12.0663360248446
30
0
0
SPLINE
5
1BB
100
AcDbEntity
8
1
62
256
6
ByLayer
370
18
48
1
60
0
100
AcDbSpline
70
4
71
3
72
8
73
4
40
0
40
0
40
0
40
0
40
1
40
1
40
1
40
1
41
1
10
124.2495
20
12.0859271543189
30
0
41
1
10
124.034868684835
20
12.2640359061465
30
0
41
1
10
123.820200946825
20
12.4420861479081
30
0
41
1
10
123.6055
20
12.6200829661946
30
0
0
SPLINE
5
1BC
100
AcDbEntity
8
1
62
256
6
ByLayer
370
18
48
1
60
0
100
AcDbSpline
70
4
71
3
72
22
73
18
40
0
40
0
40
0
40
0
40
0.12500000000003
40
0.12500000000003
40
0.25000000000006
40
0.25000000000006
40
0.312500000000059
40
0.312500000000059
40
0.375000000000059
40
0.375000000000059
40
0.500000000000046
40
0.500000000000046
40
0.625000000000033
40
0.625000000000033
40
0.75000000000002
40
0.75000000000002
40
1
40
1
40
1
40
1
41
1
10
123.6055
20
12.6200829661946
30
0
41
1
10
123.592533498862
20
12.6308327834681
30
0
41
1
10
123.579753193094
20
12.6402864467316
30
0
41
1
10
123.556254451705
20
12.654302916153
30
0
41
1
10
123.545490827475
20
12.6587687434616
30
0
41
1
10
123.533489226953
20
12.6596867674203
30
0
41
1
10
123.530205563054
20
12.6590766548954
30
0
41
1
10
123.525017733385
20
12.6560886458349
30
0
41
1
10
123.523156119715
20
12.653697451913
30
0
41
1
10
123.519717166478
20
12.6445192588561
30
0
41
1
10
123.520181417857
20
12.6355833444457
30
0
41
1
10
123.524792588522
20
12.6150938819369
30
0
41
1
10
123.528964218601
20
12.6033152733689
30
0
41
1
10
123.539577226902
20
12.5786246428309
30
0
41
1
10
123.546127538049
20
12.5654512705205
30
0
41
1
10
123.568108475269
20
12.5251641327109
30
0
41
1
10
123.585654455034
20
12.4974380464925
30
0
41
1
10
123.6055
20
12.4690368442115
30
0
0
SPLINE
5
1BD
100
AcDbEntity
8
1
62
256
6
ByLayer
370
18
48
1
60
0
100
AcDbSpline
70
4
71
3
72
8
73
4
40
0
40
0
40
0
40
0
40
1
40
1
40
1
40
1
41
1
10
123.6055
20
12.4690368442115
30
0
41
1
10
123.822628100131
20
12.1583021627902
30
0
41
1
10
124.037374649206
20
11.845389577551
30
0
41
1
10
124.2495
20
11.5300799335829
30
0
0
SPLINE
5
1BE
100
AcDbEntity
8
1
62
256
6
ByLayer
370
18
48
1
60
0
100
AcDbSpline
70
4
71
3
72
12
73
8
40
0
40
0
40
0
40
0
40
0.24999999999998
40
0.24999999999998
40
0.499999999999961
40
0.499999999999961
40
1
40
1
40
1
40
1
41
1
10
124.324500000009
20
11.3675876053922
30
0
41
1
10
124.324500000008
20
11.3772221576382
30
0
41
1
10
124.321873699401
20
11.3890583159479
30
0
41
1
10
124.313449392423
20
11.4145929308426
30
0
41
1
10
124.307670540604
20
11.4282616213631
30
0
41
1
10
124.287041271642
20
11.4708624306539
30
0
41
1
10
124.269646391906
20
11.5001337171809
30
0
41
1
10
124.2495
20
11.5300799335829
30
0
0
SPLINE
5
1BF
100
AcDbEntity
8
1
62
256
6
ByLayer
370
18
48
1
60
0
100
AcDbSpline
70
4
71
3
72
14
73
10
40
0
40
0
40
0
40
0
40
0.25
40
0.25
40
0.5
40
0.5
40
0.75
40
0.75
40
1
40
1
40
1
40
1
41
1
10
124.2495
20
11.2553382123748
30
0
41
1
10
124.259398868046
20
11.2472314250126
30
0
41
1
10
124.269223229739
20
11.2400961103482
30
0
41
1
10
124.287974418792
20
11.2291854674856
30
0
41
1
10
124.296731434281
20
11.2256010647453
30
0
41
1
10
124.310852246407
20
11.2237352895698
30
0
41
1
10
124.316292465155
20
11.2254991105442
30
0
41
1
10
124.323020110113
20
11.2333581500304
30
0
41
1
10
124.3245
20
11.2394805992425
30
0
41
1
10
124.3245
20
11.2467427634159
30
0
0
SPLINE
5
1C0
100
AcDbEntity
8
1
62
256
6
ByLayer
370
18
48
1
60
0
100
AcDbSpline
70
4
71
3
72
8
73
4
40
0
40
0
40
0
40
0
40
1
40
1
40
1
40
1
41
1
10
124.2495
20
11.2553382123749
30
0
41
1
10
124.034840117021
20
11.4311362953957
30
0
41
1
10
123.820173237194
20
11.6069229874504
30
0
41
1
10
123.6055
20
11.7826993267326
30
0
0
SPLINE
5
1C1
100
AcDbEntity
8
1
62
256
6
ByLayer
370
18
48
1
60
0
100
AcDbSpline
70
4
71
3
72
22
73
18
40
0
40
0
40
0
40
0
40
0.124999999999936
40
0.124999999999936
40
0.187499999999938
40
0.187499999999938
40
0.249999999999941
40
0.249999999999941
40
0.312499999999944
40
0.312499999999944
40
0.374999999999947
40
0.374999999999947
40
0.499999999999955
40
0.499999999999955
40
0.749999999999977
40
0.749999999999977
40
1
40
1
40
1
40
1
41
1
10
123.6055
20
11.7826993267326
30
0
41
1
10
123.591974522899
20
11.79377410663
30
0
41
1
10
123.578572891949
20
11.8032351891506
30
0
41
1
10
123.560072832448
20
11.8127399031512
30
0
41
1
10
123.554246459773
20
11.8150706091348
30
0
41
1
10
123.543782254935
20
11.8176552021779
30
0
41
1
10
123.539080357025
20
11.8178985994964
30
0
41
1
10
123.531404308881
20
11.8162564980175
30
0
41
1
10
123.52830691468
20
11.814376925707
30
0
41
1
10
123.523684963868
20
11.8087898475588
30
0
41
1
10
123.522185737906
20
11.8051654829402
30
0
41
1
10
123.519647436547
20
11.792280964629
30
0
41
1
10
123.52060442944
20
11.7813013056084
30
0
41
1
10
123.528430006134
20
11.744884787139
30
0
41
1
10
123.540081448102
20
11.7161474341274
30
0
41
1
10
123.568801388406
20
11.6577627074369
30
0
41
1
10
123.585973014625
20
11.6278885715471
30
0
41
1
10
123.6055
20
11.5974568928041
30
0
0
SPLINE
5
1C2
100
AcDbEntity
8
1
62
256
6
ByLayer
370
18
48
1
60
0
100
AcDbSpline
70
4
71
3
72
8
73
4
40
0
40
0
40
0
40
0
40
1
40
1
40
1
40
1
41
1
10
123.6055
20
11.5974568928041
30
0
41
1
10
123.823431123556
20
11.2578238253876
30
0
41
1
10
124.038207131738
20
10.9155530145199
30
0
41
1
10
124.2495
20
10.5703702247132
30
0
0
SPLINE
5
1C3
100
AcDbEntity
8
1
62
256
6
ByLayer
370
18
48
1
60
0
100
AcDbSpline
70
4
71
3
72
12
73
8
40
0
40
0
40
0
40
0
40
0.249999999999993
40
0.249999999999993
40
0.499999999999986
40
0.499999999999986
40
1
40
1
40
1
40
1
41
1
10
124.324500000003
20
10.3850933995421
30
0
41
1
10
124.324500000003
20
10.3970787264872
30
0
41
1
10
124.321814823682
20
10.4112191757296
30
0
41
1
10
124.313432917887
20
10.440781483875
30
0
41
1
10
124.307644159211
20
10.4564966194783
30
0
41
1
10
124.287203970073
20
10.5044683083614
30
0
41
1
10
124.269842865355
20
10.5371366987856
30
0
41
1
10
124.2495
20
10.5703702247132
30
0
0
SPLINE
5
1C4
100
AcDbEntity
8
1
62
256
6
ByLayer
370
18
48
1
60
0
100
AcDbSpline
70
4
71
3
72
14
73
10
40
0
40
0
40
0
40
0
40
0.25
40
0.25
40
0.5
40
0.5
40
0.75
40
0.75
40
1
40
1
40
1
40
1
41
1
10
124.2495
20
10.2329620912907
30
0
41
1
10
124.259575474704
20
10.224729678792
30
0
41
1
10
124.26966349178
20
10.2176576935563
30
0
41
1
10
124.288734068695
20
10.2077835490402
30
0
41
1
10
124.297672368402
20
10.2051360238348
30
0
41
1
10
124.31177716259
20
10.2060335303122
30
0
41
1
10
124.316905532375
20
10.2095373596982
30
0
41
1
10
124.323198953868
20
10.2205854056193
30
0
41
1
10
124.324500000001
20
10.228127808386
30
0
41
1
10
124.324500000001
20
10.2365834598277
30
0
0
SPLINE
5
1C5
100
AcDbEntity
8
1
62
256
6
ByLayer
370
18
48
1
60
0
100
AcDbSpline
70
4
71
3
72
8
73
4
40
0
40
0
40
0
40
0
40
1
40
1
40
1
40
1
41
1
10
124.2495
20
10.2329620912907
30
0
41
1
10
124.034835023948
20
10.4083593488627
30
0
41
1
10
123.820168300833
20
10.5837537555398
30
0
41
1
10
123.6055
20
10.7591455874816
30
0
0
SPLINE
5
1C6
100
AcDbEntity
8
1
62
256
6
ByLayer
370
18
48
1
60
0
100
AcDbSpline
70
4
71
3
72
20
73
16
40
0
40
0
40
0
40
0
40
0.125000000000012
40
0.125000000000012
40
0.187500000000018
40
0.187500000000018
40
0.250000000000024
40
0.250000000000024
40
0.375000000000015
40
0.375000000000015
40
0.500000000000006
40
0.500000000000006
40
0.750000000000003
40
0.750000000000003
40
1
40
1
40
1
40
1
41
1
10
123.6055
20
10.7591455874816
30
0
41
1
10
123.591241209992
20
10.7707955390167
30
0
41
1
10
123.576882009736
20
10.7804531729583
30
0
41
1
10
123.557418433899
20
10.788465770257
30
0
41
1
10
123.55141786387
20
10.7899919676717
30
0
41
1
10
123.540736957698
20
10.7903960135116
30
0
41
1
10
123.536294750605
20
10.7892784032771
30
0
41
1
10
123.525397558399
20
10.7823442394069
30
0
41
1
10
123.521806464736
20
10.7729752613701
30
0
41
1
10
123.519817784919
20
10.7505443210121
30
0
41
1
10
123.521200723363
20
10.7375040508776
30
0
41
1
10
123.529841545333
20
10.6949118150193
30
0
41
1
10
123.541334881166
20
10.6631039636051
30
0
41
1
10
123.569508859252
20
10.598922252976
30
0
41
1
10
123.586315553106
20
10.56633153483
30
0
41
1
10
123.6055
20
10.5333158840139
30
0
0
SPLINE
5
1C7
100
AcDbEntity
8
1
62
256
6
ByLayer
370
18
48
1
60
0
100
AcDbSpline
70
4
71
3
72
8
73
4
40
0
40
0
40
0
40
0
40
1
40
1
40
1
40
1
41
1
10
123.6055
20
10.5333158840139
30
0
41
1
10
123.824618246661
20
10.1562223165521
30
0
41
1
10
124.039439331602
20
9.77589582489912
30
0
41
1
10
124.2495
20
9.39198788418858
30
0
0
SPLINE
5
1C8
100
AcDbEntity
8
1
62
256
6
ByLayer
370
18
48
1
60
0
100
AcDbSpline
70
4
71
3
72
12
73
8
40
0
40
0
40
0
40
0
40
0.250000000000012
40
0.250000000000012
40
0.500000000000024
40
0.500000000000024
40
1
40
1
40
1
40
1
41
1
10
124.324500000007
20
9.1775976034331
30
0
41
1
10
124.324500000006
20
9.19243785106644
30
0
41
1
10
124.321810105843
20
9.20926595337374
30
0
41
1
10
124.313502648554
20
9.24388815157212
30
0
41
1
10
124.307829005166
20
9.26188470172517
30
0
41
1
10
124.287476650065
20
9.3171419602466
30
0
41
1
10
124.270072992639
20
9.35438857871983
30
0
41
1
10
124.2495
20
9.39198788418858
30
0
0
SPLINE
5
1C9
100
AcDbEntity
8
1
62
256
6
ByLayer
370
18
48
1
60
0
100
AcDbSpline
70
4
71
3
72
14
73
10
40
0
40
0
40
0
40
0
40
0.25
40
0.25
40
0.5
40
0.5
40
0.75
40
0.75
40
1
40
1
40
1
40
1
41
1
10
124.2495
20
8.97677529871237
30
0
41
1
10
124.259733022903
20
8.96829674160008
30
0
41
1
10
124.270234663605
20
8.96110396998233
30
0
41
1
10
124.289965723692
20
8.95233899806036
30
0
41
1
10
124.299095384783
20
8.95102521335383
30
0
41
1
10
124.31290217886
20
8.95550717491071
30
0
41
1
10
124.317639435507
20
8.9611014471509
30
0
41
1
10
124.323378773838
20
8.9757839108189
30
0
41
1
10
124.324500000004
20
8.98486364456062
30
0
41
1
10
124.324500000004
20
8.99465257289154
30
0
0
SPLINE
5
1CA
100
AcDbEntity
8
1
62
256
6
ByLayer
370
18
48
1
60
0
100
AcDbSpline
70
4
71
3
72
8
73
4
40
0
40
0
40
0
40
0
40
1
40
1
40
1
40
1
41
1
10
124.2495
20
8.97677529871268
30
0
41
1
10
124.034872069188
20
9.15460497685513
30
0
41
1
10
123.820203979195
20
9.33237004341848
30
0
41
1
10
123.6055
20
9.51007727764986
30
0
0
SPLINE
5
1CB
100
AcDbEntity
8
1
62
256
6
ByLayer
370
18
48
1
60
0
100
AcDbSpline
70
4
71
3
72
22
73
18
40
0
40
0
40
0
40
0
40
0.0624999999999906
40
0.0624999999999906
40
0.124999999999981
40
0.124999999999981
40
0.187499999999972
40
0.187499999999972
40
0.249999999999962
40
0.249999999999962
40
0.374999999999968
40
0.374999999999968
40
0.499999999999973
40
0.499999999999973
40
0.749999999999987
40
0.749999999999987
40
1
40
1
40
1
40
1
41
1
10
123.6055
20
9.51007727765042
30
0
41
1
10
123.597953135099
20
9.51632370351427
30
0
41
1
10
123.590330974831
20
9.52192824566364
30
0
41
1
10
123.575215001469
20
9.53107584203713
30
0
41
1
10
123.567808263291
20
9.53454137094897
30
0
41
1
10
123.554107443175
20
9.53831811566712
30
0
41
1
10
123.547904073597
20
9.53859250235826
30
0
41
1
10
123.537369962298
20
9.53579049075938
30
0
41
1
10
123.533213831342
20
9.53282520776602
30
0
41
1
10
123.52342445853
20
9.52014194122003
30
0
41
1
10
123.520891479662
20
9.50720783722639
30
0
41
1
10
123.520192653502
20
9.47891574267828
30
0
41
1
10
123.521965579882
20
9.46331662379933
30
0
41
1
10
123.53125227634
20
9.4137784840492
30
0
41
1
10
123.542520094208
20
9.3781366276165
30
0
41
1
10
123.570215633343
20
9.30622488762316
30
0
41
1
10
123.586679720459
20
9.26998156296011
30
0
41
1
10
123.6055
20
9.23348971252761
30
0
0
SPLINE
5
1CC
100
AcDbEntity
8
1
62
256
6
ByLayer
370
18
48
1
60
0
100
AcDbSpline
70
4
71
3
72
8
73
4
40
0
40
0
40
0
40
0
40
1
40
1
40
1
40
1
41
1
10
123.6055
20
9.23348971252764
30
0
41
1
10
123.826510348702
20
8.80495853309318
30
0
41
1
10
124.04140572646
20
8.3723826835176
30
0
41
1
10
124.2495
20
7.9353083296312
30
0
0
SPLINE
5
1CD
100
AcDbEntity
8
1
62
256
6
ByLayer
370
18
48
1
60
0
100
AcDbSpline
70
4
71
3
72
12
73
8
40
0
40
0
40
0
40
0
40
0.250000000000002
40
0.250000000000002
40
0.500000000000004
40
0.500000000000004
40
1
40
1
40
1
40
1
41
1
10
124.3245
20
7.68098768618989
30
0
41
1
10
124.3245
20
7.69970714527068
30
0
41
1
10
124.321855324873
20
7.71979491474602
30
0
41
1
10
124.313599942066
20
7.76148387237251
30
0
41
1
10
124.30788129739
20
7.78314743733998
30
0
41
1
10
124.287783443018
20
7.84783236502622
30
0
41
1
10
124.270417001908
20
7.89137494819533
30
0
41
1
10
124.2495
20
7.9353083296312
30
0
0
SPLINE
5
1CE
100
AcDbEntity
8
1
62
256
6
ByLayer
370
18
48
1
60
0
100
AcDbSpline
70
4
71
3
72
14
73
10
40
0
40
0
40
0
40
0
40
0.25
40
0.25
40
0.5
40
0.5
40
0.75
40
0.75
40
1
40
1
40
1
40
1
41
1
10
124.2495
20
7.41601229971624
30
0
41
1
10
124.260085369069
20
7.40687764284766
30
0
41
1
10
124.27112172787
20
7.39936506515718
30
0
41
1
10
124.291967553371
20
7.39210637772578
30
0
41
1
10
124.301175936096
20
7.39293743059267
30
0
41
1
10
124.31440749166
20
7.40245779349979
30
0
41
1
10
124.318609915423
20
7.41080188705769
30
0
41
1
10
124.323586945423
20
7.42978726006581
30
0
41
1
10
124.3245
20
7.44045271787036
30
0
41
1
10
124.3245
20
7.45179206956732
30
0
0
SPLINE
5
1CF
100
AcDbEntity
8
1
62
256
6
ByLayer
370
18
48
1
60
0
100
AcDbSpline
70
4
71
3
72
8
73
4
40
0
40
0
40
0
40
0
40
1
40
1
40
1
40
1
41
1
10
124.2495
20
7.41601229971644
30
0
41
1
10
124.035005737834
20
7.6011103791873
30
0
41
1
10
123.820331960648
20
7.7859304687195
30
0
41
1
10
123.6055
20
7.9705056015292
30
0
0
SPLINE
5
1D0
100
AcDbEntity
8
1
62
256
6
ByLayer
370
18
48
1
60
0
100
AcDbSpline
70
4
71
3
72
24
73
20
40
0
40
0
40
0
40
0
40
0.0625000000000109
40
0.0625000000000109
40
0.125000000000022
40
0.125000000000022
40
0.187500000000033
40
0.187500000000033
40
0.250000000000043
40
0.250000000000043
40
0.375000000000036
40
0.375000000000036
40
0.500000000000029
40
0.500000000000029
40
0.625000000000022
40
0.625000000000022
40
0.750000000000014
40
0.750000000000014
40
1
40
1
40
1
40
1
41
1
10
123.6055
20
7.97050560152923
30
0
41
1
10
123.597228437567
20
7.97761220117158
30
0
41
1
10
123.588914419841
20
7.98372808901581
30
0
41
1
10
123.57215708379
20
7.99292841463935
30
0
41
1
10
123.563911018039
20
7.99578434456319
30
0
41
1
10
123.549332527511
20
7.99660792687314
30
0
41
1
10
123.543058514406
20
7.99456982870356
30
0
41
1
10
123.533175608737
20
7.98666433318874
30
0
41
1
10
123.529511798149
20
7.98085776016845
30
0
41
1
10
123.521618643724
20
7.96063958687657
30
0
41
1
10
123.520184061725
20
7.94339496214937
30
0
41
1
10
123.520919902298
20
7.90773484786391
30
0
41
1
10
123.523123853493
20
7.88887377785335
30
0
41
1
10
123.529813307373
20
7.84985428552389
30
0
41
1
10
123.534358710199
20
7.82963060680703
30
0
41
1
10
123.544946601497
20
7.789293864749
30
0
41
1
10
123.551022507126
20
7.76901608512085
30
0
41
1
10
123.571175868445
20
7.70791114649737
30
0
41
1
10
123.58712561472
20
7.66681881346415
30
0
41
1
10
123.6055
20
7.62539331825747
30
0
0
SPLINE
5
1D1
100
AcDbEntity
8
1
62
256
6
ByLayer
370
18
48
1
60
0
100
AcDbSpline
70
4
71
3
72
8
73
4
40
0
40
0
40
0
40
0
40
1
40
1
40
1
40
1
41
1
10
123.6055
20
7.62539331825744
30
0
41
1
10
123.829910422179
20
7.11945460374577
30
0
41
1
10
124.044943589855
20
6.60826752524312
30
0
41
1
10
124.2495
20
6.09121670091346
30
0
0
SPLINE
5
1D2
100
AcDbEntity
8
1
62
256
6
ByLayer
370
18
48
1
60
0
100
AcDbSpline
70
4
71
3
72
12
73
8
40
0
40
0
40
0
40
0
40
0.250000000000003
40
0.250000000000003
40
0.500000000000006
40
0.500000000000006
40
1
40
1
40
1
40
1
41
1
10
124.3245
20
5.77546396168594
30
0
41
1
10
124.3245
20
5.79990911985587
30
0
41
1
10
124.321817981306
20
5.82575094588415
30
0
41
1
10
124.313562475329
20
5.87825088423145
30
0
41
1
10
124.307981564277
20
5.90464219629337
30
0
41
1
10
124.288101027238
20
5.98411119525508
30
0
41
1
10
124.270762412543
20
6.03747236738386
30
0
41
1
10
124.2495
20
6.09121670091344
30
0
0
SPLINE
5
1D3
100
AcDbEntity
8
1
62
256
6
ByLayer
370
18
48
1
60
0
100
AcDbSpline
70
4
71
3
72
18
73
14
40
0
40
0
40
0
40
0
40
0.12500000000001
40
0.12500000000001
40
0.25000000000002
40
0.25000000000002
40
0.375000000000031
40
0.375000000000031
40
0.500000000000041
40
0.500000000000041
40
0.750000000000021
40
0.750000000000021
40
1
40
1
40
1
40
1
41
1
10
124.2495
20
5.41462793875507
30
0
41
1
10
124.25500497881
20
5.40942226426444
30
0
41
1
10
124.260747198982
20
5.40471028405074
30
0
41
1
10
124.272271983718
20
5.39733639177754
30
0
41
1
10
124.278205664729
20
5.39462177258605
30
0
41
1
10
124.2893124648
20
5.39239882537683
30
0
41
1
10
124.294555762787
20
5.39291259740196
30
0
41
1
10
124.303434328157
20
5.39691307946595
30
0
41
1
10
124.307128635141
20
5.40034044417862
30
0
41
1
10
124.316095454751
20
5.41297592211833
30
0
41
1
10
124.319554238696
20
5.42459510897643
30
0
41
1
10
124.323742183536
20
5.44918025464588
30
0
41
1
10
124.3245
20
5.46229665726335
30
0
41
1
10
124.3245
20
5.47587470579174
30
0
0
SPLINE
5
1D4
100
AcDbEntity
8
1
62
256
6
ByLayer
370
18
48
1
60
0
100
AcDbSpline
70
4
71
3
72
8
73
4
40
0
40
0
40
0
40
0
40
1
40
1
40
1
40
1
41
1
10
124.2495
20
5.41462793875587
30
0
41
1
10
124.035436607666
20
5.61705275803968
30
0
41
1
10
123.820739969169
20
5.8185783823277
30
0
41
1
10
123.6055
20
6.01933248954902
30
0
0
SPLINE
5
1D5
100
AcDbEntity
8
1
62
256
6
ByLayer
370
18
48
1
60
0
100
AcDbSpline
70
4
71
3
72
24
73
20
40
0
40
0
40
0
40
0
40
0.0625000000000703
40
0.0625000000000703
40
0.0937500000000778
40
0.0937500000000778
40
0.125000000000085
40
0.125000000000085
40
0.187500000000078
40
0.187500000000078
40
0.25000000000007
40
0.25000000000007
40
0.375000000000053
40
0.375000000000053
40
0.500000000000037
40
0.500000000000037
40
0.750000000000018
40
0.750000000000018
40
1
40
1
40
1
40
1
41
1
10
123.605500000001
20
6.01933248955072
30
0
41
1
10
123.596351499941
20
6.0278652865442
30
0
41
1
10
123.586687669786
20
6.03519990669926
30
0
41
1
10
123.572333089937
20
6.04182000623808
30
0
41
1
10
123.567554778791
20
6.04327231683047
30
0
41
1
10
123.558641496353
20
6.04425085338198
30
0
41
1
10
123.554365500145
20
6.04377545461881
30
0
41
1
10
123.543093981622
20
6.0397104876867
30
0
41
1
10
123.537346922296
20
6.03351139340867
30
0
41
1
10
123.5289338815
20
6.01793447613008
30
0
41
1
10
123.526157472395
20
6.00858243147934
30
0
41
1
10
123.520450088133
20
5.97888478005342
30
0
41
1
10
123.519936430234
20
5.95636684520741
30
0
41
1
10
123.521890124223
20
5.9105914997113
30
0
41
1
10
123.524441710891
20
5.88694932565969
30
0
41
1
10
123.53512134905
20
5.81454611730416
30
0
41
1
10
123.545959817937
20
5.76586334747347
30
0
41
1
10
123.572183989675
20
5.66796329634951
30
0
41
1
10
123.58766472211
20
5.6187362951508
30
0
41
1
10
123.6055
20
5.56924233257851
30
0
0
SPLINE
5
1D6
100
AcDbEntity
8
1
62
256
6
ByLayer
370
18
48
1
60
0
100
AcDbSpline
70
4
71
3
72
8
73
4
40
0
40
0
40
0
40
0
40
1
40
1
40
1
40
1
41
1
10
123.6055
20
5.56924233257851
30
0
41
1
10
123.837557523584
20
4.92526882917295
30
0
41
1
10
124.052909503293
20
4.27395742250891
30
0
41
1
10
124.2495
20
3.61440504217313
30
0
0
SPLINE
5
1D7
100
AcDbEntity
8
1
62
256
6
ByLayer
370
18
48
1
60
0
100
AcDbSpline
70
4
71
3
72
12
73
8
40
0
40
0
40
0
40
0
40
0.25
40
0.25
40
0.5
40
0.5
40
1
40
1
40
1
40
1
41
1
10
124.3245
20
3.18008548133119
30
0
41
1
10
124.3245
20
3.21493915084142
30
0
41
1
10
124.321916951756
20
3.25054591711105
30
0
41
1
10
124.313952554405
20
3.32253866084051
30
0
41
1
10
124.308463266611
20
3.35905903325784
30
0
41
1
10
124.288693751875
20
3.46847945251025
30
0
41
1
10
124.271251087086
20
3.54143111158027
30
0
41
1
10
124.2495
20
3.61440504217313
30
0
0
SPLINE
5
1D8
100
AcDbEntity
8
1
62
256
6
ByLayer
370
18
48
1
60
0
100
AcDbSpline
70
4
71
3
72
18
73
14
40
0
40
0
40
0
40
0
40
0.125000000000011
40
0.125000000000011
40
0.250000000000022
40
0.250000000000022
40
0.375000000000033
40
0.375000000000033
40
0.500000000000044
40
0.500000000000044
40
0.750000000000022
40
0.750000000000022
40
1
40
1
40
1
40
1
41
1
10
124.249499999998
20
2.63358295813151
30
0
41
1
10
124.255413958302
20
2.62662406169034
30
0
41
1
10
124.261770458563
20
2.62030972372813
30
0
41
1
10
124.275305680587
20
2.61142405447754
30
0
41
1
10
124.282553982376
20
2.60917728824265
30
0
41
1
10
124.295087758634
20
2.61165495551509
30
0
41
1
10
124.300230069096
20
2.61609947706594
30
0
41
1
10
124.308159051547
20
2.62751165373612
30
0
41
1
10
124.31112797194
20
2.63451707959217
30
0
41
1
10
124.318222409956
20
2.65669355896853
30
0
41
1
10
124.32074518818
20
2.67337802668845
30
0
41
1
10
124.323912195392
20
2.70715170013833
30
0
41
1
10
124.3245
20
2.72451069593018
30
0
41
1
10
124.3245
20
2.742142853187
30
0
0
SPLINE
5
1D9
100
AcDbEntity
8
1
62
256
6
ByLayer
370
18
48
1
60
0
100
AcDbSpline
70
4
71
3
72
8
73
4
40
0
40
0
40
0
40
0
40
1
40
1
40
1
40
1
41
1
10
124.2495
20
2.63358295813433
30
0
41
1
10
124.037366545293
20
2.88319830325079
30
0
41
1
10
123.822529300301
20
3.12967639832337
30
0
41
1
10
123.6055
20
3.37361101742616
30
0
0
SPLINE
5
1DA
100
AcDbEntity
8
1
62
256
6
ByLayer
370
18
48
1
60
0
100
AcDbSpline
70
4
71
3
72
28
73
24
40
0
40
0
40
0
40
0
40
0.0312500000000006
40
0.0312500000000006
40
0.0625000000000012
40
0.0625000000000012
40
0.0937500000000019
40
0.0937500000000019
40
0.125000000000003
40
0.125000000000003
40
0.156250000000003
40
0.156250000000003
40
0.187500000000004
40
0.187500000000004
40
0.250000000000007
40
0.250000000000007
40
0.375000000000008
40
0.375000000000008
40
0.500000000000011
40
0.500000000000011
40
0.750000000000005
40
0.750000000000005
40
1
40
1
40
1
40
1
41
1
10
123.6055
20
3.37361101742664
30
0
41
1
10
123.600004737356
20
3.37978753275476
30
0
41
1
10
123.594211799427
20
3.38544000419918
30
0
41
1
10
123.582136331548
20
3.39446580599059
30
0
41
1
10
123.57576477563
20
3.3978512493378
30
0
41
1
10
123.563317296278
20
3.40029497592647
30
0
41
1
10
123.557514772273
20
3.39919648353933
30
0
41
1
10
123.547823371798
20
3.39340034883722
30
0
41
1
10
123.543809077888
20
3.38877626134618
30
0
41
1
10
123.537237166688
20
3.37796395532271
30
0
41
1
10
123.534613239458
20
3.37171127711895
30
0
41
1
10
123.530308572924
20
3.35860754730578
30
0
41
1
10
123.528603869242
20
3.35169550185068
30
0
41
1
10
123.524370352316
20
3.33024655544989
30
0
41
1
10
123.52272221291
20
3.31500768205495
30
0
41
1
10
123.519763477303
20
3.26920455495943
30
0
41
1
10
123.520294258414
20
3.23786352107083
30
0
41
1
10
123.523619220996
20
3.17441960623168
30
0
41
1
10
123.526514159926
20
3.14228555379816
30
0
41
1
10
123.537644146478
20
3.04503534315216
30
0
41
1
10
123.548337322641
20
2.9788780529988
30
0
41
1
10
123.573783904193
20
2.84691878935365
30
0
41
1
10
123.588606152318
20
2.78086412303722
30
0
41
1
10
123.6055
20
2.71473982249819
30
0
0
SPLINE
5
1DB
100
AcDbEntity
8
1
62
256
6
ByLayer
370
18
48
1
60
0
100
AcDbSpline
70
4
71
3
72
8
73
4
40
0
40
0
40
0
40
0
40
1
40
1
40
1
40
1
41
1
10
123.6055
20
2.71473982249822
30
0
41
1
10
123.869706220596
20
1.68060882615396
30
0
41
1
10
124.086430061288
20
0.633506181258753
30
0
41
1
10
124.2495
20
-0.428254102138396
30
0
0
SPLINE
5
1DC
100
AcDbEntity
8
1
62
256
6
ByLayer
370
18
48
1
60
0
100
AcDbSpline
70
4
71
3
72
12
73
8
40
0
40
0
40
0
40
0
40
0.25
40
0.25
40
0.499999999999999
40
0.499999999999999
40
1
40
1
40
1
40
1
41
1
10
124.3245
20
-1.36448444176372
30
0
41
1
10
124.3245
20
-1.28674675504075
30
0
41
1
10
124.322321213052
20
-1.20886639586854
30
0
41
1
10
124.315157628452
20
-1.05297445046242
30
0
41
1
10
124.310118654055
20
-0.974957444600648
30
0
41
1
10
124.29112293735
20
-0.740740290623108
30
0
41
1
10
124.273453541426
20
-0.58421736019443
30
0
41
1
10
124.2495
20
-0.428254102138482
30
0
0
SPLINE
5
1DD
100
AcDbEntity
8
1
62
256
6
ByLayer
370
18
48
1
60
0
100
AcDbSpline
70
4
71
3
72
30
73
26
40
0
40
0
40
0
40
0
40
0.0625000000000511
40
0.0625000000000511
40
0.0937500000000765
40
0.0937500000000765
40
0.109375000000086
40
0.109375000000086
40
0.125000000000096
40
0.125000000000096
40
0.140625000000105
40
0.140625000000105
40
0.156250000000115
40
0.156250000000115
40
0.187500000000108
40
0.187500000000108
40
0.2500000000001
40
0.2500000000001
40
0.375000000000085
40
0.375000000000085
40
0.500000000000069
40
0.500000000000069
40
0.750000000000034
40
0.750000000000034
40
1
40
1
40
1
40
1
41
1
10
124.2495
20
-3.1082541252263
30
0
41
1
10
124.252585251602
20
-3.12149107225542
30
0
41
1
10
124.255899597279
20
-3.13461822570284
30
0
41
1
10
124.261905380729
20
-3.15382130104598
30
0
41
1
10
124.264083682185
20
-3.16018089993173
30
0
41
1
10
124.267983901483
20
-3.16928402609969
30
0
41
1
10
124.269379755249
20
-3.17222382143373
30
0
41
1
10
124.272581160924
20
-3.17769975868634
30
0
41
1
10
124.27439750269
20
-3.18031703502012
30
0
41
1
10
124.27884813873
20
-3.18380218965856
30
0
41
1
10
124.281541189178
20
-3.18418828591217
30
0
41
1
10
124.285946402378
20
-3.18151404328683
30
0
41
1
10
124.287666132916
20
-3.17899993628592
30
0
41
1
10
124.291963767712
20
-3.1709873113443
30
0
41
1
10
124.293902185556
20
-3.16470908171357
30
0
41
1
10
124.298993106347
20
-3.14568324825433
30
0
41
1
10
124.301268828838
20
-3.13238512588751
30
0
41
1
10
124.307234219055
20
-3.09226820422083
30
0
41
1
10
124.30983512522
20
-3.065047022475
30
0
41
1
10
124.314214938181
20
-3.01055646272241
30
0
41
1
10
124.315900690146
20
-2.98321235596058
30
0
41
1
10
124.320121868679
20
-2.90102945045626
30
0
41
1
10
124.321822727285
20
-2.84602940069027
30
0
41
1
10
124.324029349182
20
-2.73590172153982
30
0
41
1
10
124.324500000005
20
-2.68078491158289
30
0
41
1
10
124.324500000005
20
-2.6256367028837
30
0
0
SPLINE
5
1DE
100
AcDbEntity
8
1
62
256
6
ByLayer
370
18
48
1
60
0
100
AcDbSpline
70
4
71
3
72
10
73
6
40
0
40
0
40
0
40
0
40
0.5
40
0.5
40
1
40
1
40
1
40
1
41
1
10
124.2495
20
-3.1082541252263
30
0
41
1
10
124.172800078505
20
-2.77918119088284
30
0
41
1
10
124.078711071859
20
-2.45800381228915
30
0
41
1
10
123.862125005522
20
-1.82854779960724
30
0
41
1
10
123.739622539874
20
-1.5202716201068
30
0
41
1
10
123.605500000001
20
-1.21727156313145
30
0
0
SPLINE
5
1DF
100
AcDbEntity
8
1
62
256
6
ByLayer
370
18
48
1
60
0
100
AcDbSpline
70
4
71
3
72
34
73
30
40
0
40
0
40
0
40
0
40
0.0156249999999984
40
0.0156249999999984
40
0.0234374999999976
40
0.0234374999999976
40
0.0312499999999967
40
0.0312499999999967
40
0.0390624999999959
40
0.0390624999999959
40
0.046874999999995
40
0.046874999999995
40
0.0624999999999968
40
0.0624999999999968
40
0.0937499999999967
40
0.0937499999999967
40
0.124999999999997
40
0.124999999999997
40
0.187499999999997
40
0.187499999999997
40
0.249999999999998
40
0.249999999999998
40
0.374999999999999
40
0.374999999999999
40
0.499999999999999
40
0.499999999999999
40
0.75
40
0.75
40
1
40
1
40
1
40
1
41
1
10
123.6055
20
-1.21727156313182
30
0
41
1
10
123.600770565557
20
-1.2065871628281
30
0
41
1
10
123.595549054338
20
-1.19606105002791
30
0
41
1
10
123.585900390277
20
-1.182524928492
30
0
41
1
10
123.582318343786
20
-1.17834473370826
30
0
41
1
10
123.574314046877
20
-1.17262767042385
30
0
41
1
10
123.56971601516
20
-1.17137772101384
30
0
41
1
10
123.561718660099
20
-1.17386904609819
30
0
41
1
10
123.558300967182
20
-1.17726719122598
30
0
41
1
10
123.552786193003
20
-1.18528644620167
30
0
41
1
10
123.550603107456
20
-1.18988101730628
30
0
41
1
10
123.544820911684
20
-1.20444895895869
30
0
41
1
10
123.542027970043
20
-1.21519006895647
30
0
41
1
10
123.534988669662
20
-1.24793391237205
30
0
41
1
10
123.532125846609
20
-1.27040421077675
30
0
41
1
10
123.527546360837
20
-1.31540899894603
30
0
41
1
10
123.525936675823
20
-1.33807227650894
30
0
41
1
10
123.522187937599
20
-1.40632946799229
30
0
41
1
10
123.521123714516
20
-1.45218951034121
30
0
41
1
10
123.520277547574
20
-1.54426412244251
30
0
41
1
10
123.520544772605
20
-1.59048972200642
30
0
41
1
10
123.522565645691
20
-1.72954059363576
30
0
41
1
10
123.525520224338
20
-1.82280694025576
30
0
41
1
10
123.532835222886
20
-2.00930133326466
30
0
41
1
10
123.537238897876
20
-2.10261776087452
30
0
41
1
10
123.551541689553
20
-2.38274582032858
30
0
41
1
10
123.562501630545
20
-2.56973539008629
30
0
41
1
10
123.584379308983
20
-2.94411855831811
30
0
41
1
10
123.595352138883
20
-3.13154196308071
30
0
41
1
10
123.6055
20
-3.31906645791398
30
0
0
SPLINE
5
1E0
100
AcDbEntity
8
1
62
256
6
ByLayer
370
18
48
1
60
0
100
AcDbSpline
70
4
71
3
72
8
73
4
40
0
40
0
40
0
40
0
40
1
40
1
40
1
40
1
41
1
10
123.6055
20
-3.31906645791398
30
0
41
1
10
123.666142318209
20
-4.43968881930468
30
0
41
1
10
123.666142318209
20
-5.56031118069535
30
0
41
1
10
123.6055
20
-6.68093354208602
30
0
0
SPLINE
5
1E1
100
AcDbEntity
8
1
62
256
6
ByLayer
370
18
48
1
60
0
100
AcDbSpline
70
4
71
3
72
34
73
30
40
0
40
0
40
0
40
0
40
0.25
40
0.25
40
0.5
40
0.5
40
0.624999999999999
40
0.624999999999999
40
0.749999999999998
40
0.749999999999998
40
0.812499999999997
40
0.812499999999997
40
0.874999999999997
40
0.874999999999997
40
0.906249999999999
40
0.906249999999999
40
0.9375
40
0.9375
40
0.953124999999999
40
0.953124999999999
40
0.960937499999999
40
0.960937499999999
40
0.96875
40
0.96875
40
0.9765625
40
0.9765625
40
0.984375000000001
40
0.984375000000001
40
1
40
1
40
1
40
1
41
1
10
123.6055
20
-6.68093354208602
30
0
41
1
10
123.595346533292
20
-6.86856162383214
30
0
41
1
10
123.584370807237
20
-7.05602622870012
30
0
41
1
10
123.56248148874
20
-7.43060998840164
30
0
41
1
10
123.551513851723
20
-7.61772984290448
30
0
41
1
10
123.537202736881
20
-7.89812543294121
30
0
41
1
10
123.532796830085
20
-7.99154315427973
30
0
41
1
10
123.525483149715
20
-8.17827399044887
30
0
41
1
10
123.522535167938
20
-8.27154581726975
30
0
41
1
10
123.520533676288
20
-8.41078910394847
30
0
41
1
10
123.520274752555
20
-8.4571062118807
30
0
41
1
10
123.52115465809
20
-8.54944772811476
30
0
41
1
10
123.522240748443
20
-8.59548103644954
30
0
41
1
10
123.52608172868
20
-8.66411512076127
30
0
41
1
10
123.527736744004
20
-8.68693139674264
30
0
41
1
10
123.532408665708
20
-8.73185536769796
30
0
41
1
10
123.535313860698
20
-8.7540525787312
30
0
41
1
10
123.542369992768
20
-8.78613748291914
30
0
41
1
10
123.545178365622
20
-8.79671257160265
30
0
41
1
10
123.551015675626
20
-8.81100700088237
30
0
41
1
10
123.553273328892
20
-8.81559505581748
30
0
41
1
10
123.55884924938
20
-8.82332137784246
30
0
41
1
10
123.562256999408
20
-8.82651238166196
30
0
41
1
10
123.570382070726
20
-8.82858172104369
30
0
41
1
10
123.574817602389
20
-8.82712919062215
30
0
41
1
10
123.582709235835
20
-8.82124552398921
30
0
41
1
10
123.58612969469
20
-8.81718720805929
30
0
41
1
10
123.595657580156
20
-8.80371592831943
30
0
41
1
10
123.600811615614
20
-8.79332009981675
30
0
41
1
10
123.6055
20
-8.78272843686818
30
0
0
SPLINE
5
1E2
100
AcDbEntity
8
1
62
256
6
ByLayer
370
18
48
1
60
0
100
AcDbSpline
70
4
71
3
72
10
73
6
40
0
40
0
40
0
40
0
40
0.500000000000001
40
0.500000000000001
40
1
40
1
40
1
40
1
41
1
10
123.605500000001
20
-8.78272843686855
30
0
41
1
10
123.739622539874
20
-8.47972837989278
30
0
41
1
10
123.862125005522
20
-8.17145220039191
30
0
41
1
10
124.07871107186
20
-7.54199618770909
30
0
41
1
10
124.172800078506
20
-7.22081880911495
30
0
41
1
10
124.249500000001
20
-6.89174587477098
30
0
0
SPLINE
5
1E3
100
AcDbEntity
8
SK1
62
256
6
ByLayer
370
18
48
1
60
0
100
AcDbSpline
70
4
71
3
72
21
73
17
40
0
40
0
40
0
40
0
40
0.0392402238165656
40
0.109216367708709
40
0.179192511600853
40
0.249168655492996
40
0.31914479938514
40
0.389120943277283
40
0.459097087169427
40
0.599049374953714
40
0.669025518845857
40
0.739001662738001
40
0.808977806630145
40
0.878953950522288
40
0.948930094414432
40
1
40
1
40
1
40
1
41
1
10
-0.200000000000017
20
-7.08539735388831
30
0
41
1
10
-0.200000000000017
20
-7.4394852386969
30
0
41
1
10
-0.200000000000017
20
-8.40948806464002
30
0
41
1
10
-0.200000000000017
20
-9.9289251834638
30
0
41
1
10
-0.200000000000017
20
-11.6002663989664
30
0
41
1
10
-0.200000000000017
20
-13.162036332288
30
0
41
1
10
-0.200000000000017
20
-14.6127447816534
30
0
41
1
10
-0.200000000000017
20
-15.9502919017891
30
0
41
1
10
-0.200000000000017
20
-17.5796134899866
30
0
41
1
10
-0.200000000000017
20
-18.9715631674393
30
0
41
1
10
-0.200000000000017
20
-20.105789193882
30
0
41
1
10
-0.200000000000017
20
-20.8206095145274
30
0
41
1
10
-0.200000000000017
20
-21.3905986807661
30
0
41
1
10
-0.200000000000017
20
-21.8047322024479
30
0
41
1
10
-0.200000000000017
20
-22.0258590899298
30
0
41
1
10
-0.200000000000074
20
-22.0704755433838
30
0
41
1
10
-0.200000000000046
20
-22.0703745452488
30
0
0
LINE
5
75
100
AcDbEntity
8
1
62
256
6
ByLayer
370
18
48
1
60
0
100
AcDbLine
10
123.3245
20
-25
30
0
11
123.521897
21
-24.802603
31
0
39
0
210
0
220
0
230
1
0
LINE
5
77
100
AcDbEntity
8
1
62
256
6
ByLayer
370
18
48
1
60
0
100
AcDbLine
10
23.094918
20
27.251335
30
0
11
22
21
31.5
31
0
39
0
210
0
220
0
230
1
0
LINE
5
78
100
AcDbEntity
8
1
62
256
6
ByLayer
370
18
48
1
60
0
100
AcDbLine
10
0.3
20
31.5
30
0
11
0
21
31.2
31
0
39
0
210
0
220
0
230
1
0
LINE
5
79
100
AcDbEntity
8
1
62
256
6
ByLayer
370
18
48
1
60
0
100
AcDbLine
10
22
20
-31.5
30
0
11
23.094918
21
-27.251335
31
0
39
0
210
0
220
0
230
1
0
LINE
5
7A
100
AcDbEntity
8
1
62
256
6
ByLayer
370
18
48
1
60
0
100
AcDbLine
10
0
20
-31.2
30
0
11
0.3
21
-31.5
31
0
39
0
210
0
220
0
230
1
0
LINE
5
7B
100
AcDbEntity
8
1
62
256
6
ByLayer
370
18
48
1
60
0
100
AcDbLine
10
123.3245
20
15
30
0
11
119.8
21
15
31
0
39
0
210
0
220
0
230
1
0
LINE
5
7C
100
AcDbEntity
8
1
62
256
6
ByLayer
370
18
48
1
60
0
100
AcDbLine
10
119.8
20
-25
30
0
11
123.3245
21
-25
31
0
39
0
210
0
220
0
230
1
0
LINE
5
7D
100
AcDbEntity
8
SK1
62
256
6
ByLayer
370
18
48
1
60
0
100
AcDbLine
10
-0.2
20
-22.070375
30
0
11
0
21
-22.070375
31
0
39
0
210
0
220
0
230
1
0
LINE
5
7F
100
AcDbEntity
8
1
62
256
6
ByLayer
370
18
48
1
60
0
100
AcDbLine
10
116.353541
20
25
30
0
11
26
21
25
31
0
39
0
210
0
220
0
230
1
0
LINE
5
80
100
AcDbEntity
8
1
62
256
6
ByLayer
370
18
48
1
60
0
100
AcDbLine
10
26
20
-25
30
0
11
119.8
21
-25
31
0
39
0
210
0
220
0
230
1
0
LINE
5
81
100
AcDbEntity
8
1
62
256
6
ByLayer
370
18
48
1
60
0
100
AcDbLine
10
118.834074
20
15.741181
30
0
11
116.353181
21
25
31
0
39
0
210
0
220
0
230
1
0
LINE
5
82
100
AcDbEntity
8
1
62
256
6
ByLayer
370
18
48
1
60
0
100
AcDbLine
10
22
20
31.5
30
0
11
0.3
21
31.5
31
0
39
0
210
0
220
0
230
1
0
LINE
5
83
100
AcDbEntity
8
1
62
256
6
ByLayer
370
18
48
1
60
0
100
AcDbLine
10
0.3
20
-31.5
30
0
11
22
21
-31.5
31
0
39
0
210
0
220
0
230
1
0
LINE
5
84
100
AcDbEntity
8
1
62
256
6
ByLayer
370
18
48
1
60
0
100
AcDbLine
10
123.521897
20
14.802603
30
0
11
123.3245
21
15
31
0
39
0
210
0
220
0
230
1
0
LINE
5
85
100
AcDbEntity
8
1
62
256
6
ByLayer
370
18
48
1
60
0
100
AcDbLine
10
133.9255
20
-9.899495
30
0
11
128.6755
21
-9.899495
31
0
39
0
210
0
220
0
230
1
0
LINE
5
86
100
AcDbEntity
8
1
62
256
6
ByLayer
370
18
48
1
60
0
100
AcDbLine
10
128.6755
20
-19.899495
30
0
11
133.9255
21
-19.899495
31
0
39
0
210
0
220
0
230
1
0
LINE
5
87
100
AcDbEntity
8
1
62
256
6
ByLayer
370
18
48
1
60
0
100
AcDbLine
10
128.4255
20
-11.899495
30
0
11
124.324484
21
-11.899495
31
0
39
0
210
0
220
0
230
1
0
LINE
5
88
100
AcDbEntity
8
1
62
256
6
ByLayer
370
18
48
1
60
0
100
AcDbLine
10
124.324484
20
-17.899495
30
0
11
128.4255
21
-17.899495
31
0
39
0
210
0
220
0
230
1
0
LINE
5
89
100
AcDbEntity
8
1
62
256
6
ByLayer
370
18
48
1
60
0
100
AcDbLine
10
133.9255
20
9.899495
30
0
11
128.6755
21
9.899495
31
0
39
0
210
0
220
0
230
1
0
LINE
5
8A
100
AcDbEntity
8
1
62
256
6
ByLayer
370
18
48
1
60
0
100
AcDbLine
10
128.6755
20
-0.100505
30
0
11
133.9255
21
-0.100505
31
0
39
0
210
0
220
0
230
1
0
LINE
5
8B
100
AcDbEntity
8
1
62
256
6
ByLayer
370
18
48
1
60
0
100
AcDbLine
10
128.4255
20
7.899495
30
0
11
124.324484
21
7.899495
31
0
39
0
210
0
220
0
230
1
0
LINE
5
8C
100
AcDbEntity
8
1
62
256
6
ByLayer
370
18
48
1
60
0
100
AcDbLine
10
124.324484
20
1.899495
30
0
11
128.4255
21
1.899495
31
0
39
0
210
0
220
0
230
1
0
LINE
5
8D
100
AcDbEntity
8
1
62
256
6
ByLayer
370
18
48
1
60
0
100
AcDbLine
10
133.9255
20
9.899495
30
0
11
128.6755
21
9.899495
31
0
39
0
210
0
220
0
230
1
0
LINE
5
8E
100
AcDbEntity
8
1
62
256
6
ByLayer
370
18
48
1
60
0
100
AcDbLine
10
128.6755
20
-0.100505
30
0
11
133.9255
21
-0.100505
31
0
39
0
210
0
220
0
230
1
0
LINE
5
8F
100
AcDbEntity
8
SK1
62
256
6
ByLayer
370
18
48
1
60
0
100
AcDbLine
10
0
20
22.070375
30
0
11
-0.2
21
22.070375
31
0
39
0
210
0
220
0
230
1
0
LINE
5
90
100
AcDbEntity
8
1
62
256
6
ByLayer
370
18
48
1
60
0
100
AcDbLine
10
128.4255
20
7.899495
30
0
11
124.324484
21
7.899495
31
0
39
0
210
0
220
0
230
1
0
LINE
5
91
100
AcDbEntity
8
1
62
256
6
ByLayer
370
18
48
1
60
0
100
AcDbLine
10
124.324484
20
1.899495
30
0
11
128.4255
21
1.899495
31
0
39
0
210
0
220
0
230
1
0
LINE
5
92
100
AcDbEntity
8
1
62
256
6
ByLayer
370
13
48
1
60
0
100
AcDbLine
10
124.324383
20
7.285995
30
0
11
128.4255
21
7.285995
31
0
39
0
210
0
220
0
230
1
0
LINE
5
93
100
AcDbEntity
8
1
62
256
6
ByLayer
370
13
48
1
60
0
100
AcDbLine
10
124.324383
20
2.512995
30
0
11
128.4255
21
2.512995
31
0
39
0
210
0
220
0
230
1
0
LINE
5
94
100
AcDbEntity
8
1
62
256
6
ByLayer
370
18
48
1
60
0
100
AcDbLine
10
128.4255
20
6.890651
30
0
11
128.4255
21
1.899495
31
0
39
0
210
0
220
0
230
1
0
LINE
5
95
100
AcDbEntity
8
80
62
256
6
ByLayer
370
18
48
1
60
0
100
AcDbLine
10
0
20
0
30
0
11
-5
21
0
31
0
39
0
210
0
220
0
230
1
0
LINE
5
96
100
AcDbEntity
8
81
62
256
6
ByLayer
370
18
48
1
60
0
100
AcDbLine
10
124
20
-5
30
0
11
129
21
-5
31
0
39
0
210
0
220
0
230
1
0
LINE
5
97
100
AcDbEntity
8
4
62
256
6
ByLayer
370
18
48
0.05
60
0
100
AcDbLine
10
0
20
0
30
0
11
124
21
0
31
0
39
0
210
0
220
0
230
1
0
LINE
5
99
100
AcDbEntity
8
SK4
62
256
6
ByLayer
370
18
48
0.05
60
0
100
AcDbLine
10
-43
20
0
30
0
11
129
21
0
31
0
39
0
210
0
220
0
230
1
0
LINE
5
9B
100
AcDbEntity
8
1
62
256
6
ByLayer
370
13
48
1
60
0
100
AcDbLine
10
23.094918
20
27.251335
30
0
11
23.094918
21
-27.251335
31
0
39
0
210
0
220
0
230
1
0
LINE
5
9C
100
AcDbEntity
8
1
62
256
6
ByLayer
370
18
48
1
60
0
100
AcDbLine
10
10.538675
20
30.080593
30
0
11
13.461325
21
30.080593
31
0
39
0
210
0
220
0
230
1
0
LINE
5
9D
100
AcDbEntity
8
1
62
256
6
ByLayer
370
18
48
1
60
0
100
AcDbLine
10
13.461325
20
9.349221
30
0
11
10.538675
21
9.349221
31
0
39
0
210
0
220
0
230
1
0
LINE
5
9E
100
AcDbEntity
8
1
62
256
6
ByLayer
370
18
48
1
60
0
100
AcDbLine
10
0.3
20
-31.5
30
0
11
0.3
21
31.5
31
0
39
0
210
0
220
0
230
1
0
LINE
5
9F
100
AcDbEntity
8
1
62
256
6
ByLayer
370
18
48
1
60
0
100
AcDbLine
10
22
20
31.5
30
0
11
22
21
-31.5
31
0
39
0
210
0
220
0
230
1
0
LINE
5
A0
100
AcDbEntity
8
1
62
256
6
ByLayer
370
18
48
1
60
0
100
AcDbLine
10
13.461325
20
-30.080593
30
0
11
10.538675
21
-30.080593
31
0
39
0
210
0
220
0
230
1
0
LINE
5
A1
100
AcDbEntity
8
1
62
256
6
ByLayer
370
13
48
1
60
0
100
AcDbLine
10
10.538675
20
-9.349221
30
0
11
10.538675
21
-30.080593
31
0
39
0
210
0
220
0
230
1
0
LINE
5
A2
100
AcDbEntity
8
1
62
256
6
ByLayer
370
13
48
1
60
0
100
AcDbLine
10
10.105662
20
-9.869413
30
0
11
10.105662
21
-29.913955
31
0
39
0
210
0
220
0
230
1
0
LINE
5
A3
100
AcDbEntity
8
1
62
256
6
ByLayer
370
13
48
1
60
0
100
AcDbLine
10
13.894338
20
29.913955
30
0
11
13.894338
21
9.869413
31
0
39
0
210
0
220
0
230
1
0
LINE
5
A4
100
AcDbEntity
8
1
62
256
6
ByLayer
370
13
48
1
60
0
100
AcDbLine
10
13.461325
20
30.080593
30
0
11
13.461325
21
9.349221
31
0
39
0
210
0
220
0
230
1
0
LINE
5
A5
100
AcDbEntity
8
1
62
256
6
ByLayer
370
13
48
1
60
0
100
AcDbLine
10
10.538675
20
30.080593
30
0
11
10.538675
21
9.349221
31
0
39
0
210
0
220
0
230
1
0
LINE
5
A6
100
AcDbEntity
8
1
62
256
6
ByLayer
370
13
48
1
60
0
100
AcDbLine
10
10.105662
20
29.913955
30
0
11
10.105662
21
9.869413
31
0
39
0
210
0
220
0
230
1
0
LINE
5
A7
100
AcDbEntity
8
1
62
256
6
ByLayer
370
13
48
1
60
0
100
AcDbLine
10
13.894338
20
-9.869413
30
0
11
13.894338
21
-29.913955
31
0
39
0
210
0
220
0
230
1
0
LINE
5
A8
100
AcDbEntity
8
1
62
256
6
ByLayer
370
13
48
1
60
0
100
AcDbLine
10
13.461325
20
-9.349221
30
0
11
13.461325
21
-30.080593
31
0
39
0
210
0
220
0
230
1
0
LINE
5
A9
100
AcDbEntity
8
1
62
256
6
ByLayer
370
18
48
1
60
0
100
AcDbLine
10
10.538675
20
-9.349221
30
0
11
13.461325
21
-9.349221
31
0
39
0
210
0
220
0
230
1
0
LINE
5
AA
100
AcDbEntity
8
1
62
256
6
ByLayer
370
13
48
1
60
0
100
AcDbLine
10
26
20
25
30
0
11
26
21
-25
31
0
39
0
210
0
220
0
230
1
0
LINE
5
AB
100
AcDbEntity
8
1
62
256
6
ByLayer
370
13
48
1
60
0
100
AcDbLine
10
118.834074
20
15.741181
30
0
11
118.834074
21
-21.980341
31
0
39
0
210
0
220
0
230
1
0
LINE
5
AC
100
AcDbEntity
8
1
62
256
6
ByLayer
370
18
48
1
60
0
100
AcDbLine
10
0
20
-31.2
30
0
11
0
21
31.2
31
0
39
0
210
0
220
0
230
1
0
LINE
5
AD
100
AcDbEntity
8
SK1
62
256
6
ByLayer
370
13
48
1
60
0
100
AcDbLine
10
-1.307107
20
4.811152
30
0
11
-1.307107
21
-4.811152
31
0
39
0
210
0
220
0
230
1
0
LINE
5
AE
100
AcDbEntity
8
SK1
62
256
6
ByLayer
370
18
48
1
60
0
100
AcDbLine
10
-0.2
20
-7.034158
30
0
11
-0.2
21
-7.085397
31
0
39
0
210
0
220
0
230
1
0
LINE
5
AF
100
AcDbEntity
8
1
62
256
6
ByLayer
370
18
48
1
60
0
100
AcDbLine
10
124.3245
20
-23.646315
30
0
11
124.3245
21
-23.853979
31
0
39
0
210
0
220
0
230
1
0
LINE
5
B0
100
AcDbEntity
8
SK1
62
256
6
ByLayer
370
18
48
1
60
0
100
AcDbLine
10
-0.2
20
7.0854
30
0
11
-0.2
21
7.034161
31
0
39
0
210
0
220
0
230
1
0
LINE
5
B1
100
AcDbEntity
8
1
62
256
6
ByLayer
370
18
48
1
60
0
100
AcDbLine
10
124.3245
20
5.475875
30
0
11
124.3245
21
3.180021
31
0
39
0
210
0
220
0
230
1
0
LINE
5
B2
100
AcDbEntity
8
1
62
256
6
ByLayer
370
18
48
1
60
0
100
AcDbLine
10
124.3245
20
-13.180021
30
0
11
124.3245
21
-15.475875
31
0
39
0
210
0
220
0
230
1
0
LINE
5
B3
100
AcDbEntity
8
1
62
256
6
ByLayer
370
13
48
1
60
0
100
AcDbLine
10
119.8
20
15
30
0
11
119.8
21
-25
31
0
39
0
210
0
220
0
230
1
0
LINE
5
B4
100
AcDbEntity
8
1
62
256
6
ByLayer
370
18
48
1
60
0
100
AcDbLine
10
123.3245
20
15
30
0
11
123.3245
21
-25
31
0
39
0
210
0
220
0
230
1
0
LINE
5
B5
100
AcDbEntity
8
1
62
256
6
ByLayer
370
18
48
1
60
0
100
AcDbLine
10
124.3245
20
-7.374363
30
0
11
124.3245
21
-8.635516
31
0
39
0
210
0
220
0
230
1
0
LINE
5
B6
100
AcDbEntity
8
1
62
256
6
ByLayer
370
18
48
1
60
0
100
AcDbLine
10
124.3245
20
-12.742143
30
0
11
124.3245
21
-13.180085
31
0
39
0
210
0
220
0
230
1
0
LINE
5
B7
100
AcDbEntity
8
1
62
256
6
ByLayer
370
18
48
1
60
0
100
AcDbLine
10
124.3245
20
-15.475875
30
0
11
124.3245
21
-15.775464
31
0
39
0
210
0
220
0
230
1
0
LINE
5
B8
100
AcDbEntity
8
1
62
256
6
ByLayer
370
18
48
1
60
0
100
AcDbLine
10
124.3245
20
-17.451792
30
0
11
124.3245
21
-17.680988
31
0
39
0
210
0
220
0
230
1
0
LINE
5
B9
100
AcDbEntity
8
1
62
256
6
ByLayer
370
18
48
1
60
0
100
AcDbLine
10
124.3245
20
-18.994653
30
0
11
124.3245
21
-19.177598
31
0
39
0
210
0
220
0
230
1
0
LINE
5
BA
100
AcDbEntity
8
1
62
256
6
ByLayer
370
18
48
1
60
0
100
AcDbLine
10
124.3245
20
-20.236583
30
0
11
124.3245
21
-20.385093
31
0
39
0
210
0
220
0
230
1
0
LINE
5
BB
100
AcDbEntity
8
1
62
256
6
ByLayer
370
18
48
1
60
0
100
AcDbLine
10
124.3245
20
-21.246743
30
0
11
124.3245
21
-21.367588
31
0
39
0
210
0
220
0
230
1
0
LINE
5
BC
100
AcDbEntity
8
1
62
256
6
ByLayer
370
18
48
1
60
0
100
AcDbLine
10
124.3245
20
-22.066336
30
0
11
124.3245
21
-22.163763
31
0
39
0
210
0
220
0
230
1
0
LINE
5
BD
100
AcDbEntity
8
1
62
256
6
ByLayer
370
18
48
1
60
0
100
AcDbLine
10
124.3245
20
-22.721823
30
0
11
124.3245
21
-22.79864
31
0
39
0
210
0
220
0
230
1
0
LINE
5
BE
100
AcDbEntity
8
1
62
256
6
ByLayer
370
18
48
1
60
0
100
AcDbLine
10
124.3245
20
-23.230913
30
0
11
124.3245
21
-23.289024
31
0
39
0
210
0
220
0
230
1
0
LINE
5
BF
100
AcDbEntity
8
1
62
256
6
ByLayer
370
18
48
1
60
0
100
AcDbLine
10
124.3245
20
-23.605627
30
0
11
124.3245
21
-23.646319
31
0
39
0
210
0
220
0
230
1
0
LINE
5
C0
100
AcDbEntity
8
1
62
256
6
ByLayer
370
18
48
1
60
0
100
AcDbLine
10
124.3245
20
7.451792
30
0
11
124.3245
21
5.77508
31
0
39
0
210
0
220
0
230
1
0
LINE
5
C1
100
AcDbEntity
8
1
62
256
6
ByLayer
370
18
48
1
60
0
100
AcDbLine
10
124.3245
20
-15.77508
30
0
11
124.3245
21
-17.451792
31
0
39
0
210
0
220
0
230
1
0
LINE
5
C2
100
AcDbEntity
8
1
62
256
6
ByLayer
370
18
48
1
60
0
100
AcDbLine
10
124.3245
20
-23.853979
30
0
11
124.3245
21
-23.878084
31
0
39
0
210
0
220
0
230
1
0
LINE
5
C3
100
AcDbEntity
8
1
62
256
6
ByLayer
370
18
48
1
60
0
100
AcDbLine
10
124.3245
20
-23.98093
30
0
11
124.3245
21
-23.988915
31
0
39
0
210
0
220
0
230
1
0
LINE
5
C4
100
AcDbEntity
8
1
62
256
6
ByLayer
370
18
48
1
60
0
100
AcDbLine
10
124.3245
20
-2.625637
30
0
11
124.3245
21
-7.374363
31
0
39
0
210
0
220
0
230
1
0
LINE
5
C5
100
AcDbEntity
8
1
62
256
6
ByLayer
370
18
48
1
60
0
100
AcDbLine
10
124.3245
20
13.988915
30
0
11
124.3245
21
13.98093
31
0
39
0
210
0
220
0
230
1
0
LINE
5
C6
100
AcDbEntity
8
1
62
256
6
ByLayer
370
18
48
1
60
0
100
AcDbLine
10
124.3245
20
13.878084
30
0
11
124.3245
21
13.853979
31
0
39
0
210
0
220
0
230
1
0
LINE
5
C7
100
AcDbEntity
8
1
62
256
6
ByLayer
370
18
48
1
60
0
100
AcDbLine
10
124.3245
20
13.646319
30
0
11
124.3245
21
13.605627
31
0
39
0
210
0
220
0
230
1
0
LINE
5
C8
100
AcDbEntity
8
1
62
256
6
ByLayer
370
18
48
1
60
0
100
AcDbLine
10
124.3245
20
13.289024
30
0
11
124.3245
21
13.230913
31
0
39
0
210
0
220
0
230
1
0
LINE
5
C9
100
AcDbEntity
8
1
62
256
6
ByLayer
370
18
48
1
60
0
100
AcDbLine
10
124.3245
20
12.79864
30
0
11
124.3245
21
12.721823
31
0
39
0
210
0
220
0
230
1
0
LINE
5
CA
100
AcDbEntity
8
1
62
256
6
ByLayer
370
18
48
1
60
0
100
AcDbLine
10
124.3245
20
12.163763
30
0
11
124.3245
21
12.066336
31
0
39
0
210
0
220
0
230
1
0
LINE
5
CB
100
AcDbEntity
8
1
62
256
6
ByLayer
370
18
48
1
60
0
100
AcDbLine
10
124.3245
20
11.367588
30
0
11
124.3245
21
11.246743
31
0
39
0
210
0
220
0
230
1
0
LINE
5
CC
100
AcDbEntity
8
1
62
256
6
ByLayer
370
18
48
1
60
0
100
AcDbLine
10
124.3245
20
10.385093
30
0
11
124.3245
21
10.236583
31
0
39
0
210
0
220
0
230
1
0
LINE
5
CD
100
AcDbEntity
8
1
62
256
6
ByLayer
370
18
48
1
60
0
100
AcDbLine
10
124.3245
20
9.177598
30
0
11
124.3245
21
8.994653
31
0
39
0
210
0
220
0
230
1
0
LINE
5
CE
100
AcDbEntity
8
1
62
256
6
ByLayer
370
18
48
1
60
0
100
AcDbLine
10
124.3245
20
7.680988
30
0
11
124.3245
21
7.451792
31
0
39
0
210
0
220
0
230
1
0
LINE
5
CF
100
AcDbEntity
8
1
62
256
6
ByLayer
370
18
48
1
60
0
100
AcDbLine
10
124.3245
20
5.775464
30
0
11
124.3245
21
5.475875
31
0
39
0
210
0
220
0
230
1
0
LINE
5
D0
100
AcDbEntity
8
1
62
256
6
ByLayer
370
18
48
1
60
0
100
AcDbLine
10
124.3245
20
3.180085
30
0
11
124.3245
21
2.742143
31
0
39
0
210
0
220
0
230
1
0
LINE
5
D1
100
AcDbEntity
8
1
62
256
6
ByLayer
370
18
48
1
60
0
100
AcDbLine
10
124.3245
20
-1.364484
30
0
11
124.3245
21
-2.625637
31
0
39
0
210
0
220
0
230
1
0
LINE
5
D2
100
AcDbEntity
8
1
62
256
6
ByLayer
370
13
48
1
60
0
100
AcDbLine
10
123.6055
20
-1.217272
30
0
11
123.6055
21
-3.319168
31
0
39
0
210
0
220
0
230
1
0
LINE
5
D3
100
AcDbEntity
8
1
62
256
6
ByLayer
370
13
48
1
60
0
100
AcDbLine
10
123.6055
20
-6.680832
30
0
11
123.6055
21
-8.782728
31
0
39
0
210
0
220
0
230
1
0
LINE
5
D4
100
AcDbEntity
8
1
62
256
6
ByLayer
370
13
48
1
60
0
100
AcDbLine
10
124.2495
20
-6.891746
30
0
11
124.2495
21
-3.108254
31
0
39
0
210
0
220
0
230
1
0
LINE
5
D5
100
AcDbEntity
8
1
62
256
6
ByLayer
370
13
48
1
60
0
100
AcDbLine
10
123.6055
20
3.373611
30
0
11
123.6055
21
2.714713
31
0
39
0
210
0
220
0
230
1
0
LINE
5
D6
100
AcDbEntity
8
1
62
256
6
ByLayer
370
13
48
1
60
0
100
AcDbLine
10
123.6055
20
-12.714713
30
0
11
123.6055
21
-13.373611
31
0
39
0
210
0
220
0
230
1
0
LINE
5
D7
100
AcDbEntity
8
1
62
256
6
ByLayer
370
13
48
1
60
0
100
AcDbLine
10
124.2495
20
-12.633583
30
0
11
124.2495
21
-9.571562
31
0
39
0
210
0
220
0
230
1
0
LINE
5
D8
100
AcDbEntity
8
1
62
256
6
ByLayer
370
13
48
1
60
0
100
AcDbLine
10
124.2495
20
-0.428438
30
0
11
124.2495
21
2.633583
31
0
39
0
210
0
220
0
230
1
0
LINE
5
D9
100
AcDbEntity
8
1
62
256
6
ByLayer
370
13
48
1
60
0
100
AcDbLine
10
123.6055
20
6.019332
30
0
11
123.6055
21
5.568917
31
0
39
0
210
0
220
0
230
1
0
LINE
5
DA
100
AcDbEntity
8
1
62
256
6
ByLayer
370
13
48
1
60
0
100
AcDbLine
10
123.6055
20
-15.568917
30
0
11
123.6055
21
-16.019332
31
0
39
0
210
0
220
0
230
1
0
LINE
5
DB
100
AcDbEntity
8
1
62
256
6
ByLayer
370
13
48
1
60
0
100
AcDbLine
10
124.2495
20
-15.414628
30
0
11
124.2495
21
-13.614199
31
0
39
0
210
0
220
0
230
1
0
LINE
5
DC
100
AcDbEntity
8
1
62
256
6
ByLayer
370
13
48
1
60
0
100
AcDbLine
10
124.2495
20
3.614199
30
0
11
124.2495
21
5.414628
31
0
39
0
210
0
220
0
230
1
0
LINE
5
DD
100
AcDbEntity
8
1
62
256
6
ByLayer
370
13
48
1
60
0
100
AcDbLine
10
123.6055
20
7.970506
30
0
11
123.6055
21
7.625166
31
0
39
0
210
0
220
0
230
1
0
LINE
5
DE
100
AcDbEntity
8
1
62
256
6
ByLayer
370
13
48
1
60
0
100
AcDbLine
10
123.6055
20
-17.625166
30
0
11
123.6055
21
-17.970506
31
0
39
0
210
0
220
0
230
1
0
LINE
5
DF
100
AcDbEntity
8
1
62
256
6
ByLayer
370
13
48
1
60
0
100
AcDbLine
10
124.2495
20
-17.416012
30
0
11
124.2495
21
-16.090991
31
0
39
0
210
0
220
0
230
1
0
LINE
5
E0
100
AcDbEntity
8
1
62
256
6
ByLayer
370
13
48
1
60
0
100
AcDbLine
10
124.2495
20
6.090991
30
0
11
124.2495
21
7.416012
31
0
39
0
210
0
220
0
230
1
0
LINE
5
E1
100
AcDbEntity
8
1
62
256
6
ByLayer
370
13
48
1
60
0
100
AcDbLine
10
123.6055
20
9.510077
30
0
11
123.6055
21
9.233479
31
0
39
0
210
0
220
0
230
1
0
LINE
5
E2
100
AcDbEntity
8
1
62
256
6
ByLayer
370
13
48
1
60
0
100
AcDbLine
10
123.6055
20
-19.233479
30
0
11
123.6055
21
-19.510077
31
0
39
0
210
0
220
0
230
1
0
LINE
5
E3
100
AcDbEntity
8
1
62
256
6
ByLayer
370
13
48
1
60
0
100
AcDbLine
10
124.2495
20
-18.976775
30
0
11
124.2495
21
-17.935311
31
0
39
0
210
0
220
0
230
1
0
LINE
5
E4
100
AcDbEntity
8
1
62
256
6
ByLayer
370
13
48
1
60
0
100
AcDbLine
10
124.2495
20
7.935311
30
0
11
124.2495
21
8.976775
31
0
39
0
210
0
220
0
230
1
0
LINE
5
E5
100
AcDbEntity
8
1
62
256
6
ByLayer
370
18
48
1
60
0
100
AcDbLine
10
124.3245
20
2.742143
30
0
11
124.3245
21
-1.36458
31
0
39
0
210
0
220
0
230
1
0
LINE
5
E6
100
AcDbEntity
8
1
62
256
6
ByLayer
370
18
48
1
60
0
100
AcDbLine
10
124.3245
20
-8.63542
30
0
11
124.3245
21
-12.742143
31
0
39
0
210
0
220
0
230
1
0
LINE
5
E7
100
AcDbEntity
8
1
62
256
6
ByLayer
370
13
48
1
60
0
100
AcDbLine
10
123.6055
20
10.759146
30
0
11
123.6055
21
10.533307
31
0
39
0
210
0
220
0
230
1
0
LINE
5
E8
100
AcDbEntity
8
1
62
256
6
ByLayer
370
13
48
1
60
0
100
AcDbLine
10
123.6055
20
-20.533307
30
0
11
123.6055
21
-20.759146
31
0
39
0
210
0
220
0
230
1
0
LINE
5
E9
100
AcDbEntity
8
1
62
256
6
ByLayer
370
13
48
1
60
0
100
AcDbLine
10
124.2495
20
9.391974
30
0
11
124.2495
21
10.232962
31
0
39
0
210
0
220
0
230
1
0
LINE
5
EA
100
AcDbEntity
8
1
62
256
6
ByLayer
370
13
48
1
60
0
100
AcDbLine
10
124.2495
20
-20.232962
30
0
11
124.2495
21
-19.391974
31
0
39
0
210
0
220
0
230
1
0
LINE
5
EB
100
AcDbEntity
8
1
62
256
6
ByLayer
370
13
48
1
60
0
100
AcDbLine
10
123.6055
20
11.782699
30
0
11
123.6055
21
11.597446
31
0
39
0
210
0
220
0
230
1
0
LINE
5
EC
100
AcDbEntity
8
1
62
256
6
ByLayer
370
13
48
1
60
0
100
AcDbLine
10
123.6055
20
-21.597446
30
0
11
123.6055
21
-21.782699
31
0
39
0
210
0
220
0
230
1
0
LINE
5
ED
100
AcDbEntity
8
1
62
256
6
ByLayer
370
13
48
1
60
0
100
AcDbLine
10
124.2495
20
-21.255338
30
0
11
124.2495
21
-20.570347
31
0
39
0
210
0
220
0
230
1
0
LINE
5
EE
100
AcDbEntity
8
1
62
256
6
ByLayer
370
13
48
1
60
0
100
AcDbLine
10
124.2495
20
10.570347
30
0
11
124.2495
21
11.255338
31
0
39
0
210
0
220
0
230
1
0
LINE
5
EF
100
AcDbEntity
8
1
62
256
6
ByLayer
370
18
48
1
60
0
100
AcDbLine
10
124.3245
20
8.994653
30
0
11
124.3245
21
7.681014
31
0
39
0
210
0
220
0
230
1
0
LINE
5
F0
100
AcDbEntity
8
1
62
256
6
ByLayer
370
18
48
1
60
0
100
AcDbLine
10
124.3245
20
-19.177621
30
0
11
124.3245
21
-20.236583
31
0
39
0
210
0
220
0
230
1
0
LINE
5
F1
100
AcDbEntity
8
1
62
256
6
ByLayer
370
13
48
1
60
0
100
AcDbLine
10
123.6055
20
12.620083
30
0
11
123.6055
21
12.468992
31
0
39
0
210
0
220
0
230
1
0
LINE
5
F2
100
AcDbEntity
8
1
62
256
6
ByLayer
370
13
48
1
60
0
100
AcDbLine
10
123.6055
20
-22.468992
30
0
11
123.6055
21
-22.620083
31
0
39
0
210
0
220
0
230
1
0
LINE
5
F3
100
AcDbEntity
8
1
62
256
6
ByLayer
370
13
48
1
60
0
100
AcDbLine
10
124.2495
20
11.530049
30
0
11
124.2495
21
12.085927
31
0
39
0
210
0
220
0
230
1
0
LINE
5
F4
100
AcDbEntity
8
1
62
256
6
ByLayer
370
13
48
1
60
0
100
AcDbLine
10
124.2495
20
-22.085927
30
0
11
124.2495
21
-21.530049
31
0
39
0
210
0
220
0
230
1
0
LINE
5
F5
100
AcDbEntity
8
1
62
256
6
ByLayer
370
18
48
1
60
0
100
AcDbLine
10
124.3245
20
-17.681014
30
0
11
124.3245
21
-18.994653
31
0
39
0
210
0
220
0
230
1
0
LINE
5
F6
100
AcDbEntity
8
1
62
256
6
ByLayer
370
18
48
1
60
0
100
AcDbLine
10
124.3245
20
11.246743
30
0
11
124.3245
21
10.385072
31
0
39
0
210
0
220
0
230
1
0
LINE
5
F7
100
AcDbEntity
8
1
62
256
6
ByLayer
370
13
48
1
60
0
100
AcDbLine
10
123.6055
20
13.296875
30
0
11
123.6055
21
13.175685
31
0
39
0
210
0
220
0
230
1
0
LINE
5
F8
100
AcDbEntity
8
1
62
256
6
ByLayer
370
13
48
1
60
0
100
AcDbLine
10
123.6055
20
-23.175685
30
0
11
123.6055
21
-23.296875
31
0
39
0
210
0
220
0
230
1
0
LINE
5
F9
100
AcDbEntity
8
1
62
256
6
ByLayer
370
13
48
1
60
0
100
AcDbLine
10
124.2495
20
-22.75167
30
0
11
124.2495
21
-22.30746
31
0
39
0
210
0
220
0
230
1
0
LINE
5
FA
100
AcDbEntity
8
1
62
256
6
ByLayer
370
13
48
1
60
0
100
AcDbLine
10
124.2495
20
12.30746
30
0
11
124.2495
21
12.75167
31
0
39
0
210
0
220
0
230
1
0
LINE
5
FB
100
AcDbEntity
8
1
62
256
6
ByLayer
370
18
48
1
60
0
100
AcDbLine
10
124.3245
20
10.236583
30
0
11
124.3245
21
9.177621
31
0
39
0
210
0
220
0
230
1
0
LINE
5
FC
100
AcDbEntity
8
1
62
256
6
ByLayer
370
18
48
1
60
0
100
AcDbLine
10
124.3245
20
-20.385072
30
0
11
124.3245
21
-21.246743
31
0
39
0
210
0
220
0
230
1
0
LINE
5
FD
100
AcDbEntity
8
1
62
256
6
ByLayer
370
13
48
1
60
0
100
AcDbLine
10
123.6055
20
-23.736267
30
0
11
123.6055
21
-23.8304
31
0
39
0
210
0
220
0
230
1
0
LINE
5
FE
100
AcDbEntity
8
1
62
256
6
ByLayer
370
13
48
1
60
0
100
AcDbLine
10
123.6055
20
13.8304
30
0
11
123.6055
21
13.736267
31
0
39
0
210
0
220
0
230
1
0
LINE
5
FF
100
AcDbEntity
8
1
62
256
6
ByLayer
370
13
48
1
60
0
100
AcDbLine
10
124.2495
20
12.926445
30
0
11
124.2495
21
13.270596
31
0
39
0
210
0
220
0
230
1
0
LINE
5
100
100
AcDbEntity
8
1
62
256
6
ByLayer
370
13
48
1
60
0
100
AcDbLine
10
124.2495
20
-23.270596
30
0
11
124.2495
21
-22.926445
31
0
39
0
210
0
220
0
230
1
0
LINE
5
101
100
AcDbEntity
8
1
62
256
6
ByLayer
370
18
48
1
60
0
100
AcDbLine
10
124.3245
20
12.066336
30
0
11
124.3245
21
11.367557
31
0
39
0
210
0
220
0
230
1
0
LINE
5
102
100
AcDbEntity
8
1
62
256
6
ByLayer
370
18
48
1
60
0
100
AcDbLine
10
124.3245
20
-21.367557
30
0
11
124.3245
21
-22.066336
31
0
39
0
210
0
220
0
230
1
0
LINE
5
103
100
AcDbEntity
8
1
62
256
6
ByLayer
370
13
48
1
60
0
100
AcDbLine
10
123.6055
20
14.232584
30
0
11
123.6055
21
14.163428
31
0
39
0
210
0
220
0
230
1
0
LINE
5
104
100
AcDbEntity
8
1
62
256
6
ByLayer
370
13
48
1
60
0
100
AcDbLine
10
123.6055
20
-24.163428
30
0
11
123.6055
21
-24.232584
31
0
39
0
210
0
220
0
230
1
0
LINE
5
105
100
AcDbEntity
8
1
62
256
6
ByLayer
370
13
48
1
60
0
100
AcDbLine
10
124.2495
20
-23.654961
30
0
11
124.2495
21
-23.402698
31
0
39
0
210
0
220
0
230
1
0
LINE
5
106
100
AcDbEntity
8
1
62
256
6
ByLayer
370
13
48
1
60
0
100
AcDbLine
10
124.2495
20
13.402698
30
0
11
124.2495
21
13.654961
31
0
39
0
210
0
220
0
230
1
0
LINE
5
107
100
AcDbEntity
8
1
62
256
6
ByLayer
370
18
48
1
60
0
100
AcDbLine
10
124.3245
20
-22.163684
30
0
11
124.3245
21
-22.721823
31
0
39
0
210
0
220
0
230
1
0
LINE
5
108
100
AcDbEntity
8
1
62
256
6
ByLayer
370
18
48
1
60
0
100
AcDbLine
10
124.3245
20
-22.798581
30
0
11
124.3245
21
-23.230913
31
0
39
0
210
0
220
0
230
1
0
LINE
5
109
100
AcDbEntity
8
1
62
256
6
ByLayer
370
13
48
1
60
0
100
AcDbLine
10
123.6055
20
14.511551
30
0
11
123.6055
21
14.466108
31
0
39
0
210
0
220
0
230
1
0
LINE
5
10A
100
AcDbEntity
8
1
62
256
6
ByLayer
370
13
48
1
60
0
100
AcDbLine
10
123.6055
20
-24.466108
30
0
11
123.6055
21
-24.511551
31
0
39
0
210
0
220
0
230
1
0
LINE
5
10B
100
AcDbEntity
8
1
62
256
6
ByLayer
370
13
48
1
60
0
100
AcDbLine
10
124.2495
20
-23.91297
30
0
11
124.2495
21
-23.747456
31
0
39
0
210
0
220
0
230
1
0
LINE
5
10C
100
AcDbEntity
8
1
62
256
6
ByLayer
370
13
48
1
60
0
100
AcDbLine
10
124.2495
20
13.747456
30
0
11
124.2495
21
13.91297
31
0
39
0
210
0
220
0
230
1
0
LINE
5
10D
100
AcDbEntity
8
1
62
256
6
ByLayer
370
18
48
1
60
0
100
AcDbLine
10
124.3245
20
12.721823
30
0
11
124.3245
21
12.163684
31
0
39
0
210
0
220
0
230
1
0
LINE
5
10E
100
AcDbEntity
8
1
62
256
6
ByLayer
370
18
48
1
60
0
100
AcDbLine
10
124.3245
20
13.605627
30
0
11
124.3245
21
13.289015
31
0
39
0
210
0
220
0
230
1
0
LINE
5
10F
100
AcDbEntity
8
1
62
256
6
ByLayer
370
13
48
1
60
0
100
AcDbLine
10
123.6055
20
-24.649908
30
0
11
123.6055
21
-24.672543
31
0
39
0
210
0
220
0
230
1
0
LINE
5
110
100
AcDbEntity
8
1
62
256
6
ByLayer
370
13
48
1
60
0
100
AcDbLine
10
123.6055
20
14.672543
30
0
11
123.6055
21
14.649908
31
0
39
0
210
0
220
0
230
1
0
LINE
5
111
100
AcDbEntity
8
1
62
256
6
ByLayer
370
13
48
1
60
0
100
AcDbLine
10
124.2495
20
-24.04976
30
0
11
124.2495
21
-23.967827
31
0
39
0
210
0
220
0
230
1
0
LINE
5
112
100
AcDbEntity
8
1
62
256
6
ByLayer
370
13
48
1
60
0
100
AcDbLine
10
124.2495
20
13.967827
30
0
11
124.2495
21
14.04976
31
0
39
0
210
0
220
0
230
1
0
LINE
5
113
100
AcDbEntity
8
1
62
256
6
ByLayer
370
18
48
1
60
0
100
AcDbLine
10
124.3245
20
13.230913
30
0
11
124.3245
21
12.798581
31
0
39
0
210
0
220
0
230
1
0
LINE
5
114
100
AcDbEntity
8
1
62
256
6
ByLayer
370
18
48
1
60
0
100
AcDbLine
10
124.3245
20
13.853979
30
0
11
124.3245
21
13.646315
31
0
39
0
210
0
220
0
230
1
0
LINE
5
115
100
AcDbEntity
8
1
62
256
6
ByLayer
370
18
48
1
60
0
100
AcDbLine
10
124.3245
20
-23.289015
30
0
11
124.3245
21
-23.605627
31
0
39
0
210
0
220
0
230
1
0
LINE
5
116
100
AcDbEntity
8
1
62
256
6
ByLayer
370
18
48
1
60
0
100
AcDbLine
10
124.3245
20
13.98093
30
0
11
124.3245
21
13.877899
31
0
39
0
210
0
220
0
230
1
0
LINE
5
117
100
AcDbEntity
8
1
62
256
6
ByLayer
370
18
48
1
60
0
100
AcDbLine
10
124.3245
20
-23.877899
30
0
11
124.3245
21
-23.98093
31
0
39
0
210
0
220
0
230
1
0
LINE
5
118
100
AcDbEntity
8
1
62
256
6
ByLayer
370
18
48
1
60
0
100
AcDbLine
10
134.5255
20
9.299495
30
0
11
134.5255
21
0.499495
31
0
39
0
210
0
220
0
230
1
0
LINE
5
119
100
AcDbEntity
8
1
62
256
6
ByLayer
370
18
48
1
60
0
100
AcDbLine
10
128.6755
20
9.899495
30
0
11
128.6755
21
-0.100505
31
0
39
0
210
0
220
0
230
1
0
LINE
5
11A
100
AcDbEntity
8
1
62
256
6
ByLayer
370
18
48
1
60
0
100
AcDbLine
10
128.6755
20
-19.899495
30
0
11
128.6755
21
-9.899495
31
0
39
0
210
0
220
0
230
1
0
LINE
5
11B
100
AcDbEntity
8
1
62
256
6
ByLayer
370
13
48
1
60
0
100
AcDbLine
10
133.9255
20
-9.899495
30
0
11
133.9255
21
-19.899495
31
0
39
0
210
0
220
0
230
1
0
LINE
5
11C
100
AcDbEntity
8
1
62
256
6
ByLayer
370
18
48
1
60
0
100
AcDbLine
10
134.5255
20
-19.299495
30
0
11
134.5255
21
-10.499495
31
0
39
0
210
0
220
0
230
1
0
LINE
5
11D
100
AcDbEntity
8
1
62
256
6
ByLayer
370
18
48
1
60
0
100
AcDbLine
10
134.5255
20
-14.899495
30
0
11
134.5255
21
-10.499495
31
0
39
0
210
0
220
0
230
1
0
LINE
5
11E
100
AcDbEntity
8
1
62
256
6
ByLayer
370
13
48
1
60
0
100
AcDbLine
10
128.4255
20
-11.899495
30
0
11
128.4255
21
-17.899495
31
0
39
0
210
0
220
0
230
1
0
LINE
5
11F
100
AcDbEntity
8
1
62
256
6
ByLayer
370
13
48
1
60
0
100
AcDbLine
10
133.9255
20
9.899495
30
0
11
133.9255
21
-0.100505
31
0
39
0
210
0
220
0
230
1
0
LINE
5
120
100
AcDbEntity
8
1
62
256
6
ByLayer
370
18
48
1
60
0
100
AcDbLine
10
134.5255
20
9.299495
30
0
11
134.5255
21
0.499495
31
0
39
0
210
0
220
0
230
1
0
LINE
5
121
100
AcDbEntity
8
1
62
256
6
ByLayer
370
13
48
1
60
0
100
AcDbLine
10
128.4255
20
7.899495
30
0
11
128.4255
21
1.899495
31
0
39
0
210
0
220
0
230
1
0
LINE
5
122
100
AcDbEntity
8
1
62
256
6
ByLayer
370
13
48
1
60
0
100
AcDbLine
10
133.9255
20
9.899495
30
0
11
133.9255
21
-0.100505
31
0
39
0
210
0
220
0
230
1
0
LINE
5
123
100
AcDbEntity
8
1
62
256
6
ByLayer
370
13
48
1
60
0
100
AcDbLine
10
128.4255
20
7.899495
30
0
11
128.4255
21
1.899495
31
0
39
0
210
0
220
0
230
1
0
LINE
5
124
100
AcDbEntity
8
1
62
256
6
ByLayer
370
18
48
1
60
0
100
AcDbLine
10
128.6755
20
9.899495
30
0
11
128.6755
21
-0.100505
31
0
39
0
210
0
220
0
230
1
0
MTEXT
5
1E4
100
AcDbEntity
8
SK6
62
256
6
ByLayer
370
18
48
1
60
0
100
AcDbMText
10
0.875
20
-42.374866
30
0
210
0
220
0
230
1
1
\W0.7190;C6-570-2C 50 124-40L
40
3.5
41
0
44
1.084337
50
0
71
7
72
5
7
iso_b_vert
0
DIMENSION
5
1F1
100
AcDbEntity
8
SK2
62
256
6
ByLayer
370
13
48
1
60
0
100
AcDbDimension
2
DimnDraft3D1
10
124
20
38.1
30
0
11
70.892801
21
38.1
31
0
70
32
71
5
72
1
41
1
210
0
220
0
230
1
3
Standard
100
AcDbAlignedDimension
13
26
23
26.5875
33
0
14
124
24
16.5875
34
0
50
0
100
AcDbRotatedDimension
1001
ACAD
1000
DSTYLE
1002
{
1070
   279
1070
     0
1070
   172
1070
     1
1070
   173
1070
     1
1070
   340
1005
1E5
1070
   271
1070
     2
1070
   272
1070
     2
1070
    77
1070
     1
1070
    73
1070
     0
1070
   171
1070
     3
1070
   274
1070
     4
1070
   177
1070
     2
1070
   176
1070
     2
1070
   178
1070
     2
1070
    78
1070
     8
1070
    48
1040
-0.005
1070
    41
1041
3.5
1070
   147
1041
1.75
1070
    42
1041
1.5875
1070
    44
1041
2.0
1070
   140
1041
3.5
1070
   343
1005
0
1070
   344
1005
0
1002
}
0
DIMENSION
5
1FB
100
AcDbEntity
8
SK2
62
256
6
ByLayer
370
13
48
1
60
0
100
AcDbDimension
2
DimnDraft3D2
10
144.888211
20
0
30
0
11
144.888211
21
10
31
0
70
32
71
5
72
1
41
1
210
0
220
0
230
1
3
Standard
100
AcDbAlignedDimension
13
125.5875
23
-5
33
0
14
125.5875
24
0
34
0
50
90
100
AcDbRotatedDimension
1001
ACAD
1000
DSTYLE
1002
{
1070
    74
1070
     0
1070
   279
1070
     0
1070
   172
1070
     1
1070
   173
1070
     1
1070
   340
1005
1E5
1070
   271
1070
     2
1070
   272
1070
     2
1070
    77
1070
     1
1070
    73
1070
     0
1070
   171
1070
     3
1070
   274
1070
     4
1070
   177
1070
     2
1070
   176
1070
     2
1070
   178
1070
     2
1070
    78
1070
     8
1070
    48
1040
-0.005
1070
    41
1041
3.5
1070
   147
1041
1.75
1070
    42
1041
1.5875
1070
    44
1041
2.0
1070
   140
1041
3.5
1070
   343
1005
0
1070
   344
1005
0
1002
}
0
DIMENSION
5
206
100
AcDbEntity
8
2
62
256
6
ByLayer
370
13
48
1
60
0
100
AcDbDimension
2
DimnDraft3D3
10
124
20
48.1
30
0
11
56.838234
21
48.1
31
0
70
32
71
5
72
1
41
1
210
0
220
0
230
1
3
Standard
100
AcDbAlignedDimension
13
0
23
33.0875
33
0
14
124
24
16.5875
34
0
50
0
100
AcDbRotatedDimension
1001
ACAD
1000
DSTYLE
1002
{
1070
   279
1070
     0
1070
   172
1070
     1
1070
   173
1070
     1
1070
   340
1005
1E5
1070
   271
1070
     2
1070
   272
1070
     2
1070
    77
1070
     1
1070
    73
1070
     0
1070
   171
1070
     3
1070
   274
1070
     4
1070
   177
1070
     2
1070
   176
1070
     2
1070
   178
1070
     2
1070
    78
1070
     8
1070
    48
1040
-0.005
1070
    41
1041
3.5
1070
   147
1041
1.75
1070
    42
1041
1.5875
1070
    44
1041
2.0
1070
   140
1041
3.5
1070
   343
1005
0
1070
   344
1005
0
1002
}
0
DIMENSION
5
211
100
AcDbEntity
8
SK2
62
256
6
ByLayer
370
13
48
1
60
0
100
AcDbDimension
2
DimnDraft3D4
10
-61.6
20
-31.5
30
0
11
-62.225
21
2.284534
31
0
70
33
71
5
72
1
41
1
210
0
220
0
230
1
3
Standard
100
AcDbAlignedDimension
13
-1.5875
23
31.5
33
0
14
-1.5875
24
-31.5
34
0
1001
ACAD
1000
DSTYLE
1002
{
1070
   279
1070
     0
1070
    74
1070
     0
1070
   173
1070
     1
1070
   340
1005
1E5
1070
   271
1070
     2
1070
   272
1070
     2
1070
    77
1070
     1
1070
    73
1070
     0
1070
   171
1070
     3
1070
   274
1070
     4
1070
   177
1070
     2
1070
   176
1070
     2
1070
   178
1070
     2
1070
    78
1070
     8
1070
    48
1040
-0.005
1070
    41
1041
3.5
1070
   147
1041
1.75
1070
    42
1041
1.5875
1070
    44
1041
2.0
1070
   140
1041
3.5
1070
   343
1005
0
1070
   344
1005
0
1002
}
0
DIMENSION
5
21C
100
AcDbEntity
8
SK2
62
256
6
ByLayer
370
13
48
1
60
0
100
AcDbDimension
2
DimnDraft3D5
10
156.888211
20
-25
30
0
11
152.263211
21
-2.899733
31
0
70
33
71
5
72
1
41
1
210
0
220
0
230
1
3
Standard
100
AcDbAlignedDimension
13
125.5875
23
15
33
0
14
125.5875
24
-25
34
0
1001
ACAD
1000
DSTYLE
1002
{
1070
   279
1070
     0
1070
    74
1070
     0
1070
   173
1070
     1
1070
   340
1005
1E5
1070
   271
1070
     2
1070
   272
1070
     2
1070
    77
1070
     1
1070
    73
1070
     0
1070
   171
1070
     3
1070
   274
1070
     4
1070
   177
1070
     2
1070
   176
1070
     2
1070
   178
1070
     2
1070
    78
1070
     8
1070
    48
1040
-0.005
1070
    41
1041
3.5
1070
   147
1041
1.75
1070
    42
1041
1.5875
1070
    44
1041
2.0
1070
   140
1041
3.5
1070
   343
1005
0
1070
   344
1005
0
1002
}
0
DIMENSION
5
227
100
AcDbEntity
8
SK2
62
256
6
ByLayer
370
13
48
1
60
0
100
AcDbDimension
2
DimnDraft3D6
10
166.888211
20
25
30
0
11
162.263211
21
2.284534
31
0
70
33
71
5
72
1
41
1
210
0
220
0
230
1
3
Standard
100
AcDbAlignedDimension
13
125.5875
23
-25
33
0
14
118.708008
24
25
34
0
1001
ACAD
1000
DSTYLE
1002
{
1070
   279
1070
     0
1070
    74
1070
     0
1070
   173
1070
     1
1070
   340
1005
1E5
1070
   271
1070
     2
1070
   272
1070
     2
1070
    77
1070
     1
1070
    73
1070
     0
1070
   171
1070
     3
1070
   274
1070
     4
1070
   177
1070
     2
1070
   176
1070
     2
1070
   178
1070
     2
1070
    78
1070
     8
1070
    48
1040
-0.005
1070
    41
1041
3.5
1070
   147
1041
1.75
1070
    42
1041
1.5875
1070
    44
1041
2.0
1070
   140
1041
3.5
1070
   343
1005
0
1070
   344
1005
0
1002
}
0
ENDSEC
0
SECTION
2
OBJECTS
0
DICTIONARY
5
292
330
0
100
AcDbDictionary
280
0
281
1
3
ACAD_GROUP
350
293
3
ACAD_MLINESTYLE
350
294
0
DICTIONARY
5
293
330
0
100
AcDbDictionary
280
0
281
1
0
DICTIONARY
5
294
330
0
100
AcDbDictionary
280
0
281
1
3
Standard
350
18
0
MLINESTYLE
5
18
330
294
100
AcDbMlineStyle
2
Standard
70
0
3

62
256
51
90
52
90
71
2
49
-0.5
62
256
6
ByLayer
49
0.5
62
256
6
ByLayer
0
RASTERVARIABLES
5
280
330

100
AcDbRasterVariables
90
0
70
1
71
1
72
1
0
ENDSEC
0
EOF
