0
SECTION
2
HEADER
9
$ACADVER
1
AC1015
9
$DWGCODEPAGE
3
ANSI_1252
9
$HANDSEED
5
1e7
9
$ANGBASE
50
0
9
$ANGDIR
70
0
9
$ATTMODE
70
1
9
$AUNITS
70
0
9
$AUPREC
70
0
9
$CECOLOR
62
256
9
$CELTSCALE
40
1
9
$CELTYPE
6
ByLayer
9
$CELWEIGHT
370
18
9
$CLAYER
8
0
9
$CMLJUST
70
0
9
$CMLSCALE
40
1
9
$CMLSTYLE
2
Standard
9
$DIMSTYLE
2
Standard
9
$TEXTSIZE
40
0.2
9
$TEXTSTYLE
7
Standard
9
$LUNITS
70
2
9
$LUPREC
70
4
9
$EXTNAMES
290
1
9
$INSUNITS
70
4
9
$LTSCALE
40
1
9
$LWDISPLAY
290
1
9
$PDMODE
70
0
9
$PDSIZE
40
0
9
$PLINEGEN
70
0
0
ENDSEC
0
SECTION
2
CLASSES
0
CLASS
1
RASTERVARIABLES
2
AcDbRasterVariables
3
ISM
90
0
280
0
281
0
0
ENDSEC
0
SECTION
2
TABLES
0
TABLE
2
VPORT
5
1dd
100
AcDbSymbolTable
0
VPORT
5
1
100
AcDbSymbolTableRecord
100
AcDbViewportTableRecord
2
*Active
70
0
10
0
20
0
11
1
21
1
12
-1
22
1
13
0
23
0
14
0.5
24
0.5
15
10
25
10
16
0
26
0
36
1
17
0
27
0
37
0
0
ENDTAB
0
TABLE
2
LTYPE
5
1de
100
AcDbSymbolTable
0
LTYPE
5
14
100
AcDbSymbolTableRecord
100
AcDbLinetypeTableRecord
70
0
2
ByBlock
3

72
65
73
0
40
0
0
LTYPE
5
15
100
AcDbSymbolTableRecord
100
AcDbLinetypeTableRecord
70
0
2
ByLayer
3

72
65
73
0
40
0
0
LTYPE
5
16
100
AcDbSymbolTableRecord
100
AcDbLinetypeTableRecord
70
0
2
Continuous
3
Solid line
72
65
73
0
40
0
0
LTYPE
5
6E
100
AcDbSymbolTableRecord
100
AcDbLinetypeTableRecord
70
0
2
CENTER
3
____ _ ____ _ ____ _ ____
72
65
73
4
40
47.5
49
22
74
0
49
-8.5
74
0
49
8.5
74
0
49
-8.5
74
0
0
LTYPE
5
6F
100
AcDbSymbolTableRecord
100
AcDbLinetypeTableRecord
70
0
2
DASHED
3
__ __ __ __ __ __ __ __ __
72
65
73
2
40
25.72
49
12.86
74
0
49
-12.86
74
0
0
ENDTAB
0
TABLE
2
LAYER
5
1df
100
AcDbSymbolTable
0
LAYER
5
10
100
AcDbSymbolTableRecord
100
AcDbLayerTableRecord
2
0
70
0
62
7
6
Continuous
290
1
370
-3
390
0
0
LAYER
5
71
100
AcDbSymbolTableRecord
100
AcDbLayerTableRecord
2
1
70
0
62
4
6
Continuous
290
1
370
-3
390
0
0
LAYER
5
73
100
AcDbSymbolTableRecord
100
AcDbLayerTableRecord
2
80
70
0
62
-6
6
Continuous
290
1
370
-3
390
0
0
LAYER
5
75
100
AcDbSymbolTableRecord
100
AcDbLayerTableRecord
2
81
70
0
62
-3
6
Continuous
290
1
370
-3
390
0
0
LAYER
5
B1
100
AcDbSymbolTableRecord
100
AcDbLayerTableRecord
2
4
70
0
62
-2
6
CENTER
290
1
370
-3
390
0
0
LAYER
5
10B
100
AcDbSymbolTableRecord
100
AcDbLayerTableRecord
2
Defpoints
70
0
62
7
6
Continuous
290
0
370
-3
390
0
0
LAYER
5
148
100
AcDbSymbolTableRecord
100
AcDbLayerTableRecord
2
2
70
0
62
7
6
Continuous
290
1
370
-3
390
0
0
LAYER
5
1c9
100
AcDbSymbolTableRecord
100
AcDbLayerTableRecord
2
SK1
70
0
62
4
6
Continuous
290
1
370
-3
390
0
0
LAYER
5
1ca
100
AcDbSymbolTableRecord
100
AcDbLayerTableRecord
2
SK4
70
0
62
2
6
CENTER
290
1
370
-3
390
0
0
LAYER
5
1cb
100
AcDbSymbolTableRecord
100
AcDbLayerTableRecord
2
SK2
70
0
62
7
6
Continuous
290
1
370
-3
390
0
0
LAYER
5
1cc
100
AcDbSymbolTableRecord
100
AcDbLayerTableRecord
2
SK6
70
0
62
5
6
Continuous
290
1
370
-3
390
0
0
ENDTAB
0
TABLE
2
STYLE
5
1e0
100
AcDbSymbolTable
0
STYLE
5
11
100
AcDbSymbolTableRecord
100
AcDbTextStyleTableRecord
2
Standard
3
txt
70
0
71
0
40
0
41
1
42
0
50
0
0
STYLE
5
F0
100
AcDbSymbolTableRecord
100
AcDbTextStyleTableRecord
2
iso_b_vert
3
simplex.shx
70
0
71
0
40
0
41
1
42
0
50
0
0
STYLE
5
F1
100
AcDbSymbolTableRecord
100
AcDbTextStyleTableRecord
2
DWGDirectTextStyle
3
simplex
70
0
71
0
40
0
41
1
42
0
50
0
0
ENDTAB
0
TABLE
2
DIMSTYLE
5
1e1
100
AcDbSymbolTable
100
AcDbDimStyleTable
0
DIMSTYLE
105
27
100
AcDbSymbolTableRecord
100
AcDbDimStyleTableRecord
2
Standard
70
0
3
<>
41
0.18
42
0.0625
44
0.18
140
0.18
147
0.09
73
0
74
0
77
1
271
2
275
0
278
52
280
0
340
11
0
ENDTAB
0
TABLE
2
VIEW
5
1e2
100
AcDbSymbolTable
0
ENDTAB
0
TABLE
2
UCS
5
1e3
100
AcDbSymbolTable
0
ENDTAB
0
TABLE
2
APPID
5
1e4
100
AcDbSymbolTable
0
APPID
5
12
100
AcDbSymbolTableRecord
100
AcDbRegAppTableRecord
2
ACAD
70
0
0
APPID
5
107
100
AcDbSymbolTableRecord
100
AcDbRegAppTableRecord
2
ACAD_DSTYLE_DIMBREAK
70
0
0
APPID
5
188
100
AcDbSymbolTableRecord
100
AcDbRegAppTableRecord
2
ACAD_DSTYLE_DIM_LINETYPE
70
0
0
APPID
5
189
100
AcDbSymbolTableRecord
100
AcDbRegAppTableRecord
2
ACAD_DSTYLE_DIM_EXT1_LINETYPE
70
0
0
APPID
5
18A
100
AcDbSymbolTableRecord
100
AcDbRegAppTableRecord
2
ACAD_DSTYLE_DIM_EXT2_LINETYPE
70
0
0
APPID
5
1C5
100
AcDbSymbolTableRecord
100
AcDbRegAppTableRecord
2
ACAD_MLEADERVER
70
0
0
ENDTAB
0
TABLE
2
BLOCK_RECORD
5
1e5
100
AcDbSymbolTable
0
BLOCK_RECORD
5
1F
100
AcDbSymbolTableRecord
100
AcDbBlockTableRecord
2
*Model_Space
340
0
70
0
0
BLOCK_RECORD
5
1B
100
AcDbSymbolTableRecord
100
AcDbBlockTableRecord
2
*Paper_Space
340
0
70
0
0
BLOCK_RECORD
5
23
100
AcDbSymbolTableRecord
100
AcDbBlockTableRecord
2
*Paper_Space0
340
0
70
0
0
BLOCK_RECORD
5
10C
100
AcDbSymbolTableRecord
100
AcDbBlockTableRecord
2
*D1
340
0
70
0
0
BLOCK_RECORD
5
118
100
AcDbSymbolTableRecord
100
AcDbBlockTableRecord
2
_U0
340
0
70
0
0
BLOCK_RECORD
5
124
100
AcDbSymbolTableRecord
100
AcDbBlockTableRecord
2
*D3
340
0
70
0
0
BLOCK_RECORD
5
130
100
AcDbSymbolTableRecord
100
AcDbBlockTableRecord
2
_U1
340
0
70
0
0
BLOCK_RECORD
5
13C
100
AcDbSymbolTableRecord
100
AcDbBlockTableRecord
2
*D5
340
0
70
0
0
BLOCK_RECORD
5
149
100
AcDbSymbolTableRecord
100
AcDbBlockTableRecord
2
_U2
340
0
70
0
0
BLOCK_RECORD
5
155
100
AcDbSymbolTableRecord
100
AcDbBlockTableRecord
2
*D7
340
0
70
0
0
BLOCK_RECORD
5
161
100
AcDbSymbolTableRecord
100
AcDbBlockTableRecord
2
_U3
340
0
70
0
0
ENDTAB
0
ENDSEC
0
SECTION
2
BLOCKS
0
BLOCK
5
20
100
AcDbEntity
8
0
100
AcDbBlockBegin
2
*Model_Space
70
0
10
0
20
0
30
0
3
*Model_Space
0
ENDBLK
5
21
100
AcDbEntity
8
0
100
AcDbBlockEnd
0
BLOCK
5
1C
100
AcDbEntity
8
0
100
AcDbBlockBegin
2
*Paper_Space
70
0
10
0
20
0
30
0
3
*Paper_Space
0
ENDBLK
5
1D
100
AcDbEntity
8
0
100
AcDbBlockEnd
0
BLOCK
5
24
100
AcDbEntity
8
0
100
AcDbBlockBegin
2
*Paper_Space0
70
0
10
0
20
0
30
0
3
*Paper_Space0
0
ENDBLK
5
25
100
AcDbEntity
8
0
100
AcDbBlockEnd
0
BLOCK
5
10D
100
AcDbEntity
8
0
100
AcDbBlockBegin
2
*D1
70
1
10
0
20
0
30
0
3
*D1
0
LINE
5
10F
100
AcDbEntity
8
0
62
256
6
ByLayer
370
-2
48
1
60
0
100
AcDbLine
10
0
20
33.0875
30
0
11
0
21
50.1
31
0
39
0
210
0
220
0
230
1
0
LINE
5
110
100
AcDbEntity
8
0
62
256
6
ByLayer
370
-2
48
1
60
0
100
AcDbLine
10
22
20
33.0875
30
0
11
22
21
50.1
31
0
39
0
210
0
220
0
230
1
0
LINE
5
111
100
AcDbEntity
8
0
62
256
6
ByLayer
370
-2
48
1
60
0
100
AcDbLine
10
3.5
20
48.1
30
0
11
18.5
21
48.1
31
0
39
0
210
0
220
0
230
1
0
SOLID
5
112
100
AcDbEntity
8
0
62
256
6
ByLayer
370
-1
48
1
60
0
100
AcDbTrace
10
3.5
20
48.683333
30
0
11
3.5
21
47.516667
31
0
12
0
22
48.1
32
0
13
0
23
48.1
33
0
39
0
210
0
220
0
230
1
0
SOLID
5
113
100
AcDbEntity
8
0
62
256
6
ByLayer
370
-1
48
1
60
0
100
AcDbTrace
10
18.5
20
47.516667
30
0
11
18.5
21
48.683333
31
0
12
22
22
48.1
32
0
13
22
23
48.1
33
0
39
0
210
0
220
0
230
1
0
MTEXT
5
114
100
AcDbEntity
8
0
62
256
6
ByLayer
370
18
48
1
60
0
100
AcDbMText
10
11
20
55.1
30
0
210
0
220
0
230
1
1
\A1;22
40
3.5
41
0
44
1
50
0
71
5
72
5
7
iso_b_vert
0
POINT
5
115
100
AcDbEntity
8
Defpoints
62
0
6
ByLayer
370
-1
48
1
60
0
100
AcDbPoint
10
0
20
31.5
30
0
39
0
210
0
220
0
230
1
50
360
0
POINT
5
116
100
AcDbEntity
8
Defpoints
62
0
6
ByLayer
370
-1
48
1
60
0
100
AcDbPoint
10
22
20
31.5
30
0
39
0
210
0
220
0
230
1
50
360
0
POINT
5
117
100
AcDbEntity
8
Defpoints
62
0
6
ByLayer
370
-1
48
1
60
0
100
AcDbPoint
10
22
20
48.1
30
0
39
0
210
0
220
0
230
1
50
360
0
ENDBLK
5
10E
100
AcDbEntity
8
0
100
AcDbBlockEnd
0
BLOCK
5
11F
100
AcDbEntity
8
0
100
AcDbBlockBegin
2
_U0
70
0
10
0
20
0
30
0
3
_U0
0
MTEXT
5
119
100
AcDbEntity
8
SK2
62
256
6
ByLayer
370
18
48
1
60
0
100
AcDbMText
10
9.095034
20
49.132634
30
0
210
0
220
0
230
1
1
\W0.6740;22
40
3.5
41
0
44
1.084337
50
0
71
7
72
5
7
iso_b_vert
0
LINE
5
11A
100
AcDbEntity
8
SK2
62
256
6
ByLayer
370
13
48
1
60
0
100
AcDbLine
10
0
20
33.0875
30
0
11
0
21
50.1
31
0
39
0
210
0
220
0
230
1
0
LINE
5
11B
100
AcDbEntity
8
SK2
62
256
6
ByLayer
370
13
48
1
60
0
100
AcDbLine
10
22
20
33.0875
30
0
11
22
21
50.1
31
0
39
0
210
0
220
0
230
1
0
LINE
5
11C
100
AcDbEntity
8
SK2
62
256
6
ByLayer
370
13
48
1
60
0
100
AcDbLine
10
0
20
48.1
30
0
11
22
21
48.1
31
0
39
0
210
0
220
0
230
1
0
SOLID
5
11D
100
AcDbEntity
8
SK2
62
256
6
ByLayer
370
18
48
1
60
0
100
AcDbTrace
10
0
20
48.1
30
0
11
3.499998
21
48.560784
31
0
12
3.500002
22
47.639216
32
0
13
3.500002
23
47.639216
33
0
39
0
210
0
220
0
230
1
0
SOLID
5
11E
100
AcDbEntity
8
SK2
62
256
6
ByLayer
370
18
48
1
60
0
100
AcDbTrace
10
22
20
48.1
30
0
11
18.500002
21
47.639216
31
0
12
18.499998
22
48.560784
32
0
13
18.499998
23
48.560784
33
0
39
0
210
0
220
0
230
1
0
ENDBLK
5
120
100
AcDbEntity
8
0
100
AcDbBlockEnd
0
BLOCK
5
125
100
AcDbEntity
8
0
100
AcDbBlockBegin
2
*D3
70
1
10
0
20
0
30
0
3
*D3
0
LINE
5
127
100
AcDbEntity
8
0
62
256
6
ByLayer
370
-2
48
1
60
0
100
AcDbLine
10
80
20
21.5875
30
0
11
80
21
50.1
31
0
39
0
210
0
220
0
230
1
0
LINE
5
128
100
AcDbEntity
8
0
62
256
6
ByLayer
370
-2
48
1
60
0
100
AcDbLine
10
28.3
20
21.5875
30
0
11
28.3
21
50.1
31
0
39
0
210
0
220
0
230
1
0
LINE
5
129
100
AcDbEntity
8
0
62
256
6
ByLayer
370
-2
48
1
60
0
100
AcDbLine
10
76.5
20
48.1
30
0
11
31.8
21
48.1
31
0
39
0
210
0
220
0
230
1
0
SOLID
5
12A
100
AcDbEntity
8
0
62
256
6
ByLayer
370
-1
48
1
60
0
100
AcDbTrace
10
76.5
20
47.516667
30
0
11
76.5
21
48.683333
31
0
12
80
22
48.1
32
0
13
80
23
48.1
33
0
39
0
210
0
220
0
230
1
0
SOLID
5
12B
100
AcDbEntity
8
0
62
256
6
ByLayer
370
-1
48
1
60
0
100
AcDbTrace
10
31.8
20
48.683333
30
0
11
31.8
21
47.516667
31
0
12
28.3
22
48.1
32
0
13
28.3
23
48.1
33
0
39
0
210
0
220
0
230
1
0
MTEXT
5
12C
100
AcDbEntity
8
0
62
256
6
ByLayer
370
18
48
1
60
0
100
AcDbMText
10
54.15
20
55.1
30
0
210
0
220
0
230
1
1
\A1;51.7
40
3.5
41
0
44
1
50
0
71
5
72
5
7
iso_b_vert
0
POINT
5
12D
100
AcDbEntity
8
Defpoints
62
0
6
ByLayer
370
-1
48
1
60
0
100
AcDbPoint
10
80
20
20
30
0
39
0
210
0
220
0
230
1
50
360
0
POINT
5
12E
100
AcDbEntity
8
Defpoints
62
0
6
ByLayer
370
-1
48
1
60
0
100
AcDbPoint
10
28.3
20
20
30
0
39
0
210
0
220
0
230
1
50
360
0
POINT
5
12F
100
AcDbEntity
8
Defpoints
62
0
6
ByLayer
370
-1
48
1
60
0
100
AcDbPoint
10
28.3
20
48.1
30
0
39
0
210
0
220
0
230
1
50
360
0
ENDBLK
5
126
100
AcDbEntity
8
0
100
AcDbBlockEnd
0
BLOCK
5
137
100
AcDbEntity
8
0
100
AcDbBlockBegin
2
_U1
70
0
10
0
20
0
30
0
3
_U1
0
MTEXT
5
131
100
AcDbEntity
8
SK2
62
256
6
ByLayer
370
18
48
1
60
0
100
AcDbMText
10
50.757868
20
49.132634
30
0
210
0
220
0
230
1
1
\W0.6367;51,7
40
3.5
41
0
44
1.084337
50
0
71
7
72
5
7
iso_b_vert
0
LINE
5
132
100
AcDbEntity
8
SK2
62
256
6
ByLayer
370
13
48
1
60
0
100
AcDbLine
10
80
20
21.5875
30
0
11
80
21
50.1
31
0
39
0
210
0
220
0
230
1
0
LINE
5
133
100
AcDbEntity
8
SK2
62
256
6
ByLayer
370
13
48
1
60
0
100
AcDbLine
10
28.3
20
21.5875
30
0
11
28.3
21
50.1
31
0
39
0
210
0
220
0
230
1
0
LINE
5
134
100
AcDbEntity
8
SK2
62
256
6
ByLayer
370
13
48
1
60
0
100
AcDbLine
10
80
20
48.1
30
0
11
28.3
21
48.1
31
0
39
0
210
0
220
0
230
1
0
SOLID
5
135
100
AcDbEntity
8
SK2
62
256
6
ByLayer
370
18
48
1
60
0
100
AcDbTrace
10
80
20
48.1
30
0
11
76.500002
21
47.639216
31
0
12
76.499998
22
48.560784
32
0
13
76.499998
23
48.560784
33
0
39
0
210
0
220
0
230
1
0
SOLID
5
136
100
AcDbEntity
8
SK2
62
256
6
ByLayer
370
18
48
1
60
0
100
AcDbTrace
10
28.3
20
48.1
30
0
11
31.799998
21
48.560784
31
0
12
31.800002
22
47.639216
32
0
13
31.800002
23
47.639216
33
0
39
0
210
0
220
0
230
1
0
ENDBLK
5
138
100
AcDbEntity
8
0
100
AcDbBlockEnd
0
BLOCK
5
13D
100
AcDbEntity
8
0
100
AcDbBlockBegin
2
*D5
70
1
10
0
20
0
30
0
3
*D5
0
LINE
5
13F
100
AcDbEntity
8
0
62
256
6
ByLayer
370
-2
48
1
60
0
100
AcDbLine
10
80
20
21.5875
30
0
11
80
21
60.1
31
0
39
0
210
0
220
0
230
1
0
LINE
5
140
100
AcDbEntity
8
0
62
256
6
ByLayer
370
-2
48
1
60
0
100
AcDbLine
10
0
20
33.0875
30
0
11
0
21
60.1
31
0
39
0
210
0
220
0
230
1
0
LINE
5
141
100
AcDbEntity
8
0
62
256
6
ByLayer
370
-2
48
1
60
0
100
AcDbLine
10
76.5
20
58.1
30
0
11
3.5
21
58.1
31
0
39
0
210
0
220
0
230
1
0
SOLID
5
142
100
AcDbEntity
8
0
62
256
6
ByLayer
370
-1
48
1
60
0
100
AcDbTrace
10
76.5
20
57.516667
30
0
11
76.5
21
58.683333
31
0
12
80
22
58.1
32
0
13
80
23
58.1
33
0
39
0
210
0
220
0
230
1
0
SOLID
5
143
100
AcDbEntity
8
0
62
256
6
ByLayer
370
-1
48
1
60
0
100
AcDbTrace
10
3.5
20
58.683333
30
0
11
3.5
21
57.516667
31
0
12
0
22
58.1
32
0
13
0
23
58.1
33
0
39
0
210
0
220
0
230
1
0
MTEXT
5
144
100
AcDbEntity
8
0
62
256
6
ByLayer
370
18
48
1
60
0
100
AcDbMText
10
40
20
65.1
30
0
210
0
220
0
230
1
1
\A1;80
40
3.5
41
0
44
1
50
0
71
5
72
5
7
iso_b_vert
0
POINT
5
145
100
AcDbEntity
8
Defpoints
62
0
6
ByLayer
370
-1
48
1
60
0
100
AcDbPoint
10
80
20
20
30
0
39
0
210
0
220
0
230
1
50
360
0
POINT
5
146
100
AcDbEntity
8
Defpoints
62
0
6
ByLayer
370
-1
48
1
60
0
100
AcDbPoint
10
0
20
31.5
30
0
39
0
210
0
220
0
230
1
50
360
0
POINT
5
147
100
AcDbEntity
8
Defpoints
62
0
6
ByLayer
370
-1
48
1
60
0
100
AcDbPoint
10
0
20
58.1
30
0
39
0
210
0
220
0
230
1
50
360
0
ENDBLK
5
13E
100
AcDbEntity
8
0
100
AcDbBlockEnd
0
BLOCK
5
150
100
AcDbEntity
8
0
100
AcDbBlockBegin
2
_U2
70
0
10
0
20
0
30
0
3
_U2
0
MTEXT
5
14A
100
AcDbEntity
8
2
62
256
6
ByLayer
370
18
48
1
60
0
100
AcDbMText
10
38.095034
20
59.132634
30
0
210
0
220
0
230
1
1
\W0.6740;80
40
3.5
41
0
44
1.084337
50
0
71
7
72
5
7
iso_b_vert
0
LINE
5
14B
100
AcDbEntity
8
2
62
256
6
ByLayer
370
13
48
1
60
0
100
AcDbLine
10
80
20
21.5875
30
0
11
80
21
60.1
31
0
39
0
210
0
220
0
230
1
0
LINE
5
14C
100
AcDbEntity
8
2
62
256
6
ByLayer
370
13
48
1
60
0
100
AcDbLine
10
0
20
33.0875
30
0
11
0
21
60.1
31
0
39
0
210
0
220
0
230
1
0
LINE
5
14D
100
AcDbEntity
8
2
62
256
6
ByLayer
370
13
48
1
60
0
100
AcDbLine
10
80
20
58.1
30
0
11
0
21
58.1
31
0
39
0
210
0
220
0
230
1
0
SOLID
5
14E
100
AcDbEntity
8
2
62
256
6
ByLayer
370
18
48
1
60
0
100
AcDbTrace
10
80
20
58.1
30
0
11
76.500002
21
57.639216
31
0
12
76.499998
22
58.560784
32
0
13
76.499998
23
58.560784
33
0
39
0
210
0
220
0
230
1
0
SOLID
5
14F
100
AcDbEntity
8
2
62
256
6
ByLayer
370
18
48
1
60
0
100
AcDbTrace
10
0
20
58.1
30
0
11
3.499998
21
58.560784
31
0
12
3.500002
22
57.639216
32
0
13
3.500002
23
57.639216
33
0
39
0
210
0
220
0
230
1
0
ENDBLK
5
151
100
AcDbEntity
8
0
100
AcDbBlockEnd
0
BLOCK
5
156
100
AcDbEntity
8
0
100
AcDbBlockBegin
2
*D7
70
1
10
0
20
0
30
0
3
*D7
0
LINE
5
158
100
AcDbEntity
8
0
62
256
6
ByLayer
370
-2
48
1
60
0
100
AcDbLine
10
-38
20
23.5875
30
0
11
-38
21
60.1
31
0
39
0
210
0
220
0
230
1
0
LINE
5
159
100
AcDbEntity
8
0
62
256
6
ByLayer
370
-2
48
1
60
0
100
AcDbLine
10
0
20
33.0875
30
0
11
0
21
60.1
31
0
39
0
210
0
220
0
230
1
0
LINE
5
15A
100
AcDbEntity
8
0
62
256
6
ByLayer
370
-2
48
1
60
0
100
AcDbLine
10
-34.5
20
58.1
30
0
11
-3.5
21
58.1
31
0
39
0
210
0
220
0
230
1
0
SOLID
5
15B
100
AcDbEntity
8
0
62
256
6
ByLayer
370
-1
48
1
60
0
100
AcDbTrace
10
-34.5
20
58.683333
30
0
11
-34.5
21
57.516667
31
0
12
-38
22
58.1
32
0
13
-38
23
58.1
33
0
39
0
210
0
220
0
230
1
0
SOLID
5
15C
100
AcDbEntity
8
0
62
256
6
ByLayer
370
-1
48
1
60
0
100
AcDbTrace
10
-3.5
20
57.516667
30
0
11
-3.5
21
58.683333
31
0
12
0
22
58.1
32
0
13
0
23
58.1
33
0
39
0
210
0
220
0
230
1
0
MTEXT
5
15D
100
AcDbEntity
8
0
62
256
6
ByLayer
370
18
48
1
60
0
100
AcDbMText
10
-19
20
65.1
30
0
210
0
220
0
230
1
1
\A1;38
40
3.5
41
0
44
1
50
0
71
5
72
5
7
iso_b_vert
0
POINT
5
15E
100
AcDbEntity
8
Defpoints
62
0
6
ByLayer
370
-1
48
1
60
0
100
AcDbPoint
10
-38
20
22
30
0
39
0
210
0
220
0
230
1
50
360
0
POINT
5
15F
100
AcDbEntity
8
Defpoints
62
0
6
ByLayer
370
-1
48
1
60
0
100
AcDbPoint
10
0
20
31.5
30
0
39
0
210
0
220
0
230
1
50
360
0
POINT
5
160
100
AcDbEntity
8
Defpoints
62
0
6
ByLayer
370
-1
48
1
60
0
100
AcDbPoint
10
0
20
58.1
30
0
39
0
210
0
220
0
230
1
50
360
0
ENDBLK
5
157
100
AcDbEntity
8
0
100
AcDbBlockEnd
0
BLOCK
5
168
100
AcDbEntity
8
0
100
AcDbBlockBegin
2
_U3
70
0
10
0
20
0
30
0
3
_U3
0
MTEXT
5
162
100
AcDbEntity
8
SK2
62
256
6
ByLayer
370
18
48
1
60
0
100
AcDbMText
10
-20.904966
20
59.132634
30
0
210
0
220
0
230
1
1
\W0.6740;38
40
3.5
41
0
44
1.084337
50
0
71
7
72
5
7
iso_b_vert
0
LINE
5
163
100
AcDbEntity
8
SK2
62
256
6
ByLayer
370
13
48
1
60
0
100
AcDbLine
10
-38
20
23.5875
30
0
11
-38
21
60.1
31
0
39
0
210
0
220
0
230
1
0
LINE
5
164
100
AcDbEntity
8
SK2
62
256
6
ByLayer
370
13
48
1
60
0
100
AcDbLine
10
0
20
33.0875
30
0
11
0
21
60.1
31
0
39
0
210
0
220
0
230
1
0
LINE
5
165
100
AcDbEntity
8
SK2
62
256
6
ByLayer
370
13
48
1
60
0
100
AcDbLine
10
-38
20
58.1
30
0
11
0
21
58.1
31
0
39
0
210
0
220
0
230
1
0
SOLID
5
166
100
AcDbEntity
8
SK2
62
256
6
ByLayer
370
18
48
1
60
0
100
AcDbTrace
10
-38
20
58.1
30
0
11
-34.500002
21
58.560784
31
0
12
-34.499998
22
57.639216
32
0
13
-34.499998
23
57.639216
33
0
39
0
210
0
220
0
230
1
0
SOLID
5
167
100
AcDbEntity
8
SK2
62
256
6
ByLayer
370
18
48
1
60
0
100
AcDbTrace
10
0
20
58.1
30
0
11
-3.499998
21
57.639216
31
0
12
-3.500002
22
58.560784
32
0
13
-3.500002
23
58.560784
33
0
39
0
210
0
220
0
230
1
0
ENDBLK
5
169
100
AcDbEntity
8
0
100
AcDbBlockEnd
0
ENDSEC
0
SECTION
2
ENTITIES
0
ARC
5
C8
100
AcDbEntity
8
1
62
256
6
ByLayer
370
18
48
1
60
0
100
AcDbCircle
39
0
10
28.3
20
23.108651
30
0
40
3.10865062425175
210
0
220
0
230
1
100
AcDbArc
50
195.192907
51
270
0
ARC
5
C9
100
AcDbEntity
8
SK1
62
256
6
ByLayer
370
18
48
1
60
0
100
AcDbCircle
39
0
10
-0.6
20
23.45
30
0
40
0.999999999999999
210
0
220
0
230
1
100
AcDbArc
50
293.578178
51
306.869898
0
ARC
5
CA
100
AcDbEntity
8
SK1
62
256
6
ByLayer
370
18
48
1
60
0
100
AcDbCircle
39
0
10
-0.6
20
-23.45
30
0
40
0.999999999999999
210
0
220
0
230
1
100
AcDbArc
50
53.130102
51
66.421822
0
ARC
5
CB
100
AcDbEntity
8
1
62
256
6
ByLayer
370
18
48
1
60
0
100
AcDbCircle
39
0
10
28.3
20
-23.108651
30
0
40
3.10865062425175
210
0
220
0
230
1
100
AcDbArc
50
90
51
164.807093
0
ARC
5
CC
100
AcDbEntity
8
1
62
256
6
ByLayer
370
18
48
1
60
0
100
AcDbCircle
39
0
10
22.188275
20
30.7
30
0
40
0.8
210
0
220
0
230
1
100
AcDbArc
50
15.192907
51
90
0
ARC
5
CD
100
AcDbEntity
8
1
62
256
6
ByLayer
370
18
48
1
60
0
100
AcDbCircle
39
0
10
22.188275
20
-30.7
30
0
40
0.8
210
0
220
0
230
1
100
AcDbArc
50
270
51
344.807093
0
ELLIPSE
5
CE
100
AcDbEntity
8
1
62
256
6
ByLayer
370
18
48
1
60
0
100
AcDbEllipse
10
26.347154
20
0
30
0
11
14.7536831606553
21
31.0932549155799
31
0
210
0
220
0
230
1
40
0.341999
41
2.05035306783694
42
2.98378646694436
0
ELLIPSE
5
CF
100
AcDbEntity
8
1
62
256
6
ByLayer
370
18
48
1
60
0
100
AcDbEllipse
10
-2.347154
20
0
30
0
11
14.7536831606549
21
-31.0932549155794
31
0
210
0
220
0
230
1
40
0.341999
41
0.157806186645439
42
1.09123958575287
0
ELLIPSE
5
D0
100
AcDbEntity
8
1
62
256
6
ByLayer
370
18
48
1
60
0
100
AcDbEllipse
10
26.347154
20
0
30
0
11
14.7536831606554
21
-31.0932549155801
31
0
210
0
220
0
230
1
40
0.341999
41
-2.98378646694436
42
-2.05035306783694
0
ELLIPSE
5
D1
100
AcDbEntity
8
1
62
256
6
ByLayer
370
18
48
1
60
0
100
AcDbEllipse
10
-2.347154
20
0
30
0
11
14.753683160654
21
31.0932549155782
31
0
210
0
220
0
230
1
40
0.341999
41
-1.0912395857529
42
-0.157806186645445
0
POINT
5
70
100
AcDbEntity
8
1
62
256
6
ByLayer
370
18
48
1
60
0
100
AcDbPoint
10
0
20
0
30
0
39
0
210
0
220
0
230
1
50
360
0
POINT
5
72
100
AcDbEntity
8
80
62
256
6
ByLayer
370
18
48
1
60
0
100
AcDbPoint
10
0
20
0
30
0
39
0
210
0
220
0
230
1
50
360
0
POINT
5
74
100
AcDbEntity
8
81
62
256
6
ByLayer
370
18
48
1
60
0
100
AcDbPoint
10
80
20
0
30
0
39
0
210
0
220
0
230
1
50
360
0
POINT
5
76
100
AcDbEntity
8
1
62
256
6
ByLayer
370
18
48
1
60
1
100
AcDbPoint
10
0
20
31.5
30
0
39
0
210
0
220
0
230
1
50
360
0
POINT
5
77
100
AcDbEntity
8
1
62
256
6
ByLayer
370
18
48
1
60
1
100
AcDbPoint
10
22
20
31.5
30
0
39
0
210
0
220
0
230
1
50
360
0
POINT
5
78
100
AcDbEntity
8
1
62
256
6
ByLayer
370
18
48
1
60
1
100
AcDbPoint
10
80
20
20
30
0
39
0
210
0
220
0
230
1
50
360
0
POINT
5
79
100
AcDbEntity
8
1
62
256
6
ByLayer
370
18
48
1
60
1
100
AcDbPoint
10
28.3
20
20
30
0
39
0
210
0
220
0
230
1
50
360
0
POINT
5
7A
100
AcDbEntity
8
1
62
256
6
ByLayer
370
18
48
1
60
1
100
AcDbPoint
10
80
20
20
30
0
39
0
210
0
220
0
230
1
50
360
0
POINT
5
7B
100
AcDbEntity
8
1
62
256
6
ByLayer
370
18
48
1
60
1
100
AcDbPoint
10
0
20
31.5
30
0
39
0
210
0
220
0
230
1
50
360
0
POINT
5
7C
100
AcDbEntity
8
1
62
256
6
ByLayer
370
18
48
1
60
1
100
AcDbPoint
10
-38
20
22
30
0
39
0
210
0
220
0
230
1
50
360
0
POINT
5
7D
100
AcDbEntity
8
1
62
256
6
ByLayer
370
18
48
1
60
1
100
AcDbPoint
10
0
20
31.5
30
0
39
0
210
0
220
0
230
1
50
360
0
SPLINE
5
D2
100
AcDbEntity
8
SK1
62
256
6
ByLayer
370
18
48
1
60
0
100
AcDbSpline
70
4
71
3
72
24
73
20
40
0
40
0
40
0
40
0
40
0.03125
40
0.03125
40
0.0624999999999999
40
0.0624999999999999
40
0.0937499999999999
40
0.0937499999999999
40
0.125
40
0.125
40
0.1875
40
0.1875
40
0.25
40
0.25
40
0.375
40
0.375
40
0.5
40
0.5
40
1
40
1
40
1
40
1
41
1
10
-0.394976888875277
20
6.326943090669
30
0
41
1
10
-0.38847879114121
20
6.32122083099978
30
0
41
1
10
-0.381313154819537
20
6.31618565872657
30
0
41
1
10
-0.365409710573573
20
6.30942196278457
30
0
41
1
10
-0.356491145072283
20
6.30782589043292
30
0
41
1
10
-0.338830866580111
20
6.31048209062152
30
0
41
1
10
-0.330289930609837
20
6.31473882346543
30
0
41
1
10
-0.315858342049921
20
6.32593033296189
30
0
41
1
10
-0.309649778597219
20
6.33285276949908
30
0
41
1
10
-0.293313689377101
20
6.35478748070284
30
0
41
1
10
-0.285093867610584
20
6.37118996774478
30
0
41
1
10
-0.271027300228269
20
6.40434328922584
30
0
41
1
10
-0.265260102162785
20
6.42121101452722
30
0
41
1
10
-0.249955006097821
20
6.47225869816404
30
0
41
1
10
-0.24239685395699
20
6.50696236445458
30
0
41
1
10
-0.229806665913117
20
6.57651474417165
30
0
41
1
10
-0.224881575141865
20
6.6112317240092
30
0
41
1
10
-0.204383593087527
20
6.78454973877442
30
0
41
1
10
-0.200000000000955
20
6.92236219959716
30
0
41
1
10
-0.200000000000955
20
7.05951756777665
30
0
0
SPLINE
5
D3
100
AcDbEntity
8
SK1
62
256
6
ByLayer
370
18
48
1
60
0
100
AcDbSpline
70
4
71
3
72
30
73
26
40
0
40
0
40
0
40
0
40
0.0312499999999994
40
0.0312499999999994
40
0.0624999999999988
40
0.0624999999999988
40
0.0937499999999983
40
0.0937499999999983
40
0.124999999999998
40
0.124999999999998
40
0.156249999999997
40
0.156249999999997
40
0.187499999999997
40
0.187499999999997
40
0.249999999999996
40
0.249999999999996
40
0.312499999999996
40
0.312499999999996
40
0.374999999999996
40
0.374999999999996
40
0.499999999999996
40
0.499999999999996
40
0.749999999999998
40
0.749999999999998
40
1
40
1
40
1
40
1
41
1
10
-0.394976888875306
20
-6.32694279392757
30
0
41
1
10
-0.411238696721739
20
-6.34126302490415
30
0
41
1
10
-0.428507485946397
20
-6.35445833731507
30
0
41
1
10
-0.466057816276162
20
-6.37750355983715
30
0
41
1
10
-0.486259278879999
20
-6.38723211102035
30
0
41
1
10
-0.528928737140916
20
-6.40070980810009
30
0
41
1
10
-0.552005370573369
20
-6.40446654618015
30
0
41
1
10
-0.597682826800479
20
-6.40404538429894
30
0
41
1
10
-0.620747969171418
20
-6.39988942772294
30
0
41
1
10
-0.663841284887184
20
-6.38551624086298
30
0
41
1
10
-0.684254761753095
20
-6.37530734814356
30
0
41
1
10
-0.721714491331937
20
-6.35175818060952
30
0
41
1
10
-0.739184552681508
20
-6.33820913265023
30
0
41
1
10
-0.788162075932092
20
-6.29461172820723
30
0
41
1
10
-0.815964113388588
20
-6.26223556861282
30
0
41
1
10
-0.86681058547714
20
-6.19416487342832
30
-1E-16
41
1
10
-0.889725334639508
20
-6.15831922452327
30
-1E-16
41
1
10
-0.931663440024437
20
-6.0857602140492
30
-1E-16
41
1
10
-0.950810679353566
20
-6.04882063700347
30
-1E-16
41
1
10
-1.00456810808541
20
-5.93660131926185
30
-1E-16
41
1
10
-1.03556300059233
20
-5.8599435845837
30
-1E-16
41
1
10
-1.12018816360205
20
-5.6264189499465
30
-1E-16
41
1
10
-1.16556178401132
20
-5.46581692848355
30
-1E-16
41
1
10
-1.24442385148592
20
-5.14144332217063
30
-1E-16
41
1
10
-1.27774590369947
20
-4.97713666802878
30
-1E-16
41
1
10
-1.30710678118655
20
-4.81101321788441
30
-1E-16
0
SPLINE
5
D4
100
AcDbEntity
8
SK1
62
256
6
ByLayer
370
18
48
1
60
0
100
AcDbSpline
70
4
71
3
72
26
73
22
40
0
40
0
40
0
40
0
40
0.25
40
0.25
40
0.5
40
0.5
40
0.625
40
0.625
40
0.75
40
0.75
40
0.8125
40
0.8125
40
0.875
40
0.875
40
0.90625
40
0.90625
40
0.9375
40
0.9375
40
0.96875
40
0.96875
40
1
40
1
40
1
40
1
41
1
10
-0.199999999999989
20
-7.05951749342083
30
0
41
1
10
-0.199999999999989
20
-6.99088366827036
30
0
41
1
10
-0.201319609066843
20
-6.92203745653026
30
0
41
1
10
-0.207680242986726
20
-6.78384770613772
30
0
41
1
10
-0.212644818423286
20
-6.71441370073745
30
0
41
1
10
-0.225032362287749
20
-6.610101532507
30
0
41
1
10
-0.22998853610892
20
-6.57535167439425
30
0
41
1
10
-0.242605757740421
20
-6.50597096289755
30
0
41
1
10
-0.250188173910743
20
-6.47131022305021
30
0
41
1
10
-0.265534367861676
20
-6.4203844584319
30
0
41
1
10
-0.27131598361575
20
-6.40356588205816
30
0
41
1
10
-0.285411407521394
20
-6.37054221190877
30
0
41
1
10
-0.293612475506308
20
-6.3542515820991
30
0
41
1
10
-0.310070058832991
20
-6.33235891704217
30
0
41
1
10
-0.316188975330021
20
-6.32559855176618
30
0
41
1
10
-0.330728129252975
20
-6.31447788013506
30
0
41
1
10
-0.339136190980326
20
-6.31039609843523
30
0
41
1
10
-0.35657676985852
20
-6.30785340244549
30
0
41
1
10
-0.365590532907476
20
-6.30947164062368
30
0
41
1
10
-0.381451989855123
20
-6.31627189389673
30
0
41
1
10
-0.388510166361129
20
-6.32124816508073
30
0
41
1
10
-0.394976888875277
20
-6.32694279392757
30
0
0
SPLINE
5
D5
100
AcDbEntity
8
SK1
62
256
6
ByLayer
370
18
48
1
60
0
100
AcDbSpline
70
4
71
3
72
299
73
295
40
0
40
0
40
0
40
0
40
0.0029474593921849
40
0.0064725314495327
40
0.0099976035068804
40
0.0135226755642282
40
0.017047747621576
40
0.0205728196789237
40
0.0240978917362715
40
0.0276229637936192
40
0.0346731079083148
40
0.0417232520230103
40
0.0487733961377058
40
0.0522984681950536
40
0.0558235402524013
40
0.0593486123097491
40
0.0628736843670968
40
0.0699238284817924
40
0.0734489005391401
40
0.0769739725964879
40
0.0804990446538357
40
0.0840241167111834
40
0.0875491887685312
40
0.091074260825879
40
0.0981244049405744
40
0.101649476997922
40
0.10517454905527
40
0.108699621112618
40
0.112224693169966
40
0.115749765227313
40
0.119274837284661
40
0.122799909342009
40
0.126324981399357
40
0.129850053456704
40
0.133375125514052
40
0.1369001975714
40
0.140425269628748
40
0.143950341686095
40
0.147475413743443
40
0.154525557858139
40
0.158050629915486
40
0.161575701972834
40
0.163338238001508
40
0.165100774030182
40
0.16862584608753
40
0.175675990202225
40
0.179201062259573
40
0.182726134316921
40
0.186251206374269
40
0.189776278431616
40
0.196826422546312
40
0.20035149460366
40
0.203876566661007
40
0.205639102689681
40
0.207401638718355
40
0.210926710775703
40
0.217976854890398
40
0.221501926947746
40
0.225026999005094
40
0.228552071062442
40
0.232077143119789
40
0.239127287234485
40
0.242652359291833
40
0.24617743134918
40
0.247939967377854
40
0.249702503406528
40
0.253227575463876
40
0.256752647521224
40
0.260277719578571
40
0.262040255607245
40
0.263802791635919
40
0.267327863693267
40
0.270852935750615
40
0.274378007807963
40
0.27790307986531
40
0.281428151922658
40
0.284953223980006
40
0.288478296037354
40
0.292003368094701
40
0.295528440152049
40
0.299053512209397
40
0.302578584266745
40
0.306103656324092
40
0.30962872838144
40
0.313153800438788
40
0.316678872496136
40
0.323729016610831
40
0.327254088668179
40
0.330779160725527
40
0.334304232782874
40
0.337829304840222
40
0.34135437689757
40
0.344879448954918
40
0.348404521012266
40
0.351929593069613
40
0.358979737184309
40
0.366029881299004
40
0.3730800254137
40
0.376605097471048
40
0.380130169528396
40
0.383655241585743
40
0.387180313643091
40
0.390705385700439
40
0.394230457757786
40
0.397755529815134
40
0.401280601872482
40
0.40480567392983
40
0.408330745987178
40
0.411855818044525
40
0.415380890101873
40
0.418905962159221
40
0.422431034216569
40
0.425956106273916
40
0.429481178331264
40
0.433006250388612
40
0.434768786417286
40
0.43653132244596
40
0.438293858474633
40
0.440056394503307
40
0.443581466560655
40
0.447106538618003
40
0.448869074646677
40
0.450631610675351
40
0.452394146704025
40
0.454156682732698
40
0.457681754790046
40
0.45944429081872
40
0.461206826847394
40
0.462969362876068
40
0.464731898904742
40
0.466494434933416
40
0.46825697096209
40
0.470019506990763
40
0.471782043019437
40
0.473544579048111
40
0.475307115076785
40
0.477069651105459
40
0.478832187134133
40
0.480594723162807
40
0.48235725919148
40
0.484119795220154
40
0.485882331248828
40
0.487644867277502
40
0.489407403306176
40
0.49116993933485
40
0.492932475363524
40
0.494695011392198
40
0.496457547420872
40
0.498220083449545
40
0.499982619478219
40
0.501745155506893
40
0.503507691535567
40
0.505270227564241
40
0.507032763592915
40
0.508795299621589
40
0.510557835650262
40
0.512320371678936
40
0.51408290770761
40
0.515845443736284
40
0.517607979764958
40
0.519370515793632
40
0.521133051822306
40
0.52289558785098
40
0.524658123879654
40
0.526420659908328
40
0.528183195937001
40
0.529945731965676
40
0.531708267994349
40
0.533470804023023
40
0.535233340051697
40
0.536995876080371
40
0.538758412109045
40
0.540520948137719
40
0.542283484166392
40
0.54580855622374
40
0.547571092252414
40
0.549333628281088
40
0.551096164309762
40
0.552858700338436
40
0.556383772395784
40
0.559908844453131
40
0.561671380481805
40
0.563433916510479
40
0.565196452539153
40
0.566958988567827
40
0.570484060625175
40
0.574009132682522
40
0.57753420473987
40
0.581059276797218
40
0.584584348854566
40
0.588109420911913
40
0.591634492969261
40
0.595159565026609
40
0.598684637083957
40
0.602209709141304
40
0.605734781198652
40
0.609259853256
40
0.612784925313348
40
0.616309997370695
40
0.619835069428043
40
0.623360141485391
40
0.626885213542739
40
0.633935357657434
40
0.64098550177213
40
0.648035645886825
40
0.651560717944173
40
0.655085790001521
40
0.658610862058869
40
0.662135934116216
40
0.665661006173564
40
0.669186078230912
40
0.67271115028826
40
0.676236222345607
40
0.683286366460303
40
0.68681143851765
40
0.690336510574998
40
0.693861582632346
40
0.697386654689694
40
0.700911726747042
40
0.704436798804389
40
0.707961870861737
40
0.711486942919085
40
0.715012014976433
40
0.718537087033781
40
0.722062159091128
40
0.725587231148476
40
0.732637375263172
40
0.73616244732052
40
0.739687519377867
40
0.746737663492563
40
0.750262735549911
40
0.753787807607258
40
0.757312879664606
40
0.760837951721954
40
0.767888095836649
40
0.771413167893997
40
0.774938239951345
40
0.778463312008693
40
0.78198838406604
40
0.789038528180736
40
0.792563600238084
40
0.796088672295432
40
0.799613744352779
40
0.803138816410127
40
0.810188960524822
40
0.81371403258217
40
0.817239104639518
40
0.820764176696866
40
0.824289248754214
40
0.831339392868909
40
0.834864464926257
40
0.838389536983605
40
0.841914609040952
40
0.8454396810983
40
0.852489825212996
40
0.856014897270343
40
0.859539969327691
40
0.863065041385039
40
0.866590113442386
40
0.870115185499734
40
0.873640257557082
40
0.87716532961443
40
0.880690401671778
40
0.884215473729125
40
0.887740545786473
40
0.891265617843821
40
0.894790689901169
40
0.898315761958516
40
0.901840834015864
40
0.90889097813056
40
0.912416050187908
40
0.915941122245255
40
0.919466194302603
40
0.922991266359951
40
0.926516338417299
40
0.930041410474646
40
0.937091554589342
40
0.94061662664669
40
0.944141698704037
40
0.947666770761385
40
0.951191842818733
40
0.958241986933428
40
0.961767058990776
40
0.965292131048124
40
0.968817203105472
40
0.972342275162819
40
0.975867347220167
40
0.979392419277515
40
0.982917491334863
40
0.98644256339221
40
0.989967635449558
40
0.993492707506906
40
0.997017779564254
40
1
40
1
40
1
40
1
41
1
10
-38
20
20.2923486489076
30
2E-16
41
1
10
-38
20
20.2923549918326
30
1E-16
41
1
10
-38
20
20.2915868814721
30
-1E-16
41
1
10
-38
20
20.2877827415225
30
-1E-16
41
1
10
-38
20
20.2807871950942
30
-1E-16
41
1
10
-38
20
20.270864225278
30
-1E-16
41
1
10
-38
20
20.2580557575388
30
-1E-16
41
1
10
-38
20
20.2424031034125
30
-1E-16
41
1
10
-38
20
20.2239454925533
30
-1E-16
41
1
10
-38
20
20.19551262204
30
-1E-16
41
1
10
-38
20
20.153458157969
30
-1E-16
41
1
10
-38
20
20.0921783324266
30
-1E-16
41
1
10
-38
20
20.0326760120608
30
0
41
1
10
-38
20
19.9796195423852
30
0
41
1
10
-38
20
19.9374871337363
30
0
41
1
10
-38
20
19.8928775037255
30
0
41
1
10
-38
20
19.8298739849263
30
0
41
1
10
-38
20
19.7628242930463
30
0
41
1
10
-38
20
19.6902080345968
30
-1E-16
41
1
10
-38
20
19.6336084813315
30
-1E-16
41
1
10
-38
20
19.5746836513967
30
-1E-16
41
1
10
-38
20
19.5134574775013
30
-1E-16
41
1
10
-38
20
19.4499498796239
30
-1E-16
41
1
10
-38
20
19.361926580552
30
-1E-16
41
1
10
-38
20
19.2704514952516
30
-1E-16
41
1
10
-38
20
19.1735363516591
30
-1E-16
41
1
10
-38
20
19.0989364266239
30
-1E-16
41
1
10
-38
20
19.0221745884206
30
-1E-16
41
1
10
-38
20
18.9432715601189
30
-1E-16
41
1
10
-38
20
18.8622425921487
30
-1E-16
41
1
10
-38
20
18.7791047356355
30
3E-16
41
1
10
-38
20
18.6938772447032
30
3E-16
41
1
10
-38
20
18.6065734364562
30
3E-16
41
1
10
-38
20
18.5172096781029
30
3E-16
41
1
10
-38
20
18.4258037757915
30
3E-16
41
1
10
-38
20
18.3323676597213
30
3E-16
41
1
10
-38
20
18.236917040573
30
3E-16
41
1
10
-38
20
18.1394682315479
30
3E-16
41
1
10
-38
20
18.006423045464
30
3E-16
41
1
10
-38
20
17.870842154793
30
3E-16
41
1
10
-38
20
17.7299440627733
30
3E-16
41
1
10
-38
20
17.6408187485726
30
3E-16
41
1
10
-38
20
17.5681131617785
30
3E-16
41
1
10
-38
20
17.4947669133713
30
3E-16
41
1
10
-38
20
17.3649201654158
30
3E-16
41
1
10
-38
20
17.2140632768009
30
3E-16
41
1
10
-38
20
17.0578935907134
30
-6E-16
41
1
10
-38
20
16.9392992293059
30
-6E-16
41
1
10
-38
20
16.8188549914818
30
-6E-16
41
1
10
-38
20
16.6552510003021
30
-6E-16
41
1
10
-38
20
16.489672496603
30
-6E-16
41
1
10
-38
20
16.3187666825072
30
-6E-16
41
1
10
-38
20
16.2111031772939
30
-6E-16
41
1
10
-38
20
16.1235473577608
30
-6E-16
41
1
10
-38
20
16.0353949417433
30
-6E-16
41
1
10
-38
20
15.8797855584285
30
-6E-16
41
1
10
-38
20
15.6999813794666
30
-6E-16
41
1
10
-38
20
15.5148116907138
30
-6E-16
41
1
10
-38
20
15.3746600384839
30
-6E-16
41
1
10
-38
20
15.2327750536327
30
-6E-16
41
1
10
-38
20
15.0406360987563
30
-6E-16
41
1
10
-38
20
14.8470518249568
30
-6E-16
41
1
10
-38
20
14.6480433816337
30
-6E-16
41
1
10
-38
20
14.5230237603812
30
-6E-16
41
1
10
-38
20
14.4215395322791
30
-6E-16
41
1
10
-38
20
14.319494446119
30
-6E-16
41
1
10
-38
20
14.1916826014269
30
-6E-16
41
1
10
-38
20
14.0362107113462
30
-6E-16
41
1
10
-38
20
13.905633632864
30
-6E-16
41
1
10
-38
20
13.7996824703933
30
-6E-16
41
1
10
-38
20
13.6931799140641
30
-6E-16
41
1
10
-38
20
13.5598675642285
30
-6E-16
41
1
10
-38
20
13.3977994204325
30
-6E-16
41
1
10
-38
20
13.2340971553998
30
-6E-16
41
1
10
-38
20
13.0687736820565
30
-6E-16
41
1
10
-38
20
12.9018380893652
30
-6E-16
41
1
10
-38
20
12.7332922951509
30
-6E-16
41
1
10
-38
20
12.5631480531082
30
-6E-16
41
1
10
-38
20
12.3914123687224
30
-6E-16
41
1
10
-38
20
12.2180896154105
30
-6E-16
41
1
10
-38
20
12.0431930727568
30
-6E-16
41
1
10
-38
20
11.8667275879997
30
-6E-16
41
1
10
-38
20
11.6886992220563
30
-6E-16
41
1
10
-38
20
11.5091211559413
30
-6E-16
41
1
10
-38
20
11.3279971676986
30
-6E-16
41
1
10
-38
20
11.0835274575533
30
1.2E-15
41
1
10
-38
20
10.8388445996823
30
1.2E-15
41
1
10
-38
20
10.5882272221232
30
1.2E-15
41
1
10
-38
20
10.3995106478125
30
1.2E-15
41
1
10
-38
20
10.2093006505112
30
1.2E-15
41
1
10
-38
20
10.0176111741013
30
1.2E-15
41
1
10
-38
20
9.82444825814403
30
1.2E-15
41
1
10
-38
20
9.62982433363783
30
1.2E-15
41
1
10
-38
20
9.43375032895256
30
1.2E-15
41
1
10
-38
20
9.16930024978845
30
1.2E-15
41
1
10
-38
20
8.83774034996793
30
1.2E-15
41
1
10
-38
20
8.43283016067576
30
1.2E-15
41
1
10
-38
20
8.09202302704495
30
1.2E-15
41
1
10
-38
20
7.81440668711983
30
1.2E-15
41
1
10
-38
20
7.60585888080686
30
1.2E-15
41
1
10
-38
20
7.39600299493051
30
1.2E-15
41
1
10
-38
20
7.18486050853949
30
1.2E-15
41
1
10
-38
20
6.972454820743
30
1.2E-15
41
1
10
-38
20
6.75880464755275
30
1.2E-15
41
1
10
-38
20
6.54393387937549
30
1.2E-15
41
1
10
-38
20
6.32787102064523
30
1.2E-15
41
1
10
-38
20
6.11064460524278
30
1.2E-15
41
1
10
-38
20
5.89228682406826
30
1.2E-15
41
1
10
-38
20
5.67283049766698
30
1.2E-15
41
1
10
-38
20
5.45231041402207
30
1.2E-15
41
1
10
-38
20
5.2307661198837
30
1.2E-15
41
1
10
-38
20
5.00824236668089
30
1.2E-15
41
1
10
-38
20
4.78478453894905
30
1.2E-15
41
1
10
-38
20
4.56044477194348
30
1.2E-15
41
1
10
-38
20
4.3737593142329
30
1.2E-15
41
1
10
-38
20
4.22222174308928
30
1.2E-15
41
1
10
-38
20
4.10916467830538
30
1.2E-15
41
1
10
-38
20
3.99593123757285
30
1.2E-15
41
1
10
-38
20
3.84368490764803
30
1.2E-15
41
1
10
-38
20
3.65544484289478
30
1.2E-15
41
1
10
-38
20
3.46668355973628
30
1.2E-15
41
1
10
-38
20
3.31336520651504
30
1.2E-15
41
1
10
-38
20
3.19916977025284
30
1.2E-15
41
1
10
-38
20
3.0848771849204
30
1.2E-15
41
1
10
-38
20
2.93116533478539
30
1.2E-15
41
1
10
-38
20
2.7810630459212
30
1.2E-15
41
1
10
-38
20
2.62697343511894
30
1.2E-15
41
1
10
-38
20
2.51237687493429
30
1.2E-15
41
1
10
-38
20
2.39774974487253
30
1.2E-15
41
1
10
-38
20
2.28311555219403
30
1.2E-15
41
1
10
-38
20
2.16847618976473
30
1.2E-15
41
1
10
-38
20
2.05384840107453
30
1.2E-15
41
1
10
-38
20
1.93924458170406
30
1.2E-15
41
1
10
-38
20
1.82466899171223
30
1.2E-15
41
1
10
-38
20
1.71014121398446
30
1.2E-15
41
1
10
-38
20
1.59566009898879
30
1.2E-15
41
1
10
-38
20
1.48124309885608
30
1.2E-15
41
1
10
-38
20
1.36688883878045
30
1.2E-15
41
1
10
-38
20
1.25260906632701
30
1.2E-15
41
1
10
-38
20
1.13840321986405
30
1.2E-15
41
1
10
-38
20
1.02427614220741
30
1.2E-15
41
1
10
-38
20
0.910225811803912
30
1.2E-15
41
1
10
-38
20
0.796251800903974
30
1.2E-15
41
1
10
-38
20
0.682349388495624
30
1.2E-15
41
1
10
-38
20
0.568513483413511
30
1.2E-15
41
1
10
-38
20
0.454735475948979
30
1.2E-15
41
1
10
-38
20
0.341006791030111
30
1.2E-15
41
1
10
-38
20
0.227315919379521
30
1.2E-15
41
1
10
-38
20
0.113651444289076
30
1.2E-15
41
1
10
-38
20
2.39306814E-08
30
1.2E-15
41
1
10
-38
20
-0.113651428861147
30
1.2E-15
41
1
10
-38
20
-0.227315965161807
30
1.2E-15
41
1
10
-38
20
-0.341006831114754
30
1.2E-15
41
1
10
-38
20
-0.454735424962735
30
1.2E-15
41
1
10
-38
20
-0.568513412391525
30
1.2E-15
41
1
10
-38
20
-0.682349437337052
30
1.2E-15
41
1
10
-38
20
-0.796251898049235
30
1.2E-15
41
1
10
-38
20
-0.910225765592202
30
1.2E-15
41
1
10
-38
20
-1.02427601417025
30
1.2E-15
41
1
10
-38
20
-1.13840324907633
30
1.2E-15
41
1
10
-38
20
-1.25260921865757
30
1.2E-15
41
1
10
-38
20
-1.36688883944316
30
1.2E-15
41
1
10
-38
20
-1.48124293103632
30
1.2E-15
41
1
10
-38
20
-1.59566004663384
30
1.2E-15
41
1
10
-38
20
-1.71014137238996
30
1.2E-15
41
1
10
-38
20
-1.82466911261432
30
1.2E-15
41
1
10
-38
20
-1.93924446866484
30
1.2E-15
41
1
10
-38
20
-2.05384821372689
30
1.2E-15
41
1
10
-38
20
-2.1684762190329
30
1.2E-15
41
1
10
-38
20
-2.28311576323418
30
1.2E-15
41
1
10
-38
20
-2.39774983280105
30
1.2E-15
41
1
10
-38
20
-2.51237672316307
30
1.2E-15
41
1
10
-38
20
-2.62697323991799
30
1.2E-15
41
1
10
-38
20
-2.78106315146928
30
1.2E-15
41
1
10
-38
20
-2.93116552693385
30
1.2E-15
41
1
10
-38
20
-3.08487708212581
30
1.2E-15
41
1
10
-38
20
-3.19916954549007
30
1.2E-15
41
1
10
-38
20
-3.31336512600546
30
1.2E-15
41
1
10
-38
20
-3.46668375918677
30
1.2E-15
41
1
10
-38
20
-3.65544489425088
30
1.2E-15
41
1
10
-38
20
-3.84368470208372
30
1.2E-15
41
1
10
-38
20
-3.99593117493791
30
1.2E-15
41
1
10
-38
20
-4.10916481607396
30
1.2E-15
41
1
10
-38
20
-4.22222196867938
30
1.2E-15
41
1
10
-38
20
-4.37375933349006
30
1.2E-15
41
1
10
-38
20
-4.56044458630845
30
1.2E-15
41
1
10
-38
20
-4.78478457648492
30
1.2E-15
41
1
10
-38
20
-5.00824253816086
30
1.2E-15
41
1
10
-38
20
-5.23076600439052
30
1.2E-15
41
1
10
-38
20
-5.45231022599046
30
1.2E-15
41
1
10
-38
20
-5.67283041504652
30
1.2E-15
41
1
10
-38
20
-5.89228674128222
30
1.2E-15
41
1
10
-38
20
-6.11064496108523
30
1.2E-15
41
1
10
-38
20
-6.32787239667013
30
1.2E-15
41
1
10
-38
20
-6.54393525610644
30
1.2E-15
41
1
10
-38
20
-6.75880334040127
30
1.2E-15
41
1
10
-38
20
-6.97245311766207
30
1.2E-15
41
1
10
-38
20
-7.18486111103374
30
1.2E-15
41
1
10
-38
20
-7.39600347561742
30
1.2E-15
41
1
10
-38
20
-7.60585874971361
30
1.2E-15
41
1
10
-38
20
-7.8144064520111
30
1.2E-15
41
1
10
-38
20
-8.09202295752311
30
1.2E-15
41
1
10
-38
20
-8.43283023540656
30
1.2E-15
41
1
10
-38
20
-8.83774029355055
30
1.2E-15
41
1
10
-38
20
-9.16930023887323
30
1.2E-15
41
1
10
-38
20
-9.43375044009511
30
1.2E-15
41
1
10
-38
20
-9.62982432960192
30
1.2E-15
41
1
10
-38
20
-9.82444814962994
30
1.2E-15
41
1
10
-38
20
-10.0176111126089
30
1.2E-15
41
1
10
-38
20
-10.2093007057547
30
1.2E-15
41
1
10
-38
20
-10.3995107409486
30
1.2E-15
41
1
10
-38
20
-10.5882272324294
30
1.2E-15
41
1
10
-38
20
-10.8388445170812
30
1.2E-15
41
1
10
-38
20
-11.0835274377931
30
1.2E-15
41
1
10
-38
20
-11.327997250045
30
-6E-16
41
1
10
-38
20
-11.5091211965041
30
-6E-16
41
1
10
-38
20
-11.6886991809046
30
-6E-16
41
1
10
-38
20
-11.8667275177687
30
-6E-16
41
1
10
-38
20
-12.0431930522803
30
-6E-16
41
1
10
-38
20
-12.2180896645831
30
-6E-16
41
1
10
-38
20
-12.3914124247035
30
-6E-16
41
1
10
-38
20
-12.5631480735019
30
-6E-16
41
1
10
-38
20
-12.7332924196477
30
-6E-16
41
1
10
-38
20
-12.9018387248249
30
-6E-16
41
1
10
-38
20
-13.068774902876
30
-6E-16
41
1
10
-38
20
-13.2899980003418
30
-6E-16
41
1
10
-38
20
-13.5056406071554
30
-6E-16
41
1
10
-38
20
-13.7202970548285
30
-6E-16
41
1
10
-38
20
-13.9327572918622
30
-6E-16
41
1
10
-38
20
-14.1397069500695
30
-6E-16
41
1
10
-38
20
-14.3454836148157
30
-6E-16
41
1
10
-38
20
-14.4976048095277
30
-6E-16
41
1
10
-38
20
-14.6480433741443
30
-6E-16
41
1
10
-38
20
-14.8470538575164
30
-6E-16
41
1
10
-38
20
-15.0406366439893
30
-6E-16
41
1
10
-38
20
-15.2327734637881
30
-6E-16
41
1
10
-38
20
-15.3746583733236
30
-6E-16
41
1
10
-38
20
-15.5148115582755
30
-6E-16
41
1
10
-38
20
-15.6999837411247
30
-6E-16
41
1
10
-38
20
-15.8797870255403
30
-6E-16
41
1
10
-38
20
-16.0578801048401
30
-6E-16
41
1
10
-38
20
-16.189216581434
30
-6E-16
41
1
10
-38
20
-16.3187661779867
30
-6E-16
41
1
10
-38
20
-16.4896741385663
30
-6E-16
41
1
10
-38
20
-16.6552512602625
30
-6E-16
41
1
10
-38
20
-16.8188545807649
30
-6E-16
41
1
10
-38
20
-16.9392987318018
30
-6E-16
41
1
10
-38
20
-17.0578934672827
30
-6E-16
41
1
10
-38
20
-17.2140648101705
30
3E-16
41
1
10
-38
20
-17.3649216616153
30
3E-16
41
1
10
-38
20
-17.513530035822
30
3E-16
41
1
10
-38
20
-17.6226956365842
30
3E-16
41
1
10
-38
20
-17.7299433731025
30
3E-16
41
1
10
-38
20
-17.8708440004863
30
3E-16
41
1
10
-38
20
-18.0064238716364
30
3E-16
41
1
10
-38
20
-18.1394672902698
30
3E-16
41
1
10
-38
20
-18.236915915677
30
3E-16
41
1
10
-38
20
-18.3323672965474
30
3E-16
41
1
10
-38
20
-18.4258040962282
30
3E-16
41
1
10
-38
20
-18.517209887002
30
3E-16
41
1
10
-38
20
-18.6065734896479
30
3E-16
41
1
10
-38
20
-18.6938772522127
30
3E-16
41
1
10
-38
20
-18.7791047692188
30
3E-16
41
1
10
-38
20
-18.8622426359768
30
-1E-16
41
1
10
-38
20
-18.9432715834756
30
-1E-16
41
1
10
-38
20
-19.0221745805325
30
-1E-16
41
1
10
-38
20
-19.0989364136873
30
-1E-16
41
1
10
-38
20
-19.1735363647814
30
-1E-16
41
1
10
-38
20
-19.2704515417461
30
-1E-16
41
1
10
-38
20
-19.3619266112172
30
-1E-16
41
1
10
-38
20
-19.4499498647732
30
-1E-16
41
1
10
-38
20
-19.5134574724377
30
-1E-16
41
1
10
-38
20
-19.5746836830748
30
-1E-16
41
1
10
-38
20
-19.6336085328263
30
-1E-16
41
1
10
-38
20
-19.6902080668946
30
-1E-16
41
1
10
-38
20
-19.7628242842049
30
0
41
1
10
-38
20
-19.829873984374
30
0
41
1
10
-38
20
-19.8928775551026
30
0
41
1
10
-38
20
-19.9374871757691
30
0
41
1
10
-38
20
-19.9796195436674
30
0
41
1
10
-38
20
-20.0326760063813
30
0
41
1
10
-38
20
-20.0800381474625
30
-1E-16
41
1
10
-38
20
-20.1228090027496
30
-1E-16
41
1
10
-38
20
-20.1521177658612
30
-1E-16
41
1
10
-38
20
-20.1787668505585
30
-1E-16
41
1
10
-38
20
-20.2027210424566
30
-1E-16
41
1
10
-38
20
-20.2239455432986
30
-1E-16
41
1
10
-38
20
-20.2424031363825
30
-1E-16
41
1
10
-38
20
-20.2580557552655
30
-1E-16
41
1
10
-38
20
-20.2708642249464
30
-1E-16
41
1
10
-38
20
-20.2807872561095
30
-1E-16
41
1
10
-38
20
-20.2877829489451
30
-1E-16
41
1
10
-38
20
-20.2916004332208
30
-1E-16
41
1
10
-38
20
-20.2923632794353
30
1E-16
41
1
10
-38
20
-20.2923482533944
30
2E-16
0
SPLINE
5
D6
100
AcDbEntity
8
SK1
62
256
6
ByLayer
370
13
48
1
60
0
100
AcDbSpline
70
4
71
3
72
299
73
295
40
0
40
0
40
0
40
0
40
0.0032923524579605
40
0.0068150795160245
40
0.0103378065740885
40
0.0138605336321524
40
0.0173832606902164
40
0.0209059877482804
40
0.0244287148063444
40
0.0279514418644084
40
0.0314741689224724
40
0.0349968959805364
40
0.0385196230386004
40
0.0420423500966644
40
0.0490878042127923
40
0.0526105312708563
40
0.0561332583289203
40
0.0596559853869843
40
0.0631787124450483
40
0.0702241665611763
40
0.0737468936192403
40
0.0772696206773043
40
0.0807923477353683
40
0.0843150747934323
40
0.0878378018514962
40
0.0913605289095602
40
0.0984059830256882
40
0.101928710083752
40
0.105451437141816
40
0.10897416419988
40
0.112496891257944
40
0.116019618316008
40
0.119542345374072
40
0.123065072432136
40
0.1265877994902
40
0.130110526548264
40
0.133633253606328
40
0.137155980664392
40
0.140678707722456
40
0.14420143478052
40
0.147724161838584
40
0.154769615954712
40
0.158292343012776
40
0.16181507007084
40
0.165337797128904
40
0.168860524186968
40
0.175905978303096
40
0.17942870536116
40
0.182951432419224
40
0.186474159477288
40
0.189996886535352
40
0.19704234065148
40
0.200565067709544
40
0.204087794767608
40
0.207610521825672
40
0.211133248883736
40
0.218178702999864
40
0.221701430057928
40
0.225224157115992
40
0.228746884174056
40
0.23226961123212
40
0.239315065348248
40
0.242837792406312
40
0.246360519464376
40
0.24988324652244
40
0.253405973580504
40
0.260451427696632
40
0.263974154754696
40
0.26749688181276
40
0.274542335928888
40
0.278065062986952
40
0.281587790045016
40
0.28511051710308
40
0.288633244161144
40
0.292155971219208
40
0.295678698277272
40
0.299201425335336
40
0.3027241523934
40
0.306246879451464
40
0.309769606509528
40
0.313292333567592
40
0.316815060625656
40
0.323860514741784
40
0.327383241799848
40
0.330905968857912
40
0.334428695915976
40
0.33795142297404
40
0.341474150032104
40
0.344996877090168
40
0.348519604148232
40
0.352042331206296
40
0.359087785322424
40
0.366133239438552
40
0.373178693554679
40
0.376701420612743
40
0.380224147670807
40
0.383746874728871
40
0.387269601786935
40
0.390792328844999
40
0.394315055903063
40
0.397837782961127
40
0.401360510019191
40
0.404883237077255
40
0.408405964135319
40
0.411928691193383
40
0.415451418251447
40
0.418974145309511
40
0.422496872367575
40
0.426019599425639
40
0.429542326483703
40
0.433065053541767
40
0.434826417070799
40
0.436587780599831
40
0.438349144128863
40
0.440110507657895
40
0.443633234715959
40
0.447155961774023
40
0.448917325303055
40
0.450678688832087
40
0.452440052361119
40
0.454201415890151
40
0.457724142948215
40
0.459485506477247
40
0.461246870006279
40
0.463008233535311
40
0.464769597064343
40
0.466530960593375
40
0.468292324122407
40
0.470053687651439
40
0.471815051180471
40
0.473576414709503
40
0.475337778238535
40
0.477099141767567
40
0.478860505296599
40
0.480621868825631
40
0.482383232354663
40
0.484144595883695
40
0.485905959412727
40
0.487667322941759
40
0.489428686470791
40
0.491190049999823
40
0.492951413528855
40
0.494712777057887
40
0.496474140586919
40
0.498235504115951
40
0.499996867644983
40
0.501758231174015
40
0.503519594703047
40
0.505280958232079
40
0.507042321761111
40
0.508803685290143
40
0.510565048819175
40
0.512326412348207
40
0.514087775877239
40
0.515849139406271
40
0.517610502935303
40
0.519371866464335
40
0.521133229993367
40
0.522894593522399
40
0.524655957051431
40
0.526417320580463
40
0.528178684109495
40
0.529940047638527
40
0.531701411167559
40
0.533462774696591
40
0.535224138225623
40
0.536985501754655
40
0.538746865283687
40
0.540508228812719
40
0.542269592341751
40
0.545792319399815
40
0.547553682928847
40
0.549315046457879
40
0.551076409986911
40
0.552837773515943
40
0.556360500574007
40
0.559883227632071
40
0.561644591161103
40
0.563405954690135
40
0.565167318219167
40
0.566928681748199
40
0.570451408806263
40
0.573974135864327
40
0.577496862922391
40
0.581019589980455
40
0.584542317038519
40
0.588065044096583
40
0.591587771154647
40
0.595110498212711
40
0.598633225270775
40
0.602155952328839
40
0.605678679386903
40
0.609201406444967
40
0.612724133503031
40
0.616246860561095
40
0.619769587619159
40
0.623292314677223
40
0.626815041735287
40
0.633860495851415
40
0.640905949967543
40
0.647951404083671
40
0.651474131141735
40
0.654996858199799
40
0.658519585257863
40
0.662042312315927
40
0.665565039373991
40
0.669087766432055
40
0.672610493490119
40
0.676133220548183
40
0.683178674664311
40
0.686701401722375
40
0.690224128780439
40
0.693746855838503
40
0.697269582896567
40
0.700792309954631
40
0.704315037012695
40
0.707837764070758
40
0.711360491128823
40
0.714883218186887
40
0.71840594524495
40
0.721928672303015
40
0.725451399361079
40
0.728974126419143
40
0.732496853477206
40
0.736019580535271
40
0.737780944064302
40
0.739542307593335
40
0.743065034651398
40
0.746587761709463
40
0.750110488767526
40
0.751871852296559
40
0.753633215825591
40
0.757155942883654
40
0.760678669941718
40
0.767724124057846
40
0.77124685111591
40
0.774769578173974
40
0.778292305232038
40
0.781815032290102
40
0.78886048640623
40
0.792383213464294
40
0.794144576993326
40
0.795905940522358
40
0.799428667580422
40
0.802951394638486
40
0.809996848754614
40
0.813519575812678
40
0.817042302870742
40
0.820565029928806
40
0.82408775698687
40
0.831133211102998
40
0.834655938161062
40
0.836417301690094
40
0.838178665219126
40
0.84170139227719
40
0.845224119335254
40
0.852269573451382
40
0.855792300509446
40
0.85931502756751
40
0.862837754625574
40
0.866360481683638
40
0.869883208741702
40
0.873405935799766
40
0.87692866285783
40
0.880451389915894
40
0.883974116973958
40
0.887496844032022
40
0.891019571090086
40
0.89454229814815
40
0.898065025206214
40
0.901587752264278
40
0.908633206380406
40
0.91215593343847
40
0.915678660496534
40
0.919201387554598
40
0.922724114612662
40
0.926246841670726
40
0.92976956872879
40
0.936815022844918
40
0.940337749902982
40
0.943860476961046
40
0.94738320401911
40
0.950905931077174
40
0.957951385193302
40
0.96499683930943
40
0.972042293425558
40
0.975565020483622
40
0.979087747541686
40
0.98261047459975
40
0.986133201657814
40
0.989655928715878
40
0.993178655773942
40
0.996701382832006
40
1
40
1
40
1
40
1
41
1
10
-1.99503997793931
20
-21.8251674693954
30
-1E-16
41
1
10
-1.99503997793928
20
-21.8252765204468
30
-1E-16
41
1
10
-1.99503997793928
20
-21.8245098370187
30
-1E-16
41
1
10
-1.99503997793928
20
-21.8202838734724
30
-1E-16
41
1
10
-1.99503997793928
20
-21.8127830851058
30
-1E-16
41
1
10
-1.99503997793928
20
-21.8021565310045
30
-1E-16
41
1
10
-1.99503997793928
20
-21.7884557380592
30
-1E-16
41
1
10
-1.99503997793928
20
-21.7717309018817
30
-1E-16
41
1
10
-1.99503997793928
20
-21.7520292420694
30
-1E-16
41
1
10
-1.99503997793928
20
-21.7293964429163
30
-1E-16
41
1
10
-1.99503997793928
20
-21.7038764495607
30
1E-16
41
1
10
-1.99503997793928
20
-21.6755105092645
30
1E-16
41
1
10
-1.99503997793928
20
-21.6443396610233
30
1E-16
41
1
10
-1.99503997793928
20
-21.5990695510926
30
0
41
1
10
-1.99503997793928
20
-21.5484022410126
30
0
41
1
10
-1.99503997793928
20
-21.4923513092323
30
0
41
1
10
-1.99503997793928
20
-21.4477036445725
30
0
41
1
10
-1.99503997793928
20
-21.4004603045828
30
0
41
1
10
-1.99503997793928
20
-21.3340243512753
30
0
41
1
10
-1.99503997793928
20
-21.262600218376
30
0
41
1
10
-1.99503997793928
20
-21.1861355753666
30
1E-16
41
1
10
-1.99503997793928
20
-21.1263556466612
30
1E-16
41
1
10
-1.99503997793928
20
-21.064149408511
30
1E-16
41
1
10
-1.99503997793928
20
-20.9995415068112
30
-1E-16
41
1
10
-1.99503997793928
20
-20.9325549572362
30
-1E-16
41
1
10
-1.99503997793928
20
-20.8400664428987
30
-1E-16
41
1
10
-1.99503997793928
20
-20.7430172190698
30
-1E-16
41
1
10
-1.99503997793928
20
-20.6412830627252
30
-1E-16
41
1
10
-1.99503997793928
20
-20.5627395868944
30
-1E-16
41
1
10
-1.99503997793928
20
-20.4819464863244
30
-1E-16
41
1
10
-1.99503997793928
20
-20.398923430088
30
-1E-16
41
1
10
-1.99503997793928
20
-20.3136874196731
30
-1E-16
41
1
10
-1.99503997793928
20
-20.2262576202058
30
-1E-16
41
1
10
-1.99503997793928
20
-20.1366515718167
30
-1E-16
41
1
10
-1.99503997793928
20
-20.0448848362119
30
-1E-16
41
1
10
-1.99503997793928
20
-19.9509751416388
30
-1E-16
41
1
10
-1.99503997793928
20
-19.8549381550126
30
-1E-16
41
1
10
-1.99503997793928
20
-19.7567881415466
30
-1E-16
41
1
10
-1.99503997793928
20
-19.6565420567613
30
-1E-16
41
1
10
-1.99503997793928
20
-19.5542140249085
30
-1E-16
41
1
10
-1.99503997793928
20
-19.414970513124
30
-1E-16
41
1
10
-1.99503997793928
20
-19.2717625055688
30
-1E-16
41
1
10
-1.99503997793928
20
-19.1243510467918
30
-1E-16
41
1
10
-1.99503997793928
20
-19.0118150097952
30
-1E-16
41
1
10
-1.99503997793928
20
-18.8972761707097
30
-1E-16
41
1
10
-1.99503997793928
20
-18.7418497326446
30
-1E-16
41
1
10
-1.99503997793928
20
-18.5826226298873
30
-1E-16
41
1
10
-1.99503997793928
20
-18.4193198181252
30
-1E-16
41
1
10
-1.99503997793928
20
-18.2949373683468
30
-1E-16
41
1
10
-1.99503997793928
20
-18.1686188521771
30
-1E-16
41
1
10
-1.99503997793928
20
-17.9975683374733
30
-1E-16
41
1
10
-1.99503997793928
20
-17.8228590748674
30
-1E-16
41
1
10
-1.99503997793928
20
-17.6441786252734
30
-1E-16
41
1
10
-1.99503997793928
20
-17.5083251903719
30
-1E-16
41
1
10
-1.99503997793928
20
-17.3705928023913
30
-1E-16
41
1
10
-1.99503997793928
20
-17.1843924611907
30
-1E-16
41
1
10
-1.99503997793928
20
-16.9946550481209
30
-1E-16
41
1
10
-1.99503997793928
20
-16.8010329188422
30
-1E-16
41
1
10
-1.99503997793928
20
-16.6540265683948
30
-1E-16
41
1
10
-1.99503997793928
20
-16.5051894037979
30
-1E-16
41
1
10
-1.99503997793928
20
-16.3042398246232
30
-1E-16
41
1
10
-1.99503997793928
20
-16.0998603532658
30
-1E-16
41
1
10
-1.99503997793928
20
-15.8916657661057
30
-1E-16
41
1
10
-1.99503997793928
20
-15.733775855726
30
-1E-16
41
1
10
-1.99503997793928
20
-15.574095422854
30
-1E-16
41
1
10
-1.99503997793928
20
-15.3587351142266
30
-1E-16
41
1
10
-1.99503997793928
20
-15.1400402265273
30
-1E-16
41
1
10
-1.99503997793928
20
-14.9175842595472
30
-1E-16
41
1
10
-1.99503997793928
20
-14.6927797943809
30
-1E-16
41
1
10
-1.99503997793928
20
-14.4646959102749
30
-1E-16
41
1
10
-1.99503997793928
20
-14.2328810143213
30
-1E-16
41
1
10
-1.99503997793928
20
-14.0573389921213
30
-1E-16
41
1
10
-1.99503997793928
20
-13.8800597145162
30
-1E-16
41
1
10
-1.99503997793928
20
-13.7010488212408
30
-1E-16
41
1
10
-1.99503997793928
20
-13.520309646993
30
-1E-16
41
1
10
-1.99503997793928
20
-13.3378467396349
30
-1E-16
41
1
10
-1.99503997793928
20
-13.1536651432542
30
-1E-16
41
1
10
-1.99503997793928
20
-12.9677676529033
30
-1E-16
41
1
10
-1.99503997793928
20
-12.7801589212449
30
-1E-16
41
1
10
-1.99503997793928
20
-12.5908431584255
30
-1E-16
41
1
10
-1.99503997793928
20
-12.3998230071702
30
-1E-16
41
1
10
-1.99503997793928
20
-12.1427687977971
30
-1E-16
41
1
10
-1.99503997793928
20
-11.8826118620781
30
-1E-16
41
1
10
-1.99503997793928
20
-11.6187779427602
30
-1E-16
41
1
10
-1.99503997793928
20
-11.4192921870092
30
-1E-16
41
1
10
-1.99503997793928
20
-11.2181233670389
30
-1E-16
41
1
10
-1.99503997793928
20
-11.0152749978462
30
-1E-16
41
1
10
-1.99503997793928
20
-10.8107494592904
30
-1E-16
41
1
10
-1.99503997793928
20
-10.6045508126063
30
-1E-16
41
1
10
-1.99503997793928
20
-10.3966814549587
30
-1E-16
41
1
10
-1.99503997793928
20
-10.1171869828061
30
-1E-16
41
1
10
-1.99503997793928
20
-9.76392165975841
30
-1E-16
41
1
10
-1.99503997793928
20
-9.33322609823665
30
-1E-16
41
1
10
-1.99503997793928
20
-8.96893239301764
30
-1E-16
41
1
10
-1.99503997793928
20
-8.67397577159846
30
-1E-16
41
1
10
-1.99503997793928
20
-8.4512197921853
30
-1E-16
41
1
10
-1.99503997793928
20
-8.22682785520686
30
-1E-16
41
1
10
-1.99503997793928
20
-8.00080468509063
30
-1E-16
41
1
10
-1.99503997793928
20
-7.77315487290267
30
-1E-16
41
1
10
-1.99503997793928
20
-7.54388383469134
30
-1E-16
41
1
10
-1.99503997793928
20
-7.31299670603016
30
-1E-16
41
1
10
-1.99503997793928
20
-7.08049963775395
30
-1E-16
41
1
10
-1.99503997793928
20
-6.84639976314463
30
-1E-16
41
1
10
-1.99503997793928
20
-6.61070492919379
30
-1E-16
41
1
10
-1.99503997793928
20
-6.37342317953835
30
-1E-16
41
1
10
-1.99503997793928
20
-6.13456381441384
30
-1E-16
41
1
10
-1.99503997793928
20
-5.89413750153935
30
-1E-16
41
1
10
-1.99503997793928
20
-5.65215640891225
30
-1E-16
41
1
10
-1.99503997793928
20
-5.40863364784667
30
-1E-16
41
1
10
-1.99503997793928
20
-5.16358497720142
30
-1E-16
41
1
10
-1.99503997793928
20
-4.95821801342223
30
-1E-16
41
1
10
-1.99503997793928
20
-4.79299519854527
30
-1E-16
41
1
10
-1.99503997793928
20
-4.66878844332788
30
-1E-16
41
1
10
-1.99503997793928
20
-4.54421502107886
30
-1E-16
41
1
10
-1.99503997793928
20
-4.37752560184694
30
-1E-16
41
1
10
-1.99503997793928
20
-4.16851549788919
30
-1E-16
41
1
10
-1.99503997793928
20
-3.95832365779984
30
-1E-16
41
1
10
-1.99503997793928
20
-3.78926935085312
30
-1E-16
41
1
10
-1.99503997793928
20
-3.66223140396673
30
-1E-16
41
1
10
-1.99503997793928
20
-3.53485872835634
30
-1E-16
41
1
10
-1.99503997793928
20
-3.36446606295527
30
-1E-16
41
1
10
-1.99503997793928
20
-3.19381066067948
30
-1E-16
41
1
10
-1.99503997793928
20
-3.02213556164864
30
-1E-16
41
1
10
-1.99503997793928
20
-2.89317847799558
30
-1E-16
41
1
10
-1.99503997793928
20
-2.76392444618182
30
-1E-16
41
1
10
-1.99503997793928
20
-2.63438254221708
30
-1E-16
41
1
10
-1.99503997793928
20
-2.50455989433328
30
-1E-16
41
1
10
-1.99503997793928
20
-2.37446635053539
30
-1E-16
41
1
10
-1.99503997793928
20
-2.24411116714702
30
-1E-16
41
1
10
-1.99503997793928
20
-2.11350400419804
30
-1E-16
41
1
10
-1.99503997793928
20
-1.98265628188182
30
-1E-16
41
1
10
-1.99503997793928
20
-1.85157817419838
30
-1E-16
41
1
10
-1.99503997793928
20
-1.72028261530932
30
-1E-16
41
1
10
-1.99503997793928
20
-1.58878099035152
30
-1E-16
41
1
10
-1.99503997793928
20
-1.45708720896539
30
-1E-16
41
1
10
-1.99503997793928
20
-1.32521410103647
30
-1E-16
41
1
10
-1.99503997793928
20
-1.1931764657121
30
-1E-16
41
1
10
-1.99503997793928
20
-1.06098853158755
30
-1E-16
41
1
10
-1.99503997793928
20
-0.92866594303203
30
-1E-16
41
1
10
-1.99503997793928
20
-0.796224050825089
30
-1E-16
41
1
10
-1.99503997793928
20
-0.663679323049081
30
-1E-16
41
1
10
-1.99503997793928
20
-0.531048037421954
30
-1E-16
41
1
10
-1.99503997793928
20
-0.398347307093388
30
-1E-16
41
1
10
-1.99503997793928
20
-0.265594069601519
30
-1E-16
41
1
10
-1.99503997793928
20
-0.132805835966792
30
-1E-16
41
1
10
-1.99503997793928
20
-2.0604887E-09
30
-1E-16
41
1
10
-1.99503997793928
20
0.132805828560237
30
-1E-16
41
1
10
-1.99503997793928
20
0.265594055935196
30
-1E-16
41
1
10
-1.99503997793928
20
0.398347293868937
30
-1E-16
41
1
10
-1.99503997793928
20
0.531048033506266
30
-1E-16
41
1
10
-1.99503997793928
20
0.663679321648374
30
-1E-16
41
1
10
-1.99503997793928
20
0.796224037396229
30
-1E-16
41
1
10
-1.99503997793928
20
0.928665923975672
30
-1E-16
41
1
10
-1.99503997793928
20
1.06098852682439
30
-1E-16
41
1
10
-1.99503997793928
20
1.19317647053177
30
-1E-16
41
1
10
-1.99503997793928
20
1.32521409071333
30
-1E-16
41
1
10
-1.99503997793928
20
1.45708718468359
30
-1E-16
41
1
10
-1.99503997793928
20
1.58878098022359
30
-1E-16
41
1
10
-1.99503997793928
20
1.72028262405345
30
-1E-16
41
1
10
-1.99503997793928
20
1.85157817347522
30
-1E-16
41
1
10
-1.99503997793928
20
1.98265625862297
30
-1E-16
41
1
10
-1.99503997793928
20
2.11350398186613
30
-1E-16
41
1
10
-1.99503997793928
20
2.24411116870439
30
-1E-16
41
1
10
-1.99503997793928
20
2.37446636334928
30
-1E-16
41
1
10
-1.99503997793928
20
2.50455988721876
30
-1E-16
41
1
10
-1.99503997793928
20
2.63438251344519
30
-1E-16
41
1
10
-1.99503997793928
20
2.76392442628162
30
-1E-16
41
1
10
-1.99503997793928
20
2.8931784837302
30
-1E-16
41
1
10
-1.99503997793928
20
3.02213557666008
30
-1E-16
41
1
10
-1.99503997793928
20
3.19381064862623
30
-1E-16
41
1
10
-1.99503997793928
20
3.36446603264318
30
-1E-16
41
1
10
-1.99503997793928
20
3.53485872774326
30
-1E-16
41
1
10
-1.99503997793928
20
3.66223142121836
30
-1E-16
41
1
10
-1.99503997793928
20
3.78926935835412
30
-1E-16
41
1
10
-1.99503997793928
20
3.95832363498766
30
-1E-16
41
1
10
-1.99503997793928
20
4.16851547631595
30
-1E-16
41
1
10
-1.99503997793928
20
4.37752561794156
30
-1E-16
41
1
10
-1.99503997793928
20
4.5442150281373
30
-1E-16
41
1
10
-1.99503997793928
20
4.66878842905288
30
-1E-16
41
1
10
-1.99503997793928
20
4.79299516838267
30
-1E-16
41
1
10
-1.99503997793928
20
4.95821799704331
30
-1E-16
41
1
10
-1.99503997793928
20
5.16358499073451
30
-1E-16
41
1
10
-1.99503997793928
20
5.4086336510897
30
-1E-16
41
1
10
-1.99503997793928
20
5.65215638001948
30
-1E-16
41
1
10
-1.99503997793928
20
5.89413749968628
30
-1E-16
41
1
10
-1.99503997793928
20
6.13456384015993
30
-1E-16
41
1
10
-1.99503997793928
20
6.37342319970753
30
-1E-16
41
1
10
-1.99503997793928
20
6.61070495432838
30
-1E-16
41
1
10
-1.99503997793928
20
6.8463997482805
30
-1E-16
41
1
10
-1.99503997793928
20
7.08049945458953
30
-1E-16
41
1
10
-1.99503997793928
20
7.31299637479285
30
-1E-16
41
1
10
-1.99503997793928
20
7.54388372935193
30
-1E-16
41
1
10
-1.99503997793928
20
7.77315513008728
30
-1E-16
41
1
10
-1.99503997793928
20
8.00080467620245
30
-1E-16
41
1
10
-1.99503997793928
20
8.22682776167494
30
-1E-16
41
1
10
-1.99503997793928
20
8.45121977200662
30
-1E-16
41
1
10
-1.99503997793928
20
8.67397578579323
30
-1E-16
41
1
10
-1.99503997793928
20
8.96893242084855
30
-1E-16
41
1
10
-1.99503997793928
20
9.33322608836653
30
-1E-16
41
1
10
-1.99503997793928
20
9.76392166117952
30
-1E-16
41
1
10
-1.99503997793928
20
10.1171870033238
30
-1E-16
41
1
10
-1.99503997793928
20
10.3966814407573
30
-1E-16
41
1
10
-1.99503997793928
20
10.6045508021232
30
-1E-16
41
1
10
-1.99503997793928
20
10.8107494713072
30
-1E-16
41
1
10
-1.99503997793928
20
11.0152750188843
30
-1E-16
41
1
10
-1.99503997793928
20
11.2181233733031
30
-1E-16
41
1
10
-1.99503997793928
20
11.4192921752591
30
-1E-16
41
1
10
-1.99503997793928
20
11.6187779306707
30
-1E-16
41
1
10
-1.99503997793928
20
11.8826118718573
30
-1E-16
41
1
10
-1.99503997793928
20
12.1427688173785
30
-1E-16
41
1
10
-1.99503997793928
20
12.3998230002593
30
-1E-16
41
1
10
-1.99503997793928
20
12.5908431445087
30
-1E-16
41
1
10
-1.99503997793928
20
12.7801589185361
30
-1E-16
41
1
10
-1.99503997793928
20
12.967767664355
30
-1E-16
41
1
10
-1.99503997793928
20
13.1536651576331
30
-1E-16
41
1
10
-1.99503997793928
20
13.3378467409434
30
-1E-16
41
1
10
-1.99503997793928
20
13.5203096364964
30
-1E-16
41
1
10
-1.99503997793928
20
13.7010488098078
30
-1E-16
41
1
10
-1.99503997793928
20
13.8800596938692
30
-1E-16
41
1
10
-1.99503997793928
20
14.0573388809364
30
-1E-16
41
1
10
-1.99503997793928
20
14.2328806917249
30
-1E-16
41
1
10
-1.99503997793928
20
14.4066808882548
30
-1E-16
41
1
10
-1.99503997793928
20
14.578735707937
30
-1E-16
41
1
10
-1.99503997793928
20
14.7490386600655
30
-1E-16
41
1
10
-1.99503997793928
20
14.8894548819647
30
-1E-16
41
1
10
-1.99503997793928
20
15.0009760777421
30
-1E-16
41
1
10
-1.99503997793928
20
15.1119089381336
30
-1E-16
41
1
10
-1.99503997793928
20
15.2493853238091
30
-1E-16
41
1
10
-1.99503997793928
20
15.4126292313156
30
-1E-16
41
1
10
-1.99503997793928
20
15.5471478788444
30
-1E-16
41
1
10
-1.99503997793928
20
15.6539352235828
30
-1E-16
41
1
10
-1.99503997793928
20
15.7601264684356
30
-1E-16
41
1
10
-1.99503997793928
20
15.8916662065006
30
-1E-16
41
1
10
-1.99503997793928
20
16.0998599858609
30
-1E-16
41
1
10
-1.99503997793928
20
16.3042392155796
30
-1E-16
41
1
10
-1.99503997793928
20
16.5051894370887
30
-1E-16
41
1
10
-1.99503997793928
20
16.654027023888
30
-1E-16
41
1
10
-1.99503997793928
20
16.8010333841432
30
-1E-16
41
1
10
-1.99503997793928
20
16.9946548235122
30
-1E-16
41
1
10
-1.99503997793928
20
17.1843913435575
30
-1E-16
41
1
10
-1.99503997793928
20
17.3472945498449
30
-1E-16
41
1
10
-1.99503997793928
20
17.4394590341184
30
-1E-16
41
1
10
-1.99503997793928
20
17.5309981410348
30
-1E-16
41
1
10
-1.99503997793928
20
17.6441795672679
30
-1E-16
41
1
10
-1.99503997793928
20
17.8228588844704
30
-1E-16
41
1
10
-1.99503997793928
20
17.9975681157064
30
-1E-16
41
1
10
-1.99503997793928
20
18.1686188381619
30
-1E-16
41
1
10
-1.99503997793928
20
18.2949375082747
30
-1E-16
41
1
10
-1.99503997793928
20
18.4193199892891
30
-1E-16
41
1
10
-1.99503997793928
20
18.5826225030747
30
-1E-16
41
1
10
-1.99503997793928
20
18.7418485706132
30
-1E-16
41
1
10
-1.99503997793928
20
18.877828345234
30
-1E-16
41
1
10
-1.99503997793928
20
18.9545457436666
30
-1E-16
41
1
10
-1.99503997793928
20
19.0305969699326
30
-1E-16
41
1
10
-1.99503997793928
20
19.1243520606764
30
-1E-16
41
1
10
-1.99503997793928
20
19.2717622924356
30
-1E-16
41
1
10
-1.99503997793928
20
19.4149698127943
30
-1E-16
41
1
10
-1.99503997793928
20
19.5542139601407
30
-1E-16
41
1
10
-1.99503997793928
20
19.6565424313982
30
-1E-16
41
1
10
-1.99503997793928
20
19.7567886026657
30
-1E-16
41
1
10
-1.99503997793928
20
19.8549383078336
30
-1E-16
41
1
10
-1.99503997793928
20
19.9509751576252
30
-1E-16
41
1
10
-1.99503997793928
20
20.0448848271876
30
-1E-16
41
1
10
-1.99503997793928
20
20.136651569995
30
-1E-16
41
1
10
-1.99503997793928
20
20.2262576082901
30
-1E-16
41
1
10
-1.99503997793928
20
20.3136873945745
30
-1E-16
41
1
10
-1.99503997793928
20
20.3989234016943
30
-1E-16
41
1
10
-1.99503997793928
20
20.4819464711493
30
-1E-16
41
1
10
-1.99503997793928
20
20.5627395849404
30
-1E-16
41
1
10
-1.99503997793928
20
20.6412830606924
30
-1E-16
41
1
10
-1.99503997793928
20
20.7430171949632
30
-1E-16
41
1
10
-1.99503997793928
20
20.8400664063016
30
-1E-16
41
1
10
-1.99503997793928
20
20.9325549476398
30
-1E-16
41
1
10
-1.99503997793928
20
20.9995415089612
30
-1E-16
41
1
10
-1.99503997793928
20
21.0641493981766
30
1E-16
41
1
10
-1.99503997793928
20
21.126355615456
30
1E-16
41
1
10
-1.99503997793928
20
21.1861355372814
30
1E-16
41
1
10
-1.99503997793928
20
21.2626002065085
30
0
41
1
10
-1.99503997793928
20
21.3340243579833
30
0
41
1
10
-1.99503997793928
20
21.4004602751572
30
0
41
1
10
-1.99503997793928
20
21.4477036012609
30
0
41
1
10
-1.99503997793928
20
21.4923512863894
30
0
41
1
10
-1.99503997793928
20
21.5484022523455
30
0
41
1
10
-1.99503997793928
20
21.6117670092986
30
1E-16
41
1
10
-1.99503997793928
20
21.6769140218914
30
1E-16
41
1
10
-1.99503997793928
20
21.7218385059106
30
-1E-16
41
1
10
-1.99503997793928
20
21.7520291985819
30
-1E-16
41
1
10
-1.99503997793928
20
21.7717308612526
30
-1E-16
41
1
10
-1.99503997793928
20
21.7884557330328
30
-1E-16
41
1
10
-1.99503997793928
20
21.8021565364934
30
-1E-16
41
1
10
-1.99503997793928
20
21.812783044142
30
-1E-16
41
1
10
-1.99503997793928
20
21.8202836860757
30
-1E-16
41
1
10
-1.99503997793928
20
21.8245120509241
30
-1E-16
41
1
10
-1.99503997793931
20
21.8252778634838
30
-1E-16
41
1
10
-1.99503997793934
20
21.8251669021362
30
-1E-16
0
SPLINE
5
D7
100
AcDbEntity
8
SK1
62
256
6
ByLayer
370
18
48
1
60
0
100
AcDbSpline
70
4
71
3
72
26
73
22
40
0
40
0
40
0
40
0
40
0.125
40
0.125
40
0.25
40
0.25
40
0.3125
40
0.3125
40
0.375
40
0.375
40
0.5
40
0.5
40
0.625
40
0.625
40
0.6875
40
0.6875
40
0.75
40
0.75
40
0.875
40
0.875
40
1
40
1
40
1
40
1
41
1
10
-1.30710678118655
20
4.81101329740289
30
-1E-16
41
1
10
-1.37461329628553
20
4.42906267002715
30
-1E-16
41
1
10
-1.43842288357249
20
4.04270825974379
30
-1E-16
41
1
10
-1.55482767545837
20
3.25964078646075
30
-1E-16
41
1
10
-1.60743482920452
20
2.86293463703905
30
-1E-16
41
1
10
-1.67407835953028
20
2.25842147165613
30
-1E-16
41
1
10
-1.6942347086227
20
2.05533443764031
30
-1E-16
41
1
10
-1.72965556309052
20
1.64563836285322
30
-1E-16
41
1
10
-1.74484710329557
20
1.43963199934169
30
-1E-16
41
1
10
-1.78162975563035
20
0.82275752324307
30
-1E-16
41
1
10
-1.79445291889314
20
0.411207816053661
30
-1E-16
41
1
10
-1.79442593338331
20
-0.412525631248002
30
-1E-16
41
1
10
-1.78157312882854
20
-0.824709416072238
30
-1E-16
41
1
10
-1.7445898427946
20
-1.44343920897944
30
-1E-16
41
1
10
-1.72930597743908
20
-1.65005948504421
30
-1E-16
41
1
10
-1.69390777409217
20
-2.05873054114898
30
-1E-16
41
1
10
-1.67377216548036
20
-2.26136839295086
30
-1E-16
41
1
10
-1.60720273884684
20
-2.8646969904417
30
-1E-16
41
1
10
-1.55465955887379
20
-3.26082920006925
30
-1E-16
41
1
10
-1.43835988164523
20
-4.04307426593769
30
-1E-16
41
1
10
-1.37459233181624
20
-4.42918087958256
30
-1E-16
41
1
10
-1.30710678118663
20
-4.81101321788435
30
-1E-16
0
SPLINE
5
D8
100
AcDbEntity
8
SK1
62
256
6
ByLayer
370
18
48
1
60
0
100
AcDbSpline
70
4
71
3
72
295
73
291
40
0
40
0
40
0
40
0
40
0.0029467573810648
40
0.0065226822647539
40
0.010098607148443
40
0.013674532032132
40
0.0172504569158211
40
0.0208263817995102
40
0.0244023066831993
40
0.0279782315668884
40
0.0315541564505775
40
0.0351300813342665
40
0.0422819311016447
40
0.0458578559853338
40
0.0494337808690229
40
0.053009705752712
40
0.056585630636401
40
0.0637374804037792
40
0.0673134052874683
40
0.0708893301711574
40
0.0744652550548464
40
0.0780411799385355
40
0.0816171048222246
40
0.0851930297059137
40
0.0923448794732919
40
0.0959208043569809
40
0.09949672924067
40
0.103072654124359
40
0.106648579008048
40
0.110224503891737
40
0.113800428775426
40
0.117376353659115
40
0.120952278542805
40
0.124528203426494
40
0.128104128310183
40
0.131680053193872
40
0.135255978077561
40
0.13883190296125
40
0.142407827844939
40
0.149559677612317
40
0.153135602496006
40
0.156711527379695
40
0.160287452263384
40
0.163863377147073
40
0.171015226914452
40
0.174591151798141
40
0.17816707668183
40
0.181743001565519
40
0.185318926449208
40
0.192470776216586
40
0.196046701100275
40
0.199622625983964
40
0.203198550867653
40
0.206774475751343
40
0.213926325518721
40
0.21750225040241
40
0.221078175286099
40
0.224654100169788
40
0.228230025053477
40
0.235381874820855
40
0.238957799704544
40
0.242533724588233
40
0.246109649471922
40
0.249685574355612
40
0.25683742412299
40
0.260413349006679
40
0.263989273890368
40
0.271141123657746
40
0.274717048541435
40
0.278292973425124
40
0.281868898308813
40
0.285444823192502
40
0.289020748076191
40
0.292596672959881
40
0.29617259784357
40
0.299748522727259
40
0.303324447610948
40
0.306900372494637
40
0.310476297378326
40
0.314052222262015
40
0.321204072029393
40
0.324779996913082
40
0.328355921796771
40
0.33193184668046
40
0.33550777156415
40
0.339083696447839
40
0.342659621331528
40
0.346235546215217
40
0.349811471098906
40
0.356963320866284
40
0.364115170633662
40
0.37126702040104
40
0.374842945284729
40
0.378418870168419
40
0.381994795052108
40
0.385570719935797
40
0.389146644819486
40
0.392722569703175
40
0.396298494586864
40
0.399874419470553
40
0.403450344354242
40
0.407026269237931
40
0.41060219412162
40
0.414178119005309
40
0.417754043888998
40
0.421329968772688
40
0.424905893656376
40
0.428481818540066
40
0.432057743423755
40
0.433845705865599
40
0.435633668307444
40
0.437421630749288
40
0.439209593191133
40
0.442785518074822
40
0.446361442958511
40
0.448149405400356
40
0.4499373678422
40
0.451725330284045
40
0.453513292725889
40
0.457089217609578
40
0.458877180051423
40
0.460665142493267
40
0.462453104935112
40
0.464241067376956
40
0.466029029818801
40
0.467816992260645
40
0.46960495470249
40
0.471392917144335
40
0.473180879586179
40
0.474968842028024
40
0.476756804469868
40
0.478544766911713
40
0.480332729353557
40
0.482120691795402
40
0.483908654237246
40
0.485696616679091
40
0.487484579120936
40
0.48927254156278
40
0.491060504004624
40
0.492848466446469
40
0.494636428888314
40
0.496424391330158
40
0.498212353772003
40
0.500000316213847
40
0.501788278655692
40
0.503576241097536
40
0.505364203539381
40
0.507152165981225
40
0.50894012842307
40
0.510728090864915
40
0.512516053306759
40
0.514304015748604
40
0.516091978190448
40
0.517879940632293
40
0.519667903074137
40
0.521455865515982
40
0.523243827957826
40
0.525031790399671
40
0.526819752841515
40
0.52860771528336
40
0.530395677725204
40
0.532183640167049
40
0.533971602608894
40
0.535759565050738
40
0.537547527492583
40
0.539335489934427
40
0.541123452376272
40
0.542911414818116
40
0.546487339701805
40
0.54827530214365
40
0.550063264585494
40
0.551851227027339
40
0.553639189469184
40
0.557215114352873
40
0.560791039236562
40
0.562579001678406
40
0.564366964120251
40
0.566154926562095
40
0.56794288900394
40
0.571518813887629
40
0.575094738771318
40
0.578670663655007
40
0.582246588538696
40
0.585822513422385
40
0.589398438306074
40
0.592974363189763
40
0.596550288073453
40
0.600126212957142
40
0.603702137840831
40
0.60727806272452
40
0.610853987608209
40
0.614429912491898
40
0.618005837375587
40
0.621581762259276
40
0.625157687142965
40
0.628733612026654
40
0.635885461794032
40
0.643037311561411
40
0.650189161328789
40
0.653765086212478
40
0.657341011096167
40
0.660916935979856
40
0.664492860863545
40
0.668068785747234
40
0.671644710630923
40
0.675220635514612
40
0.678796560398301
40
0.68594841016568
40
0.689524335049369
40
0.693100259933058
40
0.696676184816747
40
0.700252109700436
40
0.703828034584125
40
0.707403959467814
40
0.710979884351503
40
0.714555809235192
40
0.718131734118881
40
0.72170765900257
40
0.725283583886259
40
0.728859508769949
40
0.732435433653638
40
0.736011358537327
40
0.739587283421016
40
0.74137524586286
40
0.743163208304705
40
0.746739133188394
40
0.750315058072083
40
0.753890982955772
40
0.755678945397617
40
0.757466907839461
40
0.76104283272315
40
0.764618757606839
40
0.771770607374218
40
0.775346532257907
40
0.778922457141596
40
0.782498382025285
40
0.786074306908974
40
0.793226156676352
40
0.796802081560041
40
0.798590044001886
40
0.80037800644373
40
0.803953931327419
40
0.807529856211108
40
0.814681705978487
40
0.818257630862176
40
0.821833555745865
40
0.825409480629554
40
0.828985405513243
40
0.836137255280621
40
0.83971318016431
40
0.841501142606155
40
0.843289105047999
40
0.846865029931688
40
0.850440954815378
40
0.857592804582756
40
0.861168729466445
40
0.864744654350134
40
0.868320579233823
40
0.871896504117512
40
0.875472429001201
40
0.87904835388489
40
0.882624278768579
40
0.886200203652268
40
0.889776128535957
40
0.893352053419647
40
0.896927978303335
40
0.900503903187025
40
0.904079828070714
40
0.907655752954403
40
0.914807602721781
40
0.91838352760547
40
0.921959452489159
40
0.925535377372848
40
0.929111302256537
40
0.932687227140226
40
0.936263152023915
40
0.943415001791294
40
0.946990926674983
40
0.950566851558672
40
0.954142776442361
40
0.95771870132605
40
0.964870551093428
40
0.972022400860806
40
0.979174250628184
40
0.982750175511873
40
0.986326100395563
40
0.989902025279252
40
0.993477950162941
40
0.99705387504663
40
1
40
1
40
1
40
1
41
1
10
-2.19999999999999
20
-22.0135206572769
30
-1E-16
41
1
10
-2.20000000000002
20
-22.0117283857125
30
-1E-16
41
1
10
-2.19999999999996
20
-22.0069601749944
30
-1E-16
41
1
10
-2.19999999999999
20
-21.9968726399857
30
-1E-16
41
1
10
-2.19999999999999
20
-21.9830583809744
30
-1E-16
41
1
10
-2.19999999999999
20
-21.9661972037607
30
-1E-16
41
1
10
-2.19999999999999
20
-21.9463373508774
30
-1E-16
41
1
10
-2.19999999999999
20
-21.9235254752891
30
-1E-16
41
1
10
-2.19999999999999
20
-21.8978063777089
30
1E-16
41
1
10
-2.19999999999999
20
-21.8692221254414
30
1E-16
41
1
10
-2.19999999999999
20
-21.8378144981283
30
1E-16
41
1
10
-2.19999999999999
20
-21.7922265879071
30
0
41
1
10
-2.19999999999999
20
-21.7411389990572
30
0
41
1
10
-2.19999999999999
20
-21.6847072964973
30
0
41
1
10
-2.19999999999999
20
-21.6397397916631
30
0
41
1
10
-2.19999999999999
20
-21.5921615531195
30
0
41
1
10
-2.19999999999999
20
-21.5252891448141
30
0
41
1
10
-2.19999999999999
20
-21.4533087676779
30
1E-16
41
1
10
-2.19999999999999
20
-21.3763547664481
30
1E-16
41
1
10
-2.19999999999999
20
-21.3161704250344
30
1E-16
41
1
10
-2.19999999999999
20
-21.2535469320083
30
1E-16
41
1
10
-2.19999999999999
20
-21.1885090211437
30
-1E-16
41
1
10
-2.19999999999999
20
-21.1210800961781
30
-1E-16
41
1
10
-2.19999999999999
20
-21.0280237880878
30
-1E-16
41
1
10
-2.19999999999999
20
-20.9302657657864
30
-1E-16
41
1
10
-2.19999999999999
20
-20.82791883753
30
-1E-16
41
1
10
-2.19999999999999
20
-20.7488739108727
30
-1E-16
41
1
10
-2.19999999999999
20
-20.6675682022903
30
-1E-16
41
1
10
-2.19999999999999
20
-20.5840212474559
30
-1E-16
41
1
10
-2.19999999999999
20
-20.4982502752196
30
-1E-16
41
1
10
-2.19999999999999
20
-20.4102747220553
30
-1E-16
41
1
10
-2.19999999999999
20
-20.3201119082527
30
-1E-16
41
1
10
-2.19999999999999
20
-20.2277776697998
30
-1E-16
41
1
10
-2.19999999999999
20
-20.133289903145
30
-1E-16
41
1
10
-2.19999999999999
20
-20.0366640227898
30
-1E-16
41
1
10
-2.19999999999999
20
-19.9379146863563
30
-1E-16
41
1
10
-2.19999999999999
20
-19.8370589164793
30
-1E-16
41
1
10
-2.19999999999999
20
-19.7341104289282
30
-1E-16
41
1
10
-2.19999999999999
20
-19.5940785255289
30
-1E-16
41
1
10
-2.19999999999999
20
-19.4499005391959
30
-1E-16
41
1
10
-2.19999999999999
20
-19.3016611759423
30
-1E-16
41
1
10
-2.19999999999999
20
-19.1884526890887
30
-1E-16
41
1
10
-2.19999999999999
20
-19.0732305996174
30
-1E-16
41
1
10
-2.19999999999999
20
-18.9169371900015
30
-1E-16
41
1
10
-2.19999999999999
20
-18.7566457425986
30
-1E-16
41
1
10
-2.19999999999999
20
-18.5924361073221
30
-1E-16
41
1
10
-2.19999999999999
20
-18.4673177032107
30
-1E-16
41
1
10
-2.19999999999999
20
-18.3402522143585
30
-1E-16
41
1
10
-2.19999999999999
20
-18.1682547291306
30
-1E-16
41
1
10
-2.19999999999999
20
-17.9923842415009
30
-1E-16
41
1
10
-2.19999999999999
20
-17.8127154575359
30
-1E-16
41
1
10
-2.19999999999999
20
-17.676060438985
30
-1E-16
41
1
10
-2.19999999999999
20
-17.5375147595292
30
-1E-16
41
1
10
-2.19999999999999
20
-17.3502835148979
30
-1E-16
41
1
10
-2.19999999999999
20
-17.1592828976246
30
-1E-16
41
1
10
-2.19999999999999
20
-16.9645862898264
30
-1E-16
41
1
10
-2.19999999999999
20
-16.8167085043733
30
-1E-16
41
1
10
-2.19999999999999
20
-16.666987304737
30
-1E-16
41
1
10
-2.19999999999999
20
-16.4649171124643
30
-1E-16
41
1
10
-2.19999999999999
20
-16.2591647559547
30
-1E-16
41
1
10
-2.19999999999999
20
-16.0498023362736
30
-1E-16
41
1
10
-2.19999999999999
20
-15.8909649274654
30
-1E-16
41
1
10
-2.19999999999999
20
-15.7303232767805
30
-1E-16
41
1
10
-2.19999999999999
20
-15.513744330902
30
-1E-16
41
1
10
-2.19999999999999
20
-15.2935559429894
30
-1E-16
41
1
10
-2.19999999999999
20
-15.069828938707
30
-1E-16
41
1
10
-2.19999999999999
20
-14.8437340716545
30
-1E-16
41
1
10
-2.19999999999999
20
-14.61406817927
30
-1E-16
41
1
10
-2.19999999999999
20
-14.3809064511142
30
-1E-16
41
1
10
-2.19999999999999
20
-14.2042701267483
30
-1E-16
41
1
10
-2.19999999999999
20
-14.0258803815961
30
-1E-16
41
1
10
-2.19999999999999
20
-13.845742035678
30
-1E-16
41
1
10
-2.19999999999999
20
-13.6638579908945
30
-1E-16
41
1
10
-2.19999999999999
20
-13.4802328404438
30
-1E-16
41
1
10
-2.19999999999999
20
-13.2948705838035
30
-1E-16
41
1
10
-2.19999999999999
20
-13.1077737445537
30
-1E-16
41
1
10
-2.19999999999999
20
-12.9189467887917
30
-1E-16
41
1
10
-2.19999999999999
20
-12.7283927892775
30
-1E-16
41
1
10
-2.19999999999999
20
-12.5361142561418
30
-1E-16
41
1
10
-2.19999999999999
20
-12.277459839655
30
-1E-16
41
1
10
-2.19999999999999
20
-12.015335258712
30
-1E-16
41
1
10
-2.19999999999999
20
-11.7498207382014
30
-1E-16
41
1
10
-2.19999999999999
20
-11.5489655840494
30
-1E-16
41
1
10
-2.19999999999999
20
-11.3464032666245
30
-1E-16
41
1
10
-2.19999999999999
20
-11.1421359694817
30
-1E-16
41
1
10
-2.19999999999999
20
-10.9361655882296
30
-1E-16
41
1
10
-2.19999999999999
20
-10.7284951094206
30
-1E-16
41
1
10
-2.19999999999999
20
-10.5191258633122
30
-1E-16
41
1
10
-2.19999999999999
20
-10.2377183913447
30
-1E-16
41
1
10
-2.19999999999999
20
-9.88169305528194
30
-1E-16
41
1
10
-2.19999999999999
20
-9.44771866001565
30
-1E-16
41
1
10
-2.19999999999999
20
-9.08043846702645
30
-1E-16
41
1
10
-2.19999999999999
20
-8.78327691067398
30
-1E-16
41
1
10
-2.19999999999999
20
-8.55871423477029
30
-1E-16
41
1
10
-2.19999999999999
20
-8.33247384441506
30
-1E-16
41
1
10
-2.19999999999999
20
-8.10455846042146
30
-1E-16
41
1
10
-2.19999999999999
20
-7.87497052861914
30
-1E-16
41
1
10
-2.19999999999999
20
-7.64371312168015
30
-1E-16
41
1
10
-2.19999999999999
20
-7.41078904293681
30
-1E-16
41
1
10
-2.19999999999999
20
-7.17620223308296
30
-1E-16
41
1
10
-2.19999999999999
20
-6.93995689241024
30
-1E-16
41
1
10
-2.19999999999999
20
-6.70205756880287
30
-1E-16
41
1
10
-2.19999999999999
20
-6.46250917346816
30
-1E-16
41
1
10
-2.19999999999999
20
-6.22131783489101
30
-1E-16
41
1
10
-2.19999999999999
20
-5.97849051253721
30
-1E-16
41
1
10
-2.19999999999999
20
-5.73403522651989
30
-1E-16
41
1
10
-2.19999999999999
20
-5.48796106514416
30
-1E-16
41
1
10
-2.19999999999999
20
-5.24027911954084
30
-1E-16
41
1
10
-2.19999999999999
20
-5.03253662624778
30
-1E-16
41
1
10
-2.19999999999999
20
-4.86557359653659
30
-1E-16
41
1
10
-2.19999999999999
20
-4.73994907984499
30
-1E-16
41
1
10
-2.19999999999999
20
-4.61393371339872
30
-1E-16
41
1
10
-2.19999999999999
20
-4.44540775759583
30
-1E-16
41
1
10
-2.19999999999999
20
-4.23375654375474
30
-1E-16
41
1
10
-2.19999999999999
20
-4.020839617489
30
-1E-16
41
1
10
-2.19999999999999
20
-3.84978439330678
30
-1E-16
41
1
10
-2.19999999999999
20
-3.72111343644576
30
-1E-16
41
1
10
-2.19999999999999
20
-3.59207750684843
30
-1E-16
41
1
10
-2.19999999999999
20
-3.41956370437865
30
-1E-16
41
1
10
-2.19999999999999
20
-3.24629481975686
30
-1E-16
41
1
10
-2.19999999999999
20
-3.072383622975
30
-1E-16
41
1
10
-2.19999999999999
20
-2.94160047796311
30
-1E-16
41
1
10
-2.19999999999999
20
-2.81048648769612
30
-1E-16
41
1
10
-2.19999999999999
20
-2.67904893291683
30
-1E-16
41
1
10
-2.19999999999999
20
-2.54729563151926
30
-1E-16
41
1
10
-2.19999999999999
20
-2.41523552035437
30
-1E-16
41
1
10
-2.19999999999999
20
-2.28287741514001
30
-1E-16
41
1
10
-2.19999999999999
20
-2.15023167925048
30
-1E-16
41
1
10
-2.19999999999999
20
-2.01730874020455
30
-1E-16
41
1
10
-2.19999999999999
20
-1.88412021847037
30
-1E-16
41
1
10
-2.19999999999999
20
-1.75067843002711
30
-1E-16
41
1
10
-2.19999999999999
20
-1.61699635855226
30
-1E-16
41
1
10
-2.19999999999999
20
-1.48308822685564
30
-1E-16
41
1
10
-2.19999999999999
20
-1.34896860046499
30
-1E-16
41
1
10
-2.19999999999999
20
-1.21465351395383
30
-1E-16
41
1
10
-2.19999999999999
20
-1.08015922751395
30
-1E-16
41
1
10
-2.19999999999999
20
-0.945503451789534
30
-1E-16
41
1
10
-2.19999999999999
20
-0.810704122044939
30
-1E-16
41
1
10
-2.19999999999999
20
-0.675780432522174
30
-1E-16
41
1
10
-2.19999999999999
20
-0.540751798686529
30
-1E-16
41
1
10
-2.19999999999999
20
-0.405638608907907
30
-1E-16
41
1
10
-2.19999999999999
20
-0.270461437853925
30
-1E-16
41
1
10
-2.19999999999999
20
-0.135241472589996
30
-1E-16
41
1
10
-2.19999999999999
20
-5.3654787E-09
30
-1E-16
41
1
10
-2.19999999999999
20
0.135241462279822
30
-1E-16
41
1
10
-2.19999999999999
20
0.270461428271432
30
-1E-16
41
1
10
-2.19999999999999
20
0.405638599098921
30
-1E-16
41
1
10
-2.19999999999999
20
0.540751787789588
30
-1E-16
41
1
10
-2.19999999999999
20
0.675780421912322
30
-1E-16
41
1
10
-2.19999999999999
20
0.810704113119073
30
-1E-16
41
1
10
-2.19999999999999
20
0.945503442662783
30
-1E-16
41
1
10
-2.19999999999999
20
1.0801592162689
30
-1E-16
41
1
10
-2.19999999999999
20
1.21465350310541
30
-1E-16
41
1
10
-2.19999999999999
20
1.34896859254377
30
-1E-16
41
1
10
-2.19999999999999
20
1.48308821885627
30
-1E-16
41
1
10
-2.19999999999999
20
1.61699634722072
30
-1E-16
41
1
10
-2.19999999999999
20
1.75067841854351
30
-1E-16
41
1
10
-2.19999999999999
20
1.88412021099791
30
-1E-16
41
1
10
-2.19999999999999
20
2.01730873413072
30
-1E-16
41
1
10
-2.19999999999999
20
2.15023166945255
30
-1E-16
41
1
10
-2.19999999999999
20
2.28287740252156
30
-1E-16
41
1
10
-2.19999999999999
20
2.41523551097489
30
-1E-16
41
1
10
-2.19999999999999
20
2.54729562722176
30
-1E-16
41
1
10
-2.19999999999999
20
2.67904892732182
30
-1E-16
41
1
10
-2.19999999999999
20
2.81048647644627
30
-1E-16
41
1
10
-2.19999999999999
20
2.94160046512798
30
-1E-16
41
1
10
-2.19999999999999
20
3.0723836150739
30
-1E-16
41
1
10
-2.19999999999999
20
3.24629481959221
30
-1E-16
41
1
10
-2.19999999999999
20
3.41956369464535
30
-1E-16
41
1
10
-2.19999999999999
20
3.59207749308624
30
-1E-16
41
1
10
-2.19999999999999
20
3.72111342731068
30
-1E-16
41
1
10
-2.19999999999999
20
3.84978439152417
30
-1E-16
41
1
10
-2.19999999999999
20
4.02083961713782
30
-1E-16
41
1
10
-2.19999999999999
20
4.23375652596863
30
-1E-16
41
1
10
-2.19999999999999
20
4.44540774959788
30
-1E-16
41
1
10
-2.19999999999999
20
4.61393371339017
30
-1E-16
41
1
10
-2.19999999999999
20
4.73994908127321
30
-1E-16
41
1
10
-2.19999999999999
20
4.86557359122418
30
-1E-16
41
1
10
-2.19999999999999
20
5.03253661023487
30
-1E-16
41
1
10
-2.19999999999999
20
5.24027911118978
30
-1E-16
41
1
10
-2.19999999999999
20
5.48796107357256
30
-1E-16
41
1
10
-2.19999999999999
20
5.73403521575827
30
-1E-16
41
1
10
-2.19999999999999
20
5.97849049576266
30
-1E-16
41
1
10
-2.19999999999999
20
6.2213178400012
30
-1E-16
41
1
10
-2.19999999999999
20
6.46250918569618
30
-1E-16
41
1
10
-2.19999999999999
20
6.70205758660663
30
-1E-16
41
1
10
-2.19999999999999
20
6.93995692090419
30
-1E-16
41
1
10
-2.19999999999999
20
7.17620220160032
30
-1E-16
41
1
10
-2.19999999999999
20
7.41078884464241
30
-1E-16
41
1
10
-2.19999999999999
20
7.6437128367312
30
-1E-16
41
1
10
-2.19999999999999
20
7.87497060194644
30
-1E-16
41
1
10
-2.19999999999999
20
8.10455852701506
30
-1E-16
41
1
10
-2.19999999999999
20
8.33247380011301
30
-1E-16
41
1
10
-2.19999999999999
20
8.55871419535617
30
-1E-16
41
1
10
-2.19999999999999
20
8.78327689677775
30
-1E-16
41
1
10
-2.19999999999999
20
9.08043848955603
30
-1E-16
41
1
10
-2.19999999999999
20
9.44771865839311
30
-1E-16
41
1
10
-2.19999999999999
20
9.88169304970987
30
-1E-16
41
1
10
-2.19999999999999
20
10.2377184130835
30
-1E-16
41
1
10
-2.19999999999999
20
10.5191258614377
30
-1E-16
41
1
10
-2.19999999999999
20
10.7284950970913
30
-1E-16
41
1
10
-2.19999999999999
20
10.9361655879759
30
-1E-16
41
1
10
-2.19999999999999
20
11.1421359853758
30
-1E-16
41
1
10
-2.19999999999999
20
11.3464032807099
30
-1E-16
41
1
10
-2.19999999999999
20
11.5489655826483
30
-1E-16
41
1
10
-2.19999999999999
20
11.7498207258852
30
-1E-16
41
1
10
-2.19999999999999
20
12.0153352592314
30
-1E-16
41
1
10
-2.19999999999999
20
12.2774598592137
30
-1E-16
41
1
10
-2.19999999999999
20
12.5361142588231
30
-1E-16
41
1
10
-2.19999999999999
20
12.728392778749
30
-1E-16
41
1
10
-2.19999999999999
20
12.9189467805057
30
-1E-16
41
1
10
-2.19999999999999
20
13.1077737485311
30
-1E-16
41
1
10
-2.19999999999999
20
13.2948705974071
30
-1E-16
41
1
10
-2.19999999999999
20
13.4802328481714
30
-1E-16
41
1
10
-2.19999999999999
20
13.6638579861817
30
-1E-16
41
1
10
-2.19999999999999
20
13.8457420253844
30
-1E-16
41
1
10
-2.19999999999999
20
14.0258803741545
30
-1E-16
41
1
10
-2.19999999999999
20
14.2042700822291
30
-1E-16
41
1
10
-2.19999999999999
20
14.3809062427341
30
-1E-16
41
1
10
-2.19999999999999
20
14.5557843226631
30
-1E-16
41
1
10
-2.19999999999999
20
14.7289012367181
30
-1E-16
41
1
10
-2.19999999999999
20
14.90025131083
30
-1E-16
41
1
10
-2.19999999999999
20
15.0415708470876
30
-1E-16
41
1
10
-2.19999999999999
20
15.1537302031574
30
-1E-16
41
1
10
-2.19999999999999
20
15.2652965264295
30
-1E-16
41
1
10
-2.19999999999999
20
15.4036502143979
30
-1E-16
41
1
10
-2.19999999999999
20
15.567882396309
30
-1E-16
41
1
10
-2.19999999999999
20
15.7032538676567
30
-1E-16
41
1
10
-2.19999999999999
20
15.8106442286412
30
-1E-16
41
1
10
-2.19999999999999
20
15.9174340084588
30
-1E-16
41
1
10
-2.19999999999999
20
16.049802831716
30
-1E-16
41
1
10
-2.19999999999999
20
16.2591646002876
30
-1E-16
41
1
10
-2.19999999999999
20
16.4649164953067
30
-1E-16
41
1
10
-2.19999999999999
20
16.6669871400996
30
-1E-16
41
1
10
-2.19999999999999
20
16.8167088060477
30
-1E-16
41
1
10
-2.19999999999999
20
16.9645867974536
30
-1E-16
41
1
10
-2.19999999999999
20
17.1592829447589
30
-1E-16
41
1
10
-2.19999999999999
20
17.3502824417036
30
-1E-16
41
1
10
-2.19999999999999
20
17.5141131161323
30
-1E-16
41
1
10
-2.19999999999999
20
17.606787767091
30
-1E-16
41
1
10
-2.19999999999999
20
17.6988333809735
30
-1E-16
41
1
10
-2.19999999999999
20
17.8127164551587
30
-1E-16
41
1
10
-2.19999999999999
20
17.9923842356821
30
-1E-16
41
1
10
-2.19999999999999
20
18.1682545122203
30
-1E-16
41
1
10
-2.19999999999999
20
18.3402521463352
30
-1E-16
41
1
10
-2.19999999999999
20
18.4673177976698
30
-1E-16
41
1
10
-2.19999999999999
20
18.5924362845557
30
-1E-16
41
1
10
-2.19999999999999
20
18.756645794641
30
-1E-16
41
1
10
-2.19999999999999
20
18.9169360704622
30
-1E-16
41
1
10
-2.19999999999999
20
19.0536957086557
30
-1E-16
41
1
10
-2.19999999999999
20
19.1308417758755
30
-1E-16
41
1
10
-2.19999999999999
20
19.2073184270571
30
-1E-16
41
1
10
-2.19999999999999
20
19.3016622310533
30
-1E-16
41
1
10
-2.19999999999999
20
19.4499005336558
30
-1E-16
41
1
10
-2.19999999999999
20
19.5940778412012
30
-1E-16
41
1
10
-2.19999999999999
20
19.7341102362335
30
-1E-16
41
1
10
-2.19999999999999
20
19.8370591957147
30
-1E-16
41
1
10
-2.19999999999999
20
19.9379151599299
30
-1E-16
41
1
10
-2.19999999999999
20
20.0366642357894
30
-1E-16
41
1
10
-2.19999999999999
20
20.1332899477274
30
-1E-16
41
1
10
-2.19999999999999
20
20.2277776663919
30
-1E-16
41
1
10
-2.19999999999999
20
20.3201119071544
30
-1E-16
41
1
10
-2.19999999999999
20
20.4102747128949
30
-1E-16
41
1
10
-2.19999999999999
20
20.4982502525025
30
-1E-16
41
1
10
-2.19999999999999
20
20.5840212184218
30
-1E-16
41
1
10
-2.19999999999999
20
20.6675681841826
30
-1E-16
41
1
10
-2.19999999999999
20
20.7488739070252
30
-1E-16
41
1
10
-2.19999999999999
20
20.8279188369072
30
-1E-16
41
1
10
-2.19999999999999
20
20.9302657445266
30
-1E-16
41
1
10
-2.19999999999999
20
21.0280237507364
30
-1E-16
41
1
10
-2.19999999999999
20
21.121080083473
30
-1E-16
41
1
10
-2.19999999999999
20
21.1885090229233
30
-1E-16
41
1
10
-2.19999999999999
20
21.2535469243879
30
1E-16
41
1
10
-2.19999999999999
20
21.3161703964091
30
1E-16
41
1
10
-2.19999999999999
20
21.3763547276269
30
1E-16
41
1
10
-2.19999999999999
20
21.453308753177
30
1E-16
41
1
10
-2.19999999999999
20
21.5252891523049
30
0
41
1
10
-2.19999999999999
20
21.5921615264853
30
0
41
1
10
-2.19999999999999
20
21.6397397481888
30
0
41
1
10
-2.19999999999999
20
21.6847072709128
30
0
41
1
10
-2.19999999999999
20
21.7411390111089
30
0
41
1
10
-2.19999999999999
20
21.8049949078793
30
1E-16
41
1
10
-2.19999999999999
20
21.870633664349
30
1E-16
41
1
10
-2.19999999999999
20
21.9159230944434
30
1E-16
41
1
10
-2.19999999999999
20
21.9463373083127
30
-1E-16
41
1
10
-2.19999999999999
20
21.9661971621578
30
-1E-16
41
1
10
-2.19999999999999
20
21.9830583750197
30
-1E-16
41
1
10
-2.19999999999999
20
21.9968726461305
30
-1E-16
41
1
10
-2.19999999999999
20
22.006959507462
30
-1E-16
41
1
10
-2.19999999999996
20
22.0117273416905
30
-1E-16
41
1
10
-2.19999999999999
20
22.0135193420961
30
-1E-16
0
SPLINE
5
D9
100
AcDbEntity
8
SK1
62
256
6
ByLayer
370
18
48
1
60
0
100
AcDbSpline
70
4
71
3
72
303
73
299
40
0
40
0
40
0
40
0
40
0.000512899410241
40
0.0040058157855995
40
0.0074987321609581
40
0.0109916485363166
40
0.0144845649116752
40
0.0179774812870338
40
0.0214703976623923
40
0.0249633140377508
40
0.0284562304131094
40
0.031949146788468
40
0.0354420631638265
40
0.0389349795391851
40
0.0424278959145437
40
0.0459208122899022
40
0.0529066450406193
40
0.0563995614159779
40
0.0598924777913364
40
0.063385394166695
40
0.0668783105420535
40
0.0738641432927707
40
0.0773570596681292
40
0.0808499760434877
40
0.0843428924188463
40
0.0878358087942049
40
0.0913287251695634
40
0.094821641544922
40
0.101807474295639
40
0.105300390670998
40
0.108793307046356
40
0.112286223421715
40
0.115779139797073
40
0.119272056172432
40
0.12276497254779
40
0.126257888923149
40
0.129750805298508
40
0.133243721673866
40
0.136736638049225
40
0.140229554424583
40
0.143722470799942
40
0.1472153871753
40
0.150708303550659
40
0.157694136301376
40
0.161187052676735
40
0.164679969052093
40
0.168172885427452
40
0.17166580180281
40
0.178651634553527
40
0.182144550928886
40
0.185637467304244
40
0.189130383679603
40
0.192623300054962
40
0.199609132805679
40
0.203102049181037
40
0.206594965556396
40
0.210087881931754
40
0.213580798307113
40
0.22056663105783
40
0.224059547433189
40
0.227552463808547
40
0.231045380183906
40
0.234538296559264
40
0.241524129309981
40
0.24501704568534
40
0.248509962060699
40
0.252002878436057
40
0.255495794811416
40
0.262481627562133
40
0.265974543937491
40
0.26946746031285
40
0.276453293063567
40
0.279946209438926
40
0.283439125814284
40
0.286932042189643
40
0.290424958565001
40
0.29391787494036
40
0.297410791315718
40
0.300903707691077
40
0.304396624066435
40
0.307889540441794
40
0.311382456817153
40
0.314875373192511
40
0.31836828956787
40
0.325354122318587
40
0.328847038693945
40
0.332339955069304
40
0.335832871444663
40
0.339325787820021
40
0.34281870419538
40
0.346311620570738
40
0.349804536946097
40
0.353297453321455
40
0.360283286072172
40
0.367269118822889
40
0.374254951573607
40
0.377747867948965
40
0.381240784324324
40
0.384733700699682
40
0.388226617075041
40
0.391719533450399
40
0.395212449825758
40
0.398705366201117
40
0.402198282576475
40
0.405691198951834
40
0.409184115327192
40
0.412677031702551
40
0.416169948077909
40
0.419662864453268
40
0.423155780828626
40
0.426648697203985
40
0.430141613579344
40
0.433634529954702
40
0.435380988142381
40
0.437127446330061
40
0.43887390451774
40
0.440620362705419
40
0.444113279080778
40
0.447606195456136
40
0.449352653643816
40
0.451099111831495
40
0.452845570019174
40
0.454592028206853
40
0.458084944582212
40
0.459831402769891
40
0.461577860957571
40
0.46332431914525
40
0.465070777332929
40
0.466817235520608
40
0.468563693708288
40
0.470310151895967
40
0.472056610083646
40
0.473803068271326
40
0.475549526459005
40
0.477295984646684
40
0.479042442834363
40
0.480788901022043
40
0.482535359209722
40
0.484281817397401
40
0.48602827558508
40
0.48777473377276
40
0.489521191960439
40
0.491267650148118
40
0.493014108335798
40
0.494760566523477
40
0.496507024711156
40
0.498253482898835
40
0.499999941086515
40
0.501746399274194
40
0.503492857461873
40
0.505239315649552
40
0.506985773837232
40
0.508732232024911
40
0.51047869021259
40
0.51222514840027
40
0.513971606587949
40
0.515718064775628
40
0.517464522963307
40
0.519210981150987
40
0.520957439338666
40
0.522703897526345
40
0.524450355714025
40
0.526196813901704
40
0.527943272089383
40
0.529689730277062
40
0.531436188464742
40
0.533182646652421
40
0.5349291048401
40
0.53667556302778
40
0.538422021215459
40
0.540168479403138
40
0.541914937590817
40
0.545407853966176
40
0.547154312153855
40
0.548900770341534
40
0.550647228529214
40
0.552393686716893
40
0.555886603092251
40
0.55937951946761
40
0.561125977655289
40
0.562872435842969
40
0.564618894030648
40
0.566365352218327
40
0.569858268593686
40
0.573351184969044
40
0.576844101344403
40
0.580337017719762
40
0.58382993409512
40
0.587322850470479
40
0.590815766845837
40
0.594308683221196
40
0.597801599596554
40
0.601294515971913
40
0.604787432347271
40
0.60828034872263
40
0.611773265097989
40
0.615266181473347
40
0.618759097848706
40
0.622252014224064
40
0.625744930599423
40
0.63273076335014
40
0.639716596100857
40
0.646702428851574
40
0.650195345226933
40
0.653688261602291
40
0.65718117797765
40
0.660674094353009
40
0.664167010728367
40
0.667659927103725
40
0.671152843479084
40
0.674645759854443
40
0.68163159260516
40
0.685124508980518
40
0.688617425355877
40
0.692110341731235
40
0.695603258106594
40
0.699096174481953
40
0.702589090857311
40
0.70608200723267
40
0.709574923608028
40
0.713067839983387
40
0.716560756358745
40
0.720053672734104
40
0.723546589109462
40
0.727039505484821
40
0.73053242186018
40
0.734025338235538
40
0.735771796423217
40
0.737518254610896
40
0.741011170986255
40
0.744504087361614
40
0.747997003736972
40
0.749743461924651
40
0.751489920112331
40
0.75498283648769
40
0.758475752863048
40
0.765461585613765
40
0.768954501989124
40
0.772447418364482
40
0.775940334739841
40
0.779433251115199
40
0.786419083865916
40
0.789912000241275
40
0.791658458428954
40
0.793404916616634
40
0.796897832991992
40
0.800390749367351
40
0.807376582118068
40
0.810869498493426
40
0.814362414868785
40
0.817855331244143
40
0.821348247619502
40
0.828334080370219
40
0.831826996745578
40
0.833573454933257
40
0.835319913120936
40
0.838812829496295
40
0.842305745871653
40
0.84929157862237
40
0.852784494997729
40
0.856277411373087
40
0.859770327748446
40
0.863263244123805
40
0.866756160499163
40
0.870249076874522
40
0.87374199324988
40
0.877234909625239
40
0.880727826000598
40
0.884220742375956
40
0.887713658751315
40
0.891206575126673
40
0.894699491502032
40
0.89819240787739
40
0.905178240628107
40
0.908671157003466
40
0.912164073378824
40
0.915656989754183
40
0.919149906129542
40
0.9226428225049
40
0.926135738880259
40
0.933121571630976
40
0.936614488006334
40
0.940107404381693
40
0.943600320757052
40
0.94709323713241
40
0.954079069883127
40
0.961064902633844
40
0.968050735384561
40
0.97154365175992
40
0.975036568135279
40
0.978529484510637
40
0.982022400885996
40
0.985515317261354
40
0.989008233636713
40
0.992501150012071
40
0.99599406638743
40
0.999486982762788
40
1
40
1
40
1
40
1
41
1
10
-36.5000000000001
20
-21.1555777589509
30
4E-16
41
1
10
-36.5
20
-21.1557857768774
30
4E-16
41
1
10
-36.5
20
-21.1573189038182
30
4E-16
41
1
10
-36.5
20
-21.1588543296933
30
4E-16
41
1
10
-36.5
20
-21.1578041644649
30
0
41
1
10
-36.5
20
-21.1536128319466
30
0
41
1
10
-36.5
20
-21.1463317710584
30
0
41
1
10
-36.5
20
-21.1360112646484
30
0
41
1
10
-36.5
20
-21.1226986516191
30
0
41
1
10
-36.5
20
-21.1064402531507
30
0
41
1
10
-36.5
20
-21.0872797892674
30
0
41
1
10
-36.5
20
-21.0652596303332
30
0
41
1
10
-36.5
20
-21.0404207944711
30
0
41
1
10
-36.5
20
-21.0128017234864
30
0
41
1
10
-36.5
20
-20.9824409225429
30
0
41
1
10
-36.5
20
-20.9382580424269
30
0
41
1
10
-36.5
20
-20.8890285523336
30
0
41
1
10
-36.5
20
-20.8342802793506
30
0
41
1
10
-36.5
20
-20.7907268231738
30
0
41
1
10
-36.5
20
-20.7446292080422
30
0
41
1
10
-36.5
20
-20.6796864153796
30
0
41
1
10
-36.5
20
-20.6101652553123
30
0
41
1
10
-36.5
20
-20.5353747607017
30
0
41
1
10
-36.5
20
-20.4769783724375
30
0
41
1
10
-36.5
20
-20.4161996091986
30
0
41
1
10
-36.5
20
-20.353062816238
30
0
41
1
10
-36.5
20
-20.287589681624
30
0
41
1
10
-36.5
20
-20.1970436522849
30
0
41
1
10
-36.5
20
-20.1024193061391
30
0
41
1
10
-36.5
20
-20.0027815100322
30
0
41
1
10
-36.5
20
-19.9259535527381
30
0
41
1
10
-36.5
20
-19.8469141406672
30
0
41
1
10
-36.5
20
-19.7656833992675
30
0
41
1
10
-36.5
20
-19.6822775521962
30
4E-16
41
1
10
-36.5
20
-19.5967148362678
30
4E-16
41
1
10
-36.5
20
-19.5090135437133
30
4E-16
41
1
10
-36.5
20
-19.4191882978898
30
4E-16
41
1
10
-36.5
20
-19.3272562516113
30
4E-16
41
1
10
-36.5
20
-19.2332339353276
30
4E-16
41
1
10
-36.5
20
-19.1371342717784
30
4E-16
41
1
10
-36.5
20
-19.0389739868785
30
4E-16
41
1
10
-36.5
20
-18.9387686023437
30
4E-16
41
1
10
-36.5
20
-18.8022222651529
30
4E-16
41
1
10
-36.5
20
-18.6623326618876
30
4E-16
41
1
10
-36.5
20
-18.5177535555592
30
4E-16
41
1
10
-36.5
20
-18.4075180436267
30
4E-16
41
1
10
-36.5
20
-18.2953166794047
30
4E-16
41
1
10
-36.5
20
-18.1428562465544
30
4E-16
41
1
10
-36.5
20
-17.9872703841193
30
-5E-16
41
1
10
-36.5
20
-17.827069915531
30
-5E-16
41
1
10
-36.5
20
-17.7052052466277
30
-5E-16
41
1
10
-36.5
20
-17.5814422063202
30
-5E-16
41
1
10
-36.5
20
-17.4136313821348
30
-5E-16
41
1
10
-36.5
20
-17.2428947983014
30
-5E-16
41
1
10
-36.5
20
-17.0675955495037
30
-5E-16
41
1
10
-36.5
20
-16.9344844206004
30
-5E-16
41
1
10
-36.5
20
-16.7995343923805
30
-5E-16
41
1
10
-36.5
20
-16.6168608854212
30
-5E-16
41
1
10
-36.5
20
-16.4314450331352
30
-5E-16
41
1
10
-36.5
20
-16.241498813278
30
-5E-16
41
1
10
-36.5
20
-16.0974737380165
30
-5E-16
41
1
10
-36.5
20
-15.9516609547094
30
-5E-16
41
1
10
-36.5
20
-15.7545451164335
30
-5E-16
41
1
10
-36.5
20
-15.5548624364723
30
-5E-16
41
1
10
-36.5
20
-15.3506631330603
30
-5E-16
41
1
10
-36.5
20
-15.1960147192182
30
-5E-16
41
1
10
-36.5
20
-15.0396227184095
30
-5E-16
41
1
10
-36.5
20
-14.8284315021107
30
-5E-16
41
1
10
-36.5
20
-14.6148460432235
30
-5E-16
41
1
10
-36.5
20
-14.3967384349214
30
-5E-16
41
1
10
-36.5
20
-14.176348576809
30
-5E-16
41
1
10
-36.5
20
-13.9536769173599
30
-5E-16
41
1
10
-36.5
20
-13.7264696827894
30
-5E-16
41
1
10
-36.5
20
-13.5546713888901
30
-5E-16
41
1
10
-36.5
20
-13.3811911431361
30
-5E-16
41
1
10
-36.5
20
-13.2060373895955
30
-5E-16
41
1
10
-36.5
20
-13.0292149436136
30
-5E-16
41
1
10
-36.5
20
-12.8507281979538
30
-5E-16
41
1
10
-36.5
20
-12.6705857704289
30
-5E-16
41
1
10
-36.5
20
-12.4887913848281
30
1.3E-15
41
1
10
-36.5
20
-12.3053503320752
30
1.3E-15
41
1
10
-36.5
20
-12.1202707134412
30
1.3E-15
41
1
10
-36.5
20
-11.9335556252714
30
1.3E-15
41
1
10
-36.5
20
-11.6819759007756
30
1.3E-15
41
1
10
-36.5
20
-11.4285504962004
30
1.3E-15
41
1
10
-36.5
20
-11.1704660987636
30
1.3E-15
41
1
10
-36.5
20
-10.9756652058486
30
1.3E-15
41
1
10
-36.5
20
-10.7792636942327
30
1.3E-15
41
1
10
-36.5
20
-10.5812696339219
30
1.3E-15
41
1
10
-36.5
20
-10.3816870614505
30
1.3E-15
41
1
10
-36.5
20
-10.18052371466
30
1.3E-15
41
1
10
-36.5
20
-9.97778564072317
30
1.3E-15
41
1
10
-36.5
20
-9.70483575174822
30
1.3E-15
41
1
10
-36.5
20
-9.36101273737586
30
1.3E-15
41
1
10
-36.5
20
-8.94153442741853
30
1.3E-15
41
1
10
-36.5
20
-8.58745782596952
30
1.3E-15
41
1
10
-36.5
20
-8.30004452993893
30
1.3E-15
41
1
10
-36.5
20
-8.08346945831602
30
1.3E-15
41
1
10
-36.5
20
-7.86540128403743
30
1.3E-15
41
1
10
-36.5
20
-7.64585158611581
30
1.3E-15
41
1
10
-36.5
20
-7.42483229470756
30
1.3E-15
41
1
10
-36.5
20
-7.20235684280954
30
1.3E-15
41
1
10
-36.5
20
-6.97843834484934
30
1.3E-15
41
1
10
-36.5
20
-6.75309051279777
30
1.3E-15
41
1
10
-36.5
20
-6.52633051401983
30
1.3E-15
41
1
10
-36.5
20
-6.29817748211653
30
1.3E-15
41
1
10
-36.5
20
-6.06865017711209
30
1.3E-15
41
1
10
-36.5
20
-5.83776875015039
30
1.3E-15
41
1
10
-36.5
20
-5.6055565552935
30
1.3E-15
41
1
10
-36.5
20
-5.37203995090806
30
1.3E-15
41
1
10
-36.5
20
-5.1372458114655
30
1.3E-15
41
1
10
-36.5
20
-4.90120586463618
30
1.3E-15
41
1
10
-36.5
20
-4.70396584910503
30
1.3E-15
41
1
10
-36.5
20
-4.54469650094606
30
1.3E-15
41
1
10
-36.5
20
-4.42534006396792
30
1.3E-15
41
1
10
-36.5
20
-4.30569969171859
30
1.3E-15
41
1
10
-36.5
20
-4.14529326648051
30
1.3E-15
41
1
10
-36.5
20
-3.94531869048151
30
1.3E-15
41
1
10
-36.5
20
-3.74444967050349
30
1.3E-15
41
1
10
-36.5
20
-3.58224072191865
30
1.3E-15
41
1
10
-36.5
20
-3.46078948211164
30
1.3E-15
41
1
10
-36.5
20
-3.33910698167958
30
1.3E-15
41
1
10
-36.5
20
-3.17597095993784
30
1.3E-15
41
1
10
-36.5
20
-3.01425656877106
30
1.3E-15
41
1
10
-36.5
20
-2.8502314065623
30
1.3E-15
41
1
10
-36.5
20
-2.72752148004804
30
1.3E-15
41
1
10
-36.5
20
-2.60463057106841
30
1.3E-15
41
1
10
-36.5
20
-2.48157389743918
30
1.3E-15
41
1
10
-36.5
20
-2.3583562279822
30
1.3E-15
41
1
10
-36.5
20
-2.2349905278607
30
1.3E-15
41
1
10
-36.5
20
-2.11148756075909
30
1.3E-15
41
1
10
-36.5
20
-1.98785458048855
30
1.3E-15
41
1
10
-36.5
20
-1.86410640329151
30
1.3E-15
41
1
10
-36.5
20
-1.7402482546413
30
1.3E-15
41
1
10
-36.5
20
-1.61629518356963
30
1.3E-15
41
1
10
-36.5
20
-1.49225310642996
30
1.3E-15
41
1
10
-36.5
20
-1.36813486147517
30
1.3E-15
41
1
10
-36.5
20
-1.24394734076813
30
1.3E-15
41
1
10
-36.5
20
-1.11970111692671
30
1.3E-15
41
1
10
-36.5
20
-0.995403468230791
30
1.3E-15
41
1
10
-36.5
20
-0.871062970095124
30
1.3E-15
41
1
10
-36.5
20
-0.746686131491799
30
1.3E-15
41
1
10
-36.5
20
-0.622280094010847
30
1.3E-15
41
1
10
-36.5
20
-0.497850400790554
30
1.3E-15
41
1
10
-36.5
20
-0.373402960091397
30
1.3E-15
41
1
10
-36.5
20
-0.248942266430618
30
1.3E-15
41
1
10
-36.5
20
-0.124473254673973
30
1.3E-15
41
1
10
-36.5
20
9.2462358E-09
30
1.3E-15
41
1
10
-36.5
20
0.124473257200918
30
1.3E-15
41
1
10
-36.5
20
0.248942238793148
30
1.3E-15
41
1
10
-36.5
20
0.373402935182185
30
1.3E-15
41
1
10
-36.5
20
0.497850420758397
30
1.3E-15
41
1
10
-36.5
20
0.622280124115576
30
1.3E-15
41
1
10
-36.5
20
0.746686102657719
30
1.3E-15
41
1
10
-36.5
20
0.8710629170684
30
1.3E-15
41
1
10
-36.5
20
0.995403485642782
30
1.3E-15
41
1
10
-36.5
20
1.11970117534864
30
1.3E-15
41
1
10
-36.5
20
1.2439473222278
30
1.3E-15
41
1
10
-36.5
20
1.3681347814894
30
1.3E-15
41
1
10
-36.5
20
1.49225310041959
30
1.3E-15
41
1
10
-36.5
20
1.61629526151512
30
1.3E-15
41
1
10
-36.5
20
1.74024827700825
30
1.3E-15
41
1
10
-36.5
20
1.86410632124094
30
1.3E-15
41
1
10
-36.5
20
1.9878545152765
30
1.3E-15
41
1
10
-36.5
20
2.11148761081347
30
1.3E-15
41
1
10
-36.5
20
2.23499061660055
30
1.3E-15
41
1
10
-36.5
20
2.35835621123036
30
1.3E-15
41
1
10
-36.5
20
2.48157378937663
30
1.3E-15
41
1
10
-36.5
20
2.60463052157442
30
1.3E-15
41
1
10
-36.5
20
2.72752154931175
30
1.3E-15
41
1
10
-36.5
20
2.85023149996007
30
1.3E-15
41
1
10
-36.5
20
3.01425651604552
30
1.3E-15
41
1
10
-36.5
20
3.17597085922341
30
1.3E-15
41
1
10
-36.5
20
3.33910702605107
30
1.3E-15
41
1
10
-36.5
20
3.46078958963511
30
1.3E-15
41
1
10
-36.5
20
3.58224076117995
30
1.3E-15
41
1
10
-36.5
20
3.74444957084984
30
1.3E-15
41
1
10
-36.5
20
3.94531865595207
30
1.3E-15
41
1
10
-36.5
20
4.14529336499854
30
1.3E-15
41
1
10
-36.5
20
4.30569972295402
30
1.3E-15
41
1
10
-36.5
20
4.42533999597057
30
1.3E-15
41
1
10
-36.5
20
4.54469638576828
30
1.3E-15
41
1
10
-36.5
20
4.70396583147402
30
1.3E-15
41
1
10
-36.5
20
4.90120595303733
30
1.3E-15
41
1
10
-36.5
20
5.13724579696881
30
1.3E-15
41
1
10
-36.5
20
5.37203985998678
30
1.3E-15
41
1
10
-36.5
20
5.60555660448861
30
1.3E-15
41
1
10
-36.5
20
5.83776884649418
30
1.3E-15
41
1
10
-36.5
20
6.06865022444896
30
1.3E-15
41
1
10
-36.5
20
6.29817753233076
30
1.3E-15
41
1
10
-36.5
20
6.52633035082275
30
1.3E-15
41
1
10
-36.5
20
6.75308981071325
30
1.3E-15
41
1
10
-36.5
20
6.97843755879967
30
1.3E-15
41
1
10
-36.5
20
7.20235735193418
30
1.3E-15
41
1
10
-36.5
20
7.42483318088833
30
1.3E-15
41
1
10
-36.5
20
7.64585131899614
30
1.3E-15
41
1
10
-36.5
20
7.86540102208471
30
1.3E-15
41
1
10
-36.5
20
8.08346950394392
30
1.3E-15
41
1
10
-36.5
20
8.30004464023602
30
1.3E-15
41
1
10
-36.5
20
8.58745787193689
30
1.3E-15
41
1
10
-36.5
20
8.94153438933262
30
1.3E-15
41
1
10
-36.5
20
9.36101276272154
30
1.3E-15
41
1
10
-36.5
20
9.70483576808863
30
1.3E-15
41
1
10
-36.5
20
9.97778558435027
30
1.3E-15
41
1
10
-36.5
20
10.180523710493
30
1.3E-15
41
1
10
-36.5
20
10.3816871154457
30
1.3E-15
41
1
10
-36.5
20
10.5812696725585
30
1.3E-15
41
1
10
-36.5
20
10.7792636737398
30
1.3E-15
41
1
10
-36.5
20
10.9756651586938
30
1.3E-15
41
1
10
-36.5
20
11.1704660874499
30
1.3E-15
41
1
10
-36.5
20
11.4285505376587
30
1.3E-15
41
1
10
-36.5
20
11.6819759204348
30
1.3E-15
41
1
10
-36.5
20
11.9335555855444
30
1.3E-15
41
1
10
-36.5
20
12.1202706879328
30
1.3E-15
41
1
10
-36.5
20
12.3053503484466
30
1.3E-15
41
1
10
-36.5
20
12.4887914218501
30
1.3E-15
41
1
10
-36.5
20
12.6705857874604
30
-5E-16
41
1
10
-36.5
20
12.850728177302
30
-5E-16
41
1
10
-36.5
20
13.0292149133303
30
-5E-16
41
1
10
-36.5
20
13.2060373742644
30
-5E-16
41
1
10
-36.5
20
13.3811910773122
30
-5E-16
41
1
10
-36.5
20
13.5546710496343
30
-5E-16
41
1
10
-36.5
20
13.7264689694465
30
-5E-16
41
1
10
-36.5
20
13.8965816080865
30
-5E-16
41
1
10
-36.5
20
14.0650028858775
30
-5E-16
41
1
10
-36.5
20
14.2317235183089
30
-5E-16
41
1
10
-36.5
20
14.3690494022437
30
-5E-16
41
1
10
-36.5
20
14.4783873813363
30
-5E-16
41
1
10
-36.5
20
14.5871530954062
30
-5E-16
41
1
10
-36.5
20
14.7216281332594
30
-5E-16
41
1
10
-36.5
20
14.8814910451208
30
-5E-16
41
1
10
-36.5
20
15.0130920883853
30
-5E-16
41
1
10
-36.5
20
15.1178164480938
30
-5E-16
41
1
10
-36.5
20
15.2219600388738
30
-5E-16
41
1
10
-36.5
20
15.350663385132
30
-5E-16
41
1
10
-36.5
20
15.5548613446891
30
-5E-16
41
1
10
-36.5
20
15.7545445351489
30
-5E-16
41
1
10
-36.5
20
15.9516616651348
30
-5E-16
41
1
10
-36.5
20
16.097474719741
30
-5E-16
41
1
10
-36.5
20
16.2414991337765
30
-5E-16
41
1
10
-36.5
20
16.4314438788638
30
-5E-16
41
1
10
-36.5
20
16.6168596157572
30
-5E-16
41
1
10
-36.5
20
16.7765898513273
30
-5E-16
41
1
10
-36.5
20
16.867008999151
30
-5E-16
41
1
10
-36.5
20
16.9568152899196
30
-5E-16
41
1
10
-36.5
20
17.0675963011876
30
-5E-16
41
1
10
-36.5
20
17.2428939764416
30
-5E-16
41
1
10
-36.5
20
17.4136311437529
30
-5E-16
41
1
10
-36.5
20
17.5814423770725
30
-5E-16
41
1
10
-36.5
20
17.705205542109
30
-5E-16
41
1
10
-36.5
20
17.8270700659299
30
-5E-16
41
1
10
-36.5
20
17.987269645424
30
-5E-16
41
1
10
-36.5
20
18.1428549391526
30
4E-16
41
1
10
-36.5
20
18.2761667145511
30
4E-16
41
1
10
-36.5
20
18.3514175898237
30
4E-16
41
1
10
-36.5
20
18.4260133905722
30
4E-16
41
1
10
-36.5
20
18.5177544284038
30
4E-16
41
1
10
-36.5
20
18.6623317385554
30
4E-16
41
1
10
-36.5
20
18.8022215100789
30
4E-16
41
1
10
-36.5
20
18.9387689752275
30
4E-16
41
1
10
-36.5
20
19.0389746878943
30
4E-16
41
1
10
-36.5
20
19.1371346902892
30
4E-16
41
1
10
-36.5
20
19.2332338822713
30
4E-16
41
1
10
-36.5
20
19.3272561697677
30
4E-16
41
1
10
-36.5
20
19.4191882696517
30
4E-16
41
1
10
-36.5
20
19.5090135394173
30
4E-16
41
1
10
-36.5
20
19.5967148149262
30
4E-16
41
1
10
-36.5
20
19.6822775189499
30
4E-16
41
1
10
-36.5
20
19.7656833730651
30
0
41
1
10
-36.5
20
19.8469141355251
30
0
41
1
10
-36.5
20
19.9259535572617
30
0
41
1
10
-36.5
20
20.0027815031752
30
0
41
1
10
-36.5
20
20.1024192722933
30
0
41
1
10
-36.5
20
20.1970436182683
30
0
41
1
10
-36.5
20
20.2875896826626
30
0
41
1
10
-36.5
20
20.3530628196555
30
0
41
1
10
-36.5
20
20.4161995895792
30
0
41
1
10
-36.5
20
20.4769783324059
30
0
41
1
10
-36.5
20
20.5353747251341
30
0
41
1
10
-36.5
20
20.6101652524536
30
0
41
1
10
-36.5
20
20.6796864194097
30
0
41
1
10
-36.5
20
20.7446291690672
30
0
41
1
10
-36.5
20
20.7907267804185
30
0
41
1
10
-36.5
20
20.8342802658871
30
0
41
1
10
-36.5
20
20.8890285612071
30
0
41
1
10
-36.5
20
20.950713074722
30
0
41
1
10
-36.5
20
21.0141777773224
30
0
41
1
10
-36.5
20
21.0578537406018
30
0
41
1
10
-36.5
20
21.0872797426226
30
0
41
1
10
-36.5
20
21.1064402158535
30
0
41
1
10
-36.5
20
21.1226986497682
30
0
41
1
10
-36.5
20
21.1360112678938
30
0
41
1
10
-36.5
20
21.1463317213717
30
0
41
1
10
-36.5
20
21.1536126358382
30
0
41
1
10
-36.5
20
21.1578038223016
30
0
41
1
10
-36.5
20
21.1588544331657
30
4E-16
41
1
10
-36.5
20
21.1573192178242
30
4E-16
41
1
10
-36.5
20
21.1557860704675
30
4E-16
41
1
10
-36.5
20
21.1555780038298
30
4E-16
0
SPLINE
5
DA
100
AcDbEntity
8
SK1
62
256
6
ByLayer
370
13
48
1
60
0
100
AcDbSpline
70
4
71
3
72
111
73
107
40
0
40
0
40
0
40
0
40
0.0075759110641494
40
0.0161113861193634
40
0.0246468611745774
40
0.0331823362297914
40
0.0417178112850054
40
0.0502532863402194
40
0.0587887613954333
40
0.0673242364506473
40
0.0758597115058613
40
0.0843951865610753
40
0.0929306616162893
40
0.101466136671503
40
0.118537086781931
40
0.127072561837145
40
0.135608036892359
40
0.144143511947573
40
0.152678987002787
40
0.169749937113215
40
0.178285412168429
40
0.186820887223643
40
0.195356362278857
40
0.203891837334071
40
0.212427312389285
40
0.220962787444499
40
0.238033737554927
40
0.246569212610141
40
0.255104687665355
40
0.263640162720569
40
0.272175637775783
40
0.280711112830997
40
0.289246587886211
40
0.297782062941425
40
0.306317537996639
40
0.314853013051853
40
0.323388488107067
40
0.331923963162281
40
0.340459438217495
40
0.348994913272709
40
0.357530388327923
40
0.374601338438351
40
0.383136813493565
40
0.391672288548779
40
0.400207763603993
40
0.408743238659207
40
0.425814188769635
40
0.434349663824849
40
0.442885138880062
40
0.451420613935276
40
0.459956088990491
40
0.477027039100918
40
0.485562514156133
40
0.494097989211346
40
0.50263346426656
40
0.511168939321774
40
0.528239889432202
40
0.536775364487416
40
0.54531083954263
40
0.553846314597844
40
0.562381789653058
40
0.579452739763486
40
0.5879882148187
40
0.596523689873914
40
0.605059164929128
40
0.613594639984342
40
0.63066559009477
40
0.639201065149984
40
0.647736540205198
40
0.664807490315626
40
0.67334296537084
40
0.681878440426054
40
0.690413915481268
40
0.698949390536482
40
0.707484865591696
40
0.71602034064691
40
0.724555815702124
40
0.733091290757338
40
0.741626765812552
40
0.750162240867766
40
0.75869771592298
40
0.767233190978194
40
0.784304141088622
40
0.792839616143836
40
0.80137509119905
40
0.809910566254264
40
0.818446041309478
40
0.826981516364692
40
0.835516991419906
40
0.84405246647512
40
0.852587941530334
40
0.869658891640762
40
0.88672984175119
40
0.903800791861618
40
0.912336266916832
40
0.920871741972046
40
0.929407217027259
40
0.937942692082473
40
0.946478167137688
40
0.955013642192902
40
0.963549117248115
40
0.97208459230333
40
0.980620067358543
40
0.989155542413757
40
0.997691017468971
40
1
40
1
40
1
40
1
41
1
10
-0.394976888875277
20
-21.865379179165
30
0
41
1
10
-0.394976888875277
20
-21.8654370606275
30
0
41
1
10
-0.394976888875277
20
-21.8646396727383
30
0
41
1
10
-0.394976888875277
20
-21.8604739519412
30
0
41
1
10
-0.394976888875277
20
-21.8529599173647
30
0
41
1
10
-0.394976888875277
20
-21.8423149132633
30
0
41
1
10
-0.394976888875277
20
-21.8285907189997
30
0
41
1
10
-0.394976888875277
20
-21.8118377637545
30
0
41
1
10
-0.394976888875277
20
-21.7921034780961
30
0
41
1
10
-0.394976888875277
20
-21.7694337460976
30
0
41
1
10
-0.394976888875277
20
-21.7438726893518
30
0
41
1
10
-0.394976888875277
20
-21.7154617242468
30
0
41
1
10
-0.394976888875277
20
-21.6842420425293
30
0
41
1
10
-0.394976888875277
20
-21.6389063892513
30
0
41
1
10
-0.394976888875277
20
-21.5881524005931
30
0
41
1
10
-0.394976888875277
20
-21.5320229383892
30
0
41
1
10
-0.394976888875277
20
-21.4873093096751
30
0
41
1
10
-0.394976888875277
20
-21.4399968999807
30
0
41
1
10
-0.394976888875277
20
-21.3734709318986
30
0
41
1
10
-0.394976888875277
20
-21.301932078811
30
0
41
1
10
-0.394976888875277
20
-21.2253665102307
30
0
41
1
10
-0.394976888875277
20
-21.1655031751743
30
0
41
1
10
-0.394976888875277
20
-21.1032108820957
30
0
41
1
10
-0.394976888875277
20
-21.0385142950144
30
0
41
1
10
-0.394976888875277
20
-20.9714365096391
30
0
41
1
10
-0.394976888875277
20
-20.8788308931333
30
0
41
1
10
-0.394976888875277
20
-20.781635486227
30
0
41
1
10
-0.394976888875277
20
-20.6797749513881
30
0
41
1
10
-0.394976888875277
20
-20.6011280559991
30
0
41
1
10
-0.394976888875277
20
-20.5202292348052
30
0
41
1
10
-0.394976888875277
20
-20.437098129367
30
0
41
1
10
-0.394976888875277
20
-20.3517517880635
30
0
41
1
10
-0.394976888875277
20
-20.264209431984
30
0
41
1
10
-0.394976888875277
20
-20.1744885559187
30
0
41
1
10
-0.394976888875277
20
-20.082604778142
30
0
41
1
10
-0.394976888875277
20
-19.988575861591
30
0
41
1
10
-0.394976888875277
20
-19.8924174211231
30
0
41
1
10
-0.394976888875277
20
-19.7941438028822
30
0
41
1
10
-0.394976888875277
20
-19.6937719762305
30
0
41
1
10
-0.394976888875277
20
-19.5913159811741
30
0
41
1
10
-0.394976888875277
20
-19.4519098709686
30
0
41
1
10
-0.394976888875277
20
-19.3085018143331
30
0
41
1
10
-0.394976888875277
20
-19.1609196079758
30
0
41
1
10
-0.394976888875277
20
-19.048244884465
30
0
41
1
10
-0.394976888875277
20
-18.933565131357
30
0
41
1
10
-0.394976888875277
20
-18.7779598884918
30
0
41
1
10
-0.394976888875277
20
-18.6185132745736
30
0
41
1
10
-0.394976888875277
20
-18.4550234389153
30
0
41
1
10
-0.394976888875277
20
-18.3304892054167
30
0
41
1
10
-0.394976888875277
20
-18.2040166330947
30
0
41
1
10
-0.394976888875277
20
-18.0327708145484
30
0
41
1
10
-0.394976888875277
20
-17.8578220601067
30
0
41
1
10
-0.394976888875277
20
-17.6789377757623
30
0
41
1
10
-0.394976888875277
20
-17.5429190217058
30
0
41
1
10
-0.394976888875277
20
-17.4050188999402
30
0
41
1
10
-0.394976888875277
20
-17.2186059445175
30
0
41
1
10
-0.394976888875277
20
-17.0286080073569
30
0
41
1
10
-0.394976888875277
20
-16.8347642769002
30
0
41
1
10
-0.394976888875277
20
-16.6875782011067
30
0
41
1
10
-0.394976888875277
20
-16.5385587125243
30
0
41
1
10
-0.394976888875277
20
-16.3373780173449
30
0
41
1
10
-0.394976888875277
20
-16.1327154012234
30
0
41
1
10
-0.394976888875277
20
-15.9242799594928
30
0
41
1
10
-0.394976888875277
20
-15.7661946363952
30
0
41
1
10
-0.394976888875277
20
-15.6063159613101
30
0
41
1
10
-0.394976888875277
20
-15.3907043201103
30
0
41
1
10
-0.394976888875277
20
-15.171701411915
30
0
41
1
10
-0.394976888875277
20
-14.9489833053404
30
0
41
1
10
-0.394976888875277
20
-14.7239127068147
30
0
41
1
10
-0.394976888875277
20
-14.4955025482493
30
0
41
1
10
-0.394976888875277
20
-14.2634098807097
30
0
41
1
10
-0.394976888875277
20
-14.0876421688895
30
0
41
1
10
-0.394976888875277
20
-13.910133867705
30
0
41
1
10
-0.394976888875277
20
-13.7308904478326
30
0
41
1
10
-0.394976888875277
20
-13.5499151547097
30
0
41
1
10
-0.394976888875277
20
-13.3672125455487
30
0
41
1
10
-0.394976888875277
20
-13.182787448996
30
0
41
1
10
-0.394976888875277
20
-12.9966426041155
30
0
41
1
10
-0.394976888875277
20
-12.8087826250924
30
0
41
1
10
-0.394976888875277
20
-12.6192114874981
30
0
41
1
10
-0.394976888875277
20
-12.4279318067111
30
0
41
1
10
-0.394976888875277
20
-12.1705475695385
30
0
41
1
10
-0.394976888875277
20
-11.9099848253352
30
0
41
1
10
-0.394976888875277
20
-11.6458042976885
30
0
41
1
10
-0.394976888875277
20
-11.4460361162834
30
0
41
1
10
-0.394976888875277
20
-11.2445799004538
30
0
41
1
10
-0.394976888875277
20
-11.0414388905992
30
0
41
1
10
-0.394976888875277
20
-10.8366153667066
30
0
41
1
10
-0.394976888875277
20
-10.6301131683678
30
0
41
1
10
-0.394976888875277
20
-10.4219344727077
30
0
41
1
10
-0.394976888875277
20
-10.142045462177
30
0
41
1
10
-0.394976888875277
20
-9.78821091217483
30
0
41
1
10
-0.394976888875277
20
-9.35683912175983
30
0
41
1
10
-0.394976888875277
20
-8.99192948127941
30
0
41
1
10
-0.394976888875277
20
-8.69651811258549
30
0
41
1
10
-0.394976888875277
20
-8.47338951886385
30
0
41
1
10
-0.394976888875277
20
-8.24861635560848
30
0
41
1
10
-0.394976888875277
20
-8.02220293401996
30
0
41
1
10
-0.394976888875277
20
-7.79415340272945
30
0
41
1
10
-0.394976888875277
20
-7.56447269448574
30
0
41
1
10
-0.394976888875277
20
-7.33316546385933
30
0
41
1
10
-0.394976888875277
20
-7.10023740586411
30
0
41
1
10
-0.394976888875277
20
-6.8656950488801
30
0
41
1
10
-0.394976888875277
20
-6.62954555948869
30
0
41
1
10
-0.394976888875277
20
-6.44960775400912
30
0
41
1
10
-0.394976888875277
20
-6.3484916311391
30
0
41
1
10
-0.394976888875277
20
-6.32694279392976
30
0
0
SPLINE
5
DB
100
AcDbEntity
8
SK1
62
256
6
ByLayer
370
13
48
1
60
0
100
AcDbSpline
70
4
71
3
72
115
73
111
40
0
40
0
40
0
40
0
40
0.002308942390262
40
0.0108443056303405
40
0.0193796688704189
40
0.0279150321104974
40
0.0364503953505758
40
0.0449857585906543
40
0.0535211218307327
40
0.0620564850708112
40
0.0705918483108896
40
0.0791272115509681
40
0.0876625747910465
40
0.096197938031125
40
0.113268664511282
40
0.130339390991439
40
0.147410117471596
40
0.155945480711674
40
0.164480843951753
40
0.173016207191831
40
0.181551570431909
40
0.190086933671988
40
0.198622296912066
40
0.207157660152145
40
0.215693023392223
40
0.23276374987238
40
0.241299113112459
40
0.249834476352537
40
0.258369839592616
40
0.266905202832694
40
0.275440566072772
40
0.283975929312851
40
0.292511292552929
40
0.301046655793008
40
0.309582019033086
40
0.318117382273165
40
0.326652745513243
40
0.335188108753322
40
0.3437234719934
40
0.352258835233479
40
0.360794198473557
40
0.365061880093596
40
0.369329561713635
40
0.377864924953714
40
0.386400288193792
40
0.394935651433871
40
0.39920333305391
40
0.403471014673949
40
0.412006377914028
40
0.420541741154106
40
0.437612467634263
40
0.446147830874341
40
0.45468319411442
40
0.463218557354498
40
0.471753920594577
40
0.488824647074734
40
0.497360010314812
40
0.501627691934851
40
0.505895373554891
40
0.514430736794969
40
0.522966100035048
40
0.540036826515204
40
0.548572189755283
40
0.557107552995361
40
0.56564291623544
40
0.574178279475518
40
0.591249005955675
40
0.599784369195753
40
0.604052050815793
40
0.608319732435832
40
0.61685509567591
40
0.625390458915989
40
0.642461185396146
40
0.650996548636224
40
0.659531911876303
40
0.668067275116381
40
0.67660263835646
40
0.685138001596538
40
0.693673364836616
40
0.702208728076695
40
0.710744091316773
40
0.719279454556852
40
0.72781481779693
40
0.736350181037009
40
0.744885544277087
40
0.753420907517166
40
0.761956270757244
40
0.779026997237401
40
0.787562360477479
40
0.796097723717558
40
0.804633086957636
40
0.813168450197715
40
0.821703813437793
40
0.830239176677872
40
0.847309903158028
40
0.855845266398107
40
0.864380629638185
40
0.872915992878264
40
0.881451356118342
40
0.898522082598499
40
0.915592809078656
40
0.932663535558813
40
0.941198898798891
40
0.94973426203897
40
0.958269625279048
40
0.966804988519127
40
0.975340351759205
40
0.983875714999284
40
0.992411078239362
40
1
40
1
40
1
40
1
41
1
10
-0.394976888875277
20
6.32694309067119
30
0
41
1
10
-0.394976888875277
20
6.34849183540922
30
0
41
1
10
-0.394976888875277
20
6.44960786563362
30
0
41
1
10
-0.394976888875277
20
6.62954558311137
30
0
41
1
10
-0.394976888875277
20
6.86569504295815
30
0
41
1
10
-0.394976888875277
20
7.10023725398264
30
0
41
1
10
-0.394976888875277
20
7.33316516004027
30
0
41
1
10
-0.394976888875277
20
7.56447255210355
30
0
41
1
10
-0.394976888875277
20
7.79415362199521
30
0
41
1
10
-0.394976888875277
20
8.0222029406992
30
0
41
1
10
-0.394976888875277
20
8.24861627222975
30
0
41
1
10
-0.394976888875277
20
8.47338949471808
30
0
41
1
10
-0.394976888875277
20
8.69651812098675
30
0
41
1
10
-0.394976888875277
20
8.99192950801697
30
0
41
1
10
-0.394976888875277
20
9.3568391135907
30
0
41
1
10
-0.394976888875277
20
9.78821091215369
30
0
41
1
10
-0.394976888875277
20
10.1420454829465
30
0
41
1
10
-0.394976888875277
20
10.4219344610486
30
0
41
1
10
-0.394976888875277
20
10.630113157504
30
0
41
1
10
-0.394976888875277
20
10.8366153761928
30
0
41
1
10
-0.394976888875277
20
11.0414389105764
30
0
41
1
10
-0.394976888875277
20
11.2445799083311
30
0
41
1
10
-0.394976888875277
20
11.4460361066677
30
0
41
1
10
-0.394976888875277
20
11.6458042855523
30
0
41
1
10
-0.394976888875277
20
11.9099848332047
30
0
41
1
10
-0.394976888875277
20
12.1705475891153
30
0
41
1
10
-0.394976888875277
20
12.4279318017785
30
0
41
1
10
-0.394976888875277
20
12.6192114742801
30
0
41
1
10
-0.394976888875277
20
12.8087826212334
30
0
41
1
10
-0.394976888875277
20
12.9966426140257
30
0
41
1
10
-0.394976888875277
20
13.182787463215
30
0
41
1
10
-0.394976888875277
20
13.3672125481811
30
0
41
1
10
-0.394976888875277
20
13.549915145406
30
0
41
1
10
-0.394976888875277
20
13.7308904366346
30
0
41
1
10
-0.394976888875277
20
13.9101338497815
30
0
41
1
10
-0.394976888875277
20
14.0876420714538
30
0
41
1
10
-0.394976888875277
20
14.2634095816694
30
0
41
1
10
-0.394976888875277
20
14.4374320816019
30
0
41
1
10
-0.394976888875277
20
14.6097059483473
30
0
41
1
10
-0.394976888875277
20
14.7802248596231
30
0
41
1
10
-0.394976888875277
20
14.9208273816877
30
0
41
1
10
-0.394976888875277
20
15.0324801920763
30
0
41
1
10
-0.394976888875277
20
15.1435436982815
30
0
41
1
10
-0.394976888875277
20
15.2812010193763
30
0
41
1
10
-0.394976888875277
20
15.4446487492657
30
0
41
1
10
-0.394976888875277
20
15.5793432837569
30
0
41
1
10
-0.394976888875277
20
15.6862549949744
30
0
41
1
10
-0.394976888875277
20
15.7925696820839
30
0
41
1
10
-0.394976888875277
20
15.9242804112408
30
0
41
1
10
-0.394976888875277
20
16.1327150774874
30
0
41
1
10
-0.394976888875277
20
16.3373774066279
30
0
41
1
10
-0.394976888875277
20
16.5385587049943
30
0
41
1
10
-0.394976888875277
20
16.6875786248762
30
0
41
1
10
-0.394976888875277
20
16.8347647509306
30
0
41
1
10
-0.394976888875277
20
17.0286078387926
30
0
41
1
10
-0.394976888875277
20
17.2186048360495
30
0
41
1
10
-0.394976888875277
20
17.3816993239948
30
0
41
1
10
-0.394976888875277
20
17.4739690253912
30
0
41
1
10
-0.394976888875277
20
17.5656125946474
30
0
41
1
10
-0.394976888875277
20
17.6789387292296
30
0
41
1
10
-0.394976888875277
20
17.8578219077773
30
0
41
1
10
-0.394976888875277
20
18.0327705937831
30
0
41
1
10
-0.394976888875277
20
18.2040166079408
30
0
41
1
10
-0.394976888875277
20
18.330489335967
30
0
41
1
10
-0.394976888875277
20
18.4550236113311
30
0
41
1
10
-0.394976888875277
20
18.6185131846482
30
0
41
1
10
-0.394976888875277
20
18.777958735224
30
0
41
1
10
-0.394976888875277
20
18.9140993494365
30
0
41
1
10
-0.394976888875277
20
18.9909051568102
30
0
41
1
10
-0.394976888875277
20
19.0670441229991
30
0
41
1
10
-0.394976888875277
20
19.160920630363
30
0
41
1
10
-0.394976888875277
20
19.308501644014
30
0
41
1
10
-0.394976888875277
20
19.4519091739392
30
0
41
1
10
-0.394976888875277
20
19.5913158900225
30
0
41
1
10
-0.394976888875277
20
19.6937723311917
30
0
41
1
10
-0.394976888875277
20
19.79414426657
30
0
41
1
10
-0.394976888875277
20
19.8924175863555
30
0
41
1
10
-0.394976888875277
20
19.9885758834751
30
0
41
1
10
-0.394976888875277
20
20.082604770276
30
0
41
1
10
-0.394976888875277
20
20.1744885542463
30
0
41
1
10
-0.394976888875277
20
20.2642094206366
30
0
41
1
10
-0.394976888875277
20
20.3517517634561
30
0
41
1
10
-0.394976888875277
20
20.4370981008412
30
0
41
1
10
-0.394976888875277
20
20.5202292190253
30
0
41
1
10
-0.394976888875277
20
20.6011280536546
30
0
41
1
10
-0.394976888875277
20
20.6797749496461
30
0
41
1
10
-0.394976888875277
20
20.7816354627076
30
0
41
1
10
-0.394976888875277
20
20.8788308563806
30
0
41
1
10
-0.394976888875277
20
20.9714364994015
30
0
41
1
10
-0.394976888875277
20
21.038514297088
30
0
41
1
10
-0.394976888875277
20
21.1032108723211
30
0
41
1
10
-0.394976888875277
20
21.1655031445011
30
0
41
1
10
-0.394976888875277
20
21.2253664719936
30
0
41
1
10
-0.394976888875277
20
21.3019320664004
30
0
41
1
10
-0.394976888875277
20
21.3734709387681
30
0
41
1
10
-0.394976888875277
20
21.4399968711307
30
0
41
1
10
-0.394976888875277
20
21.4873092663299
30
0
41
1
10
-0.394976888875277
20
21.5320229149808
30
0
41
1
10
-0.394976888875277
20
21.5881524120742
30
0
41
1
10
-0.394976888875277
20
21.651618462036
30
0
41
1
10
-0.394976888875277
20
21.7168668922192
30
0
41
1
10
-0.394976888875277
20
21.7618666429643
30
0
41
1
10
-0.394976888875277
20
21.7921034347989
30
0
41
1
10
-0.394976888875277
20
21.8118377229246
30
0
41
1
10
-0.394976888875277
20
21.8285907137819
30
0
41
1
10
-0.394976888875277
20
21.8423149188875
30
0
41
1
10
-0.394976888875277
20
21.8529598769268
30
0
41
1
10
-0.394976888875277
20
21.8604737650697
30
0
41
1
10
-0.394976888875306
20
21.8646415436383
30
0
41
1
10
-0.394976888875306
20
21.8654382786161
30
0
41
1
10
-0.394976888875306
20
21.865378916264
30
0
0
SPLINE
5
DC
100
AcDbEntity
8
SK1
62
256
6
ByLayer
370
18
48
1
60
0
100
AcDbSpline
70
4
71
3
72
26
73
22
40
0
40
0
40
0
40
0
40
0.25
40
0.25
40
0.500000000000001
40
0.500000000000001
40
0.625000000000002
40
0.625000000000002
40
0.687500000000001
40
0.687500000000001
40
0.750000000000001
40
0.750000000000001
40
0.812500000000001
40
0.812500000000001
40
0.875000000000001
40
0.875000000000001
40
0.906250000000001
40
0.906250000000001
40
0.937500000000001
40
0.937500000000001
40
1
40
1
40
1
40
1
41
1
10
-1.30710678118655
20
4.81101329740289
30
-1E-16
41
1
10
-1.27777674809065
20
4.97696208805669
30
-1E-16
41
1
10
-1.24449184372207
20
5.14110933888219
30
-1E-16
41
1
10
-1.16572403812288
20
5.46520409815253
30
-1E-16
41
1
10
-1.12041986952318
20
5.62560509654318
30
-1E-16
41
1
10
-1.03604034231242
20
5.85871268051361
30
-1E-16
41
1
10
-1.00514324915821
20
5.93523451486101
30
-1E-16
41
1
10
-0.951595196520486
20
6.04726373371713
30
-1E-16
41
1
10
-0.932528346395401
20
6.0841422654172
30
-1E-16
41
1
10
-0.890792591053469
20
6.15658914480713
30
-1E-16
41
1
10
-0.86800236553799
20
6.19240090738069
30
-1E-16
41
1
10
-0.817160575690565
20
6.26079505981266
30
-1E-16
41
1
10
-0.78943316382356
20
6.29319778625549
30
0
41
1
10
-0.724969179209722
20
6.35113158829384
30
0
41
1
10
-0.687361729545614
20
6.37733024516982
30
0
41
1
10
-0.622158748113947
20
6.39958064489676
30
0
41
1
10
-0.599752058371365
20
6.40383193252993
30
0
41
1
10
-0.553302263741188
20
6.40463597982043
30
0
41
1
10
-0.530550758270607
20
6.40110290558201
30
0
41
1
10
-0.464963827942824
20
6.38073633145459
30
0
41
1
10
-0.427743955231904
20
6.35579794481987
30
0
41
1
10
-0.394976888874737
20
6.32694309068151
30
0
0
SPLINE
5
DD
100
AcDbEntity
8
1
62
256
6
ByLayer
370
18
48
1
60
0
100
AcDbSpline
70
4
71
3
72
16
73
12
40
0
40
0
40
0
40
0
40
0.25
40
0.25
40
0.5
40
0.5
40
0.75
40
0.75
40
0.875
40
0.875
40
1
40
1
40
1
40
1
41
1
10
13.8943375672974
20
-9.86941261896621
30
9E-16
41
1
10
13.8787501654512
20
-9.81243201498808
30
8E-16
41
1
10
13.8600981524864
20
-9.7565502308297
30
8E-16
41
1
10
13.8145135903111
20
-9.64780841973393
30
8E-16
41
1
10
13.7875017792166
20
-9.59456078532611
30
8E-16
41
1
10
13.720820003123
20
-9.49465699870629
30
8E-16
41
1
10
13.6810618560869
20
-9.44778039735209
30
8E-16
41
1
10
13.6084081576259
20
-9.39323398486457
30
8E-16
41
1
10
13.5814155034803
20
-9.37745951316342
30
8E-16
41
1
10
13.5238105256953
20
-9.35548920253851
30
8E-16
41
1
10
13.4927587974109
20
-9.34922131452501
30
8E-16
41
1
10
13.4613248654052
20
-9.34922131452501
30
8E-16
0
SPLINE
5
DE
100
AcDbEntity
8
1
62
256
6
ByLayer
370
18
48
1
60
0
100
AcDbSpline
70
4
71
3
72
16
73
12
40
0
40
0
40
0
40
0
40
0.249999999999999
40
0.249999999999999
40
0.499999999999998
40
0.499999999999998
40
0.749999999999997
40
0.749999999999997
40
0.874999999999998
40
0.874999999999998
40
1
40
1
40
1
40
1
41
1
10
10.1056624327026
20
9.86941261896621
30
6E-16
41
1
10
10.1212498345487
20
9.81243201498808
30
6E-16
41
1
10
10.1399018475136
20
9.7565502308297
30
6E-16
41
1
10
10.1854864096889
20
9.64780841973396
30
6E-16
41
1
10
10.2124982207834
20
9.59456078532611
30
6E-16
41
1
10
10.279179996877
20
9.49465699870629
30
6E-16
41
1
10
10.3189381439131
20
9.44778039735212
30
6E-16
41
1
10
10.3915918423741
20
9.39323398486459
30
6E-16
41
1
10
10.4185844965197
20
9.37745951316344
30
6E-16
41
1
10
10.4761894743047
20
9.35548920253854
30
6E-16
41
1
10
10.5072412025891
20
9.34922131452507
30
6E-16
41
1
10
10.5386751345948
20
9.34922131452504
30
6E-16
0
SPLINE
5
DF
100
AcDbEntity
8
1
62
256
6
ByLayer
370
18
48
1
60
0
100
AcDbSpline
70
4
71
3
72
16
73
12
40
0
40
0
40
0
40
0
40
0.249999999999999
40
0.249999999999999
40
0.499999999999998
40
0.499999999999998
40
0.749999999999997
40
0.749999999999997
40
0.874999999999998
40
0.874999999999998
40
1
40
1
40
1
40
1
41
1
10
10.1056624327026
20
-29.9139548464691
30
6E-16
41
1
10
10.1212498345487
20
-29.9327542695084
30
6E-16
41
1
10
10.1399018475135
20
-29.9510098933136
30
6E-16
41
1
10
10.1854864096889
20
-29.9862144781928
30
6E-16
41
1
10
10.2124982207834
20
-30.0032856662985
30
6E-16
41
1
10
10.279179996877
20
-30.0350501233767
30
6E-16
41
1
10
10.3189381439131
20
-30.0498069467437
30
6E-16
41
1
10
10.3915918423741
20
-30.0668840803113
30
6E-16
41
1
10
10.4185844965197
20
-30.0718038277879
30
6E-16
41
1
10
10.4761894743047
20
-30.0786461490401
30
6E-16
41
1
10
10.5072412025891
20
-30.080592760317
30
6E-16
41
1
10
10.5386751345948
20
-30.0805927603169
30
6E-16
0
SPLINE
5
E0
100
AcDbEntity
8
1
62
256
6
ByLayer
370
18
48
1
60
0
100
AcDbSpline
70
4
71
3
72
16
73
12
40
0
40
0
40
0
40
0
40
0.125000000000001
40
0.125000000000001
40
0.250000000000003
40
0.250000000000003
40
0.500000000000002
40
0.500000000000002
40
0.750000000000001
40
0.750000000000001
40
1
40
1
40
1
40
1
41
1
10
13.4613248654052
20
9.3492213145251
30
8E-16
41
1
10
13.4928040273173
20
9.3492213145251
30
8E-16
41
1
10
13.5234304266402
20
9.35536120669454
30
8E-16
41
1
10
13.5815263070002
20
9.37748487924964
30
8E-16
41
1
10
13.6079581046676
20
9.39290424748307
30
8E-16
41
1
10
13.6817632688741
20
9.44829073160849
30
8E-16
41
1
10
13.7208296342407
20
9.49467220053413
30
8E-16
41
1
10
13.7874862877332
20
9.594536803469
30
8E-16
41
1
10
13.8142652669256
20
9.64728479257934
30
8E-16
41
1
10
13.8599440812239
20
9.75611455014877
30
8E-16
41
1
10
13.8787443055274
20
9.81241059371428
30
8E-16
41
1
10
13.8943375672975
20
9.86941261896621
30
9E-16
0
SPLINE
5
E1
100
AcDbEntity
8
1
62
256
6
ByLayer
370
18
48
1
60
0
100
AcDbSpline
70
4
71
3
72
16
73
12
40
0
40
0
40
0
40
0
40
0.125000000000001
40
0.125000000000001
40
0.250000000000001
40
0.250000000000001
40
0.500000000000001
40
0.500000000000001
40
0.75
40
0.75
40
1
40
1
40
1
40
1
41
1
10
10.5386751345948
20
30.0805927603169
30
6E-16
41
1
10
10.5071959726827
20
30.0805927603169
30
6E-16
41
1
10
10.4765695733597
20
30.078685990659
30
6E-16
41
1
10
10.4184736929998
20
30.0717959485601
30
6E-16
41
1
10
10.3920418953324
20
30.0669872793661
30
6E-16
41
1
10
10.3182367311259
20
30.049647240705
30
6E-16
41
1
10
10.2791703657593
20
30.0350452819075
30
6E-16
41
1
10
10.2125137122668
20
30.0032932993814
30
6E-16
41
1
10
10.1857347330744
20
29.9863830332716
30
6E-16
41
1
10
10.1400559187761
20
29.9511519005795
30
6E-16
41
1
10
10.1212556944726
20
29.9327613369587
30
6E-16
41
1
10
10.1056624327025
20
29.9139548464691
30
6E-16
0
SPLINE
5
E2
100
AcDbEntity
8
1
62
256
6
ByLayer
370
18
48
1
60
0
100
AcDbSpline
70
4
71
3
72
16
73
12
40
0
40
0
40
0
40
0
40
0.124999999999998
40
0.124999999999998
40
0.249999999999995
40
0.249999999999995
40
0.499999999999997
40
0.499999999999997
40
0.749999999999998
40
0.749999999999998
40
1
40
1
40
1
40
1
41
1
10
10.5386751345948
20
-9.34922131452512
30
6E-16
41
1
10
10.5071959726827
20
-9.34922131452512
30
6E-16
41
1
10
10.4765695733598
20
-9.35536120669457
30
6E-16
41
1
10
10.4184736929998
20
-9.37748487924966
30
6E-16
41
1
10
10.3920418953324
20
-9.3929042474831
30
6E-16
41
1
10
10.3182367311259
20
-9.44829073160849
30
6E-16
41
1
10
10.2791703657593
20
-9.49467220053413
30
6E-16
41
1
10
10.2125137122668
20
-9.594536803469
30
6E-16
41
1
10
10.1857347330744
20
-9.64728479257934
30
6E-16
41
1
10
10.1400559187761
20
-9.75611455014877
30
6E-16
41
1
10
10.1212556944726
20
-9.81241059371428
30
6E-16
41
1
10
10.1056624327025
20
-9.86941261896618
30
6E-16
0
SPLINE
5
E3
100
AcDbEntity
8
1
62
256
6
ByLayer
370
18
48
1
60
0
100
AcDbSpline
70
4
71
3
72
16
73
12
40
0
40
0
40
0
40
0
40
0.25
40
0.25
40
0.5
40
0.5
40
0.75
40
0.75
40
0.875
40
0.875
40
1
40
1
40
1
40
1
41
1
10
13.8943375672974
20
29.9139548464691
30
9E-16
41
1
10
13.8787501654512
20
29.9327542695084
30
8E-16
41
1
10
13.8600981524864
20
29.9510098933136
30
8E-16
41
1
10
13.8145135903111
20
29.9862144781928
30
8E-16
41
1
10
13.7875017792166
20
30.0032856662985
30
8E-16
41
1
10
13.720820003123
20
30.0350501233767
30
8E-16
41
1
10
13.6810618560869
20
30.0498069467437
30
8E-16
41
1
10
13.6084081576259
20
30.0668840803113
30
8E-16
41
1
10
13.5814155034803
20
30.0718038277879
30
8E-16
41
1
10
13.5238105256953
20
30.0786461490401
30
8E-16
41
1
10
13.4927587974109
20
30.0805927603169
30
8E-16
41
1
10
13.4613248654052
20
30.0805927603169
30
8E-16
0
SPLINE
5
E4
100
AcDbEntity
8
1
62
256
6
ByLayer
370
18
48
1
60
0
100
AcDbSpline
70
4
71
3
72
16
73
12
40
0
40
0
40
0
40
0
40
0.125000000000001
40
0.125000000000001
40
0.250000000000002
40
0.250000000000002
40
0.500000000000001
40
0.500000000000001
40
0.750000000000001
40
0.750000000000001
40
1
40
1
40
1
40
1
41
1
10
13.4613248654052
20
-30.0805927603169
30
8E-16
41
1
10
13.4928040273173
20
-30.0805927603169
30
8E-16
41
1
10
13.5234304266402
20
-30.078685990659
30
8E-16
41
1
10
13.5815263070002
20
-30.0717959485601
30
8E-16
41
1
10
13.6079581046676
20
-30.0669872793662
30
8E-16
41
1
10
13.6817632688741
20
-30.049647240705
30
8E-16
41
1
10
13.7208296342407
20
-30.0350452819075
30
8E-16
41
1
10
13.7874862877332
20
-30.0032932993815
30
8E-16
41
1
10
13.8142652669256
20
-29.9863830332716
30
8E-16
41
1
10
13.8599440812239
20
-29.9511519005795
30
8E-16
41
1
10
13.8787443055274
20
-29.9327613369587
30
8E-16
41
1
10
13.8943375672975
20
-29.9139548464691
30
9E-16
0
SPLINE
5
E5
100
AcDbEntity
8
SK1
62
256
6
ByLayer
370
18
48
1
60
0
100
AcDbSpline
70
4
71
2
72
6
73
3
40
0
40
0
40
0
40
1
40
1
40
1
41
1
10
-36.5
20
21.155302724897
30
0
41
1
10
-37.2500000000012
20
20.7223538609616
30
-1E-16
41
1
10
-38
20
20.2894050057151
30
-1E-16
0
SPLINE
5
E6
100
AcDbEntity
8
SK1
62
256
6
ByLayer
370
18
48
1
60
0
100
AcDbSpline
70
4
71
2
72
6
73
3
40
0
40
0
40
0
40
1
40
1
40
1
41
1
10
-0.394976888875277
20
-21.8653849865467
30
0
41
1
10
-0.265172990616946
20
-21.868901290676
30
0
41
1
10
-0.24050243965425
20
-21.9465691723769
30
0
0
SPLINE
5
E7
100
AcDbEntity
8
SK1
62
256
6
ByLayer
370
18
48
1
60
0
100
AcDbSpline
70
4
71
2
72
6
73
3
40
0
40
0
40
0
40
1
40
1
40
1
41
1
10
-2.19999999999999
20
22.0135927638551
30
-1E-16
41
1
10
-19.3499999999869
20
21.5828539542124
30
1E-16
41
1
10
-36.5
20
21.1521149580209
30
0
0
SPLINE
5
E8
100
AcDbEntity
8
SK1
62
256
6
ByLayer
370
18
48
1
60
0
100
AcDbSpline
70
4
71
2
72
6
73
3
40
0
40
0
40
0
40
1
40
1
40
1
41
1
10
-38
20
-20.2894052255531
30
-1E-16
41
1
10
-37.2500000000012
20
-20.7223540793632
30
-1E-16
41
1
10
-36.5
20
-21.1553029418638
30
0
0
SPLINE
5
E9
100
AcDbEntity
8
SK1
62
256
6
ByLayer
370
18
48
1
60
0
100
AcDbSpline
70
4
71
3
72
13
73
9
40
0
40
0
40
0
40
0
40
0.239457532153435
40
0.368361584623861
40
0.500001015877092
40
0.631640277972373
40
0.76054386416566
40
1
40
1
40
1
40
1
41
1
10
-1.99503997793928
20
21.8251861015554
30
-1E-16
41
1
10
-2.02111030873172
20
21.8247844616134
30
-1E-16
41
1
10
-2.05884064234354
20
21.8309567166393
30
-1E-16
41
1
10
-2.10627712750096
20
21.8540005191231
30
-1E-16
41
1
10
-2.13886378679479
20
21.8791678893424
30
-1E-16
41
1
10
-2.16563592203508
20
21.9104494432234
30
-1E-16
41
1
10
-2.19103284107061
20
21.9566686170922
30
-1E-16
41
1
10
-2.19909198642387
20
21.9940412014511
30
-1E-16
41
1
10
-2.19999999999999
20
22.0200986775813
30
-1E-16
0
SPLINE
5
EA
100
AcDbEntity
8
SK1
62
256
6
ByLayer
370
18
48
1
60
0
100
AcDbSpline
70
4
71
2
72
6
73
3
40
0
40
0
40
0
40
1
40
1
40
1
41
1
10
-1.99503997793928
20
-21.8251812553753
30
-1E-16
41
1
10
-1.19500843340728
20
-21.8452807024746
30
-1E-16
41
1
10
-0.394976888875277
20
-21.8653801495793
30
0
0
SPLINE
5
EB
100
AcDbEntity
8
SK1
62
256
6
ByLayer
370
18
48
1
60
0
100
AcDbSpline
70
4
71
2
72
6
73
3
40
0
40
0
40
0
40
1
40
1
40
1
41
1
10
-0.239684768755751
20
21.9481214799356
30
0
41
1
10
-0.264174311740334
20
21.8692639605626
30
0
41
1
10
-0.394976888875277
20
21.865385003355
30
0
0
SPLINE
5
EC
100
AcDbEntity
8
SK1
62
256
6
ByLayer
370
18
48
1
60
0
100
AcDbSpline
70
4
71
2
72
6
73
3
40
0
40
0
40
0
40
1
40
1
40
1
41
1
10
-0.394976888875277
20
21.8653802062992
30
0
41
1
10
-1.19500843340728
20
21.8452807593863
30
-1E-16
41
1
10
-1.99503997793928
20
21.8251813124779
30
-1E-16
0
SPLINE
5
ED
100
AcDbEntity
8
SK1
62
256
6
ByLayer
370
18
48
1
60
0
100
AcDbSpline
70
4
71
2
72
6
73
3
40
0
40
0
40
0
40
1
40
1
40
1
41
1
10
-36.5
20
-21.1521177089669
30
0
41
1
10
-19.3499999999701
20
-21.5828554470541
30
1E-16
41
1
10
-2.19999999999999
20
-22.0135928951589
30
-1E-16
0
SPLINE
5
EE
100
AcDbEntity
8
SK1
62
256
6
ByLayer
370
18
48
1
60
0
100
AcDbSpline
70
4
71
3
72
13
73
9
40
0
40
0
40
0
40
0
40
0.239456135762356
40
0.368359721932478
40
0.499998984020181
40
0.631638415283052
40
0.760542467777729
40
1
40
1
40
1
40
1
41
1
10
-2.19999999999999
20
-22.0200986606755
30
-1E-16
41
1
10
-2.19909198642273
20
-21.9940411845604
30
-1E-16
41
1
10
-2.1910328410695
20
-21.956668600224
30
-1E-16
41
1
10
-2.16563592203357
20
-21.9104494263862
30
-1E-16
41
1
10
-2.13886378679282
20
-21.8791678725255
30
-1E-16
41
1
10
-2.10627712749889
20
-21.854000502323
30
-1E-16
41
1
10
-2.0588406423409
20
-21.8309566998545
30
-1E-16
41
1
10
-2.0211103087303
20
-21.8247844448325
30
-1E-16
41
1
10
-1.99503997793928
20
-21.825186084775
30
-1E-16
0
LINE
5
7E
100
AcDbEntity
8
SK1
62
256
6
ByLayer
370
18
48
1
60
0
100
AcDbLine
10
-0.2
20
-22.533485
30
0
11
-0.2
21
-7.059517
31
0
39
0
210
0
220
0
230
1
0
LINE
5
80
100
AcDbEntity
8
SK1
62
256
6
ByLayer
370
18
48
1
60
0
100
AcDbLine
10
-0.2
20
7.059518
30
0
11
-0.2
21
22.533485
31
0
39
0
210
0
220
0
230
1
0
LINE
5
81
100
AcDbEntity
8
SK1
62
256
6
ByLayer
370
18
48
1
60
0
100
AcDbLine
10
-0.394977
20
-21.865031
30
0
11
-0.394977
21
-21.865379
31
0
39
0
210
0
220
0
230
1
0
LINE
5
82
100
AcDbEntity
8
SK1
62
256
6
ByLayer
370
18
48
1
60
0
100
AcDbLine
10
-0.394977
20
21.865379
30
0
11
-0.394977
21
21.865031
31
0
39
0
210
0
220
0
230
1
0
LINE
5
83
100
AcDbEntity
8
SK1
62
256
6
ByLayer
370
13
48
1
60
0
100
AcDbLine
10
-1.307107
20
-4.811013
30
0
11
-1.307107
21
4.811013
31
0
39
0
210
0
220
0
230
1
0
LINE
5
84
100
AcDbEntity
8
1
62
256
6
ByLayer
370
13
48
1
60
0
100
AcDbLine
10
10.105662
20
-9.869413
30
0
11
10.105662
21
-29.913955
31
0
39
0
210
0
220
0
230
1
0
LINE
5
85
100
AcDbEntity
8
1
62
256
6
ByLayer
370
18
48
1
60
0
100
AcDbLine
10
10.538675
20
-30.080593
30
0
11
13.461325
21
-30.080593
31
0
39
0
210
0
220
0
230
1
0
LINE
5
86
100
AcDbEntity
8
1
62
256
6
ByLayer
370
13
48
1
60
0
100
AcDbLine
10
22.188275
20
0
30
0
11
22.188275
21
31.5
31
0
39
0
210
0
220
0
230
1
0
LINE
5
87
100
AcDbEntity
8
1
62
256
6
ByLayer
370
13
48
1
60
0
100
AcDbLine
10
22.188275
20
-31.5
30
0
11
22.188275
21
0
31
0
39
0
210
0
220
0
230
1
0
LINE
5
88
100
AcDbEntity
8
1
62
256
6
ByLayer
370
18
48
1
60
0
100
AcDbLine
10
0.3
20
0
30
0
11
0.3
21
31.5
31
0
39
0
210
0
220
0
230
1
0
LINE
5
89
100
AcDbEntity
8
1
62
256
6
ByLayer
370
18
48
1
60
0
100
AcDbLine
10
0.3
20
-31.5
30
0
11
0.3
21
0
31
0
39
0
210
0
220
0
230
1
0
LINE
5
8A
100
AcDbEntity
8
1
62
256
6
ByLayer
370
18
48
1
60
0
100
AcDbLine
10
13.461325
20
-9.349221
30
0
11
10.538675
21
-9.349221
31
0
39
0
210
0
220
0
230
1
0
LINE
5
8B
100
AcDbEntity
8
1
62
256
6
ByLayer
370
13
48
1
60
0
100
AcDbLine
10
28.3
20
0
30
0
11
28.3
21
20
31
0
39
0
210
0
220
0
230
1
0
LINE
5
8C
100
AcDbEntity
8
1
62
256
6
ByLayer
370
13
48
1
60
0
100
AcDbLine
10
28.3
20
-20
30
0
11
28.3
21
0
31
0
39
0
210
0
220
0
230
1
0
LINE
5
8D
100
AcDbEntity
8
1
62
256
6
ByLayer
370
18
48
1
60
0
100
AcDbLine
10
0
20
0
30
0
11
0
21
31.2
31
0
39
0
210
0
220
0
230
1
0
LINE
5
8E
100
AcDbEntity
8
1
62
256
6
ByLayer
370
18
48
1
60
0
100
AcDbLine
10
0
20
-31.2
30
0
11
0
21
0
31
0
39
0
210
0
220
0
230
1
0
LINE
5
8F
100
AcDbEntity
8
1
62
256
6
ByLayer
370
13
48
1
60
0
100
AcDbLine
10
22.960315
20
30.909656
30
0
11
22.960315
21
-30.909656
31
0
39
0
210
0
220
0
230
1
0
LINE
5
90
100
AcDbEntity
8
1
62
256
6
ByLayer
370
13
48
1
60
0
100
AcDbLine
10
13.894338
20
29.913955
30
0
11
13.894338
21
9.869413
31
0
39
0
210
0
220
0
230
1
0
LINE
5
91
100
AcDbEntity
8
1
62
256
6
ByLayer
370
13
48
1
60
0
100
AcDbLine
10
13.894338
20
-9.869413
30
0
11
13.894338
21
-29.913955
31
0
39
0
210
0
220
0
230
1
0
LINE
5
92
100
AcDbEntity
8
1
62
256
6
ByLayer
370
18
48
1
60
0
100
AcDbLine
10
13.461325
20
30.080593
30
0
11
10.538675
21
30.080593
31
0
39
0
210
0
220
0
230
1
0
LINE
5
93
100
AcDbEntity
8
1
62
256
6
ByLayer
370
18
48
1
60
0
100
AcDbLine
10
80
20
0
30
0
11
80
21
19.7
31
0
39
0
210
0
220
0
230
1
0
LINE
5
94
100
AcDbEntity
8
1
62
256
6
ByLayer
370
18
48
1
60
0
100
AcDbLine
10
80
20
-19.7
30
0
11
80
21
0
31
0
39
0
210
0
220
0
230
1
0
LINE
5
95
100
AcDbEntity
8
1
62
256
6
ByLayer
370
13
48
1
60
0
100
AcDbLine
10
10.538675
20
-9.349221
30
0
11
10.538675
21
-30.080593
31
0
39
0
210
0
220
0
230
1
0
LINE
5
96
100
AcDbEntity
8
1
62
256
6
ByLayer
370
13
48
1
60
0
100
AcDbLine
10
13.461325
20
-9.349221
30
0
11
13.461325
21
-30.080593
31
0
39
0
210
0
220
0
230
1
0
LINE
5
97
100
AcDbEntity
8
1
62
256
6
ByLayer
370
13
48
1
60
0
100
AcDbLine
10
13.461325
20
30.080593
30
0
11
13.461325
21
9.349221
31
0
39
0
210
0
220
0
230
1
0
LINE
5
98
100
AcDbEntity
8
1
62
256
6
ByLayer
370
18
48
1
60
0
100
AcDbLine
10
79.7
20
0
30
0
11
79.7
21
20
31
0
39
0
210
0
220
0
230
1
0
LINE
5
99
100
AcDbEntity
8
1
62
256
6
ByLayer
370
18
48
1
60
0
100
AcDbLine
10
79.7
20
-20
30
0
11
79.7
21
0
31
0
39
0
210
0
220
0
230
1
0
LINE
5
9A
100
AcDbEntity
8
1
62
256
6
ByLayer
370
13
48
1
60
0
100
AcDbLine
10
10.105662
20
29.913955
30
0
11
10.105662
21
9.869413
31
0
39
0
210
0
220
0
230
1
0
LINE
5
9B
100
AcDbEntity
8
1
62
256
6
ByLayer
370
13
48
1
60
0
100
AcDbLine
10
10.538675
20
30.080593
30
0
11
10.538675
21
9.349221
31
0
39
0
210
0
220
0
230
1
0
LINE
5
9C
100
AcDbEntity
8
1
62
256
6
ByLayer
370
18
48
1
60
0
100
AcDbLine
10
10.538675
20
9.349221
30
0
11
13.461325
21
9.349221
31
0
39
0
210
0
220
0
230
1
0
LINE
5
9D
100
AcDbEntity
8
1
62
256
6
ByLayer
370
13
48
1
60
0
100
AcDbLine
10
25.3
20
0
30
0
11
25.3
21
22.293967
31
0
39
0
210
0
220
0
230
1
0
LINE
5
9E
100
AcDbEntity
8
1
62
256
6
ByLayer
370
13
48
1
60
0
100
AcDbLine
10
25.3
20
-22.293967
30
0
11
25.3
21
0
31
0
39
0
210
0
220
0
230
1
0
LINE
5
9F
100
AcDbEntity
8
SK1
62
256
6
ByLayer
370
18
48
1
60
0
100
AcDbLine
10
82.9
20
-7
30
0
11
82.9
21
7
31
0
39
0
210
0
220
0
230
1
0
LINE
5
A0
100
AcDbEntity
8
SK1
62
256
6
ByLayer
370
18
48
1
60
0
100
AcDbLine
10
84.1
20
-5.8
30
0
11
84.1
21
5.8
31
0
39
0
210
0
220
0
230
1
0
LINE
5
A1
100
AcDbEntity
8
SK4
62
256
6
ByLayer
370
18
48
0.05
60
0
100
AcDbLine
10
-43
20
0
30
0
11
85
21
0
31
0
39
0
210
0
220
0
230
1
0
LINE
5
A3
100
AcDbEntity
8
SK1
62
256
6
ByLayer
370
18
48
1
60
0
100
AcDbLine
10
84.1
20
5.8
30
0
11
82.9
21
7
31
0
39
0
210
0
220
0
230
1
0
LINE
5
A4
100
AcDbEntity
8
SK1
62
256
6
ByLayer
370
18
48
1
60
0
100
AcDbLine
10
82.9
20
-7
30
0
11
84.1
21
-5.8
31
0
39
0
210
0
220
0
230
1
0
LINE
5
A5
100
AcDbEntity
8
SK1
62
256
6
ByLayer
370
18
48
1
60
0
100
AcDbLine
10
80
20
-7
30
0
11
82.9
21
-7
31
0
39
0
210
0
220
0
230
1
0
LINE
5
A6
100
AcDbEntity
8
SK1
62
256
6
ByLayer
370
18
48
1
60
0
100
AcDbLine
10
82.9
20
7
30
0
11
80
21
7
31
0
39
0
210
0
220
0
230
1
0
LINE
5
A7
100
AcDbEntity
8
1
62
256
6
ByLayer
370
18
48
1
60
0
100
AcDbLine
10
79.7
20
20
30
0
11
28.3
21
20
31
0
39
0
210
0
220
0
230
1
0
LINE
5
A8
100
AcDbEntity
8
1
62
256
6
ByLayer
370
18
48
1
60
0
100
AcDbLine
10
28.3
20
-20
30
0
11
79.7
21
-20
31
0
39
0
210
0
220
0
230
1
0
LINE
5
A9
100
AcDbEntity
8
1
62
256
6
ByLayer
370
18
48
1
60
0
100
AcDbLine
10
80
20
19.7
30
0
11
79.7
21
20
31
0
39
0
210
0
220
0
230
1
0
LINE
5
AA
100
AcDbEntity
8
1
62
256
6
ByLayer
370
18
48
1
60
0
100
AcDbLine
10
79.7
20
-20
30
0
11
80
21
-19.7
31
0
39
0
210
0
220
0
230
1
0
LINE
5
AB
100
AcDbEntity
8
1
62
256
6
ByLayer
370
18
48
1
60
0
100
AcDbLine
10
25.3
20
22.293967
30
0
11
22.960315
21
30.909656
31
0
39
0
210
0
220
0
230
1
0
LINE
5
AC
100
AcDbEntity
8
1
62
256
6
ByLayer
370
18
48
1
60
0
100
AcDbLine
10
22.960315
20
-30.909656
30
0
11
25.3
21
-22.293967
31
0
39
0
210
0
220
0
230
1
0
LINE
5
AD
100
AcDbEntity
8
1
62
256
6
ByLayer
370
18
48
1
60
0
100
AcDbLine
10
0
20
-31.2
30
0
11
0.3
21
-31.5
31
0
39
0
210
0
220
0
230
1
0
LINE
5
AE
100
AcDbEntity
8
1
62
256
6
ByLayer
370
18
48
1
60
0
100
AcDbLine
10
0.3
20
31.5
30
0
11
0
21
31.2
31
0
39
0
210
0
220
0
230
1
0
LINE
5
AF
100
AcDbEntity
8
1
62
256
6
ByLayer
370
18
48
1
60
0
100
AcDbLine
10
22.188275
20
31.5
30
0
11
0.3
21
31.5
31
0
39
0
210
0
220
0
230
1
0
LINE
5
B0
100
AcDbEntity
8
4
62
256
6
ByLayer
370
18
48
0.05
60
0
100
AcDbLine
10
0
20
0
30
0
11
80
21
0
31
0
39
0
210
0
220
0
230
1
0
LINE
5
B2
100
AcDbEntity
8
80
62
256
6
ByLayer
370
18
48
1
60
0
100
AcDbLine
10
0
20
0
30
0
11
-6.08897
21
0
31
0
39
0
210
0
220
0
230
1
0
LINE
5
B3
100
AcDbEntity
8
1
62
256
6
ByLayer
370
18
48
1
60
0
100
AcDbLine
10
0.3
20
-31.5
30
0
11
22.188275
21
-31.5
31
0
39
0
210
0
220
0
230
1
0
LINE
5
B4
100
AcDbEntity
8
81
62
256
6
ByLayer
370
18
48
1
60
0
100
AcDbLine
10
80
20
0
30
0
11
82.367097
21
0
31
0
39
0
210
0
220
0
230
1
0
LINE
5
B5
100
AcDbEntity
8
SK2
62
256
6
ByLayer
370
13
48
1
60
0
100
AcDbLine
10
-59.6
20
31.5
30
0
11
-59.6
21
-31.5
31
0
39
0
210
0
220
0
230
1
0
LINE
5
B7
100
AcDbEntity
8
SK2
62
256
6
ByLayer
370
13
48
1
60
0
100
AcDbLine
10
-1.5875
20
-31.5
30
0
11
-61.6
21
-31.5
31
0
39
0
210
0
220
0
230
1
0
LINE
5
B8
100
AcDbEntity
8
SK2
62
256
6
ByLayer
370
13
48
1
60
0
100
AcDbLine
10
-1.5875
20
31.5
30
0
11
-61.6
21
31.5
31
0
39
0
210
0
220
0
230
1
0
LINE
5
B9
100
AcDbEntity
8
1
62
256
6
ByLayer
370
18
48
1
60
1
100
AcDbLine
10
-59.6
20
-31.5
30
0
11
-60.060784
21
-28.000002
31
0
39
0
210
0
220
0
230
1
0
LINE
5
BA
100
AcDbEntity
8
1
62
256
6
ByLayer
370
18
48
1
60
1
100
AcDbLine
10
-60.060784
20
-28.000002
30
0
11
-59.139216
21
-27.999998
31
0
39
0
210
0
220
0
230
1
0
LINE
5
BB
100
AcDbEntity
8
1
62
256
6
ByLayer
370
18
48
1
60
1
100
AcDbLine
10
-59.139216
20
-27.999998
30
0
11
-59.6
21
-31.5
31
0
39
0
210
0
220
0
230
1
0
LINE
5
BC
100
AcDbEntity
8
1
62
256
6
ByLayer
370
18
48
1
60
1
100
AcDbLine
10
-59.6
20
31.5
30
0
11
-59.139216
21
28.000002
31
0
39
0
210
0
220
0
230
1
0
LINE
5
BD
100
AcDbEntity
8
1
62
256
6
ByLayer
370
18
48
1
60
1
100
AcDbLine
10
-59.139216
20
28.000002
30
0
11
-60.060784
21
27.999998
31
0
39
0
210
0
220
0
230
1
0
LINE
5
BE
100
AcDbEntity
8
1
62
256
6
ByLayer
370
18
48
1
60
1
100
AcDbLine
10
-60.060784
20
27.999998
30
0
11
-59.6
21
31.5
31
0
39
0
210
0
220
0
230
1
0
LINE
5
BF
100
AcDbEntity
8
SK2
62
256
6
ByLayer
370
13
48
1
60
0
100
AcDbLine
10
105.1
20
20
30
0
11
105.1
21
-20
31
0
39
0
210
0
220
0
230
1
0
LINE
5
C0
100
AcDbEntity
8
SK2
62
256
6
ByLayer
370
13
48
1
60
0
100
AcDbLine
10
81.5875
20
-20
30
0
11
107.1
21
-20
31
0
39
0
210
0
220
0
230
1
0
LINE
5
C1
100
AcDbEntity
8
SK2
62
256
6
ByLayer
370
13
48
1
60
0
100
AcDbLine
10
81.5875
20
20
30
0
11
107.1
21
20
31
0
39
0
210
0
220
0
230
1
0
LINE
5
C2
100
AcDbEntity
8
1
62
256
6
ByLayer
370
18
48
1
60
1
100
AcDbLine
10
105.1
20
-20
30
0
11
104.639216
21
-16.500002
31
0
39
0
210
0
220
0
230
1
0
LINE
5
C3
100
AcDbEntity
8
1
62
256
6
ByLayer
370
18
48
1
60
1
100
AcDbLine
10
104.639216
20
-16.500002
30
0
11
105.560784
21
-16.499998
31
0
39
0
210
0
220
0
230
1
0
LINE
5
C4
100
AcDbEntity
8
1
62
256
6
ByLayer
370
18
48
1
60
1
100
AcDbLine
10
105.560784
20
-16.499998
30
0
11
105.1
21
-20
31
0
39
0
210
0
220
0
230
1
0
LINE
5
C5
100
AcDbEntity
8
1
62
256
6
ByLayer
370
18
48
1
60
1
100
AcDbLine
10
105.1
20
20
30
0
11
105.560784
21
16.500002
31
0
39
0
210
0
220
0
230
1
0
LINE
5
C6
100
AcDbEntity
8
1
62
256
6
ByLayer
370
18
48
1
60
1
100
AcDbLine
10
105.560784
20
16.500002
30
0
11
104.639216
21
16.499998
31
0
39
0
210
0
220
0
230
1
0
LINE
5
C7
100
AcDbEntity
8
1
62
256
6
ByLayer
370
18
48
1
60
1
100
AcDbLine
10
104.639216
20
16.499998
30
0
11
105.1
21
20
31
0
39
0
210
0
220
0
230
1
0
LINE
5
F3
100
AcDbEntity
8
1
62
256
6
ByLayer
370
18
48
1
60
1
100
AcDbLine
10
-59.6
20
-31.5
30
0
11
-60.060784
21
-28.000002
31
0
39
0
210
0
220
0
230
1
0
LINE
5
F4
100
AcDbEntity
8
1
62
256
6
ByLayer
370
18
48
1
60
1
100
AcDbLine
10
-60.060784
20
-28.000002
30
0
11
-59.139216
21
-27.999998
31
0
39
0
210
0
220
0
230
1
0
LINE
5
F5
100
AcDbEntity
8
1
62
256
6
ByLayer
370
18
48
1
60
1
100
AcDbLine
10
-59.139216
20
-27.999998
30
0
11
-59.6
21
-31.5
31
0
39
0
210
0
220
0
230
1
0
LINE
5
F7
100
AcDbEntity
8
1
62
256
6
ByLayer
370
18
48
1
60
1
100
AcDbLine
10
-59.6
20
31.5
30
0
11
-59.139216
21
28.000002
31
0
39
0
210
0
220
0
230
1
0
LINE
5
F8
100
AcDbEntity
8
1
62
256
6
ByLayer
370
18
48
1
60
1
100
AcDbLine
10
-59.139216
20
28.000002
30
0
11
-60.060784
21
27.999998
31
0
39
0
210
0
220
0
230
1
0
LINE
5
F9
100
AcDbEntity
8
1
62
256
6
ByLayer
370
18
48
1
60
1
100
AcDbLine
10
-60.060784
20
27.999998
30
0
11
-59.6
21
31.5
31
0
39
0
210
0
220
0
230
1
0
LINE
5
FD
100
AcDbEntity
8
1
62
256
6
ByLayer
370
18
48
1
60
1
100
AcDbLine
10
105.1
20
-20
30
0
11
104.639216
21
-16.500002
31
0
39
0
210
0
220
0
230
1
0
LINE
5
FE
100
AcDbEntity
8
1
62
256
6
ByLayer
370
18
48
1
60
1
100
AcDbLine
10
104.639216
20
-16.500002
30
0
11
105.560784
21
-16.499998
31
0
39
0
210
0
220
0
230
1
0
LINE
5
FF
100
AcDbEntity
8
1
62
256
6
ByLayer
370
18
48
1
60
1
100
AcDbLine
10
105.560784
20
-16.499998
30
0
11
105.1
21
-20
31
0
39
0
210
0
220
0
230
1
0
LINE
5
101
100
AcDbEntity
8
1
62
256
6
ByLayer
370
18
48
1
60
1
100
AcDbLine
10
105.1
20
20
30
0
11
105.560784
21
16.500002
31
0
39
0
210
0
220
0
230
1
0
LINE
5
102
100
AcDbEntity
8
1
62
256
6
ByLayer
370
18
48
1
60
1
100
AcDbLine
10
105.560784
20
16.500002
30
0
11
104.639216
21
16.499998
31
0
39
0
210
0
220
0
230
1
0
LINE
5
103
100
AcDbEntity
8
1
62
256
6
ByLayer
370
18
48
1
60
1
100
AcDbLine
10
104.639216
20
16.499998
30
0
11
105.1
21
20
31
0
39
0
210
0
220
0
230
1
0
MTEXT
5
EF
100
AcDbEntity
8
SK2
62
256
6
ByLayer
370
18
48
1
60
0
100
AcDbMText
10
-61.164634
20
-3.655088
30
0
210
0
220
0
230
1
1
%%c
40
3.5
41
0
44
1.084337
50
90
71
7
72
5
7
iso_b_vert
0
MTEXT
5
F2
100
AcDbEntity
8
SK2
62
256
6
ByLayer
370
18
48
1
60
0
100
AcDbMText
10
-61.164634
20
1.567568
30
0
210
0
220
0
230
1
1
\W0.6740;63
40
3.5
41
0
44
1.084337
50
90
71
7
72
5
7
iso_b_vert
0
MTEXT
5
FB
100
AcDbEntity
8
SK2
62
256
6
ByLayer
370
18
48
1
60
0
100
AcDbMText
10
103.535366
20
-3.839355
30
0
210
0
220
0
230
1
1
%%c
40
3.5
41
0
44
1.084337
50
90
71
7
72
5
7
iso_b_vert
0
MTEXT
5
FC
100
AcDbEntity
8
SK2
62
256
6
ByLayer
370
18
48
1
60
0
100
AcDbMText
10
103.535366
20
1.383301
30
0
210
0
220
0
230
1
1
\W0.7361;40
40
3.5
41
0
44
1.084337
50
90
71
7
72
5
7
iso_b_vert
0
MTEXT
5
105
100
AcDbEntity
8
SK6
62
256
6
ByLayer
370
18
48
1
60
0
100
AcDbMText
10
0.1855
20
-47.217366
30
0
210
0
220
0
230
1
1
\W0.7475;C6-391.02-40080A
40
3.5
41
0
44
1.084337
50
0
71
7
72
5
7
iso_b_vert
0
HATCH
5
F6
100
AcDbEntity
8
SK2
62
256
6
ByLayer
370
13
48
1
60
0
100
AcDbHatch
10
0
20
0
30
0
210
0
220
0
230
1
2
ANSI31
70
0
71
0
91
1
92
5
93
3
72
1
10
-59.6
20
-31.5
11
-60.0607837415528
21
-28.0000016925532
72
1
10
-60.0607837415528
20
-28.0000016925532
11
-59.1392162584472
21
-27.9999983074468
72
1
10
-59.1392162584472
20
-27.9999983074468
11
-59.6
21
-31.5
97
0
75
0
76
1
52
0
41
0.0062
77
0
78
1
53
45
43
0
44
0
45
-0.0139193969876572
46
0.0139193969876572
79
0
47
0
98
1
10
0
20
0
0
HATCH
5
FA
100
AcDbEntity
8
SK2
62
256
6
ByLayer
370
13
48
1
60
0
100
AcDbHatch
10
0
20
0
30
0
210
0
220
0
230
1
2
ANSI31
70
0
71
0
91
1
92
5
93
3
72
1
10
-59.6
20
31.5
11
-59.1392162584472
21
28.0000016925532
72
1
10
-59.1392162584472
20
28.0000016925532
11
-60.0607837415528
21
27.9999983074468
72
1
10
-60.0607837415528
20
27.9999983074468
11
-59.6
21
31.5
97
0
75
0
76
1
52
0
41
0.0062
77
0
78
1
53
45
43
0
44
0
45
-0.0139193969876572
46
0.0139193969876572
79
0
47
0
98
1
10
0
20
0
0
HATCH
5
100
100
AcDbEntity
8
SK2
62
256
6
ByLayer
370
13
48
1
60
0
100
AcDbHatch
10
0
20
0
30
0
210
0
220
0
230
1
2
ANSI31
70
0
71
0
91
1
92
5
93
3
72
1
10
105.1
20
-20
11
104.639216258447
21
-16.5000016925532
72
1
10
104.639216258447
20
-16.5000016925532
11
105.560783741553
21
-16.4999983074468
72
1
10
105.560783741553
20
-16.4999983074468
11
105.1
21
-20
97
0
75
0
76
1
52
0
41
0.0062
77
0
78
1
53
45
43
0
44
0
45
-0.0139193969876572
46
0.0139193969876572
79
0
47
0
98
1
10
0
20
0
0
HATCH
5
104
100
AcDbEntity
8
SK2
62
256
6
ByLayer
370
13
48
1
60
0
100
AcDbHatch
10
0
20
0
30
0
210
0
220
0
230
1
2
ANSI31
70
0
71
0
91
1
92
5
93
3
72
1
10
105.1
20
20
11
105.560783741553
21
16.5000016925532
72
1
10
105.560783741553
20
16.5000016925532
11
104.639216258447
21
16.4999983074468
72
1
10
104.639216258447
20
16.4999983074468
11
105.1
21
20
97
0
75
0
76
1
52
0
41
0.0062
77
0
78
1
53
45
43
0
44
0
45
-0.0139193969876572
46
0.0139193969876572
79
0
47
0
98
1
10
0
20
0
0
DIMENSION
5
108
100
AcDbEntity
8
SK2
62
256
6
ByLayer
370
18
48
1
60
0
100
AcDbDimension
2
_U0
10
22
20
48.1
30
0
11
11
21
48.1
31
0
70
32
71
1
72
1
41
1
210
0
220
0
230
1
3
Standard
100
AcDbAlignedDimension
13
0
23
31.5
33
0
14
22
24
31.5
34
0
50
0
100
AcDbRotatedDimension
1001
ACAD
1000
DSTYLE
1002
{
1070
   371
1070
    13
1070
   372
1070
    13
1070
   170
1070
     0
1070
   144
1040
1.0
1070
   277
1070
     2
1070
   284
1070
     8
1070
   278
1070
    44
1070
   146
1040
1.0
1070
   345
1005
16
1070
   347
1005
16
1070
   346
1005
16
1070
   344
1005
0
1070
   343
1005
0
1070
   172
1070
     1
1070
    76
1070
     0
1070
    75
1070
     0
1070
   282
1070
     0
1070
   281
1070
     0
1070
    71
1070
     0
1070
    74
1070
     0
1070
   279
1070
     0
1070
   173
1070
     1
1070
   340
1005
F0
1070
   271
1070
     1
1070
   272
1070
     2
1070
    77
1070
     1
1070
    73
1070
     1
1070
   171
1070
     3
1070
   274
1070
     4
1070
   177
1070
     2
1070
   176
1070
     2
1070
   178
1070
     2
1070
    78
1070
     8
1070
    48
1040
-0.1
1070
    41
1040
3.5
1070
   147
1040
1.75
1070
    42
1040
1.5875
1070
    44
1040
2.0
1070
   140
1040
3.5
1002
}
1001
ACAD_DSTYLE_DIM_LINETYPE
1070
   380
1005
16
1001
ACAD_DSTYLE_DIM_EXT1_LINETYPE
1070
   381
1005
16
1001
ACAD_DSTYLE_DIM_EXT2_LINETYPE
1070
   382
1005
16
0
DIMENSION
5
121
100
AcDbEntity
8
SK2
62
256
6
ByLayer
370
18
48
1
60
0
100
AcDbDimension
2
_U1
10
28.3
20
48.1
30
0
11
54.15
21
48.1
31
0
70
32
71
1
72
1
41
1
210
0
220
0
230
1
3
Standard
100
AcDbAlignedDimension
13
80
23
20
33
0
14
28.3
24
20
34
0
50
0
100
AcDbRotatedDimension
1001
ACAD
1000
DSTYLE
1002
{
1070
   371
1070
    13
1070
   372
1070
    13
1070
   170
1070
     0
1070
   144
1040
1.0
1070
   277
1070
     2
1070
   284
1070
     8
1070
   278
1070
    44
1070
   146
1040
1.0
1070
   345
1005
16
1070
   347
1005
16
1070
   346
1005
16
1070
   344
1005
0
1070
   343
1005
0
1070
   172
1070
     1
1070
    76
1070
     0
1070
    75
1070
     0
1070
   282
1070
     0
1070
   281
1070
     0
1070
    71
1070
     0
1070
    74
1070
     0
1070
   279
1070
     0
1070
   173
1070
     1
1070
   340
1005
F0
1070
   271
1070
     1
1070
   272
1070
     2
1070
    77
1070
     1
1070
    73
1070
     1
1070
   171
1070
     3
1070
   274
1070
     4
1070
   177
1070
     2
1070
   176
1070
     2
1070
   178
1070
     2
1070
    78
1070
     8
1070
    48
1040
-0.1
1070
    41
1040
3.5
1070
   147
1040
1.75
1070
    42
1040
1.5875
1070
    44
1040
2.0
1070
   140
1040
3.5
1002
}
1001
ACAD_DSTYLE_DIM_LINETYPE
1070
   380
1005
16
1001
ACAD_DSTYLE_DIM_EXT1_LINETYPE
1070
   381
1005
16
1001
ACAD_DSTYLE_DIM_EXT2_LINETYPE
1070
   382
1005
16
0
DIMENSION
5
139
100
AcDbEntity
8
2
62
256
6
ByLayer
370
18
48
1
60
0
100
AcDbDimension
2
_U2
10
0
20
58.1
30
0
11
40
21
58.1
31
0
70
32
71
1
72
1
41
1
210
0
220
0
230
1
3
Standard
100
AcDbAlignedDimension
13
80
23
20
33
0
14
0
24
31.5
34
0
50
0
100
AcDbRotatedDimension
1001
ACAD
1000
DSTYLE
1002
{
1070
   371
1070
    13
1070
   372
1070
    13
1070
   170
1070
     0
1070
   144
1040
1.0
1070
   277
1070
     2
1070
   284
1070
     8
1070
   278
1070
    44
1070
   146
1040
1.0
1070
   345
1005
16
1070
   347
1005
16
1070
   346
1005
16
1070
   344
1005
0
1070
   343
1005
0
1070
   172
1070
     1
1070
    76
1070
     0
1070
    75
1070
     0
1070
   282
1070
     0
1070
   281
1070
     0
1070
    71
1070
     0
1070
    74
1070
     0
1070
   279
1070
     0
1070
   173
1070
     1
1070
   340
1005
F0
1070
   271
1070
     1
1070
   272
1070
     2
1070
    77
1070
     1
1070
    73
1070
     1
1070
   171
1070
     3
1070
   274
1070
     4
1070
   177
1070
     2
1070
   176
1070
     2
1070
   178
1070
     2
1070
    78
1070
     8
1070
    48
1040
-0.1
1070
    41
1040
3.5
1070
   147
1040
1.75
1070
    42
1040
1.5875
1070
    44
1040
2.0
1070
   140
1040
3.5
1002
}
1001
ACAD_DSTYLE_DIM_LINETYPE
1070
   380
1005
16
1001
ACAD_DSTYLE_DIM_EXT1_LINETYPE
1070
   381
1005
16
1001
ACAD_DSTYLE_DIM_EXT2_LINETYPE
1070
   382
1005
16
0
DIMENSION
5
152
100
AcDbEntity
8
SK2
62
256
6
ByLayer
370
18
48
1
60
0
100
AcDbDimension
2
_U3
10
0
20
58.1
30
0
11
-19
21
58.1
31
0
70
32
71
1
72
1
41
1
210
0
220
0
230
1
3
Standard
100
AcDbAlignedDimension
13
-38
23
22
33
0
14
0
24
31.5
34
0
50
0
100
AcDbRotatedDimension
1001
ACAD
1000
DSTYLE
1002
{
1070
   371
1070
    13
1070
   372
1070
    13
1070
   170
1070
     0
1070
   144
1040
1.0
1070
   277
1070
     2
1070
   284
1070
     8
1070
   278
1070
    44
1070
   146
1040
1.0
1070
   345
1005
16
1070
   347
1005
16
1070
   346
1005
16
1070
   344
1005
0
1070
   343
1005
0
1070
   172
1070
     1
1070
    76
1070
     0
1070
    75
1070
     0
1070
   282
1070
     0
1070
   281
1070
     0
1070
    71
1070
     0
1070
    74
1070
     0
1070
   279
1070
     0
1070
   173
1070
     1
1070
   340
1005
F0
1070
   271
1070
     1
1070
   272
1070
     2
1070
    77
1070
     1
1070
    73
1070
     1
1070
   171
1070
     3
1070
   274
1070
     4
1070
   177
1070
     2
1070
   176
1070
     2
1070
   178
1070
     2
1070
    78
1070
     8
1070
    48
1040
-0.1
1070
    41
1040
3.5
1070
   147
1040
1.75
1070
    42
1040
1.5875
1070
    44
1040
2.0
1070
   140
1040
3.5
1002
}
1001
ACAD_DSTYLE_DIM_LINETYPE
1070
   380
1005
16
1001
ACAD_DSTYLE_DIM_EXT1_LINETYPE
1070
   381
1005
16
1001
ACAD_DSTYLE_DIM_EXT2_LINETYPE
1070
   382
1005
16
0
ENDSEC
0
SECTION
2
OBJECTS
0
DICTIONARY
5
1da
330
0
100
AcDbDictionary
280
0
281
1
3
ACAD_GROUP
350
1db
3
ACAD_MLINESTYLE
350
1dc
0
DICTIONARY
5
1db
330
0
100
AcDbDictionary
280
0
281
1
0
DICTIONARY
5
1dc
330
0
100
AcDbDictionary
280
0
281
1
3
Standard
350
18
0
MLINESTYLE
5
18
330
1dc
100
AcDbMlineStyle
2
Standard
70
0
3

62
256
51
90
52
90
71
2
49
-0.5
62
256
6
ByLayer
49
0.5
62
256
6
ByLayer
0
RASTERVARIABLES
5
1c8
330

100
AcDbRasterVariables
90
0
70
1
71
1
72
1
0
ENDSEC
0
EOF
