0
SECTION
2
HEADER
9
$ACADVER
1
AC1015
9
$DWGCODEPAGE
3
ANSI_1252
9
$HANDSEED
5
289
9
$ANGBASE
50
0
9
$ANGDIR
70
0
9
$ATTMODE
70
1
9
$AUNITS
70
0
9
$AUPREC
70
0
9
$CECOLOR
62
256
9
$CELTSCALE
40
1
9
$CELTYPE
6
ByLayer
9
$CELWEIGHT
370
18
9
$CLAYER
8
0
9
$CMLJUST
70
0
9
$CMLSCALE
40
1
9
$CMLSTYLE
2
Standard
9
$DIMSTYLE
2
Standard
9
$TEXTSIZE
40
0.2
9
$TEXTSTYLE
7
Standard
9
$LUNITS
70
2
9
$LUPREC
70
4
9
$EXTNAMES
290
1
9
$INSUNITS
70
4
9
$LTSCALE
40
1
9
$LWDISPLAY
290
1
9
$PDMODE
70
0
9
$PDSIZE
40
0
9
$PLINEGEN
70
0
0
ENDSEC
0
SECTION
2
CLASSES
0
CLASS
1
RASTERVARIABLES
2
AcDbRasterVariables
3
ISM
90
0
280
0
281
0
0
ENDSEC
0
SECTION
2
TABLES
0
TABLE
2
VPORT
5
27f
100
AcDbSymbolTable
0
VPORT
5
1
100
AcDbSymbolTableRecord
100
AcDbViewportTableRecord
2
*Active
70
0
10
0
20
0
11
1
21
1
12
-1
22
1
13
0
23
0
14
0.5
24
0.5
15
10
25
10
16
0
26
0
36
1
17
0
27
0
37
0
0
ENDTAB
0
TABLE
2
LTYPE
5
280
100
AcDbSymbolTable
0
LTYPE
5
14
100
AcDbSymbolTableRecord
100
AcDbLinetypeTableRecord
70
0
2
ByBlock
3

72
65
73
0
40
0
0
LTYPE
5
15
100
AcDbSymbolTableRecord
100
AcDbLinetypeTableRecord
70
0
2
ByLayer
3

72
65
73
0
40
0
0
LTYPE
5
16
100
AcDbSymbolTableRecord
100
AcDbLinetypeTableRecord
70
0
2
CONTINUOUS
3
Solid line
72
65
73
0
40
0
0
LTYPE
5
6A
100
AcDbSymbolTableRecord
100
AcDbLinetypeTableRecord
70
0
2
CENTER
3
____ _ ____ _ ____ _ ____
72
65
73
4
40
47.5
49
22
74
0
49
-8.5
74
0
49
8.5
74
0
49
-8.5
74
0
0
LTYPE
5
6B
100
AcDbSymbolTableRecord
100
AcDbLinetypeTableRecord
70
0
2
DASHED
3
__ __ __ __ __ __ __ __ __
72
65
73
2
40
25.72
49
12.86
74
0
49
-12.86
74
0
0
ENDTAB
0
TABLE
2
LAYER
5
281
100
AcDbSymbolTable
0
LAYER
5
10
100
AcDbSymbolTableRecord
100
AcDbLayerTableRecord
2
0
70
0
62
7
6
CONTINUOUS
290
1
370
-3
390
0
0
LAYER
5
6D
100
AcDbSymbolTableRecord
100
AcDbLayerTableRecord
2
80
70
0
62
-6
6
CONTINUOUS
290
1
370
-3
390
0
0
LAYER
5
6F
100
AcDbSymbolTableRecord
100
AcDbLayerTableRecord
2
1
70
0
62
4
6
CONTINUOUS
290
1
370
-3
390
0
0
LAYER
5
71
100
AcDbSymbolTableRecord
100
AcDbLayerTableRecord
2
81
70
0
62
-3
6
CONTINUOUS
290
1
370
-3
390
0
0
LAYER
5
73
100
AcDbSymbolTableRecord
100
AcDbLayerTableRecord
2
4
70
0
62
-2
6
CENTER
290
1
370
-3
390
0
0
LAYER
5
F6
100
AcDbSymbolTableRecord
100
AcDbLayerTableRecord
2
2
70
0
62
7
6
CONTINUOUS
290
1
370
-3
390
0
0
LAYER
5
26c
100
AcDbSymbolTableRecord
100
AcDbLayerTableRecord
2
SK1
70
0
62
4
6
CONTINUOUS
290
1
370
-3
390
0
0
LAYER
5
26d
100
AcDbSymbolTableRecord
100
AcDbLayerTableRecord
2
SK6
70
0
62
5
6
CONTINUOUS
290
1
370
-3
390
0
0
LAYER
5
26e
100
AcDbSymbolTableRecord
100
AcDbLayerTableRecord
2
SK2
70
0
62
7
6
CONTINUOUS
290
1
370
-3
390
0
0
ENDTAB
0
TABLE
2
STYLE
5
282
100
AcDbSymbolTable
0
STYLE
5
11
100
AcDbSymbolTableRecord
100
AcDbTextStyleTableRecord
2
Standard
3
txt
70
0
71
0
40
0
41
1
42
0
50
0
0
STYLE
5
1CE
100
AcDbSymbolTableRecord
100
AcDbTextStyleTableRecord
2
iso_b_vert
3
simplex.shx
70
0
71
0
40
0
41
1
42
0
50
0
0
STYLE
5
1CF
100
AcDbSymbolTableRecord
100
AcDbTextStyleTableRecord
2
DWGDirectTextStyle
3
simplex
70
0
71
0
40
0
41
1
42
0
50
0
0
ENDTAB
0
TABLE
2
DIMSTYLE
5
283
100
AcDbSymbolTable
100
AcDbDimStyleTable
0
DIMSTYLE
105
27
100
AcDbSymbolTableRecord
100
AcDbDimStyleTableRecord
2
Standard
70
0
3
<>
41
0.18
42
0.0625
44
0.18
140
0.18
147
0.09
73
0
74
0
77
1
271
2
275
0
278
52
280
0
340
11
0
ENDTAB
0
TABLE
2
VIEW
5
284
100
AcDbSymbolTable
0
ENDTAB
0
TABLE
2
UCS
5
285
100
AcDbSymbolTable
0
ENDTAB
0
TABLE
2
APPID
5
286
100
AcDbSymbolTable
0
APPID
5
12
100
AcDbSymbolTableRecord
100
AcDbRegAppTableRecord
2
ACAD
70
0
0
ENDTAB
0
TABLE
2
BLOCK_RECORD
5
287
100
AcDbSymbolTable
0
BLOCK_RECORD
5
1F
100
AcDbSymbolTableRecord
100
AcDbBlockTableRecord
2
*Model_Space
340
0
70
0
0
BLOCK_RECORD
5
1B
100
AcDbSymbolTableRecord
100
AcDbBlockTableRecord
2
*Paper_Space
340
0
70
0
0
BLOCK_RECORD
5
23
100
AcDbSymbolTableRecord
100
AcDbBlockTableRecord
2
*Paper_Space0
340
0
70
0
0
BLOCK_RECORD
5
1D2
100
AcDbSymbolTableRecord
100
AcDbBlockTableRecord
2
DimnDraft3D1
340
0
70
0
0
BLOCK_RECORD
5
1E1
100
AcDbSymbolTableRecord
100
AcDbBlockTableRecord
2
_CLOSED
340
0
70
0
0
BLOCK_RECORD
5
1E8
100
AcDbSymbolTableRecord
100
AcDbBlockTableRecord
2
DimnDraft3D2
340
0
70
0
0
BLOCK_RECORD
5
1F7
100
AcDbSymbolTableRecord
100
AcDbBlockTableRecord
2
DimnDraft3D3
340
0
70
0
0
BLOCK_RECORD
5
205
100
AcDbSymbolTableRecord
100
AcDbBlockTableRecord
2
DimnDraft3D4
340
0
70
0
0
ENDTAB
0
ENDSEC
0
SECTION
2
BLOCKS
0
BLOCK
5
20
100
AcDbEntity
8
0
100
AcDbBlockBegin
2
*Model_Space
70
0
10
0
20
0
30
0
3
*Model_Space
0
ENDBLK
5
21
100
AcDbEntity
8
0
100
AcDbBlockEnd
0
BLOCK
5
1C
100
AcDbEntity
8
0
100
AcDbBlockBegin
2
*Paper_Space
70
0
10
0
20
0
30
0
3
*Paper_Space
0
ENDBLK
5
1D
100
AcDbEntity
8
0
100
AcDbBlockEnd
0
BLOCK
5
24
100
AcDbEntity
8
0
100
AcDbBlockBegin
2
*Paper_Space0
70
0
10
0
20
0
30
0
3
*Paper_Space0
0
ENDBLK
5
25
100
AcDbEntity
8
0
100
AcDbBlockEnd
0
BLOCK
5
1DE
100
AcDbEntity
8
0
100
AcDbBlockBegin
2
DimnDraft3D1
70
0
10
0
20
0
30
0
3
DimnDraft3D1
0
MTEXT
5
1D3
100
AcDbEntity
8
2
62
256
6
ByLayer
370
13
48
1
60
0
100
AcDbMText
10
99.875907
20
-8.655525
30
0
210
0
220
0
230
1
1
\W0.8531;50%%d
40
4.5
41
0
44
1.084337
50
308.710593267763
71
7
72
5
7
iso_b_vert
0
LINE
5
1D4
100
AcDbEntity
8
2
62
256
6
ByLayer
370
13
48
1
60
0
100
AcDbLine
10
109.975922
20
-4.630728
30
0
11
98.767968
21
-14.135765
31
0
39
0
210
0
220
0
230
1
0
LINE
5
1D5
100
AcDbEntity
8
2
62
256
6
ByLayer
370
13
48
1
60
0
100
AcDbLine
10
115
20
-1.5875
30
0
11
115
21
-21.653213
31
0
39
0
210
0
220
0
230
1
0
ARC
5
1D6
100
AcDbEntity
8
2
62
256
6
ByLayer
370
13
48
1
60
0
100
AcDbCircle
39
0
10
115
20
-0.37
30
0
40
18.1082127867949
210
0
220
0
230
1
100
AcDbArc
50
205.898537
51
220.3
0
ARC
5
1D7
100
AcDbEntity
8
2
62
256
6
ByLayer
370
13
48
1
60
0
100
AcDbCircle
39
0
10
115
20
-0.37
30
0
40
18.1082127867949
210
0
220
0
230
1
100
AcDbArc
50
220.3
51
270
0
LINE
5
1D8
100
AcDbEntity
8
2
62
256
6
ByLayer
370
13
48
1
60
0
100
AcDbLine
10
101.18944
20
-12.082207
30
0
11
103.971031
21
-13.833523
31
0
39
0
210
0
220
0
230
1
0
LINE
5
1D9
100
AcDbEntity
8
2
62
256
6
ByLayer
370
13
48
1
60
0
100
AcDbLine
10
101.18944
20
-12.082207
30
0
11
102.722713
21
-14.989693
31
0
39
0
210
0
220
0
230
1
0
LINE
5
1DA
100
AcDbEntity
8
2
62
256
6
ByLayer
370
13
48
1
60
0
100
AcDbLine
10
103.971031
20
-13.833523
30
0
11
102.722713
21
-14.989693
31
0
39
0
210
0
220
0
230
1
0
LINE
5
1DB
100
AcDbEntity
8
2
62
256
6
ByLayer
370
13
48
1
60
0
100
AcDbLine
10
115
20
-18.478213
30
0
11
111.790853
21
-19.189366
31
0
39
0
210
0
220
0
230
1
0
LINE
5
1DC
100
AcDbEntity
8
2
62
256
6
ByLayer
370
13
48
1
60
0
100
AcDbLine
10
115
20
-18.478213
30
0
11
111.865215
21
-17.489514
31
0
39
0
210
0
220
0
230
1
0
LINE
5
1DD
100
AcDbEntity
8
2
62
256
6
ByLayer
370
13
48
1
60
0
100
AcDbLine
10
111.790853
20
-19.189366
30
0
11
111.865215
21
-17.489514
31
0
39
0
210
0
220
0
230
1
0
ENDBLK
5
1DF
100
AcDbEntity
8
0
100
AcDbBlockEnd
0
BLOCK
5
1E2
100
AcDbEntity
8
0
100
AcDbBlockBegin
2
_CLOSED
70
0
10
0
20
0
30
0
3
_CLOSED
0
LINE
5
1E4
100
AcDbEntity
8
0
62
256
6
ByLayer
370
-2
48
1
60
0
100
AcDbLine
10
-1
20
0.166667
30
0
11
0
21
0
31
0
39
0
210
0
220
0
230
1
0
LINE
5
1E5
100
AcDbEntity
8
0
62
256
6
ByLayer
370
-2
48
1
60
0
100
AcDbLine
10
0
20
0
30
0
11
-1
21
-0.166667
31
0
39
0
210
0
220
0
230
1
0
LINE
5
1E6
100
AcDbEntity
8
0
62
256
6
ByLayer
370
-2
48
1
60
0
100
AcDbLine
10
-1
20
0.166667
30
0
11
-1
21
-0.166667
31
0
39
0
210
0
220
0
230
1
0
LINE
5
1E7
100
AcDbEntity
8
0
62
256
6
ByLayer
370
-2
48
1
60
0
100
AcDbLine
10
0
20
0
30
0
11
-1
21
0
31
0
39
0
210
0
220
0
230
1
0
ENDBLK
5
1E3
100
AcDbEntity
8
0
100
AcDbBlockEnd
0
BLOCK
5
1F4
100
AcDbEntity
8
0
100
AcDbBlockBegin
2
DimnDraft3D2
70
0
10
0
20
0
30
0
3
DimnDraft3D2
0
MTEXT
5
1E9
100
AcDbEntity
8
SK2
62
256
6
ByLayer
370
13
48
1
60
0
100
AcDbMText
10
10.432407
20
55.096211
30
0
210
0
220
0
230
1
1
\W0.6217;153
40
4.5
41
0
44
1.084337
50
0
71
7
72
5
7
iso_b_vert
0
LINE
5
1EB
100
AcDbEntity
8
SK2
62
256
6
ByLayer
370
13
48
1
60
0
100
AcDbLine
10
-38
20
1.5875
30
0
11
-38
21
57.146211
31
0
39
0
210
0
220
0
230
1
0
LINE
5
1EC
100
AcDbEntity
8
SK2
62
256
6
ByLayer
370
13
48
1
60
0
100
AcDbLine
10
115
20
1.5875
30
0
11
115
21
57.146211
31
0
39
0
210
0
220
0
230
1
0
LINE
5
1ED
100
AcDbEntity
8
SK2
62
256
6
ByLayer
370
13
48
1
60
0
100
AcDbLine
10
-38
20
53.971211
30
0
11
115
21
53.971211
31
0
39
0
210
0
220
0
230
1
0
LINE
5
1EE
100
AcDbEntity
8
SK2
62
256
6
ByLayer
370
13
48
1
60
0
100
AcDbLine
10
-38
20
53.971211
30
0
11
-34.825003
21
54.821949
31
0
39
0
210
0
220
0
230
1
0
LINE
5
1EF
100
AcDbEntity
8
SK2
62
256
6
ByLayer
370
13
48
1
60
0
100
AcDbLine
10
-38
20
53.971211
30
0
11
-34.824997
21
53.120472
31
0
39
0
210
0
220
0
230
1
0
LINE
5
1F0
100
AcDbEntity
8
SK2
62
256
6
ByLayer
370
13
48
1
60
0
100
AcDbLine
10
-34.825003
20
54.821949
30
0
11
-34.824997
21
53.120472
31
0
39
0
210
0
220
0
230
1
0
LINE
5
1F1
100
AcDbEntity
8
SK2
62
256
6
ByLayer
370
13
48
1
60
0
100
AcDbLine
10
115
20
53.971211
30
0
11
111.825003
21
53.120472
31
0
39
0
210
0
220
0
230
1
0
LINE
5
1F2
100
AcDbEntity
8
SK2
62
256
6
ByLayer
370
13
48
1
60
0
100
AcDbLine
10
115
20
53.971211
30
0
11
111.824997
21
54.821949
31
0
39
0
210
0
220
0
230
1
0
LINE
5
1F3
100
AcDbEntity
8
SK2
62
256
6
ByLayer
370
13
48
1
60
0
100
AcDbLine
10
111.825003
20
53.120472
30
0
11
111.824997
21
54.821949
31
0
39
0
210
0
220
0
230
1
0
ENDBLK
5
1F5
100
AcDbEntity
8
0
100
AcDbBlockEnd
0
BLOCK
5
202
100
AcDbEntity
8
0
100
AcDbBlockBegin
2
DimnDraft3D3
70
0
10
0
20
0
30
0
3
DimnDraft3D3
0
MTEXT
5
1F8
100
AcDbEntity
8
2
62
256
6
ByLayer
370
13
48
1
60
0
100
AcDbMText
10
157.239069
20
15.788219
30
0
210
0
220
0
230
1
1
\W0.7451;0.4
40
4.5
41
0
44
1.084337
50
90
71
7
72
5
7
iso_b_vert
0
LINE
5
1F9
100
AcDbEntity
8
2
62
256
6
ByLayer
370
13
48
1
60
0
100
AcDbLine
10
116.5875
20
0
30
0
11
161.539069
21
0
31
0
39
0
210
0
220
0
230
1
0
LINE
5
1FA
100
AcDbEntity
8
2
62
256
6
ByLayer
370
13
48
1
60
0
100
AcDbLine
10
126.5875
20
-0.37
30
0
11
161.539069
21
-0.37
31
0
39
0
210
0
220
0
230
1
0
LINE
5
1FB
100
AcDbEntity
8
2
62
256
6
ByLayer
370
13
48
1
60
0
100
AcDbLine
10
158.364069
20
-11.62
30
0
11
158.364069
21
22.336903
31
0
39
0
210
0
220
0
230
1
0
LINE
5
1FC
100
AcDbEntity
8
2
62
256
6
ByLayer
370
13
48
1
60
0
100
AcDbLine
10
158.364069
20
0
30
0
11
157.51333
21
3.174997
31
0
39
0
210
0
220
0
230
1
0
LINE
5
1FD
100
AcDbEntity
8
2
62
256
6
ByLayer
370
13
48
1
60
0
100
AcDbLine
10
158.364069
20
0
30
0
11
159.214808
21
3.175003
31
0
39
0
210
0
220
0
230
1
0
LINE
5
1FE
100
AcDbEntity
8
2
62
256
6
ByLayer
370
13
48
1
60
0
100
AcDbLine
10
157.51333
20
3.174997
30
0
11
159.214808
21
3.175003
31
0
39
0
210
0
220
0
230
1
0
LINE
5
1FF
100
AcDbEntity
8
2
62
256
6
ByLayer
370
13
48
1
60
0
100
AcDbLine
10
158.364069
20
-0.37
30
0
11
159.214808
21
-3.544997
31
0
39
0
210
0
220
0
230
1
0
LINE
5
200
100
AcDbEntity
8
2
62
256
6
ByLayer
370
13
48
1
60
0
100
AcDbLine
10
158.364069
20
-0.37
30
0
11
157.51333
21
-3.545003
31
0
39
0
210
0
220
0
230
1
0
LINE
5
201
100
AcDbEntity
8
2
62
256
6
ByLayer
370
13
48
1
60
0
100
AcDbLine
10
159.214808
20
-3.544997
30
0
11
157.51333
21
-3.545003
31
0
39
0
210
0
220
0
230
1
0
ENDBLK
5
203
100
AcDbEntity
8
0
100
AcDbBlockEnd
0
BLOCK
5
210
100
AcDbEntity
8
0
100
AcDbBlockBegin
2
DimnDraft3D4
70
0
10
0
20
0
30
0
3
DimnDraft3D4
0
MTEXT
5
206
100
AcDbEntity
8
SK2
62
256
6
ByLayer
370
13
48
1
60
0
100
AcDbMText
10
-50.210109
20
-1.093817
30
0
210
0
220
0
230
1
1
\W0.6740;63
40
4.5
41
0
44
1.084337
50
90
71
7
72
5
7
iso_b_vert
0
LINE
5
207
100
AcDbEntity
8
SK2
62
256
6
ByLayer
370
13
48
1
60
0
100
AcDbLine
10
-1.5875
20
31.5
30
0
11
-52.260109
21
31.5
31
0
39
0
210
0
220
0
230
1
0
LINE
5
208
100
AcDbEntity
8
SK2
62
256
6
ByLayer
370
13
48
1
60
0
100
AcDbLine
10
-1.5875
20
-31.5
30
0
11
-52.260109
21
-31.5
31
0
39
0
210
0
220
0
230
1
0
LINE
5
209
100
AcDbEntity
8
SK2
62
256
6
ByLayer
370
13
48
1
60
0
100
AcDbLine
10
-49.085109
20
31.5
30
0
11
-49.085109
21
-31.5
31
0
39
0
210
0
220
0
230
1
0
LINE
5
20A
100
AcDbEntity
8
SK2
62
256
6
ByLayer
370
13
48
1
60
0
100
AcDbLine
10
-49.085109
20
31.5
30
0
11
-48.23437
21
28.325003
31
0
39
0
210
0
220
0
230
1
0
LINE
5
20B
100
AcDbEntity
8
SK2
62
256
6
ByLayer
370
13
48
1
60
0
100
AcDbLine
10
-49.085109
20
31.5
30
0
11
-49.935848
21
28.324997
31
0
39
0
210
0
220
0
230
1
0
LINE
5
20C
100
AcDbEntity
8
SK2
62
256
6
ByLayer
370
13
48
1
60
0
100
AcDbLine
10
-48.23437
20
28.325003
30
0
11
-49.935848
21
28.324997
31
0
39
0
210
0
220
0
230
1
0
LINE
5
20D
100
AcDbEntity
8
SK2
62
256
6
ByLayer
370
13
48
1
60
0
100
AcDbLine
10
-49.085109
20
-31.5
30
0
11
-49.935848
21
-28.325003
31
0
39
0
210
0
220
0
230
1
0
LINE
5
20E
100
AcDbEntity
8
SK2
62
256
6
ByLayer
370
13
48
1
60
0
100
AcDbLine
10
-49.085109
20
-31.5
30
0
11
-48.23437
21
-28.324997
31
0
39
0
210
0
220
0
230
1
0
LINE
5
20F
100
AcDbEntity
8
SK2
62
256
6
ByLayer
370
13
48
1
60
0
100
AcDbLine
10
-49.935848
20
-28.325003
30
0
11
-48.23437
21
-28.324997
31
0
39
0
210
0
220
0
230
1
0
ENDBLK
5
211
100
AcDbEntity
8
0
100
AcDbBlockEnd
0
ENDSEC
0
SECTION
2
ENTITIES
0
ARC
5
FF
100
AcDbEntity
8
1
62
256
6
ByLayer
370
13
48
1
60
0
100
AcDbCircle
39
0
10
-22.279208
20
32.7
30
0
40
1.2
210
0
220
0
230
-1
100
AcDbArc
50
253.656017
51
270
0
ARC
5
100
100
AcDbEntity
8
1
62
256
6
ByLayer
370
13
48
1
60
0
100
AcDbCircle
39
0
10
-22.279208
20
-32.7
30
0
40
1.2
210
0
220
0
230
-1
100
AcDbArc
50
90
51
106.343983
0
ELLIPSE
5
101
100
AcDbEntity
8
1
62
256
6
ByLayer
370
13
48
1
60
0
100
AcDbEllipse
10
95.788437
20
6.05682
30
0
11
-0.654867462295359
21
-1.45984540511207
31
0
210
0
220
0
230
1
40
0.103293
41
-1.4953597452048
42
-0.0118298810097194
0
ELLIPSE
5
102
100
AcDbEntity
8
1
62
256
6
ByLayer
370
13
48
1
60
0
100
AcDbEllipse
10
98.437855
20
-1.91287
30
0
11
-1.59834280997462
21
0.072802896937184
31
0
210
0
220
0
230
1
40
0.032507
41
0.654259064756631
42
1.44699671812165
0
ELLIPSE
5
103
100
AcDbEntity
8
1
62
256
6
ByLayer
370
13
48
1
60
0
100
AcDbEllipse
10
124.709557
20
-45.824685
30
0
11
-19.9236166115469
21
42.1524430929734
31
0
210
0
220
0
230
-1
40
0.036583
41
0.342095682984026
42
0.394731860367445
0
ELLIPSE
5
104
100
AcDbEntity
8
1
62
256
6
ByLayer
370
13
48
1
60
0
100
AcDbEllipse
10
103.85534
20
-2.156426
30
0
11
-1.62549227929697
21
2.14743584888731
31
0
210
0
220
0
230
-1
40
0.245166
41
-2.55647442779713
42
-2.25985882208393
0
ELLIPSE
5
105
100
AcDbEntity
8
1
62
256
6
ByLayer
370
13
48
1
60
0
100
AcDbEllipse
10
101.709648
20
11.895371
30
0
11
-1.52435334874824
21
1.34010865513308
31
0
210
0
220
0
230
-1
40
0.006276
41
1.30334400168669
42
1.8774819834128
0
ELLIPSE
5
106
100
AcDbEntity
8
1
62
256
6
ByLayer
370
13
48
1
60
0
100
AcDbEllipse
10
101.907016
20
11.713679
30
0
11
-2.28653002283307
21
2.01016298244436
31
0
210
0
220
0
230
-1
40
0.006276
41
-0.094740071253228
42
1.30334400168783
0
ELLIPSE
5
107
100
AcDbEntity
8
1
62
256
6
ByLayer
370
13
48
1
60
0
100
AcDbEllipse
10
103.811881
20
-1.421376
30
0
11
-0.614449858349658
21
2.49052117094904
31
0
210
0
220
0
230
-1
40
0.99144
41
-2.88641693513442
42
-2.19352363906205
0
ELLIPSE
5
108
100
AcDbEntity
8
1
62
256
6
ByLayer
370
13
48
1
60
0
100
AcDbEllipse
10
97.005127
20
-6.706997
30
0
11
0.458631422021188
21
-2.15166382567882
31
0
210
0
220
0
230
1
40
0.991822
41
-2.03665158109059
42
2.80366352765762
0
ELLIPSE
5
109
100
AcDbEntity
8
1
62
256
6
ByLayer
370
13
48
1
60
0
100
AcDbEllipse
10
101.160098
20
-1.219763
30
0
11
-1.75288217105643
21
2.13988658920383
31
0
210
0
220
0
230
-1
40
0.246006
41
-2.46565865866687
42
-1.60897511979
0
ELLIPSE
5
10A
100
AcDbEntity
8
1
62
256
6
ByLayer
370
13
48
1
60
0
100
AcDbEllipse
10
57.139557
20
0.083182
30
0
11
8.6443955053903
21
-40.5550780228696
31
0
210
0
220
0
230
1
40
0.991822
41
1.31325436903761
42
1.41258890749446
0
ELLIPSE
5
10B
100
AcDbEntity
8
1
62
256
6
ByLayer
370
13
48
1
60
0
100
AcDbEllipse
10
184.158152
20
-230.00362
30
0
11
-38.4944107602785
21
-243.36093632964
31
0
210
0
220
0
230
-1
40
0.95308
41
2.50046126359289
42
2.54541350573301
0
ELLIPSE
5
10C
100
AcDbEntity
8
1
62
256
6
ByLayer
370
13
48
1
60
0
100
AcDbEllipse
10
103.772982
20
-4.894606
30
0
11
-0.218007807425348
21
0.883640954920618
31
0
210
0
220
0
230
-1
40
0.99144
41
0.2551757185583
42
1.00050386670351
0
ELLIPSE
5
10D
100
AcDbEntity
8
1
62
256
6
ByLayer
370
13
48
1
60
0
100
AcDbEllipse
10
197.063328
20
-232.651072
30
0
11
52.1438455363039
21
-244.632227067656
31
0
210
0
220
0
230
1
40
0.991822
41
-2.93016992604138
42
-2.75321656652829
0
ELLIPSE
5
10E
100
AcDbEntity
8
1
62
256
6
ByLayer
370
13
48
1
60
0
100
AcDbEllipse
10
99.770749
20
1.168906
30
0
11
-0.839102052082307
21
-0.96656880598047
31
0
210
0
220
0
230
-1
40
0.369996
41
1.10363606262462
42
2.02208313378698
0
ELLIPSE
5
10F
100
AcDbEntity
8
1
62
256
6
ByLayer
370
13
48
1
60
0
100
AcDbEllipse
10
96.880303
20
-6.733603
30
0
11
-0.458631422021191
21
2.15166382567883
31
0
210
0
220
0
230
1
40
0.991822
41
-1.77913743241756
42
-4.07046288043678E-16
0
ELLIPSE
5
110
100
AcDbEntity
8
1
62
256
6
ByLayer
370
13
48
1
60
0
100
AcDbEllipse
10
96.880303
20
-6.733603
30
0
11
-0.458631422021191
21
2.15166382567883
31
0
210
0
220
0
230
1
40
0.991822
41
-3.11235075191368
42
-1.77913743241758
0
ELLIPSE
5
111
100
AcDbEntity
8
1
62
256
6
ByLayer
370
13
48
1
60
0
100
AcDbEllipse
10
-66.989548
20
0.676472
30
0
11
-310.304155008701
21
1.04874752970506
31
0
210
0
220
0
230
-1
40
0.094094
41
1.98507996644678
42
1.9873421829792
0
ELLIPSE
5
112
100
AcDbEntity
8
1
62
256
6
ByLayer
370
13
48
1
60
0
100
AcDbEllipse
10
105.450682
20
-6.465759
30
0
11
-0.212521755584389
21
0.861404567758002
31
0
210
0
220
0
230
-1
40
0.99144
41
1.00050387399667
42
1.38419116443369
0
ELLIPSE
5
113
100
AcDbEntity
8
1
62
256
6
ByLayer
370
13
48
1
60
0
100
AcDbEllipse
10
101.710343
20
1.000864
30
0
11
-0.60674564710063
21
2.45929404863073
31
0
210
0
220
0
230
-1
40
0.99144
41
-0.630866989822729
42
0.525478170357266
0
ELLIPSE
5
114
100
AcDbEntity
8
1
62
256
6
ByLayer
370
13
48
1
60
0
100
AcDbEllipse
10
195.439411
20
232.963225
30
0
11
52.1438455363086
21
-244.632227067678
31
0
210
0
220
0
230
1
40
0.991822
41
-0.640977256456288
42
-0.627778915813667
0
ELLIPSE
5
115
100
AcDbEntity
8
1
62
256
6
ByLayer
370
13
48
1
60
0
100
AcDbEllipse
10
195.439411
20
232.963225
30
0
11
52.1438455363086
21
-244.632227067678
31
0
210
0
220
0
230
1
40
0.991822
41
-0.747614468696575
42
-0.640977256456288
0
ELLIPSE
5
116
100
AcDbEntity
8
1
62
256
6
ByLayer
370
13
48
1
60
0
100
AcDbEllipse
10
105.832204
20
4.302865
30
0
11
-0.424241996887164
21
-0.713816834145312
31
0
210
0
220
0
230
-1
40
0.245253
41
2.52203066468931
42
3.05755731900076
0
ELLIPSE
5
117
100
AcDbEntity
8
1
62
256
6
ByLayer
370
13
48
1
60
0
100
AcDbEllipse
10
196.881017
20
-232.689932
30
0
11
-51.8115646701255
21
243.073335362044
31
0
210
0
220
0
230
1
40
0.991822
41
0.21471004679813
42
0.380477930108957
0
ELLIPSE
5
118
100
AcDbEntity
8
1
62
256
6
ByLayer
370
13
48
1
60
0
100
AcDbEllipse
10
26.347154
20
0
30
0
11
-14.7536831606548
21
31.0932549155808
31
0
210
0
220
0
230
-1
40
0.341999
41
-1.09123958575285
42
-0.157806186645458
0
ELLIPSE
5
119
100
AcDbEntity
8
1
62
256
6
ByLayer
370
13
48
1
60
0
100
AcDbEllipse
10
96.006539
20
-6.919848
30
0
11
-0.343973566515892
21
1.61374786925911
31
0
210
0
220
0
230
1
40
0.991822
41
-1.77913758398554
42
-0.254188893038305
0
ELLIPSE
5
11A
100
AcDbEntity
8
1
62
256
6
ByLayer
370
13
48
1
60
0
100
AcDbEllipse
10
96.006539
20
-6.919848
30
0
11
-0.343973566515892
21
1.61374786925911
31
0
210
0
220
0
230
1
40
0.991822
41
-2.88743235737739
42
-1.77913758398554
0
ELLIPSE
5
11B
100
AcDbEntity
8
1
62
256
6
ByLayer
370
13
48
1
60
0
100
AcDbEllipse
10
-2.347154
20
0
30
0
11
-14.753683160657
21
-31.0932549155806
31
0
210
0
220
0
230
-1
40
0.341999
41
-2.98378646694435
42
-2.050353067837
0
ELLIPSE
5
11C
100
AcDbEntity
8
1
62
256
6
ByLayer
370
13
48
1
60
0
100
AcDbEllipse
10
129.378004
20
-0.837472
30
0
11
-57.7360316213191
21
-4.57570499996599
31
0
210
0
220
0
230
-1
40
0.375023
41
-0.375011278151775
42
-0.123745827946218
0
ELLIPSE
5
11D
100
AcDbEntity
8
1
62
256
6
ByLayer
370
13
48
1
60
0
100
AcDbEllipse
10
102.219946
20
11.399675
30
0
11
-2.28653002283211
21
2.01016298244321
31
0
210
0
220
0
230
-1
40
0.006276
41
-1.66553639804178
42
-0.0947400712556089
0
ELLIPSE
5
11E
100
AcDbEntity
8
1
62
256
6
ByLayer
370
13
48
1
60
0
100
AcDbEllipse
10
96.81165
20
-6.748236
30
0
11
-0.343973566515892
21
1.61374786925911
31
0
210
0
220
0
230
1
40
0.991822
41
0
42
6.28318530717959
0
ELLIPSE
5
11F
100
AcDbEntity
8
1
62
256
6
ByLayer
370
13
48
1
60
0
100
AcDbEllipse
10
93.811594
20
-1.735869
30
0
11
0.931048862306678
21
-4.36800459099846
31
0
210
0
220
0
230
1
40
0.991822
41
0.687322689755486
42
1.31325436903761
0
ELLIPSE
5
120
100
AcDbEntity
8
1
62
256
6
ByLayer
370
13
48
1
60
0
100
AcDbEllipse
10
93.979999
20
1.975557
30
0
11
-0.598767996127928
21
2.80911288538606
31
0
210
0
220
0
230
1
40
0.991822
41
-0.747622981660878
42
-0.728489165082419
0
ELLIPSE
5
121
100
AcDbEntity
8
1
62
256
6
ByLayer
370
13
48
1
60
0
100
AcDbEllipse
10
93.979999
20
1.975557
30
0
11
-0.598767996127928
21
2.80911288538606
31
0
210
0
220
0
230
1
40
0.991822
41
-0.728489514834996
42
-0.62777891581363
0
ELLIPSE
5
122
100
AcDbEntity
8
1
62
256
6
ByLayer
370
13
48
1
60
0
100
AcDbEllipse
10
-2.347154
20
0
30
0
11
-14.7536831606569
21
31.0932549155805
31
0
210
0
220
0
230
-1
40
0.341999
41
2.050353067837
42
2.98378646694435
0
ELLIPSE
5
123
100
AcDbEntity
8
1
62
256
6
ByLayer
370
13
48
1
60
0
100
AcDbEllipse
10
103.096879
20
5.825032
30
0
11
-0.598170167042507
21
2.42453545224256
31
0
210
0
220
0
230
-1
40
0.99144
41
2.68352827418204
42
-2.61611448323426
0
ELLIPSE
5
124
100
AcDbEntity
8
1
62
256
6
ByLayer
370
13
48
1
60
0
100
AcDbEllipse
10
99.283254
20
0.824616
30
0
11
-2.51259943769628
21
-0.623517158403628
31
0
210
0
220
0
230
-1
40
0.84059
41
2.22084833564167
42
2.28862120141981
0
ELLIPSE
5
125
100
AcDbEntity
8
1
62
256
6
ByLayer
370
13
48
1
60
0
100
AcDbEllipse
10
93.993905
20
-1.697009
30
0
11
-0.598767996127928
21
2.80911288538606
31
0
210
0
220
0
230
1
40
0.991822
41
-2.93016992604137
42
-2.4158037808032
0
ELLIPSE
5
126
100
AcDbEntity
8
1
62
256
6
ByLayer
370
13
48
1
60
0
100
AcDbEllipse
10
93.993905
20
-1.697009
30
0
11
-0.598767996127928
21
2.80911288538606
31
0
210
0
220
0
230
1
40
0.991822
41
-2.41580378603144
42
-2.39397369644027
0
ELLIPSE
5
127
100
AcDbEntity
8
1
62
256
6
ByLayer
370
13
48
1
60
0
100
AcDbEllipse
10
102.256396
20
5.554267
30
0
11
-3.42627196048845
21
-0.850250670525613
31
0
210
0
220
0
230
-1
40
0.84059
41
-1.29611922109274
42
-0.852971452175383
0
ELLIPSE
5
128
100
AcDbEntity
8
1
62
256
6
ByLayer
370
13
48
1
60
0
100
AcDbEllipse
10
195.2571
20
232.924365
30
0
11
-51.8115646701302
21
243.073335362066
31
0
210
0
220
0
230
1
40
0.991822
41
2.33963382793708
42
2.51381373777613
0
ELLIPSE
5
129
100
AcDbEntity
8
1
62
256
6
ByLayer
370
13
48
1
60
0
100
AcDbEllipse
10
26.347154
20
0
30
0
11
-14.7536831606544
21
-31.0932549155803
31
0
210
0
220
0
230
-1
40
0.341999
41
0.157806186645463
42
1.09123958575286
0
ELLIPSE
5
12A
100
AcDbEntity
8
1
62
256
6
ByLayer
370
13
48
1
60
0
100
AcDbEllipse
10
102.083541
20
2.818065
30
0
11
-1.6931034632144
21
-1.40477779839069
31
0
210
0
220
0
230
1
40
0.094636
41
-1.28879281587185
42
-0.208550834003366
0
ELLIPSE
5
12B
100
AcDbEntity
8
1
62
256
6
ByLayer
370
13
48
1
60
0
100
AcDbEllipse
10
101.392834
20
0.617882
30
0
11
-0.606954016774109
21
2.46013862370566
31
0
210
0
220
0
230
-1
40
0.99144
41
-2.19352363910645
42
-0.630866989815469
0
ELLIPSE
5
12C
100
AcDbEntity
8
1
62
256
6
ByLayer
370
13
48
1
60
0
100
AcDbEllipse
10
38.411727
20
58.185471
30
0
11
-72.0354785926898
21
68.7819700788418
31
0
210
0
220
0
230
-1
40
0.020765
41
2.7269978408701
42
2.77354144935805
0
ELLIPSE
5
12D
100
AcDbEntity
8
1
62
256
6
ByLayer
370
13
48
1
60
0
100
AcDbEllipse
10
99.379323
20
0.82564
30
0
11
-1.3521501740346
21
-2.18956950585969
31
0
210
0
220
0
230
-1
40
0.240275
41
2.0387739778948
42
2.26575730802041
0
ELLIPSE
5
12E
100
AcDbEntity
8
1
62
256
6
ByLayer
370
13
48
1
60
0
100
AcDbEllipse
10
101.89284
20
3.047907
30
0
11
-1.6931034632144
21
-1.40477779839069
31
0
210
0
220
0
230
1
40
0.094636
41
-1.16941203388118
42
-0.106865600745968
0
ELLIPSE
5
12F
100
AcDbEntity
8
1
62
256
6
ByLayer
370
13
48
1
60
0
100
AcDbEllipse
10
95.830764
20
-5.770259
30
0
11
-0.656976049759366
21
1.45889769005321
31
0
210
0
220
0
230
1
40
0.124786
41
0.0602693817922247
42
1.14003044865537
0
ELLIPSE
5
130
100
AcDbEntity
8
1
62
256
6
ByLayer
370
13
48
1
60
0
100
AcDbEllipse
10
108.136226
20
6.171593
30
0
11
-0.407360286890215
21
0.362903713463073
31
0
210
0
220
0
230
-1
40
0.016469
41
-0.805835770440166
42
-0.270309115692139
0
ELLIPSE
5
131
100
AcDbEntity
8
1
62
256
6
ByLayer
370
13
48
1
60
0
100
AcDbEllipse
10
98.42227
20
2.202998
30
0
11
-1.59774702538379
21
-0.0848789896101404
31
0
210
0
220
0
230
1
40
0.020108
41
0.715338705372611
42
1.44440082099235
0
ELLIPSE
5
132
100
AcDbEntity
8
1
62
256
6
ByLayer
370
13
48
1
60
0
100
AcDbEllipse
10
93.797688
20
1.936697
30
0
11
0.931048862306678
21
-4.36800459099846
31
0
210
0
220
0
230
1
40
0.991822
41
1.41258890749446
42
2.51381373777617
0
ELLIPSE
5
133
100
AcDbEntity
8
1
62
256
6
ByLayer
370
13
48
1
60
0
100
AcDbEllipse
10
104.257066
20
5.665461
30
0
11
-2.49169985928234
21
1.86951247760057
31
0
210
0
220
0
230
-1
40
0.962276
41
1.65336021953031
42
1.83845716080204
0
ELLIPSE
5
134
100
AcDbEntity
8
1
62
256
6
ByLayer
370
18
48
1
60
0
100
AcDbEllipse
10
118.257531
20
-2.917207
30
0
11
-50.1966031498692
21
42.5684016339121
31
0
210
0
220
0
230
-1
40
0.016609
41
-1.47722211398572
42
-1.459155048466
0
ELLIPSE
5
135
100
AcDbEntity
8
1
62
256
6
ByLayer
370
18
48
1
60
0
100
AcDbEllipse
10
102.424412
20
-2.310578
30
0
11
-0.418131787133378
21
0.908386376267636
31
0
210
0
220
0
230
1
40
0.938438
41
-2.86409315812736
42
-1.11876390613303
0
ELLIPSE
5
136
100
AcDbEntity
8
1
62
256
6
ByLayer
370
18
48
1
60
0
100
AcDbEllipse
10
90.556839
20
-7.275012
30
0
11
-8.85031355771165
21
-7.34315667340589
31
0
210
0
220
0
230
1
40
0.094636
41
2.89154254899232
42
2.96397508708244
0
ELLIPSE
5
137
100
AcDbEntity
8
1
62
256
6
ByLayer
370
13
48
1
60
0
100
AcDbEllipse
10
121.916259
20
-7.326873
30
0
11
-13.4755168954883
21
7.04100471930537
31
0
210
0
220
0
230
-1
40
0.704986
41
-0.238714916821562
42
-0.093995585218142
0
ELLIPSE
5
138
100
AcDbEntity
8
1
62
256
6
ByLayer
370
18
48
1
60
0
100
AcDbEllipse
10
115.418081
20
0.505034
30
0
11
-8.85031355771164
21
-7.34315667340589
31
0
210
0
220
0
230
1
40
0.094636
41
-1.35768824848918
42
-0.939558063977754
0
ELLIPSE
5
139
100
AcDbEntity
8
1
62
256
6
ByLayer
370
18
48
1
60
0
100
AcDbEllipse
10
112.652747
20
-2.610374
30
0
11
1.53918496655855
21
1.27707072580972
31
0
210
0
220
0
230
1
40
0.094636
41
1.72647772290173
42
2.34738538932802
0
ELLIPSE
5
13A
100
AcDbEntity
8
1
62
256
6
ByLayer
370
18
48
1
60
0
100
AcDbEllipse
10
105.501353
20
-4.48949
30
0
11
0.646789779510463
21
-0.762668329695686
31
0
210
0
220
0
230
1
40
0.112614
41
-3.14158478311444
42
-1.49164959339925
0
ELLIPSE
5
13B
100
AcDbEntity
8
1
62
256
6
ByLayer
370
18
48
1
60
0
100
AcDbEllipse
10
114.214884
20
0.000196
30
0
11
-0.000709814656565855
21
-0.793749682622395
31
0
210
0
220
0
230
1
40
0.989122
41
0.991789345946138
42
2.15127958480505
0
ELLIPSE
5
13C
100
AcDbEntity
8
1
62
256
6
ByLayer
370
18
48
1
60
0
100
AcDbEllipse
10
98.22493
20
-0.877345
30
0
11
-1.53918496655855
21
-1.27707072580972
31
0
210
0
220
0
230
1
40
0.094636
41
2.81862428736643
42
-2.80133590405529
0
ELLIPSE
5
13D
100
AcDbEntity
8
1
62
256
6
ByLayer
370
13
48
1
60
0
100
AcDbEllipse
10
107.442627
20
0.933763
30
0
11
0.695996105754492
21
-0.394448248537855
31
0
210
0
220
0
230
1
40
0.197315
41
-1.54598273020944
42
-0.74286743735932
0
ELLIPSE
5
13E
100
AcDbEntity
8
1
62
256
6
ByLayer
370
18
48
1
60
0
100
AcDbEllipse
10
114.214884
20
0.000196
30
0
11
-0.000709814656565855
21
-0.793749682622395
31
0
210
0
220
0
230
1
40
0.989122
41
0.698869839378428
42
0.991789345946138
0
ELLIPSE
5
13F
100
AcDbEntity
8
1
62
256
6
ByLayer
370
13
48
1
60
0
100
AcDbEllipse
10
98.866651
20
8.057818
30
0
11
-0.908557211812438
21
-13.5189973721301
31
0
210
0
220
0
230
-1
40
0.81568
41
-1.17465702391655
42
-1.03780431981363
0
ELLIPSE
5
140
100
AcDbEntity
8
1
62
256
6
ByLayer
370
18
48
1
60
0
100
AcDbEllipse
10
102.291405
20
-0.565912
30
0
11
0.125439536140013
21
-0.272515912880291
31
0
210
0
220
0
230
1
40
0.938438
41
-2.86409315812727
42
-1.11876390613305
0
ELLIPSE
5
141
100
AcDbEntity
8
1
62
256
6
ByLayer
370
13
48
1
60
0
100
AcDbEllipse
10
107.447595
20
-0.248014
30
0
11
0.654802401159722
21
0.459601800948889
31
0
210
0
220
0
230
1
40
0.103523
41
-1.67764683359544
42
-1.01138522935725
0
ELLIPSE
5
142
100
AcDbEntity
8
1
62
256
6
ByLayer
370
13
48
1
60
0
100
AcDbEllipse
10
121.731555
20
-6.857267
30
0
11
-14.1757083402171
21
6.12654701892978
31
0
210
0
220
0
230
-1
40
0.73479
41
-0.161845757339442
42
-0.024993053140247
0
ELLIPSE
5
143
100
AcDbEntity
8
1
62
256
6
ByLayer
370
13
48
1
60
0
100
AcDbEllipse
10
88.785747
20
-1.325925
30
0
11
-15.6610716923269
21
2.1427602353509
31
0
210
0
220
0
230
-1
40
0.049557
41
-3.08131494777383
42
-2.93022486534052
0
ELLIPSE
5
144
100
AcDbEntity
8
1
62
256
6
ByLayer
370
18
48
1
60
0
100
AcDbEllipse
10
73.272271
20
38.734379
30
0
11
-37.7124816293951
21
51.7388264422409
31
0
210
0
220
0
230
-1
40
0.168655
41
2.4090813767324
42
2.46379591507495
0
ELLIPSE
5
145
100
AcDbEntity
8
1
62
256
6
ByLayer
370
18
48
1
60
0
100
AcDbEllipse
10
108.400619
20
5.921657
30
0
11
0.527007832005805
21
-0.593550172693548
31
0
210
0
220
0
230
1
40
0.332231
41
1.29575928468655
42
3.04108853668094
0
ELLIPSE
5
146
100
AcDbEntity
8
1
62
256
6
ByLayer
370
18
48
1
60
0
100
AcDbEllipse
10
112.652747
20
-2.610374
30
0
11
1.53918496655855
21
1.27707072580972
31
0
210
0
220
0
230
1
40
0.094636
41
1.68416027357016
42
1.72647772290173
0
ELLIPSE
5
147
100
AcDbEntity
8
1
62
256
6
ByLayer
370
18
48
1
60
0
100
AcDbEllipse
10
106.233425
20
-5.561942
30
0
11
-0.194036933853139
21
0.228800498908706
31
0
210
0
220
0
230
1
40
0.112614
41
-3.14158182313935
42
-1.49164959339914
0
ELLIPSE
5
148
100
AcDbEntity
8
1
62
256
6
ByLayer
370
18
48
1
60
0
100
AcDbEllipse
10
104.079798
20
1.152795
30
0
11
1.53918496655855
21
1.27707072580972
31
0
210
0
220
0
230
1
40
0.094636
41
1.2478279605716
42
1.91105307632943
0
ELLIPSE
5
149
100
AcDbEntity
8
1
62
256
6
ByLayer
370
18
48
1
60
0
100
AcDbEllipse
10
102.065389
20
4.031617
30
0
11
-49.6446996851555
21
42.7103452459709
31
0
210
0
220
0
230
-1
40
0.055184
41
-1.63758612533956
42
-1.61951915156156
0
ELLIPSE
5
14A
100
AcDbEntity
8
1
62
256
6
ByLayer
370
18
48
1
60
0
100
AcDbEllipse
10
105.58013
20
-8.226091
30
0
11
1.53918496655855
21
1.27707072580972
31
0
210
0
220
0
230
1
40
0.094636
41
0.113363946775294
42
0.22203861869939
0
ELLIPSE
5
14B
100
AcDbEntity
8
1
62
256
6
ByLayer
370
18
48
1
60
0
100
AcDbEllipse
10
103.276994
20
3.227453
30
0
11
-2.50117557065764
21
-2.0752399294408
31
0
210
0
220
0
230
1
40
0.094636
41
0
42
1.36080062670603
0
ELLIPSE
5
14C
100
AcDbEntity
8
1
62
256
6
ByLayer
370
18
48
1
60
0
100
AcDbEllipse
10
103.276994
20
3.227453
30
0
11
-2.50117557065764
21
-2.0752399294408
31
0
210
0
220
0
230
1
40
0.094636
41
-1.1278316272177
42
-2.88775590261675E-15
0
ELLIPSE
5
14D
100
AcDbEntity
8
1
62
256
6
ByLayer
370
18
48
1
60
0
100
AcDbEllipse
10
114.214884
20
0.000196
30
0
11
-0.000709814656565855
21
-0.793749682622395
31
0
210
0
220
0
230
1
40
0.989122
41
2.15127958480505
42
2.44419909137275
0
ELLIPSE
5
14E
100
AcDbEntity
8
1
62
256
6
ByLayer
370
13
48
1
60
0
100
AcDbEllipse
10
98.406672
20
8.441232
30
0
11
-1.39645312913279
21
13.1690942141802
31
0
210
0
220
0
230
-1
40
0.80331
41
2.12874443227486
42
2.27346376394394
0
ELLIPSE
5
14F
100
AcDbEntity
8
1
62
256
6
ByLayer
370
13
48
1
60
0
100
AcDbEllipse
10
107.632478
20
-1.462544
30
0
11
0.744718068456843
21
-0.29222422643222
31
0
210
0
220
0
230
1
40
0.511668
41
1.21145077635436
42
2.01456606920447
0
ELLIPSE
5
150
100
AcDbEntity
8
1
62
256
6
ByLayer
370
18
48
1
60
0
100
AcDbEllipse
10
103.126294
20
2.302003
30
0
11
-1.53918496655855
21
-1.27707072580972
31
0
210
0
220
0
230
1
40
0.094636
41
-1.89376469301823
42
-1.23053957726037
0
ELLIPSE
5
151
100
AcDbEntity
8
1
62
256
6
ByLayer
370
13
48
1
60
0
100
AcDbEllipse
10
114.275938
20
-10.932137
30
0
11
-12.3317137690871
21
5.32959781574384
31
0
210
0
220
0
230
-1
40
0.73479
41
0.265807610418155
42
0.707369795334004
0
ELLIPSE
5
152
100
AcDbEntity
8
1
62
256
6
ByLayer
370
13
48
1
60
0
100
AcDbEllipse
10
103.602541
20
2.835089
30
0
11
2.10704260657077
21
1.74822551502811
31
0
210
0
220
0
230
1
40
0.094636
41
1.83979532329475
42
2.06598998245227
0
ELLIPSE
5
153
100
AcDbEntity
8
1
62
256
6
ByLayer
370
13
48
1
60
0
100
AcDbEllipse
10
107.4994
20
-0.320879
30
0
11
0.648994841328317
21
0.467766711010129
31
0
210
0
220
0
230
1
40
0.051128
41
-1.66363114510426
42
-0.997369540866151
0
ELLIPSE
5
154
100
AcDbEntity
8
1
62
256
6
ByLayer
370
18
48
1
60
0
100
AcDbEllipse
10
116.371585
20
-0.644174
30
0
11
8.85031355771165
21
7.34315667340589
31
0
210
0
220
0
230
1
40
0.094636
41
2.20203458961204
42
2.28959123704847
0
ELLIPSE
5
155
100
AcDbEntity
8
1
62
256
6
ByLayer
370
13
48
1
60
0
100
AcDbEllipse
10
88.683719
20
-2.117272
30
0
11
-16.2741476117189
21
1.62435613584632
31
0
210
0
220
0
230
-1
40
0.046498
41
-3.03074726613129
42
-2.9160176174835
0
ELLIPSE
5
156
100
AcDbEntity
8
1
62
256
6
ByLayer
370
18
48
1
60
0
100
AcDbEllipse
10
147.050657
20
-37.620017
30
0
11
-43.1636622856209
21
49.9570276272586
31
0
210
0
220
0
230
-1
40
0.173071
41
-0.714640260830293
42
-0.659925720372999
0
ELLIPSE
5
157
100
AcDbEntity
8
1
62
256
6
ByLayer
370
18
48
1
60
0
100
AcDbEllipse
10
102.602642
20
4.696373
30
0
11
-8.85031355771165
21
-7.34315667340589
31
0
210
0
220
0
230
1
40
0.094636
41
1.30562211285112
42
1.39114035580863
0
ELLIPSE
5
158
100
AcDbEntity
8
1
62
256
6
ByLayer
370
18
48
1
60
0
100
AcDbEllipse
10
107.049468
20
-6.333027
30
0
11
-0.513389387486429
21
0.605367986695951
31
0
210
0
220
0
230
1
40
0.112614
41
3.04620646178605
42
-1.49164959339925
0
ELLIPSE
5
159
100
AcDbEntity
8
1
62
256
6
ByLayer
370
13
48
1
60
0
100
AcDbEllipse
10
105.771718
20
11.960305
30
0
11
-0.790370915136285
21
-11.7604286030648
31
0
210
0
220
0
230
-1
40
0.81568
41
-0.747003656983775
42
-0.305441472067006
0
ELLIPSE
5
15A
100
AcDbEntity
8
1
62
256
6
ByLayer
370
13
48
1
60
0
100
AcDbEllipse
10
114.091234
20
-10.462532
30
0
11
-13.082184893987
21
4.15854190815217
31
0
210
0
220
0
230
-1
40
0.760982
41
0.404775992182269
42
0.815303539141262
0
ELLIPSE
5
15B
100
AcDbEntity
8
1
62
256
6
ByLayer
370
18
48
1
60
0
100
AcDbEllipse
10
104.90485
20
0.609325
30
0
11
8.85031355771165
21
7.34315667340589
31
0
210
0
220
0
230
1
40
0.094636
41
1.39317876028755
42
1.81130894479898
0
ELLIPSE
5
15C
100
AcDbEntity
8
1
62
256
6
ByLayer
370
18
48
1
60
0
100
AcDbEllipse
10
100.80596
20
-0.545966
30
0
11
0.331892106037118
21
-0.721031686162437
31
0
210
0
220
0
230
1
40
0.938438
41
-2.86409315812736
42
-1.11876390613304
0
ELLIPSE
5
15D
100
AcDbEntity
8
1
62
256
6
ByLayer
370
13
48
1
60
0
100
AcDbEllipse
10
106.231696
20
11.576891
30
0
11
-3.11056260469772
21
-11.8509909832152
31
0
210
0
220
0
230
-1
40
0.805524
41
-0.889585750242692
42
-0.479058203285354
0
ELLIPSE
5
15E
100
AcDbEntity
8
1
62
256
6
ByLayer
370
18
48
1
60
0
100
AcDbEllipse
10
103.951346
20
1.758533
30
0
11
-8.85031355771165
21
-7.34315667340589
31
0
210
0
220
0
230
1
40
0.094636
41
-1.83597054073867
42
-1.74841389330224
0
ELLIPSE
5
15F
100
AcDbEntity
8
1
62
256
6
ByLayer
370
18
48
1
60
0
100
AcDbEllipse
10
100.709563
20
-16.611365
30
0
11
-43.1636469507003
21
49.9570087704367
31
0
210
0
220
0
230
-1
40
0.173071
41
1.48036726135973
42
1.49843432388916
0
POINT
5
6C
100
AcDbEntity
8
80
62
256
6
ByLayer
370
18
48
1
60
0
100
AcDbPoint
10
0
20
0
30
0
39
0
210
0
220
0
230
1
50
360
0
POINT
5
6E
100
AcDbEntity
8
1
62
256
6
ByLayer
370
18
48
1
60
0
100
AcDbPoint
10
0
20
0
30
0
39
0
210
0
220
0
230
1
50
360
0
POINT
5
70
100
AcDbEntity
8
81
62
256
6
ByLayer
370
18
48
1
60
0
100
AcDbPoint
10
115
20
-0.37
30
0
39
0
210
0
220
0
230
1
50
360
0
SPLINE
5
160
100
AcDbEntity
8
SK1
62
256
6
ByLayer
370
13
48
1
60
0
100
AcDbSpline
70
4
71
2
72
6
73
3
40
0
40
0
40
0
40
1
40
1
40
1
41
1
10
-0.194976888875288
20
21.870437630453
30
0
41
1
10
-0.995008433397487
20
21.8503469001441
30
0
41
1
10
-1.7950399779393
20
21.8302561701719
30
0
0
SPLINE
5
161
100
AcDbEntity
8
SK1
62
256
6
ByLayer
370
13
48
1
60
0
100
AcDbSpline
70
4
71
2
72
6
73
3
40
0
40
0
40
0
40
1
40
1
40
1
41
1
10
-1.7950399779393
20
-21.8302563303548
30
0
41
1
10
-0.995008433397487
20
-21.8503470602331
30
0
41
1
10
-0.194976888875288
20
-21.870437790448
30
0
0
SPLINE
5
162
100
AcDbEntity
8
SK1
62
256
6
ByLayer
370
13
48
1
60
0
100
AcDbSpline
70
4
71
2
72
6
73
3
40
0
40
0
40
0
40
1
40
1
40
1
41
1
10
-36.5
20
-21.1587444209371
30
0
41
1
10
-19.2499999891214
20
-21.5919324783256
30
0
41
1
10
-2
20
-22.0251209658617
30
0
0
SPLINE
5
163
100
AcDbEntity
8
SK1
62
256
6
ByLayer
370
13
48
1
60
0
100
AcDbSpline
70
4
71
2
72
6
73
3
40
0
40
0
40
0
40
1
40
1
40
1
41
1
10
-2
20
22.0251208067994
30
0
41
1
10
-19.2499999891219
20
21.5919323171804
30
0
41
1
10
-36.5
20
21.1587442576676
30
0
0
SPLINE
5
164
100
AcDbEntity
8
SK1
62
256
6
ByLayer
370
13
48
1
60
0
100
AcDbSpline
70
4
71
3
72
13
73
9
40
0
40
0
40
0
40
0
40
0.239406675533037
40
0.368294170919183
40
0.499927912611354
40
0.631573622065727
40
0.760494133568909
40
1
40
1
40
1
40
1
41
1
10
-2
20
-22.0251209952818
30
0
41
1
10
-1.99909122094999
20
-21.9990737575566
30
0
41
1
10
-1.99103207881225
20
-21.9617163884142
30
0
41
1
10
-1.96563491014865
20
-21.9155180963752
30
0
41
1
10
-1.93886244237072
20
-21.8842503451973
30
0
41
1
10
-1.90627568046548
20
-21.8590943224455
30
0
41
1
10
-1.85883864366619
20
-21.8360608861174
30
0
41
1
10
-1.82110926269925
20
-21.8298912593851
30
0
41
1
10
-1.7950399779393
20
-21.8302933674113
30
0
0
SPLINE
5
165
100
AcDbEntity
8
SK1
62
256
6
ByLayer
370
13
48
1
60
0
100
AcDbSpline
70
4
71
3
72
13
73
9
40
0
40
0
40
0
40
0
40
0.239505865890157
40
0.368426377204762
40
0.500072086585889
40
0.631705828340137
40
0.760593323909443
40
1
40
1
40
1
40
1
41
1
10
-1.7950399779393
20
21.8302932076066
30
0
41
1
10
-1.82110926271048
20
21.8298910995853
30
0
41
1
10
-1.85883864368745
20
21.8360607263469
30
0
41
1
10
-1.90627568048194
20
21.8590941627914
30
0
41
1
10
-1.93886244238615
20
21.8842501856704
30
0
41
1
10
-1.96563491016025
20
21.9155179370029
30
0
41
1
10
-1.99103207882064
20
21.9617162292748
30
0
41
1
10
-1.99909122095849
20
21.9990735985877
30
0
41
1
10
-2
20
22.0251208364275
30
0
0
SPLINE
5
166
100
AcDbEntity
8
SK1
62
256
6
ByLayer
370
13
48
1
60
0
100
AcDbSpline
70
4
71
2
72
6
73
3
40
0
40
0
40
0
40
1
40
1
40
1
41
1
10
-38
20
-20.2930880643183
30
0
41
1
10
-37.24999987394
20
-20.7259090243089
30
0
41
1
10
-36.5
20
-21.158730127466
30
0
0
SPLINE
5
167
100
AcDbEntity
8
SK1
62
256
6
ByLayer
370
13
48
1
60
0
100
AcDbSpline
70
4
71
2
72
6
73
3
40
0
40
0
40
0
40
1
40
1
40
1
41
1
10
-36.5
20
21.1587299626231
30
0
41
1
10
-37.2499998739454
20
20.7259088573764
30
0
41
1
10
-38
20
20.2930878952865
30
0
0
SPLINE
5
168
100
AcDbEntity
8
SK1
62
256
6
ByLayer
370
13
48
1
60
0
100
AcDbSpline
70
4
71
3
72
23
73
19
40
0
40
0
40
0
40
0
40
0.049108909153049
40
0.0586301319027641
40
0.0666494182772811
40
0.0702108389361514
40
0.0736165552528439
40
0.0770527128603288
40
0.0807429870511481
40
0.0897124435016565
40
0.101983864017495
40
0.139967458795137
40
0.199287058619606
40
0.279204714418776
40
0.444605765380165
40
0.648208137678337
40
0.880677484926123
40
1
40
1
40
1
40
1
41
1
10
-0.194976888875288
20
-21.8704747460203
30
0
41
1
10
-0.186182501791819
20
-21.8699445683726
30
0
41
1
10
-0.171548285872262
20
-21.8717472780439
30
0
41
1
10
-0.15085652330427
20
-21.8763513620954
30
0
41
1
10
-0.142866341270917
20
-21.8785601270345
30
0
41
1
10
-0.136447405348179
20
-21.8806137248396
30
0
41
1
10
-0.131769528138818
20
-21.8822427921072
30
0
41
1
10
-0.127085328406054
20
-21.8840106327722
30
0
41
1
10
-0.12048595277443
20
-21.8866999565158
30
0
41
1
10
-0.112328790193231
20
-21.8904497597602
30
0
41
1
10
-0.0987892713307019
20
-21.8975457219706
30
0
41
1
10
-0.0843338160881615
20
-21.9069373017508
30
0
41
1
10
-0.0693284807631471
20
-21.9184361198275
30
0
41
1
10
-0.0511771660453917
20
-21.9348017232255
30
0
41
1
10
-0.0335939397012055
20
-21.9540142669416
30
0
41
1
10
-0.0183321277931157
20
-21.9733557330359
30
0
41
1
10
-0.0092359673792544
20
-21.986302112456
30
0
41
1
10
-0.0062077291241565
20
-21.9902027584061
30
0
41
1
10
-0.0054868093410505
20
-21.9911130264425
30
0
0
SPLINE
5
169
100
AcDbEntity
8
SK1
62
256
6
ByLayer
370
13
48
1
60
0
100
AcDbSpline
70
4
71
3
72
25
73
21
40
0
40
0
40
0
40
0
40
0.155090702812788
40
0.363609270494439
40
0.498036527517024
40
0.608379523880034
40
0.691228009058132
40
0.748362211003746
40
0.783053552491452
40
0.793284535587773
40
0.796986618335097
40
0.800000757860957
40
0.80265226614222
40
0.805344485449757
40
0.808419629507086
40
0.812078490175746
40
0.833554465794723
40
0.878155953190701
40
0.935801843878647
40
1
40
1
40
1
40
1
41
1
10
-0.0028878325515223
20
22.005994350774
30
0
41
1
10
-0.0034882226221384
20
22.0067606888698
30
0
41
1
10
-0.0058633031065369
20
22.0059706023416
30
0
41
1
10
-0.0118281085405556
20
21.9960738832118
30
0
41
1
10
-0.0205154430987307
20
21.9806956860279
30
0
41
1
10
-0.0298694429959312
20
21.9649132096455
30
0
41
1
10
-0.0407985024830282
20
21.948390360371
30
0
41
1
10
-0.0535392298413058
20
21.9324226463181
30
0
41
1
10
-0.065591232016601
20
21.9196229543255
30
0
41
1
10
-0.0771512752054377
20
21.9097983890109
30
0
41
1
10
-0.0832445256376104
20
21.90517487565
30
0
41
1
10
-0.087527377155169
20
21.902130133099
30
0
41
1
10
-0.092054864874882
20
21.8991277120715
30
0
41
1
10
-0.0965764565511336
20
21.896339484115
30
0
41
1
10
-0.100963730518174
20
21.8938204544551
30
0
41
1
10
-0.111967727836486
20
21.8879508120549
30
0
41
1
10
-0.128801704511375
20
21.8811533896206
30
0
41
1
10
-0.149882662646434
20
21.8752338762264
30
0
41
1
10
-0.172434609185785
20
21.8717065939469
30
0
41
1
10
-0.187653257537619
20
21.8705035401568
30
0
41
1
10
-0.194976888875288
20
21.8704745864116
30
0
0
SPLINE
5
16A
100
AcDbEntity
8
1
62
256
6
ByLayer
370
13
48
1
60
0
100
AcDbSpline
70
4
71
3
72
11
73
7
40
0
40
0
40
0
40
0
40
0.355148460789714
40
0.677574230394858
40
0.677574230394858
40
1
40
1
40
1
40
1
41
1
10
106.152017907056
20
8.01393250022085
30
0
41
1
10
106.14121342238
20
8.02477424225529
30
0
41
1
10
106.120230824091
20
8.04507685675858
30
0
41
1
10
106.098555978918
20
8.06464054629447
30
0
41
1
10
106.077619206303
20
8.08292046883503
30
0
41
1
10
106.066981758817
20
8.09190271954384
30
0
41
1
10
106.056235971088
20
8.10067821365791
30
0
0
SPLINE
5
16B
100
AcDbEntity
8
1
62
256
6
ByLayer
370
13
48
1
60
0
100
AcDbSpline
70
4
71
3
72
10
73
6
40
0
40
0
40
0
40
0
40
0.5
40
0.5
40
1
40
1
40
1
40
1
41
1
10
99.623777811929
20
-0.807526568545541
30
0
41
1
10
99.6537300814215
20
-0.837364014052895
30
0
41
1
10
99.6852882556065
20
-0.867564202766317
30
0
41
1
10
99.7500221410102
20
-0.926962297178619
30
0
41
1
10
99.7831652998982
20
-0.956152245172234
30
0
41
1
10
99.817081210822
20
-0.984835365995906
30
0
0
SPLINE
5
16C
100
AcDbEntity
8
1
62
256
6
ByLayer
370
13
48
1
60
0
100
AcDbSpline
70
4
71
3
72
26
73
22
40
0
40
0
40
0
40
0
40
0.124999999999999
40
0.124999999999999
40
0.187499999999999
40
0.187499999999999
40
0.249999999999998
40
0.249999999999998
40
0.374999999999997
40
0.374999999999997
40
0.499999999999996
40
0.499999999999996
40
0.624999999999995
40
0.624999999999995
40
0.687499999999996
40
0.687499999999996
40
0.749999999999996
40
0.749999999999996
40
0.874999999999998
40
0.874999999999998
40
1
40
1
40
1
40
1
41
1
10
56.9216832820597
20
-25.8224337366103
30
0
41
1
10
57.5114507824919
20
-25.3761369522679
30
0
41
1
10
58.14811487351
20
-24.9028816855965
30
0
41
1
10
59.1639003894614
20
-24.1610055198606
30
0
41
1
10
59.51268108492
20
-23.9083454134696
30
0
41
1
10
60.2295313633744
20
-23.3933582139901
30
0
41
1
10
60.5946855336102
20
-23.1331259450454
30
0
41
1
10
61.708359538239
20
-22.3457792975638
30
0
41
1
10
62.4751522009472
20
-21.8119676684385
30
0
41
1
10
64.0511504138703
20
-20.7319373693671
30
0
41
1
10
64.8603941763522
20
-20.1856935685122
30
0
41
1
10
66.5172208293745
20
-19.0847302543444
30
0
41
1
10
67.3648235742751
20
-18.5299974402274
30
0
41
1
10
68.6628596917522
20
-17.6938473321796
30
0
41
1
10
69.1005400504623
20
-17.4141032147645
30
0
41
1
10
69.9791887305129
20
-16.85694256146
30
0
41
1
10
70.4206811729142
20
-16.5791827460862
30
0
41
1
10
71.7514093803962
20
-15.7485659435688
30
0
41
1
10
72.6468863175018
20
-15.1983771763803
30
0
41
1
10
74.453427144147
20
-14.1060199303974
30
0
41
1
10
75.3644945846868
20
-13.5638495011096
30
0
41
1
10
76.2829640931001
20
-13.0260629390109
30
0
0
SPLINE
5
16D
100
AcDbEntity
8
1
62
256
6
ByLayer
370
13
48
1
60
0
100
AcDbSpline
70
4
71
3
72
25
73
21
40
0
40
0
40
0
40
0
40
0.125
40
0.125
40
0.25
40
0.25
40
0.3125
40
0.3125
40
0.375
40
0.375
40
0.5
40
0.5
40
0.5625
40
0.5625
40
0.625
40
0.625
40
0.75
40
0.875
40
0.875
40
1
40
1
40
1
40
1
41
1
10
97.2260960975371
20
-1.52563141654261
30
0
41
1
10
97.2217266232672
20
-1.61791102026285
30
0
41
1
10
97.2111233948863
20
-1.70879547525359
30
0
41
1
10
97.1779242779189
20
-1.88787926264234
30
0
41
1
10
97.1553273409916
20
-1.97607836502448
30
0
41
1
10
97.1122472963673
20
-2.10631885893122
30
0
41
1
10
97.0962748155735
20
-2.14956284484131
30
0
41
1
10
97.0616000104522
20
-2.23429314390765
30
0
41
1
10
97.0429148363719
20
-2.27578344556301
30
0
41
1
10
96.9829194908943
20
-2.39769410286337
30
0
41
1
10
96.9376881775146
20
-2.47556644485658
30
0
41
1
10
96.8620463837604
20
-2.58729656434784
30
0
41
1
10
96.8355286103588
20
-2.62369046041076
30
0
41
1
10
96.7798366595299
20
-2.69474511153598
30
0
41
1
10
96.7506457640003
20
-2.72939929167316
30
0
41
1
10
96.6605063043188
20
-2.82910219196279
30
0
41
1
10
96.5326178389771
20
-2.95190353338194
30
0
41
1
10
96.3898505363439
20
-3.0550394427907
30
0
41
1
10
96.2394663550783
20
-3.1480667019371
30
0
41
1
10
96.1616746842118
20
-3.18877418747255
30
0
41
1
10
96.081390684424
20
-3.22371929909067
30
0
0
SPLINE
5
16E
100
AcDbEntity
8
1
62
256
6
ByLayer
370
13
48
1
60
0
100
AcDbSpline
70
4
71
3
72
46
73
42
40
0
40
0
40
0
40
0
40
0.125000000000006
40
0.125000000000006
40
0.140625000000006
40
0.140625000000006
40
0.156250000000006
40
0.156250000000006
40
0.187500000000006
40
0.187500000000006
40
0.250000000000005
40
0.250000000000005
40
0.375000000000003
40
0.375000000000003
40
0.406250000000003
40
0.406250000000003
40
0.437500000000003
40
0.437500000000003
40
0.500000000000002
40
0.500000000000002
40
0.562500000000002
40
0.562500000000002
40
0.625000000000001
40
0.625000000000001
40
0.656250000000001
40
0.656250000000001
40
0.671875000000001
40
0.671875000000001
40
0.687500000000001
40
0.687500000000001
40
0.75
40
0.75
40
0.8125
40
0.8125
40
0.875
40
0.875
40
0.90625
40
0.90625
40
0.9375
40
0.9375
40
1
40
1
40
1
40
1
41
1
10
76.3707543664408
20
13.9344214794235
30
0
41
1
10
75.7343245896761
20
13.2814488483342
30
0
41
1
10
75.1353864891869
20
12.5812269922106
30
0
41
1
10
74.5086430331367
20
11.7306144914795
30
0
41
1
10
74.4396612275996
20
11.6352241670224
30
0
41
1
10
74.3030324937005
20
11.4426451972478
30
0
41
1
10
74.2353258938473
20
11.3453670926493
30
0
41
1
10
74.0349252308004
20
11.051777873548
30
0
41
1
10
73.9048158411531
20
10.8535376131971
30
0
41
1
10
73.5250108340545
20
10.251148153173
30
0
41
1
10
73.2858279974808
20
9.83933816509654
30
0
41
1
10
72.6110721388825
20
8.57199528713352
30
0
41
1
10
72.218024700534
20
7.68475426167194
30
0
41
1
10
71.8032763992577
20
6.51616908185079
30
0
41
1
10
71.7241158920279
20
6.27926755444665
30
0
41
1
10
71.5739790815975
20
5.80003930675036
30
0
41
1
10
71.5034864014711
20
5.55928006573126
30
0
41
1
10
71.305560739827
20
4.83358604575457
30
0
41
1
10
71.1916582111817
20
4.34523957538062
30
0
41
1
10
70.9995349569265
20
3.35943959667583
30
0
41
1
10
70.9213121711254
20
2.86198663265532
30
0
41
1
10
70.8008581210017
20
1.85781441222784
30
0
41
1
10
70.7586228368088
20
1.35109612342359
30
0
41
1
10
70.723106294486
20
0.58381769696723
30
0
41
1
10
70.715913575404
20
0.326856593130856
30
0
41
1
10
70.7122663056341
20
-0.060433644042547
30
0
41
1
10
70.7122460400844
20
-0.18986478139189
30
0
41
1
10
70.7145902181643
20
-0.447805137342101
30
0
41
1
10
70.7169514886352
20
-0.576506817839061
30
0
41
1
10
70.7346399611497
20
-1.21868750570903
30
0
41
1
10
70.7675781630999
20
-1.7281899784152
30
0
41
1
10
70.8699835161737
20
-2.73897892870571
30
0
41
1
10
70.9394541999755
20
-3.24026466819529
30
0
41
1
10
71.1147234431478
20
-4.23473156468782
30
0
41
1
10
71.2205235623025
20
-4.72791234611844
30
0
41
1
10
71.4068876867259
20
-5.4615851075427
30
0
41
1
10
71.4736892126049
20
-5.70527083029353
30
0
41
1
10
71.6155116062322
20
-6.18696206907492
30
0
41
1
10
71.6906402162349
20
-6.42542542424994
30
0
41
1
10
71.9285031293549
20
-7.13382690836187
30
0
41
1
10
72.1036977260905
20
-7.59678489747515
30
0
41
1
10
72.2952705137702
20
-8.05074018162227
30
0
0
SPLINE
5
16F
100
AcDbEntity
8
1
62
256
6
ByLayer
370
13
48
1
60
0
100
AcDbSpline
70
4
71
3
72
22
73
18
40
0
40
0
40
0
40
0
40
0.250000000000001
40
0.250000000000001
40
0.375000000000003
40
0.375000000000003
40
0.500000000000005
40
0.500000000000005
40
0.625000000000007
40
0.625000000000007
40
0.750000000000009
40
0.750000000000009
40
0.812500000000006
40
0.812500000000006
40
0.875000000000003
40
0.875000000000003
40
1
40
1
40
1
40
1
41
1
10
10.1056624327028
20
29.913954846469
30
0
41
1
10
10.121249834549
20
29.9327542695083
30
0
41
1
10
10.1399018475138
20
29.9510098933135
30
0
41
1
10
10.1740902691453
20
29.9774133319729
30
0
41
1
10
10.186531844006
20
29.9860499646857
30
0
41
1
10
10.2140339430556
20
30.0029372147448
30
0
41
1
10
10.2291686648071
20
30.0112267805679
30
0
41
1
10
10.2625095528539
20
30.027109009107
30
0
41
1
10
10.280661704933
20
30.0346937657147
30
0
41
1
10
10.3210597058746
20
30.048921013161
30
0
41
1
10
10.3431560434003
20
30.0554993245995
30
0
41
1
10
10.3794828926309
20
30.0640378913833
30
0
41
1
10
10.3921560258323
20
30.0666711051737
30
0
41
1
10
10.4189050579787
20
30.0714138984385
30
0
41
1
10
10.4329857409662
20
30.0735144081009
30
0
41
1
10
10.4761894743049
20
30.07864614904
30
0
41
1
10
10.5072412025893
20
30.0805927603169
30
0
41
1
10
10.538675134595
20
30.0805927603169
30
0
0
SPLINE
5
170
100
AcDbEntity
8
1
62
256
6
ByLayer
370
13
48
1
60
0
100
AcDbSpline
70
4
71
3
72
8
73
4
40
0
40
0
40
0
40
0
40
1
40
1
40
1
40
1
41
1
10
99.0735492314432
20
1.01080808092962
30
0
41
1
10
99.0652066151561
20
0.996583200568438
30
0
41
1
10
99.0565780528865
20
0.982630833070516
30
0
41
1
10
99.0475868339411
20
0.969004900710786
30
0
0
SPLINE
5
171
100
AcDbEntity
8
1
62
256
6
ByLayer
370
13
48
1
60
0
100
AcDbSpline
70
4
71
3
72
20
73
16
40
0
40
0
40
0
40
0
40
0.0624999999999982
40
0.0624999999999982
40
0.124999999999996
40
0.124999999999996
40
0.249999999999994
40
0.249999999999994
40
0.374999999999992
40
0.374999999999992
40
0.49999999999999
40
0.49999999999999
40
0.749999999999995
40
0.749999999999995
40
1
40
1
40
1
40
1
41
1
10
13.4613248654053
20
30.0805927603167
30
0
41
1
10
13.4770644463613
20
30.0805927603167
30
0
41
1
10
13.4925182901837
20
30.0801205034906
30
0
41
1
10
13.5229048530192
20
30.0783134473996
30
0
41
1
10
13.5379543967303
20
30.0769634801341
30
0
41
1
10
13.5815263070003
20
30.0717959485599
30
0
41
1
10
13.6079581046677
20
30.0669872793659
30
0
41
1
10
13.657161547472
20
30.0554272535918
30
0
41
1
10
13.6790876596516
20
30.0488693747077
30
0
41
1
10
13.7192040363288
20
30.0347407881725
30
0
41
1
10
13.737493797614
20
30.0271072862757
30
0
41
1
10
13.7874862877333
20
30.0032932993812
30
0
41
1
10
13.8142652669258
20
29.9863830332713
30
0
41
1
10
13.859944081224
20
29.9511519005793
30
0
41
1
10
13.8787443055275
20
29.9327613369585
30
0
41
1
10
13.8943375672975
20
29.9139548464688
30
0
0
SPLINE
5
172
100
AcDbEntity
8
1
62
256
6
ByLayer
370
13
48
1
60
0
100
AcDbSpline
70
4
71
3
72
8
73
4
40
0
40
0
40
0
40
0
40
1
40
1
40
1
40
1
41
1
10
94.6674654501181
20
18.098780238963
30
0
41
1
10
94.6214505892465
20
18.1391816594642
30
0
41
1
10
94.5755057232788
20
18.1791581349964
30
0
41
1
10
94.5296268838886
20
18.2187058270592
30
0
0
SPLINE
5
173
100
AcDbEntity
8
1
62
256
6
ByLayer
370
13
48
1
60
0
100
AcDbSpline
70
4
71
3
72
37
73
33
40
0
40
0
40
0
40
0
40
0.124999999999995
40
0.124999999999995
40
0.249999999999991
40
0.249999999999991
40
0.374999999999986
40
0.374999999999986
40
0.499999999999981
40
0.499999999999981
40
0.562499999999982
40
0.562499999999982
40
0.593749999999981
40
0.593749999999981
40
0.62499999999998
40
0.62499999999998
40
0.656249999999979
40
0.656249999999979
40
0.687499999999978
40
0.687499999999978
40
0.749999999999981
40
0.749999999999981
40
0.781249999999984
40
0.781249999999984
40
0.812499999999987
40
0.84374999999999
40
0.84374999999999
40
0.874999999999993
40
0.874999999999993
40
0.937499999999997
40
0.937499999999997
40
1
40
1
40
1
40
1
41
1
10
58.0088419229496
20
26.981974156832
30
0
41
1
10
57.8799808206847
20
26.9877422523094
30
0
41
1
10
57.7514534586261
20
26.9919600295407
30
0
41
1
10
57.4951907541883
20
26.9966423963911
30
0
41
1
10
57.3669884876828
20
26.9971029913172
30
0
41
1
10
57.1151966426767
20
26.9931637569094
30
0
41
1
10
56.9913562655544
20
26.9888075820451
30
0
41
1
10
56.7492644085974
20
26.973430033548
30
0
41
1
10
56.6325103823486
20
26.9625305443982
30
0
41
1
10
56.4678599748339
20
26.9390916338653
30
0
41
1
10
56.4146937495281
20
26.9300796742566
30
0
41
1
10
56.3383139389668
20
26.9141754673583
30
0
41
1
10
56.3134684992847
20
26.9084783753188
30
0
41
1
10
56.265776563834
20
26.8963304147134
30
0
41
1
10
56.2428474597731
20
26.8898634169991
30
0
41
1
10
56.1990528891235
20
26.8760383345261
30
0
41
1
10
56.1781864799056
20
26.8686806735428
30
0
41
1
10
56.1388200173216
20
26.8529364485731
30
0
41
1
10
56.1202653042715
20
26.8445094367944
30
0
41
1
10
56.0698588385621
20
26.8180548861649
30
0
41
1
10
56.0428161326864
20
26.7987294093261
30
0
41
1
10
56.013719747849
20
26.7667442922501
30
0
41
1
10
56.0059009654051
20
26.7554816347614
30
0
41
1
10
55.9947254655307
20
26.7323653385978
30
0
41
1
10
55.9879740788453
20
26.7087695868675
30
0
41
1
10
55.9896946518378
20
26.684245300775
30
0
41
1
10
55.9955190639575
20
26.659267179038
30
0
41
1
10
56.0005274631019
20
26.6464899739852
30
0
41
1
10
56.0211339644015
20
26.6081983092043
30
0
41
1
10
56.0424797669627
20
26.5824166858503
30
0
41
1
10
56.0953705606141
20
26.5323489811813
30
0
41
1
10
56.1269666114325
20
26.5078599161304
30
0
41
1
10
56.1625335690689
20
26.4837921110131
30
0
0
SPLINE
5
174
100
AcDbEntity
8
1
62
256
6
ByLayer
370
13
48
1
60
0
100
AcDbSpline
70
4
71
3
72
20
73
16
40
0
40
0
40
0
40
0
40
0.0625000000000009
40
0.0625000000000009
40
0.125000000000002
40
0.125000000000002
40
0.250000000000002
40
0.250000000000002
40
0.375000000000002
40
0.375000000000002
40
0.500000000000002
40
0.500000000000002
40
0.750000000000001
40
0.750000000000001
40
1
40
1
40
1
40
1
41
1
10
13.4613248654053
20
-9.34922131452586
30
0
41
1
10
13.4770644463613
20
-9.34922131452586
30
0
41
1
10
13.4925182901837
20
-9.35074113394361
30
0
41
1
10
13.5229048530192
20
-9.35655221855353
30
0
41
1
10
13.5379543967303
20
-9.36089212483409
30
0
41
1
10
13.5815263070003
20
-9.3774848792504
30
0
41
1
10
13.6079581046677
20
-9.39290424748384
30
0
41
1
10
13.657161547472
20
-9.42982857023412
30
0
41
1
10
13.6790876596516
20
-9.45071431640849
30
0
41
1
10
13.7192040363288
20
-9.49551986864896
30
0
41
1
10
13.7374937976139
20
-9.51963835126861
30
0
41
1
10
13.7874862877333
20
-9.59453680346977
30
0
41
1
10
13.8142652669258
20
-9.64728479258011
30
0
41
1
10
13.859944081224
20
-9.75611455014953
30
0
41
1
10
13.8787443055275
20
-9.81241059371504
30
0
41
1
10
13.8943375672975
20
-9.86941261896695
30
0
0
SPLINE
5
175
100
AcDbEntity
8
1
62
256
6
ByLayer
370
13
48
1
60
0
100
AcDbSpline
70
4
71
3
72
24
73
20
40
0
40
0
40
0
40
0
40
0.125056370425313
40
0.125056370425313
40
0.156320463031641
40
0.156320463031641
40
0.187584555637969
40
0.187584555637969
40
0.250112740850625
40
0.250112740850625
40
0.500225481701248
40
0.500225481701248
40
0.750338222551871
40
0.750338222551871
40
0.812866407764526
40
0.812866407764526
40
0.875394592977181
40
0.875394592977181
40
1
40
1
40
1
40
1
41
1
10
58.6510232060487
20
26.9531471365548
30
0
41
1
10
58.4586054677392
20
27.0891615193309
30
0
41
1
10
58.2761281633064
20
27.2198830381658
30
0
41
1
10
58.060853644168
20
27.3758135323175
30
0
41
1
10
58.018440418402
20
27.4066256178687
30
0
41
1
10
57.9349097037235
20
27.4674784901975
30
0
41
1
10
57.8937496648371
20
27.4975505229871
30
0
41
1
10
57.7726538882017
20
27.5862650106843
30
0
41
1
10
57.6950538460847
20
27.6434401318515
30
0
41
1
10
57.3224848096795
20
27.9193035795804
30
0
41
1
10
57.0736065707629
20
28.108018060991
30
0
41
1
10
56.6716682777161
20
28.4161772268585
30
0
41
1
10
56.5185508115357
20
28.5356627214292
30
0
41
1
10
56.3891505662677
20
28.6370598026999
30
0
41
1
10
56.3663581222876
20
28.6549572793032
30
0
41
1
10
56.3273060146767
20
28.6856589066852
30
0
41
1
10
56.311043481877
20
28.6984651195305
30
0
41
1
10
56.272095423371
20
28.7291571707277
30
0
41
1
10
56.2590374521669
20
28.7394760980447
30
0
41
1
10
56.2589558384281
20
28.739540593013
30
0
0
SPLINE
5
176
100
AcDbEntity
8
1
62
256
6
ByLayer
370
13
48
1
60
0
100
AcDbSpline
70
4
71
3
72
22
73
18
40
0
40
0
40
0
40
0
40
0.25
40
0.25
40
0.375000000000001
40
0.375000000000001
40
0.500000000000003
40
0.500000000000003
40
0.625000000000005
40
0.625000000000005
40
0.750000000000006
40
0.750000000000006
40
0.812500000000004
40
0.812500000000004
40
0.875000000000002
40
0.875000000000002
40
1
40
1
40
1
40
1
41
1
10
13.8943375672975
20
-29.9139548464688
30
0
41
1
10
13.8787501654514
20
-29.9327542695082
30
0
41
1
10
13.8600981524865
20
-29.9510098933133
30
0
41
1
10
13.825909730855
20
-29.9774133319727
30
0
41
1
10
13.8134681559943
20
-29.9860499646855
30
0
41
1
10
13.7859660569447
20
-30.0029372147446
30
0
41
1
10
13.7708313351933
20
-30.0112267805678
30
0
41
1
10
13.7374904471465
20
-30.0271090091069
30
0
41
1
10
13.7193382950674
20
-30.0346937657146
30
0
41
1
10
13.6789402941257
20
-30.0489210131608
30
0
41
1
10
13.6568439566
20
-30.0554993245993
30
0
41
1
10
13.6205171073695
20
-30.0640378913831
30
0
41
1
10
13.6078439741681
20
-30.0666711051736
30
0
41
1
10
13.5810949420216
20
-30.0714138984384
30
0
41
1
10
13.5670142590342
20
-30.0735144081007
30
0
41
1
10
13.5238105256954
20
-30.0786461490399
30
0
41
1
10
13.492758797411
20
-30.0805927603167
30
0
41
1
10
13.4613248654053
20
-30.0805927603167
30
0
0
SPLINE
5
177
100
AcDbEntity
8
1
62
256
6
ByLayer
370
13
48
1
60
0
100
AcDbSpline
70
4
71
3
72
16
73
12
40
0
40
0
40
0
40
0
40
0.125000000000001
40
0.125000000000001
40
0.250000000000002
40
0.250000000000002
40
0.500000000000001
40
0.500000000000001
40
0.750000000000001
40
0.750000000000001
40
1
40
1
40
1
40
1
41
1
10
101.815578013416
20
2.72064206234822
30
0
41
1
10
101.802143531642
20
2.72525412041438
30
0
41
1
10
101.789039547363
20
2.73014533448165
30
0
41
1
10
101.764742025285
20
2.73999194338842
30
0
41
1
10
101.753388003474
20
2.74499725680653
30
0
41
1
10
101.721383590201
20
2.76025851369124
30
0
41
1
10
101.703740644937
20
2.77027481265722
30
0
41
1
10
101.673170349594
20
2.79006629441952
30
0
41
1
10
101.660390436512
20
2.79976789659975
30
0
41
1
10
101.638351104922
20
2.81868607213059
30
0
41
1
10
101.628998834232
20
2.82799202494021
30
0
41
1
10
101.62087136347
20
2.83712852523934
30
0
0
SPLINE
5
178
100
AcDbEntity
8
1
62
256
6
ByLayer
370
13
48
1
60
0
100
AcDbSpline
70
4
71
3
72
8
73
4
40
0
40
0
40
0
40
0
40
1
40
1
40
1
40
1
41
1
10
106.911092226281
20
-6.63348215139231
30
0
41
1
10
106.982553167184
20
-6.79144504141669
30
0
41
1
10
107.054014009429
20
-6.94940798744199
30
0
41
1
10
107.125474749017
20
-7.10737099172707
30
0
0
SPLINE
5
179
100
AcDbEntity
8
1
62
256
6
ByLayer
370
13
48
1
60
0
100
AcDbSpline
70
4
71
3
72
19
73
15
40
0
40
0
40
0
40
0
40
0.12500000000001
40
0.12500000000001
40
0.250000000000021
40
0.375000000000031
40
0.375000000000031
40
0.500000000000042
40
0.500000000000042
40
0.750000000000022
40
0.750000000000022
40
0.875000000000011
40
0.875000000000011
40
1
40
1
40
1
40
1
41
1
10
106.136887800811
20
-5.45200546700343
30
0
41
1
10
106.152958786592
20
-5.46909462358104
30
0
41
1
10
106.169013838033
20
-5.48658705568735
30
0
41
1
10
106.200521864724
20
-5.52180725292158
30
0
41
1
10
106.231582103435
20
-5.55742524832303
30
0
41
1
10
106.26171102878
20
-5.59387091204081
30
0
41
1
10
106.291353953238
20
-5.63074847872858
30
0
41
1
10
106.305731357106
20
-5.64916026785752
30
0
41
1
10
106.346729021432
20
-5.70313534825254
30
0
41
1
10
106.371655899292
20
-5.73797422379582
30
0
41
1
10
106.406241076111
20
-5.78899023239097
30
0
41
1
10
106.417318047241
20
-5.80582133659934
30
0
41
1
10
106.438293505585
20
-5.83858814141831
30
0
41
1
10
106.448244699496
20
-5.85459950094665
30
0
41
1
10
106.457746478471
20
-5.87031126222979
30
0
0
SPLINE
5
17A
100
AcDbEntity
8
1
62
256
6
ByLayer
370
13
48
1
60
0
100
AcDbSpline
70
4
71
3
72
14
73
10
40
0
40
0
40
0
40
0
40
0.25
40
0.25
40
0.5
40
0.5
40
0.75
40
0.75
40
1
40
1
40
1
40
1
41
1
10
103.903070550972
20
-3.53528942096918
30
0
41
1
10
103.875455763681
20
-3.53050243009633
30
0
41
1
10
103.846195002472
20
-3.52565629301986
30
0
41
1
10
103.786170747915
20
-3.51621961839959
30
0
41
1
10
103.75516102317
20
-3.51158496777759
30
0
41
1
10
103.690907899243
20
-3.5025030455337
30
0
41
1
10
103.658540156282
20
-3.49818169157717
30
0
41
1
10
103.594110134981
20
-3.49003993206969
30
0
41
1
10
103.561658676924
20
-3.48617242823087
30
0
41
1
10
103.529878676189
20
-3.48258605965307
30
0
0
SPLINE
5
17B
100
AcDbEntity
8
1
62
256
6
ByLayer
370
13
48
1
60
0
100
AcDbSpline
70
4
71
3
72
30
73
26
40
0
40
0
40
0
40
0
40
0.125000000000005
40
0.125000000000005
40
0.187500000000013
40
0.187500000000013
40
0.25000000000002
40
0.25000000000002
40
0.375000000000025
40
0.375000000000025
40
0.437500000000027
40
0.437500000000027
40
0.500000000000029
40
0.500000000000029
40
0.625000000000021
40
0.625000000000021
40
0.687500000000018
40
0.687500000000018
40
0.750000000000014
40
0.750000000000014
40
0.875000000000007
40
0.875000000000007
40
0.937500000000004
40
0.937500000000004
40
1
40
1
40
1
40
1
41
1
10
99.8410955426085
20
2.47728181724645
30
0
41
1
10
99.9118616824016
20
2.55310394936231
30
0
41
1
10
99.9871436490606
20
2.62198671646851
30
0
41
1
10
100.106248778797
20
2.71489662529848
30
0
41
1
10
100.146984125664
20
2.74412359244616
30
0
41
1
10
100.23045299187
20
2.79899928669886
30
0
41
1
10
100.273130727405
20
2.82458596647243
30
0
41
1
10
100.401774035917
20
2.89467716181432
30
0
41
1
10
100.489057375734
20
2.93302241987254
30
0
41
1
10
100.62111524417
20
2.97818288631228
30
0
41
1
10
100.665321700451
20
2.99116876412174
30
0
41
1
10
100.75387408685
20
3.01294806552809
30
0
41
1
10
100.798021354749
20
3.02167611884755
30
0
41
1
10
100.928110981598
20
3.04128603969002
30
0
41
1
10
101.012346624505
20
3.04576637683172
30
0
41
1
10
101.132833360863
20
3.04043481079128
30
0
41
1
10
101.172203828254
20
3.03660990338494
30
0
41
1
10
101.247452425463
20
3.02521991309178
30
0
41
1
10
101.283264846457
20
3.01769240980266
30
0
41
1
10
101.384870420282
20
2.99029879957749
30
0
41
1
10
101.444822905378
20
2.96562384819185
30
0
41
1
10
101.52149838398
20
2.92160099629408
30
0
41
1
10
101.544927078019
20
2.9056934718449
30
0
41
1
10
101.586802207341
20
2.87225253149654
30
0
41
1
10
101.605074028845
20
2.85488710681452
30
0
41
1
10
101.62087136347
20
2.83712852523934
30
0
0
SPLINE
5
17C
100
AcDbEntity
8
1
62
256
6
ByLayer
370
13
48
1
60
0
100
AcDbSpline
70
4
71
3
72
22
73
18
40
0
40
0
40
0
40
0
40
0.249999999999998
40
0.249999999999998
40
0.375000000000001
40
0.375000000000001
40
0.500000000000003
40
0.500000000000003
40
0.625000000000005
40
0.625000000000005
40
0.750000000000008
40
0.750000000000008
40
0.812500000000007
40
0.812500000000007
40
0.875000000000006
40
0.875000000000006
40
1
40
1
40
1
40
1
41
1
10
10.1056624327028
20
-9.86941261896649
30
0
41
1
10
10.121249834549
20
-9.81243201498833
30
0
41
1
10
10.1399018475138
20
-9.75655023082999
30
0
41
1
10
10.1740902691453
20
-9.67499387250817
30
0
41
1
10
10.186531844006
20
-9.64819007031227
30
0
41
1
10
10.2140339430556
20
-9.5955470196119
30
0
41
1
10
10.2291686648071
20
-9.56958483867143
30
0
41
1
10
10.2625095528539
20
-9.51963294536151
30
0
41
1
10
10.280661704933
20
-9.49566900868413
30
0
41
1
10
10.3210597058746
20
-9.45055053780251
30
0
41
1
10
10.3431560434003
20
-9.42959825985653
30
0
41
1
10
10.3794828926309
20
-9.40232505361277
30
0
41
1
10
10.3921560258322
20
-9.39389972204404
30
0
41
1
10
10.4189050579787
20
-9.37870617320476
30
0
41
1
10
10.4329857409662
20
-9.37196693550749
30
0
41
1
10
10.4761894743049
20
-9.35548920253876
30
0
41
1
10
10.5072412025893
20
-9.34922131452529
30
0
41
1
10
10.538675134595
20
-9.34922131452529
30
0
0
SPLINE
5
17D
100
AcDbEntity
8
1
62
256
6
ByLayer
370
13
48
1
60
0
100
AcDbSpline
70
4
71
3
72
14
73
10
40
0
40
0
40
0
40
0
40
0.25
40
0.25
40
0.5
40
0.5
40
0.75
40
0.75
40
1
40
1
40
1
40
1
41
1
10
76.3707543664407
20
13.9344214794235
30
0
41
1
10
78.0018613414939
20
13.0193744057003
30
0
41
1
10
79.6342590524215
20
12.1282457924906
30
0
41
1
10
82.9038092089285
20
10.3916824527745
30
0
41
1
10
84.5409564300449
20
9.5462525432919
30
0
41
1
10
87.8217721659136
20
7.89943579407725
30
0
41
1
10
89.4654373085661
20
7.0980520890248
30
0
41
1
10
92.7607899084248
20
5.53803856420689
30
0
41
1
10
94.4124750937627
20
4.7794108565088
30
0
41
1
10
96.068830233085
20
4.0416580860884
30
0
0
SPLINE
5
17E
100
AcDbEntity
8
1
62
256
6
ByLayer
370
13
48
1
60
0
100
AcDbSpline
70
4
71
3
72
27
73
23
40
0
40
0
40
0
40
0
40
0.0312499999999997
40
0.0312499999999997
40
0.0624999999999993
40
0.093749999999999
40
0.093749999999999
40
0.124999999999999
40
0.124999999999999
40
0.187499999999998
40
0.187499999999998
40
0.249999999999998
40
0.249999999999998
40
0.374999999999997
40
0.374999999999997
40
0.499999999999996
40
0.499999999999996
40
0.624999999999996
40
0.624999999999996
40
0.749999999999995
40
0.749999999999995
40
1
40
1
40
1
40
1
41
1
10
104.715865936272
20
3.79100033368755
30
0
41
1
10
104.69202149367
20
3.77077877580686
30
0
41
1
10
104.667627093369
20
3.75033989064548
30
0
41
1
10
104.618639229806
20
3.7097853448945
30
0
41
1
10
104.569905645766
20
3.66992258807164
30
0
41
1
10
104.521630140859
20
3.63130607423184
30
0
41
1
10
104.473561683709
20
3.59325285130944
30
0
41
1
10
104.449538960325
20
3.57443671827207
30
0
41
1
10
104.378421326832
20
3.51927214999819
30
0
41
1
10
104.332668355779
20
3.48449648660079
30
0
41
1
10
104.24355226554
20
3.41782763986765
30
0
41
1
10
104.200045262396
20
3.38583391923345
30
0
41
1
10
104.07328914456
20
3.29389609361937
30
0
41
1
10
103.994857540537
20
3.23869657837878
30
0
41
1
10
103.844655365164
20
3.1349804027063
30
0
41
1
10
103.772994822504
20
3.08657413142936
30
0
41
1
10
103.634091673468
20
2.99419399871078
30
0
41
1
10
103.566880395907
20
2.95025156872063
30
0
41
1
10
103.435601055118
20
2.86552022052376
30
0
41
1
10
103.371846266496
20
2.82493735178863
30
0
41
1
10
103.185085657211
20
2.70731683644314
30
0
41
1
10
103.066267579382
20
2.6341793590355
30
0
41
1
10
102.950796942954
20
2.5641464314694
30
0
0
SPLINE
5
17F
100
AcDbEntity
8
1
62
256
6
ByLayer
370
13
48
1
60
0
100
AcDbSpline
70
4
71
3
72
14
73
10
40
0
40
0
40
0
40
0
40
0.25
40
0.25
40
0.5
40
0.5
40
0.75
40
0.75
40
1
40
1
40
1
40
1
41
1
10
104.459844196341
20
-3.80953608228037
30
0
41
1
10
104.418366531137
20
-3.77347363717254
30
0
41
1
10
104.374543271874
20
-3.74003594782747
30
0
41
1
10
104.284800112397
20
-3.68026342080049
30
0
41
1
10
104.238685868833
20
-3.65372094976632
30
0
41
1
10
104.144221406529
20
-3.60736256641386
30
0
41
1
10
104.095534639567
20
-3.58746930535347
30
0
41
1
10
103.998873878539
20
-3.55563440812881
30
0
41
1
10
103.950699832952
20
-3.54354590093823
30
0
41
1
10
103.903070550972
20
-3.53528942096918
30
0
0
SPLINE
5
180
100
AcDbEntity
8
1
62
256
6
ByLayer
370
13
48
1
60
0
100
AcDbSpline
70
4
71
3
72
20
73
16
40
0
40
0
40
0
40
0
40
0.177960496201004
40
0.177960496201004
40
0.266940744301492
40
0.266940744301492
40
0.35592099240198
40
0.35592099240198
40
0.444901240502469
40
0.444901240502469
40
0.533881488602957
40
0.533881488602957
40
0.711841984803937
40
0.711841984803937
40
1
40
1
40
1
40
1
41
1
10
100.225642936952
20
1.63402073552032
30
0
41
1
10
100.200382482729
20
1.66446580845314
30
0
41
1
10
100.179933774786
20
1.69705621398347
30
0
41
1
10
100.155974163237
20
1.74895162256519
30
0
41
1
10
100.149136194623
20
1.76678928167851
30
0
41
1
10
100.13806650689
20
1.80233208233028
30
0
41
1
10
100.133761668101
20
1.82017976378197
30
0
41
1
10
100.127448610892
20
1.85602994983736
30
0
41
1
10
100.125439117119
20
1.87414770933791
30
0
41
1
10
100.123669554941
20
1.90991719605316
30
0
41
1
10
100.123892263101
20
1.92753589009669
30
0
41
1
10
100.127545524485
20
1.97970234838954
30
0
41
1
10
100.13398662969
20
2.01373235280474
30
0
41
1
10
100.159820968401
20
2.09997715122844
30
0
41
1
10
100.184001676353
20
2.14894923290601
30
0
41
1
10
100.2147409559
20
2.19454350172961
30
0
0
SPLINE
5
181
100
AcDbEntity
8
1
62
256
6
ByLayer
370
13
48
1
60
0
100
AcDbSpline
70
4
71
3
72
14
73
10
40
0
40
0
40
0
40
0
40
0.25
40
0.25
40
0.5
40
0.5
40
0.75
40
0.75
40
1
40
1
40
1
40
1
41
1
10
102.198216714604
20
-3.15891970518851
30
0
41
1
10
102.263789573462
20
-3.2025254136986
30
0
41
1
10
102.330828627349
20
-3.24047890756168
30
0
41
1
10
102.463498009735
20
-3.30380743605355
30
0
41
1
10
102.52926494393
20
-3.32933707004767
30
0
41
1
10
102.658225450241
20
-3.36886168801718
30
0
41
1
10
102.721423101118
20
-3.38285108618379
30
0
41
1
10
102.843561916453
20
-3.39976520911972
30
0
41
1
10
102.901248537557
20
-3.40250509268569
30
0
41
1
10
102.954671434793
20
-3.40040934403973
30
0
0
SPLINE
5
182
100
AcDbEntity
8
1
62
256
6
ByLayer
370
13
48
1
60
0
100
AcDbSpline
70
4
71
3
72
17
73
13
40
0
40
0
40
0
40
0
40
0.124999999999983
40
0.124999999999983
40
0.249999999999966
40
0.249999999999966
40
0.499999999999933
40
0.624999999999949
40
0.624999999999949
40
0.749999999999966
40
0.749999999999966
40
1
40
1
40
1
40
1
41
1
10
102.954671434793
20
-3.40040934403976
30
0
41
1
10
102.975572446773
20
-3.4041097007709
30
0
41
1
10
102.99705422041
20
-3.40782527363555
30
0
41
1
10
103.041345575773
20
-3.4152912083438
30
0
41
1
10
103.064271751217
20
-3.41905946058688
30
0
41
1
10
103.133804452948
20
-3.43018217959747
30
0
41
1
10
103.205317115585
20
-3.44102558328032
30
0
41
1
10
103.280039175972
20
-3.45141623358714
30
0
41
1
10
103.330593234436
20
-3.45823903263263
30
0
41
1
10
103.3560163829
20
-3.46156693168433
30
0
41
1
10
103.431351192712
20
-3.47114190662558
30
0
41
1
10
103.480897188249
20
-3.47705850568255
30
0
41
1
10
103.529878676189
20
-3.48258605965307
30
0
0
SPLINE
5
183
100
AcDbEntity
8
1
62
256
6
ByLayer
370
13
48
1
60
0
100
AcDbSpline
70
4
71
3
72
28
73
24
40
0
40
0
40
0
40
0
40
0.125000000000023
40
0.125000000000023
40
0.187500000000028
40
0.187500000000028
40
0.250000000000032
40
0.250000000000032
40
0.375000000000041
40
0.375000000000041
40
0.437500000000037
40
0.437500000000037
40
0.500000000000033
40
0.500000000000033
40
0.625000000000025
40
0.625000000000025
40
0.750000000000017
40
0.750000000000017
40
0.812500000000012
40
0.812500000000012
40
0.875000000000008
40
0.875000000000008
40
1
40
1
40
1
40
1
41
1
10
95.391014006243
20
-5.23556341538597
30
0
41
1
10
95.4506304685333
20
-5.17005138412142
30
0
41
1
10
95.514041196282
20
-5.10787719542933
30
0
41
1
10
95.6150789350565
20
-5.01963637070034
30
0
41
1
10
95.6497494756561
20
-4.99106362546806
30
0
41
1
10
95.7211673821107
20
-4.93565757728572
30
0
41
1
10
95.7576020155912
20
-4.90907742147417
30
0
41
1
10
95.8680742523576
20
-4.83333595752046
30
0
41
1
10
95.9436473740836
20
-4.78786116090873
30
0
41
1
10
96.0599299160571
20
-4.72698516122563
30
0
41
1
10
96.0991828584805
20
-4.7079183506255
30
0
41
1
10
96.1787346416919
20
-4.67223612803454
30
0
41
1
10
96.2191841481965
20
-4.65556809869619
30
0
41
1
10
96.3408095013529
20
-4.60979697953221
30
0
41
1
10
96.4223602480541
20
-4.58480043750075
30
0
41
1
10
96.5874773367658
20
-4.54504390063619
30
0
41
1
10
96.6710433701567
20
-4.53028576165184
30
0
41
1
10
96.7988040346502
20
-4.51582163239342
30
0
41
1
10
96.8417937543123
20
-4.51228500674455
30
0
41
1
10
96.9287470483632
20
-4.50785492293576
30
0
41
1
10
96.972612822608
20
-4.50697791535743
30
0
41
1
10
97.1039365603897
20
-4.50837809799421
30
0
41
1
10
97.1917021697007
20
-4.5146334536108
30
0
41
1
10
97.2799503298762
20
-4.52621536121882
30
0
0
SPLINE
5
184
100
AcDbEntity
8
1
62
256
6
ByLayer
370
13
48
1
60
0
100
AcDbSpline
70
4
71
3
72
24
73
20
40
0
40
0
40
0
40
0
40
0.125000000000003
40
0.125000000000003
40
0.187500000000004
40
0.187500000000004
40
0.218750000000004
40
0.218750000000004
40
0.250000000000004
40
0.250000000000004
40
0.500000000000003
40
0.500000000000003
40
0.625000000000002
40
0.625000000000002
40
0.750000000000001
40
0.750000000000001
40
0.875000000000001
40
0.875000000000001
40
1
40
1
40
1
40
1
41
1
10
57.5654972870078
20
-26.385117774248
30
0
41
1
10
57.3081369358437
20
-26.5714150951374
30
0
41
1
10
57.0640155317492
20
-26.7513990613367
30
0
41
1
10
56.7182233664326
20
-27.0102978288111
30
0
41
1
10
56.6063598449337
20
-27.0947490534905
30
0
41
1
10
56.443756442389
20
-27.2184296691186
30
0
41
1
10
56.3903618191789
20
-27.2592022759687
30
0
41
1
10
56.2856224730243
20
-27.3394778155004
30
0
41
1
10
56.234318738116
20
-27.3789488815074
30
0
41
1
10
55.7820853340964
20
-27.7281153223042
30
0
41
1
10
55.4472943711454
20
-27.9954080907951
30
0
41
1
10
55.0415541064072
20
-28.324508659946
30
0
41
1
10
54.9224492285428
20
-28.4222158320629
30
0
41
1
10
54.7167434030854
20
-28.5920915355926
30
0
41
1
10
54.6301364218469
20
-28.6642642775468
30
0
41
1
10
54.4904377410276
20
-28.7811641016578
30
0
41
1
10
54.4381954863285
20
-28.8251746005467
30
0
41
1
10
54.3684495417734
20
-28.8840105579308
30
0
41
1
10
54.3509150402813
20
-28.8988620466501
30
0
41
1
10
54.3509270598803
20
-28.8988518662103
30
0
0
SPLINE
5
185
100
AcDbEntity
8
1
62
256
6
ByLayer
370
13
48
1
60
0
100
AcDbSpline
70
4
71
3
72
22
73
18
40
0
40
0
40
0
40
0
40
0.0624999999999993
40
0.0624999999999993
40
0.124999999999999
40
0.124999999999999
40
0.249999999999999
40
0.249999999999999
40
0.499999999999999
40
0.499999999999999
40
0.75
40
0.75
40
0.8125
40
0.8125
40
0.875
40
0.875
40
1
40
1
40
1
40
1
41
1
10
94.5296268838887
20
18.2187058270592
30
0
41
1
10
94.4504761205253
20
18.2869340136838
30
0
41
1
10
94.3727071584002
20
18.3539319157968
30
0
41
1
10
94.2208403651656
20
18.4846816408475
30
0
41
1
10
94.1468148266622
20
18.5483713536298
30
0
41
1
10
93.9306117264136
20
18.7342526047534
30
0
41
1
10
93.7943035574013
20
18.8512598971681
30
0
41
1
10
93.4101975577598
20
19.1803603846328
30
0
41
1
10
93.1871288632957
20
19.3706111286382
30
0
41
1
10
92.8159499662397
20
19.6849041903556
30
0
41
1
10
92.6677896223857
20
19.8089907962326
30
0
41
1
10
92.5371425952961
20
19.9159137865949
30
0
41
1
10
92.5137726175283
20
19.934861491838
30
0
41
1
10
92.4730109340018
20
19.9675031111328
30
0
41
1
10
92.4555651779805
20
19.981241465024
30
0
41
1
10
92.4121103704063
20
20.0146412315963
30
0
41
1
10
92.3949804447103
20
20.0264902831761
30
0
41
1
10
92.3899348237824
20
20.027706874531
30
0
0
SPLINE
5
186
100
AcDbEntity
8
1
62
256
6
ByLayer
370
13
48
1
60
0
100
AcDbSpline
70
4
71
3
72
22
73
18
40
0
40
0
40
0
40
0
40
0.249999999999997
40
0.249999999999997
40
0.374999999999997
40
0.374999999999997
40
0.499999999999997
40
0.499999999999997
40
0.624999999999998
40
0.624999999999998
40
0.749999999999998
40
0.749999999999998
40
0.812499999999998
40
0.812499999999998
40
0.874999999999998
40
0.874999999999998
40
1
40
1
40
1
40
1
41
1
10
13.8943375672975
20
9.86941261896695
30
0
41
1
10
13.8787501654514
20
9.81243201498881
30
0
41
1
10
13.8600981524866
20
9.75655023083047
30
0
41
1
10
13.825909730855
20
9.67499387250865
30
0
41
1
10
13.8134681559943
20
9.64819007031275
30
0
41
1
10
13.7859660569447
20
9.59554701961238
30
0
41
1
10
13.7708313351933
20
9.56958483867191
30
0
41
1
10
13.7374904471465
20
9.51963294536202
30
0
41
1
10
13.7193382950674
20
9.49566900868462
30
0
41
1
10
13.6789402941257
20
9.45055053780303
30
0
41
1
10
13.6568439566
20
9.42959825985702
30
0
41
1
10
13.6205171073695
20
9.40232505361325
30
0
41
1
10
13.6078439741681
20
9.39389972204452
30
0
41
1
10
13.5810949420216
20
9.37870617320525
30
0
41
1
10
13.5670142590342
20
9.37196693550797
30
0
41
1
10
13.5238105256954
20
9.35548920253927
30
0
41
1
10
13.492758797411
20
9.34922131452581
30
0
41
1
10
13.4613248654053
20
9.34922131452581
30
0
0
SPLINE
5
187
100
AcDbEntity
8
1
62
256
6
ByLayer
370
13
48
1
60
0
100
AcDbSpline
70
4
71
3
72
32
73
28
40
0
40
0
40
0
40
0
40
0.0624999999999968
40
0.0624999999999968
40
0.124999999999994
40
0.124999999999994
40
0.249999999999987
40
0.249999999999987
40
0.312499999999987
40
0.312499999999987
40
0.343749999999986
40
0.343749999999986
40
0.374999999999986
40
0.374999999999986
40
0.499999999999985
40
0.499999999999985
40
0.562499999999984
40
0.562499999999984
40
0.624999999999983
40
0.624999999999983
40
0.749999999999984
40
0.749999999999984
40
0.812499999999986
40
0.812499999999986
40
0.874999999999989
40
0.874999999999989
40
1
40
1
40
1
40
1
41
1
10
99.623777811929
20
-0.807526568545512
30
0
41
1
10
99.5789640445155
20
-0.762884597641943
30
0
41
1
10
99.5360953575432
20
-0.715880719794313
30
0
41
1
10
99.4543661940902
20
-0.617063078325373
30
0
41
1
10
99.4153299214856
20
-0.564962298203369
30
0
41
1
10
99.3064797860854
20
-0.404098262129509
30
0
41
1
10
99.2444266013758
20
-0.290513581623514
30
0
41
1
10
99.1670389003131
20
-0.110886153076194
30
0
41
1
10
99.1438746086286
20
-0.0494588753401501
30
0
41
1
10
99.1132194839616
20
0.0450652771742739
30
0
41
1
10
99.1036752261129
20
0.077018788569859
30
0
41
1
10
99.0861623085924
20
0.141052856623702
30
0
41
1
10
99.0781663334401
20
0.173209864393698
30
0
41
1
10
99.0419335810613
20
0.334677131015781
30
0
41
1
10
99.0248457226163
20
0.466018118382067
30
0
41
1
10
99.0171422174705
20
0.666145372429355
30
0
41
1
10
99.0175909041122
20
0.73355985073556
30
0
41
1
10
99.0246979993615
20
0.868654057315297
30
0
41
1
10
99.0313017385564
20
0.935627299076884
30
0
41
1
10
99.0599706066309
20
1.13485764849037
30
0
41
1
10
99.0908262881742
20
1.26543913273704
30
0
41
1
10
99.154858192431
20
1.45782664024893
30
0
41
1
10
99.1793267767137
20
1.52169390811392
30
0
41
1
10
99.2336234835225
20
1.64637822267713
30
0
41
1
10
99.2633834629069
20
1.70713880330263
30
0
41
1
10
99.3602618947428
20
1.88480691650025
30
0
41
1
10
99.4349270980744
20
1.9971328990932
30
0
41
1
10
99.5197212788635
20
2.10327222689068
30
0
0
SPLINE
5
188
100
AcDbEntity
8
1
62
256
6
ByLayer
370
13
48
1
60
0
100
AcDbSpline
70
4
71
3
72
12
73
8
40
0
40
0
40
0
40
0
40
0.500000000000006
40
0.500000000000006
40
0.750000000000003
40
0.750000000000003
40
1
40
1
40
1
40
1
41
1
10
59.2440929543766
20
-26.083052164681
30
0
41
1
10
58.9601794870867
20
-26.1428331705014
30
0
41
1
10
58.6779547505753
20
-26.1988824486932
30
0
41
1
10
58.2578603046461
20
-26.275467797155
30
0
41
1
10
58.1183745528463
20
-26.2997343665642
30
0
41
1
10
57.8407413915997
20
-26.3450926057715
30
0
41
1
10
57.7022813071513
20
-26.3662385770183
30
0
41
1
10
57.5654972870079
20
-26.3851177742481
30
0
0
SPLINE
5
189
100
AcDbEntity
8
1
62
256
6
ByLayer
370
13
48
1
60
0
100
AcDbSpline
70
4
71
3
72
8
73
4
40
0
40
0
40
0
40
0
40
1
40
1
40
1
40
1
41
1
10
92.9122640467188
20
19.5244082110562
30
0
41
1
10
81.5083260904738
20
22.0774004392275
30
0
41
1
10
70.08839905127
20
24.5559132792256
30
0
41
1
10
58.6510232060466
20
26.9531471365549
30
0
0
SPLINE
5
18A
100
AcDbEntity
8
1
62
256
6
ByLayer
370
13
48
1
60
0
100
AcDbSpline
70
4
71
3
72
32
73
28
40
0
40
0
40
0
40
0
40
0.125000000000002
40
0.125000000000002
40
0.250000000000004
40
0.250000000000004
40
0.375000000000007
40
0.375000000000007
40
0.406250000000006
40
0.406250000000006
40
0.437500000000006
40
0.437500000000006
40
0.500000000000005
40
0.500000000000005
40
0.625000000000004
40
0.625000000000004
40
0.750000000000002
40
0.750000000000002
40
0.812500000000002
40
0.812500000000002
40
0.843750000000001
40
0.843750000000001
40
0.859375000000001
40
0.859375000000001
40
0.875000000000001
40
0.875000000000001
40
1
40
1
40
1
40
1
41
1
10
76.3707543664407
20
13.9344214794235
30
0
41
1
10
75.4042687201041
20
14.4780845059751
30
0
41
1
10
74.4478090675947
20
15.0241738033779
30
0
41
1
10
72.5559605729015
20
16.1197446762174
30
0
41
1
10
71.6205674711083
20
16.6692299196404
30
0
41
1
10
69.7722061246473
20
17.7698342348892
30
0
41
1
10
68.8592307275639
20
18.3209593368356
30
0
41
1
10
67.7331893112065
20
19.0095106645977
30
0
41
1
10
67.5087414968761
20
19.1472018072162
30
0
41
1
10
67.0614030613859
20
19.4225052191582
30
0
41
1
10
66.8383497712414
20
19.5602184733068
30
0
41
1
10
66.1731018843066
20
19.9722338227584
30
0
41
1
10
65.7347527618093
20
20.2454496279034
30
0
41
1
10
64.4357601427978
20
21.0599582820903
30
0
41
1
10
63.5911173427927
20
21.5961554018811
30
0
41
1
10
61.9488402270361
20
22.6500485077089
30
0
41
1
10
61.1511669451641
20
23.1677746114412
30
0
41
1
10
59.9947360340194
20
23.9255623034
30
0
41
1
10
59.6159590971574
20
24.1750086801462
30
0
41
1
10
59.0587033039012
20
24.5436375200064
30
0
41
1
10
58.8747717412139
20
24.6655887103856
30
0
41
1
10
58.6017346708803
20
24.8470085322206
30
0
41
1
10
58.5111991995286
20
24.9072305116315
30
0
41
1
10
58.3311059077841
20
25.0271502489794
30
0
41
1
10
58.2414831063409
20
25.0868914221011
30
0
41
1
10
57.4416471767841
20
25.6205942510884
30
0
41
1
10
56.7761931954084
20
26.0685347689021
30
0
41
1
10
56.1625335690691
20
26.4837921110132
30
0
0
SPLINE
5
18B
100
AcDbEntity
8
1
62
256
6
ByLayer
370
13
48
1
60
0
100
AcDbSpline
70
4
71
3
72
10
73
6
40
0
40
0
40
0
40
0
40
0.5
40
0.5
40
1
40
1
40
1
40
1
41
1
10
92.3899348237825
20
20.027706874531
30
0
41
1
10
92.3780761206292
20
20.0305662234778
30
0
41
1
10
92.4178737746297
20
19.9881254249862
30
0
41
1
10
92.5939116508551
20
19.8186683217029
30
0
41
1
10
92.7301693888692
20
19.6916366564043
30
0
41
1
10
92.9122640467188
20
19.5244082110562
30
0
0
SPLINE
5
18C
100
AcDbEntity
8
1
62
256
6
ByLayer
370
13
48
1
60
0
100
AcDbSpline
70
4
71
3
72
16
73
12
40
0
40
0
40
0
40
0
40
0.124999999999995
40
0.124999999999995
40
0.249999999999989
40
0.249999999999989
40
0.499999999999993
40
0.499999999999993
40
0.749999999999996
40
0.749999999999996
40
1
40
1
40
1
40
1
41
1
10
94.8924588591739
20
-6.1469046321528
30
0
41
1
10
94.9033731046855
20
-6.10461271704173
30
0
41
1
10
94.9156849296112
20
-6.06258396395481
30
0
41
1
10
94.9430943515322
20
-5.97907205849646
30
0
41
1
10
94.9582470823616
20
-5.93746944258584
30
0
41
1
10
95.0072243190264
20
-5.81513278686811
30
0
41
1
10
95.0446565138889
20
-5.7364240924604
30
0
41
1
10
95.1284935679837
20
-5.58422794686626
30
0
41
1
10
95.1749010716611
20
-5.51074280517488
30
0
41
1
10
95.2766244343314
20
-5.3688307957988
30
0
41
1
10
95.3321260261619
20
-5.30027492364985
30
0
41
1
10
95.3910140062428
20
-5.23556341538585
30
0
0
SPLINE
5
18D
100
AcDbEntity
8
1
62
256
6
ByLayer
370
13
48
1
60
0
100
AcDbSpline
70
4
71
3
72
30
73
26
40
0
40
0
40
0
40
0
40
0.125000000000012
40
0.125000000000012
40
0.187500000000017
40
0.187500000000017
40
0.250000000000021
40
0.250000000000021
40
0.375000000000026
40
0.375000000000026
40
0.406250000000023
40
0.406250000000023
40
0.437500000000019
40
0.437500000000019
40
0.500000000000015
40
0.500000000000015
40
0.56250000000001
40
0.56250000000001
40
0.625000000000006
40
0.625000000000006
40
0.750000000000004
40
0.750000000000004
40
0.875000000000002
40
0.875000000000002
40
1
40
1
40
1
40
1
41
1
10
56.9216832820594
20
-25.8224337366102
30
0
41
1
10
56.8792998720534
20
-25.8545066798993
30
0
41
1
10
56.8428524058419
20
-25.8872322135638
30
0
41
1
10
56.8001546706511
20
-25.9376342061096
30
0
41
1
10
56.7878962410759
20
-25.9547439200397
30
0
41
1
10
56.7685523700587
20
-25.9889181553183
30
0
41
1
10
56.761399731872
20
-26.0061219228204
30
0
41
1
10
56.7488168432737
20
-26.0568555868756
30
0
41
1
10
56.7520819696864
20
-26.0893554991676
30
0
41
1
10
56.7719948168192
20
-26.1282257787047
30
0
41
1
10
56.7767841785232
20
-26.135909926433
30
0
41
1
10
56.7877353608667
20
-26.1507942533165
30
0
41
1
10
56.793915484075
20
-26.1580358207683
30
0
41
1
10
56.8144557438539
20
-26.1791932242141
30
0
41
1
10
56.8308112506853
20
-26.1925430610444
30
0
41
1
10
56.8683691685963
20
-26.2178792433056
30
0
41
1
10
56.889740718972
20
-26.2299407724138
30
0
41
1
10
56.9360812945886
20
-26.2523934132494
30
0
41
1
10
56.9609616433941
20
-26.2627755522331
30
0
41
1
10
57.0399179109921
20
-26.2918075536094
30
0
41
1
10
57.0983551753086
20
-26.3083849746667
30
0
41
1
10
57.2236278342151
20
-26.337234389671
30
0
41
1
10
57.2891345530378
20
-26.3492130962488
30
0
41
1
10
57.4243519795097
20
-26.3696429021507
30
0
41
1
10
57.4940802400804
20
-26.3780784527515
30
0
41
1
10
57.5654972870079
20
-26.3851177742481
30
0
0
SPLINE
5
18E
100
AcDbEntity
8
1
62
256
6
ByLayer
370
13
48
1
60
0
100
AcDbSpline
70
4
71
3
72
8
73
4
40
0
40
0
40
0
40
0
40
1
40
1
40
1
40
1
41
1
10
94.1600045877963
20
-18.4184681211544
30
0
41
1
10
82.5429654812638
20
-21.0699053572273
30
0
41
1
10
70.9049900871826
20
-23.6277260189281
30
0
41
1
10
59.2440929543766
20
-26.083052164681
30
0
0
SPLINE
5
18F
100
AcDbEntity
8
1
62
256
6
ByLayer
370
13
48
1
60
0
100
AcDbSpline
70
4
71
3
72
10
73
6
40
0
40
0
40
0
40
0
40
0.5
40
0.5
40
1
40
1
40
1
40
1
41
1
10
96.0813906844238
20
-3.22371929909062
30
0
41
1
10
94.3573959387681
20
-3.97412023794769
30
0
41
1
10
92.637489683882
20
-4.74884356582356
30
0
41
1
10
89.204168380181
20
-6.34880503480537
30
0
41
1
10
87.4907569526298
20
-7.1740387890205
30
0
41
1
10
85.7796051536166
20
-8.02571021921833
30
0
0
SPLINE
5
190
100
AcDbEntity
8
1
62
256
6
ByLayer
370
13
48
1
60
0
100
AcDbSpline
70
4
71
3
72
20
73
16
40
0
40
0
40
0
40
0
40
0.0624999999999996
40
0.0624999999999996
40
0.124999999999999
40
0.124999999999999
40
0.249999999999998
40
0.249999999999998
40
0.374999999999997
40
0.374999999999997
40
0.499999999999996
40
0.499999999999996
40
0.749999999999998
40
0.749999999999998
40
1
40
1
40
1
40
1
41
1
10
10.538675134595
20
9.34922131452535
30
0
41
1
10
10.522935553639
20
9.34922131452535
30
0
41
1
10
10.5074817098167
20
9.35074113394313
30
0
41
1
10
10.4770951469811
20
9.35655221855305
30
0
41
1
10
10.46204560327
20
9.36089212483358
30
0
41
1
10
10.418473693
20
9.37748487924992
30
0
41
1
10
10.3920418953326
20
9.39290424748336
30
0
41
1
10
10.3428384525283
20
9.42982857023364
30
0
41
1
10
10.3209123403487
20
9.45071431640801
30
0
41
1
10
10.2807959636715
20
9.4955198686485
30
0
41
1
10
10.2625062023864
20
9.51963835126813
30
0
41
1
10
10.2125137122671
20
9.59453680346928
30
0
41
1
10
10.1857347330746
20
9.64728479257963
30
0
41
1
10
10.1400559187763
20
9.75611455014905
30
0
41
1
10
10.1212556944728
20
9.81241059371456
30
0
41
1
10
10.1056624327028
20
9.86941261896646
30
0
0
SPLINE
5
191
100
AcDbEntity
8
1
62
256
6
ByLayer
370
13
48
1
60
0
100
AcDbSpline
70
4
71
3
72
8
73
4
40
0
40
0
40
0
40
0
40
1
40
1
40
1
40
1
41
1
10
97.2146442936441
20
2.34606581429247
30
0
41
1
10
97.2834784911897
20
1.0558187139429
30
0
41
1
10
97.287219957305
20
-0.234747157052851
30
0
41
1
10
97.2260960975371
20
-1.52563141654267
30
0
0
SPLINE
5
192
100
AcDbEntity
8
1
62
256
6
ByLayer
370
13
48
1
60
0
100
AcDbSpline
70
4
71
3
72
25
73
21
40
0
40
0
40
0
40
0
40
0.250000000000011
40
0.250000000000011
40
0.31250000000001
40
0.31250000000001
40
0.375000000000009
40
0.375000000000009
40
0.500000000000009
40
0.500000000000009
40
0.562500000000008
40
0.562500000000008
40
0.625000000000008
40
0.625000000000008
40
0.750000000000007
40
0.875000000000005
40
0.875000000000005
40
0.937500000000003
40
0.937500000000003
40
1
40
1
40
1
40
1
41
1
10
96.0688302330849
20
4.0416580860884
30
0
41
1
10
96.228624269864
20
3.97048464596574
30
0
41
1
10
96.3764170071409
20
3.87805193878029
30
0
41
1
10
96.5460268082907
20
3.73596297406712
30
0
41
1
10
96.579268003631
20
3.70610705695898
30
0
41
1
10
96.6437414008658
20
3.64399164091967
30
0
41
1
10
96.6747924949507
20
3.61191953735317
30
0
41
1
10
96.7644589993663
20
3.51272473636971
30
0
41
1
10
96.8196040571491
20
3.44263759524634
30
0
41
1
10
96.8953456049559
20
3.33156636787891
30
0
41
1
10
96.9194260200248
20
3.29354903406661
30
0
41
1
10
96.9651971178472
20
3.21548227782736
30
0
41
1
10
96.986968762667
20
3.17526335425444
30
0
41
1
10
97.047882094997
20
3.05284141012515
30
0
41
1
10
97.1173166493544
20
2.88538621768362
30
0
41
1
10
97.1638136099445
20
2.70971603886946
30
0
41
1
10
97.1898036751133
20
2.57478514018098
30
0
41
1
10
97.1969848571262
20
2.52918765302107
30
0
41
1
10
97.208165910857
20
2.43786952057948
30
0
41
1
10
97.2121911170529
20
2.39204882994881
30
0
41
1
10
97.2146442936441
20
2.34606581429247
30
0
0
SPLINE
5
193
100
AcDbEntity
8
1
62
256
6
ByLayer
370
13
48
1
60
0
100
AcDbSpline
70
4
71
3
72
8
73
4
40
0
40
0
40
0
40
0
40
1
40
1
40
1
40
1
41
1
10
104.459844196341
20
-3.8095360822804
30
0
41
1
10
104.467460501034
20
-3.81615802130705
30
0
41
1
10
104.475059068101
20
-3.82281885663426
30
0
41
1
10
104.482492791947
20
-3.82938606455642
30
0
0
SPLINE
5
194
100
AcDbEntity
8
1
62
256
6
ByLayer
370
13
48
1
60
0
100
AcDbSpline
70
4
71
3
72
12
73
8
40
0
40
0
40
0
40
0
40
0.25
40
0.25
40
0.5
40
0.5
40
1
40
1
40
1
40
1
41
1
10
101.815578013416
20
2.72064206234822
30
0
41
1
10
101.906793767318
20
2.68932769082039
30
0
41
1
10
102.000021898249
20
2.66252970402991
30
0
41
1
10
102.1873125349
20
2.61839912092921
30
0
41
1
10
102.281552143848
20
2.60097889379782
30
0
41
1
10
102.565814080972
20
2.56215265920966
30
0
41
1
10
102.757355318753
20
2.5540562637793
30
0
41
1
10
102.950796942954
20
2.5641464314694
30
0
0
SPLINE
5
195
100
AcDbEntity
8
1
62
256
6
ByLayer
370
13
48
1
60
0
100
AcDbSpline
70
4
71
3
72
20
73
16
40
0
40
0
40
0
40
0
40
0.0624999999999978
40
0.0624999999999978
40
0.124999999999996
40
0.124999999999996
40
0.249999999999995
40
0.249999999999995
40
0.374999999999995
40
0.374999999999995
40
0.499999999999994
40
0.499999999999994
40
0.749999999999997
40
0.749999999999997
40
1
40
1
40
1
40
1
41
1
10
10.538675134595
20
-30.0805927603168
30
0
41
1
10
10.522935553639
20
-30.0805927603168
30
0
41
1
10
10.5074817098167
20
-30.0801205034907
30
0
41
1
10
10.4770951469811
20
-30.0783134473998
30
0
41
1
10
10.46204560327
20
-30.0769634801342
30
0
41
1
10
10.418473693
20
-30.07179594856
30
0
41
1
10
10.3920418953326
20
-30.0669872793661
30
0
41
1
10
10.3428384525283
20
-30.0554272535919
30
0
41
1
10
10.3209123403487
20
-30.0488693747079
30
0
41
1
10
10.2807959636715
20
-30.0347407881726
30
0
41
1
10
10.2625062023864
20
-30.0271072862759
30
0
41
1
10
10.2125137122671
20
-30.0032932993814
30
0
41
1
10
10.1857347330746
20
-29.9863830332715
30
0
41
1
10
10.1400559187763
20
-29.9511519005794
30
0
41
1
10
10.1212556944728
20
-29.9327613369586
30
0
41
1
10
10.1056624327028
20
-29.913954846469
30
0
0
SPLINE
5
196
100
AcDbEntity
8
1
62
256
6
ByLayer
370
13
48
1
60
0
100
AcDbSpline
70
4
71
3
72
17
73
13
40
0
40
0
40
0
40
0
40
0.250000000000004
40
0.250000000000004
40
0.312500000000004
40
0.312500000000004
40
0.375000000000004
40
0.500000000000003
40
0.500000000000003
40
0.750000000000001
40
0.750000000000001
40
1
40
1
40
1
40
1
41
1
10
94.1600045877964
20
-18.4184681211544
30
0
41
1
10
93.9209614306278
20
-18.5581382031527
30
0
41
1
10
93.6930735679075
20
-18.6872609565506
30
0
41
1
10
93.4239327626197
20
-18.8338020651869
30
0
41
1
10
93.3709062057405
20
-18.8623572500912
30
0
41
1
10
93.2668394809275
20
-18.9177416056858
30
0
41
1
10
93.1135792815362
20
-18.9983054646677
30
0
41
1
10
92.9689807264197
20
-19.0712056787336
30
0
41
1
10
92.6917470208747
20
-19.2064211321648
30
0
41
1
10
92.5228596070493
20
-19.2824657571186
30
0
41
1
10
92.2195162181255
20
-19.4040907773742
30
0
41
1
10
92.0850551589114
20
-19.449675670997
30
0
41
1
10
91.9693748939532
20
-19.4786437036807
30
0
0
SPLINE
5
197
100
AcDbEntity
8
SK1
62
256
6
ByLayer
370
13
48
1
60
0
100
AcDbSpline
70
4
71
3
72
10
73
6
40
0
40
0
40
0
40
0
40
0.5
40
0.5
40
1
40
1
40
1
40
1
41
1
10
-1.7950399779393
20
-0.497935257502263
30
0
41
1
10
-1.79913963148943
20
-0.332063273853834
30
0
41
1
10
-1.80132921778062
20
-0.165993035619607
30
0
41
1
10
-1.80132822043777
20
0.166114747611175
30
0
41
1
10
-1.7991395712036
20
0.332072271081444
30
0
41
1
10
-1.7950399779393
20
0.497941450131577
30
0
0
SPLINE
5
198
100
AcDbEntity
8
SK1
62
256
6
ByLayer
370
13
48
1
60
0
100
AcDbSpline
70
4
71
3
72
16
73
12
40
0
40
0
40
0
40
0
40
0.25
40
0.25
40
0.5
40
0.5
40
0.625
40
0.625
40
0.75
40
0.75
40
1
40
1
40
1
40
1
41
1
10
-1.31543506509499
20
-4.80312334332311
30
0
41
1
10
-1.37584772260811
20
-4.460896350599
30
0
41
1
10
-1.43326969416179
20
-4.11513311938862
30
0
41
1
10
-1.53953900657677
20
-3.41548864151332
30
0
41
1
10
-1.58831931932645
20
-3.06158185299714
30
0
41
1
10
-1.65223747600643
20
-2.52342081940623
30
0
41
1
10
-1.67199812690689
20
-2.34281472923775
30
0
41
1
10
-1.70792650385638
20
-1.97893629919693
30
0
41
1
10
-1.72411514175593
20
-1.7954053055889
30
0
41
1
10
-1.766327714141
20
-1.24234487929331
30
0
41
1
10
-1.7858096689686
20
-0.871393560732542
30
0
41
1
10
-1.7950399779393
20
-0.497935257502803
30
0
0
SPLINE
5
199
100
AcDbEntity
8
SK1
62
256
6
ByLayer
370
13
48
1
60
0
100
AcDbSpline
70
4
71
3
72
39
73
35
40
0
40
0
40
0
40
0
40
0.0163158461733116
40
0.0447678330407177
40
0.0732198199081237
40
0.10167180677553
40
0.158575780510342
40
0.215479754245154
40
0.24393174111256
40
0.272383727979966
40
0.329287701714778
40
0.357739688582184
40
0.38619167544959
40
0.414643662316996
40
0.443095649184402
40
0.471547636051808
40
0.485773629485511
40
0.499999622919214
40
0.514225616352917
40
0.52845160978662
40
0.556903596654026
40
0.585355583521432
40
0.613807570388838
40
0.642259557256244
40
0.67071154412365
40
0.727615517858462
40
0.756067504725868
40
0.784519491593274
40
0.841423465328086
40
0.898327439062898
40
0.926779425930304
40
0.95523141279771
40
0.983683399665116
40
1
40
1
40
1
40
1
41
1
10
-38
20
20.2906554802413
30
0
41
1
10
-38
20
20.2847900303744
30
0
41
1
10
-38
20
20.2399424374155
30
0
41
1
10
-38
20
20.0459061788578
30
0
41
1
10
-38
20
19.657941810806
30
0
41
1
10
-38
20
18.9398394400737
30
0
41
1
10
-38
20
17.7044407938012
30
0
41
1
10
-38
20
16.0627612954467
30
0
41
1
10
-38
20
14.5156411550098
30
0
41
1
10
-38
20
12.8247036179069
30
0
41
1
10
-38
20
10.9474697913536
30
0
41
1
10
-38
20
8.85369717199413
30
0
41
1
10
-38
20
7.20137624192125
30
0
41
1
10
-38
20
5.46830539586296
30
0
41
1
10
-38
20
3.67033144630452
30
0
41
1
10
-38
20
2.14779050597869
30
0
41
1
10
-38
20
0.911746463163183
30
0
41
1
10
-38
20
3.12542852E-07
30
0
41
1
10
-38
20
-0.911746507027772
30
0
41
1
10
-38
20
-2.14779063761824
30
0
41
1
10
-38
20
-3.67033088291646
30
0
41
1
10
-38
20
-5.46830515172132
30
0
41
1
10
-38
20
-7.20137650942658
30
0
41
1
10
-38
20
-8.85369680730176
30
0
41
1
10
-38
20
-10.9474696029843
30
0
41
1
10
-38
20
-12.8247036249508
30
0
41
1
10
-38
20
-14.5156410584188
30
0
41
1
10
-38
20
-16.0627617322199
30
0
41
1
10
-38
20
-17.704440345947
30
0
41
1
10
-38
20
-18.9398403790117
30
0
41
1
10
-38
20
-19.6579416385018
30
0
41
1
10
-38
20
-20.0459066437044
30
0
41
1
10
-38
20
-20.2399451011764
30
0
41
1
10
-38
20
-20.2847918532222
30
0
41
1
10
-38
20
-20.2906565198083
30
0
0
SPLINE
5
19A
100
AcDbEntity
8
SK1
62
256
6
ByLayer
370
13
48
1
60
0
100
AcDbSpline
70
4
71
3
72
14
73
10
40
0
40
0
40
0
40
0
40
0.499999999999999
40
0.499999999999999
40
0.624999999999999
40
0.624999999999999
40
0.749999999999999
40
0.749999999999999
40
1
40
1
40
1
40
1
41
1
10
-1.7950399779393
20
0.497941450131634
30
0
41
1
10
-1.77653911995267
20
1.24648451968341
30
0
41
1
10
-1.71691558807231
20
1.97709250533794
30
0
41
1
10
-1.61066513576037
20
2.8738689609927
30
0
41
1
10
-1.58782006038828
20
3.05239405328481
30
0
41
1
10
-1.53938165059415
20
3.40790555270044
30
0
41
1
10
-1.51376581596696
20
3.5850378420173
30
0
41
1
10
-1.43359349354216
20
4.11326628111749
30
0
41
1
10
-1.37594187827943
20
4.46036524583116
30
0
41
1
10
-1.31543506509496
20
4.80312611568499
30
0
0
SPLINE
5
19B
100
AcDbEntity
8
SK1
62
256
6
ByLayer
370
13
48
1
60
0
100
AcDbSpline
70
4
71
3
72
20
73
16
40
0
40
0
40
0
40
0
40
0.0481200416912457
40
0.115800854674093
40
0.183481667656941
40
0.251162480639789
40
0.386524106605484
40
0.521885732571179
40
0.589566545554027
40
0.657247358536874
40
0.79260898450257
40
0.860289797485417
40
0.927970610468265
40
0.995651423451113
40
1
40
1
40
1
40
1
41
1
10
-0.19497688887526
20
-21.8704422387898
30
0
41
1
10
-0.194976888875288
20
-21.8695658418003
30
0
41
1
10
-0.19497688887526
20
-21.8248451042204
30
0
41
1
10
-0.194976888875288
20
-21.6069523286528
30
0
41
1
10
-0.194976888875288
20
-21.1957612581816
30
0
41
1
10
-0.194976888875288
20
-20.4405044941378
30
0
41
1
10
-0.194976888875288
20
-19.1375804507264
30
0
41
1
10
-0.194976888875288
20
-17.4090439325775
30
0
41
1
10
-0.194976888875288
20
-15.788964627033
30
0
41
1
10
-0.194976888875288
20
-14.0161341032345
30
0
41
1
10
-0.194976888875288
20
-12.0209589146812
30
0
41
1
10
-0.194976888875288
20
-9.80801688319883
30
0
41
1
10
-0.194976888875288
20
-8.04231567916281
30
0
41
1
10
-0.194976888875288
20
-6.7552262401928
30
0
41
1
10
-0.194976888875288
20
-6.07248438694882
30
0
41
1
10
-0.194976888875288
20
-6.03119623886749
30
0
0
SPLINE
5
19C
100
AcDbEntity
8
SK1
62
256
6
ByLayer
370
13
48
1
60
0
100
AcDbSpline
70
4
71
3
72
39
73
35
40
0
40
0
40
0
40
0
40
0.0186683987017504
40
0.0469820499106394
40
0.0752957011195285
40
0.103609352328417
40
0.160236654746196
40
0.216863957163974
40
0.245177608372863
40
0.273491259581752
40
0.33011856199953
40
0.358432213208419
40
0.386745864417308
40
0.415059515626197
40
0.443373166835086
40
0.471686818043975
40
0.485843643648419
40
0.500000469252864
40
0.514157294857308
40
0.528314120461753
40
0.556627771670642
40
0.584941422879531
40
0.61325507408842
40
0.641568725297309
40
0.669882376506198
40
0.726509678923976
40
0.754823330132865
40
0.783136981341754
40
0.839764283759532
40
0.89639158617731
40
0.924705237386199
40
0.953018888595089
40
0.981332539803978
40
1
40
1
40
1
40
1
41
1
10
-36.5
20
-21.1582343317587
30
0
41
1
10
-36.5
20
-21.1550772935755
30
0
41
1
10
-36.5
20
-21.1103616082725
30
0
41
1
10
-36.5
20
-20.9025888554179
30
0
41
1
10
-36.5
20
-20.5018776781105
30
0
41
1
10
-36.5
20
-19.7633859456667
30
0
41
1
10
-36.5
20
-18.4909295861375
30
0
41
1
10
-36.5
20
-16.8015844483731
30
0
41
1
10
-36.5
20
-15.2144249963299
30
0
41
1
10
-36.5
20
-13.4785456662698
30
0
41
1
10
-36.5
20
-11.53658701746
30
0
41
1
10
-36.5
20
-9.37741564601666
30
0
41
1
10
-36.5
20
-7.66287333478689
30
0
41
1
10
-36.5
20
-5.85435990948278
30
0
41
1
10
-36.5
20
-3.96084204001809
30
0
41
1
10
-36.5
20
-2.32941173515778
30
0
41
1
10
-36.5
20
-0.997014040356845
30
0
41
1
10
-36.5
20
1.676932584E-07
30
0
41
1
10
-36.5
20
0.997014065912424
30
0
41
1
10
-36.5
20
2.32941166334251
30
0
41
1
10
-36.5
20
3.9608423365176
30
0
41
1
10
-36.5
20
5.85436022826511
30
0
41
1
10
-36.5
20
7.66287314675827
30
0
41
1
10
-36.5
20
9.37741591545509
30
0
41
1
10
-36.5
20
11.5365872380067
30
0
41
1
10
-36.5
20
13.4785456669563
30
0
41
1
10
-36.5
20
15.2144251466802
30
0
41
1
10
-36.5
20
16.801583993955
30
0
41
1
10
-36.5
20
18.4909300775028
30
0
41
1
10
-36.5
20
19.763384993051
30
0
41
1
10
-36.5
20
20.5018778480376
30
0
41
1
10
-36.5
20
20.9025884164263
30
0
41
1
10
-36.5
20
21.110358330921
30
0
41
1
10
-36.5
20
21.1550752349982
30
0
41
1
10
-36.5
20
21.158233668099
30
0
0
SPLINE
5
19D
100
AcDbEntity
8
SK1
62
256
6
ByLayer
370
13
48
1
60
0
100
AcDbSpline
70
4
71
3
72
30
73
26
40
0
40
0
40
0
40
0
40
0.249999999999994
40
0.249999999999994
40
0.499999999999989
40
0.499999999999989
40
0.624999999999988
40
0.624999999999988
40
0.687499999999987
40
0.687499999999987
40
0.718749999999988
40
0.718749999999988
40
0.74999999999999
40
0.74999999999999
40
0.781249999999991
40
0.781249999999991
40
0.812499999999992
40
0.812499999999992
40
0.843749999999993
40
0.843749999999993
40
0.874999999999995
40
0.874999999999995
40
0.937499999999997
40
0.937499999999997
40
1
40
1
40
1
40
1
41
1
10
0
20
-6.51832721803822
30
0
41
1
10
0
20
-6.45521726569339
30
0
41
1
10
-0.0010439765855779
20
-6.391894618831
30
0
41
1
10
-0.0066331530334196
20
-6.26465120291149
30
0
41
1
10
-0.0109424851580116
20
-6.20075349479794
30
0
41
1
10
-0.0237439417306291
20
-6.10406068274179
30
0
41
1
10
-0.0290317032600171
20
-6.071722582566
30
0
41
1
10
-0.0407287462311388
20
-6.02386683286164
30
0
41
1
10
-0.0452407179007821
20
-6.00804175292345
30
0
41
1
10
-0.0540229659381737
20
-5.98478466841073
30
0
41
1
10
-0.0572671943450302
20
-5.97718389092859
30
0
41
1
10
-0.0648407558997803
20
-5.96250071960176
30
0
41
1
10
-0.0691453365327277
20
-5.95543988697557
30
0
41
1
10
-0.0794665436230559
20
-5.94297667581387
30
0
41
1
10
-0.0856933621545295
20
-5.93751024445532
30
0
41
1
10
-0.0994753515919626
20
-5.93143467594496
30
0
41
1
10
-0.106898867017947
20
-5.93099690243082
30
0
41
1
10
-0.12065041040691
20
-5.93433682311939
30
0
41
1
10
-0.126815361065212
20
-5.93777675393289
30
0
41
1
10
-0.138206675435839
20
-5.94619422709928
30
0
41
1
10
-0.143334189773981
20
-5.9511259770394
30
0
41
1
10
-0.157794544926446
20
-5.96709734619171
30
0
41
1
10
-0.166171554154772
20
-5.97927578115727
30
0
41
1
10
-0.181477262399199
20
-6.00448869193934
30
0
41
1
10
-0.188436164167172
20
-6.01767095909605
30
0
41
1
10
-0.194976888875288
20
-6.03119623886744
30
0
0
SPLINE
5
19E
100
AcDbEntity
8
SK1
62
256
6
ByLayer
370
13
48
1
60
0
100
AcDbSpline
70
4
71
3
72
42
73
38
40
0
40
0
40
0
40
0
40
0.250000000000003
40
0.250000000000003
40
0.375000000000005
40
0.375000000000005
40
0.500000000000006
40
0.500000000000006
40
0.562500000000007
40
0.562500000000007
40
0.625000000000008
40
0.625000000000008
40
0.656250000000008
40
0.656250000000008
40
0.687500000000008
40
0.687500000000008
40
0.718750000000008
40
0.718750000000008
40
0.734375000000008
40
0.734375000000008
40
0.750000000000007
40
0.750000000000007
40
0.765625000000007
40
0.765625000000007
40
0.781250000000007
40
0.781250000000007
40
0.812500000000006
40
0.812500000000006
40
0.843750000000005
40
0.843750000000005
40
0.875000000000004
40
0.875000000000004
40
0.906250000000002
40
0.906250000000002
40
0.937500000000001
40
0.937500000000001
40
1
40
1
40
1
40
1
41
1
10
-1.31543506509499
20
4.80312611568496
30
0
41
1
10
-1.28076938263689
20
4.99950134763085
30
0
41
1
10
-1.24073424809558
20
5.19296621604752
30
0
41
1
10
-1.16716345288555
20
5.47772249512804
30
0
41
1
10
-1.14035871890096
20
5.57172775793987
30
0
41
1
10
-1.08003870986329
20
5.75744069734625
30
0
41
1
10
-1.0466417475028
20
5.84917628269079
30
0
41
1
10
-0.98787095200197
20
5.98422522484142
30
0
41
1
10
-0.96681476241497
20
6.02881109619287
30
0
41
1
10
-0.920216840242517
20
6.11675996236781
30
0
41
1
10
-0.894592617883347
20
6.16031587632335
30
0
41
1
10
-0.851363240997301
20
6.22249715788379
30
0
41
1
10
-0.836122048154181
20
6.24273906368526
30
0
41
1
10
-0.803267925202505
20
6.28185967176094
30
0
41
1
10
-0.785676142170558
20
6.30070882728162
30
0
41
1
10
-0.747674065319984
20
6.33559137660478
30
0
41
1
10
-0.727059101355195
20
6.35184391326263
30
0
41
1
10
-0.693068958052692
20
6.37255130737194
30
0
41
1
10
-0.681328701367676
20
6.37877101944207
30
0
41
1
10
-0.6568201417669
20
6.38950251486827
30
0
41
1
10
-0.643910338253448
20
6.39404541337268
30
0
41
1
10
-0.617607262929312
20
6.40072118234394
30
0
41
1
10
-0.604228508840407
20
6.40287702079246
30
0
41
1
10
-0.576965583597968
20
6.40456034456787
30
0
41
1
10
-0.563157455095705
20
6.40404231198156
30
0
41
1
10
-0.522989873971341
20
6.39866789693866
30
0
41
1
10
-0.497049674240173
20
6.38984384835308
30
0
41
1
10
-0.450155916699401
20
6.36622057634361
30
0
41
1
10
-0.428474458443389
20
6.35122677304884
30
0
41
1
10
-0.389101872855918
20
6.31856901057458
30
0
41
1
10
-0.371152434600248
20
6.30076511496759
30
0
41
1
10
-0.337504866128001
20
6.26322611144104
30
0
41
1
10
-0.321815355401583
20
6.243448465184
30
0
41
1
10
-0.292487715962096
20
6.20308004709662
30
0
41
1
10
-0.278779227521056
20
6.18240167524274
30
0
41
1
10
-0.239753745739222
20
6.11925961210235
30
0
41
1
10
-0.216500232485004
20
6.07570695265287
30
0
41
1
10
-0.194976888875288
20
6.03119978687542
30
0
0
SPLINE
5
19F
100
AcDbEntity
8
SK1
62
256
6
ByLayer
370
13
48
1
60
0
100
AcDbSpline
70
4
71
3
72
42
73
38
40
0
40
0
40
0
40
0
40
0.0625
40
0.0625
40
0.125
40
0.125
40
0.15625
40
0.15625
40
0.187500000000001
40
0.187500000000001
40
0.203125000000001
40
0.203125000000001
40
0.218750000000001
40
0.218750000000001
40
0.234375000000001
40
0.234375000000001
40
0.250000000000002
40
0.250000000000002
40
0.265625000000002
40
0.265625000000002
40
0.281250000000002
40
0.281250000000002
40
0.312500000000002
40
0.312500000000002
40
0.343750000000002
40
0.343750000000002
40
0.375000000000002
40
0.375000000000002
40
0.437500000000002
40
0.437500000000002
40
0.500000000000003
40
0.500000000000003
40
0.625000000000002
40
0.625000000000002
40
0.750000000000002
40
0.750000000000002
40
1
40
1
40
1
40
1
41
1
10
-0.194976888875288
20
-6.03119623886744
30
0
41
1
10
-0.216476397702166
20
-6.075654136856
30
0
41
1
10
-0.239719906249405
20
-6.11920120285225
30
0
41
1
10
-0.291819587963403
20
-6.20349730033155
30
0
41
1
10
-0.32071178410618
20
-6.24444755452774
30
0
41
1
10
-0.370805626911107
20
-6.30039460043284
30
0
41
1
10
-0.388669874004307
20
-6.31816612880368
30
0
41
1
10
-0.428100448786722
20
-6.35095364496379
30
0
41
1
10
-0.449595363724455
20
-6.3658776122293
30
0
41
1
10
-0.484873013053971
20
-6.38373422292611
30
0
41
1
10
-0.497252426791761
20
-6.3889570001775
30
0
41
1
10
-0.52251675863846
20
-6.39720108741079
30
0
41
1
10
-0.535488033803574
20
-6.40027643250414
30
0
41
1
10
-0.562227100982795
20
-6.40397109390565
30
0
41
1
10
-0.576076461193651
20
-6.40454389875211
30
0
41
1
10
-0.603084076186349
20
-6.40300762054429
30
0
41
1
10
-0.616427560758382
20
-6.40094240217448
30
0
41
1
10
-0.642815113903993
20
-6.39438890204468
30
0
41
1
10
-0.65564494267332
20
-6.38993951425388
30
0
41
1
10
-0.680101197931094
20
-6.3793726169506
30
0
41
1
10
-0.691840693158156
20
-6.37322557510922
30
0
41
1
10
-0.725877051355496
20
-6.35269147338832
30
0
41
1
10
-0.74644817878206
20
-6.33658984105307
30
0
41
1
10
-0.784404249094052
20
-6.30198858585547
30
0
41
1
10
-0.8019675510794
20
-6.28328814929048
30
0
41
1
10
-0.834824336870298
20
-6.24438859367521
30
0
41
1
10
-0.849991135446174
20
-6.22434505214747
30
0
41
1
10
-0.892900103887769
20
-6.1629735448073
30
0
41
1
10
-0.918100617528381
20
-6.12042730373409
30
0
41
1
10
-0.964557244743418
20
-6.03336262354722
30
0
41
1
10
-0.985754878310161
20
-5.98881755729903
30
0
41
1
10
-1.04518913801431
20
-5.85300733327867
30
0
41
1
10
-1.07895138156053
20
-5.76055794093679
30
0
41
1
10
-1.13972960357563
20
-5.57388163689993
30
0
41
1
10
-1.16668399631226
20
-5.47947446809698
30
0
41
1
10
-1.24059701289747
20
-5.19369243133599
30
0
41
1
10
-1.28071949576554
20
-4.99978088797326
30
0
41
1
10
-1.31543506509499
20
-4.80312334332308
30
0
0
SPLINE
5
1A0
100
AcDbEntity
8
SK1
62
256
6
ByLayer
370
13
48
1
60
0
100
AcDbSpline
70
4
71
3
72
20
73
16
40
0
40
0
40
0
40
0
40
0.0043380904179762
40
0.0718574957275459
40
0.139376901037116
40
0.206896306346685
40
0.341935116965825
40
0.409454522275394
40
0.476973927584964
40
0.612012738204103
40
0.747051548823243
40
0.814570954132812
40
0.882090359442382
40
0.949609764751952
40
1
40
1
40
1
40
1
41
1
10
-0.194976888875288
20
6.03119978687545
30
0
41
1
10
-0.194976888875288
20
6.07248683105718
30
0
41
1
10
-0.194976888875288
20
6.75522752997537
30
0
41
1
10
-0.194976888875288
20
8.04231555647985
30
0
41
1
10
-0.194976888875288
20
9.80801707431959
30
0
41
1
10
-0.194976888875288
20
12.0209591616842
30
0
41
1
10
-0.194976888875288
20
14.0161341102769
30
0
41
1
10
-0.194976888875288
20
15.7889648215842
30
0
41
1
10
-0.194976888875288
20
17.4090434636518
30
0
41
1
10
-0.194976888875288
20
19.1375809778665
30
0
41
1
10
-0.194976888875288
20
20.4405035302762
30
0
41
1
10
-0.194976888875288
20
21.1957614261541
30
0
41
1
10
-0.194976888875288
20
21.6069519109193
30
0
41
1
10
-0.194976888875288
20
21.8276834032925
30
0
41
1
10
-0.19497688887526
20
21.8713725424941
30
0
41
1
10
-0.19497688887526
20
21.8704413861314
30
0
0
SPLINE
5
1A1
100
AcDbEntity
8
SK1
62
256
6
ByLayer
370
13
48
1
60
0
100
AcDbSpline
70
4
71
3
72
23
73
19
40
0
40
0
40
0
40
0
40
0.0420239692544702
40
0.099162803860573
40
0.156301638466676
40
0.213440473072779
40
0.327718142284984
40
0.44199581149719
40
0.499134646103292
40
0.556273480709395
40
0.670551149921601
40
0.727689984527704
40
0.784828819133806
40
0.841967653739909
40
0.899106488346012
40
0.956245322952115
40
0.984814740255166
40
1
40
1
40
1
40
1
41
1
10
-1.79503997793924
20
-21.8302884778374
30
0
41
1
10
-1.79503997793927
20
-21.8306401236951
30
0
41
1
10
-1.79503997793932
20
-21.786701050087
30
0
41
1
10
-1.7950399779393
20
-21.5671868666521
30
0
41
1
10
-1.7950399779393
20
-21.1565874478056
30
0
41
1
10
-1.7950399779393
20
-20.4022771684283
30
0
41
1
10
-1.7950399779393
20
-19.1010732050206
30
0
41
1
10
-1.7950399779393
20
-17.3747492708666
30
0
41
1
10
-1.7950399779393
20
-15.7565284847275
30
0
41
1
10
-1.7950399779393
20
-13.9857840732081
30
0
41
1
10
-1.7950399779393
20
-11.9936132714088
30
0
41
1
10
-1.7950399779393
20
-9.78370691003113
30
0
41
1
10
-1.7950399779393
20
-8.02089392647389
30
0
41
1
10
-1.7950399779393
20
-6.15385395841673
30
0
41
1
10
-1.7950399779393
20
-4.18621515342139
30
0
41
1
10
-1.7950399779393
20
-2.47030998023922
30
0
41
1
10
-1.7950399779393
20
-1.22796752001364
30
0
41
1
10
-1.7950399779393
20
-0.686148227370694
30
0
41
1
10
-1.7950399779393
20
-0.497935257507123
30
0
0
SPLINE
5
1A2
100
AcDbEntity
8
SK1
62
256
6
ByLayer
370
13
48
1
60
0
100
AcDbSpline
70
4
71
3
72
28
73
24
40
0
40
0
40
0
40
0
40
0.0624999999999957
40
0.0624999999999957
40
0.124999999999991
40
0.124999999999991
40
0.156249999999991
40
0.156249999999991
40
0.187499999999991
40
0.187499999999991
40
0.218749999999991
40
0.218749999999991
40
0.249999999999991
40
0.249999999999991
40
0.312499999999991
40
0.312499999999991
40
0.374999999999991
40
0.374999999999991
40
0.499999999999994
40
0.499999999999994
40
0.749999999999997
40
0.749999999999997
40
1
40
1
40
1
40
1
41
1
10
-0.194976888875288
20
6.03119978687536
30
0
41
1
10
-0.188401744963841
20
6.0176033389728
30
0
41
1
10
-0.181409590264081
20
6.00436600748077
30
0
41
1
10
-0.166048163806749
20
5.97909104279262
30
0
41
1
10
-0.157743183873322
20
5.96699745444164
30
0
41
1
10
-0.143036180115587
20
5.95082455283824
30
0
41
1
10
-0.137806347445178
20
5.94583602161507
30
0
41
1
10
-0.126247414043434
20
5.93743238989032
30
0
41
1
10
-0.120054698623363
20
5.93407285236705
30
0
41
1
10
-0.106202380895951
20
5.93096620796084
30
0
41
1
10
-0.0986246656830758
20
5.93160838656968
30
0
41
1
10
-0.084821990097339
20
5.93813005665663
30
0
41
1
10
-0.0786743531297702
20
5.943757314463
30
0
41
1
10
-0.0632480439709013
20
5.96296745832615
30
0
41
1
10
-0.0563081800736995
20
5.97850106964685
30
0
41
1
10
-0.0448248611907616
20
6.00940478667602
30
0
41
1
10
-0.040356985685122
20
6.02522873434148
30
0
41
1
10
-0.0287512143408435
20
6.07322146495517
30
0
41
1
10
-0.023539396518828
20
6.10541609960541
30
0
41
1
10
-0.0109168840251073
20
6.20134675222832
30
0
41
1
10
-0.0066122065278478
20
6.26502203387079
30
0
41
1
10
-0.0010425489437296
20
6.39204044257289
30
0
41
1
10
-2.84E-14
20
6.45536729044548
30
0
41
1
10
-2.84E-14
20
6.5183304588368
30
0
0
SPLINE
5
1A3
100
AcDbEntity
8
SK1
62
256
6
ByLayer
370
13
48
1
60
0
100
AcDbSpline
70
4
71
3
72
23
73
19
40
0
40
0
40
0
40
0
40
0.0151855024654674
40
0.0437556850240755
40
0.100896050141292
40
0.158036415258508
40
0.215176780375724
40
0.27231714549294
40
0.329457510610157
40
0.443738240844589
40
0.500878605961805
40
0.558018971079021
40
0.672299701313454
40
0.786580431547886
40
0.843720796665102
40
0.900861161782319
40
0.958001526899535
40
1
40
1
40
1
40
1
41
1
10
-1.7950399779393
20
0.497941450134022
30
0
41
1
10
-1.7950399779393
20
0.68615237839083
30
0
41
1
10
-1.7950399779393
20
1.22796960685096
30
0
41
1
10
-1.7950399779393
20
2.47030995483456
30
0
41
1
10
-1.7950399779393
20
4.18621524287374
30
0
41
1
10
-1.7950399779393
20
6.15385433510392
30
0
41
1
10
-1.7950399779393
20
8.02089380010176
30
0
41
1
10
-1.7950399779393
20
9.78370710557337
30
0
41
1
10
-1.7950399779393
20
11.9936135169182
30
0
41
1
10
-1.7950399779393
20
13.9857840798917
30
0
41
1
10
-1.7950399779393
20
15.7565286767833
30
0
41
1
10
-1.7950399779393
20
17.3747488027599
30
0
41
1
10
-1.7950399779393
20
19.101073730141
30
0
41
1
10
-1.7950399779393
20
20.4022762052016
30
0
41
1
10
-1.7950399779393
20
21.1565876158885
30
0
41
1
10
-1.7950399779393
20
21.5671864477184
30
0
41
1
10
-1.79503997793927
20
21.7866629548996
30
0
41
1
10
-1.7950399779393
20
21.830616293248
30
0
41
1
10
-1.79503997793927
20
21.8302889654176
30
0
0
SPLINE
5
1A4
100
AcDbEntity
8
SK1
62
256
6
ByLayer
370
13
48
1
60
0
100
AcDbSpline
70
4
71
3
72
39
73
35
40
0
40
0
40
0
40
0
40
0.0204708097462744
40
0.0486790839439743
40
0.0768873581416742
40
0.105095632339374
40
0.161512180734774
40
0.217928729130174
40
0.246137003327874
40
0.274345277525574
40
0.330761825920973
40
0.358970100118673
40
0.387178374316373
40
0.415386648514073
40
0.443594922711773
40
0.471803196909473
40
0.485907334008323
40
0.500011471107173
40
0.514115608206023
40
0.528219745304872
40
0.556428019502572
40
0.584636293700272
40
0.612844567897972
40
0.641052842095672
40
0.669261116293372
40
0.725677664688772
40
0.753885938886472
40
0.782094213084171
40
0.838510761479571
40
0.894927309874971
40
0.923135584072671
40
0.951343858270371
40
0.979552132468071
40
1
40
1
40
1
40
1
41
1
10
-2
20
-22.0251203310542
30
0
41
1
10
-1.99999999999997
20
-22.0249918887932
30
0
41
1
10
-2
20
-21.980402879514
30
0
41
1
10
-2
20
-21.7599978216034
30
0
41
1
10
-2
20
-21.346529659153
30
0
41
1
10
-2
20
-20.5876301557806
30
0
41
1
10
-2
20
-19.2780860335662
30
0
41
1
10
-2
20
-17.5410339345301
30
0
41
1
10
-2
20
-15.9138017379025
30
0
41
1
10
-2
20
-14.1329423854158
30
0
41
1
10
-2
20
-12.1262042015232
30
0
41
1
10
-2
20
-9.90157877434436
30
0
41
1
10
-2
20
-8.12476166457805
30
0
41
1
10
-2
20
-6.24074217144337
30
0
41
1
10
-2
20
-4.25159964823044
30
0
41
1
10
-2
20
-2.51118690843629
30
0
41
1
10
-2
20
-1.08235390921519
30
0
41
1
10
-2
20
2.27208261E-08
30
0
41
1
10
-2
20
1.08235400424977
30
0
41
1
10
-2
20
2.5111868964961
30
0
41
1
10
-2
20
4.25159967761499
30
0
41
1
10
-2
20
6.24074256492972
30
0
41
1
10
-2
20
8.12476155609352
30
0
41
1
10
-2
20
9.90157894844808
30
0
41
1
10
-2
20
12.1262044542746
30
0
41
1
10
-2
20
14.1329423938392
30
0
41
1
10
-2
20
15.9138019420577
30
0
41
1
10
-2
20
17.5410334624521
30
0
41
1
10
-2
20
19.2780865684795
30
0
41
1
10
-2
20
20.5876291894755
30
0
41
1
10
-2
20
21.3465298267009
30
0
41
1
10
-2
20
21.7599974084889
30
0
41
1
10
-2.00000000000003
20
21.9803364029072
30
0
41
1
10
-2
20
22.0249496013112
30
0
41
1
10
-2
20
22.0251196691314
30
0
0
SPLINE
5
1A5
100
AcDbEntity
8
1
62
256
6
ByLayer
370
18
48
1
60
0
100
AcDbSpline
70
4
71
3
72
12
73
8
40
0
40
0
40
0
40
0
40
0.499999999999974
40
0.499999999999974
40
0.749999999999987
40
0.749999999999987
40
1
40
1
40
1
40
1
41
1
10
103.064583017589
20
-3.0746444408108
30
0
41
1
10
103.118803265353
20
-3.02663760447794
30
0
41
1
10
103.166527470107
20
-2.97284674775571
30
0
41
1
10
103.228764193161
20
-2.88359258748707
30
0
41
1
10
103.24800755788
20
-2.85225807724473
30
0
41
1
10
103.282841750928
20
-2.78753326261418
30
0
41
1
10
103.298493468957
20
-2.75408644375375
30
0
41
1
10
103.312463733139
20
-2.71950861163819
30
0
0
SPLINE
5
1A6
100
AcDbEntity
8
1
62
256
6
ByLayer
370
18
48
1
60
0
100
AcDbSpline
70
4
71
3
72
28
73
24
40
0
40
0
40
0
40
0
40
0.0624999999999999
40
0.0624999999999999
40
0.125
40
0.125
40
0.1875
40
0.1875
40
0.25
40
0.25
40
0.3125
40
0.3125
40
0.375
40
0.375
40
0.437499999999999
40
0.437499999999999
40
0.499999999999999
40
0.499999999999999
40
0.624999999999999
40
0.624999999999999
40
0.75
40
0.75
40
1
40
1
40
1
40
1
41
1
10
107.146812173844
20
4.52013514058001
30
0
41
1
10
107.130807119897
20
4.55373839749802
30
0
41
1
10
107.111607622605
20
4.58551967461861
30
0
41
1
10
107.0666092549
20
4.64532469502515
30
0
41
1
10
107.040431256478
20
4.67360405596466
30
0
41
1
10
106.983755391397
20
4.72368761844749
30
0
41
1
10
106.953130897284
20
4.74580144747364
30
0
41
1
10
106.887578191722
20
4.78451743623816
30
0
41
1
10
106.853176386829
20
4.80076577256361
30
0
41
1
10
106.782784160065
20
4.82730617561694
30
0
41
1
10
106.746313845999
20
4.83776051514204
30
0
41
1
10
106.673006335966
20
4.8532243293607
30
0
41
1
10
106.636298379923
20
4.85826070719406
30
0
41
1
10
106.562771945373
20
4.86382050965412
30
0
41
1
10
106.525953398129
20
4.86433699219225
30
0
41
1
10
106.45219973271
20
4.86137169080635
30
0
41
1
10
106.415336312765
20
4.85786741185907
30
0
41
1
10
106.306837132633
20
4.84233953214277
30
0
41
1
10
106.236429070514
20
4.82534517540034
30
0
41
1
10
106.098492676833
20
4.78094172023333
30
0
41
1
10
106.030590126301
20
4.75326855203082
30
0
41
1
10
105.834988508616
20
4.65887445638677
30
0
41
1
10
105.714037763526
20
4.58092264213749
30
0
41
1
10
105.600177460721
20
4.49128961759146
30
0
0
SPLINE
5
1A7
100
AcDbEntity
8
1
62
256
6
ByLayer
370
13
48
1
60
0
100
AcDbSpline
70
4
71
3
72
22
73
18
40
0
40
0
40
0
40
0
40
0.250000000000028
40
0.250000000000028
40
0.500000000000057
40
0.500000000000057
40
0.562500000000055
40
0.562500000000055
40
0.625000000000052
40
0.625000000000052
40
0.68750000000005
40
0.68750000000005
40
0.750000000000048
40
0.750000000000048
40
0.875000000000024
40
0.875000000000024
40
1
40
1
40
1
40
1
41
1
10
107.902605387733
20
0.550349021299638
30
0
41
1
10
107.863218093107
20
0.507196878299027
30
0
41
1
10
107.827156172508
20
0.461731314204684
30
0
41
1
10
107.766350632306
20
0.362909470945368
30
0
41
1
10
107.741297831053
20
0.308721631063918
30
0
41
1
10
107.726161793471
20
0.237118949176789
30
0
41
1
10
107.723940411067
20
0.222485631475649
30
0
41
1
10
107.721444218281
20
0.19338750211196
30
0
41
1
10
107.72114737464
20
0.178858532298733
30
0
41
1
10
107.722603306899
20
0.149844825065884
30
0
41
1
10
107.724382603023
20
0.135244419563207
30
0
41
1
10
107.730037481532
20
0.106710749531601
30
0
41
1
10
107.733882010904
20
0.0928266813608047
30
0
41
1
10
107.748310035777
20
0.0522650099019586
30
0
41
1
10
107.762003076505
20
0.0264379381039532
30
0
41
1
10
107.794953940011
20
-0.0205897807789484
30
0
41
1
10
107.814296230913
20
-0.0420820878283337
30
0
41
1
10
107.835416852803
20
-0.0615633479732764
30
0
0
SPLINE
5
1A8
100
AcDbEntity
8
1
62
256
6
ByLayer
370
13
48
1
60
0
100
AcDbSpline
70
4
71
3
72
8
73
4
40
0
40
0
40
0
40
0
40
1
40
1
40
1
40
1
41
1
10
111.84972780156
20
-2.12819082638339
30
0
41
1
10
111.998050706735
20
-2.30695648221411
30
0
41
1
10
112.146373611909
20
-2.48572213804482
30
0
41
1
10
112.294696517084
20
-2.66448779387554
30
0
0
SPLINE
5
1A9
100
AcDbEntity
8
1
62
256
6
ByLayer
370
13
48
1
60
0
100
AcDbSpline
70
4
71
3
72
22
73
18
40
0
40
0
40
0
40
0
40
0.124999999999996
40
0.124999999999996
40
0.249999999999991
40
0.249999999999991
40
0.312499999999994
40
0.312499999999994
40
0.374999999999998
40
0.374999999999998
40
0.499999999999998
40
0.499999999999998
40
0.624999999999998
40
0.624999999999998
40
0.749999999999999
40
0.749999999999999
40
1
40
1
40
1
40
1
41
1
10
107.425070008909
20
-0.364429774082907
30
0
41
1
10
107.395204576613
20
-0.322349377377009
30
0
41
1
10
107.368146261496
20
-0.278216518377377
30
0
41
1
10
107.321184311691
20
-0.187549149094394
30
0
41
1
10
107.301164056435
20
-0.140901431481438
30
0
41
1
10
107.276548357972
20
-0.068882245483934
30
0
41
1
10
107.269247196089
20
-0.0445340116954185
30
0
41
1
10
107.256511684799
20
0.0048663924634695
30
0
41
1
10
107.251058207278
20
0.0300411324162724
30
0
41
1
10
107.237773395644
20
0.105649292378871
30
0
41
1
10
107.232987449379
20
0.156007942180679
30
0
41
1
10
107.230965903681
20
0.256615146479987
30
0
41
1
10
107.233732655306
20
0.30686369048027
30
0
41
1
10
107.246463692329
20
0.407229590845475
30
0
41
1
10
107.25653730995
20
0.457585534536662
30
0
41
1
10
107.295883489924
20
0.604154787267191
30
0
41
1
10
107.33420570343
20
0.697290158874779
30
0
41
1
10
107.382088580026
20
0.786688686019801
30
0
0
SPLINE
5
1AA
100
AcDbEntity
8
1
62
256
6
ByLayer
370
18
48
1
60
0
100
AcDbSpline
70
4
71
3
72
8
73
4
40
0
40
0
40
0
40
0
40
1
40
1
40
1
40
1
41
1
10
112.207444262074
20
2.7418471598541
30
0
41
1
10
112.123475156073
20
2.67085736031208
30
0
41
1
10
112.039753963495
20
2.59986604140693
30
0
41
1
10
111.956256127005
20
2.52887335364076
30
0
0
SPLINE
5
1AB
100
AcDbEntity
8
1
62
256
6
ByLayer
370
13
48
1
60
0
100
AcDbSpline
70
4
71
1
72
4
73
2
40
0
40
0
40
1
40
1
41
1
10
114.359146993631
20
0.0001750081150931
30
0
41
1
10
114.87178529121
20
0.434923900326027
30
0
0
SPLINE
5
1AC
100
AcDbEntity
8
1
62
256
6
ByLayer
370
18
48
1
60
0
100
AcDbSpline
70
4
71
3
72
12
73
8
40
0
40
0
40
0
40
0
40
0.5
40
0.5
40
0.75
40
0.75
40
1
40
1
40
1
40
1
41
1
10
111.709528381209
20
2.89331923598547
30
0
41
1
10
111.766673733857
20
2.87863853523533
30
0
41
1
10
111.83130724332
20
2.86441370997258
30
0
41
1
10
111.937592360954
20
2.84364477359324
30
0
41
1
10
111.974632694382
20
2.83682032893574
30
0
41
1
10
112.049989152016
20
2.82367443733284
30
0
41
1
10
112.088523038886
20
2.81730929889491
30
0
41
1
10
112.127871706074
20
2.81114204014625
30
0
0
SPLINE
5
1AD
100
AcDbEntity
8
1
62
256
6
ByLayer
370
18
48
1
60
0
100
AcDbSpline
70
4
71
3
72
24
73
20
40
0
40
0
40
0
40
0
40
0.125
40
0.125
40
0.1875
40
0.1875
40
0.25
40
0.25
40
0.375
40
0.375
40
0.5
40
0.5
40
0.625
40
0.625
40
0.75
40
0.75
40
0.875
40
0.875
40
1
40
1
40
1
40
1
41
1
10
103.312463733139
20
-2.71950861163819
30
0
41
1
10
103.332038099665
20
-2.67106005328225
30
0
41
1
10
103.347840733994
20
-2.62101888084109
30
0
41
1
10
103.365769300954
20
-2.54354618223607
30
0
41
1
10
103.370793955114
20
-2.5171967195181
30
0
41
1
10
103.37873653168
20
-2.46434827889169
30
0
41
1
10
103.381662638449
20
-2.43787586623739
30
0
41
1
10
103.387373085909
20
-2.35832094746871
30
0
41
1
10
103.387109106483
20
-2.30510162186528
30
0
41
1
10
103.378314144929
20
-2.1983119973722
30
0
41
1
10
103.369649215562
20
-2.1444775845911
30
0
41
1
10
103.344456676487
20
-2.04023375191682
30
0
41
1
10
103.327934437274
20
-1.989372045643
30
0
41
1
10
103.286983361911
20
-1.89018779408138
30
0
41
1
10
103.26228656011
20
-1.84151555283938
30
0
41
1
10
103.20638696674
20
-1.74996809711928
30
0
41
1
10
103.175122392017
20
-1.70677192951081
30
0
41
1
10
103.105998505602
20
-1.62550503559112
30
0
41
1
10
103.06790249408
20
-1.58725339061567
30
0
41
1
10
103.027024935663
20
-1.55234733064972
30
0
0
SPLINE
5
1AE
100
AcDbEntity
8
1
62
256
6
ByLayer
370
18
48
1
60
0
100
AcDbSpline
70
4
71
3
72
28
73
24
40
0
40
0
40
0
40
0
40
0.070297922887083
40
0.070297922887083
40
0.140595845774166
40
0.140595845774166
40
0.210893768661249
40
0.210893768661249
40
0.281191691548332
40
0.281191691548332
40
0.351489614435415
40
0.351489614435415
40
0.421787537322498
40
0.421787537322498
40
0.492085460209581
40
0.492085460209581
40
0.562383383096664
40
0.562383383096664
40
0.702979228870831
40
0.702979228870831
40
0.843575074644997
40
0.843575074644997
40
1
40
1
40
1
40
1
41
1
10
108.102051572755
20
6.49349973359631
30
0
41
1
10
108.081019115209
20
6.52449925111571
30
0
41
1
10
108.05879259771
20
6.55471674311067
30
0
41
1
10
108.011841981645
20
6.61351285153876
30
0
41
1
10
107.986809170195
20
6.64238340936691
30
0
41
1
10
107.93652543058
20
6.69577305150577
30
0
41
1
10
107.911093132211
20
6.72057360841225
30
0
41
1
10
107.859727480207
20
6.76665423707649
30
0
41
1
10
107.834222824961
20
6.78753029848266
30
0
41
1
10
107.784493746109
20
6.82486253353224
30
0
41
1
10
107.759937655401
20
6.84155875045474
30
0
41
1
10
107.71268781468
20
6.87073918698988
30
0
41
1
10
107.690057311744
20
6.88321524264651
30
0
41
1
10
107.646522185054
20
6.90470470104054
30
0
41
1
10
107.625619903831
20
6.91371238324879
30
0
41
1
10
107.585401913227
20
6.92873257996345
30
0
41
1
10
107.566135989487
20
6.93471151196309
30
0
41
1
10
107.511677153928
20
6.94845983332746
30
0
41
1
10
107.479323391599
20
6.95227996877247
30
0
41
1
10
107.421109189297
20
6.95194691394977
30
0
41
1
10
107.395154318965
20
6.94768844388401
30
0
41
1
10
107.347604161867
20
6.93206792005867
30
0
41
1
10
107.326574316506
20
6.9200921294466
30
0
41
1
10
107.309137320392
20
6.90494360642569
30
0
0
SPLINE
5
1AF
100
AcDbEntity
8
1
62
256
6
ByLayer
370
18
48
1
60
0
100
AcDbSpline
70
4
71
3
72
8
73
4
40
0
40
0
40
0
40
0
40
1
40
1
40
1
40
1
41
1
10
104.903259519001
20
-3.7328673303017
30
0
41
1
10
104.888353295533
20
-3.73171452182641
30
0
41
1
10
104.872161702012
20
-3.73165153454198
30
0
41
1
10
104.854812062163
20
-3.73257041502839
30
0
0
SPLINE
5
1B0
100
AcDbEntity
8
1
62
256
6
ByLayer
370
18
48
1
60
0
100
AcDbSpline
70
4
71
3
72
24
73
20
40
0
40
0
40
0
40
0
40
0.124999999999998
40
0.124999999999998
40
0.187499999999998
40
0.187499999999998
40
0.249999999999996
40
0.249999999999996
40
0.374999999999997
40
0.374999999999997
40
0.499999999999997
40
0.499999999999997
40
0.624999999999998
40
0.624999999999998
40
0.749999999999999
40
0.749999999999999
40
0.874999999999999
40
0.874999999999999
40
1
40
1
40
1
40
1
41
1
10
111.688508597855
20
2.1675170545995
30
0
41
1
10
111.66739903623
20
2.11858781348013
30
0
41
1
10
111.650266444709
20
2.0681302200262
30
0
41
1
10
111.630600218502
20
1.99011344539528
30
0
41
1
10
111.625037191553
20
1.96359541353607
30
0
41
1
10
111.616108881022
20
1.91043833114409
30
0
41
1
10
111.612735317845
20
1.88382581604745
30
0
41
1
10
111.60579982179
20
1.80388732404825
30
0
41
1
10
111.605402850349
20
1.75046104905488
30
0
41
1
10
111.613107311282
20
1.64332997945686
30
0
41
1
10
111.621342656612
20
1.58936106022642
30
0
41
1
10
111.645866098255
20
1.48490772740288
30
0
41
1
10
111.662143340353
20
1.43396931042935
30
0
41
1
10
111.702724852792
20
1.33466934554383
30
0
41
1
10
111.727297062845
20
1.28595809355605
30
0
41
1
10
111.783041160529
20
1.19436195080209
30
0
41
1
10
111.814272979026
20
1.15115552693814
30
0
41
1
10
111.883409419547
20
1.06989256381695
30
0
41
1
10
111.92155133862
20
1.03165529288955
30
0
41
1
10
111.962522906465
20
0.99677866808247
30
0
0
SPLINE
5
1B1
100
AcDbEntity
8
1
62
256
6
ByLayer
370
18
48
1
60
0
100
AcDbSpline
70
4
71
3
72
12
73
8
40
0
40
0
40
0
40
0
40
0.5
40
0.5
40
0.75
40
0.75
40
1
40
1
40
1
40
1
41
1
10
110.977810349799
20
3.08129836210685
30
0
41
1
10
110.920664997152
20
3.09597906285697
30
0
41
1
10
110.870411265994
20
3.12076604617508
30
0
41
1
10
110.803621872426
20
3.17054517111518
30
0
41
1
10
110.782844696518
20
3.18931514348222
30
0
41
1
10
110.745034743313
20
3.23003949323598
30
0
41
1
10
110.727858241509
20
3.25209194422689
30
0
41
1
10
110.712327639303
20
3.27575392101349
30
0
0
SPLINE
5
1B2
100
AcDbEntity
8
1
62
256
6
ByLayer
370
18
48
1
60
0
100
AcDbSpline
70
4
71
3
72
8
73
4
40
0
40
0
40
0
40
0
40
1
40
1
40
1
40
1
41
1
10
102.916110799053
20
-3.34966674247784
30
0
41
1
10
102.887306022175
20
-3.32778224593835
30
0
41
1
10
102.858925787147
20
-3.30526837634628
30
0
41
1
10
102.830978505561
20
-3.28211266371739
30
0
0
SPLINE
5
1B3
100
AcDbEntity
8
1
62
256
6
ByLayer
370
13
48
1
60
0
100
AcDbSpline
70
4
71
1
72
4
73
2
40
0
40
0
40
1
40
1
41
1
10
112.295308024988
20
2.66544859387457
30
0
41
1
10
111.850163269378
20
2.12928336177006
30
0
0
SPLINE
5
1B4
100
AcDbEntity
8
1
62
256
6
ByLayer
370
18
48
1
60
0
100
AcDbSpline
70
4
71
3
72
24
73
20
40
0
40
0
40
0
40
0
40
0.250000000000039
40
0.250000000000039
40
0.375000000000059
40
0.375000000000059
40
0.500000000000078
40
0.500000000000078
40
0.562500000000088
40
0.562500000000088
40
0.625000000000098
40
0.625000000000098
40
0.750000000000118
40
0.750000000000118
40
0.812500000000101
40
0.812500000000101
40
0.875000000000085
40
0.875000000000085
40
1
40
1
40
1
40
1
41
1
10
107.649158179726
20
-2.73185964885329
30
0
41
1
10
107.618708140874
20
-2.67519984449271
30
0
41
1
10
107.583379311095
20
-2.62162450370769
30
0
41
1
10
107.518167458562
20
-2.55007221036414
30
0
41
1
10
107.494768784125
20
-2.52819980510225
30
0
41
1
10
107.443737412521
20
-2.48949680682594
30
0
41
1
10
107.415680235539
20
-2.47251874665753
30
0
41
1
10
107.371581336137
20
-2.45303350457303
30
0
41
1
10
107.35652400757
20
-2.44749204636759
30
0
41
1
10
107.325656395504
20
-2.43841652142109
30
0
41
1
10
107.309723738622
20
-2.43486733324372
30
0
41
1
10
107.261705693968
20
-2.42755121120433
30
0
41
1
10
107.22962754293
20
-2.42705000755731
30
0
41
1
10
107.181422182896
20
-2.43213128267968
30
0
41
1
10
107.165368803997
20
-2.43481308486739
30
0
41
1
10
107.13406456487
20
-2.44179510127057
30
0
41
1
10
107.118699496253
20
-2.44610471873526
30
0
41
1
10
107.073355568332
20
-2.46117605865311
30
0
41
1
10
107.04412223234
20
-2.47406385766197
30
0
41
1
10
107.015693574046
20
-2.48924642916751
30
0
0
SPLINE
5
1B5
100
AcDbEntity
8
1
62
256
6
ByLayer
370
18
48
1
60
0
100
AcDbSpline
70
4
71
3
72
24
73
20
40
0
40
0
40
0
40
0
40
0.250000000000045
40
0.250000000000045
40
0.375000000000083
40
0.375000000000083
40
0.500000000000122
40
0.500000000000122
40
0.562500000000119
40
0.562500000000119
40
0.625000000000116
40
0.625000000000116
40
0.750000000000062
40
0.750000000000062
40
0.812500000000035
40
0.812500000000035
40
0.875000000000008
40
0.875000000000008
40
1
40
1
40
1
40
1
41
1
10
108.120524171999
20
2.42055779768074
30
0
41
1
10
108.146662793212
20
2.36254805144955
30
0
41
1
10
108.177314026841
20
2.30750811515904
30
0
41
1
10
108.234621396519
20
2.23348086038405
30
0
41
1
10
108.255285314696
20
2.21075217946273
30
0
41
1
10
108.300592507461
20
2.17025689165715
30
0
41
1
10
108.325617304341
20
2.15232936724996
30
0
41
1
10
108.365142218752
20
2.13141197120277
30
0
41
1
10
108.378667454481
20
2.1253908015791
30
0
41
1
10
108.406455238129
20
2.11535095591862
30
0
41
1
10
108.420828506259
20
2.11131350973744
30
0
41
1
10
108.464237066407
20
2.10255411853279
30
0
41
1
10
108.493352945976
20
2.10112540226146
30
0
41
1
10
108.537262475827
20
2.10486161607958
30
0
41
1
10
108.551911666989
20
2.10710375503342
30
0
41
1
10
108.580524498714
20
2.11324306867689
30
0
41
1
10
108.59459209963
20
2.11714643786729
30
0
41
1
10
108.636169869081
20
2.13103856124096
30
0
41
1
10
108.663059791935
20
2.14319261748116
30
0
41
1
10
108.689280255015
20
2.15768378411073
30
0
0
SPLINE
5
1B6
100
AcDbEntity
8
1
62
256
6
ByLayer
370
13
48
1
60
0
100
AcDbSpline
70
4
71
1
72
4
73
2
40
0
40
0
40
1
40
1
41
1
10
111.850163269378
20
2.12928336177006
30
0
41
1
10
114.359146993631
20
0.0001750081150931
30
0
0
SPLINE
5
1B7
100
AcDbEntity
8
1
62
256
6
ByLayer
370
18
48
1
60
0
100
AcDbSpline
70
4
71
3
72
8
73
4
40
0
40
0
40
0
40
0
40
1
40
1
40
1
40
1
41
1
10
112.127871706074
20
2.81114204014625
30
0
41
1
10
112.15370661343
20
2.78832765196705
30
0
41
1
10
112.180226276331
20
2.76523122127136
30
0
41
1
10
112.207444262074
20
2.7418471598541
30
0
0
SPLINE
5
1B8
100
AcDbEntity
8
1
62
256
6
ByLayer
370
13
48
1
60
0
100
AcDbSpline
70
4
71
3
72
8
73
4
40
0
40
0
40
0
40
0
40
1
40
1
40
1
40
1
41
1
10
107.463049734942
20
-0.39728020367545
30
0
41
1
10
107.450242937124
20
-0.386467856044277
30
0
41
1
10
107.437588931218
20
-0.375510428317341
30
0
41
1
10
107.425070008909
20
-0.364429774082936
30
0
0
SPLINE
5
1B9
100
AcDbEntity
8
1
62
256
6
ByLayer
370
18
48
1
60
0
100
AcDbSpline
70
4
71
3
72
8
73
4
40
0
40
0
40
0
40
0
40
1
40
1
40
1
40
1
41
1
10
104.854812062163
20
-3.73257041502836
30
0
41
1
10
104.849777741834
20
-3.7328370452727
30
0
41
1
10
104.845787214258
20
-3.73423187243284
30
0
41
1
10
104.842808865612
20
-3.73676328334003
30
0
0
SPLINE
5
1BA
100
AcDbEntity
8
1
62
256
6
ByLayer
370
18
48
1
60
0
100
AcDbSpline
70
4
71
3
72
12
73
8
40
0
40
0
40
0
40
0
40
0.267591030146139
40
0.267591030146139
40
0.63379551507307
40
0.63379551507307
40
1
40
1
40
1
40
1
41
1
10
104.839018594973
20
-3.74156034517785
30
0
41
1
10
104.837321851437
20
-3.74478391925939
30
0
41
1
10
104.836380958936
20
-3.74887333880972
30
0
41
1
10
104.835893178801
20
-3.76062313130808
30
0
41
1
10
104.836995411901
20
-3.76912780156476
30
0
41
1
10
104.841628257732
20
-3.78956656521098
30
0
41
1
10
104.845147265583
20
-3.80150187046834
30
0
41
1
10
104.84963666383
20
-3.815366074839
30
0
0
SPLINE
5
1BB
100
AcDbEntity
8
1
62
256
6
ByLayer
370
18
48
1
60
0
100
AcDbSpline
70
4
71
3
72
8
73
4
40
0
40
0
40
0
40
0
40
1
40
1
40
1
40
1
41
1
10
110.640712490395
20
3.35089363351656
30
0
41
1
10
110.636295347475
20
3.34879471480491
30
0
41
1
10
110.631896289847
20
3.34671185795446
30
0
41
1
10
110.627515097159
20
3.34464486726802
30
0
0
SPLINE
5
1BC
100
AcDbEntity
8
1
62
256
6
ByLayer
370
18
48
1
60
0
100
AcDbSpline
70
4
71
3
72
8
73
4
40
0
40
0
40
0
40
0
40
1
40
1
40
1
40
1
41
1
10
100.852869963124
20
1.87943285194498
30
0
41
1
10
100.885552426219
20
1.90835787357969
30
0
41
1
10
100.919226137178
20
1.93639140195731
30
0
41
1
10
100.953810384546
20
1.96361678795188
30
0
0
SPLINE
5
1BD
100
AcDbEntity
8
1
62
256
6
ByLayer
370
18
48
1
60
0
100
AcDbSpline
70
4
71
3
72
34
73
30
40
0
40
0
40
0
40
0
40
0.0624999999999752
40
0.0624999999999752
40
0.0937499999999699
40
0.0937499999999699
40
0.124999999999965
40
0.124999999999965
40
0.18749999999997
40
0.18749999999997
40
0.218749999999972
40
0.218749999999972
40
0.249999999999975
40
0.249999999999975
40
0.312499999999979
40
0.312499999999979
40
0.374999999999984
40
0.374999999999984
40
0.437499999999988
40
0.437499999999988
40
0.499999999999993
40
0.499999999999993
40
0.625000000000002
40
0.625000000000002
40
0.687500000000007
40
0.687500000000007
40
0.750000000000011
40
0.750000000000011
40
1
40
1
40
1
40
1
41
1
10
108.781690522341
20
-4.78170897863561
30
0
41
1
10
108.800431780728
20
-4.81477143361798
30
0
41
1
10
108.821302912909
20
-4.84616210090783
30
0
41
1
10
108.855811802227
20
-4.89073307098508
30
0
41
1
10
108.867850865788
20
-4.9051690244047
30
0
41
1
10
108.893033360529
20
-4.93317360262191
30
0
41
1
10
108.906154029418
20
-4.94670103825274
30
0
41
1
10
108.946176478812
20
-4.98500172042043
30
0
41
1
10
108.97404400336
20
-5.00786330591052
30
0
41
1
10
109.017515093708
20
-5.03843467823302
30
0
41
1
10
109.032349935948
20
-5.04803569240528
30
0
41
1
10
109.062053452939
20
-5.0657121201186
30
0
41
1
10
109.076963806464
20
-5.07382392866822
30
0
41
1
10
109.121867002785
20
-5.09614955119159
30
0
41
1
10
109.152140485402
20
-5.10839834603695
30
0
41
1
10
109.212680903797
20
-5.12797338674869
30
0
41
1
10
109.242499147735
20
-5.13517811395221
30
0
41
1
10
109.301448694574
20
-5.14529597306091
30
0
41
1
10
109.330578492324
20
-5.14820192159979
30
0
41
1
10
109.388292255358
20
-5.15023100998366
30
0
41
1
10
109.41699545931
20
-5.14932807712827
30
0
41
1
10
109.500860809621
20
-5.14163460957943
30
0
41
1
10
109.55425807735
20
-5.13000481691572
30
0
41
1
10
109.63169593036
20
-5.10496235036871
30
0
41
1
10
109.657056759869
20
-5.09533007632515
30
0
41
1
10
109.706984442516
20
-5.07369517068389
30
0
41
1
10
109.731608298067
20
-5.06165631543135
30
0
41
1
10
109.851746029888
20
-4.99656249908051
30
0
41
1
10
109.939345581247
20
-4.92899349703504
30
0
41
1
10
110.020845884401
20
-4.84913787977547
30
0
0
SPLINE
5
1BE
100
AcDbEntity
8
1
62
256
6
ByLayer
370
13
48
1
60
0
100
AcDbSpline
70
4
71
3
72
22
73
18
40
0
40
0
40
0
40
0
40
0.250000000000011
40
0.250000000000011
40
0.500000000000022
40
0.500000000000022
40
0.562500000000019
40
0.562500000000019
40
0.625000000000016
40
0.625000000000016
40
0.687500000000014
40
0.687500000000014
40
0.750000000000011
40
0.750000000000011
40
0.875000000000005
40
0.875000000000005
40
1
40
1
40
1
40
1
41
1
10
107.447774178393
20
-0.992938173812064
30
0
41
1
10
107.482803568683
20
-0.951150528065796
30
0
41
1
10
107.514491838196
20
-0.90705439166868
30
0
41
1
10
107.566254156563
20
-0.811064058790208
30
0
41
1
10
107.586571453349
20
-0.758358946005643
30
0
41
1
10
107.595712640126
20
-0.688633303363588
30
0
41
1
10
107.59672105049
20
-0.674379777619976
30
0
41
1
10
107.596827591727
20
-0.646029868668165
30
0
41
1
10
107.59594226494
20
-0.631871046563447
30
0
41
1
10
107.592145301196
20
-0.603590336383149
30
0
41
1
10
107.589197987255
20
-0.589355647285004
30
0
41
1
10
107.581278083585
20
-0.561531176073743
30
0
41
1
10
107.57634024926
20
-0.547989431067975
30
0
41
1
10
107.558740814794
20
-0.508420755175393
30
0
41
1
10
107.543059773092
20
-0.483216143546571
30
0
41
1
10
107.506540818511
20
-0.437305624606921
30
0
41
1
10
107.485595851012
20
-0.416315129356775
30
0
41
1
10
107.463049734942
20
-0.397280203675422
30
0
0
SPLINE
5
1BF
100
AcDbEntity
8
1
62
256
6
ByLayer
370
13
48
1
60
0
100
AcDbSpline
70
4
71
1
72
4
73
2
40
0
40
0
40
1
40
1
41
1
10
111.913583037784
20
-2.07381405133907
30
0
41
1
10
114.359146993631
20
0.0001750081150931
30
0
0
SPLINE
5
1C0
100
AcDbEntity
8
1
62
256
6
ByLayer
370
18
48
1
60
0
100
AcDbSpline
70
4
71
3
72
24
73
20
40
0
40
0
40
0
40
0
40
0.125000000000007
40
0.125000000000007
40
0.187500000000011
40
0.187500000000011
40
0.250000000000014
40
0.250000000000014
40
0.375000000000012
40
0.375000000000012
40
0.50000000000001
40
0.50000000000001
40
0.625000000000007
40
0.625000000000007
40
0.750000000000005
40
0.750000000000005
40
0.875000000000002
40
0.875000000000002
40
1
40
1
40
1
40
1
41
1
10
104.84963666383
20
-3.815366074839
30
0
41
1
10
104.855926961969
20
-3.83479183618422
30
0
41
1
10
104.864738260683
20
-3.85721366031311
30
0
41
1
10
104.881882538438
20
-3.89533104285334
30
0
41
1
10
104.888288724103
20
-3.90885393510428
30
0
41
1
10
104.902296239259
20
-3.93707212961314
30
0
41
1
10
104.909883991902
20
-3.95174691753596
30
0
41
1
10
104.934381547315
20
-3.99740536995182
30
0
41
1
10
104.953014508019
20
-4.03001282133036
30
0
41
1
10
104.995060622848
20
-4.09949125372356
30
0
41
1
10
105.018641705317
20
-4.13658821835713
30
0
41
1
10
105.069148104808
20
-4.21242731267742
30
0
41
1
10
105.096227015293
20
-4.25144335493795
30
0
41
1
10
105.154141461496
20
-4.33159297083279
30
0
41
1
10
105.185253832616
20
-4.37306628765577
30
0
41
1
10
105.249351544878
20
-4.45541461616514
30
0
41
1
10
105.282482615707
20
-4.49651638439474
30
0
41
1
10
105.350913993746
20
-4.57856034348401
30
0
41
1
10
105.386415708303
20
-4.61972305478133
30
0
41
1
10
105.422420814625
20
-4.66009650394071
30
0
0
SPLINE
5
1C1
100
AcDbEntity
8
1
62
256
6
ByLayer
370
18
48
1
60
0
100
AcDbSpline
70
4
71
3
72
12
73
8
40
0
40
0
40
0
40
0
40
0.5
40
0.5
40
0.75
40
0.75
40
1
40
1
40
1
40
1
41
1
10
103.406029268182
20
-3.40943314626841
30
0
41
1
10
103.327467094238
20
-3.40145823610158
30
0
41
1
10
103.246626241139
20
-3.39230806925002
30
0
41
1
10
103.122524324406
20
-3.3771177256026
30
0
41
1
10
103.080667835113
20
-3.37180126068688
30
0
41
1
10
102.997999385472
20
-3.36094481654544
30
0
41
1
10
102.956929321687
20
-3.35537377686953
30
0
41
1
10
102.916110799053
20
-3.34966674247784
30
0
0
SPLINE
5
1C2
100
AcDbEntity
8
1
62
256
6
ByLayer
370
13
48
1
60
0
100
AcDbSpline
70
4
71
3
72
8
73
4
40
0
40
0
40
0
40
0
40
1
40
1
40
1
40
1
41
1
10
111.913583037784
20
-2.07381405133907
30
0
41
1
10
111.892203785963
20
-2.09194497540216
30
0
41
1
10
111.870912354265
20
-2.11007597702886
30
0
41
1
10
111.84972780156
20
-2.12819082638339
30
0
0
SPLINE
5
1C3
100
AcDbEntity
8
1
62
256
6
ByLayer
370
13
48
1
60
0
100
AcDbSpline
70
4
71
3
72
22
73
18
40
0
40
0
40
0
40
0
40
0.124999999999996
40
0.124999999999996
40
0.249999999999991
40
0.249999999999991
40
0.312499999999995
40
0.312499999999995
40
0.374999999999999
40
0.374999999999999
40
0.499999999999999
40
0.499999999999999
40
0.624999999999999
40
0.624999999999999
40
0.75
40
0.75
40
1
40
1
40
1
40
1
41
1
10
107.871578819011
20
-0.0949829337702113
30
0
41
1
10
107.90205215448
20
-0.136872990774776
30
0
41
1
10
107.93026155679
20
-0.180645434493613
30
0
41
1
10
107.980646019366
20
-0.270241185649979
30
0
41
1
10
108.002934858194
20
-0.316178590273722
30
0
41
1
10
108.031852369718
20
-0.386850841676221
30
0
41
1
10
108.040737703072
20
-0.410703057779443
30
0
41
1
10
108.056957987658
20
-0.459012349506963
30
0
41
1
10
108.064322356949
20
-0.483588772844058
30
0
41
1
10
108.083760541584
20
-0.557270258901411
30
0
41
1
10
108.093189022987
20
-0.60617529110155
30
0
41
1
10
108.105562008871
20
-0.70354137062489
30
0
41
1
10
108.108504428809
20
-0.752002324003001
30
0
41
1
10
108.108280568807
20
-0.848452119884712
30
0
41
1
10
108.105047419457
20
-0.896666254244138
30
0
41
1
10
108.087264339978
20
-1.03648391511848
30
0
41
1
10
108.064847639882
20
-1.12463913394942
30
0
41
1
10
108.034337886695
20
-1.20859798702924
30
0
0
SPLINE
5
1C4
100
AcDbEntity
8
1
62
256
6
ByLayer
370
18
48
1
60
0
100
AcDbSpline
70
4
71
3
72
22
73
18
40
0
40
0
40
0
40
0
40
0.125
40
0.125
40
0.25
40
0.25
40
0.375
40
0.375
40
0.5
40
0.5
40
0.625
40
0.625
40
0.75
40
0.75
40
0.875
40
0.875
40
1
40
1
40
1
40
1
41
1
10
112.867046113487
20
-0.229424869568504
30
0
41
1
10
112.883355664775
20
-0.215319068439527
30
0
41
1
10
112.897867206387
20
-0.199644740675893
30
0
41
1
10
112.923423116447
20
-0.165273641477569
30
0
41
1
10
112.934540252159
20
-0.146336758681315
30
0
41
1
10
112.952233554345
20
-0.106967527620725
30
0
41
1
10
112.958946277864
20
-0.0864369748785236
30
0
41
1
10
112.967980792597
20
-0.0436403120873763
30
0
41
1
10
112.970169628444
20
-0.0218411144614095
30
0
41
1
10
112.969918780411
20
0.0216038077917062
30
0
41
1
10
112.967432958801
20
0.0436671194051712
30
0
41
1
10
112.957912185884
20
0.0863023703309977
30
0
41
1
10
112.95095037348
20
0.106901219140724
30
0
41
1
10
112.932571079091
20
0.146644619019696
30
0
41
1
10
112.921207530239
20
0.165538438999704
30
0
41
1
10
112.895032820763
20
0.200071473535957
30
0
41
1
10
112.880007572894
20
0.216023781235577
30
0
41
1
10
112.863337642461
20
0.230205171188146
30
0
0
SPLINE
5
1C5
100
AcDbEntity
8
1
62
256
6
ByLayer
370
13
48
1
60
0
100
AcDbSpline
70
4
71
3
72
8
73
4
40
0
40
0
40
0
40
0
40
1
40
1
40
1
40
1
41
1
10
107.835416852803
20
-0.061563347973248
30
0
41
1
10
107.847413931746
20
-0.072629225534655
30
0
41
1
10
107.859460264349
20
-0.0837769209888961
30
0
41
1
10
107.871578819011
20
-0.0949829337702113
30
0
0
SPLINE
5
1C6
100
AcDbEntity
8
1
62
256
6
ByLayer
370
18
48
1
60
0
100
AcDbSpline
70
4
71
3
72
12
73
8
40
0
40
0
40
0
40
0
40
0.5
40
0.5
40
0.75
40
0.75
40
1
40
1
40
1
40
1
41
1
10
104.411979124081
20
-3.51154793421858
30
0
41
1
10
104.490541298024
20
-3.51952284438545
30
0
41
1
10
104.563891701327
20
-3.53707806140022
30
0
41
1
10
104.667420231461
20
-3.57535384732381
30
0
41
1
10
104.700805215676
20
-3.59017620668828
30
0
41
1
10
104.763915630382
20
-3.62297876477425
30
0
41
1
10
104.793860597715
20
-3.64103329960744
30
0
41
1
10
104.822272251745
20
-3.6606621085011
30
0
0
SPLINE
5
1C7
100
AcDbEntity
8
1
62
256
6
ByLayer
370
18
48
1
60
0
100
AcDbSpline
70
4
71
3
72
8
73
4
40
0
40
0
40
0
40
0
40
1
40
1
40
1
40
1
41
1
10
102.830978505561
20
-3.28211266371739
30
0
41
1
10
102.908330743351
20
-3.21319466240959
30
0
41
1
10
102.986216531151
20
-3.14403045882969
30
0
41
1
10
103.064583017589
20
-3.0746444408108
30
0
0
SPLINE
5
1C8
100
AcDbEntity
8
1
62
256
6
ByLayer
370
18
48
1
60
0
100
AcDbSpline
70
4
71
3
72
8
73
4
40
0
40
0
40
0
40
0
40
1
40
1
40
1
40
1
41
1
10
110.712327639303
20
3.27575392101358
30
0
41
1
10
110.687005426853
20
3.29894489112056
30
0
41
1
10
110.663124193678
20
3.32397928714485
30
0
41
1
10
110.640712490395
20
3.35089363351653
30
0
0
SPLINE
5
1C9
100
AcDbEntity
8
1
62
256
6
ByLayer
370
18
48
1
60
0
100
AcDbSpline
70
4
71
3
72
22
73
18
40
0
40
0
40
0
40
0
40
0.125
40
0.125
40
0.25
40
0.25
40
0.374999999999999
40
0.374999999999999
40
0.5
40
0.5
40
0.625
40
0.625
40
0.75
40
0.75
40
0.875
40
0.875
40
1
40
1
40
1
40
1
41
1
10
102.121778327202
20
-0.326370296198775
30
0
41
1
10
102.105608974824
20
-0.340432199845338
30
0
41
1
10
102.091264472872
20
-0.356054226058006
30
0
41
1
10
102.066090303997
20
-0.390305798814268
30
0
41
1
10
102.055190734715
20
-0.409174559694066
30
0
41
1
10
102.037951664451
20
-0.448401566840659
30
0
41
1
10
102.031476629289
20
-0.468857697318128
30
0
41
1
10
102.022922299717
20
-0.511504010013567
30
0
41
1
10
102.020970427554
20
-0.533229012276024
30
0
41
1
10
102.021660508661
20
-0.576536406883463
30
0
41
1
10
102.024352391987
20
-0.598535198804569
30
0
41
1
10
102.034220078068
20
-0.641061828241419
30
0
41
1
10
102.041323683159
20
-0.661616280543655
30
0
41
1
10
102.059909713953
20
-0.701294949479518
30
0
41
1
10
102.071335984064
20
-0.720169130895215
30
0
41
1
10
102.097546566661
20
-0.754690933249009
30
0
41
1
10
102.112545612166
20
-0.770651445134035
30
0
41
1
10
102.129145199171
20
-0.784854860217365
30
0
0
SPLINE
5
1CA
100
AcDbEntity
8
1
62
256
6
ByLayer
370
18
48
1
60
0
100
AcDbSpline
70
4
71
3
72
8
73
4
40
0
40
0
40
0
40
0
40
1
40
1
40
1
40
1
41
1
10
104.822272251745
20
-3.66066210850116
30
0
41
1
10
104.850809965016
20
-3.68284627770006
30
0
41
1
10
104.877815837729
20
-3.706902322264
30
0
41
1
10
104.903259519001
20
-3.7328673303017
30
0
0
SPLINE
5
1CB
100
AcDbEntity
8
1
62
256
6
ByLayer
370
18
48
1
60
0
100
AcDbSpline
70
4
71
3
72
12
73
8
40
0
40
0
40
0
40
0
40
0.5
40
0.5
40
0.75
40
0.75
40
1
40
1
40
1
40
1
41
1
10
111.956256127005
20
2.52887335364076
30
0
41
1
10
111.898485597942
20
2.47975489375892
30
0
41
1
10
111.847125663538
20
2.42482565887482
30
0
41
1
10
111.779583494558
20
2.3339103179467
30
0
41
1
10
111.758603764388
20
2.30203213677706
30
0
41
1
10
111.720632101764
20
2.23632495349139
30
0
41
1
10
111.703574533823
20
2.2024379509559
30
0
41
1
10
111.688508597855
20
2.1675170545995
30
0
0
SPLINE
5
1CC
100
AcDbEntity
8
1
62
256
6
ByLayer
370
13
48
1
60
0
100
AcDbSpline
70
4
71
1
72
4
73
2
40
0
40
0
40
1
40
1
41
1
10
114.359146993631
20
0.0001750081150931
30
0
41
1
10
114.871642541962
20
-0.434725602285681
30
0
0
LINE
5
72
100
AcDbEntity
8
4
62
256
6
ByLayer
370
18
48
0.05
60
0
100
AcDbLine
10
-38
20
0
30
0
11
115
21
0
31
0
39
0
210
0
220
0
230
1
0
LINE
5
74
100
AcDbEntity
8
81
62
256
6
ByLayer
370
18
48
1
60
0
100
AcDbLine
10
115
20
-0.37
30
0
11
125
21
-0.37
31
0
39
0
210
0
220
0
230
1
0
LINE
5
75
100
AcDbEntity
8
1
62
256
6
ByLayer
370
18
48
1
60
0
100
AcDbLine
10
107.562857
20
-6.938395
30
0
11
109.949146
21
-4.914675
31
0
39
0
210
0
220
0
230
1
0
LINE
5
76
100
AcDbEntity
8
1
62
256
6
ByLayer
370
18
48
1
60
0
100
AcDbLine
10
106.414409
20
-5.801813
30
0
11
106.427462
21
-5.790743
31
0
39
0
210
0
220
0
230
1
0
LINE
5
77
100
AcDbEntity
8
1
62
256
6
ByLayer
370
18
48
1
60
0
100
AcDbLine
10
107.352395
20
6.93242
30
0
11
107.303851
21
6.910075
31
0
39
0
210
0
220
0
230
1
0
LINE
5
78
100
AcDbEntity
8
1
62
256
6
ByLayer
370
18
48
1
60
0
100
AcDbLine
10
100.852643
20
1.879148
30
0
11
99.061285
21
0.288617
31
0
39
0
210
0
220
0
230
1
0
LINE
5
79
100
AcDbEntity
8
1
62
256
6
ByLayer
370
13
48
1
60
0
100
AcDbLine
10
22.616892
20
-31.548493
30
0
11
54.350923
21
-28.898855
31
0
39
0
210
0
220
0
230
1
0
LINE
5
7A
100
AcDbEntity
8
1
62
256
6
ByLayer
370
13
48
1
60
0
100
AcDbLine
10
56.258952
20
28.739544
30
0
11
22.616892
21
31.548493
31
0
39
0
210
0
220
0
230
1
0
LINE
5
7B
100
AcDbEntity
8
1
62
256
6
ByLayer
370
13
48
1
60
0
100
AcDbLine
10
0.3
20
31.5
30
0
11
0
21
31.2
31
0
39
0
210
0
220
0
230
1
0
LINE
5
7C
100
AcDbEntity
8
1
62
256
6
ByLayer
370
13
48
1
60
0
100
AcDbLine
10
0
20
-31.2
30
0
11
0.3
21
-31.5
31
0
39
0
210
0
220
0
230
1
0
LINE
5
7D
100
AcDbEntity
8
1
62
256
6
ByLayer
370
13
48
1
60
0
100
AcDbLine
10
0.3
20
-31.5
30
0
11
22.279208
21
-31.5
31
0
39
0
210
0
220
0
230
1
0
LINE
5
7E
100
AcDbEntity
8
1
62
256
6
ByLayer
370
13
48
1
60
0
100
AcDbLine
10
22.279208
20
31.5
30
0
11
0.3
21
31.5
31
0
39
0
210
0
220
0
230
1
0
LINE
5
7F
100
AcDbEntity
8
1
62
256
6
ByLayer
370
13
48
1
60
0
100
AcDbLine
10
96.327267
20
-3.353193
30
0
11
96.871999
21
-2.572263
31
0
39
0
210
0
220
0
230
1
0
LINE
5
80
100
AcDbEntity
8
1
62
256
6
ByLayer
370
13
48
1
60
0
100
AcDbLine
10
96.271889
20
3.935801
30
0
11
95.435195
21
4.439279
31
0
39
0
210
0
220
0
230
1
0
LINE
5
81
100
AcDbEntity
8
1
62
256
6
ByLayer
370
13
48
1
60
0
100
AcDbLine
10
102.015006
20
2.551525
30
0
11
102.82312
21
2.560136
31
0
39
0
210
0
220
0
230
1
0
LINE
5
82
100
AcDbEntity
8
1
62
256
6
ByLayer
370
13
48
1
60
0
100
AcDbLine
10
106.405927
20
7.759151
30
0
11
106.152066
21
8.013885
31
0
39
0
210
0
220
0
230
1
0
LINE
5
83
100
AcDbEntity
8
1
62
256
6
ByLayer
370
13
48
1
60
0
100
AcDbLine
10
106.090479
20
8.071688
30
0
11
94.670054
21
18.096507
31
0
39
0
210
0
220
0
230
1
0
LINE
5
84
100
AcDbEntity
8
80
62
256
6
ByLayer
370
18
48
1
60
0
100
AcDbLine
10
0
20
0
30
0
11
-6.6
21
0
31
0
39
0
210
0
220
0
230
1
0
LINE
5
85
100
AcDbEntity
8
1
62
256
6
ByLayer
370
13
48
1
60
0
100
AcDbLine
10
106.056236
20
8.100678
30
0
11
106.255415
21
7.900816
31
0
39
0
210
0
220
0
230
1
0
LINE
5
86
100
AcDbEntity
8
1
62
256
6
ByLayer
370
13
48
1
60
0
100
AcDbLine
10
106.240255
20
5.022896
30
0
11
107.866107
21
6.401719
31
0
39
0
210
0
220
0
230
1
0
LINE
5
87
100
AcDbEntity
8
1
62
256
6
ByLayer
370
13
48
1
60
0
100
AcDbLine
10
99.841096
20
2.477282
30
0
11
99.7822
21
2.631962
31
0
39
0
210
0
220
0
230
1
0
LINE
5
88
100
AcDbEntity
8
1
62
256
6
ByLayer
370
13
48
1
60
0
100
AcDbLine
10
13.461325
20
9.349221
30
0
11
13.461325
21
30.080593
31
0
39
0
210
0
220
0
230
1
0
LINE
5
89
100
AcDbEntity
8
1
62
256
6
ByLayer
370
13
48
1
60
0
100
AcDbLine
10
22.279208
20
31.5
30
0
11
22.279208
21
-31.5
31
0
39
0
210
0
220
0
230
1
0
LINE
5
8A
100
AcDbEntity
8
1
62
256
6
ByLayer
370
13
48
1
60
0
100
AcDbLine
10
102.177868
20
11.499911
30
0
11
102.125203
21
11.457458
31
0
39
0
210
0
220
0
230
1
0
LINE
5
8B
100
AcDbEntity
8
1
62
256
6
ByLayer
370
13
48
1
60
0
100
AcDbLine
10
106.928696
20
-7.58983
30
0
11
94.160005
21
-18.418468
31
0
39
0
210
0
220
0
230
1
0
LINE
5
8C
100
AcDbEntity
8
1
62
256
6
ByLayer
370
13
48
1
60
0
100
AcDbLine
10
104.392717
20
-4.235611
30
0
11
106.054821
21
-5.823347
31
0
39
0
210
0
220
0
230
1
0
LINE
5
8D
100
AcDbEntity
8
1
62
256
6
ByLayer
370
13
48
1
60
0
100
AcDbLine
10
56.258952
20
28.739544
30
0
11
92.389935
21
20.027707
31
0
39
0
210
0
220
0
230
1
0
LINE
5
8E
100
AcDbEntity
8
1
62
256
6
ByLayer
370
13
48
1
60
0
100
AcDbLine
10
10.538675
20
30.080593
30
0
11
13.461325
21
30.080593
31
0
39
0
210
0
220
0
230
1
0
LINE
5
8F
100
AcDbEntity
8
1
62
256
6
ByLayer
370
13
48
1
60
0
100
AcDbLine
10
22.616892
20
-31.548493
30
0
11
22.616892
21
31.548493
31
0
39
0
210
0
220
0
230
1
0
LINE
5
90
100
AcDbEntity
8
1
62
256
6
ByLayer
370
13
48
1
60
0
100
AcDbLine
10
100.225643
20
1.634021
30
0
11
99.028272
21
0.582552
31
0
39
0
210
0
220
0
230
1
0
LINE
5
91
100
AcDbEntity
8
1
62
256
6
ByLayer
370
13
48
1
60
0
100
AcDbLine
10
106.056236
20
8.100678
30
0
11
94.529627
21
18.218706
31
0
39
0
210
0
220
0
230
1
0
LINE
5
92
100
AcDbEntity
8
1
62
256
6
ByLayer
370
13
48
1
60
0
100
AcDbLine
10
95.164016
20
-4.318948
30
0
11
96.081391
21
-3.223719
31
0
39
0
210
0
220
0
230
1
0
LINE
5
93
100
AcDbEntity
8
1
62
256
6
ByLayer
370
13
48
1
60
0
100
AcDbLine
10
107.742062
20
6.519528
30
0
11
107.696032
21
6.565716
31
0
39
0
210
0
220
0
230
1
0
LINE
5
94
100
AcDbEntity
8
1
62
256
6
ByLayer
370
13
48
1
60
0
100
AcDbLine
10
13.461325
20
9.349221
30
0
11
10.538675
21
9.349221
31
0
39
0
210
0
220
0
230
1
0
LINE
5
95
100
AcDbEntity
8
1
62
256
6
ByLayer
370
13
48
1
60
0
100
AcDbLine
10
96.06883
20
4.041658
30
0
11
95.131832
21
4.597877
31
0
39
0
210
0
220
0
230
1
0
LINE
5
96
100
AcDbEntity
8
1
62
256
6
ByLayer
370
13
48
1
60
0
100
AcDbLine
10
106.457746
20
-5.870311
30
0
11
106.250459
21
-6.098902
31
0
39
0
210
0
220
0
230
1
0
LINE
5
97
100
AcDbEntity
8
1
62
256
6
ByLayer
370
13
48
1
60
0
100
AcDbLine
10
107.849814
20
6.418067
30
0
11
107.866107
21
6.401719
31
0
39
0
210
0
220
0
230
1
0
LINE
5
98
100
AcDbEntity
8
1
62
256
6
ByLayer
370
13
48
1
60
0
100
AcDbLine
10
99.464029
20
2.24954
30
0
11
99.519721
21
2.103272
31
0
39
0
210
0
220
0
230
1
0
LINE
5
99
100
AcDbEntity
8
1
62
256
6
ByLayer
370
13
48
1
60
0
100
AcDbLine
10
106.250459
20
-6.098902
30
0
11
106.928696
21
-7.58983
31
0
39
0
210
0
220
0
230
1
0
LINE
5
9A
100
AcDbEntity
8
1
62
256
6
ByLayer
370
13
48
1
60
0
100
AcDbLine
10
96.421672
20
-4.581939
30
0
11
96.421493
21
-4.581977
31
0
39
0
210
0
220
0
230
1
0
LINE
5
9B
100
AcDbEntity
8
1
62
256
6
ByLayer
370
13
48
1
60
0
100
AcDbLine
10
106.083463
20
4.950724
30
0
11
106.240255
21
5.022896
31
0
39
0
210
0
220
0
230
1
0
LINE
5
9C
100
AcDbEntity
8
1
62
256
6
ByLayer
370
13
48
1
60
0
100
AcDbLine
10
100.860117
20
2.71239
30
0
11
99.814877
21
1.869833
31
0
39
0
210
0
220
0
230
1
0
LINE
5
9D
100
AcDbEntity
8
1
62
256
6
ByLayer
370
13
48
1
60
0
100
AcDbLine
10
10.105662
20
9.869413
30
0
11
10.105662
21
29.913955
31
0
39
0
210
0
220
0
230
1
0
LINE
5
9E
100
AcDbEntity
8
1
62
256
6
ByLayer
370
13
48
1
60
0
100
AcDbLine
10
104.482493
20
-3.829386
30
0
11
104.392717
21
-4.235611
31
0
39
0
210
0
220
0
230
1
0
LINE
5
9F
100
AcDbEntity
8
1
62
256
6
ByLayer
370
13
48
1
60
0
100
AcDbLine
10
100.700964
20
-1.732346
30
0
11
99.817081
21
-0.984835
31
0
39
0
210
0
220
0
230
1
0
LINE
5
A0
100
AcDbEntity
8
1
62
256
6
ByLayer
370
13
48
1
60
0
100
AcDbLine
10
107.125475
20
-7.107371
30
0
11
106.928696
21
-7.58983
31
0
39
0
210
0
220
0
230
1
0
LINE
5
A1
100
AcDbEntity
8
1
62
256
6
ByLayer
370
13
48
1
60
0
100
AcDbLine
10
13.894338
20
9.869413
30
0
11
13.894338
21
29.913955
31
0
39
0
210
0
220
0
230
1
0
LINE
5
A2
100
AcDbEntity
8
1
62
256
6
ByLayer
370
13
48
1
60
0
100
AcDbLine
10
103.783169
20
-3.985021
30
0
11
103.529879
21
-3.482586
31
0
39
0
210
0
220
0
230
1
0
LINE
5
A3
100
AcDbEntity
8
1
62
256
6
ByLayer
370
13
48
1
60
0
100
AcDbLine
10
13.894338
20
-29.913955
30
0
11
13.894338
21
-9.869413
31
0
39
0
210
0
220
0
230
1
0
LINE
5
A4
100
AcDbEntity
8
1
62
256
6
ByLayer
370
13
48
1
60
0
100
AcDbLine
10
85.779605
20
-8.02571
30
0
11
72.295271
21
-8.05074
31
0
39
0
210
0
220
0
230
1
0
LINE
5
A5
100
AcDbEntity
8
1
62
256
6
ByLayer
370
13
48
1
60
0
100
AcDbLine
10
99.817081
20
-0.984835
30
0
11
99.765599
21
-1.305804
31
0
39
0
210
0
220
0
230
1
0
LINE
5
A6
100
AcDbEntity
8
1
62
256
6
ByLayer
370
13
48
1
60
0
100
AcDbLine
10
54.350923
20
-28.898855
30
0
11
91.969375
21
-19.478644
31
0
39
0
210
0
220
0
230
1
0
LINE
5
A7
100
AcDbEntity
8
1
62
256
6
ByLayer
370
13
48
1
60
0
100
AcDbLine
10
100.541122
20
2.825622
30
0
11
101.620871
21
2.837129
31
0
39
0
210
0
220
0
230
1
0
LINE
5
A8
100
AcDbEntity
8
1
62
256
6
ByLayer
370
13
48
1
60
0
100
AcDbLine
10
13.461325
20
-30.080593
30
0
11
13.461325
21
-9.349221
31
0
39
0
210
0
220
0
230
1
0
LINE
5
A9
100
AcDbEntity
8
1
62
256
6
ByLayer
370
13
48
1
60
0
100
AcDbLine
10
100.3745
20
1.454611
30
0
11
100.225643
21
1.634021
31
0
39
0
210
0
220
0
230
1
0
LINE
5
AA
100
AcDbEntity
8
1
62
256
6
ByLayer
370
13
48
1
60
0
100
AcDbLine
10
106.054821
20
-5.823347
30
0
11
106.136888
21
-5.452005
31
0
39
0
210
0
220
0
230
1
0
LINE
5
AB
100
AcDbEntity
8
1
62
256
6
ByLayer
370
13
48
1
60
0
100
AcDbLine
10
104.696368
20
3.912696
30
0
11
104.715866
21
3.791
31
0
39
0
210
0
220
0
230
1
0
LINE
5
AC
100
AcDbEntity
8
1
62
256
6
ByLayer
370
13
48
1
60
0
100
AcDbLine
10
102.42369
20
11.195232
30
0
11
107.696032
21
6.565716
31
0
39
0
210
0
220
0
230
1
0
LINE
5
AD
100
AcDbEntity
8
1
62
256
6
ByLayer
370
13
48
1
60
0
100
AcDbLine
10
102.164549
20
-3.368819
30
0
11
102.198217
21
-3.15892
31
0
39
0
210
0
220
0
230
1
0
LINE
5
AE
100
AcDbEntity
8
1
62
256
6
ByLayer
370
13
48
1
60
0
100
AcDbLine
10
107.866107
20
6.401719
30
0
11
107.746798
21
6.49965
31
0
39
0
210
0
220
0
230
1
0
LINE
5
AF
100
AcDbEntity
8
1
62
256
6
ByLayer
370
13
48
1
60
0
100
AcDbLine
10
10.105662
20
-29.913955
30
0
11
10.105662
21
-9.869413
31
0
39
0
210
0
220
0
230
1
0
LINE
5
B0
100
AcDbEntity
8
1
62
256
6
ByLayer
370
13
48
1
60
0
100
AcDbLine
10
99.053725
20
1.037882
30
0
11
99.073549
21
1.010808
31
0
39
0
210
0
220
0
230
1
0
LINE
5
B1
100
AcDbEntity
8
1
62
256
6
ByLayer
370
13
48
1
60
0
100
AcDbLine
10
101.263446
20
12.21727
30
0
11
101.31491
21
12.258754
31
0
39
0
210
0
220
0
230
1
0
LINE
5
B2
100
AcDbEntity
8
1
62
256
6
ByLayer
370
13
48
1
60
0
100
AcDbLine
10
107.746798
20
6.49965
30
0
11
92.912264
21
19.524408
31
0
39
0
210
0
220
0
230
1
0
LINE
5
B3
100
AcDbEntity
8
1
62
256
6
ByLayer
370
13
48
1
60
0
100
AcDbLine
10
101.815578
20
2.720642
30
0
11
102.408545
21
3.430115
31
0
39
0
210
0
220
0
230
1
0
LINE
5
B4
100
AcDbEntity
8
1
62
256
6
ByLayer
370
13
48
1
60
0
100
AcDbLine
10
0
20
-31.2
30
0
11
0
21
31.2
31
0
39
0
210
0
220
0
230
1
0
LINE
5
B5
100
AcDbEntity
8
1
62
256
6
ByLayer
370
13
48
1
60
0
100
AcDbLine
10
99.765599
20
-1.305804
30
0
11
102.164549
21
-3.368819
31
0
39
0
210
0
220
0
230
1
0
LINE
5
B6
100
AcDbEntity
8
1
62
256
6
ByLayer
370
13
48
1
60
0
100
AcDbLine
10
13.461325
20
-30.080593
30
0
11
10.538675
21
-30.080593
31
0
39
0
210
0
220
0
230
1
0
LINE
5
B7
100
AcDbEntity
8
1
62
256
6
ByLayer
370
13
48
1
60
0
100
AcDbLine
10
10.538675
20
9.349221
30
0
11
10.538675
21
30.080593
31
0
39
0
210
0
220
0
230
1
0
LINE
5
B8
100
AcDbEntity
8
1
62
256
6
ByLayer
370
13
48
1
60
0
100
AcDbLine
10
106.075937
20
4.944424
30
0
11
104.715866
21
3.791
31
0
39
0
210
0
220
0
230
1
0
LINE
5
B9
100
AcDbEntity
8
1
62
256
6
ByLayer
370
13
48
1
60
0
100
AcDbLine
10
106.255415
20
7.900816
30
0
11
102.177868
21
11.499911
31
0
39
0
210
0
220
0
230
1
0
LINE
5
BA
100
AcDbEntity
8
1
62
256
6
ByLayer
370
13
48
1
60
0
100
AcDbLine
10
10.538675
20
-9.349221
30
0
11
13.461325
21
-9.349221
31
0
39
0
210
0
220
0
230
1
0
LINE
5
BB
100
AcDbEntity
8
1
62
256
6
ByLayer
370
13
48
1
60
0
100
AcDbLine
10
0.3
20
-31.5
30
0
11
0.3
21
31.5
31
0
39
0
210
0
220
0
230
1
0
LINE
5
BC
100
AcDbEntity
8
1
62
256
6
ByLayer
370
13
48
1
60
0
100
AcDbLine
10
107.746798
20
6.49965
30
0
11
104.696368
21
3.912696
31
0
39
0
210
0
220
0
230
1
0
LINE
5
BD
100
AcDbEntity
8
1
62
256
6
ByLayer
370
13
48
1
60
0
100
AcDbLine
10
99.629547
20
13.71347
30
0
11
99.942477
21
13.399466
31
0
39
0
210
0
220
0
230
1
0
LINE
5
BE
100
AcDbEntity
8
1
62
256
6
ByLayer
370
13
48
1
60
0
100
AcDbLine
10
10.538675
20
-30.080593
30
0
11
10.538675
21
-9.349221
31
0
39
0
210
0
220
0
230
1
0
LINE
5
BF
100
AcDbEntity
8
1
62
256
6
ByLayer
370
13
48
1
60
0
100
AcDbLine
10
99.7822
20
2.631962
30
0
11
99.464029
21
2.24954
31
0
39
0
210
0
220
0
230
1
0
LINE
5
C0
100
AcDbEntity
8
SK1
62
256
6
ByLayer
370
13
48
1
60
0
100
AcDbLine
10
-1.315435
20
-4.803123
30
0
11
-1.315435
21
4.803126
31
0
39
0
210
0
220
0
230
1
0
LINE
5
C2
100
AcDbEntity
8
SK1
62
256
6
ByLayer
370
13
48
1
60
0
100
AcDbLine
10
-0.194977
20
-21.870473
30
0
11
-0.194977
21
-21.870442
31
0
39
0
210
0
220
0
230
1
0
LINE
5
C3
100
AcDbEntity
8
SK1
62
256
6
ByLayer
370
13
48
1
60
0
100
AcDbLine
10
-1.79504
20
-21.830278
30
0
11
-1.79504
21
-21.830289
31
0
39
0
210
0
220
0
230
1
0
LINE
5
C4
100
AcDbEntity
8
1
62
256
6
ByLayer
370
13
48
1
60
0
100
AcDbLine
10
111.913583
20
-2.073814
30
0
11
111.431745
21
-1.493081
31
0
39
0
210
0
220
0
230
1
0
LINE
5
C5
100
AcDbEntity
8
1
62
256
6
ByLayer
370
18
48
1
60
0
100
AcDbLine
10
105.466873
20
-4.622399
30
0
11
106.243769
21
-5.52207
31
0
39
0
210
0
220
0
230
1
0
LINE
5
C6
100
AcDbEntity
8
1
62
256
6
ByLayer
370
13
48
1
60
0
100
AcDbLine
10
112.358552
20
-2.610111
30
0
11
111.913583
21
-2.073814
31
0
39
0
210
0
220
0
230
1
0
LINE
5
C7
100
AcDbEntity
8
1
62
256
6
ByLayer
370
13
48
1
60
0
100
AcDbLine
10
103.064583
20
-3.074644
30
0
11
103.060082
21
-3.076716
31
0
39
0
210
0
220
0
230
1
0
LINE
5
C8
100
AcDbEntity
8
1
62
256
6
ByLayer
370
18
48
1
60
0
100
AcDbLine
10
112.295308
20
2.665449
30
0
11
114.719647
21
0.608169
31
0
39
0
210
0
220
0
230
1
0
LINE
5
C9
100
AcDbEntity
8
1
62
256
6
ByLayer
370
13
48
1
60
0
100
AcDbLine
10
100.342246
20
-1.141086
30
0
11
100.121813
21
-1.242552
31
0
39
0
210
0
220
0
230
1
0
LINE
5
CA
100
AcDbEntity
8
1
62
256
6
ByLayer
370
18
48
1
60
0
100
AcDbLine
10
103.406029
20
-3.409433
30
0
11
104.411979
21
-3.511548
31
0
39
0
210
0
220
0
230
1
0
LINE
5
CB
100
AcDbEntity
8
1
62
256
6
ByLayer
370
18
48
1
60
0
100
AcDbLine
10
112.205276
20
2.741849
30
0
11
112.295308
21
2.665449
31
0
39
0
210
0
220
0
230
1
0
LINE
5
CC
100
AcDbEntity
8
1
62
256
6
ByLayer
370
18
48
1
60
0
100
AcDbLine
10
104.453701
20
1.696246
30
0
11
105.784577
21
2.731131
31
0
39
0
210
0
220
0
230
1
0
LINE
5
CD
100
AcDbEntity
8
1
62
256
6
ByLayer
370
18
48
1
60
0
100
AcDbLine
10
104.831072
20
3.880339
30
0
11
105.784577
21
2.731131
31
0
39
0
210
0
220
0
230
1
0
LINE
5
CE
100
AcDbEntity
8
1
62
256
6
ByLayer
370
13
48
1
60
0
100
AcDbLine
10
110.560905
20
-2.28437
30
0
11
111.487801
21
-3.401508
31
0
39
0
210
0
220
0
230
1
0
LINE
5
CF
100
AcDbEntity
8
1
62
256
6
ByLayer
370
18
48
1
60
0
100
AcDbLine
10
110.630317
20
3.341663
30
0
11
108.733529
21
5.928967
31
0
39
0
210
0
220
0
230
1
0
LINE
5
D0
100
AcDbEntity
8
1
62
256
6
ByLayer
370
18
48
1
60
0
100
AcDbLine
10
107.015694
20
-2.489246
30
0
11
104.822272
21
-3.660662
31
0
39
0
210
0
220
0
230
1
0
LINE
5
D1
100
AcDbEntity
8
1
62
256
6
ByLayer
370
13
48
1
60
0
100
AcDbLine
10
100.95381
20
1.963617
30
0
11
99.062222
21
0.284092
31
0
39
0
210
0
220
0
230
1
0
LINE
5
D2
100
AcDbEntity
8
1
62
256
6
ByLayer
370
18
48
1
60
0
100
AcDbLine
10
110.587607
20
-4.301543
30
0
11
109.634102
21
-3.152335
31
0
39
0
210
0
220
0
230
1
0
LINE
5
D3
100
AcDbEntity
8
1
62
256
6
ByLayer
370
18
48
1
60
0
100
AcDbLine
10
99.095396
20
0.126492
30
0
11
99.635539
21
0.375121
31
0
39
0
210
0
220
0
230
1
0
LINE
5
D4
100
AcDbEntity
8
1
62
256
6
ByLayer
370
13
48
1
60
0
100
AcDbLine
10
102.121778
20
-0.32637
30
0
11
102.100704
21
-0.336071
31
0
39
0
210
0
220
0
230
1
0
LINE
5
D5
100
AcDbEntity
8
1
62
256
6
ByLayer
370
18
48
1
60
0
100
AcDbLine
10
111.487801
20
-3.401508
30
0
11
110.587607
21
-4.301543
31
0
39
0
210
0
220
0
230
1
0
LINE
5
D6
100
AcDbEntity
8
1
62
256
6
ByLayer
370
13
48
1
60
0
100
AcDbLine
10
105.466873
20
-4.622399
30
0
11
105.422421
21
-4.660097
31
0
39
0
210
0
220
0
230
1
0
LINE
5
D7
100
AcDbEntity
8
1
62
256
6
ByLayer
370
18
48
1
60
0
100
AcDbLine
10
107.55403
20
-6.94115
30
0
11
107.095764
21
-6.94074
31
0
39
0
210
0
220
0
230
1
0
LINE
5
D8
100
AcDbEntity
8
1
62
256
6
ByLayer
370
13
48
1
60
0
100
AcDbLine
10
105.600177
20
4.49129
30
0
11
106.154417
21
4.983394
31
0
39
0
210
0
220
0
230
1
0
LINE
5
D9
100
AcDbEntity
8
1
62
256
6
ByLayer
370
13
48
1
60
0
100
AcDbLine
10
107.810822
20
6.454101
30
0
11
107.896056
21
6.529779
31
0
39
0
210
0
220
0
230
1
0
LINE
5
DA
100
AcDbEntity
8
1
62
256
6
ByLayer
370
18
48
1
60
0
100
AcDbLine
10
107.896056
20
6.529779
30
0
11
107.784685
21
6.478515
31
0
39
0
210
0
220
0
230
1
0
LINE
5
DB
100
AcDbEntity
8
1
62
256
6
ByLayer
370
13
48
1
60
0
100
AcDbLine
10
99.716274
20
0.277816
30
0
11
99.635539
21
0.375121
31
0
39
0
210
0
220
0
230
1
0
LINE
5
DC
100
AcDbEntity
8
1
62
256
6
ByLayer
370
18
48
1
60
0
100
AcDbLine
10
103.4522
20
0.86391
30
0
11
102.100704
21
-0.336071
31
0
39
0
210
0
220
0
230
1
0
LINE
5
DD
100
AcDbEntity
8
1
62
256
6
ByLayer
370
18
48
1
60
0
100
AcDbLine
10
110.640712
20
3.350894
30
0
11
110.630317
21
3.341663
31
0
39
0
210
0
220
0
230
1
0
LINE
5
DE
100
AcDbEntity
8
1
62
256
6
ByLayer
370
18
48
1
60
0
100
AcDbLine
10
100.301397
20
0.062157
30
0
11
102.498695
21
2.013118
31
0
39
0
210
0
220
0
230
1
0
LINE
5
DF
100
AcDbEntity
8
1
62
256
6
ByLayer
370
18
48
1
60
0
100
AcDbLine
10
102.62334
20
-3.352787
30
0
11
102.916111
21
-3.349667
31
0
39
0
210
0
220
0
230
1
0
LINE
5
E0
100
AcDbEntity
8
1
62
256
6
ByLayer
370
18
48
1
60
0
100
AcDbLine
10
104.914429
20
-3.723395
30
0
11
107.076836
21
-6.227531
31
0
39
0
210
0
220
0
230
1
0
LINE
5
E1
100
AcDbEntity
8
1
62
256
6
ByLayer
370
18
48
1
60
0
100
AcDbLine
10
103.008618
20
-1.56082
30
0
11
102.116143
21
-0.79084
31
0
39
0
210
0
220
0
230
1
0
LINE
5
E2
100
AcDbEntity
8
1
62
256
6
ByLayer
370
13
48
1
60
0
100
AcDbLine
10
102.129145
20
-0.784855
30
0
11
102.116143
21
-0.79084
31
0
39
0
210
0
220
0
230
1
0
LINE
5
E3
100
AcDbEntity
8
1
62
256
6
ByLayer
370
13
48
1
60
0
100
AcDbLine
10
106.995333
20
-6.819696
30
0
11
107.095764
21
-6.94074
31
0
39
0
210
0
220
0
230
1
0
LINE
5
E4
100
AcDbEntity
8
1
62
256
6
ByLayer
370
13
48
1
60
0
100
AcDbLine
10
104.453701
20
1.696246
30
0
11
103.500197
21
2.845454
31
0
39
0
210
0
220
0
230
1
0
LINE
5
E5
100
AcDbEntity
8
1
62
256
6
ByLayer
370
18
48
1
60
0
100
AcDbLine
10
104.90326
20
-3.732867
30
0
11
104.914429
21
-3.723395
31
0
39
0
210
0
220
0
230
1
0
LINE
5
E6
100
AcDbEntity
8
1
62
256
6
ByLayer
370
18
48
1
60
0
100
AcDbLine
10
99.722894
20
0.287467
30
0
11
99.390697
21
-0.195366
31
0
39
0
210
0
220
0
230
1
0
LINE
5
E7
100
AcDbEntity
8
1
62
256
6
ByLayer
370
18
48
1
60
0
100
AcDbLine
10
102.826353
20
-3.284242
30
0
11
103.060082
21
-3.076716
31
0
39
0
210
0
220
0
230
1
0
LINE
5
E8
100
AcDbEntity
8
1
62
256
6
ByLayer
370
18
48
1
60
0
100
AcDbLine
10
102.830979
20
-3.282113
30
0
11
102.826353
21
-3.284242
31
0
39
0
210
0
220
0
230
1
0
LINE
5
E9
100
AcDbEntity
8
1
62
256
6
ByLayer
370
18
48
1
60
0
100
AcDbLine
10
110.97781
20
3.081298
30
0
11
111.709528
21
2.893319
31
0
39
0
210
0
220
0
230
1
0
LINE
5
EA
100
AcDbEntity
8
1
62
256
6
ByLayer
370
13
48
1
60
0
100
AcDbLine
10
103.4522
20
0.86391
30
0
11
102.498695
21
2.013118
31
0
39
0
210
0
220
0
230
1
0
LINE
5
EB
100
AcDbEntity
8
1
62
256
6
ByLayer
370
13
48
1
60
0
100
AcDbLine
10
103.008618
20
-1.56082
30
0
11
103.027025
21
-1.552347
31
0
39
0
210
0
220
0
230
1
0
LINE
5
EC
100
AcDbEntity
8
1
62
256
6
ByLayer
370
18
48
1
60
0
100
AcDbLine
10
114.719447
20
-0.607926
30
0
11
112.358552
21
-2.610111
31
0
39
0
210
0
220
0
230
1
0
LINE
5
ED
100
AcDbEntity
8
1
62
256
6
ByLayer
370
18
48
1
60
0
100
AcDbLine
10
102.826353
20
-3.284242
30
0
11
100.342246
21
-1.141086
31
0
39
0
210
0
220
0
230
1
0
LINE
5
EE
100
AcDbEntity
8
1
62
256
6
ByLayer
370
18
48
1
60
0
100
AcDbLine
10
108.68928
20
2.157684
30
0
11
110.712328
21
3.275754
31
0
39
0
210
0
220
0
230
1
0
LINE
5
EF
100
AcDbEntity
8
1
62
256
6
ByLayer
370
13
48
1
60
0
100
AcDbLine
10
99.313064
20
-0.392775
30
0
11
100.301397
21
0.062157
31
0
39
0
210
0
220
0
230
1
0
LINE
5
F0
100
AcDbEntity
8
1
62
256
6
ByLayer
370
18
48
1
60
0
100
AcDbLine
10
103.500197
20
2.845454
30
0
11
104.135711
21
3.339628
31
0
39
0
210
0
220
0
230
1
0
LINE
5
F1
100
AcDbEntity
8
1
62
256
6
ByLayer
370
18
48
1
60
0
100
AcDbLine
10
104.711897
20
3.787668
30
0
11
104.831072
21
3.880339
31
0
39
0
210
0
220
0
230
1
0
LINE
5
F2
100
AcDbEntity
8
1
62
256
6
ByLayer
370
13
48
1
60
0
100
AcDbLine
10
106.212369
20
-5.548699
30
0
11
106.243769
21
-5.52207
31
0
39
0
210
0
220
0
230
1
0
LINE
5
F3
100
AcDbEntity
8
1
62
256
6
ByLayer
370
13
48
1
60
0
100
AcDbLine
10
107.076836
20
-6.227531
30
0
11
108.781691
21
-4.781709
31
0
39
0
210
0
220
0
230
1
0
LINE
5
F4
100
AcDbEntity
8
1
62
256
6
ByLayer
370
13
48
1
60
0
100
AcDbLine
10
108.733529
20
5.928967
30
0
11
107.146812
21
4.520135
31
0
39
0
210
0
220
0
230
1
0
LINE
5
F5
100
AcDbEntity
8
2
62
256
6
ByLayer
370
13
48
1
60
0
100
AcDbLine
10
115
20
41.765464
30
0
11
0
21
41.765464
31
0
39
0
210
0
220
0
230
1
0
LINE
5
F7
100
AcDbEntity
8
2
62
256
6
ByLayer
370
13
48
1
60
0
100
AcDbLine
10
0
20
3.944817
30
0
11
0
21
44.940464
31
0
39
0
210
0
220
0
230
1
0
LINE
5
F8
100
AcDbEntity
8
2
62
256
6
ByLayer
370
13
48
1
60
0
100
AcDbLine
10
115
20
1.5875
30
0
11
115
21
44.940464
31
0
39
0
210
0
220
0
230
1
0
LINE
5
F9
100
AcDbEntity
8
2
62
256
6
ByLayer
370
18
48
1
60
0
100
AcDbLine
10
0
20
41.765464
30
0
11
3.174997
21
42.616202
31
0
39
0
210
0
220
0
230
1
0
LINE
5
FA
100
AcDbEntity
8
2
62
256
6
ByLayer
370
18
48
1
60
0
100
AcDbLine
10
0
20
41.765464
30
0
11
3.175003
21
40.914725
31
0
39
0
210
0
220
0
230
1
0
LINE
5
FB
100
AcDbEntity
8
2
62
256
6
ByLayer
370
18
48
1
60
0
100
AcDbLine
10
3.174997
20
42.616202
30
0
11
3.175003
21
40.914725
31
0
39
0
210
0
220
0
230
1
0
LINE
5
FC
100
AcDbEntity
8
2
62
256
6
ByLayer
370
18
48
1
60
0
100
AcDbLine
10
115
20
41.765464
30
0
11
111.825003
21
40.914725
31
0
39
0
210
0
220
0
230
1
0
LINE
5
FD
100
AcDbEntity
8
2
62
256
6
ByLayer
370
18
48
1
60
0
100
AcDbLine
10
115
20
41.765464
30
0
11
111.824997
21
42.616202
31
0
39
0
210
0
220
0
230
1
0
LINE
5
FE
100
AcDbEntity
8
2
62
256
6
ByLayer
370
18
48
1
60
0
100
AcDbLine
10
111.825003
20
40.914725
30
0
11
111.824997
21
42.616202
31
0
39
0
210
0
220
0
230
1
0
MTEXT
5
1CD
100
AcDbEntity
8
SK6
62
256
6
ByLayer
370
18
48
1
60
0
100
AcDbMText
10
-32.52415
20
36.153682
30
0
210
0
220
0
230
1
1
\W0.6915;C6-3-80-MN00115-10C
40
3.5
41
0
44
1.084337
50
0
71
7
72
5
7
iso_b_vert
0
MTEXT
5
1D1
100
AcDbEntity
8
2
62
256
6
ByLayer
370
13
48
1
60
0
100
AcDbMText
10
55.380263
20
42.890464
30
0
210
0
220
0
230
1
1
\W0.5296;115
40
4.5
41
0
44
1.084337
50
0
71
7
72
5
7
iso_b_vert
0
DIMENSION
5
1E0
100
AcDbEntity
8
2
62
256
6
ByLayer
370
13
48
1
60
0
100
AcDbDimension
2
DimnDraft3D1
10
115
20
5
30
0
11
104.38131
21
-8.880399
31
0
70
34
71
5
72
1
41
1
210
0
220
0
230
1
3
Standard
100
AcDb2LineAngularDimension
13
115
23
-0.37
33
0
14
111.186658
24
-3.603949
34
0
15
115
25
0
35
0
16
107.39013
26
-16.801593
36
0
40
0
0
DIMENSION
5
1F6
100
AcDbEntity
8
SK2
62
256
6
ByLayer
370
13
48
1
60
0
100
AcDbDimension
2
DimnDraft3D2
10
115
20
53.971211
30
0
11
13.114644
21
53.971211
31
0
70
32
71
5
72
1
41
1
210
0
220
0
230
1
3
Standard
100
AcDbAlignedDimension
13
-38
23
1.5875
33
0
14
115
24
1.5875
34
0
50
0
100
AcDbRotatedDimension
1001
ACAD
1000
DSTYLE
1002
{
1070
   279
1070
     0
1070
   172
1070
     1
1070
   173
1070
     1
1070
   340
1005
1CE
1070
   271
1070
     1
1070
   272
1070
     2
1070
    77
1070
     1
1070
    73
1070
     0
1070
   171
1070
     3
1070
   274
1070
     4
1070
   177
1070
   150
1070
   176
1070
     9
1070
   178
1070
    43
1070
    78
1070
     8
1070
    48
1040
-0.005
1070
    41
1041
3.175
1070
   147
1041
2.25
1070
    42
1041
1.5875
1070
    44
1041
3.175
1070
   140
1041
4.5
1070
   343
1005
1E1
1070
   344
1005
1E1
1002
}
0
DIMENSION
5
204
100
AcDbEntity
8
2
62
256
6
ByLayer
370
13
48
1
60
0
100
AcDbDimension
2
DimnDraft3D3
10
158.364069
20
-0.37
30
0
11
158.364069
21
18.500061
31
0
70
32
71
5
72
1
41
1
210
0
220
0
230
1
3
Standard
100
AcDbAlignedDimension
13
116.5875
23
0
33
0
14
126.5875
24
-0.37
34
0
50
90
100
AcDbRotatedDimension
1001
ACAD
1000
DSTYLE
1002
{
1070
    74
1070
     0
1070
   279
1070
     0
1070
   172
1070
     1
1070
   173
1070
     1
1070
   340
1005
1CE
1070
   271
1070
     1
1070
   272
1070
     2
1070
    77
1070
     1
1070
    73
1070
     0
1070
   171
1070
     3
1070
   274
1070
     4
1070
   177
1070
   150
1070
   176
1070
     9
1070
   178
1070
    43
1070
    78
1070
     8
1070
    48
1040
-0.005
1070
    41
1041
3.175
1070
   147
1041
2.25
1070
    42
1041
1.5875
1070
    44
1041
3.175
1070
   140
1041
4.5
1070
   343
1005
1E1
1070
   344
1005
1E1
1002
}
0
DIMENSION
5
212
100
AcDbEntity
8
SK2
62
256
6
ByLayer
370
13
48
1
60
0
100
AcDbDimension
2
DimnDraft3D4
10
-49.085109
20
-31.5
30
0
11
-49.085109
21
0.469341
31
0
70
32
71
5
72
1
41
1
210
0
220
0
230
1
3
Standard
100
AcDbAlignedDimension
13
-1.5875
23
31.5
33
0
14
-1.5875
24
-31.5
34
0
50
90
100
AcDbRotatedDimension
1001
ACAD
1000
DSTYLE
1002
{
1070
    74
1070
     0
1070
   279
1070
     0
1070
   172
1070
     1
1070
   173
1070
     1
1070
   340
1005
1CE
1070
   271
1070
     1
1070
   272
1070
     2
1070
    77
1070
     1
1070
    73
1070
     0
1070
   171
1070
     3
1070
   274
1070
     4
1070
   177
1070
   150
1070
   176
1070
     9
1070
   178
1070
    43
1070
    78
1070
     8
1070
    48
1040
-0.005
1070
    41
1041
3.175
1070
   147
1041
2.25
1070
    42
1041
1.5875
1070
    44
1041
3.175
1070
   140
1041
4.5
1070
   343
1005
1E1
1070
   344
1005
1E1
1002
}
0
ENDSEC
0
SECTION
2
OBJECTS
0
DICTIONARY
5
27c
330
0
100
AcDbDictionary
280
0
281
1
3
ACAD_GROUP
350
27d
3
ACAD_MLINESTYLE
350
27e
0
DICTIONARY
5
27d
330
0
100
AcDbDictionary
280
0
281
1
0
DICTIONARY
5
27e
330
0
100
AcDbDictionary
280
0
281
1
3
Standard
350
18
0
MLINESTYLE
5
18
330
27e
100
AcDbMlineStyle
2
Standard
70
0
3

62
256
51
90
52
90
71
2
49
-0.5
62
256
6
ByLayer
49
0.5
62
256
6
ByLayer
0
RASTERVARIABLES
5
26b
330

100
AcDbRasterVariables
90
0
70
1
71
1
72
1
0
ENDSEC
0
EOF
