0
SECTION
2
HEADER
9
$ACADVER
1
AC1015
9
$DWGCODEPAGE
3
ANSI_1252
9
$HANDSEED
5
3ac
9
$ANGBASE
50
0
9
$ANGDIR
70
0
9
$ATTMODE
70
1
9
$AUNITS
70
0
9
$AUPREC
70
0
9
$CECOLOR
62
256
9
$CELTSCALE
40
1
9
$CELTYPE
6
ByLayer
9
$CELWEIGHT
370
-1
9
$CLAYER
8
0
9
$CMLJUST
70
0
9
$CMLSCALE
40
1
9
$CMLSTYLE
2
Standard
9
$DIMSTYLE
2
Standard
9
$TEXTSIZE
40
0.2
9
$TEXTSTYLE
7
Standard
9
$LUNITS
70
2
9
$LUPREC
70
4
9
$EXTNAMES
290
1
9
$INSUNITS
70
4
9
$LTSCALE
40
1
9
$LWDISPLAY
290
0
9
$PDMODE
70
0
9
$PDSIZE
40
0
9
$PLINEGEN
70
0
0
ENDSEC
0
SECTION
2
CLASSES
0
CLASS
1
RASTERVARIABLES
2
AcDbRasterVariables
3
ISM
90
0
280
0
281
0
0
ENDSEC
0
SECTION
2
TABLES
0
TABLE
2
VPORT
5
3a2
100
AcDbSymbolTable
0
VPORT
5
1
100
AcDbSymbolTableRecord
100
AcDbViewportTableRecord
2
*Active
70
0
10
0
20
0
11
1
21
1
12
-1
22
1
13
0
23
0
14
0.5
24
0.5
15
10
25
10
16
0
26
0
36
1
17
0
27
0
37
0
0
ENDTAB
0
TABLE
2
LTYPE
5
3a3
100
AcDbSymbolTable
0
LTYPE
5
14
100
AcDbSymbolTableRecord
100
AcDbLinetypeTableRecord
70
0
2
ByBlock
3

72
65
73
0
40
0
0
LTYPE
5
15
100
AcDbSymbolTableRecord
100
AcDbLinetypeTableRecord
70
0
2
ByLayer
3

72
65
73
0
40
0
0
LTYPE
5
16
100
AcDbSymbolTableRecord
100
AcDbLinetypeTableRecord
70
0
2
CONTINUOUS
3
Solid line
72
65
73
0
40
0
0
LTYPE
5
3B
100
AcDbSymbolTableRecord
100
AcDbLinetypeTableRecord
70
0
2
DASHED
3
__ __ __ __ __ __ __ __ __
72
65
73
2
40
25.72
49
12.86
74
0
49
-12.86
74
0
0
LTYPE
5
3C
100
AcDbSymbolTableRecord
100
AcDbLinetypeTableRecord
70
0
2
HIDDEN
3
_ _ _ _ _ _ _ _ _ _ _ _ _ _ _
72
65
73
2
40
0.5
49
0.25
74
0
49
-0.25
74
0
0
LTYPE
5
3D
100
AcDbSymbolTableRecord
100
AcDbLinetypeTableRecord
70
0
2
PHANTOM
3
____ _ _ ____ _ _ _____ _ _ ____
72
65
73
6
40
50.5
49
18
74
0
49
-6.5
74
0
49
6.5
74
0
49
-6.5
74
0
49
6.5
74
0
49
-6.5
74
0
0
LTYPE
5
3E
100
AcDbSymbolTableRecord
100
AcDbLinetypeTableRecord
70
0
2
CENTER
3
____ _ ____ _ ____ _ ____
72
65
73
4
40
47.5
49
22
74
0
49
-8.5
74
0
49
8.5
74
0
49
-8.5
74
0
0
LTYPE
5
3F
100
AcDbSymbolTableRecord
100
AcDbLinetypeTableRecord
70
0
2
DOT
3
.........................
72
65
73
2
40
10
49
0
74
0
49
-10
74
0
0
LTYPE
5
40
100
AcDbSymbolTableRecord
100
AcDbLinetypeTableRecord
70
0
2
DASHDOT
3
_._._._._._._._._._._._._._._._.
72
65
73
4
40
70
49
31
74
0
49
-13
74
0
49
13
74
0
49
-13
74
0
0
ENDTAB
0
TABLE
2
LAYER
5
3a4
100
AcDbSymbolTable
0
LAYER
5
10
100
AcDbSymbolTableRecord
100
AcDbLayerTableRecord
2
0
70
0
62
7
6
CONTINUOUS
290
1
370
-3
390
0
0
LAYER
5
42
100
AcDbSymbolTableRecord
100
AcDbLayerTableRecord
2
80
70
0
62
-6
6
CONTINUOUS
290
1
370
-3
390
0
0
LAYER
5
44
100
AcDbSymbolTableRecord
100
AcDbLayerTableRecord
2
81
70
0
62
-3
6
CONTINUOUS
290
1
370
-3
390
0
0
LAYER
5
46
100
AcDbSymbolTableRecord
100
AcDbLayerTableRecord
2
2
70
0
62
7
6
CONTINUOUS
290
1
370
-3
390
0
0
LAYER
5
48
100
AcDbSymbolTableRecord
100
AcDbLayerTableRecord
2
1
70
0
62
4
6
CONTINUOUS
290
1
370
-3
390
0
0
LAYER
5
63
100
AcDbSymbolTableRecord
100
AcDbLayerTableRecord
2
4
70
0
62
-2
6
CENTER
290
1
370
-3
390
0
0
LAYER
5
38e
100
AcDbSymbolTableRecord
100
AcDbLayerTableRecord
2
SK1
70
0
62
4
6
CONTINUOUS
290
1
370
-3
390
0
0
LAYER
5
38f
100
AcDbSymbolTableRecord
100
AcDbLayerTableRecord
2
SK4
70
0
62
2
6
CENTER
290
1
370
-3
390
0
0
LAYER
5
390
100
AcDbSymbolTableRecord
100
AcDbLayerTableRecord
2
SK6
70
0
62
5
6
CONTINUOUS
290
1
370
-3
390
0
0
LAYER
5
391
100
AcDbSymbolTableRecord
100
AcDbLayerTableRecord
2
SK2
70
0
62
7
6
CONTINUOUS
290
1
370
-3
390
0
0
ENDTAB
0
TABLE
2
STYLE
5
3a5
100
AcDbSymbolTable
0
STYLE
5
11
100
AcDbSymbolTableRecord
100
AcDbTextStyleTableRecord
2
Standard
3
txt
70
0
71
0
40
0
41
1
42
0
50
0
0
STYLE
5
30A
100
AcDbSymbolTableRecord
100
AcDbTextStyleTableRecord
2
DEFAULT
3
simplex.shx
70
0
71
0
40
0
41
1
42
0
50
0
0
STYLE
5
32D
100
AcDbSymbolTableRecord
100
AcDbTextStyleTableRecord
2
DWGDirectTextStyle
3
SIMPLEX
70
0
71
0
40
0
41
1
42
0
50
0
0
ENDTAB
0
TABLE
2
DIMSTYLE
5
3a6
100
AcDbSymbolTable
100
AcDbDimStyleTable
0
DIMSTYLE
105
27
100
AcDbSymbolTableRecord
100
AcDbDimStyleTableRecord
2
Standard
70
0
3
<>
41
0.18
42
0.0625
44
0.18
140
0.18
147
0.09
73
0
74
0
77
1
271
2
275
0
278
52
280
0
340
11
0
ENDTAB
0
TABLE
2
VIEW
5
3a7
100
AcDbSymbolTable
0
ENDTAB
0
TABLE
2
UCS
5
3a8
100
AcDbSymbolTable
0
ENDTAB
0
TABLE
2
APPID
5
3a9
100
AcDbSymbolTable
0
APPID
5
12
100
AcDbSymbolTableRecord
100
AcDbRegAppTableRecord
2
ACAD
70
0
0
ENDTAB
0
TABLE
2
BLOCK_RECORD
5
3aa
100
AcDbSymbolTable
0
BLOCK_RECORD
5
1F
100
AcDbSymbolTableRecord
100
AcDbBlockTableRecord
2
*Model_Space
340
0
70
0
0
BLOCK_RECORD
5
1B
100
AcDbSymbolTableRecord
100
AcDbBlockTableRecord
2
*Paper_Space
340
0
70
0
0
BLOCK_RECORD
5
23
100
AcDbSymbolTableRecord
100
AcDbBlockTableRecord
2
*Paper_Space0
340
0
70
0
0
BLOCK_RECORD
5
32F
100
AcDbSymbolTableRecord
100
AcDbBlockTableRecord
2
DimnDraft3D1
340
0
70
0
0
BLOCK_RECORD
5
33D
100
AcDbSymbolTableRecord
100
AcDbBlockTableRecord
2
_CLOSED
340
0
70
0
0
BLOCK_RECORD
5
344
100
AcDbSymbolTableRecord
100
AcDbBlockTableRecord
2
DimnDraft3D2
340
0
70
0
0
BLOCK_RECORD
5
353
100
AcDbSymbolTableRecord
100
AcDbBlockTableRecord
2
DimnDraft3D3
340
0
70
0
0
BLOCK_RECORD
5
361
100
AcDbSymbolTableRecord
100
AcDbBlockTableRecord
2
DimnDraft3D4
340
0
70
0
0
ENDTAB
0
ENDSEC
0
SECTION
2
BLOCKS
0
BLOCK
5
20
100
AcDbEntity
8
0
100
AcDbBlockBegin
2
*Model_Space
70
0
10
0
20
0
30
0
3
*Model_Space
0
ENDBLK
5
21
100
AcDbEntity
8
0
100
AcDbBlockEnd
0
BLOCK
5
1C
100
AcDbEntity
8
0
100
AcDbBlockBegin
2
*Paper_Space
70
0
10
0
20
0
30
0
3
*Paper_Space
0
ENDBLK
5
1D
100
AcDbEntity
8
0
100
AcDbBlockEnd
0
BLOCK
5
24
100
AcDbEntity
8
0
100
AcDbBlockBegin
2
*Paper_Space0
70
0
10
0
20
0
30
0
3
*Paper_Space0
0
ENDBLK
5
25
100
AcDbEntity
8
0
100
AcDbBlockEnd
0
BLOCK
5
33A
100
AcDbEntity
8
0
100
AcDbBlockBegin
2
DimnDraft3D1
70
0
10
0
20
0
30
0
3
DimnDraft3D1
0
MTEXT
5
330
100
AcDbEntity
8
2
62
256
6
ByLayer
370
-1
48
1
60
0
100
AcDbMText
10
88.125
20
8.496053
30
0
210
0
220
0
230
1
1
\W01.000;\fsimplex.shx,bigfont.shx;19 
40
4.5
41
0
44
1.084337
50
90
71
7
72
5
7
DEFAULT
0
LINE
5
331
100
AcDbEntity
8
2
62
256
6
ByLayer
370
-1
48
1
60
0
100
AcDbLine
10
81.5
20
0
30
0
11
92.25
21
0
31
0
39
0
210
0
220
0
230
1
0
LINE
5
332
100
AcDbEntity
8
2
62
256
6
ByLayer
370
-1
48
1
60
0
100
AcDbLine
10
76.5
20
18.875
30
0
11
92.25
21
18.875
31
0
39
0
210
0
220
0
230
1
0
LINE
5
333
100
AcDbEntity
8
2
62
256
6
ByLayer
370
-1
48
1
60
0
100
AcDbLine
10
89.25
20
0
30
0
11
89.25
21
18.875
31
0
39
0
210
0
220
0
230
1
0
LINE
5
334
100
AcDbEntity
8
2
62
256
6
ByLayer
370
-1
48
1
60
0
100
AcDbLine
10
89.25
20
0
30
0
11
88.855043
21
2.999999
31
0
39
0
210
0
220
0
230
1
0
LINE
5
335
100
AcDbEntity
8
2
62
256
6
ByLayer
370
-1
48
1
60
0
100
AcDbLine
10
89.25
20
0
30
0
11
89.644957
21
3.000001
31
0
39
0
210
0
220
0
230
1
0
LINE
5
336
100
AcDbEntity
8
2
62
256
6
ByLayer
370
-1
48
1
60
0
100
AcDbLine
10
88.855043
20
2.999999
30
0
11
89.644957
21
3.000001
31
0
39
0
210
0
220
0
230
1
0
LINE
5
337
100
AcDbEntity
8
2
62
256
6
ByLayer
370
-1
48
1
60
0
100
AcDbLine
10
89.25
20
18.875
30
0
11
89.644957
21
15.875001
31
0
39
0
210
0
220
0
230
1
0
LINE
5
338
100
AcDbEntity
8
2
62
256
6
ByLayer
370
-1
48
1
60
0
100
AcDbLine
10
89.25
20
18.875
30
0
11
88.855043
21
15.874999
31
0
39
0
210
0
220
0
230
1
0
LINE
5
339
100
AcDbEntity
8
2
62
256
6
ByLayer
370
-1
48
1
60
0
100
AcDbLine
10
89.644957
20
15.875001
30
0
11
88.855043
21
15.874999
31
0
39
0
210
0
220
0
230
1
0
ENDBLK
5
33B
100
AcDbEntity
8
0
100
AcDbBlockEnd
0
BLOCK
5
33E
100
AcDbEntity
8
0
100
AcDbBlockBegin
2
_CLOSED
70
0
10
0
20
0
30
0
3
_CLOSED
0
LINE
5
340
100
AcDbEntity
8
0
62
256
6
ByLayer
370
-2
48
1
60
0
100
AcDbLine
10
-1
20
0.166667
30
0
11
0
21
0
31
0
39
0
210
0
220
0
230
1
0
LINE
5
341
100
AcDbEntity
8
0
62
256
6
ByLayer
370
-2
48
1
60
0
100
AcDbLine
10
0
20
0
30
0
11
-1
21
-0.166667
31
0
39
0
210
0
220
0
230
1
0
LINE
5
342
100
AcDbEntity
8
0
62
256
6
ByLayer
370
-2
48
1
60
0
100
AcDbLine
10
-1
20
0.166667
30
0
11
-1
21
-0.166667
31
0
39
0
210
0
220
0
230
1
0
LINE
5
343
100
AcDbEntity
8
0
62
256
6
ByLayer
370
-2
48
1
60
0
100
AcDbLine
10
0
20
0
30
0
11
-1
21
0
31
0
39
0
210
0
220
0
230
1
0
ENDBLK
5
33F
100
AcDbEntity
8
0
100
AcDbBlockEnd
0
BLOCK
5
350
100
AcDbEntity
8
0
100
AcDbBlockBegin
2
DimnDraft3D2
70
0
10
0
20
0
30
0
3
DimnDraft3D2
0
MTEXT
5
345
100
AcDbEntity
8
SK2
62
256
6
ByLayer
370
-1
48
1
60
0
100
AcDbMText
10
-48.875
20
-3.659211
30
0
210
0
220
0
230
1
1
\W01.000;\fsimplex.shx,bigfont.shx;%%c63 
40
4.5
41
0
44
1.084337
50
90
71
7
72
5
7
DEFAULT
0
LINE
5
347
100
AcDbEntity
8
SK2
62
256
6
ByLayer
370
-1
48
1
60
0
100
AcDbLine
10
-1.5
20
31.5
30
0
11
-50.75
21
31.5
31
0
39
0
210
0
220
0
230
1
0
LINE
5
348
100
AcDbEntity
8
SK2
62
256
6
ByLayer
370
-1
48
1
60
0
100
AcDbLine
10
-1.5
20
-31.5
30
0
11
-50.75
21
-31.5
31
0
39
0
210
0
220
0
230
1
0
LINE
5
349
100
AcDbEntity
8
SK2
62
256
6
ByLayer
370
-1
48
1
60
0
100
AcDbLine
10
-47.75
20
31.5
30
0
11
-47.75
21
-31.5
31
0
39
0
210
0
220
0
230
1
0
LINE
5
34A
100
AcDbEntity
8
SK2
62
256
6
ByLayer
370
-1
48
1
60
0
100
AcDbLine
10
-47.75
20
31.5
30
0
11
-47.355043
21
28.500001
31
0
39
0
210
0
220
0
230
1
0
LINE
5
34B
100
AcDbEntity
8
SK2
62
256
6
ByLayer
370
-1
48
1
60
0
100
AcDbLine
10
-47.75
20
31.5
30
0
11
-48.144957
21
28.499999
31
0
39
0
210
0
220
0
230
1
0
LINE
5
34C
100
AcDbEntity
8
SK2
62
256
6
ByLayer
370
-1
48
1
60
0
100
AcDbLine
10
-47.355043
20
28.500001
30
0
11
-48.144957
21
28.499999
31
0
39
0
210
0
220
0
230
1
0
LINE
5
34D
100
AcDbEntity
8
SK2
62
256
6
ByLayer
370
-1
48
1
60
0
100
AcDbLine
10
-47.75
20
-31.5
30
0
11
-48.144957
21
-28.500001
31
0
39
0
210
0
220
0
230
1
0
LINE
5
34E
100
AcDbEntity
8
SK2
62
256
6
ByLayer
370
-1
48
1
60
0
100
AcDbLine
10
-47.75
20
-31.5
30
0
11
-47.355043
21
-28.499999
31
0
39
0
210
0
220
0
230
1
0
LINE
5
34F
100
AcDbEntity
8
SK2
62
256
6
ByLayer
370
-1
48
1
60
0
100
AcDbLine
10
-48.144957
20
-28.500001
30
0
11
-47.355043
21
-28.499999
31
0
39
0
210
0
220
0
230
1
0
ENDBLK
5
351
100
AcDbEntity
8
0
100
AcDbBlockEnd
0
BLOCK
5
35E
100
AcDbEntity
8
0
100
AcDbBlockBegin
2
DimnDraft3D3
70
0
10
0
20
0
30
0
3
DimnDraft3D3
0
MTEXT
5
354
100
AcDbEntity
8
2
62
256
6
ByLayer
370
-1
48
1
60
0
100
AcDbMText
10
35.996053
20
39.75
30
0
210
0
220
0
230
1
1
\W01.000;\fsimplex.shx,bigfont.shx;75 
40
4.5
41
0
44
1.084337
50
0
71
7
72
5
7
DEFAULT
0
LINE
5
355
100
AcDbEntity
8
2
62
256
6
ByLayer
370
-1
48
1
60
0
100
AcDbLine
10
75
20
20.375
30
0
11
75
21
41.625
31
0
39
0
210
0
220
0
230
1
0
LINE
5
356
100
AcDbEntity
8
2
62
256
6
ByLayer
370
-1
48
1
60
0
100
AcDbLine
10
0
20
1.5
30
0
11
0
21
41.625
31
0
39
0
210
0
220
0
230
1
0
LINE
5
357
100
AcDbEntity
8
2
62
256
6
ByLayer
370
-1
48
1
60
0
100
AcDbLine
10
75
20
38.625
30
0
11
0
21
38.625
31
0
39
0
210
0
220
0
230
1
0
LINE
5
358
100
AcDbEntity
8
2
62
256
6
ByLayer
370
-1
48
1
60
0
100
AcDbLine
10
75
20
38.625
30
0
11
72.000001
21
38.230043
31
0
39
0
210
0
220
0
230
1
0
LINE
5
359
100
AcDbEntity
8
2
62
256
6
ByLayer
370
-1
48
1
60
0
100
AcDbLine
10
75
20
38.625
30
0
11
71.999999
21
39.019957
31
0
39
0
210
0
220
0
230
1
0
LINE
5
35A
100
AcDbEntity
8
2
62
256
6
ByLayer
370
-1
48
1
60
0
100
AcDbLine
10
72.000001
20
38.230043
30
0
11
71.999999
21
39.019957
31
0
39
0
210
0
220
0
230
1
0
LINE
5
35B
100
AcDbEntity
8
2
62
256
6
ByLayer
370
-1
48
1
60
0
100
AcDbLine
10
0
20
38.625
30
0
11
2.999999
21
39.019957
31
0
39
0
210
0
220
0
230
1
0
LINE
5
35C
100
AcDbEntity
8
2
62
256
6
ByLayer
370
-1
48
1
60
0
100
AcDbLine
10
0
20
38.625
30
0
11
3.000001
21
38.230043
31
0
39
0
210
0
220
0
230
1
0
LINE
5
35D
100
AcDbEntity
8
2
62
256
6
ByLayer
370
-1
48
1
60
0
100
AcDbLine
10
2.999999
20
39.019957
30
0
11
3.000001
21
38.230043
31
0
39
0
210
0
220
0
230
1
0
ENDBLK
5
35F
100
AcDbEntity
8
0
100
AcDbBlockEnd
0
BLOCK
5
36C
100
AcDbEntity
8
0
100
AcDbBlockBegin
2
DimnDraft3D4
70
0
10
0
20
0
30
0
3
DimnDraft3D4
0
MTEXT
5
362
100
AcDbEntity
8
2
62
256
6
ByLayer
370
-1
48
1
60
0
100
AcDbMText
10
49.054728
20
29.75
30
0
210
0
220
0
230
1
1
\W01.000;\fsimplex.shx,bigfont.shx;48 
40
4.5
41
0
44
1.084337
50
0
71
7
72
5
7
DEFAULT
0
LINE
5
363
100
AcDbEntity
8
2
62
256
6
ByLayer
370
-1
48
1
60
0
100
AcDbLine
10
26.591035
20
20.375
30
0
11
26.591035
21
31.625
31
0
39
0
210
0
220
0
230
1
0
LINE
5
364
100
AcDbEntity
8
2
62
256
6
ByLayer
370
-1
48
1
60
0
100
AcDbLine
10
75
20
20.375
30
0
11
75
21
31.625
31
0
39
0
210
0
220
0
230
1
0
LINE
5
365
100
AcDbEntity
8
2
62
256
6
ByLayer
370
-1
48
1
60
0
100
AcDbLine
10
26.591035
20
28.625
30
0
11
75
21
28.625
31
0
39
0
210
0
220
0
230
1
0
LINE
5
366
100
AcDbEntity
8
2
62
256
6
ByLayer
370
-1
48
1
60
0
100
AcDbLine
10
26.591035
20
28.625
30
0
11
29.591033
21
29.019957
31
0
39
0
210
0
220
0
230
1
0
LINE
5
367
100
AcDbEntity
8
2
62
256
6
ByLayer
370
-1
48
1
60
0
100
AcDbLine
10
26.591035
20
28.625
30
0
11
29.591036
21
28.230043
31
0
39
0
210
0
220
0
230
1
0
LINE
5
368
100
AcDbEntity
8
2
62
256
6
ByLayer
370
-1
48
1
60
0
100
AcDbLine
10
29.591033
20
29.019957
30
0
11
29.591036
21
28.230043
31
0
39
0
210
0
220
0
230
1
0
LINE
5
369
100
AcDbEntity
8
2
62
256
6
ByLayer
370
-1
48
1
60
0
100
AcDbLine
10
75
20
28.625
30
0
11
72.000001
21
28.230043
31
0
39
0
210
0
220
0
230
1
0
LINE
5
36A
100
AcDbEntity
8
2
62
256
6
ByLayer
370
-1
48
1
60
0
100
AcDbLine
10
75
20
28.625
30
0
11
71.999999
21
29.019957
31
0
39
0
210
0
220
0
230
1
0
LINE
5
36B
100
AcDbEntity
8
2
62
256
6
ByLayer
370
-1
48
1
60
0
100
AcDbLine
10
72.000001
20
28.230043
30
0
11
71.999999
21
29.019957
31
0
39
0
210
0
220
0
230
1
0
ENDBLK
5
36D
100
AcDbEntity
8
0
100
AcDbBlockEnd
0
ENDSEC
0
SECTION
2
ENTITIES
0
ARC
5
162
100
AcDbEntity
8
1
62
256
6
ByLayer
370
-1
48
1
60
0
100
AcDbCircle
39
0
10
-27.511827
20
-13.7
30
0
40
1.2
210
0
220
0
230
-1
100
AcDbArc
50
15
51
90
0
ARC
5
163
100
AcDbEntity
8
1
62
256
6
ByLayer
370
-1
48
1
60
0
100
AcDbCircle
39
0
10
-27.511827
20
13.7
30
0
40
1.2
210
0
220
0
230
-1
100
AcDbArc
50
270
51
345
0
ARC
5
164
100
AcDbEntity
8
1
62
256
6
ByLayer
370
-1
48
1
60
0
100
AcDbCircle
39
0
10
-50.591573
20
-13.3
30
0
40
0.8
210
0
220
0
230
-1
100
AcDbArc
50
90
51
99.068722
0
ARC
5
165
100
AcDbEntity
8
1
62
256
6
ByLayer
370
-1
48
1
60
0
100
AcDbCircle
39
0
10
-50.591573
20
13.3
30
0
40
0.8
210
0
220
0
230
-1
100
AcDbArc
50
220
51
270
0
ARC
5
166
100
AcDbEntity
8
1
62
256
6
ByLayer
370
-1
48
1
60
0
100
AcDbCircle
39
0
10
69.265386
20
-1.838148
30
0
40
5.97633063734988
210
0
220
0
230
1
100
AcDbArc
50
21.17537
51
21.691445
0
ARC
5
167
100
AcDbEntity
8
1
62
256
6
ByLayer
370
-1
48
1
60
0
100
AcDbCircle
39
0
10
69.265386
20
-1.838148
30
0
40
5.97633063734988
210
0
220
0
230
1
100
AcDbArc
50
327.402619
51
339.431766
0
ELLIPSE
5
168
100
AcDbEntity
8
1
62
256
6
ByLayer
370
-1
48
1
60
0
100
AcDbEllipse
10
57.479791
20
5.241653
30
0
11
-2.09564084296742
21
0.135238519981528
31
0
210
0
220
0
230
1
40
0.965791
41
-1.50855133230201
42
-0.715200790463542
0
ELLIPSE
5
169
100
AcDbEntity
8
1
62
256
6
ByLayer
370
-1
48
1
60
0
100
AcDbEllipse
10
57.479791
20
5.241653
30
0
11
-2.09564084296742
21
0.135238519981528
31
0
210
0
220
0
230
1
40
0.965791
41
-1.9139148454549
42
-1.50855133230202
0
ELLIPSE
5
16A
100
AcDbEntity
8
1
62
256
6
ByLayer
370
-1
48
1
60
0
100
AcDbEllipse
10
62.607319
20
0
30
0
11
-14.95043392505
21
10.7195965757995
31
0
210
0
220
0
230
1
40
0.430064
41
-0.294700809475569
42
0.994159903773763
0
ELLIPSE
5
16B
100
AcDbEntity
8
1
62
256
6
ByLayer
370
-1
48
1
60
0
100
AcDbEllipse
10
58.261752
20
17.35884
30
0
11
-2.01463944181009
21
-9.59997120054323
31
0
210
0
220
0
230
1
40
0.161916
41
0.333598209856718
42
0.719081586094898
0
ELLIPSE
5
16C
100
AcDbEntity
8
1
62
256
6
ByLayer
370
-1
48
1
60
0
100
AcDbEllipse
10
26.347154
20
0
30
0
11
-14.7536831606551
21
-31.0932549155795
31
0
210
0
220
0
230
1
40
0.341999
41
-1.09123958575287
42
-0.157806186645435
0
ELLIPSE
5
16D
100
AcDbEntity
8
1
62
256
6
ByLayer
370
-1
48
1
60
0
100
AcDbEllipse
10
115.82297
20
-1.591471
30
0
11
-61.7714732136329
21
0.788848558036918
31
0
210
0
220
0
230
1
40
0.067231
41
-0.829088648427316
42
-0.827665161455174
0
ELLIPSE
5
16E
100
AcDbEntity
8
1
62
256
6
ByLayer
370
-1
48
1
60
0
100
AcDbEllipse
10
72.09412
20
-0.637032
30
0
11
-2.86372375194855
21
1.3943680229839
31
0
210
0
220
0
230
1
40
0.135136
41
0.794968493238776
42
1.15902849535472
0
ELLIPSE
5
16F
100
AcDbEntity
8
1
62
256
6
ByLayer
370
-1
48
1
60
0
100
AcDbEllipse
10
58.945227
20
5.962841
30
0
11
-2.74429158007639
21
0.177098061880571
31
0
210
0
220
0
230
1
40
0.965791
41
-1.44138434210001
42
-0.997958148048803
0
ELLIPSE
5
170
100
AcDbEntity
8
1
62
256
6
ByLayer
370
-1
48
1
60
0
100
AcDbEllipse
10
57.651095
20
7.896166
30
0
11
-2.09555834388451
21
0.136511306424765
31
0
210
0
220
0
230
1
40
0.965789
41
-1.56451927756932
42
1.3267906081264
0
ELLIPSE
5
171
100
AcDbEntity
8
1
62
256
6
ByLayer
370
-1
48
1
60
0
100
AcDbEllipse
10
62.607319
20
0
30
0
11
-14.9623942721846
21
10.7281722530573
31
0
210
0
220
0
230
1
40
0.430064
41
1.00758576421037
42
1.85204590281074
0
ELLIPSE
5
172
100
AcDbEntity
8
1
62
256
6
ByLayer
370
-1
48
1
60
0
100
AcDbEllipse
10
53.66165
20
4.372621
30
0
11
-1.45426629340383
21
1.41676955765396
31
0
210
0
220
0
230
1
40
0.67208
41
-0.749856866922957
42
3.13510309720549
0
ELLIPSE
5
173
100
AcDbEntity
8
1
62
256
6
ByLayer
370
-1
48
1
60
0
100
AcDbEllipse
10
-2.347154
20
0
30
0
11
-14.7536831606569
21
-31.0932549155818
31
0
210
0
220
0
230
1
40
0.341999
41
2.05035306783698
42
2.98378646694437
0
ELLIPSE
5
174
100
AcDbEntity
8
1
62
256
6
ByLayer
370
-1
48
1
60
0
100
AcDbEllipse
10
58.884605
20
5.023459
30
0
11
-2.91829104606324
21
0.188326813379953
31
0
210
0
220
0
230
1
40
0.965791
41
-1.32568592594861
42
-0.887451145561877
0
ELLIPSE
5
175
100
AcDbEntity
8
1
62
256
6
ByLayer
370
-1
48
1
60
0
100
AcDbEllipse
10
57.484801
20
5.319288
30
0
11
2.09564084296742
21
-0.135238519981529
31
0
210
0
220
0
230
1
40
0.965791
41
1.22772364803394
42
1.77724258172527
0
ELLIPSE
5
176
100
AcDbEntity
8
1
62
256
6
ByLayer
370
-1
48
1
60
0
100
AcDbEllipse
10
58.865938
20
6.746242
30
0
11
-2.01743155678877
21
0.131421880008164
31
0
210
0
220
0
230
1
40
0.965789
41
0.478796380719405
42
2.4144781435996
0
ELLIPSE
5
177
100
AcDbEntity
8
1
62
256
6
ByLayer
370
-1
48
1
60
0
100
AcDbEllipse
10
74.083435
20
-1.812621
30
0
11
-0.0188121773771072
21
-4.3001599739822
31
0
210
0
220
0
230
1
40
0.016322
41
2.66261176881019
42
1.00271734016922
0
ELLIPSE
5
178
100
AcDbEntity
8
1
62
256
6
ByLayer
370
-1
48
1
60
0
100
AcDbEllipse
10
63.175302
20
4.376041
30
0
11
-2.86372375065866
21
1.39436802247934
31
0
210
0
220
0
230
1
40
0.135136
41
1.15902849548264
42
1.52308849773399
0
ELLIPSE
5
179
100
AcDbEntity
8
1
62
256
6
ByLayer
370
-1
48
1
60
0
100
AcDbEllipse
10
-2.347154
20
0
30
0
11
-14.7536831606569
21
31.0932549155818
31
0
210
0
220
0
230
1
40
0.341999
41
-2.98378646694437
42
-2.05035306783698
0
ELLIPSE
5
17A
100
AcDbEntity
8
1
62
256
6
ByLayer
370
-1
48
1
60
0
100
AcDbEllipse
10
26.347154
20
0
30
0
11
-14.7536831606566
21
31.0932549155815
31
0
210
0
220
0
230
1
40
0.341999
41
0.157806186645426
42
1.09123958575282
0
ELLIPSE
5
17B
100
AcDbEntity
8
1
62
256
6
ByLayer
370
-1
48
1
60
0
100
AcDbEllipse
10
57.545422
20
6.25867
30
0
11
2.09564084296742
21
-0.135238519981529
31
0
210
0
220
0
230
1
40
0.965791
41
1.60632901256719
42
1.96197017029445
0
ELLIPSE
5
17C
100
AcDbEntity
8
1
62
256
6
ByLayer
370
-1
48
1
60
0
100
AcDbEllipse
10
64.300001
20
12.939928
30
0
11
0.599999999999999
21
0
31
0
210
0
220
0
230
1
40
0.258819
41
1.55642255054305
42
2.38545394524034
0
ELLIPSE
5
17D
100
AcDbEntity
8
1
62
256
6
ByLayer
370
-1
48
1
60
0
100
AcDbEllipse
10
59.593793
20
9.422819
30
0
11
-0.833221100610502
21
-6.77802382035863
31
0
210
0
220
0
230
1
40
0.134752
41
-0.958757458951877
42
-0.815538973429189
0
ELLIPSE
5
17E
100
AcDbEntity
8
1
62
256
6
ByLayer
370
-1
48
1
60
0
100
AcDbEllipse
10
62.756765
20
12.36365
30
0
11
-0.599078489577075
21
0.0332702162796363
31
0
210
0
220
0
230
1
40
0.965823
41
-1.51721003903082
42
0.0535862877640965
0
ELLIPSE
5
17F
100
AcDbEntity
8
1
62
256
6
ByLayer
370
-1
48
1
60
0
100
AcDbEllipse
10
63.413897
20
12.961623
30
0
11
0.15
21
0
31
0
210
0
220
0
230
1
40
0.258819
41
-2.58873442294351
42
-0.581605783150016
0
ELLIPSE
5
180
100
AcDbEntity
8
1
62
256
6
ByLayer
370
-1
48
1
60
0
100
AcDbEllipse
10
68.538795
20
6.566863
30
0
11
-3.39294231718535
21
0.218957603779615
31
0
210
0
220
0
230
1
40
0.965791
41
1.63304149660517
42
-3.03732865114449
0
ELLIPSE
5
181
100
AcDbEntity
8
1
62
256
6
ByLayer
370
-1
48
1
60
0
100
AcDbEllipse
10
64.413482
20
12.939506
30
0
11
0.599999999999999
21
0
31
0
210
0
220
0
230
1
40
0.258819
41
1.06489851047477
42
1.55642255054305
0
ELLIPSE
5
182
100
AcDbEntity
8
1
62
256
6
ByLayer
370
-1
48
1
60
0
100
AcDbEllipse
10
66.045979
20
12.513735
30
0
11
3
21
0
31
0
210
0
220
0
230
1
40
0.258819
41
2.38545394524036
42
2.55998687043979
0
ELLIPSE
5
183
100
AcDbEntity
8
1
62
256
6
ByLayer
370
-1
48
1
60
0
100
AcDbEllipse
10
59.28789
20
6.763857
30
0
11
-0.997924210936867
21
0.0643992952292984
31
0
210
0
220
0
230
1
40
0.965791
41
-2.21689890784173E-05
42
0.062245129007426
0
ELLIPSE
5
184
100
AcDbEntity
8
1
62
256
6
ByLayer
370
-1
48
1
60
0
100
AcDbEllipse
10
59.357107
20
5.755166
30
0
11
-0.998464142069392
21
0.0554503726447524
31
0
210
0
220
0
230
1
40
0.965823
41
0.0535863000674277
42
0.197321383670728
0
ELLIPSE
5
185
100
AcDbEntity
8
1
62
256
6
ByLayer
370
-1
48
1
60
0
100
AcDbEllipse
10
59.357107
20
7.836447
30
0
11
-0.998464149295157
21
0.0554503604667788
31
0
210
0
220
0
230
1
40
0.965823
41
-1.51721003903007
42
0.0535862877648131
0
ELLIPSE
5
186
100
AcDbEntity
8
1
62
256
6
ByLayer
370
-1
48
1
60
0
100
AcDbEllipse
10
70.041225
20
7.119672
30
0
11
-0.329302020901983
21
0.0214517838388735
31
0
210
0
220
0
230
1
40
0.965789
41
-2.43080906131469
42
-2.27948774064054
0
ELLIPSE
5
187
100
AcDbEntity
8
1
62
256
6
ByLayer
370
-1
48
1
60
0
100
AcDbEllipse
10
68.627928
20
7.926281
30
0
11
-1.41300503514306
21
0.0920476542904392
31
0
210
0
220
0
230
1
40
0.965789
41
2.63476761154192
42
3.09634595505475
0
ELLIPSE
5
188
100
AcDbEntity
8
1
62
256
6
ByLayer
370
-1
48
1
60
0
100
AcDbEllipse
10
68.649524
20
8.257785
30
0
11
1.41300503514306
21
-0.0920476542904375
31
0
210
0
220
0
230
1
40
0.965789
41
3.09634595505475
42
-2.97068248826066
0
ELLIPSE
5
189
100
AcDbEntity
8
1
62
256
6
ByLayer
370
-1
48
1
60
0
100
AcDbEllipse
10
68.654901
20
8.340333
30
0
11
1.96433644892592
21
-0.127963140869158
31
0
210
0
220
0
230
1
40
0.965789
41
-1.50796459339784
42
-0.46742411379421
0
ELLIPSE
5
18A
100
AcDbEntity
8
1
62
256
6
ByLayer
370
-1
48
1
60
0
100
AcDbEllipse
10
68.627928
20
7.926281
30
0
11
1.41300503514306
21
-0.0920476542904375
31
0
210
0
220
0
230
1
40
0.965789
41
-2.97068248826066
42
-2.51487648792446
0
ELLIPSE
5
18B
100
AcDbEntity
8
1
62
256
6
ByLayer
370
-1
48
1
60
0
100
AcDbEllipse
10
68.654901
20
8.340333
30
0
11
1.96433644892592
21
-0.127963140869158
31
0
210
0
220
0
230
1
40
0.965789
41
1.63362806019195
42
2.67416853979557
0
ELLIPSE
5
18C
100
AcDbEntity
8
1
62
256
6
ByLayer
370
-1
48
1
60
0
100
AcDbEllipse
10
68.627928
20
7.926281
30
0
11
1.41300503514306
21
-0.0920476542904375
31
0
210
0
220
0
230
1
40
0.965789
41
0.0452488351007915
42
0.170910165329135
0
ELLIPSE
5
18D
100
AcDbEntity
8
1
62
256
6
ByLayer
370
-1
48
1
60
0
100
AcDbEllipse
10
68.627928
20
7.926281
30
0
11
-1.41300503514306
21
0.0920476542904392
31
0
210
0
220
0
230
1
40
0.965789
41
-0.987694353596042
42
-0.26392430766154
0
ELLIPSE
5
18E
100
AcDbEntity
8
1
62
256
6
ByLayer
370
-1
48
1
60
0
100
AcDbEllipse
10
69.742301
20
9.800482
30
0
11
-0.824252937166783
21
0.0536944650027561
31
0
210
0
220
0
230
1
40
0.965789
41
1.11335782039015
42
1.89522288769701
0
ELLIPSE
5
18F
100
AcDbEntity
8
1
62
256
6
ByLayer
370
-1
48
1
60
0
100
AcDbEllipse
10
68.654901
20
8.340333
30
0
11
1.96433644892592
21
-0.127963140869158
31
0
210
0
220
0
230
1
40
0.965789
41
0.593087580588324
42
1.63362806019195
0
ELLIPSE
5
190
100
AcDbEntity
8
1
62
256
6
ByLayer
370
-1
48
1
60
0
100
AcDbEllipse
10
70.847106
20
7.916597
30
0
11
-0.824252937166783
21
0.0536944650027561
31
0
210
0
220
0
230
1
40
0.965789
41
0.248818955442359
42
0.862104912949254
0
ELLIPSE
5
191
100
AcDbEntity
8
1
62
256
6
ByLayer
370
-1
48
1
60
0
100
AcDbEllipse
10
68.654901
20
8.340333
30
0
11
1.96433644892592
21
-0.127963140869158
31
0
210
0
220
0
230
1
40
0.965789
41
-2.54850507300147
42
-1.50796459339784
0
ELLIPSE
5
192
100
AcDbEntity
8
1
62
256
6
ByLayer
370
-1
48
1
60
0
100
AcDbEllipse
10
68.627928
20
7.926281
30
0
11
-1.41300503514306
21
0.0920476542904392
31
0
210
0
220
0
230
1
40
0.965789
41
1.43595795446633
42
1.87864266208263
0
ELLIPSE
5
193
100
AcDbEntity
8
1
62
256
6
ByLayer
370
-1
48
1
60
0
100
AcDbEllipse
10
68.649524
20
8.257785
30
0
11
1.41300503514306
21
-0.0920476542904375
31
0
210
0
220
0
230
1
40
0.965789
41
-0.0452466985350475
42
0.17091016532913
0
ELLIPSE
5
194
100
AcDbEntity
8
1
62
256
6
ByLayer
370
-1
48
1
60
0
100
AcDbEllipse
10
68.627928
20
7.926281
30
0
11
-1.41300503514306
21
0.0920476542904392
31
0
210
0
220
0
230
1
40
0.965789
41
-2.02823483319967
42
-0.987694353596042
0
ELLIPSE
5
195
100
AcDbEntity
8
1
62
256
6
ByLayer
370
-1
48
1
60
0
100
AcDbEllipse
10
68.627928
20
7.926281
30
0
11
-1.41300503514306
21
0.0920476542904392
31
0
210
0
220
0
230
1
40
0.965789
41
-2.97068248826066
42
-2.02823483319967
0
ELLIPSE
5
196
100
AcDbEntity
8
1
62
256
6
ByLayer
370
-1
48
1
60
0
100
AcDbEllipse
10
68.654901
20
8.340333
30
0
11
1.96433644892592
21
-0.127963140869158
31
0
210
0
220
0
230
1
40
0.965789
41
-0.46742411379421
42
0.593087580588324
0
ELLIPSE
5
197
100
AcDbEntity
8
1
62
256
6
ByLayer
370
-1
48
1
60
0
100
AcDbEllipse
10
67.513556
20
9.810207
30
0
11
-0.824252937166783
21
0.0536944650027561
31
0
210
0
220
0
230
1
40
0.965789
41
2.15389829999377
42
2.93576336730067
0
ELLIPSE
5
198
100
AcDbEntity
8
1
62
256
6
ByLayer
370
-1
48
1
60
0
100
AcDbEllipse
10
68.654901
20
8.340333
30
0
11
1.96433644892592
21
-0.127963140869158
31
0
210
0
220
0
230
1
40
0.965789
41
2.67416853979557
42
-2.54850507300147
0
ELLIPSE
5
199
100
AcDbEntity
8
1
62
256
6
ByLayer
370
-1
48
1
60
0
100
AcDbEllipse
10
66.408751
20
7.935965
30
0
11
-0.824252937166783
21
0.0536944650027561
31
0
210
0
220
0
230
1
40
0.965789
41
2.40515120743465
42
3.01843716494152
0
ELLIPSE
5
19A
100
AcDbEntity
8
1
62
256
6
ByLayer
370
-1
48
1
60
0
100
AcDbEllipse
10
67.214632
20
8.73289
30
0
11
-0.329302020901983
21
0.0214517838388735
31
0
210
0
220
0
230
1
40
0.965789
41
-1.76955942090293
42
-0.668496510570522
0
ELLIPSE
5
19B
100
AcDbEntity
8
1
62
256
6
ByLayer
370
-1
48
1
60
0
100
AcDbEllipse
10
67.513556
20
9.810207
30
0
11
-0.824252937166783
21
0.0536944650027561
31
0
210
0
220
0
230
1
40
0.965789
41
1.37203323268689
42
2.15389829999377
0
ELLIPSE
5
19C
100
AcDbEntity
8
1
62
256
6
ByLayer
370
-1
48
1
60
0
100
AcDbEllipse
10
68.627928
20
9.508951
30
0
11
-0.329302020901983
21
0.0214517838388735
31
0
210
0
220
0
230
1
40
0.965789
41
-2.81009990050651
42
-0.205829286289192
0
ELLIPSE
5
19D
100
AcDbEntity
8
1
62
256
6
ByLayer
370
-1
48
1
60
0
100
AcDbEllipse
10
69.742301
20
9.800482
30
0
11
-0.824252937166783
21
0.0536944650027561
31
0
210
0
220
0
230
1
40
0.965789
41
0.331492753083273
42
1.11335782039015
0
ELLIPSE
5
19E
100
AcDbEntity
8
1
62
256
6
ByLayer
370
-1
48
1
60
0
100
AcDbEllipse
10
70.041225
20
8.720555
30
0
11
-0.329302020901983
21
0.0214517838388735
31
0
210
0
220
0
230
1
40
0.965789
41
-2.53169138637057
42
-1.24636976589276
0
ELLIPSE
5
19F
100
AcDbEntity
8
1
62
256
6
ByLayer
370
-1
48
1
60
0
100
AcDbEllipse
10
74.833559
20
-1.808646
30
0
11
0.0104295894547132
21
-1.96847237056145
31
0
210
0
220
0
230
1
40
0.05338
41
0.280004297406214
42
1.32720184860298
0
ELLIPSE
5
1A0
100
AcDbEntity
8
1
62
256
6
ByLayer
370
-1
48
1
60
0
100
AcDbEllipse
10
74.833559
20
-1.808646
30
0
11
0.0104295894547132
21
-1.96847237056145
31
0
210
0
220
0
230
1
40
0.05338
41
2.37439939979965
42
-2.9384099236107
0
ELLIPSE
5
1A1
100
AcDbEntity
8
1
62
256
6
ByLayer
370
-1
48
1
60
0
100
AcDbEllipse
10
74.833559
20
-1.808646
30
0
11
0.0104295894547132
21
-1.96847237056145
31
0
210
0
220
0
230
1
40
0.05338
41
-1.81439080498679
42
-0.767193253790362
0
ELLIPSE
5
1A2
100
AcDbEntity
8
1
62
256
6
ByLayer
370
-1
48
1
60
0
100
AcDbEllipse
10
74.833559
20
-1.808646
30
0
11
0.0104295894547132
21
-1.96847237056145
31
0
210
0
220
0
230
1
40
0.05338
41
-2.10866977759691
42
-1.81439080498679
0
ELLIPSE
5
1A3
100
AcDbEntity
8
1
62
256
6
ByLayer
370
-1
48
1
60
0
100
AcDbEllipse
10
74.833559
20
-1.808646
30
0
11
0.0104295894547132
21
-1.96847237056145
31
0
210
0
220
0
230
1
40
0.05338
41
1.32720184860298
42
2.37439939979965
0
ELLIPSE
5
1A4
100
AcDbEntity
8
1
62
256
6
ByLayer
370
-1
48
1
60
0
100
AcDbEllipse
10
74.833559
20
-1.808646
30
0
11
0.0104295894547132
21
-1.96847237056145
31
0
210
0
220
0
230
1
40
0.05338
41
-0.767193253790362
42
0.280004297406214
0
ELLIPSE
5
1A5
100
AcDbEntity
8
1
62
256
6
ByLayer
370
-1
48
1
60
0
100
AcDbEllipse
10
73.535431
20
-1.815524
30
0
11
-0.0221201605148218
21
4.17494140060657
31
0
210
0
220
0
230
1
40
0.05338
41
1.57051350122281
42
1.58111631861786
0
ELLIPSE
5
1A6
100
AcDbEntity
8
1
62
256
6
ByLayer
370
-1
48
1
60
0
100
AcDbEllipse
10
73.535431
20
-1.815524
30
0
11
-0.0221201605148218
21
4.17494140060657
31
0
210
0
220
0
230
1
40
0.05338
41
1.38771207904239
42
1.57051350122281
0
ELLIPSE
5
1A7
100
AcDbEntity
8
1
62
256
6
ByLayer
370
-1
48
1
60
0
100
AcDbEllipse
10
74.833559
20
-1.808646
30
0
11
-0.0113912203848783
21
2.14996982306686
31
0
210
0
220
0
230
1
40
0.05338
41
1.57051356806586
42
-3.86948521656976E-15
0
ELLIPSE
5
1A8
100
AcDbEntity
8
1
62
256
6
ByLayer
370
-1
48
1
60
0
100
AcDbEllipse
10
74.833559
20
-1.808646
30
0
11
-0.0113912203848783
21
2.14996982306686
31
0
210
0
220
0
230
1
40
0.05338
41
1.09789998650223
42
1.57051356806586
0
ELLIPSE
5
1A9
100
AcDbEntity
8
1
62
256
6
ByLayer
370
-1
48
1
60
0
100
AcDbEllipse
10
66.149285
20
2.479206
30
0
11
-0.117543477843047
21
0.0792885167274025
31
0
210
0
220
0
230
1
40
0.171608
41
-2.0660542591101
42
-0.568942070808048
0
ELLIPSE
5
1AA
100
AcDbEntity
8
1
62
256
6
ByLayer
370
-1
48
1
60
0
100
AcDbEllipse
10
58.95359
20
10.257487
30
0
11
-1.24219702079495
21
1.4412201918464
31
0
210
0
220
0
230
1
40
0.453474
41
-2.99915467289789
42
-2.50422054655307
0
ELLIPSE
5
1AB
100
AcDbEntity
8
1
62
256
6
ByLayer
370
-1
48
1
60
0
100
AcDbEllipse
10
65.994854
20
4.762567
30
0
11
0.0572702673836762
21
0.0819763165420491
31
0
210
0
220
0
230
1
40
0.137818
41
0.0381447238970203
42
1.34714166289371
0
ELLIPSE
5
1AC
100
AcDbEntity
8
1
62
256
6
ByLayer
370
-1
48
1
60
0
100
AcDbEllipse
10
66.256792
20
11.761087
30
0
11
0.0786977922275762
21
-0.0616981158424246
31
0
210
0
220
0
230
1
40
0.469689
41
-1.78351567258976
42
-0.536821323432159
0
ELLIPSE
5
1AD
100
AcDbEntity
8
1
62
256
6
ByLayer
370
-1
48
1
60
0
100
AcDbEllipse
10
74.673608
20
3.690635
30
0
11
-1.41314667280125
21
-1.23575105221196
31
0
210
0
220
0
230
1
40
0.318653
41
-0.60527339981281
42
-0.0516008018750793
0
ELLIPSE
5
1AE
100
AcDbEntity
8
1
62
256
6
ByLayer
370
-1
48
1
60
0
100
AcDbEllipse
10
61.331883
20
8.316473
30
0
11
0.399549493414227
21
-0.256827183748984
31
0
210
0
220
0
230
1
40
0.895737
41
1.40190448775774
42
1.58705851477466
0
ELLIPSE
5
1AF
100
AcDbEntity
8
1
62
256
6
ByLayer
370
-1
48
1
60
0
100
AcDbEllipse
10
73.041601
20
8.368424
30
0
11
-0.0927844659137613
21
-0.0372966873206999
31
0
210
0
220
0
230
1
40
0.808002
41
-1.73817597247486
42
-0.491481623317161
0
ELLIPSE
5
1B0
100
AcDbEntity
8
1
62
256
6
ByLayer
370
-1
48
1
60
0
100
AcDbEllipse
10
68.948193
20
3.931563
30
0
11
-0.00580564298290544
21
0.0998313303004375
31
0
210
0
220
0
230
1
40
0.032964
41
-1.31049983336613
42
-0.00150289437079936
0
ELLIPSE
5
1B1
100
AcDbEntity
8
1
62
256
6
ByLayer
370
-1
48
1
60
0
100
AcDbEllipse
10
71.909697
20
2.159169
30
0
11
-0.521075299741992
21
0.853510709949672
31
0
210
0
220
0
230
1
40
0.020494
41
1.51943055314576
42
2.01436467948673
0
ELLIPSE
5
1B2
100
AcDbEntity
8
1
62
256
6
ByLayer
370
-1
48
1
60
0
100
AcDbEllipse
10
73.366693
20
10.969587
30
0
11
0.0230153731571416
21
-0.0973154283679496
31
0
210
0
220
0
230
1
40
0.078414
41
1.12323355480918
42
1.82136525560562
0
ELLIPSE
5
1B3
100
AcDbEntity
8
1
62
256
6
ByLayer
370
-1
48
1
60
0
100
AcDbEllipse
10
74.996291
20
9.28816
30
0
11
-0.0012727104319325
21
-0.308574636599411
31
0
210
0
220
0
230
1
40
0.015862
41
-1.31640686063973
42
-0.618275159580162
0
ELLIPSE
5
1B4
100
AcDbEntity
8
1
62
256
6
ByLayer
370
-1
48
1
60
0
100
AcDbEllipse
10
64.568997
20
10.293512
30
0
11
0.0889869578936412
21
-0.0456215006859193
31
0
210
0
220
0
230
1
40
0.239247
41
0.365041718621018
42
1.67403865761679
0
ELLIPSE
5
1B5
100
AcDbEntity
8
1
62
256
6
ByLayer
370
-1
48
1
60
0
100
AcDbEllipse
10
69.674857
20
15.172968
30
0
11
0.14968273677363
21
-0.00975081083585148
31
0
210
0
220
0
230
1
40
0.965789
41
0.690079741581586
42
1.63362806019199
0
ELLIPSE
5
1B6
100
AcDbEntity
8
1
62
256
6
ByLayer
370
-1
48
1
60
0
100
AcDbEllipse
10
68.642136
20
8.144382
30
0
11
4.00027962432947
21
-0.260590972266479
31
0
210
0
220
0
230
1
40
0.965789
41
0
42
6.28318530717959
0
ELLIPSE
5
1B7
100
AcDbEntity
8
1
62
256
6
ByLayer
370
-1
48
1
60
0
100
AcDbEllipse
10
74.733852
20
13.160185
30
0
11
-0.249471227956048
21
0.016251351393086
31
0
210
0
220
0
230
1
40
0.965789
41
-3.07876092019273
42
-2.5400218009592
0
ELLIPSE
5
1B8
100
AcDbEntity
8
1
62
256
6
ByLayer
370
-1
48
1
60
0
100
AcDbEllipse
10
74.493935
20
-0.870465
30
0
11
-0.179619284128355
21
0.0117009730030219
31
0
210
0
220
0
230
1
40
0.965789
41
1.64876840382704
42
2.68082561138854
0
ELLIPSE
5
1B9
100
AcDbEntity
8
1
62
256
6
ByLayer
370
-1
48
1
60
0
100
AcDbEllipse
10
66.453224
20
2.372788
30
0
11
-0.26537629048052
21
0.158404081912505
31
0
210
0
220
0
230
1
40
0.225571
41
0.987615620026374
42
1.68574732074913
0
ELLIPSE
5
1BA
100
AcDbEntity
8
1
62
256
6
ByLayer
370
-1
48
1
60
0
100
AcDbEllipse
10
74.083187
20
0.931786
30
0
11
0.0228891020462412
21
-0.329205238426603
31
0
210
0
220
0
230
1
40
0.196789
41
0.821693699627938
42
1.17075955002681
0
ELLIPSE
5
1BB
100
AcDbEntity
8
1
62
256
6
ByLayer
370
-1
48
1
60
0
100
AcDbEllipse
10
61.130808
20
6.45862
30
0
11
-0.258780387423265
21
0.11443692664297
31
0
210
0
220
0
230
1
40
0.908072
41
-2.23387201349526
42
-1.20181480593655
0
ELLIPSE
5
1BC
100
AcDbEntity
8
1
62
256
6
ByLayer
370
-1
48
1
60
0
100
AcDbEllipse
10
72.486422
20
14.050034
30
0
11
-8.72483686034827E-17
21
-0.474973683481517
31
0
210
0
220
0
230
1
40
0.999867
41
-0.527962367847744
42
-0.342808422144799
0
ELLIPSE
5
1BD
100
AcDbEntity
8
1
62
256
6
ByLayer
370
-1
48
1
60
0
100
AcDbEllipse
10
61.81273
20
5.509661
30
0
11
0.14968273677363
21
-0.00975081083585148
31
0
210
0
220
0
230
1
40
0.965789
41
2.7844748439749
42
-2.5551621445944
0
ELLIPSE
5
1BE
100
AcDbEntity
8
1
62
256
6
ByLayer
370
-1
48
1
60
0
100
AcDbEllipse
10
61.331883
20
8.316473
30
0
11
0.399549493414227
21
-0.256827183748984
31
0
210
0
220
0
230
1
40
0.895737
41
0.539860963578062
42
0.725014990594925
0
ELLIPSE
5
1BF
100
AcDbEntity
8
1
62
256
6
ByLayer
370
-1
48
1
60
0
100
AcDbEllipse
10
65.994854
20
4.762567
30
0
11
-0.0958560929374908
21
0.0284887600073982
31
0
210
0
220
0
230
1
40
0.253281
41
-2.21133165606108
42
-1.51319995526337
0
ELLIPSE
5
1C0
100
AcDbEntity
8
1
62
256
6
ByLayer
370
-1
48
1
60
0
100
AcDbEllipse
10
68.642136
20
8.144382
30
0
11
4.10006811551188
21
-0.267091512823712
31
0
210
0
220
0
230
1
40
0.965789
41
2.50823203291124
42
-1.89387637555873
0
ELLIPSE
5
1C1
100
AcDbEntity
8
1
62
256
6
ByLayer
370
-1
48
1
60
0
100
AcDbEllipse
10
66.174039
20
11.588172
30
0
11
0.0979149386742306
21
-0.0203141523185603
31
0
210
0
220
0
230
1
40
0.345321
41
-1.97479424910701
42
-1.05418848868938
0
ELLIPSE
5
1C2
100
AcDbEntity
8
1
62
256
6
ByLayer
370
-1
48
1
60
0
100
AcDbEllipse
10
72.965881
20
16.128363
30
0
11
-0.544617036839381
21
0.95303431414189
31
0
210
0
220
0
230
1
40
0.300606
41
-0.171816899556563
42
0.171892603085929
0
ELLIPSE
5
1C3
100
AcDbEntity
8
1
62
256
6
ByLayer
370
-1
48
1
60
0
100
AcDbEllipse
10
74.657933
20
0.67451
30
0
11
-0.172351874608103
21
-0.0595109321308763
31
0
210
0
220
0
230
1
40
0.911082
41
2.31546043530856
42
-2.9356676643093
0
ELLIPSE
5
1C4
100
AcDbEntity
8
1
62
256
6
ByLayer
370
-1
48
1
60
0
100
AcDbEllipse
10
73.366693
20
10.969587
30
0
11
-0.0199615886194364
21
-0.0979874225591652
31
0
210
0
220
0
230
1
40
0.263837
41
1.19918326569064
42
2.44553736421485
0
ELLIPSE
5
1C5
100
AcDbEntity
8
1
62
256
6
ByLayer
370
-1
48
1
60
0
100
AcDbEllipse
10
68.644698
20
8.183702
30
0
11
4.2976640911509
21
-0.279963544842311
31
0
210
0
220
0
230
1
40
0.965789
41
0.501987376021168
42
2.20676338372455
0
ELLIPSE
5
1C6
100
AcDbEntity
8
1
62
256
6
ByLayer
370
-1
48
1
60
0
100
AcDbEllipse
10
67.233916
20
1.933945
30
0
11
-0.265376290421179
21
0.158404081874056
31
0
210
0
220
0
230
1
40
0.225571
41
1.68574732072994
42
2.38387902159873
0
ELLIPSE
5
1C7
100
AcDbEntity
8
1
62
256
6
ByLayer
370
-1
48
1
60
0
100
AcDbEllipse
10
72.092586
20
1.82834
30
0
11
0.415683519992503
21
0.229798196700155
31
0
210
0
220
0
230
1
40
0.903036
41
1.61852256279753
42
1.80367658981441
0
ELLIPSE
5
1C8
100
AcDbEntity
8
1
62
256
6
ByLayer
370
-1
48
1
60
0
100
AcDbEllipse
10
74.083187
20
0.931786
30
0
11
-0.126989212138556
21
-0.304587819849102
31
0
210
0
220
0
230
1
40
0.517188
41
0.995236925882992
42
1.59665632219384
0
ELLIPSE
5
1C9
100
AcDbEntity
8
1
62
256
6
ByLayer
370
-1
48
1
60
0
100
AcDbEllipse
10
58.699876
20
5.758569
30
0
11
-0.179619284128355
21
0.0117009730030219
31
0
210
0
220
0
230
1
40
0.965789
41
1.24127538513916E-05
42
0.586430508995376
0
ELLIPSE
5
1CA
100
AcDbEntity
8
1
62
256
6
ByLayer
370
-1
48
1
60
0
100
AcDbEllipse
10
65.994854
20
4.762567
30
0
11
0.0547579975359957
21
0.0836753351104607
31
0
210
0
220
0
230
1
40
0.55269
41
-1.1963194040445
42
-0.045338511355519
0
ELLIPSE
5
1CB
100
AcDbEntity
8
1
62
256
6
ByLayer
370
-1
48
1
60
0
100
AcDbEllipse
10
66.634392
20
4.401502
30
0
11
0.0432175552695922
21
0.0901789494090486
31
0
210
0
220
0
230
1
40
0.584145
41
-1.27177429465429
42
-0.025079945496618
0
ELLIPSE
5
1CC
100
AcDbEntity
8
1
62
256
6
ByLayer
370
-1
48
1
60
0
100
AcDbEllipse
10
74.304112
20
3.306098
30
0
11
-0.268102916058783
21
-0.0925725610889106
31
0
210
0
220
0
230
1
40
0.911082
41
-1.76968053687728
42
-0.826132218268141
0
ELLIPSE
5
1CD
100
AcDbEntity
8
1
62
256
6
ByLayer
370
-1
48
1
60
0
100
AcDbEllipse
10
69.865899
20
15.58676
30
0
11
-1.57184475947552
21
0.930409855255826
31
0
210
0
220
0
230
1
40
0.547448
41
2.65024660307652
42
-3.13800457777225
0
ELLIPSE
5
1CE
100
AcDbEntity
8
1
62
256
6
ByLayer
370
-1
48
1
60
0
100
AcDbEllipse
10
74.352778
20
2.429674
30
0
11
-0.14968273677363
21
0.00975081083585166
31
0
210
0
220
0
230
1
40
0.965789
41
1.7372772927783
42
2.68082561138857
0
ELLIPSE
5
1CF
100
AcDbEntity
8
1
62
256
6
ByLayer
370
-1
48
1
60
0
100
AcDbEllipse
10
61.522454
20
5.605725
30
0
11
-0.265039761361909
21
1.44723866132001
31
0
210
0
220
0
230
1
40
0.431256
41
-0.667803726057738
42
-0.114131128122813
0
ELLIPSE
5
1D0
100
AcDbEntity
8
1
62
256
6
ByLayer
370
-1
48
1
60
0
100
AcDbEllipse
10
75.148898
20
15.563706
30
0
11
-1.61585849399434
21
-0.91058983128019
31
0
210
0
220
0
230
1
40
0.539126
41
0.00323700127669282
42
0.498171127619104
0
ELLIPSE
5
1D1
100
AcDbEntity
8
1
62
256
6
ByLayer
370
-1
48
1
60
0
100
AcDbEllipse
10
59.369235
20
7.43717
30
0
11
-0.126714333577787
21
0.304702277093456
31
0
210
0
220
0
230
1
40
0.542683
41
1.5301735637399
42
2.13159296005074
0
ELLIPSE
5
1D2
100
AcDbEntity
8
1
62
256
6
ByLayer
370
-1
48
1
60
0
100
AcDbEllipse
10
65.732082
20
13.63145
30
0
11
-0.864291952863833
21
-0.487203822445898
31
0
210
0
220
0
230
1
40
0.109716
41
1.60909175040606
42
1.76109310652532
0
ELLIPSE
5
1D3
100
AcDbEntity
8
1
62
256
6
ByLayer
370
-1
48
1
60
0
100
AcDbEllipse
10
58.770957
20
5.639321
30
0
11
-0.179619284128355
21
0.0117009730030219
31
0
210
0
220
0
230
1
40
0.965789
41
0.586430508995359
42
1.61848771655674
0
ELLIPSE
5
1D4
100
AcDbEntity
8
1
62
256
6
ByLayer
370
-1
48
1
60
0
100
AcDbEllipse
10
73.187891
20
7.868345
30
0
11
-0.0982881971808927
21
-0.0184236341401461
31
0
210
0
220
0
230
1
40
0.813931
41
-1.57830801723329
42
-0.427327124544469
0
ELLIPSE
5
1D5
100
AcDbEntity
8
1
62
256
6
ByLayer
370
-1
48
1
60
0
100
AcDbEllipse
10
72.025101
20
16.132469
30
0
11
-0.552912620694759
21
-0.948244983096742
31
0
210
0
220
0
230
1
40
0.300607
41
2.96969985928306
42
-2.96977594530177
0
ELLIPSE
5
1D6
100
AcDbEntity
8
1
62
256
6
ByLayer
370
-1
48
1
60
0
100
AcDbEllipse
10
63.908863
20
10.956782
30
0
11
0.0999993939957406
21
0.000348138599752045
31
0
210
0
220
0
230
1
40
0.258763
41
1.55303667234222
42
2.21539790335847
0
ELLIPSE
5
1D7
100
AcDbEntity
8
1
62
256
6
ByLayer
370
-1
48
1
60
0
100
AcDbEllipse
10
71.444934
20
14.659432
30
0
11
-0.285075263893942
21
0.166229040530827
31
0
210
0
220
0
230
1
40
0.008173
41
1.20764539343728
42
1.55671124383614
0
ELLIPSE
5
1D8
100
AcDbEntity
8
1
62
256
6
ByLayer
370
-1
48
1
60
0
100
AcDbEllipse
10
59.365687
20
7.88744
30
0
11
-0.516198644158773
21
-0.836897355268675
31
0
210
0
220
0
230
1
40
0.335597
41
-0.173211637445541
42
0.170497865185074
0
ELLIPSE
5
1D9
100
AcDbEntity
8
1
62
256
6
ByLayer
370
-1
48
1
60
0
100
AcDbEllipse
10
73.081272
20
2.537534
30
0
11
0.279970847001598
21
0.17468922356347
31
0
210
0
220
0
230
1
40
0.429075
41
-1.59348664827043
42
-1.24442079787166
0
ELLIPSE
5
1DA
100
AcDbEntity
8
1
62
256
6
ByLayer
370
-1
48
1
60
0
100
AcDbEllipse
10
75.241826
20
15.619724
30
0
11
-1.60927738860716
21
-0.912731624526923
31
0
210
0
220
0
230
1
40
0.36213
41
0.00117663263467909
42
0.554849230575352
0
ELLIPSE
5
1DB
100
AcDbEntity
8
1
62
256
6
ByLayer
370
-1
48
1
60
0
100
AcDbEllipse
10
58.994192
20
7.281203
30
0
11
-0.126714333577787
21
0.304702277093456
31
0
210
0
220
0
230
1
40
0.542683
41
1.5301735637399
42
2.13159296005076
0
ELLIPSE
5
1DC
100
AcDbEntity
8
1
62
256
6
ByLayer
370
-1
48
1
60
0
100
AcDbEllipse
10
65.030632
20
10.622534
30
0
11
-0.0507632715683035
21
0.0861573575481669
31
0
210
0
220
0
230
1
40
0.763003
41
-2.51341054349645
42
-1.26671619433892
0
ELLIPSE
5
1DD
100
AcDbEntity
8
1
62
256
6
ByLayer
370
-1
48
1
60
0
100
AcDbEllipse
10
61.595089
20
5.826017
30
0
11
-0.583057170087404
21
1.27541913775119
31
0
210
0
220
0
230
1
40
0.64451
41
-0.839036356550527
42
-0.344102230203903
0
ELLIPSE
5
1DE
100
AcDbEntity
8
1
62
256
6
ByLayer
370
-1
48
1
60
0
100
AcDbEllipse
10
72.619044
20
9.77469
30
0
11
0.0954546455837809
21
-0.0298062180840638
31
0
210
0
220
0
230
1
40
0.35045
41
-2.20612640341617
42
-1.28552064299846
0
ELLIPSE
5
1DF
100
AcDbEntity
8
1
62
256
6
ByLayer
370
-1
48
1
60
0
100
AcDbEllipse
10
68.421902
20
9.103809
30
0
11
-0.604154189338931
21
5.19685805347351
31
0
210
0
220
0
230
1
40
0.821814
41
-1.50759773051214
42
-1.3530976166833
0
ELLIPSE
5
1E0
100
AcDbEntity
8
1
62
256
6
ByLayer
370
-1
48
1
60
0
100
AcDbEllipse
10
73.606546
20
0.597031
30
0
11
-1.07340655729113
21
-0.0824096342416225
31
0
210
0
220
0
230
1
40
0.282244
41
2.94420850451881
42
-2.99526729994583
0
ELLIPSE
5
1E1
100
AcDbEntity
8
1
62
256
6
ByLayer
370
-1
48
1
60
0
100
AcDbEllipse
10
60.962813
20
10.588605
30
0
11
-0.249471227956048
21
0.016251351393086
31
0
210
0
220
0
230
1
40
0.965789
41
-0.984365817799562
42
-0.445626698566058
0
ELLIPSE
5
1E2
100
AcDbEntity
8
1
62
256
6
ByLayer
370
-1
48
1
60
0
100
AcDbEllipse
10
66.779066
20
12.345677
30
0
11
0.0708780682604652
21
0.0705428907804666
31
0
210
0
220
0
230
1
40
0.174867
41
1.37504757025783
42
2.07317927105561
0
ELLIPSE
5
1E3
100
AcDbEntity
8
1
62
256
6
ByLayer
370
-1
48
1
60
0
100
AcDbEllipse
10
70.435137
20
0.232896
30
0
11
-0.582417293570872
21
-0.00825595438603116
31
0
210
0
220
0
230
1
40
0.221947
41
1.55317737637671
42
1.81497676410545
0
ELLIPSE
5
1E4
100
AcDbEntity
8
1
62
256
6
ByLayer
370
-1
48
1
60
0
100
AcDbEllipse
10
68.873305
20
7.352802
30
0
11
-4.33849575548275
21
-0.296375940049998
31
0
210
0
220
0
230
1
40
0.768938
41
-3.05139111314024
42
-2.89689099939411
0
ELLIPSE
5
1E5
100
AcDbEntity
8
1
62
256
6
ByLayer
370
-1
48
1
60
0
100
AcDbEllipse
10
68.686255
20
3.05022
30
0
11
-0.0487095877782258
21
0.087334850194383
31
0
210
0
220
0
230
1
40
0.144237
41
-2.01360218651864
42
-1.3512409555031
0
ELLIPSE
5
1E6
100
AcDbEntity
8
1
62
256
6
ByLayer
370
-1
48
1
60
0
100
AcDbEllipse
10
68.655623
20
8.351408
30
0
11
-4.54751380776249
21
0.296239552193486
31
0
210
0
220
0
230
1
40
0.965789
41
-0.396142662677513
42
1.01049832003003
0
ELLIPSE
5
1E7
100
AcDbEntity
8
1
62
256
6
ByLayer
370
-1
48
1
60
0
100
AcDbEllipse
10
68.686255
20
3.05022
30
0
11
-0.0812262492906413
21
0.0583292073165288
31
0
210
0
220
0
230
1
40
0.07169
41
0.783633597425193
42
2.02998769594973
0
ELLIPSE
5
1E8
100
AcDbEntity
8
1
62
256
6
ByLayer
370
-1
48
1
60
0
100
AcDbEllipse
10
59.836077
20
7.098298
30
0
11
-1.06504162421178
21
0.0931122960198703
31
0
210
0
220
0
230
1
40
0.283884
41
-0.141795648292709
42
0.201913854329184
0
ELLIPSE
5
1E9
100
AcDbEntity
8
1
62
256
6
ByLayer
370
-1
48
1
60
0
100
AcDbEllipse
10
62.289439
20
4.903105
30
0
11
-0.249471227956048
21
0.016251351393086
31
0
210
0
220
0
230
1
40
0.965789
41
0.586430508995385
42
1.11002928459365
0
ELLIPSE
5
1EA
100
AcDbEntity
8
1
62
256
6
ByLayer
370
-1
48
1
60
0
100
AcDbEllipse
10
73.868232
20
8.029248
30
0
11
-0.0857796381938934
21
0.0513989656639582
31
0
210
0
220
0
230
1
40
0.232285
41
-2.41189662828133
42
-1.4519661042433
0
ELLIPSE
5
1EB
100
AcDbEntity
8
1
62
256
6
ByLayer
370
-1
48
1
60
0
100
AcDbEllipse
10
72.62923
20
9.968024
30
0
11
0.0985972254288729
21
0.0166909298041786
31
0
210
0
220
0
230
1
40
0.429396
41
-2.71887550086202
42
-1.47218115170453
0
ELLIPSE
5
1EC
100
AcDbEntity
8
1
62
256
6
ByLayer
370
-1
48
1
60
0
100
AcDbEllipse
10
68.948193
20
3.931563
30
0
11
0.00567656357082302
21
-0.0998387531273624
31
0
210
0
220
0
230
1
40
0.637655
41
-3.13964271937677
42
-1.98866182668762
0
ELLIPSE
5
1ED
100
AcDbEntity
8
1
62
256
6
ByLayer
370
-1
48
1
60
0
100
AcDbEllipse
10
72.444621
20
10.751515
30
0
11
0.0956639397167036
21
0.0291274893850963
31
0
210
0
220
0
230
1
40
0.436783
41
-2.67860132214446
42
-1.52762042945545
0
ELLIPSE
5
1EE
100
AcDbEntity
8
1
62
256
6
ByLayer
370
-1
48
1
60
0
100
AcDbEllipse
10
58.994192
20
7.281203
30
0
11
0.281372755724303
21
-0.172422076127484
31
0
210
0
220
0
230
1
40
0.693246
41
-1.75268259560065
42
-1.40897309296317
0
ELLIPSE
5
1EF
100
AcDbEntity
8
1
62
256
6
ByLayer
370
-1
48
1
60
0
100
AcDbEllipse
10
70.855131
20
15.282299
30
0
11
-0.00126245041331381
21
-0.289874581262057
31
0
210
0
220
0
230
1
40
0.965798
41
-8.31094829894961E-06
42
1.0320488966053
0
ELLIPSE
5
1F0
100
AcDbEntity
8
1
62
256
6
ByLayer
370
-1
48
1
60
0
100
AcDbEllipse
10
72.486422
20
14.050034
30
0
11
-8.72483686034827E-17
21
-0.474973683481517
31
0
210
0
220
0
230
1
40
0.999867
41
0.334081072645949
42
0.51923518006932
0
ELLIPSE
5
1F1
100
AcDbEntity
8
1
62
256
6
ByLayer
370
-1
48
1
60
0
100
AcDbEllipse
10
74.656306
20
3.129419
30
0
11
0.249471227956048
21
-0.0162513513930857
31
0
210
0
220
0
230
1
40
0.965789
41
-0.460767042201282
42
-1.31917328612996E-06
0
ELLIPSE
5
1F2
100
AcDbEntity
8
1
62
256
6
ByLayer
370
-1
48
1
60
0
100
AcDbEllipse
10
61.045674
20
5.151745
30
0
11
0.279407775310774
21
-0.018201513560256
31
0
210
0
220
0
230
1
40
0.965789
41
0.586430508995336
42
1.61848771655677
0
ELLIPSE
5
1F3
100
AcDbEntity
8
1
62
256
6
ByLayer
370
-1
48
1
60
0
100
AcDbEllipse
10
68.642136
20
8.144382
30
0
11
4.10006811551188
21
-0.267091512823712
31
0
210
0
220
0
230
1
40
0.965789
41
-1.68055817187516
42
0.200518726834472
0
ELLIPSE
5
1F4
100
AcDbEntity
8
1
62
256
6
ByLayer
370
-1
48
1
60
0
100
AcDbEllipse
10
64.492066
20
13.005103
30
0
11
-0.265718234488888
21
-0.15769620056128
31
0
210
0
220
0
230
1
40
0.209851
41
1.4280059296304
42
2.12613763040466
0
ELLIPSE
5
1F5
100
AcDbEntity
8
1
62
256
6
ByLayer
370
-1
48
1
60
0
100
AcDbEllipse
10
66.291966
20
12.834923
30
0
11
-0.000436584477021716
21
-0.0999990469654308
31
0
210
0
220
0
230
1
40
0.016283
41
1.8326312799601
42
2.79266553850445
0
ELLIPSE
5
1F6
100
AcDbEntity
8
1
62
256
6
ByLayer
370
-1
48
1
60
0
100
AcDbEllipse
10
69.318713
20
8.851466
30
0
11
-2.43799138209512
21
-4.53481699202328
31
0
210
0
220
0
230
1
40
0.8148
41
-1.93488722074985
42
-1.7803871069729
0
ELLIPSE
5
1F7
100
AcDbEntity
8
1
62
256
6
ByLayer
370
-1
48
1
60
0
100
AcDbEllipse
10
73.54001
20
14.65029
30
0
11
-0.286515006649985
21
-0.163735002257791
31
0
210
0
220
0
230
1
40
0.008111
41
-1.90574157045837
42
-1.55667572005952
0
ELLIPSE
5
1F8
100
AcDbEntity
8
1
62
256
6
ByLayer
370
-1
48
1
60
0
100
AcDbEllipse
10
68.642136
20
8.144382
30
0
11
4.10006811551188
21
-0.267091512823712
31
0
210
0
220
0
230
1
40
0.965789
41
0.413836930518051
42
2.29491382922766
0
ELLIPSE
5
1F9
100
AcDbEntity
8
1
62
256
6
ByLayer
370
-1
48
1
60
0
100
AcDbEllipse
10
73.187891
20
7.868345
30
0
11
0.0230153731571416
21
-0.0973154283679496
31
0
210
0
220
0
230
1
40
0.078414
41
1.82136525560606
42
2.51949695640455
0
ELLIPSE
5
1FA
100
AcDbEntity
8
1
62
256
6
ByLayer
370
-1
48
1
60
0
100
AcDbEllipse
10
73.366693
20
10.969587
30
0
11
-0.0487137874010209
21
-0.087332507790903
31
0
210
0
220
0
230
1
40
0.114526
41
-2.46956670010893
42
-1.80720546909257
0
ELLIPSE
5
1FB
100
AcDbEntity
8
1
62
256
6
ByLayer
370
-1
48
1
60
0
100
AcDbEllipse
10
67.750792
20
8.480648
30
0
11
-3.13488377182453
21
3.80381729326297
31
0
210
0
220
0
230
1
40
0.79904
41
1.94259276763609
42
2.09709288157388
0
ELLIPSE
5
1FC
100
AcDbEntity
8
1
62
256
6
ByLayer
370
-1
48
1
60
0
100
AcDbEllipse
10
69.544414
20
7.975963
30
0
11
-4.0584463504542
21
-2.43156034254317
31
0
210
0
220
0
230
1
40
0.787277
41
0.828678259282436
42
0.983178373100648
0
ELLIPSE
5
1FD
100
AcDbEntity
8
1
62
256
6
ByLayer
370
-1
48
1
60
0
100
AcDbEllipse
10
74.083187
20
0.931786
30
0
11
-0.279970847001598
21
-0.17468922356347
31
0
210
0
220
0
230
1
40
0.429075
41
1.54810600531932
42
1.89717185571818
0
ELLIPSE
5
1FE
100
AcDbEntity
8
1
62
256
6
ByLayer
370
-1
48
1
60
0
100
AcDbEllipse
10
60.648008
20
10.655153
30
0
11
-0.279352526504125
21
-0.50630192452063
31
0
210
0
220
0
230
1
40
0.097362
41
1.10461713478579
42
1.36641652301674
0
ELLIPSE
5
1FF
100
AcDbEntity
8
1
62
256
6
ByLayer
370
-1
48
1
60
0
100
AcDbEllipse
10
68.272922
20
3.940455
30
0
11
-0.00853973049228725
21
-0.0996346977870616
31
0
210
0
220
0
230
1
40
0.669438
41
3.14095818968465
42
-1.89553276833751
0
ELLIPSE
5
200
100
AcDbEntity
8
1
62
256
6
ByLayer
370
-1
48
1
60
0
100
AcDbEllipse
10
65.801585
20
4.112277
30
0
11
0.0858976949098989
21
0.051201425850907
31
0
210
0
220
0
230
1
40
0.216002
41
1.42328114305128
42
2.38321166708983
0
ELLIPSE
5
201
100
AcDbEntity
8
1
62
256
6
ByLayer
370
-1
48
1
60
0
100
AcDbEllipse
10
72.570623
20
17.058603
30
0
11
-0.000811575282290258
21
-0.186347945094402
31
0
210
0
220
0
230
1
40
0.965798
41
2.10952713516518
42
3.14158434272715
0
ELLIPSE
5
202
100
AcDbEntity
8
1
62
256
6
ByLayer
370
-1
48
1
60
0
100
AcDbEllipse
10
71.934377
20
-0.880886
30
0
11
-0.227220612835367
21
-1.44656572794414
31
0
210
0
220
0
230
1
40
0.43949
41
-3.04124088535742
42
-2.48756828742008
0
ELLIPSE
5
203
100
AcDbEntity
8
1
62
256
6
ByLayer
370
-1
48
1
60
0
100
AcDbEllipse
10
74.992245
20
7.838284
30
0
11
-0.00111919060942931
21
-0.974553555438518
31
0
210
0
220
0
230
1
40
0.008572
41
-1.32782564134075
42
-1.17582427387634
0
ELLIPSE
5
204
100
AcDbEntity
8
1
62
256
6
ByLayer
370
-1
48
1
60
0
100
AcDbEllipse
10
74.512848
20
3.748414
30
0
11
-1.29043711982631
21
-1.42217758511544
31
0
210
0
220
0
230
1
40
0.456317
41
-0.623501505451814
42
-0.128567379113698
0
ELLIPSE
5
205
100
AcDbEntity
8
1
62
256
6
ByLayer
370
-1
48
1
60
0
100
AcDbEllipse
10
72.503876
20
16.945253
30
0
11
-0.284336360926133
21
0.167489802242655
31
0
210
0
220
0
230
1
40
0.292792
41
-1.72792088717711
42
-1.38421138453961
0
ELLIPSE
5
206
100
AcDbEntity
8
1
62
256
6
ByLayer
370
-1
48
1
60
0
100
AcDbEllipse
10
71.909697
20
2.159169
30
0
11
0.999907495776651
21
-0.0136014664528177
31
0
210
0
220
0
230
1
40
0.381837
41
-1.85116519385433
42
-1.35623106751345
0
ELLIPSE
5
207
100
AcDbEntity
8
1
62
256
6
ByLayer
370
-1
48
1
60
0
100
AcDbEllipse
10
60.355314
20
9.034243
30
0
11
0.280790684040502
21
-0.173368370114237
31
0
210
0
220
0
230
1
40
0.444526
41
-1.92793313288269
42
-1.57886728248385
0
ELLIPSE
5
208
100
AcDbEntity
8
1
62
256
6
ByLayer
370
-1
48
1
60
0
100
AcDbEllipse
10
73.94098
20
2.700065
30
0
11
-0.268102916068477
21
-0.0925725610819228
31
0
210
0
220
0
230
1
40
0.911082
41
-0.826132218225783
42
0.205924989321669
0
ELLIPSE
5
209
100
AcDbEntity
8
1
62
256
6
ByLayer
370
-1
48
1
60
0
100
AcDbEllipse
10
73.868232
20
8.029248
30
0
11
-0.0608646153200683
21
0.0793441781225322
31
0
210
0
220
0
230
1
40
0.541944
41
-2.26034275480972
42
-0.763231835583693
0
ELLIPSE
5
20A
100
AcDbEntity
8
1
62
256
6
ByLayer
370
-1
48
1
60
0
100
AcDbEllipse
10
69.658714
20
13.537953
30
0
11
-0.0292331445442565
21
-0.202904961151901
31
0
210
0
220
0
230
1
40
0.020928
41
0.385484365992845
42
1.30928422556717
0
ELLIPSE
5
20B
100
AcDbEntity
8
1
62
256
6
ByLayer
370
-1
48
1
60
0
100
AcDbEllipse
10
61.402852
20
7.276857
30
0
11
-0.0259338634078556
21
-0.328979383440274
31
0
210
0
220
0
230
1
40
0.228524
41
-1.16829399898114
42
-0.819228148582173
0
ELLIPSE
5
20C
100
AcDbEntity
8
1
62
256
6
ByLayer
370
-1
48
1
60
0
100
AcDbEllipse
10
66.291993
20
12.835064
30
0
11
0.0708780682604652
21
0.0705428907804666
31
0
210
0
220
0
230
1
40
0.174867
41
1.37504757025797
42
2.07317927105591
0
ELLIPSE
5
20D
100
AcDbEntity
8
1
62
256
6
ByLayer
370
-1
48
1
60
0
100
AcDbEllipse
10
74.565016
20
-0.751838
30
0
11
-0.179619284128355
21
0.0117009730030219
31
0
210
0
220
0
230
1
40
0.965789
41
2.68082561138853
42
-3.1415757953315
0
ELLIPSE
5
20E
100
AcDbEntity
8
1
62
256
6
ByLayer
370
-1
48
1
60
0
100
AcDbEllipse
10
68.655623
20
8.351408
30
0
11
-4.54751380776249
21
0.296239552193486
31
0
210
0
220
0
230
1
40
0.965789
41
-2.49053776507071
42
-1.08389678236317
0
ELLIPSE
5
20F
100
AcDbEntity
8
1
62
256
6
ByLayer
370
-1
48
1
60
0
100
AcDbEllipse
10
68.686255
20
3.05022
30
0
11
-0.0958560929374908
21
0.0284887600073982
31
0
210
0
220
0
230
1
40
0.253281
41
-1.51319995526337
42
-0.815068254465572
0
ELLIPSE
5
210
100
AcDbEntity
8
1
62
256
6
ByLayer
370
-1
48
1
60
0
100
AcDbEllipse
10
68.644698
20
8.183702
30
0
11
4.2976640911509
21
-0.279963544842311
31
0
210
0
220
0
230
1
40
0.965789
41
2.59638247841436
42
-1.98202682106185
0
ELLIPSE
5
211
100
AcDbEntity
8
1
62
256
6
ByLayer
370
-1
48
1
60
0
100
AcDbEllipse
10
64.568997
20
10.293512
30
0
11
-0.0651215289258276
21
0.0758893040577037
31
0
210
0
220
0
230
1
40
0.780226
41
-2.55424845409715
42
-1.40326756140837
0
ELLIPSE
5
212
100
AcDbEntity
8
1
62
256
6
ByLayer
370
-1
48
1
60
0
100
AcDbEllipse
10
59.369235
20
7.43717
30
0
11
-0.280790684040502
21
0.173368370114237
31
0
210
0
220
0
230
1
40
0.444526
41
1.21365952070708
42
1.56272537110596
0
ELLIPSE
5
213
100
AcDbEntity
8
1
62
256
6
ByLayer
370
-1
48
1
60
0
100
AcDbEllipse
10
72.428461
20
17.059223
30
0
11
-0.000811575301691296
21
-0.186347945092249
31
0
210
0
220
0
230
1
40
0.965798
41
3.14158434282719
42
-2.10954375678369
0
ELLIPSE
5
214
100
AcDbEntity
8
1
62
256
6
ByLayer
370
-1
48
1
60
0
100
AcDbEllipse
10
68.637736
20
8.076836
30
0
11
-3.88256335396392
21
0.252922558998677
31
0
210
0
220
0
230
1
40
0.965789
41
0
42
6.28318530717959
0
ELLIPSE
5
215
100
AcDbEntity
8
1
62
256
6
ByLayer
370
-1
48
1
60
0
100
AcDbEllipse
10
66.291993
20
12.835064
30
0
11
-0.0179120008964663
21
-0.0983827231981561
31
0
210
0
220
0
230
1
40
0.4212
41
-2.75501963653181
42
-1.25790871730576
0
ELLIPSE
5
216
100
AcDbEntity
8
1
62
256
6
ByLayer
370
-1
48
1
60
0
100
AcDbEllipse
10
66.779066
20
12.345677
30
0
11
0.0700747408760522
21
-0.0713409468058431
31
0
210
0
220
0
230
1
40
0.488042
41
-1.72145260277957
42
-0.570471710090507
0
ELLIPSE
5
217
100
AcDbEntity
8
1
62
256
6
ByLayer
370
-1
48
1
60
0
100
AcDbEllipse
10
71.871348
20
-0.660002
30
0
11
-0.527063859937644
21
-1.27928803839369
31
0
210
0
220
0
230
1
40
0.668877
41
-2.82142075037225
42
-2.32648662403715
0
ELLIPSE
5
218
100
AcDbEntity
8
1
62
256
6
ByLayer
370
-1
48
1
60
0
100
AcDbEllipse
10
58.863874
20
7.06567
30
0
11
-0.16635882048463
21
0.0735665956999023
31
0
210
0
220
0
230
1
40
0.908072
41
0.907720640098408
42
1.93977784766496
0
ELLIPSE
5
219
100
AcDbEntity
8
1
62
256
6
ByLayer
370
-1
48
1
60
0
100
AcDbEllipse
10
72.50039
20
16.469491
30
0
11
0.329991143274648
21
-0.00241771799246346
31
0
210
0
220
0
230
1
40
0.178986
41
1.28663813431962
42
1.88805753063043
0
ELLIPSE
5
21A
100
AcDbEntity
8
1
62
256
6
ByLayer
370
-1
48
1
60
0
100
AcDbEllipse
10
74.465201
20
0.772516
30
0
11
-0.066076801149977
21
0.323316959576491
31
0
210
0
220
0
230
1
40
0.459163
41
-2.18695112938441
42
-1.84324162674705
0
ELLIPSE
5
21B
100
AcDbEntity
8
1
62
256
6
ByLayer
370
-1
48
1
60
0
100
AcDbEllipse
10
73.02147
20
4.481203
30
0
11
-0.158650194184111
21
0.129827254016035
31
0
210
0
220
0
230
1
40
0.21339
41
0.798415796495277
42
1.72221565606936
0
ELLIPSE
5
21C
100
AcDbEntity
8
1
62
256
6
ByLayer
370
-1
48
1
60
0
100
AcDbEllipse
10
74.437202
20
3.725647
30
0
11
0.14968273677363
21
-0.00975081083585148
31
0
210
0
220
0
230
1
40
0.965789
41
-1.40431536081149
42
-0.46076704220122
0
ELLIPSE
5
21D
100
AcDbEntity
8
1
62
256
6
ByLayer
370
-1
48
1
60
0
100
AcDbEllipse
10
74.465201
20
0.772516
30
0
11
-0.126989212138556
21
-0.304587819849102
31
0
210
0
220
0
230
1
40
0.517188
41
0.99523692588304
42
1.59665632219384
0
ELLIPSE
5
21E
100
AcDbEntity
8
1
62
256
6
ByLayer
370
-1
48
1
60
0
100
AcDbEllipse
10
68.644698
20
8.183702
30
0
11
4.2976640911509
21
-0.279963544842311
31
0
210
0
220
0
230
1
40
0.965789
41
-1.5057306348793
42
0.112368281331357
0
ELLIPSE
5
21F
100
AcDbEntity
8
1
62
256
6
ByLayer
370
-1
48
1
60
0
100
AcDbEllipse
10
68.654373
20
8.332228
30
0
11
4.45112552696297
21
-0.289960512184408
31
0
210
0
220
0
230
1
40
0.965789
41
-1.44334021387412
42
-0.0366992311665706
0
ELLIPSE
5
220
100
AcDbEntity
8
1
62
256
6
ByLayer
370
-1
48
1
60
0
100
AcDbEllipse
10
63.908863
20
10.956782
30
0
11
0.0708780682604652
21
0.0705428907804666
31
0
210
0
220
0
230
1
40
0.174867
41
0.676915869460138
42
1.37504757025804
0
ELLIPSE
5
221
100
AcDbEntity
8
1
62
256
6
ByLayer
370
-1
48
1
60
0
100
AcDbEllipse
10
72.503876
20
16.945253
30
0
11
0.329991143274648
21
-0.00241771799246346
31
0
210
0
220
0
230
1
40
0.178986
41
1.28663813431971
42
1.88805753063056
0
ELLIPSE
5
222
100
AcDbEntity
8
1
62
256
6
ByLayer
370
-1
48
1
60
0
100
AcDbEllipse
10
72.50039
20
16.469491
30
0
11
0.286515006649985
21
0.163735002257791
31
0
210
0
220
0
230
1
40
0.008111
41
1.23585108313118
42
1.58491693353035
0
ELLIPSE
5
223
100
AcDbEntity
8
1
62
256
6
ByLayer
370
-1
48
1
60
0
100
AcDbEllipse
10
72.955036
20
8.471367
30
0
11
-0.0539255459961753
21
-0.0842142237927441
31
0
210
0
220
0
230
1
40
0.688948
41
-2.21177210580405
42
-1.2911663453864
0
ELLIPSE
5
224
100
AcDbEntity
8
1
62
256
6
ByLayer
370
-1
48
1
60
0
100
AcDbEllipse
10
74.076936
20
1.382068
30
0
11
-0.52589733057839
21
0.840574243544961
31
0
210
0
220
0
230
1
40
0.332731
41
2.96609454014676
42
-2.97338126441215
0
ELLIPSE
5
225
100
AcDbEntity
8
1
62
256
6
ByLayer
370
-1
48
1
60
0
100
AcDbEllipse
10
68.654373
20
8.332228
30
0
11
4.45112552696297
21
-0.289960512184408
31
0
210
0
220
0
230
1
40
0.965789
41
2.74544999091228
42
-2.13109433355976
0
ELLIPSE
5
226
100
AcDbEntity
8
1
62
256
6
ByLayer
370
-1
48
1
60
0
100
AcDbEllipse
10
63.908863
20
10.956782
30
0
11
0.0899600627285808
21
0.043671353469635
31
0
210
0
220
0
230
1
40
0.500954
41
0.793203073844546
42
2.03955717236925
0
ELLIPSE
5
227
100
AcDbEntity
8
1
62
256
6
ByLayer
370
-1
48
1
60
0
100
AcDbEllipse
10
61.543431
20
8.645581
30
0
11
0.999832204393133
21
0.0183183803423955
31
0
210
0
220
0
230
1
40
0.381356
41
-1.82059200983908
42
-1.3256578834982
0
ELLIPSE
5
228
100
AcDbEntity
8
1
62
256
6
ByLayer
370
-1
48
1
60
0
100
AcDbEllipse
10
61.543431
20
8.645581
30
0
11
-0.528408112215559
21
-0.848990498736464
31
0
210
0
220
0
230
1
40
0.00723
41
-1.60507211274059
42
-1.11013798639966
0
ELLIPSE
5
229
100
AcDbEntity
8
1
62
256
6
ByLayer
370
-1
48
1
60
0
100
AcDbEllipse
10
69.763364
20
15.643631
30
0
11
-1.57859169563199
21
0.928086496255101
31
0
210
0
220
0
230
1
40
0.365866
41
2.58923188493938
42
-3.14028082429774
0
ELLIPSE
5
22A
100
AcDbEntity
8
1
62
256
6
ByLayer
370
-1
48
1
60
0
100
AcDbEllipse
10
61.49394
20
5.849417
30
0
11
-0.258780387429994
21
0.114436926636256
31
0
210
0
220
0
230
1
40
0.908072
41
3.10576497504489
42
-2.2338720135322
0
ELLIPSE
5
22B
100
AcDbEntity
8
1
62
256
6
ByLayer
370
-1
48
1
60
0
100
AcDbEllipse
10
72.503876
20
16.945253
30
0
11
-0.287242785946366
21
-0.162454861182331
31
0
210
0
220
0
230
1
40
0.308322
41
-1.72780774762726
42
-1.38409824498981
0
ELLIPSE
5
22C
100
AcDbEntity
8
1
62
256
6
ByLayer
370
-1
48
1
60
0
100
AcDbEllipse
10
68.655623
20
8.351408
30
0
11
-4.54751380776249
21
0.296239552193486
31
0
210
0
220
0
230
1
40
0.965789
41
1.69825243971568
42
3.10489342242322
0
ELLIPSE
5
22D
100
AcDbEntity
8
1
62
256
6
ByLayer
370
-1
48
1
60
0
100
AcDbEllipse
10
72.033734
20
0.789291
30
0
11
-0.0228891020462414
21
0.329205238426603
31
0
210
0
220
0
230
1
40
0.196789
41
-2.31989895396151
42
-1.97083310356285
0
ELLIPSE
5
22E
100
AcDbEntity
8
1
62
256
6
ByLayer
370
-1
48
1
60
0
100
AcDbEllipse
10
63.23434
20
6.231549
30
0
11
0.189498421256489
21
0.0782006927162307
31
0
210
0
220
0
230
1
40
0.234319
41
-1.68534667150383
42
-0.761546811929952
0
ELLIPSE
5
22F
100
AcDbEntity
8
1
62
256
6
ByLayer
370
-1
48
1
60
0
100
AcDbEllipse
10
67.976494
20
7.605145
30
0
11
-4.13294894693401
21
1.69160889687511
31
0
210
0
220
0
230
1
40
0.774057
41
-0.531754762397013
42
-0.37725464845828
0
ELLIPSE
5
230
100
AcDbEntity
8
1
62
256
6
ByLayer
370
-1
48
1
60
0
100
AcDbEllipse
10
59.369235
20
7.43717
30
0
11
0.0259338634078553
21
0.328979383440274
31
0
210
0
220
0
230
1
40
0.228524
41
1.97329865460865
42
2.32236450500757
0
ELLIPSE
5
231
100
AcDbEntity
8
1
62
256
6
ByLayer
370
-1
48
1
60
0
100
AcDbEllipse
10
65.205116
20
3.009993
30
0
11
-0.864006649815205
21
0.493338505182326
31
0
210
0
220
0
230
1
40
0.117329
41
1.36615656565762
42
1.51815792203118
0
ELLIPSE
5
232
100
AcDbEntity
8
1
62
256
6
ByLayer
370
-1
48
1
60
0
100
AcDbEllipse
10
65.801585
20
4.112277
30
0
11
0.0978077096975352
21
0.0208243108822998
31
0
210
0
220
0
230
1
40
0.137251
41
-2.39665373048499
42
-0.899542811259054
0
ELLIPSE
5
233
100
AcDbEntity
8
1
62
256
6
ByLayer
370
-1
48
1
60
0
100
AcDbEllipse
10
68.948193
20
3.931563
30
0
11
-0.0958560929374908
21
0.0284887600073982
31
0
210
0
220
0
230
1
40
0.253281
41
-1.51319995526351
42
-0.815068254465584
0
ELLIPSE
5
234
100
AcDbEntity
8
1
62
256
6
ByLayer
370
-1
48
1
60
0
100
AcDbEllipse
10
73.187891
20
7.868345
30
0
11
-0.0994695119347518
21
0.010286699930603
31
0
210
0
220
0
230
1
40
0.259156
41
-1.56094448520727
42
-0.251947546211506
0
ELLIPSE
5
235
100
AcDbEntity
8
1
62
256
6
ByLayer
370
-1
48
1
60
0
100
AcDbEllipse
10
74.465201
20
0.772516
30
0
11
0.278332210312978
21
0.177288411077239
31
0
210
0
220
0
230
1
40
0.680704
41
-1.77063022710622
42
-1.4269207244687
0
ELLIPSE
5
236
100
AcDbEntity
8
1
62
256
6
ByLayer
370
-1
48
1
60
0
100
AcDbEllipse
10
70.128867
20
15.285468
30
0
11
-0.00126245044005094
21
-0.289874581258306
31
0
210
0
220
0
230
1
40
0.965798
41
-0.943556629469701
42
-8.3108595773211E-06
0
ELLIPSE
5
237
100
AcDbEntity
8
1
62
256
6
ByLayer
370
-1
48
1
60
0
100
AcDbEllipse
10
72.50039
20
16.469491
30
0
11
0.285075263893942
21
-0.166229040530827
31
0
210
0
220
0
230
1
40
0.008173
41
-1.93394726015252
42
-1.58488140975361
0
ELLIPSE
5
238
100
AcDbEntity
8
1
62
256
6
ByLayer
370
-1
48
1
60
0
100
AcDbEllipse
10
58.792793
20
7.184917
30
0
11
-0.166358820492277
21
0.0735665956932592
31
0
210
0
220
0
230
1
40
0.908072
41
-0.124336567505021
42
0.907720640045379
0
ELLIPSE
5
239
100
AcDbEntity
8
1
62
256
6
ByLayer
370
-1
48
1
60
0
100
AcDbEllipse
10
68.654373
20
8.332228
30
0
11
4.45112552696297
21
-0.289960512184408
31
0
210
0
220
0
230
1
40
0.965789
41
0.651054888519085
42
2.05769587122662
0
ELLIPSE
5
23A
100
AcDbEntity
8
1
62
256
6
ByLayer
370
-1
48
1
60
0
100
AcDbEllipse
10
74.992242
20
8.891472
30
0
11
-0.000230712323279534
21
0.125847657311609
31
0
210
0
220
0
230
1
40
0.01527
41
-2.24867562555976
42
-0.751563437865931
0
ELLIPSE
5
23B
100
AcDbEntity
8
1
62
256
6
ByLayer
370
-1
48
1
60
0
100
AcDbEllipse
10
72.444621
20
10.751515
30
0
11
0.0230153731571416
21
-0.0973154283679496
31
0
210
0
220
0
230
1
40
0.078414
41
1.12323355480941
42
1.82136525560562
0
ELLIPSE
5
23C
100
AcDbEntity
8
1
62
256
6
ByLayer
370
-1
48
1
60
0
100
AcDbEllipse
10
63.711374
20
12.573073
30
0
11
-0.265718234461574
21
-0.157696200542052
31
0
210
0
220
0
230
1
40
0.209851
41
0.729874228822532
42
1.42800592966216
0
ELLIPSE
5
23D
100
AcDbEntity
8
1
62
256
6
ByLayer
370
-1
48
1
60
0
100
AcDbEllipse
10
64.787907
20
13.108904
30
0
11
-0.118987856673438
21
-0.0786309206388393
31
0
210
0
220
0
230
1
40
0.157713
41
-2.59188708542769
42
-1.09477489713167
0
ELLIPSE
5
23E
100
AcDbEntity
8
1
62
256
6
ByLayer
370
-1
48
1
60
0
100
AcDbEllipse
10
74.218978
20
1.999223
30
0
11
0.279407775310774
21
-0.018201513560256
31
0
210
0
220
0
230
1
40
0.965789
41
1.73727729277828
42
2.68082561138857
0
ELLIPSE
5
23F
100
AcDbEntity
8
1
62
256
6
ByLayer
370
-1
48
1
60
0
100
AcDbEllipse
10
58.783223
20
10.201152
30
0
11
-1.38083284566975
21
1.25107401831211
31
0
210
0
220
0
230
1
40
0.317264
41
-3.08294399025302
42
-2.52927139231774
0
ELLIPSE
5
240
100
AcDbEntity
8
1
62
256
6
ByLayer
370
-1
48
1
60
0
100
AcDbEllipse
10
68.894621
20
15.07978
30
0
11
-0.249471227956048
21
0.016251351393086
31
0
210
0
220
0
230
1
40
0.965789
41
-1.50796459339786
42
-0.984365817799531
0
ELLIPSE
5
241
100
AcDbEntity
8
1
62
256
6
ByLayer
370
-1
48
1
60
0
100
AcDbEllipse
10
74.586852
20
0.555883
30
0
11
-0.172351874609419
21
-0.0595109321284609
31
0
210
0
220
0
230
1
40
0.911082
41
1.28340322776279
42
2.31546043532205
0
ELLIPSE
5
242
100
AcDbEntity
8
1
62
256
6
ByLayer
370
-1
48
1
60
0
100
AcDbEllipse
10
66.79701
20
4.368626
30
0
11
-0.010566516521853
21
0.09944017663195
31
0
210
0
220
0
230
1
40
0.630327
41
-1.61318641020176
42
-0.692580649783938
0
ELLIPSE
5
243
100
AcDbEntity
8
1
62
256
6
ByLayer
370
-1
48
1
60
0
100
AcDbEllipse
10
72.092586
20
1.82834
30
0
11
0.415683519992503
21
0.229798196700155
31
0
210
0
220
0
230
1
40
0.903036
41
2.48056608697722
42
2.66572011399414
0
ELLIPSE
5
244
100
AcDbEntity
8
1
62
256
6
ByLayer
370
-1
48
1
60
0
100
AcDbEllipse
10
72.500743
20
14.049961
30
0
11
-0.496266116573684
21
0.868170456500839
31
0
210
0
220
0
230
1
40
0.01412
41
1.56268445421824
42
2.05761858055945
0
ELLIPSE
5
245
100
AcDbEntity
8
1
62
256
6
ByLayer
370
-1
48
1
60
0
100
AcDbEllipse
10
68.132053
20
3.992974
30
0
11
-0.0639266674587917
21
-0.0768985122587757
31
0
210
0
220
0
230
1
40
0.706584
41
-2.3906679395727
42
-1.47006217915469
0
ELLIPSE
5
246
100
AcDbEntity
8
1
62
256
6
ByLayer
370
-1
48
1
60
0
100
AcDbEllipse
10
66.779066
20
12.345677
30
0
11
0.0396403037948589
21
-0.0918076593485059
31
0
210
0
220
0
230
1
40
0.121338
41
0.494801366205979
42
1.80379830520241
0
ELLIPSE
5
247
100
AcDbEntity
8
1
62
256
6
ByLayer
370
-1
48
1
60
0
100
AcDbEllipse
10
65.801585
20
4.112277
30
0
11
-0.0958560929374908
21
0.0284887600073982
31
0
210
0
220
0
230
1
40
0.253281
41
-2.21133165606126
42
-1.51319995526337
0
ELLIPSE
5
248
100
AcDbEntity
8
1
62
256
6
ByLayer
370
-1
48
1
60
0
100
AcDbEllipse
10
72.444621
20
10.751515
30
0
11
-0.0823717996793049
21
-0.0566999701727653
31
0
210
0
220
0
230
1
40
0.206283
41
-1.73211067073622
42
-0.423113731740528
0
ELLIPSE
5
249
100
AcDbEntity
8
1
62
256
6
ByLayer
370
-1
48
1
60
0
100
AcDbEllipse
10
72.500743
20
14.049961
30
0
11
-0.503823808310139
21
-0.863806442543623
31
0
210
0
220
0
230
1
40
0.014084
41
-1.56262291707331
42
-1.06768879073195
0
ELLIPSE
5
24A
100
AcDbEntity
8
1
62
256
6
ByLayer
370
-1
48
1
60
0
100
AcDbEllipse
10
74.846298
20
13.591678
30
0
11
-0.292057875163097
21
0.499869038811487
31
0
210
0
220
0
230
1
40
0.127536
41
1.49570946739039
42
1.75750885552658
0
ELLIPSE
5
24B
100
AcDbEntity
8
1
62
256
6
ByLayer
370
-1
48
1
60
0
100
AcDbEllipse
10
64.568997
20
10.293512
30
0
11
0.0708780682604652
21
0.0705428907804666
31
0
210
0
220
0
230
1
40
0.174867
41
0.676915869460465
42
1.37504757025811
0
ELLIPSE
5
24C
100
AcDbEntity
8
1
62
256
6
ByLayer
370
-1
48
1
60
0
100
AcDbEllipse
10
73.868232
20
8.029248
30
0
11
0.0230153731571416
21
-0.0973154283679496
31
0
210
0
220
0
230
1
40
0.078414
41
1.82136525560609
42
2.51949695640606
0
ELLIPSE
5
24D
100
AcDbEntity
8
1
62
256
6
ByLayer
370
-1
48
1
60
0
100
AcDbEllipse
10
74.740729
20
4.425392
30
0
11
-0.249471227956048
21
0.016251351393086
31
0
210
0
220
0
230
1
40
0.965789
41
2.68082561138856
42
-3.07876092019274
0
ELLIPSE
5
24E
100
AcDbEntity
8
1
62
256
6
ByLayer
370
-1
48
1
60
0
100
AcDbEllipse
10
65.174987
20
10.6605
30
0
11
0.000551485817543305
21
0.0999984793054027
31
0
210
0
220
0
230
1
40
0.607562
41
-1.80967421593308
42
-0.889068455515003
0
ELLIPSE
5
24F
100
AcDbEntity
8
1
62
256
6
ByLayer
370
-1
48
1
60
0
100
AcDbEllipse
10
70.207492
20
0.342764
30
0
11
-0.249471227956048
21
0.016251351393086
31
0
210
0
220
0
230
1
40
0.965789
41
1.11002928459356
42
1.64876840382709
0
ELLIPSE
5
250
100
AcDbEntity
8
1
62
256
6
ByLayer
370
-1
48
1
60
0
100
AcDbEllipse
10
58.994192
20
7.281203
30
0
11
-0.0700603995359028
21
-0.322477193638356
31
0
210
0
220
0
230
1
40
0.487235
41
-1.29072529624599
42
-0.947015793608547
0
ELLIPSE
5
251
100
AcDbEntity
8
1
62
256
6
ByLayer
370
-1
48
1
60
0
100
AcDbEllipse
10
68.634672
20
8.029794
30
0
11
3.56743855977149
21
-0.232394324921125
31
0
210
0
220
0
230
1
40
0.965789
41
3.14159265199917
42
-1.50796445840503
0
ELLIPSE
5
252
100
AcDbEntity
8
1
62
256
6
ByLayer
370
-1
48
1
60
0
100
AcDbEllipse
10
68.634672
20
8.029794
30
0
11
3.56743855977149
21
-0.232394324921125
31
0
210
0
220
0
230
1
40
0.965789
41
-1.50796445840502
42
0
0
ELLIPSE
5
253
100
AcDbEntity
8
1
62
256
6
ByLayer
370
-1
48
1
60
0
100
AcDbEllipse
10
68.646898
20
8.217478
30
0
11
3.56743855977149
21
-0.232394324921125
31
0
210
0
220
0
230
1
40
0.965789
41
0
42
6.28318530717959
0
ELLIPSE
5
254
100
AcDbEntity
8
1
62
256
6
ByLayer
370
-1
48
1
60
0
100
AcDbEllipse
10
68.654901
20
8.340333
30
0
11
2.39492378837806
21
-0.156012973373622
31
0
210
0
220
0
230
1
40
0.965789
41
0
42
6.28318530717959
0
ELLIPSE
5
255
100
AcDbEntity
8
1
62
256
6
ByLayer
370
-1
48
1
60
0
100
AcDbEllipse
10
74.996291
20
10.159032
30
0
11
-0.00127271043381854
21
-0.308574636593929
31
0
210
0
220
0
230
1
40
0.015862
41
-2.01453856131874
42
-1.31640686016784
0
POINT
5
41
100
AcDbEntity
8
80
62
256
6
ByLayer
370
-1
48
1
60
0
100
AcDbPoint
10
0
20
0
30
0
39
0
210
0
220
0
230
1
50
360
0
POINT
5
43
100
AcDbEntity
8
81
62
256
6
ByLayer
370
-1
48
1
60
0
100
AcDbPoint
10
75
20
18.875
30
0
39
0
210
0
220
0
230
1
50
360
0
POINT
5
45
100
AcDbEntity
8
2
62
256
6
ByLayer
370
-1
48
1
60
0
100
AcDbPoint
10
75
20
18.875
30
0
39
0
210
0
220
0
230
1
50
360
0
POINT
5
47
100
AcDbEntity
8
1
62
256
6
ByLayer
370
-1
48
1
60
0
100
AcDbPoint
10
75.007672
20
18.992776
30
0
39
0
210
0
220
0
230
1
50
360
0
POINT
5
49
100
AcDbEntity
8
1
62
256
6
ByLayer
370
-1
48
1
60
0
100
AcDbPoint
10
72.500355
20
17.245261
30
0
39
0
210
0
220
0
230
1
50
360
0
SPLINE
5
256
100
AcDbEntity
8
SK1
62
256
6
ByLayer
370
-1
48
1
60
0
100
AcDbSpline
70
4
71
2
72
6
73
3
40
0
40
0
40
0
40
1
40
1
40
1
41
1
10
-2.19492488857412
20
22.0202267269672
30
0
41
1
10
-2.59746244428706
20
22.0101135822509
30
0
41
1
10
-3
20
22.0000004375346
30
0
0
SPLINE
5
257
100
AcDbEntity
8
SK1
62
256
6
ByLayer
370
-1
48
1
60
0
100
AcDbSpline
70
4
71
2
72
6
73
3
40
0
40
0
40
0
40
1
40
1
40
1
41
1
10
-3
20
-22.0000004290441
30
0
41
1
10
-2.59746244428706
20
-22.0101135737565
30
0
41
1
10
-2.19492488857412
20
-22.0202267184689
30
0
0
SPLINE
5
258
100
AcDbEntity
8
SK1
62
256
6
ByLayer
370
-1
48
1
60
0
100
AcDbSpline
70
4
71
2
72
6
73
3
40
0
40
0
40
0
40
1
40
1
40
1
41
1
10
-3
20
22.0000004375346
30
0
41
1
10
-19.7502365839533
20
21.5791761834949
30
0
41
1
10
-36.5004731679067
20
21.1583519294552
30
0
0
SPLINE
5
259
100
AcDbEntity
8
SK1
62
256
6
ByLayer
370
-1
48
1
60
0
100
AcDbSpline
70
4
71
2
72
6
73
3
40
0
40
0
40
0
40
1
40
1
40
1
41
1
10
-36.5004731679067
20
-21.1583519212896
30
0
41
1
10
-19.7502365839533
20
-21.5791761751668
30
0
41
1
10
-3
20
-22.0000004290441
30
0
0
SPLINE
5
25A
100
AcDbEntity
8
SK1
62
256
6
ByLayer
370
-1
48
1
60
0
100
AcDbSpline
70
4
71
3
72
13
73
9
40
0
40
0
40
0
40
0
40
0.239458034039712
40
0.368362242523299
40
0.500001719408294
40
0.631640907399736
40
0.760544321541715
40
1
40
1
40
1
40
1
41
1
10
-2
20
21.8251283317571
30
0
41
1
10
-2.02607218220658
20
21.8253815759776
30
0
41
1
10
-2.06363558166035
20
21.832499461233
30
0
41
1
10
-2.11047835037542
20
21.8567272581279
30
0
41
1
10
-2.14242263587786
20
21.8827049843059
30
0
41
1
10
-2.16840067179331
20
21.9146489043199
30
0
41
1
10
-2.19262875645049
20
21.9614911190379
30
0
41
1
10
-2.19974671976326
20
21.9990541435572
30
0
41
1
10
-2.20000000000002
20
22.0251260837646
30
0
0
SPLINE
5
25B
100
AcDbEntity
8
SK1
62
256
6
ByLayer
370
-1
48
1
60
0
100
AcDbSpline
70
4
71
3
72
13
73
9
40
0
40
0
40
0
40
0
40
0.239455673358841
40
0.36835908713658
40
0.499998275767174
40
0.631637753936882
40
0.760541963956581
40
1
40
1
40
1
40
1
41
1
10
-2.20000000000002
20
-22.0251260775077
30
0
41
1
10
-2.19974671959665
20
-21.9990541369823
30
0
41
1
10
-2.192628756261
20
-21.9614911120955
30
0
41
1
10
-2.16840067169747
20
-21.9146488976998
30
0
41
1
10
-2.14242263580763
20
-21.8827049776713
30
0
41
1
10
-2.11047835033028
20
-21.8567272514908
30
0
41
1
10
-2.06363558177699
20
-21.8324994546095
30
0
41
1
10
-2.02607218225586
20
-21.8253815693237
30
0
41
1
10
-2
20
-21.8251283250689
30
0
0
SPLINE
5
25C
100
AcDbEntity
8
SK1
62
256
6
ByLayer
370
-1
48
1
60
0
100
AcDbSpline
70
4
71
2
72
6
73
3
40
0
40
0
40
0
40
1
40
1
40
1
41
1
10
-2
20
-21.8251283250689
30
0
41
1
10
-1.20000000000002
20
-21.8251283250689
30
0
41
1
10
-0.400000000000006
20
-21.8251283250689
30
0
0
SPLINE
5
25D
100
AcDbEntity
8
SK1
62
256
6
ByLayer
370
-1
48
1
60
0
100
AcDbSpline
70
4
71
2
72
6
73
3
40
0
40
0
40
0
40
1
40
1
40
1
41
1
10
-0.400000000000006
20
21.8251283317571
30
0
41
1
10
-1.20000000000002
20
21.8251283317571
30
0
41
1
10
-2
20
21.8251283317571
30
0
0
SPLINE
5
25E
100
AcDbEntity
8
SK1
62
256
6
ByLayer
370
-1
48
1
60
0
100
AcDbSpline
70
4
71
2
72
6
73
3
40
0
40
0
40
0
40
1
40
1
40
1
41
1
10
-36.5004321682704
20
21.1581061531923
30
0
41
1
10
-37.250216097561
20
20.6997323883077
30
0
41
1
10
-38
20
20.2413583528791
30
0
0
SPLINE
5
25F
100
AcDbEntity
8
SK1
62
256
6
ByLayer
370
-1
48
1
60
0
100
AcDbSpline
70
4
71
2
72
6
73
3
40
0
40
0
40
0
40
1
40
1
40
1
41
1
10
-38
20
-20.2397162883162
30
0
41
1
10
-37.2502068935607
20
-20.6982812567361
30
0
41
1
10
-36.500413873027
20
-21.1568446673342
30
0
0
SPLINE
5
260
100
AcDbEntity
8
SK1
62
256
6
ByLayer
370
-1
48
1
60
0
100
AcDbSpline
70
4
71
3
72
19
73
15
40
0
40
0
40
0
40
0
40
0.0583294582142446
40
0.0700676389612778
40
0.0803468174284204
40
0.0897132977641172
40
0.0944696439783045
40
0.0995461499988232
40
0.111500524669673
40
0.127147414527457
40
0.205814422306269
40
0.338157638449729
40
0.6799196435097
40
1
40
1
40
1
40
1
41
1
10
-0.400000000000006
20
-21.8251283250689
30
0
41
1
10
-0.390604659320673
20
-21.8244677899363
30
0
41
1
10
-0.375777363920463
20
-21.8259169436384
30
0
41
1
10
-0.354943830050132
20
-21.8301137148394
30
0
41
1
10
-0.345440403126929
20
-21.8325381196933
30
0
41
1
10
-0.337132470978986
20
-21.8351212756371
30
0
41
1
10
-0.330841884880783
20
-21.8373541813163
30
0
41
1
10
-0.324198234908096
20
-21.8399062309899
30
0
41
1
10
-0.315895825850617
20
-21.8435129828514
30
0
41
1
10
-0.296187745910942
20
-21.8533632453144
30
0
41
1
10
-0.276517312147348
20
-21.8672408094774
30
0
41
1
10
-0.245960081311352
20
-21.893334198965
30
0
41
1
10
-0.224260757337106
20
-21.9218194552531
30
0
41
1
10
-0.213207332795548
20
-21.9390593329063
30
0
41
1
10
-0.21100328279698
20
-21.9455602473069
30
0
0
SPLINE
5
261
100
AcDbEntity
8
SK1
62
256
6
ByLayer
370
-1
48
1
60
0
100
AcDbSpline
70
4
71
3
72
21
73
17
40
0
40
0
40
0
40
0
40
0.263923609093641
40
0.540996754349961
40
0.703854398135008
40
0.745322395233588
40
0.757977200375396
40
0.76272685869387
40
0.766717646458995
40
0.770295107970976
40
0.773869873681294
40
0.777805000581641
40
0.782337921728472
40
0.807900917028639
40
0.891793249709244
40
1
40
1
40
1
40
1
41
1
10
-0.206015330054527
20
21.9638929357849
30
0
41
1
10
-0.207118380959258
20
21.960858068933
30
0
41
1
10
-0.212992891244085
20
21.9495222510664
30
0
41
1
10
-0.227101890212111
20
21.9236531786202
30
0
41
1
10
-0.245554493489919
20
21.8956368355428
30
0
41
1
10
-0.26782248640481
20
21.8729536737536
30
0
41
1
10
-0.27967228922742
20
21.8632984847148
30
0
41
1
10
-0.285884984368664
20
21.8587638741999
30
0
41
1
10
-0.290271368208181
20
21.8557616123155
30
0
41
1
10
-0.294839670843487
20
21.8528389024112
30
0
41
1
10
-0.299438538164623
20
21.8500967243496
30
0
41
1
10
-0.303963380402763
20
21.8475818371044
30
0
41
1
10
-0.315037133432725
20
21.8418614936911
30
0
41
1
10
-0.339272370106272
20
21.8323057881971
30
0
41
1
10
-0.366934076935536
20
21.8269525193066
30
0
41
1
10
-0.390048069436887
20
21.8242656569877
30
0
41
1
10
-0.400000000000006
20
21.8251283317571
30
0
0
SPLINE
5
262
100
AcDbEntity
8
1
62
256
6
ByLayer
370
-1
48
1
60
0
100
AcDbSpline
70
4
71
3
72
16
73
12
40
0
40
0
40
0
40
0
40
0.270525378058744
40
0.270525378058744
40
0.599384185955696
40
0.599384185955696
40
0.762140188652004
40
0.762140188652004
40
0.896616864840327
40
0.896616864840327
40
1
40
1
40
1
40
1
41
1
10
10.1056624327026
20
-29.9139548464691
30
0
41
1
10
10.1223634077914
20
-29.9340973114522
30
0
41
1
10
10.1427637790421
20
-29.9538166638149
30
0
41
1
10
10.1990606898967
20
-29.9958084253268
30
0
41
1
10
10.2376786518698
20
-30.0181074912897
30
0
41
1
10
10.3135455046785
20
-30.0467588108259
30
0
41
1
10
10.3421747269917
20
-30.0555916882576
30
0
41
1
10
10.4012015538043
20
-30.0688029947856
30
0
41
1
10
10.4310551857851
20
-30.0737774310785
30
0
41
1
10
10.4870716086067
20
-30.0792804002415
30
0
41
1
10
10.5130127501305
20
-30.0805927603169
30
0
41
1
10
10.5386751345948
20
-30.0805927603169
30
0
0
SPLINE
5
263
100
AcDbEntity
8
1
62
256
6
ByLayer
370
-1
48
1
60
0
100
AcDbSpline
70
4
71
3
72
10
73
6
40
0
40
0
40
0
40
0
40
0.614549202636335
40
0.614549202636335
40
1
40
1
40
1
40
1
41
1
10
62.3277082858154
20
-9.15962762706869
30
0
41
1
10
62.3780840290833
20
-9.29388141577496
30
0
41
1
10
62.4680512648224
20
-9.419505640469
30
0
41
1
10
62.6570897825181
20
-9.59610311763376
30
0
41
1
10
62.7415407859312
20
-9.6587397553136
30
0
41
1
10
62.8344157445709
20
-9.7144351472881
30
0
0
SPLINE
5
264
100
AcDbEntity
8
1
62
256
6
ByLayer
370
-1
48
1
60
0
100
AcDbSpline
70
4
71
3
72
18
73
14
40
0
40
0
40
0
40
0
40
0.202057861362176
40
0.202057861362176
40
0.406800640296846
40
0.406800640296846
40
0.580343928770885
40
0.580343928770885
40
0.739647617609451
40
0.739647617609451
40
0.913000713887902
40
0.913000713887902
40
1
40
1
40
1
40
1
41
1
10
49.6404343785315
20
12.1249763883408
30
0
41
1
10
49.6037822953205
20
12.1551509879677
30
0
41
1
10
49.5835893368012
20
12.1851242848747
30
0
41
1
10
49.5895275500241
20
12.240497397535
30
0
41
1
10
49.6170206652878
20
12.2666448173825
30
0
41
1
10
49.7155434558769
20
12.3070249784296
30
0
41
1
10
49.7807738966406
20
12.3230473059942
30
0
41
1
10
49.9316525273467
20
12.3474232889004
30
0
41
1
10
50.0168704221319
20
12.3566565106007
30
0
41
1
10
50.206767943226
20
12.3711198797331
30
0
41
1
10
50.3146014294889
20
12.3761403924198
30
0
41
1
10
50.479259003319
20
12.3806080279373
30
0
41
1
10
50.5353597592131
20
12.3815977349867
30
0
41
1
10
50.5915725576312
20
12.382124542861
30
0
0
SPLINE
5
265
100
AcDbEntity
8
1
62
256
6
ByLayer
370
-1
48
1
60
0
100
AcDbSpline
70
4
71
3
72
18
73
14
40
0
40
0
40
0
40
0
40
0.0048641047853794
40
0.0048641047853794
40
0.113203312756778
40
0.113203312756778
40
0.252307002956694
40
0.252307002956694
40
0.472239664393917
40
0.472239664393917
40
0.894682818087876
40
0.894682818087876
40
1
40
1
40
1
40
1
41
1
10
13.4613248654052
20
9.34922131452504
30
0
41
1
10
13.4625482550453
20
9.34922131452504
30
0
41
1
10
13.4637716827108
20
9.34923052903076
30
0
41
1
10
13.4918849987862
20
9.34965397724795
30
0
41
1
10
13.5190042093444
20
9.354712145283
30
0
41
1
10
13.5767029487623
20
9.37464954573258
30
0
41
1
10
13.6070440683975
20
9.39202437584845
30
0
41
1
10
13.6765942028226
20
9.44473147370712
30
0
41
1
10
13.7124906049065
20
9.48529706929929
30
0
41
1
10
13.8010726383563
20
9.61035706938739
30
0
41
1
10
13.8419782234534
20
9.70372859127173
30
0
41
1
10
13.8806741852959
20
9.82167814889493
30
0
41
1
10
13.8877916772123
20
9.84548375806273
30
0
41
1
10
13.8943375672974
20
9.86941261896609
30
0
0
SPLINE
5
266
100
AcDbEntity
8
1
62
256
6
ByLayer
370
-1
48
1
60
0
100
AcDbSpline
70
4
71
3
72
16
73
12
40
0
40
0
40
0
40
0
40
0.270525378058565
40
0.270525378058565
40
0.599384185955612
40
0.599384185955612
40
0.76214018865193
40
0.76214018865193
40
0.896616864840277
40
0.896616864840277
40
1
40
1
40
1
40
1
41
1
10
13.8943375672974
20
-9.86941261896609
30
0
41
1
10
13.8776365922086
20
-9.80836128680863
30
0
41
1
10
13.8572362209579
20
-9.7479555758492
30
0
41
1
10
13.8009393101034
20
-9.61806206841851
30
0
41
1
10
13.7623213481302
20
-9.54815463560524
30
0
41
1
10
13.6864544953215
20
-9.45744596321492
30
0
41
1
10
13.6578252730083
20
-9.42931579222241
30
0
41
1
10
13.5987984461957
20
-9.38709146615406
30
0
41
1
10
13.5689448142149
20
-9.37112695979135
30
0
41
1
10
13.5129283913933
20
-9.35344618198363
30
0
41
1
10
13.4869872498695
20
-9.34922131452504
30
0
41
1
10
13.4613248654052
20
-9.34922131452504
30
0
0
SPLINE
5
267
100
AcDbEntity
8
1
62
256
6
ByLayer
370
-1
48
1
60
0
100
AcDbSpline
70
4
71
3
72
18
73
14
40
0
40
0
40
0
40
0
40
0.0048641047853987
40
0.0048641047853987
40
0.113203312756789
40
0.113203312756789
40
0.252307002956709
40
0.252307002956709
40
0.472239664393952
40
0.472239664393952
40
0.894682818087943
40
0.894682818087943
40
1
40
1
40
1
40
1
41
1
10
13.4613248654052
20
-30.0805927603169
30
0
41
1
10
13.4625482550453
20
-30.0805927603169
30
0
41
1
10
13.4637716827108
20
-30.0805898964002
30
0
41
1
10
13.4918849987862
20
-30.0804582858311
30
0
41
1
10
13.5190042093444
20
-30.0788870212281
30
0
41
1
10
13.5767029487623
20
-30.0726800181318
30
0
41
1
10
13.6070440683976
20
-30.0672635530197
30
0
41
1
10
13.6765942028226
20
-30.0507602157503
30
0
41
1
10
13.7124906049065
20
-30.0379954087022
30
0
41
1
10
13.8010726383563
20
-29.9983076443639
30
0
41
1
10
13.8419782234534
20
-29.968274932258
30
0
41
1
10
13.8806741852959
20
-29.9296718333698
30
0
41
1
10
13.8877916772123
20
-29.9218496167517
30
0
41
1
10
13.8943375672974
20
-29.9139548464691
30
0
0
SPLINE
5
268
100
AcDbEntity
8
1
62
256
6
ByLayer
370
-1
48
1
60
0
100
AcDbSpline
70
4
71
3
72
16
73
12
40
0
40
0
40
0
40
0
40
0.270525378058462
40
0.270525378058462
40
0.599384185955601
40
0.599384185955601
40
0.762140188651907
40
0.762140188651907
40
0.896616864840264
40
0.896616864840264
40
1
40
1
40
1
40
1
41
1
10
10.1056624327026
20
9.86941261896612
30
0
41
1
10
10.1223634077914
20
9.80836128680866
30
0
41
1
10
10.1427637790421
20
9.74795557584926
30
0
41
1
10
10.1990606898966
20
9.61806206841857
30
0
41
1
10
10.2376786518697
20
9.54815463560527
30
0
41
1
10
10.3135455046785
20
9.45744596321495
30
0
41
1
10
10.3421747269917
20
9.42931579222244
30
0
41
1
10
10.4012015538043
20
9.38709146615406
30
0
41
1
10
10.4310551857851
20
9.37112695979135
30
0
41
1
10
10.4870716086066
20
9.35344618198363
30
0
41
1
10
10.5130127501305
20
9.34922131452504
30
0
41
1
10
10.5386751345948
20
9.34922131452504
30
0
0
SPLINE
5
269
100
AcDbEntity
8
1
62
256
6
ByLayer
370
-1
48
1
60
0
100
AcDbSpline
70
4
71
3
72
8
73
4
40
0
40
0
40
0
40
0
40
1
40
1
40
1
40
1
41
1
10
52.3916225660521
20
14.1493384117173
30
0
41
1
10
52.2733656696658
20
14.0420279963029
30
0
41
1
10
52.1684823763718
20
13.934265277287
30
0
41
1
10
52.078062954251
20
13.8260133811226
30
0
0
SPLINE
5
26A
100
AcDbEntity
8
1
62
256
6
ByLayer
370
-1
48
1
60
0
100
AcDbSpline
70
4
71
3
72
8
73
4
40
0
40
0
40
0
40
0
40
1
40
1
40
1
40
1
41
1
10
52.3916225660521
20
14.1493384117173
30
0
41
1
10
51.9939412016895
20
13.6619598939179
30
0
41
1
10
51.5979686571316
20
13.1732686329092
30
0
41
1
10
51.2044081121263
20
12.6827712215176
30
0
0
SPLINE
5
26B
100
AcDbEntity
8
1
62
256
6
ByLayer
370
-1
48
1
60
0
100
AcDbSpline
70
4
71
3
72
16
73
12
40
0
40
0
40
0
40
0
40
0.270525378058593
40
0.270525378058593
40
0.599384185955625
40
0.599384185955625
40
0.762140188651944
40
0.762140188651944
40
0.896616864840276
40
0.896616864840276
40
1
40
1
40
1
40
1
41
1
10
13.8943375672974
20
29.9139548464691
30
0
41
1
10
13.8776365922086
20
29.9340973114522
30
0
41
1
10
13.8572362209579
20
29.9538166638149
30
0
41
1
10
13.8009393101033
20
29.9958084253268
30
0
41
1
10
13.7623213481302
20
30.0181074912897
30
0
41
1
10
13.6864544953215
20
30.0467588108259
30
0
41
1
10
13.6578252730083
20
30.0555916882576
30
0
41
1
10
13.5987984461957
20
30.0688029947856
30
0
41
1
10
13.5689448142149
20
30.0737774310785
30
0
41
1
10
13.5129283913933
20
30.0792804002415
30
0
41
1
10
13.4869872498695
20
30.0805927603169
30
0
41
1
10
13.4613248654052
20
30.0805927603169
30
0
0
SPLINE
5
26C
100
AcDbEntity
8
1
62
256
6
ByLayer
370
-1
48
1
60
0
100
AcDbSpline
70
4
71
3
72
18
73
14
40
0
40
0
40
0
40
0
40
0.0048641047853628
40
0.0048641047853628
40
0.113203312756749
40
0.113203312756749
40
0.252307002956659
40
0.252307002956659
40
0.472239664393867
40
0.472239664393867
40
0.894682818087803
40
0.894682818087803
40
1
40
1
40
1
40
1
41
1
10
10.5386751345948
20
30.0805927603169
30
0
41
1
10
10.5374517449547
20
30.0805927603169
30
0
41
1
10
10.5362283172892
20
30.0805898964002
30
0
41
1
10
10.5081150012138
20
30.0804582858311
30
0
41
1
10
10.4809957906556
20
30.0788870212281
30
0
41
1
10
10.4232970512377
20
30.0726800181318
30
0
41
1
10
10.3929559316025
20
30.0672635530197
30
0
41
1
10
10.3234057971774
20
30.0507602157503
30
0
41
1
10
10.2875093950935
20
30.0379954087022
30
0
41
1
10
10.1989273616437
20
29.9983076443639
30
0
41
1
10
10.1580217765466
20
29.968274932258
30
0
41
1
10
10.1193258147041
20
29.9296718333698
30
0
41
1
10
10.1122083227877
20
29.9218496167517
30
0
41
1
10
10.1056624327026
20
29.9139548464691
30
0
0
SPLINE
5
26D
100
AcDbEntity
8
1
62
256
6
ByLayer
370
-1
48
1
60
0
100
AcDbSpline
70
4
71
3
72
18
73
14
40
0
40
0
40
0
40
0
40
0.0048641047854146
40
0.0048641047854146
40
0.113203312756797
40
0.113203312756797
40
0.252307002956716
40
0.252307002956716
40
0.472239664393974
40
0.472239664393974
40
0.894682818087995
40
0.894682818087995
40
1
40
1
40
1
40
1
41
1
10
10.5386751345948
20
-9.34922131452504
30
0
41
1
10
10.5374517449547
20
-9.34922131452504
30
0
41
1
10
10.5362283172892
20
-9.34923052903073
30
0
41
1
10
10.5081150012137
20
-9.34965397724795
30
0
41
1
10
10.4809957906555
20
-9.354712145283
30
0
41
1
10
10.4232970512377
20
-9.37464954573258
30
0
41
1
10
10.3929559316024
20
-9.39202437584845
30
0
41
1
10
10.3234057971774
20
-9.44473147370712
30
0
41
1
10
10.2875093950934
20
-9.48529706929932
30
0
41
1
10
10.1989273616436
20
-9.61035706938748
30
0
41
1
10
10.1580217765465
20
-9.70372859127181
30
0
41
1
10
10.1193258147041
20
-9.82167814889502
30
0
41
1
10
10.1122083227876
20
-9.84548375806278
30
0
41
1
10
10.1056624327026
20
-9.86941261896612
30
0
0
SPLINE
5
26E
100
AcDbEntity
8
1
62
256
6
ByLayer
370
-1
48
1
60
0
100
AcDbSpline
70
4
71
3
72
8
73
4
40
0
40
0
40
0
40
0
40
1
40
1
40
1
40
1
41
1
10
50.5915725576311
20
12.382124542861
30
0
41
1
10
50.614893466626
20
12.3823430987565
30
0
41
1
10
50.638245505725
20
12.383557225048
30
0
41
1
10
50.6614962237979
20
12.3857537578398
30
0
0
SPLINE
5
26F
100
AcDbEntity
8
1
62
256
6
ByLayer
370
-1
48
1
60
0
100
AcDbSpline
70
4
71
3
72
8
73
4
40
0
40
0
40
0
40
0
40
1
40
1
40
1
40
1
41
1
10
50.7176677597603
20
0.286910027809569
30
0
41
1
10
50.6773835757662
20
0.343716689295832
30
0
41
1
10
50.6353961928101
20
0.399792138672211
30
0
41
1
10
50.5915725576313
20
0.454428918638996
30
0
0
SPLINE
5
270
100
AcDbEntity
8
1
62
256
6
ByLayer
370
-1
48
1
60
0
100
AcDbSpline
70
4
71
3
72
26
73
22
40
0
40
0
40
0
40
0
40
0.0856790313260389
40
0.0856790313260389
40
0.170425859960269
40
0.170425859960269
40
0.308349029827224
40
0.308349029827224
40
0.451679833597048
40
0.451679833597048
40
0.529992089890346
40
0.529992089890346
40
0.60767782235547
40
0.60767782235547
40
0.752855731764732
40
0.752855731764732
40
0.870928894737819
40
0.870928894737819
40
0.9575114902467
40
0.9575114902467
40
1
40
1
40
1
40
1
41
1
10
55.1097067734066
20
2.94953822660193
30
0
41
1
10
55.0824853001199
20
2.95728596802533
30
0
41
1
10
55.0664632787192
20
2.99102518312364
30
0
41
1
10
55.0483887389939
20
3.09793631122875
30
0
41
1
10
55.0458082156622
20
3.17153005087624
30
0
41
1
10
55.0447088336456
20
3.39672204872727
30
0
41
1
10
55.0500880603607
20
3.57174259363598
30
0
41
1
10
55.0378888404814
20
3.95631614471111
30
0
41
1
10
55.0215841701188
20
4.17608924264954
30
0
41
1
10
54.9099546707776
20
4.50358397433669
30
0
41
1
10
54.8499009799236
20
4.61857324314468
30
0
41
1
10
54.6947500379204
20
4.82171393625339
30
0
41
1
10
54.5997716879304
20
4.91275229448809
30
0
41
1
10
54.3155730398279
20
5.14826812231593
30
0
41
1
10
54.1113549969026
20
5.28036354060188
30
0
41
1
10
53.7726040234049
20
5.51495716358863
30
0
41
1
10
53.6272025938654
20
5.619981079176
30
0
41
1
10
53.4227083942813
20
5.80231335810748
30
0
41
1
10
53.3494073016511
20
5.88121787118573
30
0
41
1
10
53.2764567817376
20
5.998020420069
30
0
41
1
10
53.2580189016762
20
6.03691176279398
30
0
41
1
10
53.2463830583746
20
6.07551372904689
30
0
0
SPLINE
5
271
100
AcDbEntity
8
1
62
256
6
ByLayer
370
-1
48
1
60
0
100
AcDbSpline
70
4
71
3
72
8
73
4
40
0
40
0
40
0
40
0
40
1
40
1
40
1
40
1
41
1
10
57.1830688177188
20
7.32798374087852
30
0
41
1
10
57.3284749851348
20
7.65794903949364
30
0
41
1
10
57.4677345305427
20
7.97629644255434
30
0
41
1
10
57.6015037297497
20
8.28614857788352
30
0
0
SPLINE
5
272
100
AcDbEntity
8
1
62
256
6
ByLayer
370
-1
48
1
60
0
100
AcDbSpline
70
4
71
3
72
12
73
8
40
0
40
0
40
0
40
0
40
0.427814541858308
40
0.427814541858308
40
0.857831801880024
40
0.857831801880024
40
1
40
1
40
1
40
1
41
1
10
51.2044081121263
20
12.6827712215176
30
0
41
1
10
51.1486666474294
20
12.6133002227399
30
0
41
1
10
51.0804040165498
20
12.5516377469288
30
0
41
1
10
50.9278778894234
20
12.455159366909
30
0
41
1
10
50.8412763963317
20
12.4191862623216
30
0
41
1
10
50.7222527844834
20
12.3933441717083
30
0
41
1
10
50.6919429603719
20
12.3886301100915
30
0
41
1
10
50.6614962237979
20
12.3857537578396
30
0
0
SPLINE
5
273
100
AcDbEntity
8
1
62
256
6
ByLayer
370
-1
48
1
60
0
100
AcDbSpline
70
4
71
3
72
18
73
14
40
0
40
0
40
0
40
0
40
0.196921775003828
40
0.196921775003828
40
0.373930047834676
40
0.373930047834676
40
0.552838497307409
40
0.552838497307409
40
0.706187346680752
40
0.706187346680752
40
0.906901818514544
40
0.906901818514544
40
1
40
1
40
1
40
1
41
1
10
67.3248612068935
20
9.4226074922785
30
0
41
1
10
67.4004473504229
20
9.39192570649058
30
0
41
1
10
67.4812957748208
20
9.37188976196248
30
0
41
1
10
67.6377736739622
20
9.36035504568835
30
0
41
1
10
67.7149203111628
20
9.36629840145736
30
0
41
1
10
67.8647567230666
20
9.40506747582626
30
0
41
1
10
67.9396077750989
20
9.43912388608004
30
0
41
1
10
68.0627973995988
20
9.52399006394504
30
0
41
1
10
68.1149197924609
20
9.57260213834866
30
0
41
1
10
68.2167507677075
20
9.69589297585222
30
0
41
1
10
68.2627115425922
20
9.77581114329018
30
0
41
1
10
68.3114299892025
20
9.89725728850541
30
0
41
1
10
68.3243661670506
20
9.93697022631329
30
0
41
1
10
68.3347080511205
20
9.97712833325403
30
0
0
SPLINE
5
274
100
AcDbEntity
8
1
62
256
6
ByLayer
370
-1
48
1
60
0
100
AcDbSpline
70
4
71
3
72
16
73
12
40
0
40
0
40
0
40
0
40
0.0911679433714407
40
0.0911679433714407
40
0.313820406051499
40
0.313820406051499
40
0.540930752401893
40
0.540930752401893
40
0.784041924828226
40
0.784041924828226
40
1
40
1
40
1
40
1
41
1
10
70.3528408402571
20
9.29457675162107
30
0
41
1
10
70.3459023231665
20
9.30604058628032
30
0
41
1
10
70.3381980944893
20
9.31700739498268
30
0
41
1
10
70.3095165746728
20
9.3524155236741
30
0
41
1
10
70.2848614270506
20
9.37402671902791
30
0
41
1
10
70.2306006244747
20
9.40759967484519
30
0
41
1
10
70.2002346201641
20
9.41980973497385
30
0
41
1
10
70.1361829733443
20
9.43429847833207
30
0
41
1
10
70.1016247986425
20
9.43603440776047
30
0
41
1
10
70.0382942958883
20
9.42929097668505
30
0
41
1
10
70.0087694880485
20
9.42192948459046
30
0
41
1
10
69.9807884099261
20
9.41101764683555
30
0
0
SPLINE
5
275
100
AcDbEntity
8
1
62
256
6
ByLayer
370
-1
48
1
60
0
100
AcDbSpline
70
4
71
3
72
18
73
14
40
0
40
0
40
0
40
0
40
0.0040520837746121
40
0.0040520837746121
40
0.228770169170004
40
0.228770169170004
40
0.452833280150245
40
0.452833280150245
40
0.688771690735235
40
0.688771690735235
40
0.946553144987554
40
0.946553144987554
40
1
40
1
40
1
40
1
41
1
10
68.6549011011356
20
6.43890774495213
30
0
41
1
10
68.6555161236739
20
6.43890506113755
30
0
41
1
10
68.6561311352384
20
6.43890382466591
30
0
41
1
10
68.6903810697322
20
6.43891556965485
30
0
41
1
10
68.7243869426199
20
6.44340207423502
30
0
41
1
10
68.7874994264268
20
6.4602717171461
30
0
41
1
10
68.8174359940548
20
6.47282790442267
30
0
41
1
10
68.871443143674
20
6.50450142378921
30
0
41
1
10
68.8958160326221
20
6.52430309051181
30
0
41
1
10
68.9371168779517
20
6.56951600102971
30
0
41
1
10
68.9536964399239
20
6.59582150505756
30
0
41
1
10
68.9670230604745
20
6.62839408982506
30
0
41
1
10
68.9690990383899
20
6.63407942985927
30
0
41
1
10
68.970941565701
20
6.639791630377
30
0
0
SPLINE
5
276
100
AcDbEntity
8
1
62
256
6
ByLayer
370
-1
48
1
60
0
100
AcDbSpline
70
4
71
3
72
12
73
8
40
0
40
0
40
0
40
0
40
0.488382226294966
40
0.488382226294966
40
0.938326634807124
40
0.938326634807124
40
1
40
1
40
1
40
1
41
1
10
67.00939607671
20
7.74246648201665
30
0
41
1
10
67.0645863188808
20
7.78412105054369
30
0
41
1
10
67.1135780004022
20
7.83548901154944
30
0
41
1
10
67.189054523117
20
7.95128915471878
30
0
41
1
10
67.2177125209414
20
8.01588287343515
30
0
41
1
10
67.2377349844225
20
8.09642458990749
30
0
41
1
10
67.2399661043782
20
8.10634945171975
30
0
41
1
10
67.2419857756153
20
8.11639021434448
30
0
0
SPLINE
5
277
100
AcDbEntity
8
1
62
256
6
ByLayer
370
-1
48
1
60
0
100
AcDbSpline
70
4
71
3
72
16
73
12
40
0
40
0
40
0
40
0
40
0.051647977127923
40
0.051647977127923
40
0.275008977543096
40
0.275008977543096
40
0.500552414413194
40
0.500552414413194
40
0.740268823694219
40
0.740268823694219
40
1
40
1
40
1
40
1
41
1
10
68.6549011011355
20
10.2417577230522
30
0
41
1
10
68.6471050405842
20
10.241791743238
30
0
41
1
10
68.6393007328959
20
10.2415239481716
30
0
41
1
10
68.5981564960983
20
10.238519341029
30
0
41
1
10
68.564772107295
20
10.2303537482091
30
0
41
1
10
68.5029395182002
20
10.2041776956269
30
0
41
1
10
68.4737458660524
20
10.1857643306222
30
0
41
1
10
68.4213494743943
20
10.1404786685478
30
0
41
1
10
68.3979601875485
20
10.1126102783098
30
0
41
1
10
68.3592119503028
20
10.0498844418977
30
0
41
1
10
68.3441759621678
20
10.0138927546854
30
0
41
1
10
68.3347080511205
20
9.97712833325403
30
0
0
SPLINE
5
278
100
AcDbEntity
8
1
62
256
6
ByLayer
370
-1
48
1
60
0
100
AcDbSpline
70
4
71
3
72
14
73
10
40
0
40
0
40
0
40
0
40
0.227747390964559
40
0.227747390964559
40
0.522297410110182
40
0.522297410110182
40
0.788141840542243
40
0.788141840542243
40
1
40
1
40
1
40
1
41
1
10
69.9807884099261
20
7.19431247135162
30
0
41
1
10
70.0103330038696
20
7.19068833907048
30
0
41
1
10
70.0416175089764
20
7.1906808052174
30
0
41
1
10
70.1136949312519
20
7.19982952549225
30
0
41
1
10
70.1558108623958
20
7.21193737731622
30
0
41
1
10
70.2303313031759
20
7.247737763944
30
0
41
1
10
70.2643932686169
20
7.27079864255785
30
0
41
1
10
70.3163738582209
20
7.31984909360278
30
0
41
1
10
70.3367639297678
20
7.34484789368975
30
0
41
1
10
70.3528408402571
20
7.37126989218802
30
0
0
SPLINE
5
279
100
AcDbEntity
8
1
62
256
6
ByLayer
370
-1
48
1
60
0
100
AcDbSpline
70
4
71
3
72
18
73
14
40
0
40
0
40
0
40
0
40
0.0612573774478164
40
0.0612573774478164
40
0.279483952469398
40
0.279483952469398
40
0.500470610100297
40
0.500470610100297
40
0.735822942069354
40
0.735822942069354
40
0.994575323591876
40
0.994575323591876
40
1
40
1
40
1
40
1
41
1
10
66.956961362014
20
9.30939557581632
30
0
41
1
10
66.9521846011441
20
9.30154508933052
30
0
41
1
10
66.9477499418323
20
9.29343497762227
30
0
41
1
10
66.9293074155069
20
9.25569919815709
30
0
41
1
10
66.9194680736991
20
9.22315164262
30
0
41
1
10
66.909943885377
20
9.15673836626493
30
0
41
1
10
66.9102411614933
20
9.12202241577097
30
0
41
1
10
66.9204137367771
20
9.05289465830546
30
0
41
1
10
66.9310017828855
20
9.01778107389154
30
0
41
1
10
66.9617617826622
20
8.94990414995948
30
0
41
1
10
66.983132371725
20
8.91685143081617
30
0
41
1
10
67.0083449717905
20
8.88756033380224
30
0
41
1
10
67.0088697347364
20
8.88695430196464
30
0
41
1
10
67.0093960767088
20
8.88635004733334
30
0
0
SPLINE
5
27A
100
AcDbEntity
8
1
62
256
6
ByLayer
370
-1
48
1
60
0
100
AcDbSpline
70
4
71
3
72
16
73
12
40
0
40
0
40
0
40
0
40
0.0113197000007034
40
0.0113197000007034
40
0.325952031184806
40
0.325952031184806
40
0.611565060296044
40
0.611565060296044
40
0.862469040564601
40
0.862469040564601
40
1
40
1
40
1
40
1
41
1
10
70.2960942118182
20
8.87200766499646
30
0
41
1
10
70.2972225667272
20
8.87326167022877
30
0
41
1
10
70.29834396347
20
8.87452352299943
30
0
41
1
10
70.3299464694242
20
8.91053075835777
30
0
41
1
10
70.3555232951464
20
8.95191512404699
30
0
41
1
10
70.3882050162725
20
9.03673397147645
30
0
41
1
10
70.3972264699445
20
9.08100879135242
30
0
41
1
10
70.3982244310966
20
9.16308362009264
30
0
41
1
10
70.3920856197158
20
9.2022444354167
30
0
41
1
10
70.3725154033184
20
9.25784271069469
30
0
41
1
10
70.3635473159331
20
9.27688748670607
30
0
41
1
10
70.3528408402571
20
9.29457675162107
30
0
0
SPLINE
5
27B
100
AcDbEntity
8
1
62
256
6
ByLayer
370
-1
48
1
60
0
100
AcDbSpline
70
4
71
3
72
12
73
8
40
0
40
0
40
0
40
0
40
0.210744611346133
40
0.210744611346133
40
0.708714990416035
40
0.708714990416035
40
1
40
1
40
1
40
1
41
1
10
67.2419857756154
20
8.41146373437076
30
0
41
1
10
67.2351323034445
20
8.44885660030027
30
0
41
1
10
67.2258125293804
20
8.48613217621622
30
0
41
1
10
67.1874752284652
20
8.60807026704549
30
0
41
1
10
67.1482268830804
20
8.69031358138278
30
0
41
1
10
67.0733229014541
20
8.80733023675711
30
0
41
1
10
67.042517408629
20
8.84832587434431
30
0
41
1
10
67.0093960767089
20
8.88635004733345
30
0
0
SPLINE
5
27C
100
AcDbEntity
8
1
62
256
6
ByLayer
370
-1
48
1
60
0
100
AcDbSpline
70
4
71
3
72
18
73
14
40
0
40
0
40
0
40
0
40
0.194707229508552
40
0.194707229508552
40
0.372132674476762
40
0.372132674476762
40
0.551484410835854
40
0.551484410835854
40
0.704942958574591
40
0.704942958574591
40
0.905288500750503
40
0.905288500750503
40
1
40
1
40
1
40
1
41
1
10
68.9709415657004
20
9.9743519589272
30
0
41
1
10
68.9909819105636
20
9.89104101510392
30
0
41
1
10
69.0224633233169
20
9.80898001026856
30
0
41
1
10
69.1046358790477
20
9.66446830187869
30
0
41
1
10
69.1545140799637
20
9.59939859286007
30
0
41
1
10
69.2719083726772
20
9.48916024825391
30
0
41
1
10
69.3415969498391
20
9.44282367092475
30
0
41
1
10
69.4776475418593
20
9.38393823934811
30
0
41
1
10
69.5446209880463
20
9.36664454169073
30
0
41
1
10
69.6966795212013
20
9.34960348804086
30
0
41
1
10
69.7835980148497
20
9.35614947733129
30
0
41
1
10
69.9048844617489
20
9.38439583875223
30
0
41
1
10
69.9433815739548
20
9.39643002718523
30
0
41
1
10
69.9807884099263
20
9.41101764683492
30
0
0
SPLINE
5
27D
100
AcDbEntity
8
1
62
256
6
ByLayer
370
-1
48
1
60
0
100
AcDbSpline
70
4
71
3
72
14
73
10
40
0
40
0
40
0
40
0
40
0.197061049816504
40
0.197061049816504
40
0.495409650609805
40
0.495409650609805
40
0.76463211727709
40
0.76463211727709
40
1
40
1
40
1
40
1
41
1
10
68.3347080511169
20
6.64256800470645
30
0
41
1
10
68.341903802251
20
6.62162452933737
30
0
41
1
10
68.3522692863428
20
6.60091073902021
30
0
41
1
10
68.3858135198719
20
6.5517468442018
30
0
41
1
10
68.4135667096036
20
6.52394659030449
30
0
41
1
10
68.4769991955652
20
6.48101735438905
30
0
41
1
10
68.5126683727009
20
6.46431039334649
30
0
41
1
10
68.5837390291117
20
6.44416185983232
30
0
41
1
10
68.6196027150108
20
6.43906177885754
30
0
41
1
10
68.6549011011356
20
6.43890774495213
30
0
0
SPLINE
5
27E
100
AcDbEntity
8
1
62
256
6
ByLayer
370
-1
48
1
60
0
100
AcDbSpline
70
4
71
3
72
16
73
12
40
0
40
0
40
0
40
0
40
0.161214365129887
40
0.161214365129887
40
0.384054669027323
40
0.384054669027323
40
0.61522110057658
40
0.61522110057658
40
0.865480028758218
40
0.865480028758218
40
1
40
1
40
1
40
1
41
1
10
66.956961362014
20
7.38608871638328
30
0
41
1
10
66.9691738058435
20
7.36591128725559
30
0
41
1
10
66.9837782235494
20
7.34656205455539
30
0
41
1
10
67.0226721280391
20
7.30439322236768
30
0
41
1
10
67.0490686251745
20
7.28256616451455
30
0
41
1
10
67.1061295931053
20
7.24638420436074
30
0
41
1
10
67.137619556295
20
7.23185864692076
30
0
41
1
10
67.2032664829218
20
7.21092531608215
30
0
41
1
10
67.2382416271323
20
7.20499050643735
30
0
41
1
10
67.2897744132324
20
7.20317201775694
30
0
41
1
10
67.3076059288096
20
7.20389889987334
30
0
41
1
10
67.3248612068936
20
7.20590231679549
30
0
0
SPLINE
5
27F
100
AcDbEntity
8
1
62
256
6
ByLayer
370
-1
48
1
60
0
100
AcDbSpline
70
4
71
3
72
18
73
14
40
0
40
0
40
0
40
0
40
0.211689539235243
40
0.211689539235243
40
0.38593234288736
40
0.38593234288736
40
0.561898489866902
40
0.561898489866902
40
0.714573453315014
40
0.714573453315014
40
0.917791207619168
40
0.917791207619168
40
1
40
1
40
1
40
1
41
1
10
69.9807884099263
20
7.19431247135228
30
0
41
1
10
69.8980136315625
20
7.20446616467743
30
0
41
1
10
69.8091117374167
20
7.20357042151409
30
0
41
1
10
69.6448689799524
20
7.17962187971469
30
0
41
1
10
69.5680709473882
20
7.16011966421968
30
0
41
1
10
69.4201950499574
20
7.10476806575787
30
0
41
1
10
69.3470654685436
20
7.06782138924859
30
0
41
1
10
69.227031055811
20
6.98863672461914
30
0
41
1
10
69.1764421144858
20
6.94683763717808
30
0
41
1
10
69.0774920140614
20
6.84515365262712
30
0
41
1
10
69.0334514110166
20
6.78216974793878
30
0
41
1
10
68.9899902677811
20
6.69246510899941
30
0
41
1
10
68.9794566226938
20
6.6661899978094
30
0
41
1
10
68.970941565701
20
6.639791630377
30
0
0
SPLINE
5
280
100
AcDbEntity
8
1
62
256
6
ByLayer
370
-1
48
1
60
0
100
AcDbSpline
70
4
71
3
72
18
73
14
40
0
40
0
40
0
40
0
40
0.207993339910872
40
0.207993339910872
40
0.382966373997751
40
0.382966373997751
40
0.559708257177309
40
0.559708257177309
40
0.712573028514999
40
0.712573028514999
40
0.915188960742926
40
0.915188960742926
40
1
40
1
40
1
40
1
41
1
10
68.3347080511191
20
6.64256800470764
30
0
41
1
10
68.3118372557004
20
6.70913422296172
30
0
41
1
10
68.2759342814181
20
6.77558829386743
30
0
41
1
10
68.1861050209174
20
6.89098607658406
30
0
41
1
10
68.1347597315669
20
6.94230448899245
30
0
41
1
10
68.0159196972679
20
7.034727700003
30
0
41
1
10
67.9463366752291
20
7.07703457528163
30
0
41
1
10
67.8112560820645
20
7.13984219579567
30
0
41
1
10
67.7449066798859
20
7.16330724496623
30
0
41
1
10
67.5936706600879
20
7.20168231801196
30
0
41
1
10
67.5071959733783
20
7.21216539721283
30
0
41
1
10
67.3914970724991
20
7.2117352706436
30
0
41
1
10
67.3577387196207
20
7.20971954680681
30
0
41
1
10
67.3248612068936
20
7.20590231679549
30
0
0
SPLINE
5
281
100
AcDbEntity
8
1
62
256
6
ByLayer
370
-1
48
1
60
0
100
AcDbSpline
70
4
71
3
72
12
73
8
40
0
40
0
40
0
40
0
40
0.238644736246661
40
0.238644736246661
40
0.744856633731426
40
0.744856633731426
40
1
40
1
40
1
40
1
41
1
10
70.0570615563441
20
8.10410588171177
30
0
41
1
10
70.0650563296973
20
8.06548592093
30
0
41
1
10
70.07631207162
20
8.02846153645564
30
0
41
1
10
70.1198302672329
20
7.92046200101169
30
0
41
1
10
70.162220711557
20
7.85598111700688
30
0
41
1
10
70.2383193344202
20
7.77510739822017
30
0
41
1
10
70.2662991264392
20
7.75031923614381
30
0
41
1
10
70.2960942118182
20
7.72812409968023
30
0
0
SPLINE
5
282
100
AcDbEntity
8
1
62
256
6
ByLayer
370
-1
48
1
60
0
100
AcDbSpline
70
4
71
3
72
14
73
10
40
0
40
0
40
0
40
0
40
0.2802346023893
40
0.2802346023893
40
0.568175490274616
40
0.568175490274616
40
0.828479444262243
40
0.828479444262243
40
1
40
1
40
1
40
1
41
1
10
67.3248612068936
20
9.4226074922789
30
0
41
1
10
67.2891882664388
20
9.43708778544317
30
0
41
1
10
67.2507232633124
20
9.44559645349858
30
0
41
1
10
67.1730963426875
20
9.44797775693945
30
0
41
1
10
67.1327374859848
20
9.44140142367621
30
0
41
1
10
67.0620792775159
20
9.41355412982819
30
0
41
1
10
67.0301475815223
20
9.39326724104009
30
0
41
1
10
66.9857510131103
20
9.35049420399679
30
0
41
1
10
66.9699890930482
20
9.33080632448292
30
0
41
1
10
66.956961362014
20
9.30939557581632
30
0
0
SPLINE
5
283
100
AcDbEntity
8
1
62
256
6
ByLayer
370
-1
48
1
60
0
100
AcDbSpline
70
4
71
3
72
16
73
12
40
0
40
0
40
0
40
0
40
0.11596719572883
40
0.11596719572883
40
0.418874678249477
40
0.418874678249477
40
0.693205641512736
40
0.693205641512736
40
0.935091184694191
40
0.935091184694191
40
1
40
1
40
1
40
1
41
1
10
67.0093960767063
20
7.7424664820214
30
0
41
1
10
66.9982109831443
20
7.73402458671657
30
0
41
1
10
66.9877172836725
20
7.72465139148426
30
0
41
1
10
66.9531426835472
20
7.6879770609246
30
0
41
1
10
66.9335866526888
20
7.6550618144274
30
0
41
1
10
66.9122888992462
20
7.58549203649747
30
0
41
1
10
66.9087932051563
20
7.54836291422967
30
0
41
1
10
66.9170176293855
20
7.47797402085527
30
0
41
1
10
66.9271596828742
20
7.44374554529662
30
0
41
1
10
66.9471909440947
20
7.40304632009284
30
0
41
1
10
66.9518829371167
20
7.39447930223778
30
0
41
1
10
66.956961362014
20
7.38608871638328
30
0
0
SPLINE
5
284
100
AcDbEntity
8
1
62
256
6
ByLayer
370
-1
48
1
60
0
100
AcDbSpline
70
4
71
3
72
18
73
14
40
0
40
0
40
0
40
0
40
0.0249234866864535
40
0.0249234866864535
40
0.244016849022871
40
0.244016849022871
40
0.463732500095631
40
0.463732500095631
40
0.696086204296224
40
0.696086204296224
40
0.950572766561481
40
0.950572766561481
40
1
40
1
40
1
40
1
41
1
10
70.3528408402571
20
7.37126989218802
30
0
41
1
10
70.3547918910444
20
7.37447639514178
30
0
41
1
10
70.3566843720745
20
7.37770841134599
30
0
41
1
10
70.374443155489
20
7.40925375397455
30
0
41
1
10
70.3858715406764
20
7.43967128907937
30
0
41
1
10
70.3982385149993
20
7.4997846448444
30
0
41
1
10
70.3993298448862
20
7.53024322349197
30
0
41
1
10
70.3917584408086
20
7.58901210697951
30
0
41
1
10
70.3824714963978
20
7.61784009409251
30
0
41
1
10
70.3541908083004
20
7.67148848555277
30
0
41
1
10
70.3340390550579
20
7.69635612405298
30
0
41
1
10
70.3057686518764
20
7.72065404898831
30
0
41
1
10
70.3009963853451
20
7.72447234272079
30
0
41
1
10
70.2960942118183
20
7.72812409968037
30
0
0
SPLINE
5
285
100
AcDbEntity
8
1
62
256
6
ByLayer
370
-1
48
1
60
0
100
AcDbSpline
70
4
71
3
72
14
73
10
40
0
40
0
40
0
40
0
40
0.264811550888223
40
0.264811550888223
40
0.554702973213605
40
0.554702973213605
40
0.816600830646601
40
0.816600830646601
40
1
40
1
40
1
40
1
41
1
10
68.970941565701
20
9.9743519589274
30
0
41
1
10
68.9619005989982
20
10.0119367147898
30
0
41
1
10
68.9470297810572
20
10.0487778926835
30
0
41
1
10
68.9046876145261
20
10.1184730760269
30
0
41
1
10
68.8754022754121
20
10.1516794492211
30
0
41
1
10
68.810243688798
20
10.2011718403477
30
0
41
1
10
68.7742489313172
20
10.2194717260162
30
0
41
1
10
68.7101968643424
20
10.2376741608378
30
0
41
1
10
68.6824365223456
20
10.2416375649109
30
0
41
1
10
68.6549011011355
20
10.2417577230522
30
0
0
SPLINE
5
286
100
AcDbEntity
8
1
62
256
6
ByLayer
370
-1
48
1
60
0
100
AcDbSpline
70
4
71
3
72
12
73
8
40
0
40
0
40
0
40
0
40
0.537499189677576
40
0.537499189677576
40
0.978204604845926
40
0.978204604845926
40
1
40
1
40
1
40
1
41
1
10
70.2960942118182
20
8.87200766499646
30
0
41
1
10
70.2338407118616
20
8.80282179621096
30
0
41
1
10
70.1790910564804
20
8.72292639281451
30
0
41
1
10
70.1021451944381
20
8.56563354690164
30
0
41
1
10
70.0751696668779
20
8.48857253859003
30
0
41
1
10
70.058564751568
20
8.40697471039314
30
0
41
1
10
70.0577995132059
20
8.40307836508737
30
0
41
1
10
70.0570615563442
20
8.39917940173811
30
0
0
SPLINE
5
287
100
AcDbEntity
8
SK1
62
256
6
ByLayer
370
-1
48
1
60
0
100
AcDbSpline
70
4
71
3
72
89
73
85
40
0
40
0
40
0
40
0
40
0.0069866522942655
40
0.0210727459288765
40
0.0351588395634874
40
0.0422018863807929
40
0.0492449331980984
40
0.0527664566067512
40
0.0562879800154039
40
0.0598095034240566
40
0.0633310268327094
40
0.0703740736500149
40
0.0774171204673203
40
0.0915032141019313
40
0.105589307736542
40
0.119675401371153
40
0.133761495005764
40
0.147847588640375
40
0.161933682274986
40
0.176019775909597
40
0.190105869544208
40
0.204191963178819
40
0.21827805681343
40
0.232364150448041
40
0.246450244082652
40
0.260536337717263
40
0.274622431351874
40
0.288708524986485
40
0.302794618621096
40
0.316880712255707
40
0.330966805890318
40
0.345052899524929
40
0.35913899315954
40
0.373225086794151
40
0.387311180428762
40
0.401397274063373
40
0.415483367697983
40
0.429569461332594
40
0.443655554967205
40
0.457741648601816
40
0.471827742236427
40
0.485913835871038
40
0.499999929505649
40
0.51408602314026
40
0.528172116774871
40
0.542258210409482
40
0.556344304044093
40
0.570430397678704
40
0.584516491313315
40
0.598602584947926
40
0.612688678582537
40
0.626774772217148
40
0.640860865851759
40
0.65494695948637
40
0.669033053120981
40
0.683119146755592
40
0.697205240390203
40
0.711291334024814
40
0.725377427659425
40
0.739463521294036
40
0.753549614928647
40
0.767635708563258
40
0.781721802197868
40
0.795807895832479
40
0.80989398946709
40
0.823980083101701
40
0.838066176736312
40
0.852152270370923
40
0.866238364005534
40
0.880324457640145
40
0.894410551274756
40
0.908496644909367
40
0.922582738543978
40
0.929625785361284
40
0.936668832178589
40
0.940190355587242
40
0.943711878995895
40
0.947233402404547
40
0.9507549258132
40
0.957797972630505
40
0.964841019447811
40
0.978927113082422
40
0.993013206717033
40
1
40
1
40
1
40
1
41
1
10
-2
20
21.5597582005666
30
0
41
1
10
-2
20
21.5823348005797
30
0
41
1
10
-2
20
21.6471330989619
30
0
41
1
10
-2
20
21.7367552760374
30
0
41
1
10
-2
20
21.795767724447
30
0
41
1
10
-2
20
21.8207574214533
30
0
41
1
10
-2
20
21.8262248087307
30
0
41
1
10
-2
20
21.8240288460024
30
0
41
1
10
-2
20
21.8189793414588
30
0
41
1
10
-2
20
21.8103813172626
30
0
41
1
10
-2
20
21.7940462079955
30
0
41
1
10
-2
20
21.7642160490035
30
0
41
1
10
-2
20
21.6949779936854
30
0
41
1
10
-2
20
21.5661676526815
30
0
41
1
10
-2
20
21.3371910810194
30
0
41
1
10
-2
20
21.0285622078674
30
0
41
1
10
-2
20
20.6365187777369
30
0
41
1
10
-2
20
20.1589996983693
30
0
41
1
10
-2.00000000000003
20
19.5958617698656
30
0
41
1
10
-2.00000000000003
20
18.9489598758679
30
0
41
1
10
-2.00000000000003
20
18.2221705966385
30
0
41
1
10
-2.00000000000003
20
17.4213307857328
30
0
41
1
10
-2.00000000000003
20
16.5541009338831
30
0
41
1
10
-2.00000000000003
20
15.6297568996197
30
0
41
1
10
-2.00000000000003
20
14.6589138549468
30
0
41
1
10
-2.00000000000003
20
13.6532009067709
30
0
41
1
10
-2.00000000000003
20
12.6248857298215
30
0
41
1
10
-2.00000000000003
20
11.5864803035381
30
0
41
1
10
-2.00000000000003
20
10.5503219390466
30
0
41
1
10
-2.00000000000003
20
9.5281693138144
30
0
41
1
10
-2.00000000000003
20
8.53080274713156
30
0
41
1
10
-2.00000000000003
20
7.56767168233321
30
0
41
1
10
-2.00000000000003
20
6.64657466016962
30
0
41
1
10
-2.00000000000003
20
5.77341249237057
30
0
41
1
10
-2.00000000000003
20
4.95199325849538
30
0
41
1
10
-2.00000000000003
20
4.18393961035022
30
0
41
1
10
-2.00000000000003
20
3.46864023496266
30
0
41
1
10
-2.00000000000003
20
2.80331262467871
30
0
41
1
10
-2.00000000000003
20
2.18314518734891
30
0
41
1
10
-2.00000000000003
20
1.60149397612398
30
0
41
1
10
-2.00000000000003
20
1.05016386127724
30
0
41
1
10
-2.00000000000003
20
0.519747329370034
30
0
41
1
10
-2.00000000000003
20
2.174625422E-07
30
0
41
1
10
-2.00000000000003
20
-0.519747796859832
30
0
41
1
10
-2.00000000000003
20
-1.05016384629153
30
0
41
1
10
-2.00000000000003
20
-1.60149393775734
30
0
41
1
10
-2.00000000000003
20
-2.18314499792092
30
0
41
1
10
-2.00000000000003
20
-2.80331286928887
30
0
41
1
10
-2.00000000000003
20
-3.46863999985663
30
0
41
1
10
-2.00000000000003
20
-4.18394012013403
30
0
41
1
10
-2.00000000000003
20
-4.95199329354998
30
0
41
1
10
-2.00000000000003
20
-5.77341227102076
30
0
41
1
10
-2.00000000000003
20
-6.64657476441815
30
0
41
1
10
-2.00000000000003
20
-7.56767138772486
30
0
41
1
10
-2.00000000000003
20
-8.53080293175961
30
0
41
1
10
-2.00000000000003
20
-9.52816888083231
30
0
41
1
10
-2.00000000000003
20
-10.5503221797328
30
0
41
1
10
-2.00000000000003
20
-11.5864797887658
30
0
41
1
10
-2.00000000000003
20
-12.6248859949608
30
0
41
1
10
-2.00000000000003
20
-13.6532003777634
30
0
41
1
10
-2.00000000000003
20
-14.6589141102143
30
0
41
1
10
-2.00000000000003
20
-15.6297564245795
30
0
41
1
10
-2.00000000000003
20
-16.5541011472568
30
0
41
1
10
-2.00000000000003
20
-17.4213304234775
30
0
41
1
10
-2.00000000000003
20
-18.2221707430851
30
0
41
1
10
-2.00000000000003
20
-18.9489596670075
30
0
41
1
10
-2.00000000000003
20
-19.5958618349948
30
0
41
1
10
-2
20
-20.1589996510313
30
0
41
1
10
-2
20
-20.6365184914532
30
0
41
1
10
-2
20
-21.0285634421464
30
0
41
1
10
-2
20
-21.337187169909
30
0
41
1
10
-2
20
-21.5661689793568
30
0
41
1
10
-2
20
-21.694977581428
30
0
41
1
10
-2
20
-21.7642160759136
30
0
41
1
10
-2
20
-21.7940468728384
30
0
41
1
10
-2
20
-21.810382005051
30
0
41
1
10
-2
20
-21.8189797158788
30
0
41
1
10
-2
20
-21.8240291114512
30
0
41
1
10
-2
20
-21.8262247109582
30
0
41
1
10
-2
20
-21.8207568792357
30
0
41
1
10
-2
20
-21.7957672612685
30
0
41
1
10
-2
20
-21.7367554969224
30
0
41
1
10
-2
20
-21.647132912494
30
0
41
1
10
-2.00000000000003
20
-21.5823341907873
30
0
41
1
10
-2.00000000000003
20
-21.5597571127794
30
0
0
SPLINE
5
288
100
AcDbEntity
8
SK1
62
256
6
ByLayer
370
-1
48
1
60
0
100
AcDbSpline
70
4
71
3
72
10
73
6
40
0
40
0
40
0
40
0
40
0.931951483854433
40
0.931951483854433
40
1
40
1
40
1
40
1
41
1
10
-2.84E-14
20
6.53762644691741
30
0
41
1
10
-0.04849145953483
20
6.70686335370419
30
0
41
1
10
-0.104961398284928
20
6.8740004138196
30
0
41
1
10
-0.188237156292189
20
7.04340072103489
30
0
41
1
10
-0.194048735538786
20
7.05491037332897
30
0
41
1
10
-0.200000000000273
20
7.06635659049311
30
0
0
SPLINE
5
289
100
AcDbEntity
8
SK1
62
256
6
ByLayer
370
-1
48
1
60
0
100
AcDbSpline
70
4
71
3
72
35
73
31
40
0
40
0
40
0
40
0
40
0.0271881725194259
40
0.0707581687555026
40
0.114328164991579
40
0.157898161227656
40
0.201468157463733
40
0.245038153699809
40
0.288608149935886
40
0.332178146171963
40
0.37574814240804
40
0.419318138644116
40
0.462888134880193
40
0.50645813111627
40
0.550028127352346
40
0.593598123588423
40
0.6371681198245
40
0.680738116060577
40
0.724308112296653
40
0.76787810853273
40
0.811448104768807
40
0.855018101004883
40
0.89858809724096
40
0.920373095358999
40
0.942158093477037
40
0.953050592536056
40
0.963943091595075
40
0.974835590654094
40
0.985728089713114
40
1
40
1
40
1
40
1
41
1
10
-0.400000000000063
20
-6.10423156158009
30
0
41
1
10
-0.400000000000063
20
-6.28446194326722
30
0
41
1
10
-0.400000000000063
20
-6.76201538726676
30
0
41
1
10
-0.400000000000063
20
-7.56767138772486
30
0
41
1
10
-0.400000000000034
20
-8.53080293175961
30
0
41
1
10
-0.400000000000034
20
-9.52816888083231
30
0
41
1
10
-0.400000000000034
20
-10.5503221797328
30
0
41
1
10
-0.400000000000034
20
-11.5864797887658
30
0
41
1
10
-0.400000000000034
20
-12.6248859949608
30
0
41
1
10
-0.400000000000034
20
-13.6532003777634
30
0
41
1
10
-0.400000000000034
20
-14.6589141102143
30
0
41
1
10
-0.400000000000034
20
-15.6297564245795
30
0
41
1
10
-0.400000000000034
20
-16.5541011472568
30
0
41
1
10
-0.400000000000034
20
-17.4213304234775
30
0
41
1
10
-0.400000000000034
20
-18.2221707430851
30
0
41
1
10
-0.400000000000034
20
-18.9489596670075
30
0
41
1
10
-0.400000000000034
20
-19.5958618349948
30
0
41
1
10
-0.400000000000034
20
-20.1589996510313
30
0
41
1
10
-0.400000000000034
20
-20.6365184914532
30
0
41
1
10
-0.400000000000034
20
-21.0285634421464
30
0
41
1
10
-0.400000000000034
20
-21.337187169909
30
0
41
1
10
-0.400000000000034
20
-21.5661689793568
30
0
41
1
10
-0.400000000000034
20
-21.694977581428
30
0
41
1
10
-0.400000000000034
20
-21.7642160759136
30
0
41
1
10
-0.400000000000034
20
-21.7940468728384
30
0
41
1
10
-0.400000000000006
20
-21.810382005051
30
0
41
1
10
-0.400000000000006
20
-21.8189797158788
30
0
41
1
10
-0.400000000000006
20
-21.8240291114512
30
0
41
1
10
-0.400000000000006
20
-21.8258461079432
30
0
41
1
10
-0.400000000000006
20
-21.8241921143962
30
0
41
1
10
-0.400000000000006
20
-21.8223590884949
30
0
0
SPLINE
5
28A
100
AcDbEntity
8
SK1
62
256
6
ByLayer
370
-1
48
1
60
0
100
AcDbSpline
70
4
71
3
72
10
73
6
40
0
40
0
40
0
40
0
40
0.5
40
0.5
40
1
40
1
40
1
40
1
41
1
10
-1.30710678118655
20
-4.69591747913023
30
0
41
1
10
-1.57554674537735
20
-3.20453676372955
30
0
41
1
10
-1.78936151312067
20
-1.60679765765514
30
0
41
1
10
-1.7893657244158
20
1.60676394111792
30
0
41
1
10
-1.57555073250512
20
3.20452084810844
30
0
41
1
10
-1.30710678118655
20
4.69591515673878
30
0
0
SPLINE
5
28B
100
AcDbEntity
8
SK1
62
256
6
ByLayer
370
-1
48
1
60
0
100
AcDbSpline
70
4
71
3
72
10
73
6
40
0
40
0
40
0
40
0
40
0.815535209409631
40
0.815535209409631
40
1
40
1
40
1
40
1
41
1
10
-2.20000000000002
20
-18.8057994981526
30
0
41
1
10
-2.20000000000002
20
-20.4449035848964
30
0
41
1
10
-2.20000226725097
20
-21.5642089788153
30
0
41
1
10
-2.19995739562609
20
-21.9906791116876
30
0
41
1
10
-2.19994661317062
20
-22.0297937659093
30
0
41
1
10
-2.19993249039999
20
-22.0201003651307
30
0
0
SPLINE
5
28C
100
AcDbEntity
8
SK1
62
256
6
ByLayer
370
-1
48
1
60
0
100
AcDbSpline
70
4
71
3
72
10
73
6
40
0
40
0
40
0
40
0
40
0.184720296637322
40
0.184720296637322
40
1
40
1
40
1
40
1
41
1
10
-2.19993251944493
20
22.0200998347953
30
0
41
1
10
-2.19994665903494
20
22.0297472193079
30
0
41
1
10
-2.19995744775539
20
21.990450674678
30
0
41
1
10
-2.20000225739005
20
21.563120800415
30
0
41
1
10
-2.20000000000002
20
20.4409087780279
30
0
41
1
10
-2.20000000000002
20
18.8057993596817
30
0
0
SPLINE
5
28D
100
AcDbEntity
8
SK1
62
256
6
ByLayer
370
-1
48
1
60
0
100
AcDbSpline
70
4
71
3
72
14
73
10
40
0
40
0
40
0
40
0
40
0.119777021889854
40
0.278046745203171
40
0.436316468516488
40
0.594586191829805
40
0.752855915143122
40
0.911125638456439
40
1
40
1
40
1
40
1
41
1
10
-2.20000000000002
20
-13.0172198852615
30
0
41
1
10
-2.20000000000002
20
-13.2789204454624
30
0
41
1
10
-2.20000000000002
20
-13.8834372225796
30
0
41
1
10
-2.20000000000002
20
-14.8135248894266
30
0
41
1
10
-2.20000000000002
20
-15.7904214898648
30
0
41
1
10
-2.20000000000002
20
-16.7204320226197
30
0
41
1
10
-2.20000000000002
20
-17.5929249336309
30
0
41
1
10
-2.20000000000002
20
-18.2808591321625
30
0
41
1
10
-2.20000000000002
20
-18.669962461278
30
0
41
1
10
-2.20000000000002
20
-18.8057994981522
30
0
0
SPLINE
5
28E
100
AcDbEntity
8
SK1
62
256
6
ByLayer
370
-1
48
1
60
0
100
AcDbSpline
70
4
71
3
72
22
73
18
40
0
40
0
40
0
40
0
40
0.0423762482151073
40
0.0423762482151073
40
0.0854249042403576
40
0.0854249042403576
40
0.115510710892585
40
0.115510710892585
40
0.145562977863389
40
0.145562977863389
40
0.188866560319605
40
0.188866560319605
40
0.269464421829291
40
0.269464421829291
40
0.539576062841086
40
0.539576062841086
40
1
40
1
40
1
40
1
41
1
10
-0.400000000000063
20
6.10423197315535
30
0
41
1
10
-0.420133409127487
20
6.12423434429553
30
0
41
1
10
-0.442149896508255
20
6.14298369126584
30
0
41
1
10
-0.490914524716317
20
6.17485278184395
30
0
41
1
10
-0.518425990074348
20
6.18818802917735
30
0
41
1
10
-0.568088809269341
20
6.2007917866726
30
0
41
1
10
-0.589839550198434
20
6.20307835596932
30
0
41
1
10
-0.632358101077472
20
6.20079662668147
30
0
41
1
10
-0.65359418173702
20
6.19624019805292
30
0
41
1
10
-0.701806923597019
20
6.17907520886138
30
0
41
1
10
-0.728087274871882
20
6.16375377211619
30
0
41
1
10
-0.795263795653284
20
6.11374953177531
30
0
41
1
10
-0.831450402468533
20
6.07313839594474
30
0
41
1
10
-0.968479126013762
20
5.89027783727639
30
0
41
1
10
-1.03459250955694
20
5.72638662078546
30
0
41
1
10
-1.18908100646803
20
5.28349358994365
30
0
41
1
10
-1.25390182158543
20
4.99150600000522
30
0
41
1
10
-1.30710678118655
20
4.69591515673878
30
0
0
SPLINE
5
28F
100
AcDbEntity
8
SK1
62
256
6
ByLayer
370
-1
48
1
60
0
100
AcDbSpline
70
4
71
3
72
14
73
10
40
0
40
0
40
0
40
0
40
0.0888743441035659
40
0.247144108639162
40
0.405413873174757
40
0.563683637710353
40
0.721953402245948
40
0.880223166781544
40
1
40
1
40
1
40
1
41
1
10
-2.20000000000002
20
18.8057993596815
30
0
41
1
10
-2.20000000000002
20
18.6699623491591
30
0
41
1
10
-2.20000000000002
20
18.2808589940076
30
0
41
1
10
-2.20000000000002
20
17.5929252949647
30
0
41
1
10
-2.20000000000002
20
16.7204318129083
30
0
41
1
10
-2.20000000000002
20
15.7904219641236
30
0
41
1
10
-2.20000000000002
20
14.8135246379527
30
0
41
1
10
-2.20000000000002
20
13.8834381562769
30
0
41
1
10
-2.20000000000002
20
13.2789215159064
30
0
41
1
10
-2.20000000000002
20
13.0172213663826
30
0
0
SPLINE
5
290
100
AcDbEntity
8
SK1
62
256
6
ByLayer
370
-1
48
1
60
0
100
AcDbSpline
70
4
71
3
72
8
73
4
40
0
40
0
40
0
40
0
40
1
40
1
40
1
40
1
41
1
10
-0.199999999999989
20
7.45410255809307
30
0
41
1
10
-0.13333351319929
20
7.46205653145404
30
0
41
1
10
-0.06666684419136
20
7.47000756994314
30
0
41
1
10
-2.84E-14
20
7.47795571927756
30
0
0
SPLINE
5
291
100
AcDbEntity
8
SK1
62
256
6
ByLayer
370
-1
48
1
60
0
100
AcDbSpline
70
4
71
3
72
35
73
31
40
0
40
0
40
0
40
0
40
0.0142712160427593
40
0.0251637229565722
40
0.036056229870385
40
0.0469487367841979
40
0.0578412436980107
40
0.0796262575256365
40
0.101411271353262
40
0.144981299008514
40
0.188551326663765
40
0.232121354319017
40
0.275691381974268
40
0.319261409629519
40
0.362831437284771
40
0.406401464940022
40
0.449971492595274
40
0.493541520250525
40
0.537111547905777
40
0.580681575561028
40
0.624251603216279
40
0.667821630871531
40
0.711391658526782
40
0.754961686182034
40
0.798531713837285
40
0.842101741492537
40
0.885671769147788
40
0.929241796803039
40
0.972811824458291
40
1
40
1
40
1
40
1
41
1
10
-0.399999999999977
20
21.8223596903465
30
0
41
1
10
-0.400000000000006
20
21.8241924485105
30
0
41
1
10
-0.400000000000006
20
21.8258461075737
30
0
41
1
10
-0.400000000000006
20
21.8240288460024
30
0
41
1
10
-0.400000000000006
20
21.8189793414588
30
0
41
1
10
-0.400000000000006
20
21.8103813172626
30
0
41
1
10
-0.400000000000034
20
21.7940462079955
30
0
41
1
10
-0.400000000000034
20
21.7642160490035
30
0
41
1
10
-0.400000000000034
20
21.6949779936854
30
0
41
1
10
-0.400000000000034
20
21.5661676526815
30
0
41
1
10
-0.400000000000034
20
21.3371910810194
30
0
41
1
10
-0.400000000000034
20
21.0285622078674
30
0
41
1
10
-0.400000000000034
20
20.6365187777369
30
0
41
1
10
-0.400000000000034
20
20.1589996983693
30
0
41
1
10
-0.400000000000034
20
19.5958617698656
30
0
41
1
10
-0.400000000000034
20
18.9489598758679
30
0
41
1
10
-0.400000000000034
20
18.2221705966385
30
0
41
1
10
-0.400000000000034
20
17.4213307857328
30
0
41
1
10
-0.400000000000034
20
16.5541009338831
30
0
41
1
10
-0.400000000000034
20
15.6297568996197
30
0
41
1
10
-0.400000000000034
20
14.6589138549468
30
0
41
1
10
-0.400000000000034
20
13.6532009067709
30
0
41
1
10
-0.400000000000034
20
12.6248857298215
30
0
41
1
10
-0.400000000000034
20
11.5864803035381
30
0
41
1
10
-0.400000000000034
20
10.5503219390466
30
0
41
1
10
-0.400000000000034
20
9.5281693138144
30
0
41
1
10
-0.400000000000034
20
8.53080274713156
30
0
41
1
10
-0.400000000000063
20
7.56767168233324
30
0
41
1
10
-0.400000000000063
20
6.76201544986952
30
0
41
1
10
-0.400000000000063
20
6.28446221538795
30
0
41
1
10
-0.400000000000063
20
6.10423197315535
30
0
0
SPLINE
5
292
100
AcDbEntity
8
SK1
62
256
6
ByLayer
370
-1
48
1
60
0
100
AcDbSpline
70
4
71
3
72
8
73
4
40
0
40
0
40
0
40
0
40
1
40
1
40
1
40
1
41
1
10
-2.84E-14
20
-7.47795498707188
30
0
41
1
10
-0.0666668441596983
20
-7.47000684507091
30
0
41
1
10
-0.133333513168509
20
-7.46205581415995
30
0
41
1
10
-0.199999999999989
20
-7.45410184860194
30
0
0
SPLINE
5
293
100
AcDbEntity
8
1
62
256
6
ByLayer
370
-1
48
1
60
0
100
AcDbSpline
70
4
71
3
72
8
73
4
40
0
40
0
40
0
40
0
40
1
40
1
40
1
40
1
41
1
10
74.8311589397562
20
-1.77687651805618
30
0
41
1
10
74.8268689051338
20
-1.77667375004654
30
0
41
1
10
74.8225789123508
20
-1.77647098099055
30
0
41
1
10
74.8182889628678
20
-1.77626821085178
30
0
0
SPLINE
5
294
100
AcDbEntity
8
1
62
256
6
ByLayer
370
-1
48
1
60
0
100
AcDbSpline
70
4
71
3
72
12
73
8
40
0
40
0
40
0
40
0
40
0.275302781297272
40
0.275302781297272
40
0.732661105868437
40
0.732661105868437
40
1
40
1
40
1
40
1
41
1
10
74.8182889628678
20
-1.77626821085175
30
0
41
1
10
74.8088636395393
20
-1.77582271047302
30
0
41
1
10
74.7994259921134
20
-1.77240126871561
30
0
41
1
10
74.7757511407337
20
-1.75808831896745
30
0
41
1
10
74.7619627151689
20
-1.743697945533
30
0
41
1
10
74.7424374132831
20
-1.71693903622764
30
0
41
1
10
74.7356324746756
20
-1.70605672088107
30
0
41
1
10
74.7292690515221
20
-1.69448953105251
30
0
0
SPLINE
5
295
100
AcDbEntity
8
1
62
256
6
ByLayer
370
-1
48
1
60
0
100
AcDbSpline
70
4
71
3
72
12
73
8
40
0
40
0
40
0
40
0
40
0.137350735152495
40
0.137350735152495
40
0.798661095838793
40
0.798661095838793
40
1
40
1
40
1
40
1
41
1
10
74.7351571343661
20
-0.991757321657417
30
0
41
1
10
74.7376756233958
20
-0.986262793304149
30
0
41
1
10
74.74025886244
20
-0.980842540536628
30
0
41
1
10
74.7555110359805
20
-0.950135421453751
30
0
41
1
10
74.7699640434535
20
-0.926068012798453
30
0
41
1
10
74.7901815950679
20
-0.901866779002319
30
0
41
1
10
74.7950904296307
20
-0.896647498463068
30
0
41
1
10
74.8000319397748
20
-0.892145281021186
30
0
0
SPLINE
5
296
100
AcDbEntity
8
1
62
256
6
ByLayer
370
-1
48
1
60
0
100
AcDbSpline
70
4
71
3
72
8
73
4
40
0
40
0
40
0
40
0
40
1
40
1
40
1
40
1
41
1
10
74.8111715631379
20
-2.66955836849667
30
0
41
1
10
74.8154394815434
20
-2.67252621372489
30
0
41
1
10
74.8197074433322
20
-2.67549404740598
30
0
41
1
10
74.8239754470411
20
-2.67846186992881
30
0
0
SPLINE
5
297
100
AcDbEntity
8
1
62
256
6
ByLayer
370
-1
48
1
60
0
100
AcDbSpline
70
4
71
3
72
24
73
20
40
0
40
0
40
0
40
0
40
0.0429952269615152
40
0.0429952269615152
40
0.228745926441251
40
0.228745926441251
40
0.414699745380153
40
0.414699745380153
40
0.538335079651866
40
0.538335079651866
40
0.632242005354025
40
0.632242005354025
40
0.783656353743835
40
0.783656353743835
40
0.875145603232501
40
0.875145603232501
40
0.967942630461905
40
0.967942630461905
40
1
40
1
40
1
40
1
41
1
10
74.8726216880979
20
-3.70030126918664
30
0
41
1
10
74.8730383970727
20
-3.69798821986976
30
0
41
1
10
74.8734227972748
20
-3.69557350508083
30
0
41
1
10
74.8752922104465
20
-3.68220184336173
30
0
41
1
10
74.8762154049697
20
-3.6694583197204
30
0
41
1
10
74.8766145575168
20
-3.6401042633799
30
0
41
1
10
74.8760991025089
20
-3.62343159987591
30
0
41
1
10
74.8734551451482
20
-3.59194014982461
30
0
41
1
10
74.8719173759839
20
-3.57831681847424
30
0
41
1
10
74.8679903344857
20
-3.55229523152585
30
0
41
1
10
74.8658874771239
20
-3.54034758681274
30
0
41
1
10
74.8589650918651
20
-3.50730015953835
30
0
41
1
10
74.8532088801681
20
-3.48458873329366
30
0
41
1
10
74.8400416159056
20
-3.44510249036094
30
0
41
1
10
74.8340400819865
20
-3.42921006112761
30
0
41
1
10
74.8199168080433
20
-3.39721135846349
30
0
41
1
10
74.8115180703341
20
-3.38064578092212
30
0
41
1
10
74.7994595061228
20
-3.36019631287201
30
0
41
1
10
74.7962366419403
20
-3.35500244451637
30
0
41
1
10
74.792977011336
20
-3.35000511739065
30
0
0
SPLINE
5
298
100
AcDbEntity
8
1
62
256
6
ByLayer
370
-1
48
1
60
0
100
AcDbSpline
70
4
71
3
72
12
73
8
40
0
40
0
40
0
40
0
40
0.223567502664908
40
0.223567502664908
40
0.662745605025587
40
0.662745605025587
40
1
40
1
40
1
40
1
41
1
10
74.850015962041
20
-3.73668933023561
30
0
41
1
10
74.8526309342458
20
-3.73668914362096
30
0
41
1
10
74.8549719213363
20
-3.73595536562189
30
0
41
1
10
74.8612838501633
20
-3.7319694168915
30
0
41
1
10
74.8646549555481
20
-3.72693264335862
30
0
41
1
10
74.8695035707906
20
-3.71454152135104
30
0
41
1
10
74.8712394986273
20
-3.70797346394227
30
0
41
1
10
74.8726216880979
20
-3.70030126918664
30
0
0
SPLINE
5
299
100
AcDbEntity
8
1
62
256
6
ByLayer
370
-1
48
1
60
0
100
AcDbSpline
70
4
71
3
72
22
73
18
40
0
40
0
40
0
40
0
40
0.0904884159773325
40
0.0904884159773325
40
0.167615335033917
40
0.167615335033917
40
0.286482716021611
40
0.286482716021611
40
0.385988194077716
40
0.385988194077716
40
0.485170892999973
40
0.485170892999973
40
0.67149510634283
40
0.67149510634283
40
0.857309270880909
40
0.857309270880909
40
1
40
1
40
1
40
1
41
1
10
74.812651924499
20
-0.880647353620617
30
0
41
1
10
74.8218676372794
20
-0.871119153361576
30
0
41
1
10
74.8309201984041
20
-0.858607421044013
30
0
41
1
10
74.845632154265
20
-0.832379136938897
30
0
41
1
10
74.8517833454628
20
-0.818844920936755
30
0
41
1
10
74.8652484742994
20
-0.783692918807333
30
0
41
1
10
74.8716983869492
20
-0.761096777002621
30
0
41
1
10
74.8811273355471
20
-0.720485173985253
30
0
41
1
10
74.8845819213041
20
-0.701979771344355
30
0
41
1
10
74.8902612937758
20
-0.665825679551233
30
0
41
1
10
74.8925047176819
20
-0.648060044862774
30
0
41
1
10
74.8977181205684
20
-0.598177367380913
30
0
41
1
10
74.8996541175089
20
-0.566860993111419
30
0
41
1
10
74.9017388947558
20
-0.507171729392326
30
0
41
1
10
74.9018810003419
20
-0.47861336928284
30
0
41
1
10
74.9009558798386
20
-0.430578329219685
30
0
41
1
10
74.9001548274497
20
-0.410477301562366
30
0
41
1
10
74.898987106007
20
-0.391232056553832
30
0
0
SPLINE
5
29A
100
AcDbEntity
8
1
62
256
6
ByLayer
370
-1
48
1
60
0
100
AcDbSpline
70
4
71
3
72
10
73
6
40
0
40
0
40
0
40
0
40
0.642808717257401
40
0.642808717257401
40
1
40
1
40
1
40
1
41
1
10
74.7707414889581
20
-2.65603875540094
30
0
41
1
10
74.7789248135543
20
-2.65604283409229
30
0
41
1
10
74.7874696420403
20
-2.65761945171747
30
0
41
1
10
74.8011323623891
20
-2.66332772329307
30
0
41
1
10
74.8061580440019
20
-2.66607204391573
30
0
41
1
10
74.8111715631377
20
-2.6695583684959
30
0
0
SPLINE
5
29B
100
AcDbEntity
8
1
62
256
6
ByLayer
370
-1
48
1
60
0
100
AcDbSpline
70
4
71
3
72
24
73
20
40
0
40
0
40
0
40
0
40
0.0429952269615489
40
0.0429952269615489
40
0.228745926441305
40
0.228745926441305
40
0.41469974538022
40
0.41469974538022
40
0.538335079651916
40
0.538335079651916
40
0.632242005354061
40
0.632242005354061
40
0.783656353743855
40
0.783656353743855
40
0.875145603232512
40
0.875145603232512
40
0.967942630461904
40
0.967942630461904
40
1
40
1
40
1
40
1
41
1
10
74.9380495323774
20
-2.28288693770341
30
0
41
1
10
74.938114191206
20
-2.27477174151227
30
0
41
1
10
74.9381429956502
20
-2.26663052121867
30
0
41
1
10
74.9381042101799
20
-2.22323724071455
30
0
41
1
10
74.9374122799227
20
-2.18752186373226
30
0
41
1
10
74.9344713275424
20
-2.11579550464876
30
0
41
1
10
74.9322232276639
20
-2.07961616350144
30
0
41
1
10
74.9266123207417
20
-2.01975770962292
30
0
41
1
10
74.9238629694175
20
-1.99585757152289
30
0
41
1
10
74.9177734074999
20
-1.95441478175795
30
0
41
1
10
74.914723577657
20
-1.93666092166973
30
0
41
1
10
74.905328567538
20
-1.89162505418247
30
0
41
1
10
74.8980083075278
20
-1.86442739253695
30
0
41
1
10
74.88246119379
20
-1.82656599807603
30
0
41
1
10
74.8755765039864
20
-1.81340143382204
30
0
41
1
10
74.8598702743409
20
-1.79231844398225
30
0
41
1
10
74.8507554173958
20
-1.78427529730226
30
0
41
1
10
74.837964249353
20
-1.77855327287267
30
0
41
1
10
74.8345696747519
20
-1.77749894834793
30
0
41
1
10
74.8311589397562
20
-1.77687651805618
30
0
0
SPLINE
5
29C
100
AcDbEntity
8
1
62
256
6
ByLayer
370
-1
48
1
60
0
100
AcDbSpline
70
4
71
3
72
22
73
18
40
0
40
0
40
0
40
0
40
0.0904884159773499
40
0.0904884159773499
40
0.167615335033922
40
0.167615335033922
40
0.286482716021631
40
0.286482716021631
40
0.385988194077738
40
0.385988194077738
40
0.485170893000004
40
0.485170893000004
40
0.671495106342876
40
0.671495106342876
40
0.857309270880971
40
0.857309270880971
40
1
40
1
40
1
40
1
41
1
10
74.8239754470411
20
-2.67846186992884
30
0
41
1
10
74.8333941397176
20
-2.68387355754837
30
0
41
1
10
74.8428372876553
20
-2.68615728582068
30
0
41
1
10
74.8585450303001
20
-2.68406246191819
30
0
41
1
10
74.8652700297006
20
-2.68064982867077
30
0
41
1
10
74.8803347588972
20
-2.66753625304051
30
0
41
1
10
74.8879093244638
20
-2.6553565577513
30
0
41
1
10
74.899465175323
20
-2.6293559668992
30
0
41
1
10
74.9039298584108
20
-2.61591479423893
30
0
41
1
10
74.9116409089635
20
-2.58738570871785
30
0
41
1
10
74.9149123803016
20
-2.57220962877366
30
0
41
1
10
74.9230787122779
20
-2.52701122527992
30
0
41
1
10
74.926950766336
20
-2.49543104070017
30
0
41
1
10
74.9328477207281
20
-2.43047682748551
30
0
41
1
10
74.9348780874507
20
-2.39688955042112
30
0
41
1
10
74.9372295251943
20
-2.33647171760572
30
0
41
1
10
74.9378350643494
20
-2.30980437746757
30
0
41
1
10
74.9380495323774
20
-2.28288693770341
30
0
0
SPLINE
5
29D
100
AcDbEntity
8
1
62
256
6
ByLayer
370
-1
48
1
60
0
100
AcDbSpline
70
4
71
3
72
24
73
20
40
0
40
0
40
0
40
0
40
0.0429952269614686
40
0.0429952269614686
40
0.228745926441201
40
0.228745926441201
40
0.414699745380089
40
0.414699745380089
40
0.538335079651811
40
0.538335079651811
40
0.63224200535398
40
0.63224200535398
40
0.783656353743801
40
0.783656353743801
40
0.875145603232475
40
0.875145603232475
40
0.9679426304619
40
0.9679426304619
40
1
40
1
40
1
40
1
41
1
10
74.898987106007
20
-0.391232056553832
30
0
41
1
10
74.8986350558608
20
-0.385429909679573
30
0
41
1
10
74.8982492135517
20
-0.379703564430741
30
0
41
1
10
74.8960183994924
20
-0.349683654964309
30
0
41
1
10
74.8935849583655
20
-0.326716137322222
30
0
41
1
10
74.8872821944569
20
-0.284359531683947
30
0
41
1
10
74.8834056595146
20
-0.264864213048554
30
0
41
1
10
74.8752413372401
20
-0.236524746546451
30
0
41
1
10
74.8715102944724
20
-0.226261288696264
30
0
41
1
10
74.8638049251362
20
-0.210869453647035
30
0
41
1
10
74.8600917269219
20
-0.205077894611094
30
0
41
1
10
74.8491126865887
20
-0.193134524078886
30
0
41
1
10
74.8409350307497
20
-0.188683329663291
30
0
41
1
10
74.8244778247648
20
-0.190382764424015
30
0
41
1
10
74.8173545971797
20
-0.193143691277641
30
0
41
1
10
74.801502139865
20
-0.204135008436424
30
0
41
1
10
74.7924884512533
20
-0.212701402445759
30
0
41
1
10
74.7800812876032
20
-0.227490701578091
30
0
41
1
10
74.776808819562
20
-0.231646674203972
30
0
41
1
10
74.7735397148296
20
-0.236038091190324
30
0
0
SPLINE
5
29E
100
AcDbEntity
8
1
62
256
6
ByLayer
370
-1
48
1
60
0
100
AcDbSpline
70
4
71
3
72
8
73
4
40
0
40
0
40
0
40
0
40
1
40
1
40
1
40
1
41
1
10
74.792977011336
20
-3.35000511739065
30
0
41
1
10
74.7888485824002
20
-3.34401357788903
30
0
41
1
10
74.7847201958949
20
-3.33802201617138
30
0
41
1
10
74.7805918533011
20
-3.33203043146335
30
0
0
SPLINE
5
29F
100
AcDbEntity
8
1
62
256
6
ByLayer
370
-1
48
1
60
0
100
AcDbSpline
70
4
71
3
72
8
73
4
40
0
40
0
40
0
40
0
40
1
40
1
40
1
40
1
41
1
10
74.800031939775
20
-0.89214528102022
30
0
41
1
10
74.8042385582247
20
-0.888312624523877
30
0
41
1
10
74.8084452202897
20
-0.884479982216646
30
0
41
1
10
74.812651924499
20
-0.880647353620617
30
0
0
SPLINE
5
2A0
100
AcDbEntity
8
1
62
256
6
ByLayer
370
-1
48
1
60
0
100
AcDbSpline
70
4
71
3
72
12
73
8
40
0
40
0
40
0
40
0
40
0.452209010901512
40
0.452209010901512
40
0.985658768919404
40
0.985658768919404
40
1
40
1
40
1
40
1
41
1
10
72.553989390457
20
9.7654534812846
30
0
41
1
10
72.5479807704407
20
9.72479798533482
30
0
41
1
10
72.5403279700891
20
9.68254616509904
30
0
41
1
10
72.522372184696
20
9.59202621734821
30
0
41
1
10
72.5116294160344
20
9.54309270615988
30
0
41
1
10
72.5004130317216
20
9.49470197420544
30
0
41
1
10
72.5001190766047
20
9.49343682875173
30
0
41
1
10
72.4998254460223
20
9.49217263082721
30
0
0
SPLINE
5
2A1
100
AcDbEntity
8
1
62
256
6
ByLayer
370
-1
48
1
60
0
100
AcDbSpline
70
4
71
3
72
10
73
6
40
0
40
0
40
0
40
0
40
0.226375575408413
40
0.226375575408413
40
1
40
1
40
1
40
1
41
1
10
66.3095998027813
20
11.6891641366123
30
0
41
1
10
66.3454342695834
20
11.7354816113598
30
0
41
1
10
66.3818875123067
20
11.7812179388398
30
0
41
1
10
66.5454544060748
20
11.9804492185841
30
0
41
1
10
66.6791277608087
20
12.1277031044929
30
0
41
1
10
66.8192413050742
20
12.2671641846245
30
0
0
SPLINE
5
2A2
100
AcDbEntity
8
1
62
256
6
ByLayer
370
-1
48
1
60
0
100
AcDbSpline
70
4
71
3
72
8
73
4
40
0
40
0
40
0
40
0
40
1
40
1
40
1
40
1
41
1
10
65.9364569627731
20
12.8685073813292
30
0
41
1
10
66.0399887388177
20
12.8496580876635
30
0
41
1
10
66.1435205120225
20
12.8308087304506
30
0
41
1
10
66.2470522806667
20
12.8119592711911
30
0
0
SPLINE
5
2A3
100
AcDbEntity
8
1
62
256
6
ByLayer
370
-1
48
1
60
0
100
AcDbSpline
70
4
71
3
72
8
73
4
40
0
40
0
40
0
40
0
40
1
40
1
40
1
40
1
41
1
10
65.7911135596019
20
12.8949689875931
30
0
41
1
10
65.83956136104
20
12.8861484606972
30
0
41
1
10
65.8880091622006
20
12.8773279275938
30
0
41
1
10
65.9364569627731
20
12.8685073813292
30
0
0
SPLINE
5
2A4
100
AcDbEntity
8
1
62
256
6
ByLayer
370
-1
48
1
60
0
100
AcDbSpline
70
4
71
3
72
8
73
4
40
0
40
0
40
0
40
0
40
1
40
1
40
1
40
1
41
1
10
65.936456962773
20
3.77748678050546
30
0
41
1
10
65.9125234599315
20
3.88989710678885
30
0
41
1
10
65.8885900066473
20
4.00230744940541
30
0
41
1
10
65.8646566329444
20
4.1147178182502
30
0
0
SPLINE
5
2A5
100
AcDbEntity
8
1
62
256
6
ByLayer
370
-1
48
1
60
0
100
AcDbSpline
70
4
71
3
72
14
73
10
40
0
40
0
40
0
40
0
40
0.230106848183431
40
0.230106848183431
40
0.55786115878348
40
0.55786115878348
40
0.896229002650404
40
0.896229002650404
40
1
40
1
40
1
40
1
41
1
10
65.9364569627731
20
12.8685073813292
30
0
41
1
10
65.928211271726
20
12.8833083966222
30
0
41
1
10
65.9194928603535
20
12.8979006243222
30
0
41
1
10
65.8990807003173
20
12.9305349018061
30
0
41
1
10
65.8872233292236
20
12.9481865552189
30
0
41
1
10
65.8649555397561
20
12.9792745650804
30
0
41
1
10
65.8542604924612
20
12.9930339282861
30
0
41
1
10
65.8422545336147
20
13.0066220214906
30
0
41
1
10
65.8395467780258
20
13.0095254953145
30
0
41
1
10
65.8370210854462
20
13.0120407788694
30
0
0
SPLINE
5
2A6
100
AcDbEntity
8
1
62
256
6
ByLayer
370
-1
48
1
60
0
100
AcDbSpline
70
4
71
3
72
12
73
8
40
0
40
0
40
0
40
0
40
0.327536934741047
40
0.327536934741047
40
0.689545574034048
40
0.689545574034048
40
1
40
1
40
1
40
1
41
1
10
73.0180141151198
20
4.4281525114574
30
0
41
1
10
73.3077047149275
20
4.71900404057786
30
0
41
1
10
73.4836438948387
20
5.10012902618735
30
0
41
1
10
73.9246592157702
20
5.83612634607343
30
0
41
1
10
74.1563044885633
20
6.22269217211473
30
0
41
1
10
74.5865819790608
20
6.94078510530835
30
0
41
1
10
74.7852236467041
20
7.27230722235311
30
0
41
1
10
74.9838671710341
20
7.60382835900813
30
0
0
SPLINE
5
2A7
100
AcDbEntity
8
1
62
256
6
ByLayer
370
-1
48
1
60
0
100
AcDbSpline
70
4
71
3
72
8
73
4
40
0
40
0
40
0
40
0
40
1
40
1
40
1
40
1
41
1
10
74.0860847868341
20
8.28743401021495
30
0
41
1
10
74.0087151212782
20
8.22808388553497
30
0
41
1
10
73.9313454072674
20
8.16873378139869
30
0
41
1
10
73.853975615446
20
8.10938371025256
30
0
0
SPLINE
5
2A8
100
AcDbEntity
8
1
62
256
6
ByLayer
370
-1
48
1
60
0
100
AcDbSpline
70
4
71
3
72
10
73
6
40
0
40
0
40
0
40
0
40
0.410984291904101
40
0.410984291904101
40
1
40
1
40
1
40
1
41
1
10
67.7548900699034
20
1.64226947020796
30
0
41
1
10
67.8530713110142
20
1.56441046909111
30
0
41
1
10
67.9488765563129
20
1.48687968193138
30
0
41
1
10
68.1756289242792
20
1.29958731330274
30
0
41
1
10
68.3040242253619
20
1.19023680511941
30
0
41
1
10
68.4270169130435
20
1.08235452278206
30
0
0
SPLINE
5
2A9
100
AcDbEntity
8
1
62
256
6
ByLayer
370
-1
48
1
60
0
100
AcDbSpline
70
4
71
3
72
8
73
4
40
0
40
0
40
0
40
0
40
1
40
1
40
1
40
1
41
1
10
74.1947004046016
20
8.3707528755109
30
0
41
1
10
74.1584952051797
20
8.34297991765612
30
0
41
1
10
74.1222900010246
20
8.31520696180817
30
0
41
1
10
74.0860847868341
20
8.28743401021495
30
0
0
SPLINE
5
2AA
100
AcDbEntity
8
1
62
256
6
ByLayer
370
-1
48
1
60
0
100
AcDbSpline
70
4
71
3
72
12
73
8
40
0
40
0
40
0
40
0
40
0.133148321068525
40
0.133148321068525
40
0.702614877346733
40
0.702614877346733
40
1
40
1
40
1
40
1
41
1
10
65.4903216270518
20
13.3951847077907
30
0
41
1
10
65.6742278970703
20
13.3943822916218
30
0
41
1
10
65.8581341677305
20
13.3935803664486
30
0
41
1
10
66.8285953874587
20
13.3893492944206
30
0
41
1
10
67.615150322399
20
13.3859099116213
30
0
41
1
10
68.81235617197
20
13.3806776883533
30
0
41
1
10
69.2265049199933
20
13.4066486305963
30
0
41
1
10
69.6332223357908
20
13.349707826173
30
0
0
SPLINE
5
2AB
100
AcDbEntity
8
1
62
256
6
ByLayer
370
-1
48
1
60
0
100
AcDbSpline
70
4
71
3
72
14
73
10
40
0
40
0
40
0
40
0
40
0.25
40
0.25
40
0.5
40
0.5
40
0.75
40
0.75
40
1
40
1
40
1
40
1
41
1
10
66.2936783810673
20
12.8609421886308
30
0
41
1
10
66.9246755809406
20
12.8581873265509
30
0
41
1
10
67.5556727831116
20
12.8554412287569
30
0
41
1
10
68.8176671826039
20
12.8499305344501
30
0
41
1
10
69.454650694476
20
12.8965406311285
30
0
41
1
10
70.6799962574742
20
12.5598680004991
30
0
41
1
10
71.1976053553814
20
12.204022483749
30
0
41
1
10
72.2833240167037
20
11.6003332102672
30
0
41
1
10
72.8259309736466
20
11.2980409277185
30
0
41
1
10
73.3683783344553
20
10.995465562839
30
0
0
SPLINE
5
2AC
100
AcDbEntity
8
1
62
256
6
ByLayer
370
-1
48
1
60
0
100
AcDbSpline
70
4
71
3
72
10
73
6
40
0
40
0
40
0
40
0
40
0.226375575408419
40
0.226375575408419
40
1
40
1
40
1
40
1
41
1
10
72.9455766652914
20
8.37092296864481
30
0
41
1
10
72.9603532497334
20
8.33509316898324
30
0
41
1
10
72.9742987801407
20
8.29904459828759
30
0
41
1
10
73.0321618222121
20
8.13902819715113
30
0
41
1
10
73.0672058395686
20
8.01276493250697
30
0
41
1
10
73.0922265355264
20
7.88473329975287
30
0
0
SPLINE
5
2AD
100
AcDbEntity
8
1
62
256
6
ByLayer
370
-1
48
1
60
0
100
AcDbSpline
70
4
71
3
72
12
73
8
40
0
40
0
40
0
40
0
40
0.327536934741043
40
0.327536934741043
40
0.689545574034047
40
0.689545574034047
40
1
40
1
40
1
40
1
41
1
10
63.2308845557394
20
6.17849875115562
30
0
41
1
10
63.3479057839409
20
5.78956491129009
30
0
41
1
10
63.6016610611682
20
5.45152506727919
30
0
41
1
10
64.0426617850173
20
4.71167117488017
30
0
41
1
10
64.2742811652548
20
4.32307018174052
30
0
41
1
10
64.7045586381582
20
3.60122197862347
30
0
41
1
10
64.9032073212345
20
3.2679698610479
30
0
41
1
10
65.1018541555839
20
2.93471677924234
30
0
0
SPLINE
5
2AE
100
AcDbEntity
8
1
62
256
6
ByLayer
370
-1
48
1
60
0
100
AcDbSpline
70
4
71
3
72
12
73
8
40
0
40
0
40
0
40
0
40
0.261466805566855
40
0.261466805566855
40
0.727154521522373
40
0.727154521522373
40
1
40
1
40
1
40
1
41
1
10
61.6258194631905
20
8.62610149668944
30
0
41
1
10
61.6467930123996
20
8.60759996593993
30
0
41
1
10
61.6666597174934
20
8.58779802619199
30
0
41
1
10
61.7163779841752
20
8.52914044615756
30
0
41
1
10
61.7421747626364
20
8.48629290293593
30
0
41
1
10
61.7700193183664
20
8.4155435823983
30
0
41
1
10
61.7777867923508
20
8.38855107749734
30
0
41
1
10
61.7834980382619
20
8.36157453395228
30
0
0
SPLINE
5
2AF
100
AcDbEntity
8
1
62
256
6
ByLayer
370
-1
48
1
60
0
100
AcDbSpline
70
4
71
3
72
16
73
12
40
0
40
0
40
0
40
0
40
0.16471073663026
40
0.16471073663026
40
0.331370362656742
40
0.331370362656742
40
0.476446336500464
40
0.476446336500464
40
0.702801041235965
40
0.702801041235965
40
1
40
1
40
1
40
1
41
1
10
74.0480994310112
20
14.5369095405455
30
0
41
1
10
74.0544395157718
20
14.5258152149445
30
0
41
1
10
74.059384870719
20
14.5136832282778
30
0
41
1
10
74.0645417546422
20
14.4885561564062
30
0
41
1
10
74.064693041323
20
14.4752102770639
30
0
41
1
10
74.0603198843141
20
14.4514545490657
30
0
41
1
10
74.0564001857343
20
14.4406133122537
30
0
41
1
10
74.0431848901216
20
14.4150216812389
30
0
41
1
10
74.0319939497376
20
14.4009637285484
30
0
41
1
10
74.0030715430887
20
14.3725462442714
30
0
41
1
10
73.9839977569123
20
14.3589660254517
30
0
41
1
10
73.9640064852791
20
14.3475385567276
30
0
0
SPLINE
5
2B0
100
AcDbEntity
8
1
62
256
6
ByLayer
370
-1
48
1
60
0
100
AcDbSpline
70
4
71
3
72
12
73
8
40
0
40
0
40
0
40
0
40
0.0143412310805872
40
0.0143412310805872
40
0.547790989098491
40
0.547790989098491
40
1
40
1
40
1
40
1
41
1
10
66.1191743737435
20
11.2875468612464
30
0
41
1
10
66.1196195203395
20
11.2887684259125
30
0
41
1
10
66.1200644842427
20
11.2899910808303
30
0
41
1
10
66.1370905537187
20
11.3367470957456
30
0
41
1
10
66.1542265410352
20
11.3838816964634
30
0
41
1
10
66.1862714274035
20
11.4704372825003
30
0
41
1
10
66.2013487479884
20
11.5106000067882
30
0
41
1
10
66.2163028510528
20
11.5487384414599
30
0
0
SPLINE
5
2B1
100
AcDbEntity
8
1
62
256
6
ByLayer
370
-1
48
1
60
0
100
AcDbSpline
70
4
71
3
72
12
73
8
40
0
40
0
40
0
40
0
40
0.5
40
0.5
40
0.75
40
0.75
40
1
40
1
40
1
40
1
41
1
10
62.353785726503
20
11.6371980818314
30
0
41
1
10
62.4816565320748
20
10.7227176337197
30
0
41
1
10
62.6088208190259
20
9.80814827290993
30
0
41
1
10
62.7980779488104
20
8.43610680883779
30
0
41
1
10
62.8633222230713
20
7.97919042014394
30
0
41
1
10
63.0038015236291
20
7.06794482567079
30
0
41
1
10
63.0539453138504
20
6.60726358470964
30
0
41
1
10
63.2308845557394
20
6.17849875115562
30
0
0
SPLINE
5
2B2
100
AcDbEntity
8
1
62
256
6
ByLayer
370
-1
48
1
60
0
100
AcDbSpline
70
4
71
3
72
14
73
10
40
0
40
0
40
0
40
0
40
0.25
40
0.25
40
0.5
40
0.5
40
0.75
40
0.75
40
1
40
1
40
1
40
1
41
1
10
65.8032711026055
20
4.1381556805176
30
0
41
1
10
65.487773701943
20
4.66744757066706
30
0
41
1
10
65.1722684433954
20
5.19673511488091
30
0
41
1
10
64.541274511885
20
6.2553193762455
30
0
41
1
10
64.1785074156857
20
6.76513035878068
30
0
41
1
10
63.8628507455615
20
7.95733778728348
30
0
41
1
10
63.9210183916954
20
8.56692734082372
30
0
41
1
10
63.9150879301973
20
9.77477938767595
30
0
41
1
10
63.9126511647838
20
10.3787163338221
30
0
41
1
10
63.9105485903674
20
10.9826601872797
30
0
0
SPLINE
5
2B3
100
AcDbEntity
8
1
62
256
6
ByLayer
370
-1
48
1
60
0
100
AcDbSpline
70
4
71
3
72
10
73
6
40
0
40
0
40
0
40
0
40
0.732128243131962
40
0.732128243131962
40
1
40
1
40
1
40
1
41
1
10
65.2225105874463
20
10.7232526826833
30
0
41
1
10
65.1814599624132
20
10.7234790745011
30
0
41
1
10
65.1441351774641
20
10.715351782102
30
0
41
1
10
65.1000960361266
20
10.6972047269117
30
0
41
1
10
65.0888083586347
20
10.6915627168273
30
0
41
1
10
65.0781554755108
20
10.6852861176558
30
0
0
SPLINE
5
2B4
100
AcDbEntity
8
1
62
256
6
ByLayer
370
-1
48
1
60
0
100
AcDbSpline
70
4
71
3
72
12
73
8
40
0
40
0
40
0
40
0
40
0.25
40
0.25
40
0.5
40
0.5
40
1
40
1
40
1
40
1
41
1
10
69.6332223357908
20
13.349707826173
30
0
41
1
10
70.1119540505607
20
13.2826849550513
30
0
41
1
10
70.5472445107821
20
13.0831100619854
30
0
41
1
10
71.4353024876264
20
12.7364781771165
30
0
41
1
10
71.8791523079151
20
12.5609056414741
30
0
41
1
10
73.2097939108832
20
12.0312511311552
30
0
41
1
10
74.0972723991868
20
11.6793659199666
30
0
41
1
10
74.984921666481
20
11.3281036512147
30
0
0
SPLINE
5
2B5
100
AcDbEntity
8
1
62
256
6
ByLayer
370
-1
48
1
60
0
100
AcDbSpline
70
4
71
3
72
12
73
8
40
0
40
0
40
0
40
0
40
0.261466805566826
40
0.261466805566826
40
0.727154521522333
40
0.727154521522333
40
1
40
1
40
1
40
1
41
1
10
71.6370610387543
20
1.87740034968425
30
0
41
1
10
71.6424576698486
20
1.90322720213976
30
0
41
1
10
71.6497663918419
20
1.92904652306316
30
0
41
1
10
71.6765391274637
20
1.99864518139407
30
0
41
1
10
71.7019401475232
20
2.04146937759853
30
0
41
1
10
71.7520628646812
20
2.10092295108728
30
0
41
1
10
71.7727878780402
20
2.12145269224922
30
0
41
1
10
71.7947396138256
20
2.14055116753855
30
0
0
SPLINE
5
2B6
100
AcDbEntity
8
1
62
256
6
ByLayer
370
-1
48
1
60
0
100
AcDbSpline
70
4
71
3
72
12
73
8
40
0
40
0
40
0
40
0
40
0.133148321068526
40
0.133148321068526
40
0.702614877346735
40
0.702614877346735
40
1
40
1
40
1
40
1
41
1
10
65.433025511477
20
2.77167767715616
30
0
41
1
10
65.3410722577591
20
2.92594131145054
30
0
41
1
10
65.2491185733685
20
3.08020471691555
30
0
41
1
10
64.7638845286922
20
3.89424222900971
30
0
41
1
10
64.3706131355993
20
4.5540210887365
30
0
41
1
10
63.7720178283766
20
5.55826249758735
30
0
41
1
10
63.5389383072876
20
5.89027747359688
30
0
41
1
10
63.3841378540864
20
6.25750844518518
30
0
0
SPLINE
5
2B7
100
AcDbEntity
8
1
62
256
6
ByLayer
370
-1
48
1
60
0
100
AcDbSpline
70
4
71
3
72
12
73
8
40
0
40
0
40
0
40
0
40
0.467747243448183
40
0.467747243448183
40
0.914074073580918
40
0.914074073580918
40
1
40
1
40
1
40
1
41
1
10
68.5665541927497
20
0.986329955120652
30
0
41
1
10
68.5424483164032
20
0.999880363875775
30
0
41
1
10
68.5180499121709
20
1.01493206582802
30
0
41
1
10
68.4741769525742
20
1.04465580924145
30
0
41
1
10
68.4538800067904
20
1.05975892821908
30
0
41
1
10
68.4333874987385
20
1.07684043890745
30
0
41
1
10
68.4301416211387
20
1.07961370422368
30
0
41
1
10
68.4270169130464
20
1.08235452277953
30
0
0
SPLINE
5
2B8
100
AcDbEntity
8
1
62
256
6
ByLayer
370
-1
48
1
60
0
100
AcDbSpline
70
4
71
3
72
8
73
4
40
0
40
0
40
0
40
0
40
1
40
1
40
1
40
1
41
1
10
65.7911135596019
20
12.8949689875931
30
0
41
1
10
65.7932530625307
20
12.9428407770361
30
0
41
1
10
65.8144975170036
20
12.9970177053974
30
0
41
1
10
65.8370210854462
20
13.0120407788693
30
0
0
SPLINE
5
2B9
100
AcDbEntity
8
1
62
256
6
ByLayer
370
-1
48
1
60
0
100
AcDbSpline
70
4
71
3
72
10
73
6
40
0
40
0
40
0
40
0
40
0.274190864391862
40
0.274190864391862
40
1
40
1
40
1
40
1
41
1
10
72.5422515647692
20
9.93543364204484
30
0
41
1
10
72.5460282555998
20
9.92023274154053
30
0
41
1
10
72.5491965638876
20
9.90485794330536
30
0
41
1
10
72.5581407345177
20
9.84870690030803
30
0
41
1
10
72.560062366783
20
9.8065444245876
30
0
41
1
10
72.553989390457
20
9.7654534812846
30
0
0
SPLINE
5
2BA
100
AcDbEntity
8
1
62
256
6
ByLayer
370
-1
48
1
60
0
100
AcDbSpline
70
4
71
3
72
10
73
6
40
0
40
0
40
0
40
0
40
0.732128243131994
40
0.732128243131994
40
1
40
1
40
1
40
1
41
1
10
68.0715644545359
20
4.03018119120406
30
0
41
1
10
68.0996886822244
20
4.00680117905347
30
0
41
1
10
68.1342828591476
20
3.9919275471791
30
0
41
1
10
68.1843659359758
20
3.98093474027237
30
0
41
1
10
68.1982754381977
20
3.97887621680223
30
0
41
1
10
68.2124333360424
20
3.97766273761661
30
0
0
SPLINE
5
2BB
100
AcDbEntity
8
1
62
256
6
ByLayer
370
-1
48
1
60
0
100
AcDbSpline
70
4
71
3
72
16
73
12
40
0
40
0
40
0
40
0
40
0.343443954228567
40
0.343443954228567
40
0.535083245610717
40
0.535083245610717
40
0.693553557835146
40
0.693553557835146
40
0.853171508912959
40
0.853171508912959
40
1
40
1
40
1
40
1
41
1
10
61.8170846678759
20
6.95781139401288
30
0
41
1
10
61.8175337854353
20
6.9332981897314
30
0
41
1
10
61.8150173689547
20
6.90857873909295
30
0
41
1
10
61.8034412115254
20
6.8730968003149
30
0
41
1
10
61.7976157850629
20
6.8607789861654
30
0
41
1
10
61.7832177531874
20
6.84114206641161
30
0
41
1
10
61.7751073831048
20
6.83317689904965
30
0
41
1
10
61.7562565629013
20
6.82097387279603
30
0
41
1
10
61.7452310949691
20
6.81664533463507
30
0
41
1
10
61.7231495008498
20
6.81235805707675
30
0
41
1
10
61.7119424411834
20
6.81198029317846
30
0
41
1
10
61.7008502444492
20
6.81285470516139
30
0
0
SPLINE
5
2BC
100
AcDbEntity
8
1
62
256
6
ByLayer
370
-1
48
1
60
0
100
AcDbSpline
70
4
71
3
72
12
73
8
40
0
40
0
40
0
40
0
40
0.330584430932533
40
0.330584430932533
40
0.914285519682803
40
0.914285519682803
40
1
40
1
40
1
40
1
41
1
10
65.4903216270543
20
13.3951847077907
30
0
41
1
10
65.5206705892268
20
13.4056484009696
30
0
41
1
10
65.5559902848949
20
13.420760212748
30
0
41
1
10
65.6549320249745
20
13.4665409005608
30
0
41
1
10
65.7224727338907
20
13.5016155362144
30
0
41
1
10
65.7988453580955
20
13.5441680626191
30
0
41
1
10
65.8087210988986
20
13.5497298049648
30
0
41
1
10
65.8185872777264
20
13.5553461809053
30
0
0
SPLINE
5
2BD
100
AcDbEntity
8
1
62
256
6
ByLayer
370
-1
48
1
60
0
100
AcDbSpline
70
4
71
3
72
8
73
4
40
0
40
0
40
0
40
0
40
1
40
1
40
1
40
1
41
1
10
74.9853200236383
20
7.99393627893164
30
0
41
1
10
74.985452778803
20
8.00662661108618
30
0
41
1
10
74.9855855340094
20
8.01931694217524
30
0
41
1
10
74.9857182892572
20
8.03200727220619
30
0
0
SPLINE
5
2BE
100
AcDbEntity
8
1
62
256
6
ByLayer
370
-1
48
1
60
0
100
AcDbSpline
70
4
71
3
72
14
73
10
40
0
40
0
40
0
40
0
40
0.327529474127701
40
0.327529474127701
40
0.665666599581698
40
0.665666599581698
40
0.91567305531077
40
0.91567305531077
40
1
40
1
40
1
40
1
41
1
10
74.2808545270245
20
8.2655883807447
30
0
41
1
10
74.2660434082311
20
8.27049655978843
30
0
41
1
10
74.2475304973369
20
8.27472910273499
30
0
41
1
10
74.2066815381789
20
8.28169203576829
30
0
41
1
10
74.183604626166
20
8.28447566731313
30
0
41
1
10
74.1418904074174
20
8.28745068742683
30
0
41
1
10
74.1232251892256
20
8.28815472073939
30
0
41
1
10
74.0985428700847
20
8.28790094262339
30
0
41
1
10
74.0922620672391
20
8.28773058941846
30
0
41
1
10
74.0860847868341
20
8.28743401021495
30
0
0
SPLINE
5
2BF
100
AcDbEntity
8
1
62
256
6
ByLayer
370
-1
48
1
60
0
100
AcDbSpline
70
4
71
3
72
16
73
12
40
0
40
0
40
0
40
0
40
0.164710736630257
40
0.164710736630257
40
0.331370362656749
40
0.331370362656749
40
0.476446336500498
40
0.476446336500498
40
0.702801041235991
40
0.702801041235991
40
1
40
1
40
1
40
1
41
1
10
71.7279268809992
20
0.327923347950502
30
0
41
1
10
71.7154283741378
20
0.327054347200857
30
0
41
1
10
71.702747421932
20
0.32776619567008
30
0
41
1
10
71.6790074825433
20
0.333493139665933
30
0
41
1
10
71.6676826985656
20
0.3386987637098
30
0
41
1
10
71.6498286771985
20
0.351846799080732
30
0
41
1
10
71.6426356599309
20
0.359455878628921
30
0
41
1
10
71.6276226379279
20
0.380731187101077
30
0
41
1
10
71.6213270156788
20
0.395705642268837
30
0
41
1
10
71.6117277645207
20
0.431244210253425
30
0
41
1
10
71.6097472673466
20
0.452619404893483
30
0
41
1
10
71.6100367645704
20
0.473901701560124
30
0
0
SPLINE
5
2C0
100
AcDbEntity
8
1
62
256
6
ByLayer
370
-1
48
1
60
0
100
AcDbSpline
70
4
71
3
72
12
73
8
40
0
40
0
40
0
40
0
40
0.454187976028943
40
0.454187976028943
40
0.987490284578521
40
0.987490284578521
40
1
40
1
40
1
40
1
41
1
10
66.1290985348398
20
11.5650672177518
30
0
41
1
10
66.1256720682813
20
11.5246810068657
30
0
41
1
10
66.1234307570054
20
11.4816840523569
30
0
41
1
10
66.1201626429386
20
11.3894306182546
30
0
41
1
10
66.1193916533358
20
11.3391778663649
30
0
41
1
10
66.119182999584
20
11.2898060753277
30
0
41
1
10
66.1191787861094
20
11.2886760351738
30
0
41
1
10
66.1191743737435
20
11.2875468612464
30
0
0
SPLINE
5
2C1
100
AcDbEntity
8
1
62
256
6
ByLayer
370
-1
48
1
60
0
100
AcDbSpline
70
4
71
3
72
16
73
12
40
0
40
0
40
0
40
0
40
0.343443954228585
40
0.343443954228585
40
0.5350832456107
40
0.5350832456107
40
0.693553557835166
40
0.693553557835166
40
0.85317150891296
40
0.85317150891296
40
1
40
1
40
1
40
1
41
1
10
71.0114736398657
20
14.3604227198575
30
0
41
1
10
70.988566378903
20
14.3737836105475
30
0
41
1
10
70.9667906416199
20
14.3900313960389
30
0
41
1
10
70.9390859195062
20
14.420794791594
30
0
41
1
10
70.9302737680094
20
14.4331626621462
30
0
41
1
10
70.9185050371864
20
14.4576552112519
30
0
41
1
10
70.9147438524526
20
14.4697111794278
30
0
41
1
10
70.9118471135334
20
14.4941852487968
30
0
41
1
10
70.9127546743584
20
14.5069206432624
30
0
41
1
10
70.9186312816704
20
14.5299635177225
30
0
41
1
10
70.9232794927538
20
14.5406475898239
30
0
41
1
10
70.9290363871316
20
14.5505204025328
30
0
0
SPLINE
5
2C2
100
AcDbEntity
8
1
62
256
6
ByLayer
370
-1
48
1
60
0
100
AcDbSpline
70
4
71
3
72
8
73
4
40
0
40
0
40
0
40
0
40
1
40
1
40
1
40
1
41
1
10
65.4620718348889
20
2.76168771027463
30
0
41
1
10
65.587054918408
20
3.03873507788401
30
0
41
1
10
65.7120380019271
20
3.3157824454934
30
0
41
1
10
65.8370210854462
20
3.59282981310275
30
0
0
SPLINE
5
2C3
100
AcDbEntity
8
1
62
256
6
ByLayer
370
-1
48
1
60
0
100
AcDbSpline
70
4
71
3
72
12
73
8
40
0
40
0
40
0
40
0
40
0.454187976028956
40
0.454187976028956
40
0.987490284578537
40
0.987490284578537
40
1
40
1
40
1
40
1
41
1
10
66.8600809978741
20
4.37106586802326
30
0
41
1
10
66.8921764617216
20
4.37977489694944
30
0
41
1
10
66.9276090020783
20
4.39308128183288
30
0
41
1
10
67.0056701854902
20
4.42700005732269
30
0
41
1
10
67.0494843529134
20
4.44893149967933
30
0
41
1
10
67.0937740544792
20
4.47314141387199
30
0
41
1
10
67.0947883452196
20
4.4736972489749
30
0
41
1
10
67.0958028144453
20
4.47425372711865
30
0
0
SPLINE
5
2C4
100
AcDbEntity
8
1
62
256
6
ByLayer
370
-1
48
1
60
0
100
AcDbSpline
70
4
71
3
72
12
73
8
40
0
40
0
40
0
40
0
40
0.500000000000003
40
0.500000000000003
40
0.750000000000001
40
0.750000000000001
40
1
40
1
40
1
40
1
41
1
10
68.5665541927497
20
0.986329955120652
30
0
41
1
10
69.3219028014109
20
1.54697623142104
30
0
41
1
10
70.0776871388217
20
2.10707550585039
30
0
41
1
10
71.2122821360967
20
2.94607136899131
30
0
41
1
10
71.5890065829452
20
3.22732892655154
30
0
41
1
10
72.3351017427867
20
3.79691935629876
30
0
41
1
10
72.7228104976134
20
4.06741075814691
30
0
41
1
10
73.0180141151198
20
4.4281525114574
30
0
0
SPLINE
5
2C5
100
AcDbEntity
8
1
62
256
6
ByLayer
370
-1
48
1
60
0
100
AcDbSpline
70
4
71
3
72
10
73
6
40
0
40
0
40
0
40
0
40
0.274190864391834
40
0.274190864391834
40
1
40
1
40
1
40
1
41
1
10
68.2815039231935
20
4.04008640921038
30
0
41
1
10
68.2677033381037
20
4.0412711047681
30
0
41
1
10
68.2540559164569
20
4.04303830793756
30
0
41
1
10
68.2054655476651
20
4.05179004615928
30
0
41
1
10
68.1712647459175
20
4.0625557906146
30
0
41
1
10
68.1417133349501
20
4.08001098355157
30
0
0
SPLINE
5
2C6
100
AcDbEntity
8
1
62
256
6
ByLayer
370
-1
48
1
60
0
100
AcDbSpline
70
4
71
3
72
12
73
8
40
0
40
0
40
0
40
0
40
0.0125097154214966
40
0.0125097154214966
40
0.545812023971061
40
0.545812023971061
40
1
40
1
40
1
40
1
41
1
10
72.4998254460223
20
9.49217263082721
30
0
41
1
10
72.5004411059155
20
9.49312981320602
30
0
41
1
10
72.5010570409938
20
9.4940877284167
30
0
41
1
10
72.5279305703994
20
9.535956612609
30
0
41
1
10
72.554144786143
20
9.57905020283391
30
0
41
1
10
72.5992778560851
20
9.65952376336458
30
0
41
1
10
72.6191409978033
20
9.6975623241436
30
0
41
1
10
72.6358833219065
20
9.73420174693214
30
0
0
SPLINE
5
2C7
100
AcDbEntity
8
1
62
256
6
ByLayer
370
-1
48
1
60
0
100
AcDbSpline
70
4
71
3
72
10
73
6
40
0
40
0
40
0
40
0
40
0.266814892217276
40
0.266814892217276
40
1
40
1
40
1
40
1
41
1
10
66.2163028510528
20
11.5487384414599
30
0
41
1
10
66.2219036582372
20
11.563022549172
30
0
41
1
10
66.2285236678266
20
11.5768503409317
30
0
41
1
10
66.2558927050341
20
11.6265166266058
30
0
41
1
10
66.2814037804845
20
11.6595638477541
30
0
41
1
10
66.3095998027813
20
11.6891641366123
30
0
0
SPLINE
5
2C8
100
AcDbEntity
8
1
62
256
6
ByLayer
370
-1
48
1
60
0
100
AcDbSpline
70
4
71
3
72
10
73
6
40
0
40
0
40
0
40
0
40
0.266814892217291
40
0.266814892217291
40
1
40
1
40
1
40
1
41
1
10
66.8289003503622
20
4.44940755063999
30
0
41
1
10
66.8152432212984
20
4.44986337943661
30
0
41
1
10
66.8015299747512
20
4.45146847398991
30
0
41
1
10
66.750799092009
20
4.46072227072614
30
0
41
1
10
66.7140436072424
20
4.473971197613
30
0
41
1
10
66.6789165708523
20
4.49101908078202
30
0
0
SPLINE
5
2C9
100
AcDbEntity
8
1
62
256
6
ByLayer
370
-1
48
1
60
0
100
AcDbSpline
70
4
71
3
72
12
73
8
40
0
40
0
40
0
40
0
40
0.454187976028934
40
0.454187976028934
40
0.987490284578552
40
0.987490284578552
40
1
40
1
40
1
40
1
41
1
10
72.9407788311749
20
8.55150253504451
30
0
41
1
10
72.9109630392251
20
8.56557550272652
30
0
41
1
10
72.8769382581736
20
8.58247038363299
30
0
41
1
10
72.8009098084854
20
8.62184096696765
30
0
41
1
10
72.7575476039389
20
8.64526496137808
30
0
41
1
10
72.7134518779303
20
8.67020151619704
30
0
41
1
10
72.7124416326757
20
8.67077314248704
30
0
41
1
10
72.7114315758161
20
8.67134583827064
30
0
0
SPLINE
5
2CA
100
AcDbEntity
8
1
62
256
6
ByLayer
370
-1
48
1
60
0
100
AcDbSpline
70
4
71
3
72
10
73
6
40
0
40
0
40
0
40
0
40
0.72637116859111
40
0.72637116859111
40
1
40
1
40
1
40
1
41
1
10
66.2118514557872
20
11.7379823919546
30
0
41
1
10
66.1838881942708
20
11.702314415473
30
0
41
1
10
66.1601801094144
20
11.6616764901937
30
0
41
1
10
66.1378966701866
20
11.6005021797253
30
0
41
1
10
66.1328214334911
20
11.5830117220271
30
0
41
1
10
66.1290985348398
20
11.5650672177518
30
0
0
SPLINE
5
2CB
100
AcDbEntity
8
1
62
256
6
ByLayer
370
-1
48
1
60
0
100
AcDbSpline
70
4
71
3
72
10
73
6
40
0
40
0
40
0
40
0
40
0.226375763220899
40
0.226375763220899
40
1
40
1
40
1
40
1
41
1
10
68.9423924860753
20
4.03139438101536
30
0
41
1
10
68.8915707543833
20
4.02850617991288
30
0
41
1
10
68.8409313111648
20
4.02642485598093
30
0
41
1
10
68.6183052599173
20
4.02078527030565
30
0
41
1
10
68.4483106579612
20
4.02579093497005
30
0
41
1
10
68.2815039231935
20
4.04008640921038
30
0
0
SPLINE
5
2CC
100
AcDbEntity
8
1
62
256
6
ByLayer
370
-1
48
1
60
0
100
AcDbSpline
70
4
71
3
72
12
73
8
40
0
40
0
40
0
40
0
40
0.5
40
0.5
40
0.75
40
0.75
40
1
40
1
40
1
40
1
41
1
10
74.9838164139946
20
11.4680257989014
30
0
41
1
10
74.1005969997615
20
11.8218599707126
30
0
41
1
10
73.2176483753996
20
12.1763300570931
30
0
41
1
10
71.8937962483402
20
12.7093756580244
30
0
41
1
10
71.4518275272308
20
12.8850344891579
30
0
41
1
10
70.5652530668315
20
13.2266896538838
30
0
41
1
10
70.1274005217834
20
13.4168794929968
30
0
41
1
10
69.655257662388
20
13.4849025732404
30
0
0
SPLINE
5
2CD
100
AcDbEntity
8
1
62
256
6
ByLayer
370
-1
48
1
60
0
100
AcDbSpline
70
4
71
3
72
10
73
6
40
0
40
0
40
0
40
0
40
0.226375763220909
40
0.226375763220909
40
1
40
1
40
1
40
1
41
1
10
64.6560165764249
20
10.2584963830815
30
0
41
1
10
64.6875695076384
20
10.2850540770193
30
0
41
1
10
64.7197670417017
20
10.3110298227104
30
0
41
1
10
64.8646569880701
20
10.4230814800152
30
0
41
1
10
64.9841529335521
20
10.5029517298599
30
0
41
1
10
65.1103375509623
20
10.5755861347839
30
0
0
SPLINE
5
2CE
100
AcDbEntity
8
1
62
256
6
ByLayer
370
-1
48
1
60
0
100
AcDbSpline
70
4
71
3
72
12
73
8
40
0
40
0
40
0
40
0
40
0.250000000000002
40
0.250000000000002
40
0.500000000000003
40
0.500000000000003
40
1
40
1
40
1
40
1
41
1
10
72.8909142345332
20
4.5475535540113
30
0
41
1
10
72.5941852108534
20
4.1791439006621
30
0
41
1
10
72.1974634278626
20
3.91917434727344
30
0
41
1
10
71.4443196109086
20
3.35446155156265
30
0
41
1
10
71.0674349484148
20
3.07022989469294
30
0
41
1
10
69.9352127505884
20
2.21857645095233
30
0
41
1
10
69.1809890012884
20
1.65047732666722
30
0
41
1
10
68.4270169130323
20
1.08235452276895
30
0
0
SPLINE
5
2CF
100
AcDbEntity
8
1
62
256
6
ByLayer
370
-1
48
1
60
0
100
AcDbSpline
70
4
71
3
72
12
73
8
40
0
40
0
40
0
40
0
40
0.452209010901515
40
0.452209010901515
40
0.985658768919447
40
0.985658768919447
40
1
40
1
40
1
40
1
41
1
10
65.2338871007887
20
10.6365138079533
30
0
41
1
10
65.2681001877474
20
10.6440296921251
30
0
41
1
10
65.3060540711712
20
10.6531092266552
30
0
41
1
10
65.3906205263278
20
10.6748333971842
30
0
41
1
10
65.4384582907829
20
10.6880303382611
30
0
41
1
10
65.4874141061523
20
10.7025419696611
30
0
41
1
10
65.4886953771064
20
10.7029222144928
30
0
41
1
10
65.489976628831
20
10.7033037013606
30
0
0
SPLINE
5
2D0
100
AcDbEntity
8
1
62
256
6
ByLayer
370
-1
48
1
60
0
100
AcDbSpline
70
4
71
3
72
12
73
8
40
0
40
0
40
0
40
0
40
0.0125097154214664
40
0.0125097154214664
40
0.545812023971049
40
0.545812023971049
40
1
40
1
40
1
40
1
41
1
10
65.489976628831
20
10.7033037013606
30
0
41
1
10
65.4888083261997
20
10.7033439478066
30
0
41
1
10
65.4876400827421
20
10.7033853001063
30
0
41
1
10
65.4366395996158
20
10.7052067173743
30
0
41
1
10
65.3864221046447
20
10.7081139827528
30
0
41
1
10
65.2978247170676
20
10.7150654725952
30
0
41
1
10
65.2579572692944
20
10.7189622322215
30
0
41
1
10
65.2225105874463
20
10.7232526826833
30
0
0
SPLINE
5
2D1
100
AcDbEntity
8
1
62
256
6
ByLayer
370
-1
48
1
60
0
100
AcDbSpline
70
4
71
3
72
12
73
8
40
0
40
0
40
0
40
0
40
0.330584430932545
40
0.330584430932545
40
0.914285519682819
40
0.914285519682819
40
1
40
1
40
1
40
1
41
1
10
65.4330255114756
20
2.77167767715835
30
0
41
1
10
65.4018208302713
20
2.78240997604769
30
0
41
1
10
65.3659018590894
20
2.7978326567314
30
0
41
1
10
65.2657473413775
20
2.84448215407093
30
0
41
1
10
65.1978955074073
20
2.88014761113124
30
0
41
1
10
65.1215618695678
20
2.92336651196573
30
0
41
1
10
65.1116991818939
20
2.92901438819905
30
0
41
1
10
65.1018541556047
20
2.93471677923083
30
0
0
SPLINE
5
2D2
100
AcDbEntity
8
1
62
256
6
ByLayer
370
-1
48
1
60
0
100
AcDbSpline
70
4
71
3
72
14
73
10
40
0
40
0
40
0
40
0
40
0.25
40
0.25
40
0.5
40
0.5
40
0.75
40
0.75
40
1
40
1
40
1
40
1
41
1
10
73.8699182453456
20
8.05512599527336
30
0
41
1
10
73.5544184461347
20
7.52858896720383
30
0
41
1
10
73.2389265025113
20
7.00204752078395
30
0
41
1
10
72.6079260345294
20
5.94897395372632
30
0
41
1
10
72.3337096188566
20
5.39255287451277
30
0
41
1
10
71.4240207259827
20
4.53701807663938
30
0
41
1
10
70.8482439819416
20
4.28327403984923
30
0
41
1
10
69.7684557821173
20
3.67911126647871
30
0
41
1
10
69.228285590588
20
3.3774666028813
30
0
41
1
10
68.6879408041958
20
3.07609811430314
30
0
0
SPLINE
5
2D3
100
AcDbEntity
8
1
62
256
6
ByLayer
370
-1
48
1
60
0
100
AcDbSpline
70
4
71
3
72
14
73
10
40
0
40
0
40
0
40
0
40
0.25
40
0.25
40
0.5
40
0.5
40
0.75
40
0.75
40
1
40
1
40
1
40
1
41
1
10
68.7185079118422
20
3.01914708520059
30
0
41
1
10
69.2638252856092
20
3.31934328475745
30
0
41
1
10
69.8091182850683
20
3.61942731197112
30
0
41
1
10
70.8993801942629
20
4.21963295016332
30
0
41
1
10
71.4821740776225
20
4.46678544266643
30
0
41
1
10
72.400227189312
20
5.32181700893273
30
0
41
1
10
72.6715197871142
20
5.88702436823556
30
0
41
1
10
73.3058308340599
20
6.94561789529541
30
0
41
1
10
73.622975608168
20
7.4749215228166
30
0
41
1
10
73.9401298345476
20
8.00421925723998
30
0
0
SPLINE
5
2D4
100
AcDbEntity
8
1
62
256
6
ByLayer
370
-1
48
1
60
0
100
AcDbSpline
70
4
71
3
72
14
73
10
40
0
40
0
40
0
40
0
40
0.25
40
0.25
40
0.5
40
0.5
40
0.75
40
0.75
40
1
40
1
40
1
40
1
41
1
10
73.3985872428296
20
11.0414037570558
30
0
41
1
10
72.8540814740205
20
11.3478460415516
30
0
41
1
10
72.3095588054722
20
11.654135500869
30
0
41
1
10
71.2202294852902
20
12.2658250316326
30
0
41
1
10
70.7020981264613
20
12.626614305243
30
0
41
1
10
69.4703846026496
20
12.966759196885
30
0
41
1
10
68.830182792628
20
12.9179610469195
30
0
41
1
10
67.5615712133726
20
12.9235023140834
30
0
41
1
10
66.9272654753604
20
12.9262616915241
30
0
41
1
10
66.292959700926
20
12.9290310944623
30
0
0
SPLINE
5
2D5
100
AcDbEntity
8
1
62
256
6
ByLayer
370
-1
48
1
60
0
100
AcDbSpline
70
4
71
3
72
8
73
4
40
0
40
0
40
0
40
0
40
1
40
1
40
1
40
1
41
1
10
65.9700561095985
20
3.61967920713269
30
0
41
1
10
65.9327231886896
20
3.60737513123056
30
0
41
1
10
65.8711590158553
20
3.59495010536577
30
0
41
1
10
65.8370210854462
20
3.59282981310278
30
0
0
SPLINE
5
2D6
100
AcDbEntity
8
1
62
256
6
ByLayer
370
-1
48
1
60
0
100
AcDbSpline
70
4
71
3
72
10
73
6
40
0
40
0
40
0
40
0
40
0.517866865973608
40
0.517866865973608
40
1
40
1
40
1
40
1
41
1
10
73.3835321643806
20
10.9290991380412
30
0
41
1
10
73.6607899686209
20
10.872617335732
30
0
41
1
10
73.9387484033715
20
10.8183518268988
30
0
41
1
10
74.4764849900119
20
10.717031898979
30
0
41
1
10
74.736206946773
20
10.6697396739168
30
0
41
1
10
74.9962924752349
20
10.6237516812846
30
0
0
SPLINE
5
2D7
100
AcDbEntity
8
1
62
256
6
ByLayer
370
-1
48
1
60
0
100
AcDbSpline
70
4
71
3
72
12
73
8
40
0
40
0
40
0
40
0
40
0.467747243448217
40
0.467747243448217
40
0.914074073580958
40
0.914074073580958
40
1
40
1
40
1
40
1
41
1
10
62.353785726503
20
11.6371980818314
30
0
41
1
10
62.3778916028494
20
11.6505381057681
30
0
41
1
10
62.4024580287017
20
11.6653761366483
30
0
41
1
10
62.4469671821422
20
11.6947142011813
30
0
41
1
10
62.4677283781733
20
11.7096381520261
30
0
41
1
10
62.4889199723413
20
11.7265377630368
30
0
41
1
10
62.4922850852298
20
11.729282179536
30
0
41
1
10
62.495533511146
20
11.7319951872249
30
0
0
SPLINE
5
2D8
100
AcDbEntity
8
1
62
256
6
ByLayer
370
-1
48
1
60
0
100
AcDbSpline
70
4
71
3
72
8
73
4
40
0
40
0
40
0
40
0
40
1
40
1
40
1
40
1
41
1
10
65.9700561095985
20
3.61967920713269
30
0
41
1
10
65.9588563873415
20
3.67228172939906
30
0
41
1
10
65.9476566699255
20
3.72488425326091
30
0
41
1
10
65.9364569627731
20
3.77748678050546
30
0
0
SPLINE
5
2D9
100
AcDbEntity
8
1
62
256
6
ByLayer
370
-1
48
1
60
0
100
AcDbSpline
70
4
71
3
72
10
73
6
40
0
40
0
40
0
40
0
40
0.726371168591117
40
0.726371168591117
40
1
40
1
40
1
40
1
41
1
10
73.0273438956444
20
8.44856013458809
30
0
41
1
10
73.0160626921793
20
8.47662483720828
30
0
41
1
10
72.9982895437862
20
8.50348893464823
30
0
41
1
10
72.963443560717
20
8.53552338740187
30
0
41
1
10
72.9526985401333
20
8.54386989551222
30
0
41
1
10
72.9407788311749
20
8.55150253504451
30
0
0
SPLINE
5
2DA
100
AcDbEntity
8
1
62
256
6
ByLayer
370
-1
48
1
60
0
100
AcDbSpline
70
4
71
3
72
12
73
8
40
0
40
0
40
0
40
0
40
0.467747243448213
40
0.467747243448213
40
0.91407407358096
40
0.91407407358096
40
1
40
1
40
1
40
1
41
1
10
74.9838164139946
20
11.4680257989013
30
0
41
1
10
74.9838164139946
20
11.4411353662095
30
0
41
1
10
74.9839004248046
20
11.4151145325386
30
0
41
1
10
74.9842185217265
20
11.3707018502791
30
0
41
1
10
74.9844506468501
20
11.3513646987728
30
0
41
1
10
74.9848001899081
20
11.3334808727005
30
0
41
1
10
74.9848598075525
20
11.3307087263025
30
0
41
1
10
74.9849216664644
20
11.3281036512212
30
0
0
SPLINE
5
2DB
100
AcDbEntity
8
1
62
256
6
ByLayer
370
-1
48
1
60
0
100
AcDbSpline
70
4
71
3
72
10
73
6
40
0
40
0
40
0
40
0
40
0.274190864391855
40
0.274190864391855
40
1
40
1
40
1
40
1
41
1
10
65.1103375509623
20
10.5755861347839
30
0
41
1
10
65.1199456793457
20
10.5832200013577
30
0
41
1
10
65.1300072553688
20
10.5904180647244
30
0
41
1
10
65.16814106013
20
10.6146009224723
30
0
41
1
10
65.1993075689543
20
10.6289174236722
30
0
41
1
10
65.2338871007887
20
10.6365138079533
30
0
0
SPLINE
5
2DC
100
AcDbEntity
8
1
62
256
6
ByLayer
370
-1
48
1
60
0
100
AcDbSpline
70
4
71
3
72
14
73
10
40
0
40
0
40
0
40
0
40
0.327529474127726
40
0.327529474127726
40
0.665666599581735
40
0.665666599581735
40
0.915673055310719
40
0.915673055310719
40
1
40
1
40
1
40
1
41
1
10
65.8370210854461
20
3.59282981310275
30
0
41
1
10
65.8448997964667
20
3.61029438580292
30
0
41
1
10
65.8545618246525
20
3.63011874363889
30
0
41
1
10
65.8756490791413
20
3.67135674556931
30
0
41
1
10
65.8874496225002
20
3.69344131779863
30
0
41
1
10
65.9085795706322
20
3.73119386180002
30
0
41
1
10
65.9179729979697
20
3.74742535396177
30
0
41
1
10
65.9302788450534
20
3.76764056920322
30
0
41
1
10
65.9333999277789
20
3.77267315393618
30
0
41
1
10
65.9364569627731
20
3.77748678050546
30
0
0
SPLINE
5
2DD
100
AcDbEntity
8
1
62
256
6
ByLayer
370
-1
48
1
60
0
100
AcDbSpline
70
4
71
3
72
10
73
6
40
0
40
0
40
0
40
0
40
0.478255409340382
40
0.478255409340382
40
1
40
1
40
1
40
1
41
1
10
74.9963651120604
20
10.7412377362835
30
0
41
1
10
74.7407734053351
20
10.7861196740023
30
0
41
1
10
74.4855347615
20
10.8322485117528
30
0
41
1
10
73.9527802552285
20
10.931805920549
30
0
41
1
10
73.6753347775363
20
10.9855149939112
30
0
41
1
10
73.3985872428296
20
11.0414037570558
30
0
0
SPLINE
5
2DE
100
AcDbEntity
8
1
62
256
6
ByLayer
370
-1
48
1
60
0
100
AcDbSpline
70
4
71
3
72
10
73
6
40
0
40
0
40
0
40
0
40
0.517866865973608
40
0.517866865973608
40
1
40
1
40
1
40
1
41
1
10
63.9563858907938
20
11.0195343949008
30
0
41
1
10
63.8455113944857
20
11.2479284301304
30
0
41
1
10
63.7326632042916
20
11.4763399784207
30
0
41
1
10
63.5117190837801
20
11.9173547850767
30
0
41
1
10
63.4038245620035
20
12.1299708834063
30
0
41
1
10
63.294795185842
20
12.3425594996966
30
0
0
SPLINE
5
2DF
100
AcDbEntity
8
1
62
256
6
ByLayer
370
-1
48
1
60
0
100
AcDbSpline
70
4
71
3
72
8
73
4
40
0
40
0
40
0
40
0
40
1
40
1
40
1
40
1
41
1
10
74.9857182892572
20
8.03200727220619
30
0
41
1
10
74.7507637018463
20
8.10986764171901
30
0
41
1
10
74.5158091144354
20
8.18772801123185
30
0
41
1
10
74.2808545270245
20
8.2655883807447
30
0
0
SPLINE
5
2E0
100
AcDbEntity
8
1
62
256
6
ByLayer
370
-1
48
1
60
0
100
AcDbSpline
70
4
71
3
72
8
73
4
40
0
40
0
40
0
40
0
40
1
40
1
40
1
40
1
41
1
10
65.433025511477
20
2.77167767717108
30
0
41
1
10
65.4427076207646
20
2.76834768670992
30
0
41
1
10
65.4523897285652
20
2.76501769774791
30
0
41
1
10
65.4620718348889
20
2.76168771027463
30
0
0
SPLINE
5
2E1
100
AcDbEntity
8
1
62
256
6
ByLayer
370
-1
48
1
60
0
100
AcDbSpline
70
4
71
3
72
12
73
8
40
0
40
0
40
0
40
0
40
0.452209010901518
40
0.452209010901518
40
0.985658768919379
40
0.985658768919379
40
1
40
1
40
1
40
1
41
1
10
68.1417133349501
20
4.08001098355157
30
0
41
1
10
68.1124750850507
20
4.09728120099385
30
0
41
1
10
68.0814313246261
20
4.11905279597622
30
0
41
1
10
68.0137145811917
20
4.17086945864804
30
0
41
1
10
67.9763361948044
20
4.20225575673049
30
0
41
1
10
67.9385818214229
20
4.23590548065806
30
0
41
1
10
67.9375943102936
20
4.23678738339112
30
0
41
1
10
67.9366066891515
20
4.23767009444791
30
0
0
SPLINE
5
2E2
100
AcDbEntity
8
1
62
256
6
ByLayer
370
-1
48
1
60
0
100
AcDbSpline
70
4
71
3
72
8
73
4
40
0
40
0
40
0
40
0
40
1
40
1
40
1
40
1
41
1
10
74.1947004046016
20
8.3707528755109
30
0
41
1
10
74.2312026454157
20
8.35527663816001
30
0
41
1
10
74.2710719174326
20
8.30661002439126
30
0
41
1
10
74.2808545270244
20
8.26558838074473
30
0
0
SPLINE
5
2E3
100
AcDbEntity
8
1
62
256
6
ByLayer
370
-1
48
1
60
0
100
AcDbSpline
70
4
71
3
72
14
73
10
40
0
40
0
40
0
40
0
40
0.264919990892518
40
0.264919990892518
40
0.530416812891247
40
0.530416812891247
40
0.787654584874259
40
0.787654584874259
40
1
40
1
40
1
40
1
41
1
10
74.9962924752342
20
10.6237516812847
30
0
41
1
10
74.9964138651481
20
10.6341580111498
30
0
41
1
10
74.9965120538485
20
10.6454907074863
30
0
41
1
10
74.9966438891987
20
10.6682268133076
30
0
41
1
10
74.9966791427786
20
10.6799516737149
30
0
41
1
10
74.9966796006759
20
10.7016808232152
30
0
41
1
10
74.9966468742145
20
10.7120303910285
30
0
41
1
10
74.9965311523951
20
10.7286554852435
30
0
41
1
10
74.9964567429923
20
10.7354975161497
30
0
41
1
10
74.9963651120605
20
10.7412377362834
30
0
0
SPLINE
5
2E4
100
AcDbEntity
8
1
62
256
6
ByLayer
370
-1
48
1
60
0
100
AcDbSpline
70
4
71
3
72
10
73
6
40
0
40
0
40
0
40
0
40
0.410984291904105
40
0.410984291904105
40
1
40
1
40
1
40
1
41
1
10
74.9963651120621
20
10.7412377362831
30
0
41
1
10
74.994940527046
20
10.8304808709151
30
0
41
1
10
74.9934526360998
20
10.9161723719676
30
0
41
1
10
74.9896927854894
20
11.1155951739085
30
0
41
1
10
74.9873565159338
20
11.2255644135042
30
0
41
1
10
74.9849216664645
20
11.3281036512188
30
0
0
SPLINE
5
2E5
100
AcDbEntity
8
1
62
256
6
ByLayer
370
-1
48
1
60
0
100
AcDbSpline
70
4
71
3
72
10
73
6
40
0
40
0
40
0
40
0
40
0.517866865973607
40
0.517866865973607
40
1
40
1
40
1
40
1
41
1
10
68.6257664738827
20
3.08742726675189
30
0
41
1
10
68.455100065383
20
2.84976601812372
30
0
41
1
10
68.2857786793057
20
2.61097559181638
30
0
41
1
10
67.9609678644369
20
2.14819265363613
30
0
41
1
10
67.8053253435668
20
1.92430416394984
30
0
41
1
10
67.6504968558912
20
1.69979517836174
30
0
0
SPLINE
5
2E6
100
AcDbEntity
8
1
62
256
6
ByLayer
370
-1
48
1
60
0
100
AcDbSpline
70
4
71
3
72
10
73
6
40
0
40
0
40
0
40
0
40
0.266814892217281
40
0.266814892217281
40
1
40
1
40
1
40
1
41
1
10
72.8843866247808
20
8.48383228068965
30
0
41
1
10
72.8928301326377
20
8.47503595827962
30
0
41
1
10
72.9003200688724
20
8.46569272281133
30
0
41
1
10
72.9251723618842
20
8.4296521999724
30
0
41
1
10
72.9375418797232
20
8.40062736667025
30
0
41
1
10
72.9455766652914
20
8.37092296864481
30
0
0
SPLINE
5
2E7
100
AcDbEntity
8
1
62
256
6
ByLayer
370
-1
48
1
60
0
100
AcDbSpline
70
4
71
3
72
10
73
6
40
0
40
0
40
0
40
0
40
0.226375763220906
40
0.226375763220906
40
1
40
1
40
1
40
1
41
1
10
72.3647102397277
20
10.7067917542745
30
0
41
1
10
72.3817947957147
20
10.6495923633831
30
0
41
1
10
72.3980495960288
20
10.592124073516
30
0
41
1
10
72.4661233126749
20
10.3373866227117
30
0
41
1
10
72.5091186520577
20
10.1373287960505
30
0
41
1
10
72.5422515647692
20
9.93543364204484
30
0
0
SPLINE
5
2E8
100
AcDbEntity
8
1
62
256
6
ByLayer
370
-1
48
1
60
0
100
AcDbSpline
70
4
71
3
72
16
73
12
40
0
40
0
40
0
40
0
40
0.343443954228605
40
0.343443954228605
40
0.535083245610715
40
0.535083245610715
40
0.693553557835158
40
0.693553557835158
40
0.853171508912945
40
0.853171508912945
40
1
40
1
40
1
40
1
41
1
10
73.0863031872772
20
2.93765250810003
30
0
41
1
10
73.1089349071375
20
2.95146935898711
30
0
41
1
10
73.1334384894613
20
2.96318662145248
30
0
41
1
10
73.1731204582827
20
2.97406220555132
30
0
41
1
10
73.1879194198414
20
2.97648951633647
30
0
41
1
10
73.2144061009849
20
2.97654489071545
30
0
41
1
10
73.2264352453172
20
2.97487321487813
30
0
41
1
10
73.2485029877545
20
2.96751724145392
30
0
41
1
10
73.2587876442742
20
2.96167012185669
30
0
41
1
10
73.2752945821591
20
2.94754971524117
30
0
41
1
10
73.2819935434138
20
2.93939424849086
30
0
41
1
10
73.2874584029396
20
2.93063582986028
30
0
0
SPLINE
5
2E9
100
AcDbEntity
8
1
62
256
6
ByLayer
370
-1
48
1
60
0
100
AcDbSpline
70
4
71
3
72
12
73
8
40
0
40
0
40
0
40
0
40
0.133148321068526
40
0.133148321068526
40
0.702614877346735
40
0.702614877346735
40
1
40
1
40
1
40
1
41
1
10
74.9853200236493
20
7.99393627893556
30
0
41
1
10
74.8933670030115
20
7.84047499422948
30
0
41
1
10
74.801414414331
20
7.68701347693059
30
0
41
1
10
74.3161872326361
20
6.87720693488635
30
0
41
1
10
73.922903644122
20
6.22086674159618
30
0
41
1
10
73.3242932076006
20
5.22185918053233
30
0
41
1
10
73.1430071249345
20
4.86054435353901
30
0
41
1
10
72.8909142345331
20
4.5475535540113
30
0
0
SPLINE
5
2EA
100
AcDbEntity
8
1
62
256
6
ByLayer
370
-1
48
1
60
0
100
AcDbSpline
70
4
71
3
72
16
73
12
40
0
40
0
40
0
40
0
40
0.164710736630264
40
0.164710736630264
40
0.331370362656755
40
0.331370362656755
40
0.476446336500484
40
0.476446336500484
40
0.702801041235995
40
0.702801041235995
40
1
40
1
40
1
40
1
41
1
10
60.1413187225101
20
9.42917804905832
30
0
41
1
10
60.1473322896397
20
9.43891773586938
30
0
41
1
10
60.1549093699907
20
9.44790451288802
30
0
41
1
10
60.1731638238835
20
9.46226034408537
30
0
41
1
10
60.1841626414198
20
9.46771912549724
30
0
41
1
10
60.2060786238297
20
9.47354971141382
30
0
41
1
10
60.2170492114388
20
9.47460008666843
30
0
41
1
10
60.2449417973265
20
9.47376265894931
30
0
41
1
10
60.2622437117941
20
9.47001165960759
30
0
41
1
10
60.3003917522232
20
9.457155250645
30
0
41
1
10
60.3212671903588
20
9.44661485788785
30
0
41
1
10
60.3408182451692
20
9.43444636368261
30
0
0
SPLINE
5
2EB
100
AcDbEntity
8
1
62
256
6
ByLayer
370
-1
48
1
60
0
100
AcDbSpline
70
4
71
3
72
8
73
4
40
0
40
0
40
0
40
0
40
1
40
1
40
1
40
1
41
1
10
65.4903216270631
20
13.3951847077868
30
0
41
1
10
65.480905028105
20
13.3919380596238
30
0
41
1
10
65.4714884307172
20
13.3886914129466
30
0
41
1
10
65.4620718348889
20
13.3854447677448
30
0
0
SPLINE
5
2EC
100
AcDbEntity
8
1
62
256
6
ByLayer
370
-1
48
1
60
0
100
AcDbSpline
70
4
71
1
72
4
73
2
40
0
40
0
40
1
40
1
41
1
10
65.8370210854462
20
13.0120407788694
30
0
41
1
10
65.462071834889
20
13.3854447677448
30
0
0
SPLINE
5
2ED
100
AcDbEntity
8
1
62
256
6
ByLayer
370
-1
48
1
60
0
100
AcDbSpline
70
4
71
3
72
10
73
6
40
0
40
0
40
0
40
0
40
0.391412264300133
40
0.391412264300133
40
1
40
1
40
1
40
1
41
1
10
66.292959700926
20
12.9290310944623
30
0
41
1
10
66.2334730527691
20
12.9398615028192
30
0
41
1
10
66.1739864009945
20
12.9506918770084
30
0
41
1
10
66.0220068645313
20
12.9783617960168
30
0
41
1
10
65.9295139759673
20
12.9952012996959
30
0
41
1
10
65.8370210854462
20
13.0120407788694
30
0
0
SPLINE
5
2EE
100
AcDbEntity
8
1
62
256
6
ByLayer
370
-1
48
1
60
0
100
AcDbSpline
70
4
71
3
72
12
73
8
40
0
40
0
40
0
40
0
40
0.261466805566852
40
0.261466805566852
40
0.727154521522379
40
0.727154521522379
40
1
40
1
40
1
40
1
41
1
10
72.6421374599287
20
13.6012786772941
30
0
41
1
10
72.6156453919305
20
13.5920822820907
30
0
41
1
10
72.5883851400804
20
13.5847627730307
30
0
41
1
10
72.5117453449484
20
13.5715376059396
30
0
41
1
10
72.4605455273611
20
13.5715299586714
30
0
41
1
10
72.3827218817202
20
13.5850304987147
30
0
41
1
10
72.3543162114108
20
13.5928259732877
30
0
41
1
10
72.326780309786
20
13.6026548221769
30
0
0
SPLINE
5
2EF
100
AcDbEntity
8
1
62
256
6
ByLayer
370
-1
48
1
60
0
100
AcDbSpline
70
4
71
3
72
10
73
6
40
0
40
0
40
0
40
0
40
0.391412264300145
40
0.391412264300145
40
1
40
1
40
1
40
1
41
1
10
73.9401298345476
20
8.00421925723998
30
0
41
1
10
73.9845844970806
20
8.03832025425717
30
0
41
1
10
74.0290391337206
20
8.07242126578021
30
0
41
1
10
74.1426140495975
20
8.15954429755351
30
0
41
1
10
74.2117342976208
20
8.21256633447464
30
0
41
1
10
74.2808545270245
20
8.26558838074467
30
0
0
SPLINE
5
2F0
100
AcDbEntity
8
1
62
256
6
ByLayer
370
-1
48
1
60
0
100
AcDbSpline
70
4
71
3
72
10
73
6
40
0
40
0
40
0
40
0
40
0.726371168591133
40
0.726371168591133
40
1
40
1
40
1
40
1
41
1
10
66.6974629143225
20
4.40394194081898
30
0
41
1
10
66.7350389770454
20
4.38593390703525
30
0
41
1
10
66.7748336348704
20
4.37381745461335
30
0
41
1
10
66.8297765958414
20
4.36939338409249
30
0
41
1
10
66.8450057856298
20
4.36946397546188
30
0
41
1
10
66.8600809978741
20
4.37106586802326
30
0
0
SPLINE
5
2F1
100
AcDbEntity
8
1
62
256
6
ByLayer
370
-1
48
1
60
0
100
AcDbSpline
70
4
71
3
72
14
73
10
40
0
40
0
40
0
40
0
40
0.264919990892588
40
0.264919990892588
40
0.530416812891286
40
0.530416812891286
40
0.78765458487426
40
0.78765458487426
40
1
40
1
40
1
40
1
41
1
10
67.6504968558916
20
1.69979517836234
30
0
41
1
10
67.6582765099169
20
1.69735374280148
30
0
41
1
10
67.6671826785691
20
1.69390987114954
30
0
41
1
10
67.6858820401505
20
1.68549646082849
30
0
41
1
10
67.6959428907987
20
1.68040203718985
30
0
41
1
10
67.7154161015004
20
1.66946303153239
30
0
41
1
10
67.7251115802609
20
1.66349223001782
30
0
41
1
10
67.7414918623849
20
1.65244306462935
30
0
41
1
10
67.7485749405748
20
1.64727744990034
30
0
41
1
10
67.7548900699044
20
1.64226947020927
30
0
0
SPLINE
5
2F2
100
AcDbEntity
8
1
62
256
6
ByLayer
370
-1
48
1
60
0
100
AcDbSpline
70
4
71
3
72
10
73
6
40
0
40
0
40
0
40
0
40
0.226375575408419
40
0.226375575408419
40
1
40
1
40
1
40
1
41
1
10
66.6789165708523
20
4.49101908078202
30
0
41
1
10
66.630498955192
20
4.51420239436007
30
0
41
1
10
66.5822943803733
20
4.53819733472648
30
0
41
1
10
66.3705489581889
20
4.647647478198
30
0
41
1
10
66.2093278968512
20
4.74173121618958
30
0
41
1
10
66.0516514616274
20
4.84478503399396
30
0
0
SPLINE
5
2F3
100
AcDbEntity
8
1
62
256
6
ByLayer
370
-1
48
1
60
0
100
AcDbSpline
70
4
71
3
72
10
73
6
40
0
40
0
40
0
40
0
40
0.391412264300149
40
0.391412264300149
40
1
40
1
40
1
40
1
41
1
10
65.7316216138782
20
4.08786829183202
30
0
41
1
10
65.7453731021884
20
4.02328022963312
30
0
41
1
10
65.7591246192895
20
3.95869217604948
30
0
41
1
10
65.7942577566286
20
3.79367934366044
30
0
41
1
10
65.8156394110398
20
3.69325457526665
30
0
41
1
10
65.8370210854462
20
3.59282981310275
30
0
0
SPLINE
5
2F4
100
AcDbEntity
8
1
62
256
6
ByLayer
370
-1
48
1
60
0
100
AcDbSpline
70
4
71
3
72
12
73
8
40
0
40
0
40
0
40
0
40
0.327536934741048
40
0.327536934741048
40
0.689545574034048
40
0.689545574034048
40
1
40
1
40
1
40
1
41
1
10
69.655257662388
20
13.4849025732404
30
0
41
1
10
69.2485458343787
20
13.5829848839855
30
0
41
1
10
68.8190035512068
20
13.5422357343497
30
0
41
1
10
67.9369875534077
20
13.5460930280696
30
0
41
1
10
67.4737229837335
20
13.5481294747541
30
0
41
1
10
66.6131680203893
20
13.5518847455471
30
0
41
1
10
66.2158776470826
20
13.5536143993473
30
0
41
1
10
65.818587277747
20
13.5553461809171
30
0
0
SPLINE
5
2F5
100
AcDbEntity
8
1
62
256
6
ByLayer
370
-1
48
1
60
0
100
AcDbSpline
70
4
71
3
72
12
73
8
40
0
40
0
40
0
40
0
40
0.0143412310805822
40
0.0143412310805822
40
0.547790989098498
40
0.547790989098498
40
1
40
1
40
1
40
1
41
1
10
72.7114315758161
20
8.67134583827064
30
0
41
1
10
72.7123058131633
20
8.6703578444039
30
0
41
1
10
72.7131803200705
20
8.66937101131413
30
0
41
1
10
72.7465871387922
20
8.63168435449427
30
0
41
1
10
72.7791812956091
20
8.59585564792502
30
0
41
1
10
72.8363547591798
20
8.53424899602825
30
0
41
1
10
72.8618425373732
20
8.50731837967095
30
0
41
1
10
72.8843866247808
20
8.48383228068965
30
0
0
SPLINE
5
2F6
100
AcDbEntity
8
1
62
256
6
ByLayer
370
-1
48
1
60
0
100
AcDbSpline
70
4
71
3
72
14
73
10
40
0
40
0
40
0
40
0
40
0.25
40
0.25
40
0.5
40
0.5
40
0.75
40
0.75
40
1
40
1
40
1
40
1
41
1
10
63.8487031544872
20
10.9772565729075
30
0
41
1
10
63.8477729342389
20
10.3687972493776
30
0
41
1
10
63.8468584908827
20
9.76021152167229
30
0
41
1
10
63.8455563928025
20
8.5426440933073
30
0
41
1
10
63.7803248807801
20
7.92596791460079
30
0
41
1
10
64.0934734879031
20
6.72293484104975
30
0
41
1
10
64.4630085979837
20
6.21613366394118
30
0
41
1
10
65.0973090158755
20
5.15199711331349
30
0
41
1
10
65.4144700774523
20
4.61993560770554
30
0
41
1
10
65.7316216138782
20
4.087868291832
30
0
0
SPLINE
5
2F7
100
AcDbEntity
8
1
62
256
6
ByLayer
370
-1
48
1
60
0
100
AcDbSpline
70
4
71
3
72
14
73
10
40
0
40
0
40
0
40
0
40
0.264919990892531
40
0.264919990892531
40
0.530416812891223
40
0.530416812891223
40
0.787654584874316
40
0.787654584874316
40
1
40
1
40
1
40
1
41
1
10
63.2947951858424
20
12.342559499696
30
0
41
1
10
63.287258311645
20
12.3401849018838
30
0
41
1
10
63.2785485203914
20
12.336817902164
30
0
41
1
10
63.2601128295104
20
12.3285665405309
30
0
41
1
10
63.2501224860221
20
12.3235596156161
30
0
41
1
10
63.230650191115
20
12.3127905590409
30
0
41
1
10
63.2208892594316
20
12.3069046607533
30
0
41
1
10
63.2042775336689
20
12.2959994647748
30
0
41
1
10
63.1970456366734
20
12.2908963172511
30
0
41
1
10
63.19054724548
20
12.2859442527682
30
0
0
SPLINE
5
2F8
100
AcDbEntity
8
1
62
256
6
ByLayer
370
-1
48
1
60
0
100
AcDbSpline
70
4
71
3
72
10
73
6
40
0
40
0
40
0
40
0
40
0.732128243131974
40
0.732128243131974
40
1
40
1
40
1
40
1
41
1
10
72.6358833219065
20
9.73420174693214
30
0
41
1
10
72.6503114339866
20
9.78040788825356
30
0
41
1
10
72.6547125338874
20
9.82905219745243
30
0
41
1
10
72.6509528938597
20
9.89325781995197
30
0
41
1
10
72.6489528279942
20
9.91050284883241
30
0
41
1
10
72.6460694542009
20
9.92753561208923
30
0
0
SPLINE
5
2F9
100
AcDbEntity
8
1
62
256
6
ByLayer
370
-1
48
1
60
0
100
AcDbSpline
70
4
71
3
72
12
73
8
40
0
40
0
40
0
40
0
40
0.330584430932527
40
0.330584430932527
40
0.914285519682806
40
0.914285519682806
40
1
40
1
40
1
40
1
41
1
10
74.9853200236481
20
7.9939362789334
30
0
41
1
10
74.9848921641321
20
7.95303633063722
30
0
41
1
10
74.9845925263604
20
7.90870280105159
30
0
41
1
10
74.9839861375443
20
7.78834695748776
30
0
41
1
10
74.9838305750172
20
7.71044283754384
30
0
41
1
10
74.9838500681999
20
7.62556911808647
30
0
41
1
10
74.9838565947645
20
7.61466006345
30
0
41
1
10
74.9838671710338
20
7.60382835903118
30
0
0
SPLINE
5
2FA
100
AcDbEntity
8
1
62
256
6
ByLayer
370
-1
48
1
60
0
100
AcDbSpline
70
4
71
3
72
10
73
6
40
0
40
0
40
0
40
0
40
0.478255409340384
40
0.478255409340384
40
1
40
1
40
1
40
1
41
1
10
67.7548900699044
20
1.64226947020927
30
0
41
1
10
67.9066882645457
20
1.86320436092049
30
0
41
1
10
68.0592575264778
20
2.08355016504811
30
0
41
1
10
68.3801652149427
20
2.54276347579454
30
0
41
1
10
68.5486812823655
20
2.78150661603522
30
0
41
1
10
68.7185079118422
20
3.01914708520059
30
0
0
SPLINE
5
2FB
100
AcDbEntity
8
1
62
256
6
ByLayer
370
-1
48
1
60
0
100
AcDbSpline
70
4
71
3
72
12
73
8
40
0
40
0
40
0
40
0
40
0.0143412310805686
40
0.0143412310805686
40
0.547790989098452
40
0.547790989098452
40
1
40
1
40
1
40
1
41
1
10
67.0958028144453
20
4.47425372711865
30
0
41
1
10
67.094483430502
20
4.47402015631934
30
0
41
1
10
67.0931641549836
20
4.47378733238017
30
0
41
1
10
67.0427462091106
20
4.46494735091207
30
0
41
1
10
66.9932994555712
20
4.45799172879197
30
0
41
1
10
66.9051871793031
20
4.45002190920184
30
0
41
1
10
66.8653647578772
20
4.44819049199467
30
0
41
1
10
66.8289003503622
20
4.44940755063999
30
0
0
SPLINE
5
2FC
100
AcDbEntity
8
1
62
256
6
ByLayer
370
-1
48
1
60
0
100
AcDbSpline
70
4
71
3
72
10
73
6
40
0
40
0
40
0
40
0
40
0.478255409340382
40
0.478255409340382
40
1
40
1
40
1
40
1
41
1
10
63.19054724548
20
12.2859442527681
30
0
41
1
10
63.2980664828358
20
12.0773202839404
30
0
41
1
10
63.4045035538212
20
11.868682679686
30
0
41
1
10
63.624332414618
20
11.4324426973221
30
0
41
1
10
63.7374856930629
20
11.2048302348863
30
0
41
1
10
63.8487031544872
20
10.9772565729075
30
0
0
SPLINE
5
2FD
100
AcDbEntity
8
1
62
256
6
ByLayer
370
-1
48
1
60
0
100
AcDbSpline
70
4
71
3
72
12
73
8
40
0
40
0
40
0
40
0
40
0.25
40
0.25
40
0.500000000000001
40
0.500000000000001
40
1
40
1
40
1
40
1
41
1
10
63.3841378540864
20
6.25750844518518
30
0
41
1
10
63.2019280850191
20
6.68976215726278
30
0
41
1
10
63.1638170070653
20
7.15633111821677
30
0
41
1
10
63.0293556759846
20
8.07462708281267
30
0
41
1
10
62.9622203730958
20
8.5318194121939
30
0
41
1
10
62.7631403031887
20
9.9029856342647
30
0
41
1
10
62.6295209704993
20
10.8173731653668
30
0
41
1
10
62.4955335111435
20
11.7319951872419
30
0
0
SPLINE
5
2FE
100
AcDbEntity
8
1
62
256
6
ByLayer
370
-1
48
1
60
0
100
AcDbSpline
70
4
71
3
72
10
73
6
40
0
40
0
40
0
40
0
40
0.410984291904103
40
0.410984291904103
40
1
40
1
40
1
40
1
41
1
10
63.1905472454794
20
12.2859442527696
30
0
41
1
10
63.0895168343365
20
12.2089545647339
30
0
41
1
10
62.9907358071502
20
12.1322729065765
30
0
41
1
10
62.7564637379631
20
11.9469923408189
30
0
41
1
10
62.6233958977693
20
11.8387827966624
30
0
41
1
10
62.495533511149
20
11.7319951872274
30
0
0
SPLINE
5
2FF
100
AcDbEntity
8
SK1
62
256
6
ByLayer
370
-1
48
1
60
0
100
AcDbSpline
70
4
71
3
72
87
73
83
40
0
40
0
40
0
40
0
40
0.0064304546702832
40
0.0205324395379753
40
0.0346344244056674
40
0.0416854168395135
40
0.0487364092733595
40
0.0522619054902826
40
0.0557874017072056
40
0.0628383941410516
40
0.0698893865748977
40
0.0769403790087437
40
0.0910423638764358
40
0.105144348744128
40
0.11924633361182
40
0.133348318479512
40
0.147450303347204
40
0.161552288214896
40
0.175654273082588
40
0.189756257950281
40
0.203858242817973
40
0.217960227685665
40
0.232062212553357
40
0.246164197421049
40
0.260266182288741
40
0.274368167156433
40
0.288470152024125
40
0.302572136891817
40
0.316674121759509
40
0.330776106627202
40
0.344878091494894
40
0.358980076362586
40
0.373082061230278
40
0.38718404609797
40
0.401286030965662
40
0.415388015833354
40
0.429490000701046
40
0.443591985568738
40
0.457693970436431
40
0.471795955304123
40
0.485897940171815
40
0.499999925039507
40
0.514101909907199
40
0.528203894774891
40
0.542305879642583
40
0.556407864510275
40
0.570509849377967
40
0.584611834245659
40
0.598713819113352
40
0.612815803981044
40
0.626917788848736
40
0.641019773716428
40
0.65512175858412
40
0.669223743451812
40
0.683325728319504
40
0.697427713187196
40
0.711529698054888
40
0.72563168292258
40
0.739733667790273
40
0.753835652657965
40
0.767937637525657
40
0.782039622393349
40
0.796141607261041
40
0.810243592128733
40
0.824345576996425
40
0.838447561864117
40
0.852549546731809
40
0.866651531599501
40
0.880753516467194
40
0.894855501334886
40
0.908957486202578
40
0.92305947107027
40
0.930110463504116
40
0.937161455937962
40
0.944212448371808
40
0.947737944588731
40
0.951263440805654
40
0.9583144332395
40
0.965365425673346
40
0.979467410541038
40
0.99356939540873
40
1
40
1
40
1
40
1
41
1
10
-2.99999999999997
20
-21.737311732065
30
0
41
1
10
-2.99999999999997
20
-21.7581505759412
30
0
41
1
10
-2.99999999999997
20
-21.8216572693935
30
0
41
1
10
-3
20
-21.9107797633372
30
0
41
1
10
-3
20
-21.9704004421262
30
0
41
1
10
-3
20
-21.9955838514163
30
0
41
1
10
-3
20
-22.0011048464384
30
0
41
1
10
-3
20
-21.9988957932114
30
0
41
1
10
-3
20
-21.9921074341117
30
0
41
1
10
-3
20
-21.9747088550401
30
0
41
1
10
-3
20
-21.9386456245555
30
0
41
1
10
-3
20
-21.868993702256
30
0
41
1
10
-3
20
-21.7393283758615
30
0
41
1
10
-3
20
-21.5090390087807
30
0
41
1
10
-3
20
-21.1987879004756
30
0
41
1
10
-3
20
-20.8048153118584
30
0
41
1
10
-3
20
-20.3250833271079
30
0
41
1
10
-3
20
-19.7594566764181
30
0
41
1
10
-3
20
-19.1097943347758
30
0
41
1
10
-3
20
-18.3799726709714
30
0
41
1
10
-3
20
-17.5758204617336
30
0
41
1
10
-3
20
-16.7049885958267
30
0
41
1
10
-3
20
-15.7767347946731
30
0
41
1
10
-3
20
-14.8016577436089
30
0
41
1
10
-3
20
-13.7913621958654
30
0
41
1
10
-3
20
-12.7580964435599
30
0
41
1
10
-3
20
-11.7143471465197
30
0
41
1
10
-3.00000000000003
20
-10.6724342215934
30
0
41
1
10
-3.00000000000003
20
-9.64409593406697
30
0
41
1
10
-3.00000000000003
20
-8.64010224817511
30
0
41
1
10
-3.00000000000003
20
-7.66989272366362
30
0
41
1
10
-3.00000000000003
20
-6.74126705030582
30
0
41
1
10
-3.00000000000003
20
-5.86013077636733
30
0
41
1
10
-3.00000000000003
20
-5.03031048105601
30
0
41
1
10
-3.00000000000003
20
-4.25344644766659
30
0
41
1
10
-3.00000000000003
20
-3.5289614043765
30
0
41
1
10
-3.00000000000003
20
-2.85411734459242
30
0
41
1
10
-3.00000000000003
20
-2.22414379058173
30
0
41
1
10
-3.00000000000003
20
-1.63245137350921
30
0
41
1
10
-3.00000000000003
20
-1.07090162750731
30
0
41
1
10
-3.00000000000003
20
-0.530146398226009
30
0
41
1
10
-3.00000000000003
20
1.1052839E-07
30
0
41
1
10
-3.00000000000003
20
0.530145956112307
30
0
41
1
10
-3.00000000000003
20
1.07090183098106
30
0
41
1
10
-3.00000000000003
20
1.63245100172756
30
0
41
1
10
-3.00000000000003
20
2.22414394390051
30
0
41
1
10
-3.00000000000003
20
2.85411710309862
30
0
41
1
10
-3.00000000000003
20
3.52896148234822
30
0
41
1
10
-3.00000000000003
20
4.25344637727321
30
0
41
1
10
-3.00000000000003
20
5.03031046956039
30
0
41
1
10
-3.00000000000003
20
5.86013089274292
30
0
41
1
10
-3.00000000000003
20
6.7412669483133
30
0
41
1
10
-3.00000000000003
20
7.66989301525788
30
0
41
1
10
-3.00000000000003
20
8.64010206779591
30
0
41
1
10
-3.00000000000003
20
9.64409636398926
30
0
41
1
10
-3.00000000000003
20
10.6724339861579
30
0
41
1
10
-3.00000000000003
20
11.7143476583394
30
0
41
1
10
-3
20
12.7580961840504
30
0
41
1
10
-3
20
13.7913627220832
30
0
41
1
10
-3
20
14.8016574939434
30
0
41
1
10
-3
20
15.7767352671169
30
0
41
1
10
-3
20
16.7049883877483
30
0
41
1
10
-3
20
17.5758208216031
30
0
41
1
10
-3
20
18.3799725293323
30
0
41
1
10
-3
20
19.1097945414623
30
0
41
1
10
-3
20
19.759456615498
30
0
41
1
10
-3
20
20.3250833641014
30
0
41
1
10
-3
20
20.804815632754
30
0
41
1
10
-3
20
21.1987865798995
30
0
41
1
10
-3
20
21.5090429333437
30
0
41
1
10
-3
20
21.7393270779667
30
0
41
1
10
-3
20
21.868994103416
30
0
41
1
10
-3
20
21.9386456157424
30
0
41
1
10
-3
20
21.9747080149673
30
0
41
1
10
-3
20
21.9921069826245
30
0
41
1
10
-3
20
21.9988955684255
30
0
41
1
10
-3
20
22.0011049359544
30
0
41
1
10
-3
20
21.9955842966017
30
0
41
1
10
-3
20
21.9704009616837
30
0
41
1
10
-3
20
21.9107795104958
30
0
41
1
10
-3
20
21.821656702497
30
0
41
1
10
-2.99999999999997
20
21.7581493940426
30
0
41
1
10
-2.99999999999997
20
21.7373100008038
30
0
0
SPLINE
5
300
100
AcDbEntity
8
SK1
62
256
6
ByLayer
370
-1
48
1
60
0
100
AcDbSpline
70
4
71
3
72
77
73
73
40
0
40
0
40
0
40
0
40
0.0022824631450066
40
0.0177381238225019
40
0.0331937844999972
40
0.0486494451774926
40
0.0563772755162403
40
0.0641051058549879
40
0.0679690210243618
40
0.0718329361937357
40
0.0795607665324833
40
0.0872885968712309
40
0.0950164272099786
40
0.110472087887474
40
0.125927748564969
40
0.141383409242465
40
0.15683906991996
40
0.172294730597455
40
0.187750391274951
40
0.203206051952446
40
0.218661712629941
40
0.234117373307437
40
0.249573033984932
40
0.265028694662427
40
0.280484355339923
40
0.295940016017418
40
0.311395676694913
40
0.326851337372409
40
0.342306998049904
40
0.357762658727399
40
0.373218319404895
40
0.38867398008239
40
0.404129640759885
40
0.419585301437381
40
0.435040962114876
40
0.450496622792371
40
0.465952283469867
40
0.481407944147362
40
0.496863604824857
40
0.512319265502353
40
0.527774926179848
40
0.543230586857343
40
0.558686247534839
40
0.574141908212334
40
0.589597568889829
40
0.605053229567325
40
0.62050889024482
40
0.635964550922315
40
0.651420211599811
40
0.666875872277306
40
0.682331532954801
40
0.697787193632297
40
0.713242854309792
40
0.728698514987287
40
0.744154175664783
40
0.759609836342278
40
0.775065497019773
40
0.790521157697269
40
0.805976818374764
40
0.821432479052259
40
0.836888139729755
40
0.85234380040725
40
0.867799461084745
40
0.883255121762241
40
0.898710782439736
40
0.914166443117231
40
0.929622103794727
40
0.945077764472222
40
0.960533425149717
40
0.975989085827213
40
0.991444746504708
40
1
40
1
40
1
40
1
41
1
10
-36.5004731679066
20
20.8085343339317
30
0
41
1
10
-36.5004731679066
20
20.8158530892065
30
0
41
1
10
-36.5004731679066
20
20.8720970112215
30
0
41
1
10
-36.5004731679067
20
20.9678459995098
30
0
41
1
10
-36.5004731679067
20
21.0725443050817
30
0
41
1
10
-36.5004731679067
20
21.1298848333404
30
0
41
1
10
-36.5004731679067
20
21.1541047357202
30
0
41
1
10
-36.5004731679067
20
21.1594141733555
30
0
41
1
10
-36.5004731679067
20
21.157289329047
30
0
41
1
10
-36.5004731679067
20
21.1507604524732
30
0
41
1
10
-36.5004731679067
20
21.134027112765
30
0
41
1
10
-36.5004731679067
20
21.0993443437175
30
0
41
1
10
-36.5004731679067
20
21.0323574718579
30
0
41
1
10
-36.5004731679067
20
20.9076510853334
30
0
41
1
10
-36.5004731679067
20
20.6861768635695
30
0
41
1
10
-36.5004731679067
20
20.3877899097529
30
0
41
1
10
-36.5004731679067
20
20.0088910104845
30
0
41
1
10
-36.5004731679067
20
19.5475117391118
30
0
41
1
10
-36.5004731679067
20
19.0035240314004
30
0
41
1
10
-36.5004731679067
20
18.3787159166599
30
0
41
1
10
-36.5004731679067
20
17.6768145225052
30
0
41
1
10
-36.5004731679067
20
16.9034270453042
30
0
41
1
10
-36.5004731679067
20
16.0659098298204
30
0
41
1
10
-36.5004731679067
20
15.1731686563964
30
0
41
1
10
-36.5004731679067
20
14.2353941894379
30
0
41
1
10
-36.5004731679067
20
13.2637500116935
30
0
41
1
10
-36.5004731679067
20
12.2700128928828
30
0
41
1
10
-36.5004731679067
20
11.266194793172
30
0
41
1
10
-36.5004731679067
20
10.2641413514586
30
0
41
1
10
-36.5004731679067
20
9.27514458421214
30
0
41
1
10
-36.5004731679067
20
8.30955984641452
30
0
41
1
10
-36.5004731679067
20
7.37646783866529
30
0
41
1
10
-36.5004731679067
20
6.48336798664181
30
0
41
1
10
-36.5004731679067
20
5.63594133251854
30
0
41
1
10
-36.5004731679067
20
4.837867141484
30
0
41
1
10
-36.5004731679067
20
4.0907233442536
30
0
41
1
10
-36.5004731679067
20
3.39395488654742
30
0
41
1
10
-36.5004731679067
20
2.74492785973806
30
0
41
1
10
-36.5004731679067
20
2.13905542595012
30
0
41
1
10
-36.5004731679067
20
1.56999873250976
30
0
41
1
10
-36.5004731679067
20
1.02993260778018
30
0
41
1
10
-36.5004731679067
20
0.509864295014495
30
0
41
1
10
-36.5004731679067
20
1.062999218E-07
30
0
41
1
10
-36.5004731679067
20
-0.509864720214352
30
0
41
1
10
-36.5004731679067
20
-1.02993241209069
30
0
41
1
10
-36.5004731679067
20
-1.56999909006825
30
0
41
1
10
-36.5004731679067
20
-2.13905527849684
30
0
41
1
10
-36.5004731679067
20
-2.74492809199307
30
0
41
1
10
-36.5004731679067
20
-3.39395481155864
30
0
41
1
10
-36.5004731679067
20
-4.090723411954
30
0
41
1
10
-36.5004731679067
20
-4.83786715253981
30
0
41
1
10
-36.5004731679067
20
-5.6359412205951
30
0
41
1
10
-36.5004731679067
20
-6.48336808473243
30
0
41
1
10
-36.5004731679067
20
-7.37646755822649
30
0
41
1
10
-36.5004731679067
20
-8.30956001989298
30
0
41
1
10
-36.5004731679067
20
-9.27514417073732
30
0
41
1
10
-36.5004731679067
20
-10.2641415778872
30
0
41
1
10
-36.5004731679067
20
-11.2661943009328
30
0
41
1
10
-36.5004731679067
20
-12.2700131424643
30
0
41
1
10
-36.5004731679067
20
-13.263749505607
30
0
41
1
10
-36.5004731679067
20
-14.235394429552
30
0
41
1
10
-36.5004731679067
20
-15.1731682020267
30
0
41
1
10
-36.5004731679067
20
-16.0659100299384
30
0
41
1
10
-36.5004731679067
20
-16.9034266992021
30
0
41
1
10
-36.5004731679067
20
-17.6768146587256
30
0
41
1
10
-36.5004731679067
20
-18.3787157178805
30
0
41
1
10
-36.5004731679067
20
-19.0035240899899
30
0
41
1
10
-36.5004731679067
20
-19.5475117035335
30
0
41
1
10
-36.5004731679067
20
-20.0088907018653
30
0
41
1
10
-36.5004731679067
20
-20.387791179808
30
0
41
1
10
-36.5004731679067
20
-20.641767424168
30
0
41
1
10
-36.5004731679067
20
-20.7653492956254
30
0
41
1
10
-36.5004731679066
20
-20.8055984755284
30
0
0
SPLINE
5
301
100
AcDbEntity
8
SK1
62
256
6
ByLayer
370
-1
48
1
60
0
100
AcDbSpline
70
4
71
3
72
8
73
4
40
0
40
0
40
0
40
0
40
1
40
1
40
1
40
1
41
1
10
-0.200000000000074
20
7.45410255809307
30
0
41
1
10
-0.200000000000074
20
7.3235826688034
30
0
41
1
10
-0.200000000000074
20
7.19431032038869
30
0
41
1
10
-0.200000000000074
20
7.06635659049329
30
0
0
SPLINE
5
302
100
AcDbEntity
8
SK1
62
256
6
ByLayer
370
-1
48
1
60
0
100
AcDbSpline
70
4
71
3
72
10
73
6
40
0
40
0
40
0
40
0
40
0.368997675668995
40
0.368997675668995
40
1
40
1
40
1
40
1
41
1
10
-0.200000000000074
20
-7.06635637915039
30
0
41
1
10
-0.167862826598508
20
-7.0045462175766
30
0
41
1
10
-0.139671627572113
20
-6.94091959541143
30
0
41
1
10
-0.0698615112816867
20
-6.76585631953489
30
0
41
1
10
-0.0328909637924539
20
-6.65241705190053
30
0
41
1
10
-2.84E-14
20
-6.53762631735268
30
0
0
SPLINE
5
303
100
AcDbEntity
8
SK1
62
256
6
ByLayer
370
-1
48
1
60
0
100
AcDbSpline
70
4
71
3
72
24
73
20
40
0
40
0
40
0
40
0
40
0.360879502691496
40
0.360879502691496
40
0.679522527249465
40
0.679522527249465
40
0.773125538541259
40
0.773125538541259
40
0.824378815352241
40
0.824378815352241
40
0.862175757855351
40
0.862175757855351
40
0.892530262599779
40
0.892530262599779
40
0.922882097305825
40
0.922882097305825
40
0.965340403806628
40
0.965340403806628
40
1
40
1
40
1
40
1
41
1
10
-1.30710678118655
20
-4.69591747913023
30
0
41
1
10
-1.26533314969214
20
-4.9280006140346
30
0
41
1
10
-1.21563689128735
20
-5.15732729985041
30
0
41
1
10
-1.09208849439545
20
-5.57726964614551
30
0
41
1
10
-1.02458712063205
20
-5.77316566660494
30
0
41
1
10
-0.886361634688797
20
-6.00127451080465
30
0
41
1
10
-0.850777002090695
20
-6.05190263088906
30
0
41
1
10
-0.783955064248175
20
-6.12096806939894
30
0
41
1
10
-0.757647970575704
20
-6.14385724295292
30
0
41
1
10
-0.706249370394545
20
-6.17602680222078
30
0
41
1
10
-0.682168850057224
20
-6.18745435634116
30
0
41
1
10
-0.636302078399041
20
-6.20006250680512
30
0
41
1
10
-0.614540165939815
20
-6.20282738019478
30
0
41
1
10
-0.571796256965456
20
-6.20141682079489
30
0
41
1
10
-0.550342277966621
20
-6.19724496298289
30
0
41
1
10
-0.502408394194077
20
-6.18104812749763
30
0
41
1
10
-0.476466316815021
20
-6.16651733970684
30
0
41
1
10
-0.434092524691693
20
-6.13600824129722
30
0
41
1
10
-0.416431789013416
20
-6.12055641171887
30
0
41
1
10
-0.400000000000063
20
-6.10423156158009
30
0
0
SPLINE
5
304
100
AcDbEntity
8
SK1
62
256
6
ByLayer
370
-1
48
1
60
0
100
AcDbSpline
70
4
71
3
72
26
73
22
40
0
40
0
40
0
40
0
40
0.457923600856098
40
0.457923600856098
40
0.670531455381554
40
0.670531455381554
40
0.777312304321617
40
0.777312304321617
40
0.855624581606838
40
0.855624581606838
40
0.882245097500181
40
0.882245097500181
40
0.909233674833623
40
0.909233674833623
40
0.927145375687156
40
0.927145375687156
40
0.945135954238661
40
0.945135954238661
40
0.967293802310234
40
0.967293802310234
40
1
40
1
40
1
40
1
41
1
10
-0.200000000000046
20
6.83438539664965
30
0
41
1
10
-0.200000000000046
20
6.70719073091024
30
0
41
1
10
-0.203979144864121
20
6.57870929193157
30
0
41
1
10
-0.223627541461042
20
6.39017150226596
30
0
41
1
10
-0.231853472691626
20
6.33010102013236
30
0
41
1
10
-0.251444012213824
20
6.24081591520616
30
0
41
1
10
-0.259216096655962
20
6.21099031479625
30
0
41
1
10
-0.277247637353241
20
6.16071699918314
30
0
41
1
10
-0.286250660556362
20
6.13953740203621
30
0
41
1
10
-0.302932806634829
20
6.11392996324469
30
0
41
1
10
-0.307645108303149
20
6.10762540709976
30
0
41
1
10
-0.318350610916298
20
6.09617933549782
30
0
41
1
10
-0.324493078466162
20
6.09093379280867
30
0
41
1
10
-0.335880535666092
20
6.08462414761271
30
0
41
1
10
-0.340842620996938
20
6.08272810789862
30
0
41
1
10
-0.350925208731582
20
6.08080706244004
30
0
41
1
10
-0.356163682835501
20
6.08077671184125
30
0
41
1
10
-0.367263062380886
20
6.08257928125934
30
0
41
1
10
-0.373161858956763
20
6.08482424567788
30
0
41
1
10
-0.386495243089513
20
6.09205228504601
30
0
41
1
10
-0.393601922598037
20
6.09787553754282
30
0
41
1
10
-0.400000000000063
20
6.10423197315532
30
0
0
SPLINE
5
305
100
AcDbEntity
8
SK1
62
256
6
ByLayer
370
-1
48
1
60
0
100
AcDbSpline
70
4
71
3
72
18
73
14
40
0
40
0
40
0
40
0
40
0.0968863178950323
40
0.183966667862442
40
0.260068802091392
40
0.324994649537974
40
0.37952973055763
40
0.42536525658285
40
0.46494139567331
40
0.50122598950253
40
0.749389404701453
40
0.882143765887257
40
1
40
1
40
1
40
1
41
1
10
-2.20000000000002
20
13.0172213663826
30
0
41
1
10
-2.19999990742258
20
12.3227942988746
30
0
41
1
10
-2.19999973163755
20
11.0042238705779
30
0
41
1
10
-2.19999786301233
20
8.92642792292401
30
0
41
1
10
-2.19999443011093
20
6.98686226381397
30
0
41
1
10
-2.19998893263653
20
5.22858160512752
30
0
41
1
10
-2.19998120124936
20
3.67870674061049
30
0
41
1
10
-2.19997005075533
20
2.3248061791129
30
0
41
1
10
-2.19995684327318
20
1.12315161344193
30
0
41
1
10
-2.19989253304598
20
-2.11124486478204
30
0
41
1
10
-2.20000303639378
20
-6.24087389980025
30
0
41
1
10
-2.1999974192872
20
-10.3543556290831
30
0
41
1
10
-2.19999917454419
20
-12.1654874411551
30
0
41
1
10
-2.20000000000002
20
-13.0172198852615
30
0
0
SPLINE
5
306
100
AcDbEntity
8
SK1
62
256
6
ByLayer
370
-1
48
1
60
0
100
AcDbSpline
70
4
71
3
72
24
73
20
40
0
40
0
40
0
40
0
40
0.0294153399389211
40
0.0294153399389211
40
0.0518467100213715
40
0.0518467100213715
40
0.0692787757243901
40
0.0692787757243901
40
0.0867341179257953
40
0.0867341179257953
40
0.110052112814912
40
0.110052112814912
40
0.151327143358807
40
0.151327143358807
40
0.280433151236764
40
0.280433151236764
40
0.826010984226231
40
0.826010984226231
40
1
40
1
40
1
40
1
41
1
10
-0.400000000000063
20
-6.10423156158009
30
0
41
1
10
-0.39416832201357
20
-6.0984378364349
30
0
41
1
10
-0.387759070234381
20
-6.09310363146565
30
0
41
1
10
-0.375252799010866
20
-6.08576185737678
30
0
41
1
10
-0.369325414442443
20
-6.08323164407952
30
0
41
1
10
-0.358286953254265
20
-6.08095158529639
30
0
41
1
10
-0.35318139109782
20
-6.08071718931328
30
0
41
1
10
-0.343215930012207
20
-6.08206381901587
30
0
41
1
10
-0.338244421136807
20
-6.08366165110795
30
0
41
1
10
-0.327535291974414
20
-6.08894854878486
30
0
41
1
10
-0.321910546955053
20
-6.09319179328202
30
0
41
1
10
-0.308125841787699
20
-6.1063104020192
30
0
41
1
10
-0.300919930144914
20
-6.11641452751712
30
0
41
1
10
-0.27546743580686
20
-6.15911632586153
30
0
41
1
10
-0.263960841290896
20
-6.19549277148192
30
0
41
1
10
-0.214259344319259
20
-6.38188374133711
30
0
41
1
10
-0.20677942828101
20
-6.5373918542702
30
0
41
1
10
-0.2006609556407
20
-6.7376412219165
30
0
41
1
10
-0.200000000000216
20
-6.78608759881158
30
0
41
1
10
-0.200000000000074
20
-6.83438537300094
30
0
0
SPLINE
5
307
100
AcDbEntity
8
SK1
62
256
6
ByLayer
370
-1
48
1
60
0
100
AcDbSpline
70
4
71
3
72
8
73
4
40
0
40
0
40
0
40
0
40
1
40
1
40
1
40
1
41
1
10
-0.200000000000074
20
-7.06635637915059
30
0
41
1
10
-0.200000000000074
20
-7.19430994365547
30
0
41
1
10
-0.200000000000074
20
-7.32358212001932
30
0
41
1
10
-0.200000000000074
20
-7.45410184860194
30
0
0
SPLINE
5
308
100
AcDbEntity
8
1
62
256
6
ByLayer
370
-1
48
1
60
0
100
AcDbSpline
70
4
71
3
72
12
73
8
40
0
40
0
40
0
40
0
40
0.0125097154214655
40
0.0125097154214655
40
0.545812023971053
40
0.545812023971053
40
1
40
1
40
1
40
1
41
1
10
67.9366066891515
20
4.23767009444791
30
0
41
1
10
67.9371593318896
20
4.23667266562308
30
0
41
1
10
67.9377118082576
20
4.23567597687378
30
0
41
1
10
67.9618534401736
20
4.19221099743856
30
0
41
1
10
67.9861757461265
20
4.15110745695827
30
0
41
1
10
68.0308754441045
20
4.08264648186304
30
0
41
1
10
68.0517133021303
20
4.0535068501766
30
0
41
1
10
68.0715644545359
20
4.03018119120406
30
0
0
LINE
5
4A
100
AcDbEntity
8
1
62
256
6
ByLayer
370
-1
48
1
60
0
100
AcDbLine
10
74.983816
20
13.159094
30
0
11
74.983816
21
11.468026
31
0
39
0
210
0
220
0
230
1
0
LINE
5
4B
100
AcDbEntity
8
1
62
256
6
ByLayer
370
-1
48
1
60
0
100
AcDbLine
10
72.429274
20
17.245571
30
0
11
72.571436
21
17.244951
31
0
39
0
210
0
220
0
230
1
0
LINE
5
4C
100
AcDbEntity
8
1
62
256
6
ByLayer
370
-1
48
1
60
0
100
AcDbLine
10
72.20211
20
7.7974
30
0
11
72.214337
21
7.985084
31
0
39
0
210
0
220
0
230
1
0
LINE
5
4D
100
AcDbEntity
8
1
62
256
6
ByLayer
370
-1
48
1
60
0
100
AcDbLine
10
65.079459
20
8.449872
30
0
11
65.067233
21
8.262188
31
0
39
0
210
0
220
0
230
1
0
LINE
5
4E
100
AcDbEntity
8
1
62
256
6
ByLayer
370
-1
48
1
60
0
100
AcDbLine
10
21.5
20
31.5
30
0
11
0.3
21
31.5
31
0
39
0
210
0
220
0
230
1
0
LINE
5
4F
100
AcDbEntity
8
1
62
256
6
ByLayer
370
-1
48
1
60
0
100
AcDbLine
10
0.3
20
-31.5
30
0
11
21.5
21
-31.5
31
0
39
0
210
0
220
0
230
1
0
LINE
5
50
100
AcDbEntity
8
1
62
256
6
ByLayer
370
-1
48
1
60
0
100
AcDbLine
10
21.5
20
-31.5
30
0
11
26.352716
21
-13.389417
31
0
39
0
210
0
220
0
230
1
0
LINE
5
51
100
AcDbEntity
8
1
62
256
6
ByLayer
370
-1
48
1
60
0
100
AcDbLine
10
26.352716
20
13.389417
30
0
11
21.5
21
31.5
31
0
39
0
210
0
220
0
230
1
0
LINE
5
52
100
AcDbEntity
8
1
62
256
6
ByLayer
370
-1
48
1
60
0
100
AcDbLine
10
0.3
20
31.5
30
0
11
0
21
31.2
31
0
39
0
210
0
220
0
230
1
0
LINE
5
53
100
AcDbEntity
8
1
62
256
6
ByLayer
370
-1
48
1
60
0
100
AcDbLine
10
0
20
-31.2
30
0
11
0.3
21
-31.5
31
0
39
0
210
0
220
0
230
1
0
LINE
5
54
100
AcDbEntity
8
1
62
256
6
ByLayer
370
-1
48
1
60
0
100
AcDbLine
10
50.717668
20
-12.51
30
0
11
50.965781
21
-12.51
31
0
39
0
210
0
220
0
230
1
0
LINE
5
55
100
AcDbEntity
8
1
62
256
6
ByLayer
370
-1
48
1
60
0
100
AcDbLine
10
27.511827
20
-12.5
30
0
11
50.591573
21
-12.5
31
0
39
0
210
0
220
0
230
1
0
LINE
5
56
100
AcDbEntity
8
1
62
256
6
ByLayer
370
-1
48
1
60
0
100
AcDbLine
10
50.591573
20
12.5
30
0
11
27.511827
21
12.5
31
0
39
0
210
0
220
0
230
1
0
LINE
5
57
100
AcDbEntity
8
1
62
256
6
ByLayer
370
-1
48
1
60
0
100
AcDbLine
10
52.079451
20
13.828605
30
0
11
51.204408
21
12.78577
31
0
39
0
210
0
220
0
230
1
0
LINE
5
58
100
AcDbEntity
8
1
62
256
6
ByLayer
370
-1
48
1
60
0
100
AcDbLine
10
74.744635
20
-0.763539
30
0
11
74.83828
21
0.673989
31
0
39
0
210
0
220
0
230
1
0
LINE
5
59
100
AcDbEntity
8
1
62
256
6
ByLayer
370
-1
48
1
60
0
100
AcDbLine
10
58.613851
20
7.207014
30
0
11
58.520257
21
5.77027
31
0
39
0
210
0
220
0
230
1
0
LINE
5
5A
100
AcDbEntity
8
1
62
256
6
ByLayer
370
-1
48
1
60
0
100
AcDbLine
10
74.905777
20
3.113168
30
0
11
74.990201
21
4.40914
31
0
39
0
210
0
220
0
230
1
0
LINE
5
5B
100
AcDbEntity
8
1
62
256
6
ByLayer
370
-1
48
1
60
0
100
AcDbLine
10
61.663048
20
5.519412
30
0
11
61.610812
21
4.717549
31
0
39
0
210
0
220
0
230
1
0
LINE
5
5C
100
AcDbEntity
8
1
62
256
6
ByLayer
370
-1
48
1
60
0
100
AcDbLine
10
58.359144
20
7.900245
30
0
11
58.289965
21
6.828257
31
0
39
0
210
0
220
0
230
1
0
LINE
5
5D
100
AcDbEntity
8
1
62
256
6
ByLayer
370
-1
48
1
60
0
100
AcDbLine
10
62.157988
20
12.401929
30
0
11
62.099558
21
11.496515
31
0
39
0
210
0
220
0
230
1
0
LINE
5
5E
100
AcDbEntity
8
SK1
62
256
6
ByLayer
370
-1
48
1
60
0
100
AcDbLine
10
-0.2
20
-22.45
30
0
11
0
21
-22.45
31
0
39
0
210
0
220
0
230
1
0
LINE
5
60
100
AcDbEntity
8
SK1
62
256
6
ByLayer
370
-1
48
1
60
0
100
AcDbLine
10
0
20
22.45
30
0
11
-0.2
21
22.45
31
0
39
0
210
0
220
0
230
1
0
LINE
5
61
100
AcDbEntity
8
1
62
256
6
ByLayer
370
-1
48
1
60
0
100
AcDbLine
10
74.771491
20
-2.656033
30
0
11
74.743184
21
-2.656183
31
0
39
0
210
0
220
0
230
1
0
LINE
5
62
100
AcDbEntity
8
4
62
256
6
ByLayer
370
-1
48
0.05
60
0
100
AcDbLine
10
0
20
0
30
0
11
75
21
0
31
0
39
0
210
0
220
0
230
1
0
LINE
5
64
100
AcDbEntity
8
SK4
62
256
6
ByLayer
370
-1
48
0.05
60
0
100
AcDbLine
10
-43
20
0
30
0
11
80
21
0
31
0
39
0
210
0
220
0
230
1
0
LINE
5
66
100
AcDbEntity
8
80
62
256
6
ByLayer
370
-1
48
1
60
0
100
AcDbLine
10
0
20
0
30
0
11
-5
21
0
31
0
39
0
210
0
220
0
230
1
0
LINE
5
67
100
AcDbEntity
8
81
62
256
6
ByLayer
370
-1
48
1
60
0
100
AcDbLine
10
75
20
18.875
30
0
11
80
21
18.875
31
0
39
0
210
0
220
0
230
1
0
LINE
5
68
100
AcDbEntity
8
1
62
256
6
ByLayer
370
-1
48
1
60
0
100
AcDbLine
10
10.105662
20
9.869413
30
0
11
10.105662
21
29.913955
31
0
39
0
210
0
220
0
230
1
0
LINE
5
69
100
AcDbEntity
8
1
62
256
6
ByLayer
370
-1
48
1
60
0
100
AcDbLine
10
61.772897
20
14.108401
30
0
11
61.772897
21
12.13618
31
0
39
0
210
0
220
0
230
1
0
LINE
5
6A
100
AcDbEntity
8
1
62
256
6
ByLayer
370
-1
48
1
60
0
100
AcDbLine
10
13.461325
20
9.349221
30
0
11
13.461325
21
30.080593
31
0
39
0
210
0
220
0
230
1
0
LINE
5
6B
100
AcDbEntity
8
1
62
256
6
ByLayer
370
-1
48
1
60
0
100
AcDbLine
10
10.105662
20
-29.913955
30
0
11
10.105662
21
-9.869413
31
0
39
0
210
0
220
0
230
1
0
LINE
5
6C
100
AcDbEntity
8
1
62
256
6
ByLayer
370
-1
48
1
60
0
100
AcDbLine
10
63.711744
20
-9.507787
30
0
11
50.661496
21
12.385754
31
0
39
0
210
0
220
0
230
1
0
LINE
5
6D
100
AcDbEntity
8
1
62
256
6
ByLayer
370
-1
48
1
60
0
100
AcDbLine
10
51.204408
20
12.78577
30
0
11
51.204408
21
12.682771
31
0
39
0
210
0
220
0
230
1
0
LINE
5
6E
100
AcDbEntity
8
1
62
256
6
ByLayer
370
-1
48
1
60
0
100
AcDbLine
10
26.352716
20
-13.389417
30
0
11
26.352716
21
13.389417
31
0
39
0
210
0
220
0
230
1
0
LINE
5
6F
100
AcDbEntity
8
1
62
256
6
ByLayer
370
-1
48
1
60
0
100
AcDbLine
10
27.511827
20
-12.5
30
0
11
27.511827
21
0
31
0
39
0
210
0
220
0
230
1
0
LINE
5
70
100
AcDbEntity
8
1
62
256
6
ByLayer
370
-1
48
1
60
0
100
AcDbLine
10
27.511827
20
0
30
0
11
27.511827
21
12.5
31
0
39
0
210
0
220
0
230
1
0
LINE
5
71
100
AcDbEntity
8
1
62
256
6
ByLayer
370
-1
48
1
60
0
100
AcDbLine
10
50.965781
20
-12.51
30
0
11
62.834416
21
-9.714435
31
0
39
0
210
0
220
0
230
1
0
LINE
5
72
100
AcDbEntity
8
1
62
256
6
ByLayer
370
-1
48
1
60
0
100
AcDbLine
10
74.132479
20
2.256834
30
0
11
74.132479
21
2.003479
31
0
39
0
210
0
220
0
230
1
0
LINE
5
73
100
AcDbEntity
8
1
62
256
6
ByLayer
370
-1
48
1
60
0
100
AcDbLine
10
53.246383
20
6.075514
30
0
11
49.640434
21
12.124976
31
0
39
0
210
0
220
0
230
1
0
LINE
5
74
100
AcDbEntity
8
1
62
256
6
ByLayer
370
-1
48
1
60
0
100
AcDbLine
10
61.944808
20
12.469874
30
0
11
61.772893
21
12.470617
31
0
39
0
210
0
220
0
230
1
0
LINE
5
75
100
AcDbEntity
8
1
62
256
6
ByLayer
370
-1
48
1
60
0
100
AcDbLine
10
74.286433
20
-2.407147
30
0
11
74.3003
21
-2.457429
31
0
39
0
210
0
220
0
230
1
0
LINE
5
76
100
AcDbEntity
8
1
62
256
6
ByLayer
370
-1
48
1
60
0
100
AcDbLine
10
10.538675
20
-9.349221
30
0
11
13.461325
21
-9.349221
31
0
39
0
210
0
220
0
230
1
0
LINE
5
77
100
AcDbEntity
8
1
62
256
6
ByLayer
370
-1
48
1
60
0
100
AcDbLine
10
62.850517
20
4.055985
30
0
11
69.954124
21
0.063202
31
0
39
0
210
0
220
0
230
1
0
LINE
5
78
100
AcDbEntity
8
1
62
256
6
ByLayer
370
-1
48
1
60
0
100
AcDbLine
10
61.501917
20
11.165795
30
0
11
61.772897
21
12.13618
31
0
39
0
210
0
220
0
230
1
0
LINE
5
79
100
AcDbEntity
8
1
62
256
6
ByLayer
370
-1
48
1
60
0
100
AcDbLine
10
13.461325
20
-30.080593
30
0
11
10.538675
21
-30.080593
31
0
39
0
210
0
220
0
230
1
0
LINE
5
7A
100
AcDbEntity
8
1
62
256
6
ByLayer
370
-1
48
1
60
0
100
AcDbLine
10
10.538675
20
9.349221
30
0
11
10.538675
21
30.080593
31
0
39
0
210
0
220
0
230
1
0
LINE
5
7B
100
AcDbEntity
8
1
62
256
6
ByLayer
370
-1
48
1
60
0
100
AcDbLine
10
52.391623
20
14.149338
30
0
11
61.772897
21
14.108401
31
0
39
0
210
0
220
0
230
1
0
LINE
5
7C
100
AcDbEntity
8
1
62
256
6
ByLayer
370
-1
48
1
60
0
100
AcDbLine
10
13.894338
20
9.869413
30
0
11
13.894338
21
29.913955
31
0
39
0
210
0
220
0
230
1
0
LINE
5
7D
100
AcDbEntity
8
1
62
256
6
ByLayer
370
-1
48
1
60
0
100
AcDbLine
10
60.52636
20
5.327091
30
0
11
61.856474
21
4.579463
31
0
39
0
210
0
220
0
230
1
0
LINE
5
7E
100
AcDbEntity
8
1
62
256
6
ByLayer
370
-1
48
1
60
0
100
AcDbLine
10
60.52636
20
5.327091
30
0
11
60.331512
21
5.394008
31
0
39
0
210
0
220
0
230
1
0
LINE
5
7F
100
AcDbEntity
8
1
62
256
6
ByLayer
370
-1
48
1
60
0
100
AcDbLine
10
61.944808
20
12.469874
30
0
11
61.944808
21
11.410833
31
0
39
0
210
0
220
0
230
1
0
LINE
5
80
100
AcDbEntity
8
1
62
256
6
ByLayer
370
-1
48
1
60
0
100
AcDbLine
10
13.461325
20
-30.080593
30
0
11
13.461325
21
-9.349221
31
0
39
0
210
0
220
0
230
1
0
LINE
5
81
100
AcDbEntity
8
1
62
256
6
ByLayer
370
-1
48
1
60
0
100
AcDbLine
10
50.591573
20
12.5
30
0
11
50.591573
21
12.382125
31
0
39
0
210
0
220
0
230
1
0
LINE
5
82
100
AcDbEntity
8
1
62
256
6
ByLayer
370
-1
48
1
60
0
100
AcDbLine
10
50.591573
20
0.454429
30
0
11
50.591573
21
-12.5
31
0
39
0
210
0
220
0
230
1
0
LINE
5
83
100
AcDbEntity
8
1
62
256
6
ByLayer
370
-1
48
1
60
0
100
AcDbLine
10
74.3003
20
-2.457429
30
0
11
60.331512
21
5.394008
31
0
39
0
210
0
220
0
230
1
0
LINE
5
84
100
AcDbEntity
8
1
62
256
6
ByLayer
370
-1
48
1
60
0
100
AcDbLine
10
62.327708
20
-9.159628
30
0
11
55.109707
21
2.949538
31
0
39
0
210
0
220
0
230
1
0
LINE
5
85
100
AcDbEntity
8
1
62
256
6
ByLayer
370
-1
48
1
60
0
100
AcDbLine
10
70.775292
20
-0.433611
30
0
11
74.286433
21
-2.407147
31
0
39
0
210
0
220
0
230
1
0
LINE
5
86
100
AcDbEntity
8
1
62
256
6
ByLayer
370
-1
48
1
60
0
100
AcDbLine
10
50.717668
20
-12.51
30
0
11
50.717668
21
0.28691
31
0
39
0
210
0
220
0
230
1
0
LINE
5
87
100
AcDbEntity
8
1
62
256
6
ByLayer
370
-1
48
1
60
0
100
AcDbLine
10
10.538675
20
-30.080593
30
0
11
10.538675
21
-9.349221
31
0
39
0
210
0
220
0
230
1
0
LINE
5
88
100
AcDbEntity
8
1
62
256
6
ByLayer
370
-1
48
1
60
0
100
AcDbLine
10
63.711744
20
-9.507787
30
0
11
74.3003
21
-7.013735
31
0
39
0
210
0
220
0
230
1
0
LINE
5
89
100
AcDbEntity
8
1
62
256
6
ByLayer
370
-1
48
1
60
0
100
AcDbLine
10
60.331512
20
5.394008
30
0
11
60.288782
21
5.352915
31
0
39
0
210
0
220
0
230
1
0
LINE
5
8A
100
AcDbEntity
8
1
62
256
6
ByLayer
370
-1
48
1
60
0
100
AcDbLine
10
13.894338
20
-29.913955
30
0
11
13.894338
21
-9.869413
31
0
39
0
210
0
220
0
230
1
0
LINE
5
8B
100
AcDbEntity
8
1
62
256
6
ByLayer
370
-1
48
1
60
0
100
AcDbLine
10
10.538675
20
30.080593
30
0
11
13.461325
21
30.080593
31
0
39
0
210
0
220
0
230
1
0
LINE
5
8C
100
AcDbEntity
8
1
62
256
6
ByLayer
370
-1
48
1
60
0
100
AcDbLine
10
13.461325
20
9.349221
30
0
11
10.538675
21
9.349221
31
0
39
0
210
0
220
0
230
1
0
LINE
5
8D
100
AcDbEntity
8
1
62
256
6
ByLayer
370
-1
48
1
60
0
100
AcDbLine
10
62.101847
20
11.529551
30
0
11
61.944826
21
11.53023
31
0
39
0
210
0
220
0
230
1
0
LINE
5
8E
100
AcDbEntity
8
1
62
256
6
ByLayer
370
-1
48
1
60
0
100
AcDbLine
10
21.5
20
-31.5
30
0
11
21.5
21
0
31
0
39
0
210
0
220
0
230
1
0
LINE
5
8F
100
AcDbEntity
8
1
62
256
6
ByLayer
370
-1
48
1
60
0
100
AcDbLine
10
21.5
20
0
30
0
11
21.5
21
31.5
31
0
39
0
210
0
220
0
230
1
0
LINE
5
90
100
AcDbEntity
8
1
62
256
6
ByLayer
370
-1
48
1
60
0
100
AcDbLine
10
61.772897
20
12.13618
30
0
11
57.76978
21
9.920849
31
0
39
0
210
0
220
0
230
1
0
LINE
5
91
100
AcDbEntity
8
1
62
256
6
ByLayer
370
-1
48
1
60
0
100
AcDbLine
10
63.711744
20
-9.507787
30
0
11
62.834416
21
-9.714435
31
0
39
0
210
0
220
0
230
1
0
LINE
5
92
100
AcDbEntity
8
1
62
256
6
ByLayer
370
-1
48
1
60
0
100
AcDbLine
10
74.3003
20
-7.013735
30
0
11
74.3003
21
-2.457429
31
0
39
0
210
0
220
0
230
1
0
LINE
5
93
100
AcDbEntity
8
1
62
256
6
ByLayer
370
-1
48
1
60
0
100
AcDbLine
10
60.402654
20
10.137959
30
0
11
56.867155
21
8.1813
31
0
39
0
210
0
220
0
230
1
0
LINE
5
94
100
AcDbEntity
8
1
62
256
6
ByLayer
370
-1
48
1
60
0
100
AcDbLine
10
0
20
-31.2
30
0
11
0
21
31.2
31
0
39
0
210
0
220
0
230
1
0
LINE
5
95
100
AcDbEntity
8
1
62
256
6
ByLayer
370
-1
48
1
60
0
100
AcDbLine
10
0.3
20
-31.5
30
0
11
0.3
21
0
31
0
39
0
210
0
220
0
230
1
0
LINE
5
96
100
AcDbEntity
8
1
62
256
6
ByLayer
370
-1
48
1
60
0
100
AcDbLine
10
0.3
20
0
30
0
11
0.3
21
31.5
31
0
39
0
210
0
220
0
230
1
0
LINE
5
97
100
AcDbEntity
8
1
62
256
6
ByLayer
370
-1
48
1
60
0
100
AcDbLine
10
63.286243
20
12.339162
30
0
11
63.286243
21
12.941236
31
0
39
0
210
0
220
0
230
1
0
LINE
5
98
100
AcDbEntity
8
1
62
256
6
ByLayer
370
-1
48
1
60
0
100
AcDbLine
10
62.100766
20
11.497179
30
0
11
62.156826
21
12.365882
31
0
39
0
210
0
220
0
230
1
0
LINE
5
99
100
AcDbEntity
8
1
62
256
6
ByLayer
370
-1
48
1
60
0
100
AcDbLine
10
58.288029
20
6.76818
30
0
11
58.288029
21
4.877466
31
0
39
0
210
0
220
0
230
1
0
LINE
5
9A
100
AcDbEntity
8
1
62
256
6
ByLayer
370
-1
48
1
60
0
100
AcDbLine
10
63.286243
20
12.941236
30
0
11
62.756765
21
12.943206
31
0
39
0
210
0
220
0
230
1
0
LINE
5
9B
100
AcDbEntity
8
1
62
256
6
ByLayer
370
-1
48
1
60
0
100
AcDbLine
10
59.6055
20
4.925559
30
0
11
58.367519
21
5.620488
31
0
39
0
210
0
220
0
230
1
0
LINE
5
9C
100
AcDbEntity
8
1
62
256
6
ByLayer
370
-1
48
1
60
0
100
AcDbLine
10
63.863506
20
12.582311
30
0
11
63.863506
21
13.046476
31
0
39
0
210
0
220
0
230
1
0
LINE
5
9D
100
AcDbEntity
8
1
62
256
6
ByLayer
370
-1
48
1
60
0
100
AcDbLine
10
62.156826
20
12.365882
30
0
11
62.156826
21
11.528198
31
0
39
0
210
0
220
0
230
1
0
LINE
5
9E
100
AcDbEntity
8
1
62
256
6
ByLayer
370
-1
48
1
60
0
100
AcDbLine
10
64.308625
20
13.095203
30
0
11
64.422106
21
13.094781
31
0
39
0
210
0
220
0
230
1
0
LINE
5
9F
100
AcDbEntity
8
1
62
256
6
ByLayer
370
-1
48
1
60
0
100
AcDbLine
10
63.539234
20
12.419566
30
0
11
63.539234
21
12.940295
31
0
39
0
210
0
220
0
230
1
0
LINE
5
A0
100
AcDbEntity
8
1
62
256
6
ByLayer
370
-1
48
1
60
0
100
AcDbLine
10
58.288029
20
6.76818
30
0
11
58.357208
21
7.840167
31
0
39
0
210
0
220
0
230
1
0
LINE
5
A1
100
AcDbEntity
8
1
62
256
6
ByLayer
370
-1
48
1
60
0
100
AcDbLine
10
64.422106
20
12.891511
30
0
11
64.422106
21
13.094781
31
0
39
0
210
0
220
0
230
1
0
LINE
5
A2
100
AcDbEntity
8
1
62
256
6
ByLayer
370
-1
48
1
60
0
100
AcDbLine
10
58.300101
20
4.87396
30
0
11
58.357208
21
5.758886
31
0
39
0
210
0
220
0
230
1
0
LINE
5
A3
100
AcDbEntity
8
1
62
256
6
ByLayer
370
-1
48
1
60
0
100
AcDbLine
10
59.577552
20
8.801553
30
0
11
59.357107
21
8.802373
31
0
39
0
210
0
220
0
230
1
0
LINE
5
A4
100
AcDbEntity
8
1
62
256
6
ByLayer
370
-1
48
1
60
0
100
AcDbLine
10
72.3558
20
-1.321914
30
0
11
72.3558
21
-1.066235
31
0
39
0
210
0
220
0
230
1
0
LINE
5
A5
100
AcDbEntity
8
1
62
256
6
ByLayer
370
-1
48
1
60
0
100
AcDbLine
10
58.357208
20
7.840167
30
0
11
58.357208
21
5.758886
31
0
39
0
210
0
220
0
230
1
0
LINE
5
A6
100
AcDbEntity
8
1
62
256
6
ByLayer
370
-1
48
1
60
0
100
AcDbLine
10
64.308625
20
12.828628
30
0
11
64.308625
21
13.095203
31
0
39
0
210
0
220
0
230
1
0
LINE
5
A7
100
AcDbEntity
8
1
62
256
6
ByLayer
370
-1
48
1
60
0
100
AcDbLine
10
70.271278
20
7.347168
30
0
11
70.296094
21
7.728124
31
0
39
0
210
0
220
0
230
1
0
LINE
5
A8
100
AcDbEntity
8
1
62
256
6
ByLayer
370
-1
48
1
60
0
100
AcDbLine
10
67.241986
20
8.11639
30
0
11
67.220391
21
7.784887
31
0
39
0
210
0
220
0
230
1
0
LINE
5
A9
100
AcDbEntity
8
1
62
256
6
ByLayer
370
-1
48
1
60
0
100
AcDbLine
10
67.233944
20
8.28801
30
0
11
67.241986
21
8.411464
31
0
39
0
210
0
220
0
230
1
0
LINE
5
AA
100
AcDbEntity
8
1
62
256
6
ByLayer
370
-1
48
1
60
0
100
AcDbLine
10
70.057062
20
8.399179
30
0
11
70.035466
21
8.067676
31
0
39
0
210
0
220
0
230
1
0
LINE
5
AB
100
AcDbEntity
8
1
62
256
6
ByLayer
370
-1
48
1
60
0
100
AcDbLine
10
70.035466
20
7.772602
30
0
11
70.057062
21
8.104106
31
0
39
0
210
0
220
0
230
1
0
LINE
5
AC
100
AcDbEntity
8
1
62
256
6
ByLayer
370
-1
48
1
60
0
100
AcDbLine
10
69.955892
20
9.028839
30
0
11
69.980788
21
9.411018
31
0
39
0
210
0
220
0
230
1
0
LINE
5
AD
100
AcDbEntity
8
1
62
256
6
ByLayer
370
-1
48
1
60
0
100
AcDbLine
10
68.946045
20
9.592173
30
0
11
68.970942
21
9.974352
31
0
39
0
210
0
220
0
230
1
0
LINE
5
AE
100
AcDbEntity
8
1
62
256
6
ByLayer
370
-1
48
1
60
0
100
AcDbLine
10
68.309812
20
9.594949
30
0
11
68.334708
21
9.977128
31
0
39
0
210
0
220
0
230
1
0
LINE
5
AF
100
AcDbEntity
8
1
62
256
6
ByLayer
370
-1
48
1
60
0
100
AcDbLine
10
67.299965
20
9.040429
30
0
11
67.324861
21
9.422607
31
0
39
0
210
0
220
0
230
1
0
LINE
5
B0
100
AcDbEntity
8
1
62
256
6
ByLayer
370
-1
48
1
60
0
100
AcDbLine
10
66.984579
20
7.361511
30
0
11
67.009396
21
7.742466
31
0
39
0
210
0
220
0
230
1
0
LINE
5
B1
100
AcDbEntity
8
SK1
62
256
6
ByLayer
370
-1
48
1
60
0
100
AcDbLine
10
-1.307107
20
4.695915
30
0
11
-1.307107
21
-4.695917
31
0
39
0
210
0
220
0
230
1
0
LINE
5
B2
100
AcDbEntity
8
SK1
62
256
6
ByLayer
370
-1
48
1
60
0
100
AcDbLine
10
-0.2
20
-22.45
30
0
11
-0.2
21
-7.454102
31
0
39
0
210
0
220
0
230
1
0
LINE
5
B3
100
AcDbEntity
8
SK1
62
256
6
ByLayer
370
-1
48
1
60
0
100
AcDbLine
10
-0.2
20
7.454103
30
0
11
-0.2
21
22.45
31
0
39
0
210
0
220
0
230
1
0
LINE
5
B4
100
AcDbEntity
8
SK1
62
256
6
ByLayer
370
-1
48
1
60
0
100
AcDbLine
10
-38
20
-20.238234
30
0
11
-38
21
20.248119
31
0
39
0
210
0
220
0
230
1
0
LINE
5
B5
100
AcDbEntity
8
1
62
256
6
ByLayer
370
-1
48
1
60
0
100
AcDbLine
10
74.728305
20
-1.776745
30
0
11
74.818289
21
-1.776268
31
0
39
0
210
0
220
0
230
1
0
LINE
5
B6
100
AcDbEntity
8
1
62
256
6
ByLayer
370
-1
48
1
60
0
100
AcDbLine
10
74.735711
20
-0.892486
30
0
11
74.800032
21
-0.892145
31
0
39
0
210
0
220
0
230
1
0
LINE
5
B7
100
AcDbEntity
8
1
62
256
6
ByLayer
370
-1
48
1
60
0
100
AcDbLine
10
74.775059
20
-3.33206
30
0
11
74.780592
21
-3.33203
31
0
39
0
210
0
220
0
230
1
0
LINE
5
B8
100
AcDbEntity
8
1
62
256
6
ByLayer
370
-1
48
1
60
0
100
AcDbLine
10
74.735967
20
-0.881054
30
0
11
74.812652
21
-0.880647
31
0
39
0
210
0
220
0
230
1
0
LINE
5
B9
100
AcDbEntity
8
1
62
256
6
ByLayer
370
-1
48
1
60
0
100
AcDbLine
10
74.728326
20
-1.777421
30
0
11
74.831159
21
-1.776877
31
0
39
0
210
0
220
0
230
1
0
LINE
5
BA
100
AcDbEntity
8
1
62
256
6
ByLayer
370
-1
48
1
60
0
100
AcDbLine
10
74.776342
20
-3.350093
30
0
11
74.792977
21
-3.350005
31
0
39
0
210
0
220
0
230
1
0
LINE
5
BB
100
AcDbEntity
8
1
62
256
6
ByLayer
370
-1
48
1
60
0
100
AcDbLine
10
74.822168
20
0.341323
30
0
11
74.816426
21
0.338587
31
0
39
0
210
0
220
0
230
1
0
LINE
5
BC
100
AcDbEntity
8
1
62
256
6
ByLayer
370
-1
48
1
60
0
100
AcDbLine
10
69.896337
20
15.123705
30
0
11
69.901456
21
15.116324
31
0
39
0
210
0
220
0
230
1
0
LINE
5
BD
100
AcDbEntity
8
1
62
256
6
ByLayer
370
-1
48
1
60
0
100
AcDbLine
10
74.984104
20
7.463302
30
0
11
74.990694
21
4.745967
31
0
39
0
210
0
220
0
230
1
0
LINE
5
BE
100
AcDbEntity
8
1
62
256
6
ByLayer
370
-1
48
1
60
0
100
AcDbLine
10
72.401341
20
17.002124
30
0
11
72.397855
21
16.526361
31
0
39
0
210
0
220
0
230
1
0
LINE
5
BF
100
AcDbEntity
8
1
62
256
6
ByLayer
370
-1
48
1
60
0
100
AcDbLine
10
67.936607
20
4.23767
30
0
11
67.228858
21
1.85631
31
0
39
0
210
0
220
0
230
1
0
LINE
5
C0
100
AcDbEntity
8
1
62
256
6
ByLayer
370
-1
48
1
60
0
100
AcDbLine
10
74.992417
20
9.036721
30
0
11
74.993386
21
8.983422
31
0
39
0
210
0
220
0
230
1
0
LINE
5
C1
100
AcDbEntity
8
1
62
256
6
ByLayer
370
-1
48
1
60
0
100
AcDbLine
10
73.368378
20
10.995466
30
0
11
72.446306
21
10.777393
31
0
39
0
210
0
220
0
230
1
0
LINE
5
C2
100
AcDbEntity
8
1
62
256
6
ByLayer
370
-1
48
1
60
0
100
AcDbLine
10
68.887705
20
3.96877
30
0
11
68.625766
21
3.087427
31
0
39
0
210
0
220
0
230
1
0
LINE
5
C3
100
AcDbEntity
8
1
62
256
6
ByLayer
370
-1
48
1
60
0
100
AcDbLine
10
58.921557
20
7.060911
30
0
11
59.2966
21
7.216877
31
0
39
0
210
0
220
0
230
1
0
LINE
5
C4
100
AcDbEntity
8
1
62
256
6
ByLayer
370
-1
48
1
60
0
100
AcDbLine
10
74.482663
20
2.356663
30
0
11
74.872781
21
3.007734
31
0
39
0
210
0
220
0
230
1
0
LINE
5
C5
100
AcDbEntity
8
1
62
256
6
ByLayer
370
-1
48
1
60
0
100
AcDbLine
10
60.56648
20
10.403286
30
0
11
61.625819
21
8.626101
31
0
39
0
210
0
220
0
230
1
0
LINE
5
C6
100
AcDbEntity
8
1
62
256
6
ByLayer
370
-1
48
1
60
0
100
AcDbLine
10
68.894621
20
15.321261
30
0
11
69.674857
21
15.317857
31
0
39
0
210
0
220
0
230
1
0
LINE
5
C7
100
AcDbEntity
8
1
62
256
6
ByLayer
370
-1
48
1
60
0
100
AcDbLine
10
72.380287
20
17.03935
30
0
11
72.401341
21
17.002124
31
0
39
0
210
0
220
0
230
1
0
LINE
5
C8
100
AcDbEntity
8
1
62
256
6
ByLayer
370
-1
48
1
60
0
100
AcDbLine
10
64.61652
20
10.356264
30
0
11
63.956386
21
11.019534
31
0
39
0
210
0
220
0
230
1
0
LINE
5
C9
100
AcDbEntity
8
1
62
256
6
ByLayer
370
-1
48
1
60
0
100
AcDbLine
10
72.46146
20
10.711027
30
0
11
73.383532
21
10.929099
31
0
39
0
210
0
220
0
230
1
0
LINE
5
CA
100
AcDbEntity
8
1
62
256
6
ByLayer
370
-1
48
1
60
0
100
AcDbLine
10
73.149855
20
2.413473
30
0
11
74.15177
21
0.807725
31
0
39
0
210
0
220
0
230
1
0
LINE
5
CB
100
AcDbEntity
8
1
62
256
6
ByLayer
370
-1
48
1
60
0
100
AcDbLine
10
71.79474
20
2.140551
30
0
11
74.984104
21
7.463302
31
0
39
0
210
0
220
0
230
1
0
LINE
5
CC
100
AcDbEntity
8
1
62
256
6
ByLayer
370
-1
48
1
60
0
100
AcDbLine
10
66.129099
20
11.565067
30
0
11
64.660281
21
13.040864
31
0
39
0
210
0
220
0
230
1
0
LINE
5
CD
100
AcDbEntity
8
1
62
256
6
ByLayer
370
-1
48
1
60
0
100
AcDbLine
10
68.687941
20
3.076098
30
0
11
68.949879
21
3.957441
31
0
39
0
210
0
220
0
230
1
0
LINE
5
CE
100
AcDbEntity
8
1
62
256
6
ByLayer
370
-1
48
1
60
0
100
AcDbLine
10
71.610037
20
0.473902
30
0
11
71.628021
21
1.79604
31
0
39
0
210
0
220
0
230
1
0
LINE
5
CF
100
AcDbEntity
8
1
62
256
6
ByLayer
370
-1
48
1
60
0
100
AcDbLine
10
72.596804
20
17.001271
30
0
11
72.618622
21
17.03831
31
0
39
0
210
0
220
0
230
1
0
LINE
5
D0
100
AcDbEntity
8
1
62
256
6
ByLayer
370
-1
48
1
60
0
100
AcDbLine
10
73.189577
20
7.894223
30
0
11
73.869918
21
8.055126
31
0
39
0
210
0
220
0
230
1
0
LINE
5
D1
100
AcDbEntity
8
1
62
256
6
ByLayer
370
-1
48
1
60
0
100
AcDbLine
10
72.380287
20
17.03935
30
0
11
70.929036
21
14.55052
31
0
39
0
210
0
220
0
230
1
0
LINE
5
D2
100
AcDbEntity
8
1
62
256
6
ByLayer
370
-1
48
1
60
0
100
AcDbLine
10
72.096763
20
0.568407
30
0
11
74.146215
21
0.710902
31
0
39
0
210
0
220
0
230
1
0
LINE
5
D3
100
AcDbEntity
8
1
62
256
6
ByLayer
370
-1
48
1
60
0
100
AcDbLine
10
73.534637
20
14.650302
30
0
11
72.48446
21
14.049996
31
0
39
0
210
0
220
0
230
1
0
LINE
5
D4
100
AcDbEntity
8
1
62
256
6
ByLayer
370
-1
48
1
60
0
100
AcDbLine
10
72.102317
20
0.66523
30
0
11
72.117525
21
1.783227
31
0
39
0
210
0
220
0
230
1
0
LINE
5
D5
100
AcDbEntity
8
1
62
256
6
ByLayer
370
-1
48
1
60
0
100
AcDbLine
10
74.996292
20
10.623752
30
0
11
74.992417
21
10.291529
31
0
39
0
210
0
220
0
230
1
0
LINE
5
D6
100
AcDbEntity
8
1
62
256
6
ByLayer
370
-1
48
1
60
0
100
AcDbLine
10
71.909101
20
-1.070882
30
0
11
74.49666
21
-1.044324
31
0
39
0
210
0
220
0
230
1
0
LINE
5
D7
100
AcDbEntity
8
1
62
256
6
ByLayer
370
-1
48
1
60
0
100
AcDbLine
10
74.990694
20
4.745967
30
0
11
74.990694
21
4.424301
31
0
39
0
210
0
220
0
230
1
0
LINE
5
D8
100
AcDbEntity
8
1
62
256
6
ByLayer
370
-1
48
1
60
0
100
AcDbLine
10
62.164456
20
4.694521
30
0
11
62.146555
21
4.419714
31
0
39
0
210
0
220
0
230
1
0
LINE
5
D9
100
AcDbEntity
8
1
62
256
6
ByLayer
370
-1
48
1
60
0
100
AcDbLine
10
59.198868
20
7.380835
30
0
11
58.823825
21
7.224869
31
0
39
0
210
0
220
0
230
1
0
LINE
5
DA
100
AcDbEntity
8
1
62
256
6
ByLayer
370
-1
48
1
60
0
100
AcDbLine
10
74.243946
20
0.874006
30
0
11
73.242032
21
2.479754
31
0
39
0
210
0
220
0
230
1
0
LINE
5
DB
100
AcDbEntity
8
1
62
256
6
ByLayer
370
-1
48
1
60
0
100
AcDbLine
10
61.323522
20
7.153442
30
0
11
59.289904
21
7.313754
31
0
39
0
210
0
220
0
230
1
0
LINE
5
DC
100
AcDbEntity
8
1
62
256
6
ByLayer
370
-1
48
1
60
0
100
AcDbLine
10
65.996539
20
4.788446
30
0
11
65.803271
21
4.138156
31
0
39
0
210
0
220
0
230
1
0
LINE
5
DD
100
AcDbEntity
8
1
62
256
6
ByLayer
370
-1
48
1
60
0
100
AcDbLine
10
65.837021
20
13.012041
30
0
11
64.882887
21
13.185755
31
0
39
0
210
0
220
0
230
1
0
LINE
5
DE
100
AcDbEntity
8
1
62
256
6
ByLayer
370
-1
48
1
60
0
100
AcDbLine
10
74.837869
20
13.462287
30
0
11
74.948411
21
13.283142
31
0
39
0
210
0
220
0
230
1
0
LINE
5
DF
100
AcDbEntity
8
1
62
256
6
ByLayer
370
-1
48
1
60
0
100
AcDbLine
10
70.072848
20
-0.014136
30
0
11
70.082509
21
0.13418
31
0
39
0
210
0
220
0
230
1
0
LINE
5
E0
100
AcDbEntity
8
1
62
256
6
ByLayer
370
-1
48
1
60
0
100
AcDbLine
10
66.860081
20
4.371066
30
0
11
66.277261
21
2.410051
31
0
39
0
210
0
220
0
230
1
0
LINE
5
E1
100
AcDbEntity
8
1
62
256
6
ByLayer
370
-1
48
1
60
0
100
AcDbLine
10
73.968593
20
2.122273
30
0
11
73.976526
21
2.135511
31
0
39
0
210
0
220
0
230
1
0
LINE
5
E2
100
AcDbEntity
8
1
62
256
6
ByLayer
370
-1
48
1
60
0
100
AcDbLine
10
74.283166
20
3.565169
30
0
11
74.990694
21
4.745967
31
0
39
0
210
0
220
0
230
1
0
LINE
5
E3
100
AcDbEntity
8
1
62
256
6
ByLayer
370
-1
48
1
60
0
100
AcDbLine
10
72.940779
20
8.551503
30
0
11
74.992417
21
9.036721
31
0
39
0
210
0
220
0
230
1
0
LINE
5
E4
100
AcDbEntity
8
1
62
256
6
ByLayer
370
-1
48
1
60
0
100
AcDbLine
10
65.489977
20
10.703304
30
0
11
63.706317
21
12.495439
31
0
39
0
210
0
220
0
230
1
0
LINE
5
E5
100
AcDbEntity
8
1
62
256
6
ByLayer
370
-1
48
1
60
0
100
AcDbLine
10
63.294795
20
12.342559
30
0
11
63.535411
21
12.418369
31
0
39
0
210
0
220
0
230
1
0
LINE
5
E6
100
AcDbEntity
8
1
62
256
6
ByLayer
370
-1
48
1
60
0
100
AcDbLine
10
74.060395
20
3.422971
30
0
11
73.976526
21
2.135511
31
0
39
0
210
0
220
0
230
1
0
LINE
5
E7
100
AcDbEntity
8
1
62
256
6
ByLayer
370
-1
48
1
60
0
100
AcDbLine
10
72.247166
20
13.639693
30
0
11
71.011474
21
14.360423
31
0
39
0
210
0
220
0
230
1
0
LINE
5
E8
100
AcDbEntity
8
1
62
256
6
ByLayer
370
-1
48
1
60
0
100
AcDbLine
10
74.872781
20
3.007734
30
0
11
74.957205
21
4.303706
31
0
39
0
210
0
220
0
230
1
0
LINE
5
E9
100
AcDbEntity
8
1
62
256
6
ByLayer
370
-1
48
1
60
0
100
AcDbLine
10
74.814608
20
0.599378
30
0
11
74.743527
21
0.48075
31
0
39
0
210
0
220
0
230
1
0
LINE
5
EA
100
AcDbEntity
8
1
62
256
6
ByLayer
370
-1
48
1
60
0
100
AcDbLine
10
73.853976
20
8.109384
30
0
11
73.173634
21
7.948481
31
0
39
0
210
0
220
0
230
1
0
LINE
5
EB
100
AcDbEntity
8
1
62
256
6
ByLayer
370
-1
48
1
60
0
100
AcDbLine
10
61.745285
20
5.719402
30
0
11
62.452813
21
4.53243
31
0
39
0
210
0
220
0
230
1
0
LINE
5
EC
100
AcDbEntity
8
1
62
256
6
ByLayer
370
-1
48
1
60
0
100
AcDbLine
10
70.577721
20
0.109461
30
0
11
71.637061
21
1.8774
31
0
39
0
210
0
220
0
230
1
0
LINE
5
ED
100
AcDbEntity
8
1
62
256
6
ByLayer
370
-1
48
1
60
0
100
AcDbLine
10
74.957205
20
4.303706
30
0
11
74.567087
21
3.652636
31
0
39
0
210
0
220
0
230
1
0
LINE
5
EE
100
AcDbEntity
8
1
62
256
6
ByLayer
370
-1
48
1
60
0
100
AcDbLine
10
74.991234
20
9.210526
30
0
11
72.711432
21
8.671346
31
0
39
0
210
0
220
0
230
1
0
LINE
5
EF
100
AcDbEntity
8
1
62
256
6
ByLayer
370
-1
48
1
60
0
100
AcDbLine
10
60.639579
20
10.525762
30
0
11
60.74447
21
10.707118
31
0
39
0
210
0
220
0
230
1
0
LINE
5
F0
100
AcDbEntity
8
1
62
256
6
ByLayer
370
-1
48
1
60
0
100
AcDbLine
10
69.896337
20
15.123705
30
0
11
68.481282
21
15.12988
31
0
39
0
210
0
220
0
230
1
0
LINE
5
F1
100
AcDbEntity
8
1
62
256
6
ByLayer
370
-1
48
1
60
0
100
AcDbLine
10
58.861566
20
6.898238
30
0
11
58.768232
21
5.465487
31
0
39
0
210
0
220
0
230
1
0
LINE
5
F2
100
AcDbEntity
8
1
62
256
6
ByLayer
370
-1
48
1
60
0
100
AcDbLine
10
67.650497
20
1.699795
30
0
11
67.402131
21
1.777738
31
0
39
0
210
0
220
0
230
1
0
LINE
5
F3
100
AcDbEntity
8
1
62
256
6
ByLayer
370
-1
48
1
60
0
100
AcDbLine
10
73.697263
20
2.816937
30
0
11
73.68213
21
2.584631
31
0
39
0
210
0
220
0
230
1
0
LINE
5
F4
100
AcDbEntity
8
1
62
256
6
ByLayer
370
-1
48
1
60
0
100
AcDbLine
10
58.708825
20
6.991898
30
0
11
58.637744
21
7.111145
31
0
39
0
210
0
220
0
230
1
0
LINE
5
F5
100
AcDbEntity
8
1
62
256
6
ByLayer
370
-1
48
1
60
0
100
AcDbLine
10
63.230885
20
6.178499
30
0
11
60.639579
21
10.525762
31
0
39
0
210
0
220
0
230
1
0
LINE
5
F6
100
AcDbEntity
8
1
62
256
6
ByLayer
370
-1
48
1
60
0
100
AcDbLine
10
70.082509
20
0.13418
30
0
11
68.566554
21
0.98633
31
0
39
0
210
0
220
0
230
1
0
LINE
5
F7
100
AcDbEntity
8
1
62
256
6
ByLayer
370
-1
48
1
60
0
100
AcDbLine
10
61.675783
20
5.569332
30
0
11
61.745285
21
5.719402
31
0
39
0
210
0
220
0
230
1
0
LINE
5
F8
100
AcDbEntity
8
1
62
256
6
ByLayer
370
-1
48
1
60
0
100
AcDbLine
10
61.735128
20
5.964173
30
0
11
61.71491
21
5.653815
31
0
39
0
210
0
220
0
230
1
0
LINE
5
F9
100
AcDbEntity
8
1
62
256
6
ByLayer
370
-1
48
1
60
0
100
AcDbLine
10
71.865475
20
2.192327
30
0
11
73.086303
21
2.937653
31
0
39
0
210
0
220
0
230
1
0
LINE
5
FA
100
AcDbEntity
8
1
62
256
6
ByLayer
370
-1
48
1
60
0
100
AcDbLine
10
72.521137
20
17.095169
30
0
11
72.478265
21
17.095356
31
0
39
0
210
0
220
0
230
1
0
LINE
5
FB
100
AcDbEntity
8
1
62
256
6
ByLayer
370
-1
48
1
60
0
100
AcDbLine
10
74.589994
20
0.388428
30
0
11
70.577721
21
0.109461
31
0
39
0
210
0
220
0
230
1
0
LINE
5
FC
100
AcDbEntity
8
1
62
256
6
ByLayer
370
-1
48
1
60
0
100
AcDbLine
10
58.904627
20
7.033285
30
0
11
61.70085
21
6.812855
31
0
39
0
210
0
220
0
230
1
0
LINE
5
FD
100
AcDbEntity
8
1
62
256
6
ByLayer
370
-1
48
1
60
0
100
AcDbLine
10
62.052602
20
4.470756
30
0
11
62.072963
21
4.783308
31
0
39
0
210
0
220
0
230
1
0
LINE
5
FE
100
AcDbEntity
8
1
62
256
6
ByLayer
370
-1
48
1
60
0
100
AcDbLine
10
74.280855
20
8.265588
30
0
11
74.993884
21
8.81255
31
0
39
0
210
0
220
0
230
1
0
LINE
5
FF
100
AcDbEntity
8
1
62
256
6
ByLayer
370
-1
48
1
60
0
100
AcDbLine
10
60.837831
20
10.798279
30
0
11
62.353786
21
11.637198
31
0
39
0
210
0
220
0
230
1
0
LINE
5
100
100
AcDbEntity
8
1
62
256
6
ByLayer
370
-1
48
1
60
0
100
AcDbLine
10
69.796286
20
15.257476
30
0
11
69.896337
21
15.123705
31
0
39
0
210
0
220
0
230
1
0
LINE
5
101
100
AcDbEntity
8
1
62
256
6
ByLayer
370
-1
48
1
60
0
100
AcDbLine
10
73.632939
20
14.706307
30
0
11
72.593318
21
16.525508
31
0
39
0
210
0
220
0
230
1
0
LINE
5
102
100
AcDbEntity
8
1
62
256
6
ByLayer
370
-1
48
1
60
0
100
AcDbLine
10
74.545923
20
0.523854
30
0
11
71.727927
21
0.327923
31
0
39
0
210
0
220
0
230
1
0
LINE
5
103
100
AcDbEntity
8
1
62
256
6
ByLayer
370
-1
48
1
60
0
100
AcDbLine
10
63.535411
20
12.418369
30
0
11
65.222511
21
10.723253
31
0
39
0
210
0
220
0
230
1
0
LINE
5
104
100
AcDbEntity
8
1
62
256
6
ByLayer
370
-1
48
1
60
0
100
AcDbLine
10
70.426708
20
0.103505
30
0
11
70.211276
21
0.101294
31
0
39
0
210
0
220
0
230
1
0
LINE
5
105
100
AcDbEntity
8
1
62
256
6
ByLayer
370
-1
48
1
60
0
100
AcDbLine
10
73.018014
20
4.428153
30
0
11
70.426708
21
0.103505
31
0
39
0
210
0
220
0
230
1
0
LINE
5
106
100
AcDbEntity
8
1
62
256
6
ByLayer
370
-1
48
1
60
0
100
AcDbLine
10
72.618622
20
17.03831
30
0
11
74.048099
21
14.53691
31
0
39
0
210
0
220
0
230
1
0
LINE
5
107
100
AcDbEntity
8
1
62
256
6
ByLayer
370
-1
48
1
60
0
100
AcDbLine
10
61.792858
20
8.280133
30
0
11
61.817085
21
6.957811
31
0
39
0
210
0
220
0
230
1
0
LINE
5
108
100
AcDbEntity
8
1
62
256
6
ByLayer
370
-1
48
1
60
0
100
AcDbLine
10
61.745285
20
5.719402
30
0
11
61.748832
21
5.726636
31
0
39
0
210
0
220
0
230
1
0
LINE
5
109
100
AcDbEntity
8
1
62
256
6
ByLayer
370
-1
48
1
60
0
100
AcDbLine
10
71.094788
20
15.132529
30
0
11
72.274396
21
17.155504
31
0
39
0
210
0
220
0
230
1
0
LINE
5
10A
100
AcDbEntity
8
1
62
256
6
ByLayer
370
-1
48
1
60
0
100
AcDbLine
10
60.184948
20
8.977908
30
0
11
59.198868
21
7.380835
31
0
39
0
210
0
220
0
230
1
0
LINE
5
10B
100
AcDbEntity
8
1
62
256
6
ByLayer
370
-1
48
1
60
0
100
AcDbLine
10
74.66509
20
0.722733
30
0
11
74.625961
21
0.714736
31
0
39
0
210
0
220
0
230
1
0
LINE
5
10C
100
AcDbEntity
8
1
62
256
6
ByLayer
370
-1
48
1
60
0
100
AcDbLine
10
61.134398
20
6.719068
30
0
11
58.861566
21
6.898238
31
0
39
0
210
0
220
0
230
1
0
LINE
5
10D
100
AcDbEntity
8
1
62
256
6
ByLayer
370
-1
48
1
60
0
100
AcDbLine
10
74.624542
20
0.610431
30
0
11
74.663672
21
0.618428
31
0
39
0
210
0
220
0
230
1
0
LINE
5
10E
100
AcDbEntity
8
1
62
256
6
ByLayer
370
-1
48
1
60
0
100
AcDbLine
10
61.735128
20
5.964173
30
0
11
61.371996
21
6.573376
31
0
39
0
210
0
220
0
230
1
0
LINE
5
10F
100
AcDbEntity
8
1
62
256
6
ByLayer
370
-1
48
1
60
0
100
AcDbLine
10
73.964006
20
14.347539
30
0
11
72.722072
21
13.63762
31
0
39
0
210
0
220
0
230
1
0
LINE
5
110
100
AcDbEntity
8
1
62
256
6
ByLayer
370
-1
48
1
60
0
100
AcDbLine
10
67.402131
20
1.777738
30
0
11
68.071564
21
4.030181
31
0
39
0
210
0
220
0
230
1
0
LINE
5
111
100
AcDbEntity
8
1
62
256
6
ByLayer
370
-1
48
1
60
0
100
AcDbLine
10
66.21712
20
2.459271
30
0
11
65.970056
21
3.619679
31
0
39
0
210
0
220
0
230
1
0
LINE
5
112
100
AcDbEntity
8
1
62
256
6
ByLayer
370
-1
48
1
60
0
100
AcDbLine
10
70.211276
20
0.101294
30
0
11
70.198584
21
-0.093541
31
0
39
0
210
0
220
0
230
1
0
LINE
5
113
100
AcDbEntity
8
1
62
256
6
ByLayer
370
-1
48
1
60
0
100
AcDbLine
10
66.277261
20
2.410051
30
0
11
66.21712
21
2.459271
31
0
39
0
210
0
220
0
230
1
0
LINE
5
114
100
AcDbEntity
8
1
62
256
6
ByLayer
370
-1
48
1
60
0
100
AcDbLine
10
74.66509
20
0.722733
30
0
11
73.287458
21
2.930636
31
0
39
0
210
0
220
0
230
1
0
LINE
5
115
100
AcDbEntity
8
1
62
256
6
ByLayer
370
-1
48
1
60
0
100
AcDbLine
10
74.452719
20
3.581468
30
0
11
74.283166
21
3.565169
31
0
39
0
210
0
220
0
230
1
0
LINE
5
116
100
AcDbEntity
8
1
62
256
6
ByLayer
370
-1
48
1
60
0
100
AcDbLine
10
58.708825
20
6.991898
30
0
11
58.615095
21
5.553068
31
0
39
0
210
0
220
0
230
1
0
LINE
5
117
100
AcDbEntity
8
1
62
256
6
ByLayer
370
-1
48
1
60
0
100
AcDbLine
10
58.637744
20
7.111145
30
0
11
58.544014
21
5.672316
31
0
39
0
210
0
220
0
230
1
0
LINE
5
118
100
AcDbEntity
8
1
62
256
6
ByLayer
370
-1
48
1
60
0
100
AcDbLine
10
60.275984
20
8.910827
30
0
11
61.303035
21
8.271594
31
0
39
0
210
0
220
0
230
1
0
LINE
5
119
100
AcDbEntity
8
1
62
256
6
ByLayer
370
-1
48
1
60
0
100
AcDbLine
10
74.625961
20
0.714736
30
0
11
74.243946
21
0.874006
31
0
39
0
210
0
220
0
230
1
0
LINE
5
11A
100
AcDbEntity
8
1
62
256
6
ByLayer
370
-1
48
1
60
0
100
AcDbLine
10
66.057588
20
2.556871
30
0
11
65.462072
21
2.761688
31
0
39
0
210
0
220
0
230
1
0
LINE
5
11B
100
AcDbEntity
8
1
62
256
6
ByLayer
370
-1
48
1
60
0
100
AcDbLine
10
74.15177
20
0.807725
30
0
11
72.102317
21
0.66523
31
0
39
0
210
0
220
0
230
1
0
LINE
5
11C
100
AcDbEntity
8
1
62
256
6
ByLayer
370
-1
48
1
60
0
100
AcDbLine
10
64.660281
20
13.040864
30
0
11
64.722359
21
13.089551
31
0
39
0
210
0
220
0
230
1
0
LINE
5
11D
100
AcDbEntity
8
1
62
256
6
ByLayer
370
-1
48
1
60
0
100
AcDbLine
10
62.452813
20
4.53243
30
0
11
62.164456
21
4.694521
31
0
39
0
210
0
220
0
230
1
0
LINE
5
11E
100
AcDbEntity
8
1
62
256
6
ByLayer
370
-1
48
1
60
0
100
AcDbLine
10
68.481282
20
15.12988
30
0
11
68.769638
21
15.289454
31
0
39
0
210
0
220
0
230
1
0
LINE
5
11F
100
AcDbEntity
8
1
62
256
6
ByLayer
370
-1
48
1
60
0
100
AcDbLine
10
64.882887
20
13.185755
30
0
11
65.462072
21
13.385445
31
0
39
0
210
0
220
0
230
1
0
LINE
5
120
100
AcDbEntity
8
1
62
256
6
ByLayer
370
-1
48
1
60
0
100
AcDbLine
10
74.589994
20
0.388428
30
0
11
74.49666
21
-1.044324
31
0
39
0
210
0
220
0
230
1
0
LINE
5
121
100
AcDbEntity
8
1
62
256
6
ByLayer
370
-1
48
1
60
0
100
AcDbLine
10
61.682845
20
5.437784
30
0
11
61.63504
21
4.703939
31
0
39
0
210
0
220
0
230
1
0
LINE
5
122
100
AcDbEntity
8
1
62
256
6
ByLayer
370
-1
48
1
60
0
100
AcDbLine
10
67.228858
20
1.85631
30
0
11
66.448167
21
2.295153
31
0
39
0
210
0
220
0
230
1
0
LINE
5
123
100
AcDbEntity
8
1
62
256
6
ByLayer
370
-1
48
1
60
0
100
AcDbLine
10
69.655258
20
13.484903
30
0
11
74.837869
21
13.462287
31
0
39
0
210
0
220
0
230
1
0
LINE
5
124
100
AcDbEntity
8
1
62
256
6
ByLayer
370
-1
48
1
60
0
100
AcDbLine
10
72.499825
20
9.492173
30
0
11
74.991234
21
10.081398
31
0
39
0
210
0
220
0
230
1
0
LINE
5
125
100
AcDbEntity
8
1
62
256
6
ByLayer
370
-1
48
1
60
0
100
AcDbLine
10
61.134398
20
6.719068
30
0
11
61.049912
21
5.422154
31
0
39
0
210
0
220
0
230
1
0
LINE
5
126
100
AcDbEntity
8
1
62
256
6
ByLayer
370
-1
48
1
60
0
100
AcDbLine
10
70.127602
20
14.995594
30
0
11
70.853866
21
14.992424
31
0
39
0
210
0
220
0
230
1
0
LINE
5
127
100
AcDbEntity
8
1
62
256
6
ByLayer
370
-1
48
1
60
0
100
AcDbLine
10
74.992417
20
10.291529
30
0
11
72.635883
21
9.734202
31
0
39
0
210
0
220
0
230
1
0
LINE
5
128
100
AcDbEntity
8
1
62
256
6
ByLayer
370
-1
48
1
60
0
100
AcDbLine
10
74.991234
20
10.081398
30
0
11
74.991234
21
9.210526
31
0
39
0
210
0
220
0
230
1
0
LINE
5
129
100
AcDbEntity
8
1
62
256
6
ByLayer
370
-1
48
1
60
0
100
AcDbLine
10
74.993884
20
8.81255
30
0
11
74.985718
21
8.032007
31
0
39
0
210
0
220
0
230
1
0
LINE
5
12A
100
AcDbEntity
8
1
62
256
6
ByLayer
370
-1
48
1
60
0
100
AcDbLine
10
72.117525
20
1.783227
30
0
11
73.149855
21
2.413473
31
0
39
0
210
0
220
0
230
1
0
LINE
5
12B
100
AcDbEntity
8
1
62
256
6
ByLayer
370
-1
48
1
60
0
100
AcDbLine
10
74.642236
20
0.582654
30
0
11
74.663672
21
0.618428
31
0
39
0
210
0
220
0
230
1
0
LINE
5
12C
100
AcDbEntity
8
1
62
256
6
ByLayer
370
-1
48
1
60
0
100
AcDbLine
10
72.593318
20
16.525508
30
0
11
72.596804
21
17.001271
31
0
39
0
210
0
220
0
230
1
0
LINE
5
12D
100
AcDbEntity
8
1
62
256
6
ByLayer
370
-1
48
1
60
0
100
AcDbLine
10
61.303035
20
8.271594
30
0
11
61.323522
21
7.153442
31
0
39
0
210
0
220
0
230
1
0
LINE
5
12E
100
AcDbEntity
8
1
62
256
6
ByLayer
370
-1
48
1
60
0
100
AcDbLine
10
61.371996
20
6.573376
30
0
11
61.288127
21
5.285916
31
0
39
0
210
0
220
0
230
1
0
LINE
5
12F
100
AcDbEntity
8
1
62
256
6
ByLayer
370
-1
48
1
60
0
100
AcDbLine
10
74.190013
20
2.268358
30
0
11
74.368295
21
2.285495
31
0
39
0
210
0
220
0
230
1
0
LINE
5
130
100
AcDbEntity
8
1
62
256
6
ByLayer
370
-1
48
1
60
0
100
AcDbLine
10
72.499319
20
17.05813
30
0
11
72.478265
21
17.095356
31
0
39
0
210
0
220
0
230
1
0
LINE
5
131
100
AcDbEntity
8
1
62
256
6
ByLayer
370
-1
48
1
60
0
100
AcDbLine
10
74.814608
20
0.599378
30
0
11
74.720878
21
-0.839452
31
0
39
0
210
0
220
0
230
1
0
LINE
5
132
100
AcDbEntity
8
1
62
256
6
ByLayer
370
-1
48
1
60
0
100
AcDbLine
10
66.247052
20
12.811959
30
0
11
66.734125
21
12.322572
31
0
39
0
210
0
220
0
230
1
0
LINE
5
133
100
AcDbEntity
8
1
62
256
6
ByLayer
370
-1
48
1
60
0
100
AcDbLine
10
63.706317
20
12.495439
30
0
11
64.487008
21
12.927468
31
0
39
0
210
0
220
0
230
1
0
LINE
5
134
100
AcDbEntity
8
1
62
256
6
ByLayer
370
-1
48
1
60
0
100
AcDbLine
10
72.397855
20
16.526361
30
0
11
71.3424
21
14.716302
31
0
39
0
210
0
220
0
230
1
0
LINE
5
135
100
AcDbEntity
8
1
62
256
6
ByLayer
370
-1
48
1
60
0
100
AcDbLine
10
65.837021
20
3.59283
30
0
11
66.057588
21
2.556871
31
0
39
0
210
0
220
0
230
1
0
LINE
5
136
100
AcDbEntity
8
1
62
256
6
ByLayer
370
-1
48
1
60
0
100
AcDbLine
10
58.768232
20
5.465487
30
0
11
61.049912
21
5.422154
31
0
39
0
210
0
220
0
230
1
0
LINE
5
137
100
AcDbEntity
8
1
62
256
6
ByLayer
370
-1
48
1
60
0
100
AcDbLine
10
58.825736
20
7.120549
30
0
11
58.808807
21
7.092923
31
0
39
0
210
0
220
0
230
1
0
LINE
5
138
100
AcDbEntity
8
1
62
256
6
ByLayer
370
-1
48
1
60
0
100
AcDbLine
10
74.060395
20
3.422971
30
0
11
73.697263
21
2.816937
31
0
39
0
210
0
220
0
230
1
0
LINE
5
139
100
AcDbEntity
8
1
62
256
6
ByLayer
370
-1
48
1
60
0
100
AcDbLine
10
74.283166
20
3.565169
30
0
11
74.274404
21
3.563837
31
0
39
0
210
0
220
0
230
1
0
LINE
5
13A
100
AcDbEntity
8
1
62
256
6
ByLayer
370
-1
48
1
60
0
100
AcDbLine
10
65.948052
20
13.63049
30
0
11
68.481282
21
15.12988
31
0
39
0
210
0
220
0
230
1
0
LINE
5
13B
100
AcDbEntity
8
1
62
256
6
ByLayer
370
-1
48
1
60
0
100
AcDbLine
10
58.787371
20
7.128884
30
0
11
58.825736
21
7.120549
31
0
39
0
210
0
220
0
230
1
0
LINE
5
13C
100
AcDbEntity
8
1
62
256
6
ByLayer
370
-1
48
1
60
0
100
AcDbLine
10
58.544014
20
5.672316
30
0
11
58.615095
21
5.553068
31
0
39
0
210
0
220
0
230
1
0
LINE
5
13D
100
AcDbEntity
8
1
62
256
6
ByLayer
370
-1
48
1
60
0
100
AcDbLine
10
59.2966
20
7.216877
30
0
11
61.330217
21
7.056565
31
0
39
0
210
0
220
0
230
1
0
LINE
5
13E
100
AcDbEntity
8
1
62
256
6
ByLayer
370
-1
48
1
60
0
100
AcDbLine
10
74.52823
20
0.551632
30
0
11
74.545923
21
0.523854
31
0
39
0
210
0
220
0
230
1
0
LINE
5
13F
100
AcDbEntity
8
1
62
256
6
ByLayer
370
-1
48
1
60
0
100
AcDbLine
10
62.072963
20
4.783308
30
0
11
61.682845
21
5.437784
31
0
39
0
210
0
220
0
230
1
0
LINE
5
140
100
AcDbEntity
8
1
62
256
6
ByLayer
370
-1
48
1
60
0
100
AcDbLine
10
74.146215
20
0.710902
30
0
11
74.52823
21
0.551632
31
0
39
0
210
0
220
0
230
1
0
LINE
5
141
100
AcDbEntity
8
1
62
256
6
ByLayer
370
-1
48
1
60
0
100
AcDbLine
10
71.439561
20
14.659444
30
0
11
72.495016
21
16.469502
31
0
39
0
210
0
220
0
230
1
0
LINE
5
142
100
AcDbEntity
8
1
62
256
6
ByLayer
370
-1
48
1
60
0
100
AcDbLine
10
72.495016
20
16.469502
30
0
11
73.534637
21
14.650302
31
0
39
0
210
0
220
0
230
1
0
LINE
5
143
100
AcDbEntity
8
1
62
256
6
ByLayer
370
-1
48
1
60
0
100
AcDbLine
10
74.567087
20
3.652636
30
0
11
74.482663
21
2.356663
31
0
39
0
210
0
220
0
230
1
0
LINE
5
144
100
AcDbEntity
8
1
62
256
6
ByLayer
370
-1
48
1
60
0
100
AcDbLine
10
74.649797
20
-0.958079
30
0
11
74.720878
21
-0.839452
31
0
39
0
210
0
220
0
230
1
0
LINE
5
145
100
AcDbEntity
8
1
62
256
6
ByLayer
370
-1
48
1
60
0
100
AcDbLine
10
58.904627
20
7.033285
30
0
11
58.921557
21
7.060911
31
0
39
0
210
0
220
0
230
1
0
LINE
5
146
100
AcDbEntity
8
1
62
256
6
ByLayer
370
-1
48
1
60
0
100
AcDbLine
10
58.78546
20
7.233204
30
0
11
60.141319
21
9.429178
31
0
39
0
210
0
220
0
230
1
0
LINE
5
147
100
AcDbEntity
8
1
62
256
6
ByLayer
370
-1
48
1
60
0
100
AcDbLine
10
66.780751
20
12.371555
30
0
11
66.293678
21
12.860942
31
0
39
0
210
0
220
0
230
1
0
LINE
5
148
100
AcDbEntity
8
1
62
256
6
ByLayer
370
-1
48
1
60
0
100
AcDbLine
10
72.521137
20
17.095169
30
0
11
72.499319
21
17.05813
31
0
39
0
210
0
220
0
230
1
0
LINE
5
149
100
AcDbEntity
8
1
62
256
6
ByLayer
370
-1
48
1
60
0
100
AcDbLine
10
74.274404
20
3.563837
30
0
11
74.190013
21
2.268358
31
0
39
0
210
0
220
0
230
1
0
LINE
5
14A
100
AcDbEntity
8
1
62
256
6
ByLayer
370
-1
48
1
60
0
100
AcDbLine
10
72.48446
20
14.049996
30
0
11
71.439561
21
14.659444
31
0
39
0
210
0
220
0
230
1
0
LINE
5
14B
100
AcDbEntity
8
1
62
256
6
ByLayer
370
-1
48
1
60
0
100
AcDbLine
10
65.864657
20
4.114718
30
0
11
66.057925
21
4.765008
31
0
39
0
210
0
220
0
230
1
0
LINE
5
14C
100
AcDbEntity
8
1
62
256
6
ByLayer
370
-1
48
1
60
0
100
AcDbLine
10
61.288127
20
5.285916
30
0
11
61.612398
21
4.741908
31
0
39
0
210
0
220
0
230
1
0
LINE
5
14D
100
AcDbEntity
8
1
62
256
6
ByLayer
370
-1
48
1
60
0
100
AcDbLine
10
74.993386
20
8.983422
30
0
11
74.1947
21
8.370753
31
0
39
0
210
0
220
0
230
1
0
LINE
5
14E
100
AcDbEntity
8
1
62
256
6
ByLayer
370
-1
48
1
60
0
100
AcDbLine
10
74.743527
20
0.48075
30
0
11
74.649797
21
-0.958079
31
0
39
0
210
0
220
0
230
1
0
LINE
5
14F
100
AcDbEntity
8
1
62
256
6
ByLayer
370
-1
48
1
60
0
100
AcDbLine
10
64.972862
20
3.010989
30
0
11
62.452813
21
4.53243
31
0
39
0
210
0
220
0
230
1
0
LINE
5
150
100
AcDbEntity
8
1
62
256
6
ByLayer
370
-1
48
1
60
0
100
AcDbLine
10
59.289904
20
7.313754
30
0
11
60.275984
21
8.910827
31
0
39
0
210
0
220
0
230
1
0
LINE
5
151
100
AcDbEntity
8
1
62
256
6
ByLayer
370
-1
48
1
60
0
100
AcDbLine
10
73.695787
20
2.559503
30
0
11
74.815557
21
0.764871
31
0
39
0
210
0
220
0
230
1
0
LINE
5
152
100
AcDbEntity
8
1
62
256
6
ByLayer
370
-1
48
1
60
0
100
AcDbLine
10
60.340818
20
9.434446
30
0
11
61.555405
21
8.678493
31
0
39
0
210
0
220
0
230
1
0
LINE
5
153
100
AcDbEntity
8
1
62
256
6
ByLayer
370
-1
48
1
60
0
100
AcDbLine
10
58.636003
20
7.276651
30
0
11
60.56648
21
10.403286
31
0
39
0
210
0
220
0
230
1
0
LINE
5
154
100
AcDbEntity
8
1
62
256
6
ByLayer
370
-1
48
1
60
0
100
AcDbLine
10
64.487008
20
12.927468
30
0
11
66.119174
21
11.287547
31
0
39
0
210
0
220
0
230
1
0
LINE
5
155
100
AcDbEntity
8
1
62
256
6
ByLayer
370
-1
48
1
60
0
100
AcDbLine
10
64.722359
20
13.089551
30
0
11
65.791114
21
12.894969
31
0
39
0
210
0
220
0
230
1
0
LINE
5
156
100
AcDbEntity
8
1
62
256
6
ByLayer
370
-1
48
1
60
0
100
AcDbLine
10
66.448167
20
2.295153
30
0
11
67.095803
21
4.474254
31
0
39
0
210
0
220
0
230
1
0
LINE
5
157
100
AcDbEntity
8
1
62
256
6
ByLayer
370
-1
48
1
60
0
100
AcDbLine
10
63.910549
20
10.98266
30
0
11
64.570682
21
10.31939
31
0
39
0
210
0
220
0
230
1
0
LINE
5
158
100
AcDbEntity
8
1
62
256
6
ByLayer
370
-1
48
1
60
0
100
AcDbLine
10
58.823825
20
7.224869
30
0
11
58.78546
21
7.233204
31
0
39
0
210
0
220
0
230
1
0
LINE
5
159
100
AcDbEntity
8
1
62
256
6
ByLayer
370
-1
48
1
60
0
100
AcDbLine
10
72.32678
20
13.602655
30
0
11
65.948052
21
13.63049
31
0
39
0
210
0
220
0
230
1
0
LINE
5
15A
100
AcDbEntity
8
1
62
256
6
ByLayer
370
-1
48
1
60
0
100
AcDbLine
10
61.783498
20
8.361575
30
0
11
64.972862
21
3.010989
31
0
39
0
210
0
220
0
230
1
0
LINE
5
15B
100
AcDbEntity
8
1
62
256
6
ByLayer
370
-1
48
1
60
0
100
AcDbLine
10
74.642236
20
0.582654
30
0
11
74.624542
21
0.610431
31
0
39
0
210
0
220
0
230
1
0
LINE
5
15C
100
AcDbEntity
8
1
62
256
6
ByLayer
370
-1
48
1
60
0
100
AcDbLine
10
74.760817
20
13.592033
30
0
11
72.642137
21
13.601279
31
0
39
0
210
0
220
0
230
1
0
LINE
5
15D
100
AcDbEntity
8
1
62
256
6
ByLayer
370
-1
48
1
60
0
100
AcDbLine
10
74.452719
20
3.581468
30
0
11
74.368295
21
2.285495
31
0
39
0
210
0
220
0
230
1
0
LINE
5
15E
100
AcDbEntity
8
1
62
256
6
ByLayer
370
-1
48
1
60
0
100
AcDbLine
10
58.787371
20
7.128884
30
0
11
58.808807
21
7.092923
31
0
39
0
210
0
220
0
230
1
0
LINE
5
15F
100
AcDbEntity
8
1
62
256
6
ByLayer
370
-1
48
1
60
0
100
AcDbLine
10
72.725522
20
17.153535
30
0
11
74.760817
21
13.592033
31
0
39
0
210
0
220
0
230
1
0
LINE
5
160
100
AcDbEntity
8
SK1
62
256
6
ByLayer
370
-1
48
1
60
0
100
AcDbLine
10
-0.2
20
6.834385
30
0
11
-0.2
21
7.066357
31
0
39
0
210
0
220
0
230
1
0
LINE
5
161
100
AcDbEntity
8
SK1
62
256
6
ByLayer
370
-1
48
1
60
0
100
AcDbLine
10
-0.2
20
-7.066356
30
0
11
-0.2
21
-6.834385
31
0
39
0
210
0
220
0
230
1
0
MTEXT
5
309
100
AcDbEntity
8
SK6
62
256
6
ByLayer
370
-1
48
1
60
0
100
AcDbMText
10
-18.125
20
-42.375
30
0
210
0
220
0
230
1
1
\W00.719;\fsimplex.shx,bigfont.shx;C6-266RKF-19075-22 
40
3.5
41
0
44
1.084337
50
0
71
7
72
5
7
DEFAULT
0
DIMENSION
5
33C
100
AcDbEntity
8
2
62
256
6
ByLayer
370
-3
48
1
60
0
100
AcDbDimension
2
DimnDraft3D1
10
89.25
20
18.875
30
0
11
89.25
21
7.371053
31
0
70
32
71
5
72
1
41
1
210
0
220
0
230
1
3
Standard
100
AcDbAlignedDimension
13
81.5
23
0
33
0
14
76.5
24
18.875
34
0
50
90
100
AcDbRotatedDimension
1001
ACAD
1000
DSTYLE
1002
{
1070
    74
1070
     0
1070
   279
1070
     0
1070
   172
1070
     1
1070
   173
1070
     1
1070
   340
1005
30A
1070
   271
1070
     3
1070
   272
1070
     3
1070
    77
1070
     1
1070
    73
1070
     0
1070
   171
1070
     4
1070
   274
1070
     4
1070
   177
1070
     2
1070
   176
1070
     2
1070
   178
1070
     7
1070
    78
1070
     8
1070
    41
1041
3.0
1070
   147
1041
2.25
1070
    42
1041
1.5
1070
    44
1041
3.0
1070
   140
1041
4.5
1070
   343
1005
33D
1070
   344
1005
33D
1002
}
0
DIMENSION
5
352
100
AcDbEntity
8
SK2
62
256
6
ByLayer
370
-3
48
1
60
0
100
AcDbDimension
2
DimnDraft3D2
10
-47.75
20
-31.5
30
0
11
-47.75
21
-4.784211
31
0
70
32
71
5
72
1
41
1
210
0
220
0
230
1
3
Standard
100
AcDbAlignedDimension
13
-1.5
23
31.5
33
0
14
-1.5
24
-31.5
34
0
50
90
100
AcDbRotatedDimension
1001
ACAD
1000
DSTYLE
1002
{
1070
    74
1070
     0
1070
   279
1070
     0
1070
   172
1070
     1
1070
   173
1070
     1
1070
   340
1005
30A
1070
   271
1070
     3
1070
   272
1070
     3
1070
    77
1070
     1
1070
    73
1070
     0
1070
   171
1070
     4
1070
   274
1070
     4
1070
   177
1070
     2
1070
   176
1070
     2
1070
   178
1070
     7
1070
    78
1070
     8
1070
    41
1041
3.0
1070
   147
1041
2.25
1070
    42
1041
1.5
1070
    44
1041
3.0
1070
   140
1041
4.5
1070
   343
1005
33D
1070
   344
1005
33D
1002
}
0
DIMENSION
5
360
100
AcDbEntity
8
2
62
256
6
ByLayer
370
-3
48
1
60
0
100
AcDbDimension
2
DimnDraft3D3
10
0
20
38.625
30
0
11
34.871053
21
38.625
31
0
70
32
71
5
72
1
41
1
210
0
220
0
230
1
3
Standard
100
AcDbAlignedDimension
13
75
23
20.375
33
0
14
0
24
1.5
34
0
50
0
100
AcDbRotatedDimension
1001
ACAD
1000
DSTYLE
1002
{
1070
   279
1070
     0
1070
   172
1070
     1
1070
   173
1070
     1
1070
   340
1005
30A
1070
   271
1070
     3
1070
   272
1070
     3
1070
    77
1070
     1
1070
    73
1070
     0
1070
   171
1070
     4
1070
   274
1070
     4
1070
   177
1070
     2
1070
   176
1070
     2
1070
   178
1070
     7
1070
    78
1070
     8
1070
    41
1041
3.0
1070
   147
1041
2.25
1070
    42
1041
1.5
1070
    44
1041
3.0
1070
   140
1041
4.5
1070
   343
1005
33D
1070
   344
1005
33D
1002
}
0
DIMENSION
5
36E
100
AcDbEntity
8
2
62
256
6
ByLayer
370
-3
48
1
60
0
100
AcDbDimension
2
DimnDraft3D4
10
75
20
28.625
30
0
11
47.929728
21
28.625
31
0
70
32
71
5
72
1
41
1
210
0
220
0
230
1
3
Standard
100
AcDbAlignedDimension
13
26.591035
23
20.375
33
0
14
75
24
20.375
34
0
50
0
100
AcDbRotatedDimension
1001
ACAD
1000
DSTYLE
1002
{
1070
   279
1070
     0
1070
   172
1070
     1
1070
   173
1070
     1
1070
   340
1005
30A
1070
   271
1070
     3
1070
   272
1070
     3
1070
    77
1070
     1
1070
    73
1070
     0
1070
   171
1070
     4
1070
   274
1070
     4
1070
   177
1070
     2
1070
   176
1070
     2
1070
   178
1070
     7
1070
    78
1070
     8
1070
    41
1041
3.0
1070
   147
1041
2.25
1070
    42
1041
1.5
1070
    44
1041
3.0
1070
   140
1041
4.5
1070
   343
1005
33D
1070
   344
1005
33D
1002
}
0
ENDSEC
0
SECTION
2
OBJECTS
0
DICTIONARY
5
39f
330
0
100
AcDbDictionary
280
0
281
1
3
ACAD_GROUP
350
3a0
3
ACAD_MLINESTYLE
350
3a1
0
DICTIONARY
5
3a0
330
0
100
AcDbDictionary
280
0
281
1
0
DICTIONARY
5
3a1
330
0
100
AcDbDictionary
280
0
281
1
3
Standard
350
18
0
MLINESTYLE
5
18
330
3a1
100
AcDbMlineStyle
2
Standard
70
0
3

62
256
51
90
52
90
71
2
49
-0.5
62
256
6
ByLayer
49
0.5
62
256
6
ByLayer
0
RASTERVARIABLES
5
38d
330

100
AcDbRasterVariables
90
0
70
1
71
1
72
1
0
ENDSEC
0
EOF
