0
SECTION
2
HEADER
9
$ACADVER
1
AC1015
9
$DWGCODEPAGE
3
ANSI_1252
9
$HANDSEED
5
355
9
$ANGBASE
50
0
9
$ANGDIR
70
0
9
$ATTMODE
70
1
9
$AUNITS
70
0
9
$AUPREC
70
0
9
$CECOLOR
62
256
9
$CELTSCALE
40
1
9
$CELTYPE
6
ByLayer
9
$CELWEIGHT
370
-1
9
$CLAYER
8
0
9
$CMLJUST
70
0
9
$CMLSCALE
40
1
9
$CMLSTYLE
2
Standard
9
$DIMSTYLE
2
Standard
9
$TEXTSIZE
40
0.2
9
$TEXTSTYLE
7
Standard
9
$LUNITS
70
2
9
$LUPREC
70
4
9
$EXTNAMES
290
1
9
$INSUNITS
70
4
9
$LTSCALE
40
1
9
$LWDISPLAY
290
0
9
$PDMODE
70
0
9
$PDSIZE
40
0
9
$PLINEGEN
70
0
0
ENDSEC
0
SECTION
2
CLASSES
0
CLASS
1
RASTERVARIABLES
2
AcDbRasterVariables
3
ISM
90
0
280
0
281
0
0
ENDSEC
0
SECTION
2
TABLES
0
TABLE
2
VPORT
5
34b
100
AcDbSymbolTable
0
VPORT
5
1
100
AcDbSymbolTableRecord
100
AcDbViewportTableRecord
2
*Active
70
0
10
0
20
0
11
1
21
1
12
-1
22
1
13
0
23
0
14
0.5
24
0.5
15
10
25
10
16
0
26
0
36
1
17
0
27
0
37
0
0
ENDTAB
0
TABLE
2
LTYPE
5
34c
100
AcDbSymbolTable
0
LTYPE
5
14
100
AcDbSymbolTableRecord
100
AcDbLinetypeTableRecord
70
0
2
ByBlock
3

72
65
73
0
40
0
0
LTYPE
5
15
100
AcDbSymbolTableRecord
100
AcDbLinetypeTableRecord
70
0
2
ByLayer
3

72
65
73
0
40
0
0
LTYPE
5
16
100
AcDbSymbolTableRecord
100
AcDbLinetypeTableRecord
70
0
2
CONTINUOUS
3
Solid line
72
65
73
0
40
0
0
LTYPE
5
3B
100
AcDbSymbolTableRecord
100
AcDbLinetypeTableRecord
70
0
2
DASHED
3
__ __ __ __ __ __ __ __ __
72
65
73
2
40
25.72
49
12.86
74
0
49
-12.86
74
0
0
LTYPE
5
3C
100
AcDbSymbolTableRecord
100
AcDbLinetypeTableRecord
70
0
2
HIDDEN
3
_ _ _ _ _ _ _ _ _ _ _ _ _ _ _
72
65
73
2
40
0.5
49
0.25
74
0
49
-0.25
74
0
0
LTYPE
5
3D
100
AcDbSymbolTableRecord
100
AcDbLinetypeTableRecord
70
0
2
PHANTOM
3
____ _ _ ____ _ _ _____ _ _ ____
72
65
73
6
40
50.5
49
18
74
0
49
-6.5
74
0
49
6.5
74
0
49
-6.5
74
0
49
6.5
74
0
49
-6.5
74
0
0
LTYPE
5
3E
100
AcDbSymbolTableRecord
100
AcDbLinetypeTableRecord
70
0
2
CENTER
3
____ _ ____ _ ____ _ ____
72
65
73
4
40
47.5
49
22
74
0
49
-8.5
74
0
49
8.5
74
0
49
-8.5
74
0
0
LTYPE
5
3F
100
AcDbSymbolTableRecord
100
AcDbLinetypeTableRecord
70
0
2
DOT
3
.........................
72
65
73
2
40
10
49
0
74
0
49
-10
74
0
0
LTYPE
5
40
100
AcDbSymbolTableRecord
100
AcDbLinetypeTableRecord
70
0
2
DASHDOT
3
_._._._._._._._._._._._._._._._.
72
65
73
4
40
70
49
31
74
0
49
-13
74
0
49
13
74
0
49
-13
74
0
0
ENDTAB
0
TABLE
2
LAYER
5
34d
100
AcDbSymbolTable
0
LAYER
5
10
100
AcDbSymbolTableRecord
100
AcDbLayerTableRecord
2
0
70
0
62
7
6
CONTINUOUS
290
1
370
-3
390
0
0
LAYER
5
42
100
AcDbSymbolTableRecord
100
AcDbLayerTableRecord
2
80
70
0
62
-6
6
CONTINUOUS
290
1
370
-3
390
0
0
LAYER
5
44
100
AcDbSymbolTableRecord
100
AcDbLayerTableRecord
2
81
70
0
62
-3
6
CONTINUOUS
290
1
370
-3
390
0
0
LAYER
5
46
100
AcDbSymbolTableRecord
100
AcDbLayerTableRecord
2
2
70
0
62
7
6
CONTINUOUS
290
1
370
-3
390
0
0
LAYER
5
48
100
AcDbSymbolTableRecord
100
AcDbLayerTableRecord
2
1
70
0
62
4
6
CONTINUOUS
290
1
370
-3
390
0
0
LAYER
5
4C
100
AcDbSymbolTableRecord
100
AcDbLayerTableRecord
2
4
70
0
62
-2
6
CENTER
290
1
370
-3
390
0
0
LAYER
5
337
100
AcDbSymbolTableRecord
100
AcDbLayerTableRecord
2
SK4
70
0
62
2
6
CENTER
290
1
370
-3
390
0
0
LAYER
5
338
100
AcDbSymbolTableRecord
100
AcDbLayerTableRecord
2
SK1
70
0
62
4
6
CONTINUOUS
290
1
370
-3
390
0
0
LAYER
5
339
100
AcDbSymbolTableRecord
100
AcDbLayerTableRecord
2
SK6
70
0
62
5
6
CONTINUOUS
290
1
370
-3
390
0
0
LAYER
5
33a
100
AcDbSymbolTableRecord
100
AcDbLayerTableRecord
2
SK2
70
0
62
7
6
CONTINUOUS
290
1
370
-3
390
0
0
ENDTAB
0
TABLE
2
STYLE
5
34e
100
AcDbSymbolTable
0
STYLE
5
11
100
AcDbSymbolTableRecord
100
AcDbTextStyleTableRecord
2
Standard
3
txt
70
0
71
0
40
0
41
1
42
0
50
0
0
STYLE
5
2B3
100
AcDbSymbolTableRecord
100
AcDbTextStyleTableRecord
2
DEFAULT
3
simplex.shx
70
0
71
0
40
0
41
1
42
0
50
0
0
STYLE
5
2D6
100
AcDbSymbolTableRecord
100
AcDbTextStyleTableRecord
2
DWGDirectTextStyle
3
SIMPLEX
70
0
71
0
40
0
41
1
42
0
50
0
0
ENDTAB
0
TABLE
2
DIMSTYLE
5
34f
100
AcDbSymbolTable
100
AcDbDimStyleTable
0
DIMSTYLE
105
27
100
AcDbSymbolTableRecord
100
AcDbDimStyleTableRecord
2
Standard
70
0
3
<>
41
0.18
42
0.0625
44
0.18
140
0.18
147
0.09
73
0
74
0
77
1
271
2
275
0
278
52
280
0
340
11
0
ENDTAB
0
TABLE
2
VIEW
5
350
100
AcDbSymbolTable
0
ENDTAB
0
TABLE
2
UCS
5
351
100
AcDbSymbolTable
0
ENDTAB
0
TABLE
2
APPID
5
352
100
AcDbSymbolTable
0
APPID
5
12
100
AcDbSymbolTableRecord
100
AcDbRegAppTableRecord
2
ACAD
70
0
0
ENDTAB
0
TABLE
2
BLOCK_RECORD
5
353
100
AcDbSymbolTable
0
BLOCK_RECORD
5
1F
100
AcDbSymbolTableRecord
100
AcDbBlockTableRecord
2
*Model_Space
340
0
70
0
0
BLOCK_RECORD
5
1B
100
AcDbSymbolTableRecord
100
AcDbBlockTableRecord
2
*Paper_Space
340
0
70
0
0
BLOCK_RECORD
5
23
100
AcDbSymbolTableRecord
100
AcDbBlockTableRecord
2
*Paper_Space0
340
0
70
0
0
BLOCK_RECORD
5
2D8
100
AcDbSymbolTableRecord
100
AcDbBlockTableRecord
2
DimnDraft3D1
340
0
70
0
0
BLOCK_RECORD
5
2E6
100
AcDbSymbolTableRecord
100
AcDbBlockTableRecord
2
_CLOSED
340
0
70
0
0
BLOCK_RECORD
5
2ED
100
AcDbSymbolTableRecord
100
AcDbBlockTableRecord
2
DimnDraft3D2
340
0
70
0
0
BLOCK_RECORD
5
2FC
100
AcDbSymbolTableRecord
100
AcDbBlockTableRecord
2
DimnDraft3D3
340
0
70
0
0
BLOCK_RECORD
5
30A
100
AcDbSymbolTableRecord
100
AcDbBlockTableRecord
2
DimnDraft3D4
340
0
70
0
0
ENDTAB
0
ENDSEC
0
SECTION
2
BLOCKS
0
BLOCK
5
20
100
AcDbEntity
8
0
100
AcDbBlockBegin
2
*Model_Space
70
0
10
0
20
0
30
0
3
*Model_Space
0
ENDBLK
5
21
100
AcDbEntity
8
0
100
AcDbBlockEnd
0
BLOCK
5
1C
100
AcDbEntity
8
0
100
AcDbBlockBegin
2
*Paper_Space
70
0
10
0
20
0
30
0
3
*Paper_Space
0
ENDBLK
5
1D
100
AcDbEntity
8
0
100
AcDbBlockEnd
0
BLOCK
5
24
100
AcDbEntity
8
0
100
AcDbBlockBegin
2
*Paper_Space0
70
0
10
0
20
0
30
0
3
*Paper_Space0
0
ENDBLK
5
25
100
AcDbEntity
8
0
100
AcDbBlockEnd
0
BLOCK
5
2E3
100
AcDbEntity
8
0
100
AcDbBlockBegin
2
DimnDraft3D1
70
0
10
0
20
0
30
0
3
DimnDraft3D1
0
MTEXT
5
2D9
100
AcDbEntity
8
2
62
256
6
ByLayer
370
-1
48
1
60
0
100
AcDbMText
10
88.125
20
7.496053
30
0
210
0
220
0
230
1
1
\W01.000;\fsimplex.shx,bigfont.shx;17 
40
4.5
41
0
44
1.084337
50
90
71
7
72
5
7
DEFAULT
0
LINE
5
2DA
100
AcDbEntity
8
2
62
256
6
ByLayer
370
-1
48
1
60
0
100
AcDbLine
10
81.5
20
0
30
0
11
92.25
21
0
31
0
39
0
210
0
220
0
230
1
0
LINE
5
2DB
100
AcDbEntity
8
2
62
256
6
ByLayer
370
-1
48
1
60
0
100
AcDbLine
10
76.5
20
16.875
30
0
11
92.25
21
16.875
31
0
39
0
210
0
220
0
230
1
0
LINE
5
2DC
100
AcDbEntity
8
2
62
256
6
ByLayer
370
-1
48
1
60
0
100
AcDbLine
10
89.25
20
0
30
0
11
89.25
21
16.875
31
0
39
0
210
0
220
0
230
1
0
LINE
5
2DD
100
AcDbEntity
8
2
62
256
6
ByLayer
370
-1
48
1
60
0
100
AcDbLine
10
89.25
20
0
30
0
11
88.855043
21
2.999999
31
0
39
0
210
0
220
0
230
1
0
LINE
5
2DE
100
AcDbEntity
8
2
62
256
6
ByLayer
370
-1
48
1
60
0
100
AcDbLine
10
89.25
20
0
30
0
11
89.644957
21
3.000001
31
0
39
0
210
0
220
0
230
1
0
LINE
5
2DF
100
AcDbEntity
8
2
62
256
6
ByLayer
370
-1
48
1
60
0
100
AcDbLine
10
88.855043
20
2.999999
30
0
11
89.644957
21
3.000001
31
0
39
0
210
0
220
0
230
1
0
LINE
5
2E0
100
AcDbEntity
8
2
62
256
6
ByLayer
370
-1
48
1
60
0
100
AcDbLine
10
89.25
20
16.875
30
0
11
89.644957
21
13.875001
31
0
39
0
210
0
220
0
230
1
0
LINE
5
2E1
100
AcDbEntity
8
2
62
256
6
ByLayer
370
-1
48
1
60
0
100
AcDbLine
10
89.25
20
16.875
30
0
11
88.855043
21
13.874999
31
0
39
0
210
0
220
0
230
1
0
LINE
5
2E2
100
AcDbEntity
8
2
62
256
6
ByLayer
370
-1
48
1
60
0
100
AcDbLine
10
89.644957
20
13.875001
30
0
11
88.855043
21
13.874999
31
0
39
0
210
0
220
0
230
1
0
ENDBLK
5
2E4
100
AcDbEntity
8
0
100
AcDbBlockEnd
0
BLOCK
5
2E7
100
AcDbEntity
8
0
100
AcDbBlockBegin
2
_CLOSED
70
0
10
0
20
0
30
0
3
_CLOSED
0
LINE
5
2E9
100
AcDbEntity
8
0
62
256
6
ByLayer
370
-2
48
1
60
0
100
AcDbLine
10
-1
20
0.166667
30
0
11
0
21
0
31
0
39
0
210
0
220
0
230
1
0
LINE
5
2EA
100
AcDbEntity
8
0
62
256
6
ByLayer
370
-2
48
1
60
0
100
AcDbLine
10
0
20
0
30
0
11
-1
21
-0.166667
31
0
39
0
210
0
220
0
230
1
0
LINE
5
2EB
100
AcDbEntity
8
0
62
256
6
ByLayer
370
-2
48
1
60
0
100
AcDbLine
10
-1
20
0.166667
30
0
11
-1
21
-0.166667
31
0
39
0
210
0
220
0
230
1
0
LINE
5
2EC
100
AcDbEntity
8
0
62
256
6
ByLayer
370
-2
48
1
60
0
100
AcDbLine
10
0
20
0
30
0
11
-1
21
0
31
0
39
0
210
0
220
0
230
1
0
ENDBLK
5
2E8
100
AcDbEntity
8
0
100
AcDbBlockEnd
0
BLOCK
5
2F9
100
AcDbEntity
8
0
100
AcDbBlockBegin
2
DimnDraft3D2
70
0
10
0
20
0
30
0
3
DimnDraft3D2
0
MTEXT
5
2EE
100
AcDbEntity
8
SK2
62
256
6
ByLayer
370
-1
48
1
60
0
100
AcDbMText
10
-48.875
20
-3.659211
30
0
210
0
220
0
230
1
1
\W01.000;\fsimplex.shx,bigfont.shx;%%c63 
40
4.5
41
0
44
1.084337
50
90
71
7
72
5
7
DEFAULT
0
LINE
5
2F0
100
AcDbEntity
8
SK2
62
256
6
ByLayer
370
-1
48
1
60
0
100
AcDbLine
10
-1.5
20
31.5
30
0
11
-50.75
21
31.5
31
0
39
0
210
0
220
0
230
1
0
LINE
5
2F1
100
AcDbEntity
8
SK2
62
256
6
ByLayer
370
-1
48
1
60
0
100
AcDbLine
10
-1.5
20
-31.5
30
0
11
-50.75
21
-31.5
31
0
39
0
210
0
220
0
230
1
0
LINE
5
2F2
100
AcDbEntity
8
SK2
62
256
6
ByLayer
370
-1
48
1
60
0
100
AcDbLine
10
-47.75
20
31.5
30
0
11
-47.75
21
-31.5
31
0
39
0
210
0
220
0
230
1
0
LINE
5
2F3
100
AcDbEntity
8
SK2
62
256
6
ByLayer
370
-1
48
1
60
0
100
AcDbLine
10
-47.75
20
31.5
30
0
11
-47.355043
21
28.500001
31
0
39
0
210
0
220
0
230
1
0
LINE
5
2F4
100
AcDbEntity
8
SK2
62
256
6
ByLayer
370
-1
48
1
60
0
100
AcDbLine
10
-47.75
20
31.5
30
0
11
-48.144957
21
28.499999
31
0
39
0
210
0
220
0
230
1
0
LINE
5
2F5
100
AcDbEntity
8
SK2
62
256
6
ByLayer
370
-1
48
1
60
0
100
AcDbLine
10
-47.355043
20
28.500001
30
0
11
-48.144957
21
28.499999
31
0
39
0
210
0
220
0
230
1
0
LINE
5
2F6
100
AcDbEntity
8
SK2
62
256
6
ByLayer
370
-1
48
1
60
0
100
AcDbLine
10
-47.75
20
-31.5
30
0
11
-48.144957
21
-28.500001
31
0
39
0
210
0
220
0
230
1
0
LINE
5
2F7
100
AcDbEntity
8
SK2
62
256
6
ByLayer
370
-1
48
1
60
0
100
AcDbLine
10
-47.75
20
-31.5
30
0
11
-47.355043
21
-28.499999
31
0
39
0
210
0
220
0
230
1
0
LINE
5
2F8
100
AcDbEntity
8
SK2
62
256
6
ByLayer
370
-1
48
1
60
0
100
AcDbLine
10
-48.144957
20
-28.500001
30
0
11
-47.355043
21
-28.499999
31
0
39
0
210
0
220
0
230
1
0
ENDBLK
5
2FA
100
AcDbEntity
8
0
100
AcDbBlockEnd
0
BLOCK
5
307
100
AcDbEntity
8
0
100
AcDbBlockBegin
2
DimnDraft3D3
70
0
10
0
20
0
30
0
3
DimnDraft3D3
0
MTEXT
5
2FD
100
AcDbEntity
8
2
62
256
6
ByLayer
370
-1
48
1
60
0
100
AcDbMText
10
35.996053
20
37.75
30
0
210
0
220
0
230
1
1
\W01.000;\fsimplex.shx,bigfont.shx;75 
40
4.5
41
0
44
1.084337
50
0
71
7
72
5
7
DEFAULT
0
LINE
5
2FE
100
AcDbEntity
8
2
62
256
6
ByLayer
370
-1
48
1
60
0
100
AcDbLine
10
75
20
18.375
30
0
11
75
21
39.625
31
0
39
0
210
0
220
0
230
1
0
LINE
5
2FF
100
AcDbEntity
8
2
62
256
6
ByLayer
370
-1
48
1
60
0
100
AcDbLine
10
0
20
1.5
30
0
11
0
21
39.625
31
0
39
0
210
0
220
0
230
1
0
LINE
5
300
100
AcDbEntity
8
2
62
256
6
ByLayer
370
-1
48
1
60
0
100
AcDbLine
10
75
20
36.625
30
0
11
0
21
36.625
31
0
39
0
210
0
220
0
230
1
0
LINE
5
301
100
AcDbEntity
8
2
62
256
6
ByLayer
370
-1
48
1
60
0
100
AcDbLine
10
75
20
36.625
30
0
11
72.000001
21
36.230043
31
0
39
0
210
0
220
0
230
1
0
LINE
5
302
100
AcDbEntity
8
2
62
256
6
ByLayer
370
-1
48
1
60
0
100
AcDbLine
10
75
20
36.625
30
0
11
71.999999
21
37.019957
31
0
39
0
210
0
220
0
230
1
0
LINE
5
303
100
AcDbEntity
8
2
62
256
6
ByLayer
370
-1
48
1
60
0
100
AcDbLine
10
72.000001
20
36.230043
30
0
11
71.999999
21
37.019957
31
0
39
0
210
0
220
0
230
1
0
LINE
5
304
100
AcDbEntity
8
2
62
256
6
ByLayer
370
-1
48
1
60
0
100
AcDbLine
10
0
20
36.625
30
0
11
2.999999
21
37.019957
31
0
39
0
210
0
220
0
230
1
0
LINE
5
305
100
AcDbEntity
8
2
62
256
6
ByLayer
370
-1
48
1
60
0
100
AcDbLine
10
0
20
36.625
30
0
11
3.000001
21
36.230043
31
0
39
0
210
0
220
0
230
1
0
LINE
5
306
100
AcDbEntity
8
2
62
256
6
ByLayer
370
-1
48
1
60
0
100
AcDbLine
10
2.999999
20
37.019957
30
0
11
3.000001
21
36.230043
31
0
39
0
210
0
220
0
230
1
0
ENDBLK
5
308
100
AcDbEntity
8
0
100
AcDbBlockEnd
0
BLOCK
5
315
100
AcDbEntity
8
0
100
AcDbBlockBegin
2
DimnDraft3D4
70
0
10
0
20
0
30
0
3
DimnDraft3D4
0
MTEXT
5
30B
100
AcDbEntity
8
2
62
256
6
ByLayer
370
-1
48
1
60
0
100
AcDbMText
10
49.054728
20
27.75
30
0
210
0
220
0
230
1
1
\W01.000;\fsimplex.shx,bigfont.shx;48 
40
4.5
41
0
44
1.084337
50
0
71
7
72
5
7
DEFAULT
0
LINE
5
30C
100
AcDbEntity
8
2
62
256
6
ByLayer
370
-1
48
1
60
0
100
AcDbLine
10
26.591035
20
18.375
30
0
11
26.591035
21
29.625
31
0
39
0
210
0
220
0
230
1
0
LINE
5
30D
100
AcDbEntity
8
2
62
256
6
ByLayer
370
-1
48
1
60
0
100
AcDbLine
10
75
20
18.375
30
0
11
75
21
29.625
31
0
39
0
210
0
220
0
230
1
0
LINE
5
30E
100
AcDbEntity
8
2
62
256
6
ByLayer
370
-1
48
1
60
0
100
AcDbLine
10
26.591035
20
26.625
30
0
11
75
21
26.625
31
0
39
0
210
0
220
0
230
1
0
LINE
5
30F
100
AcDbEntity
8
2
62
256
6
ByLayer
370
-1
48
1
60
0
100
AcDbLine
10
26.591035
20
26.625
30
0
11
29.591033
21
27.019957
31
0
39
0
210
0
220
0
230
1
0
LINE
5
310
100
AcDbEntity
8
2
62
256
6
ByLayer
370
-1
48
1
60
0
100
AcDbLine
10
26.591035
20
26.625
30
0
11
29.591036
21
26.230043
31
0
39
0
210
0
220
0
230
1
0
LINE
5
311
100
AcDbEntity
8
2
62
256
6
ByLayer
370
-1
48
1
60
0
100
AcDbLine
10
29.591033
20
27.019957
30
0
11
29.591036
21
26.230043
31
0
39
0
210
0
220
0
230
1
0
LINE
5
312
100
AcDbEntity
8
2
62
256
6
ByLayer
370
-1
48
1
60
0
100
AcDbLine
10
75
20
26.625
30
0
11
72.000001
21
26.230043
31
0
39
0
210
0
220
0
230
1
0
LINE
5
313
100
AcDbEntity
8
2
62
256
6
ByLayer
370
-1
48
1
60
0
100
AcDbLine
10
75
20
26.625
30
0
11
71.999999
21
27.019957
31
0
39
0
210
0
220
0
230
1
0
LINE
5
314
100
AcDbEntity
8
2
62
256
6
ByLayer
370
-1
48
1
60
0
100
AcDbLine
10
72.000001
20
26.230043
30
0
11
71.999999
21
27.019957
31
0
39
0
210
0
220
0
230
1
0
ENDBLK
5
316
100
AcDbEntity
8
0
100
AcDbBlockEnd
0
ENDSEC
0
SECTION
2
ENTITIES
0
ARC
5
172
100
AcDbEntity
8
1
62
256
6
ByLayer
370
-1
48
1
60
0
100
AcDbCircle
39
0
10
-27.511827
20
-13.7
30
0
40
1.2
210
0
220
0
230
-1
100
AcDbArc
50
15
51
90
0
ARC
5
173
100
AcDbEntity
8
1
62
256
6
ByLayer
370
-1
48
1
60
0
100
AcDbCircle
39
0
10
-27.511827
20
13.7
30
0
40
1.2
210
0
220
0
230
-1
100
AcDbArc
50
270
51
345
0
ARC
5
174
100
AcDbEntity
8
1
62
256
6
ByLayer
370
-1
48
1
60
0
100
AcDbCircle
39
0
10
-57.651972
20
-13.3
30
0
40
0.8
210
0
220
0
230
-1
100
AcDbArc
50
90
51
99.068722
0
ARC
5
175
100
AcDbEntity
8
1
62
256
6
ByLayer
370
-1
48
1
60
0
100
AcDbCircle
39
0
10
-57.651972
20
13.3
30
0
40
0.8
210
0
220
0
230
-1
100
AcDbArc
50
220
51
270
0
ELLIPSE
5
176
100
AcDbEntity
8
1
62
256
6
ByLayer
370
-1
48
1
60
0
100
AcDbEllipse
10
68.410829
20
0
30
0
11
-14.9623942721944
21
10.7281722530626
31
0
210
0
220
0
230
1
40
0.430064
41
1.12339595834548
42
1.70388060156189
0
ELLIPSE
5
177
100
AcDbEntity
8
1
62
256
6
ByLayer
370
-1
48
1
60
0
100
AcDbEllipse
10
62.044877
20
8.530904
30
0
11
-1.64651197074777
21
0.107256010922345
31
0
210
0
220
0
230
1
40
0.965788
41
-1.49804507945726
42
1.50863681175299
0
ELLIPSE
5
178
100
AcDbEntity
8
1
62
256
6
ByLayer
370
-1
48
1
60
0
100
AcDbEllipse
10
73.094833
20
2.17362
30
0
11
-2.65443259139853
21
1.29855551953794
31
0
210
0
220
0
230
1
40
0.133258
41
0.880930524345351
42
1.16354352653469
0
ELLIPSE
5
179
100
AcDbEntity
8
1
62
256
6
ByLayer
370
-1
48
1
60
0
100
AcDbEllipse
10
-2.347154
20
0
30
0
11
-14.7536831606569
21
-31.0932549155818
31
0
210
0
220
0
230
1
40
0.341999
41
2.05035306783698
42
2.98378646694437
0
ELLIPSE
5
17A
100
AcDbEntity
8
1
62
256
6
ByLayer
370
-1
48
1
60
0
100
AcDbEllipse
10
63.163952
20
6.916499
30
0
11
-2.11145701959825
21
0.149191788241913
31
0
210
0
220
0
230
1
40
0.965764
41
-1.11762307732674
42
-0.627728021228787
0
ELLIPSE
5
17B
100
AcDbEntity
8
1
62
256
6
ByLayer
370
-1
48
1
60
0
100
AcDbEllipse
10
-2.347154
20
0
30
0
11
-14.7536831606569
21
31.0932549155818
31
0
210
0
220
0
230
1
40
0.341999
41
-2.98378646694437
42
-2.05035306783698
0
ELLIPSE
5
17C
100
AcDbEntity
8
1
62
256
6
ByLayer
370
-1
48
1
60
0
100
AcDbEllipse
10
26.347154
20
0
30
0
11
-14.7536831606551
21
-31.0932549155795
31
0
210
0
220
0
230
1
40
0.341999
41
-1.09123958575287
42
-0.157806186645435
0
ELLIPSE
5
17D
100
AcDbEntity
8
1
62
256
6
ByLayer
370
-1
48
1
60
0
100
AcDbEllipse
10
26.347154
20
0
30
0
11
-14.7536831606566
21
31.0932549155815
31
0
210
0
220
0
230
1
40
0.341999
41
0.157806186645426
42
1.09123958575282
0
ELLIPSE
5
17E
100
AcDbEntity
8
1
62
256
6
ByLayer
370
-1
48
1
60
0
100
AcDbEllipse
10
67.033669
20
5.583049
30
0
11
-2.65443259179197
21
1.29855551968325
31
0
210
0
220
0
230
1
40
0.133258
41
1.16354352645127
42
1.4461565286119
0
ELLIPSE
5
17F
100
AcDbEntity
8
1
62
256
6
ByLayer
370
-1
48
1
60
0
100
AcDbEllipse
10
61.914161
20
6.680933
30
0
11
1.64589647751504
21
-0.116296110440485
31
0
210
0
220
0
230
1
40
0.965764
41
1.38386088998116
42
1.86794914054492
0
ELLIPSE
5
180
100
AcDbEntity
8
1
62
256
6
ByLayer
370
-1
48
1
60
0
100
AcDbEllipse
10
62.223675
20
11.061876
30
0
11
-2.24603199103583
21
-9.02257484742884
31
0
210
0
220
0
230
1
40
0.04199
41
-1.3170829352351
42
-1.30214001179154
0
ELLIPSE
5
181
100
AcDbEntity
8
1
62
256
6
ByLayer
370
-1
48
1
60
0
100
AcDbEllipse
10
62.744664
20
8.286369
30
0
11
-1.6530621775238
21
0.107682693209996
31
0
210
0
220
0
230
1
40
0.965788
41
1.05525226572063
42
2.19115544793791
0
ELLIPSE
5
182
100
AcDbEntity
8
1
62
256
6
ByLayer
370
-1
48
1
60
0
100
AcDbEllipse
10
61.958593
20
7.309758
30
0
11
1.64589647751504
21
-0.116296110440485
31
0
210
0
220
0
230
1
40
0.965764
41
1.75362471590284
42
2.07470006325472
0
ELLIPSE
5
183
100
AcDbEntity
8
1
62
256
6
ByLayer
370
-1
48
1
60
0
100
AcDbEllipse
10
59.17398
20
5.468905
30
0
11
-1.54305676589201
21
1.3504034554543
31
0
210
0
220
0
230
1
40
0.694577
41
-0.864762688453591
42
3.13074481302509
0
ELLIPSE
5
184
100
AcDbEntity
8
1
62
256
6
ByLayer
370
-1
48
1
60
0
100
AcDbEllipse
10
68.410829
20
0
30
0
11
-14.950433925049
21
10.7195965757991
31
0
210
0
220
0
230
1
40
0.430064
41
-0.339920965651858
42
1.11161177245119
0
ELLIPSE
5
185
100
AcDbEntity
8
1
62
256
6
ByLayer
370
-1
48
1
60
0
100
AcDbEllipse
10
61.912332
20
6.655055
30
0
11
-1.64589647751505
21
0.116296110440485
31
0
210
0
220
0
230
1
40
0.965764
41
-1.50266254663831
42
-0.630870483031656
0
ELLIPSE
5
186
100
AcDbEntity
8
1
62
256
6
ByLayer
370
-1
48
1
60
0
100
AcDbEllipse
10
61.912332
20
6.655055
30
0
11
-1.64589647751505
21
0.116296110440485
31
0
210
0
220
0
230
1
40
0.965764
41
-1.75781897900741
42
-1.50266254663831
0
ELLIPSE
5
187
100
AcDbEntity
8
1
62
256
6
ByLayer
370
-1
48
1
60
0
100
AcDbEllipse
10
62.591913
20
16.272908
30
0
11
-1.6378499306741
21
-7.54195098434685
31
0
210
0
220
0
230
1
40
0.160744
41
0.242557715253057
42
0.653463957991595
0
ELLIPSE
5
188
100
AcDbEntity
8
1
62
256
6
ByLayer
370
-1
48
1
60
0
100
AcDbEllipse
10
63.208384
20
7.545324
30
0
11
-1.99502603335156
21
0.140964982352103
31
0
210
0
220
0
230
1
40
0.965764
41
-1.26020625214148
42
-0.699701739960723
0
ELLIPSE
5
189
100
AcDbEntity
8
1
62
256
6
ByLayer
370
-1
48
1
60
0
100
AcDbEllipse
10
68.938043
20
9.350571
30
0
11
-0.200051044280416
21
-0.326957883010271
31
0
210
0
220
0
230
1
40
0.499975
41
0.178877565652265
42
1.58915102711183
0
ELLIPSE
5
18A
100
AcDbEntity
8
1
62
256
6
ByLayer
370
-1
48
1
60
0
100
AcDbEllipse
10
71.506764
20
9.338412
30
0
11
-0.200517583763541
21
0.328568772579835
31
0
210
0
220
0
230
1
40
0.495781
41
0.608513246081946
42
1.54958265946089
0
ELLIPSE
5
18B
100
AcDbEntity
8
1
62
256
6
ByLayer
370
-1
48
1
60
0
100
AcDbEllipse
10
70.222404
20
8.628113
30
0
11
-1.28709104541676
21
0.090943558364459
31
0
210
0
220
0
230
1
40
0.965764
41
-2.54986031696422
42
-1.50266276576766
0
ELLIPSE
5
18C
100
AcDbEntity
8
1
62
256
6
ByLayer
370
-1
48
1
60
0
100
AcDbEllipse
10
68.739252
20
8.635133
30
0
11
-0.000623103068507453
21
0.380672332819596
31
0
210
0
220
0
230
1
40
0.50691
41
-0.0603741684583396
42
0.857580032545944
0
ELLIPSE
5
18D
100
AcDbEntity
8
1
62
256
6
ByLayer
370
-1
48
1
60
0
100
AcDbEllipse
10
70.222404
20
8.628113
30
0
11
-1.28709104541676
21
0.090943558364459
31
0
210
0
220
0
230
1
40
0.965764
41
-0.455465214571044
42
0.1249275865838
0
ELLIPSE
5
18E
100
AcDbEntity
8
1
62
256
6
ByLayer
370
-1
48
1
60
0
100
AcDbEllipse
10
70.222404
20
8.628113
30
0
11
-1.28709104541676
21
0.090943558364459
31
0
210
0
220
0
230
1
40
0.965764
41
3.1269157109333
42
-2.54986031696424
0
ELLIPSE
5
18F
100
AcDbEntity
8
1
62
256
6
ByLayer
370
-1
48
1
60
0
100
AcDbEllipse
10
71.506764
20
9.338412
30
0
11
-0.20051758376314
21
0.328568772580444
31
0
210
0
220
0
230
1
40
0.495781
41
1.54958265946493
42
2.95985612092252
0
ELLIPSE
5
190
100
AcDbEntity
8
1
62
256
6
ByLayer
370
-1
48
1
60
0
100
AcDbEllipse
10
70.96398
20
9.865491
30
0
11
-0.342845330156823
21
0.189166589712731
31
0
210
0
220
0
230
1
40
0.479089
41
-2.35411703748972
42
0.0400244433162704
0
ELLIPSE
5
191
100
AcDbEntity
8
1
62
256
6
ByLayer
370
-1
48
1
60
0
100
AcDbEllipse
10
70.222404
20
8.628113
30
0
11
-1.28709104541676
21
0.090943558364459
31
0
210
0
220
0
230
1
40
0.965764
41
0.732793256386742
42
0.963569540893179
0
ELLIPSE
5
192
100
AcDbEntity
8
1
62
256
6
ByLayer
370
-1
48
1
60
0
100
AcDbEllipse
10
70.222404
20
10.06087
30
0
11
-0.394032475316432
21
0.0024028760300174
31
0
210
0
220
0
230
1
40
0.473102
41
0.163407912190337
42
1.57368137364756
0
ELLIPSE
5
193
100
AcDbEntity
8
1
62
256
6
ByLayer
370
-1
48
1
60
0
100
AcDbEllipse
10
68.938043
20
9.350571
30
0
11
-0.20005104427939
21
-0.326957883009535
31
0
210
0
220
0
230
1
40
0.499975
41
1.5891510271087
42
2.37462779238665
0
ELLIPSE
5
194
100
AcDbEntity
8
1
62
256
6
ByLayer
370
-1
48
1
60
0
100
AcDbEllipse
10
70.222404
20
8.628113
30
0
11
-1.28709104541676
21
0.090943558364459
31
0
210
0
220
0
230
1
40
0.965764
41
2.12648254357432
42
2.57250707433211
0
ELLIPSE
5
195
100
AcDbEntity
8
1
62
256
6
ByLayer
370
-1
48
1
60
0
100
AcDbEllipse
10
70.251202
20
9.035684
30
0
11
1.67223082115528
21
-0.118156848207534
31
0
210
0
220
0
230
1
40
0.965764
41
-3.07345909256252
42
-2.02626154136594
0
ELLIPSE
5
196
100
AcDbEntity
8
1
62
256
6
ByLayer
370
-1
48
1
60
0
100
AcDbEllipse
10
70.251202
20
9.035684
30
0
11
1.67223082115528
21
-0.118156848207534
31
0
210
0
220
0
230
1
40
0.965764
41
2.16252866342044
42
-3.07345909256252
0
ELLIPSE
5
197
100
AcDbEntity
8
1
62
256
6
ByLayer
370
-1
48
1
60
0
100
AcDbEllipse
10
70.251202
20
9.035684
30
0
11
1.67223082115528
21
-0.118156848207534
31
0
210
0
220
0
230
1
40
0.965764
41
0.0681335610272724
42
1.11533111222385
0
ELLIPSE
5
198
100
AcDbEntity
8
1
62
256
6
ByLayer
370
-1
48
1
60
0
100
AcDbEllipse
10
70.251202
20
9.035684
30
0
11
1.67223082115528
21
-0.118156848207534
31
0
210
0
220
0
230
1
40
0.965764
41
-0.979063990169311
42
0.0681335610272713
0
ELLIPSE
5
199
100
AcDbEntity
8
1
62
256
6
ByLayer
370
-1
48
1
60
0
100
AcDbEllipse
10
70.251202
20
9.035684
30
0
11
1.67223082115528
21
-0.118156848207534
31
0
210
0
220
0
230
1
40
0.965764
41
1.11533111222385
42
2.16252866342044
0
ELLIPSE
5
19A
100
AcDbEntity
8
1
62
256
6
ByLayer
370
-1
48
1
60
0
100
AcDbEllipse
10
70.251202
20
9.035684
30
0
11
1.67223082115528
21
-0.118156848207534
31
0
210
0
220
0
230
1
40
0.965764
41
-2.02626154136594
42
-0.979063990169311
0
ELLIPSE
5
19B
100
AcDbEntity
8
1
62
256
6
ByLayer
370
-1
48
1
60
0
100
AcDbEllipse
10
70.222404
20
10.06087
30
0
11
-0.394032475315233
21
0.0024028760303592
31
0
210
0
220
0
230
1
40
0.473102
41
1.57368137364959
42
2.98395483511006
0
ELLIPSE
5
19C
100
AcDbEntity
8
1
62
256
6
ByLayer
370
-1
48
1
60
0
100
AcDbEllipse
10
70.222404
20
8.628113
30
0
11
1.28709104541676
21
-0.0909435583644591
31
0
210
0
220
0
230
1
40
0.965764
41
1.63892988782217
42
2.68612743901876
0
ELLIPSE
5
19D
100
AcDbEntity
8
1
62
256
6
ByLayer
370
-1
48
1
60
0
100
AcDbEllipse
10
71.705556
20
8.621093
30
0
11
-0.000623103068507458
21
0.380672332819599
31
0
210
0
220
0
230
1
40
0.50691
41
-1.17741844002585
42
0.053916050966163
0
ELLIPSE
5
19E
100
AcDbEntity
8
1
62
256
6
ByLayer
370
-1
48
1
60
0
100
AcDbEllipse
10
69.480828
20
9.872511
30
0
11
-0.343133849056965
21
-0.185391276329968
31
0
210
0
220
0
230
1
40
0.48292
41
3.10477118287737
42
-0.934348470810655
0
ELLIPSE
5
19F
100
AcDbEntity
8
1
62
256
6
ByLayer
370
-1
48
1
60
0
100
AcDbEllipse
10
67.852767
20
12.310047
30
0
11
-1.8
21
2.20429143688028E-16
31
0
210
0
220
0
230
1
40
0.258819
41
-0.755396374706195
42
-0.528503571946926
0
ELLIPSE
5
1A0
100
AcDbEntity
8
1
62
256
6
ByLayer
370
-1
48
1
60
0
100
AcDbEllipse
10
66.724367
20
12.58508
30
0
11
-0.25
21
3.06151588455594E-17
31
0
210
0
220
0
230
1
40
0.258819
41
-1.58442776940355
42
-0.755396374706196
0
ELLIPSE
5
1A1
100
AcDbEntity
8
1
62
256
6
ByLayer
370
-1
48
1
60
0
100
AcDbEllipse
10
65.864868
20
12.317061
30
0
11
-1.8
21
2.20429143688028E-16
31
0
210
0
220
0
230
1
40
0.258819
41
-2.44231040400172
42
-2.41345916410081
0
ELLIPSE
5
1A2
100
AcDbEntity
8
1
62
256
6
ByLayer
370
-1
48
1
60
0
100
AcDbEllipse
10
67.021815
20
12.58403
30
0
11
-0.25
21
3.06151588455594E-17
31
0
210
0
220
0
230
1
40
0.258819
41
-2.41345916410082
42
-1.58442776940349
0
ELLIPSE
5
1A3
100
AcDbEntity
8
1
62
256
6
ByLayer
370
-1
48
1
60
0
100
AcDbEllipse
10
66.082464
20
12.577587
30
0
11
-0.25
21
3.06151588455594E-17
31
0
210
0
220
0
230
1
40
0.258819
41
2.02965358241145
42
2.61308908164287
0
ELLIPSE
5
1A4
100
AcDbEntity
8
1
62
256
6
ByLayer
370
-1
48
1
60
0
100
AcDbEllipse
10
71.742971
20
2.932986
30
0
11
0.176329317764099
21
-0.267035525158821
31
0
210
0
220
0
230
1
40
0.03732
41
-2.29821777815287
42
-1.12825396992108
0
ELLIPSE
5
1A5
100
AcDbEntity
8
1
62
256
6
ByLayer
370
-1
48
1
60
0
100
AcDbEllipse
10
67.35428
20
12.641417
30
0
11
-0.143517613718484
21
-0.0843322544520652
31
0
210
0
220
0
230
1
40
0.195042
41
-2.4079987431234
42
-1.70241255350248
0
ELLIPSE
5
1A6
100
AcDbEntity
8
1
62
256
6
ByLayer
370
-1
48
1
60
0
100
AcDbEllipse
10
73.542053
20
2.867053
30
0
11
0.126989212138566
21
0.304587819849098
31
0
210
0
220
0
230
1
40
0.517188
41
-2.14635572770675
42
-1.54493633139595
0
ELLIPSE
5
1A7
100
AcDbEntity
8
1
62
256
6
ByLayer
370
-1
48
1
60
0
100
AcDbEllipse
10
73.808867
20
13.854076
30
0
11
-0.822902478270958
21
-0.504346294681927
31
0
210
0
220
0
230
1
40
0.3419
41
2.31465636021706
42
3.13110594625798
0
ELLIPSE
5
1A8
100
AcDbEntity
8
1
62
256
6
ByLayer
370
-1
48
1
60
0
100
AcDbEllipse
10
72.941358
20
2.825287
30
0
11
0.329092877421673
21
-0.0244515445386072
31
0
210
0
220
0
230
1
40
0.673036
41
-2.14481203860294
42
-1.32836245256558
0
ELLIPSE
5
1A9
100
AcDbEntity
8
1
62
256
6
ByLayer
370
-1
48
1
60
0
100
AcDbEllipse
10
63.171429
20
9.207093
30
0
11
0.12671433357778
21
-0.304702277093459
31
0
210
0
220
0
230
1
40
0.542683
41
-1.6114190898499
42
-1.00999969353906
0
ELLIPSE
5
1AA
100
AcDbEntity
8
1
62
256
6
ByLayer
370
-1
48
1
60
0
100
AcDbEllipse
10
63.460449
20
9.675195
30
0
11
0.166646788342777
21
0.284831262215084
31
0
210
0
220
0
230
1
40
0.020796
41
1.15004999605151
42
2.03107132206074
0
ELLIPSE
5
1AB
100
AcDbEntity
8
1
62
256
6
ByLayer
370
-1
48
1
60
0
100
AcDbEllipse
10
74.001783
20
15.485321
30
0
11
-0.000396770117231355
21
-0.0911034398210519
31
0
210
0
220
0
230
1
40
0.965798
41
2.10952713492655
42
3.1415843425076
0
ELLIPSE
5
1AC
100
AcDbEntity
8
1
62
256
6
ByLayer
370
-1
48
1
60
0
100
AcDbEllipse
10
63.171429
20
9.207093
30
0
11
-0.0259338634078486
21
-0.328979383440274
31
0
210
0
220
0
230
1
40
0.228524
41
-1.16829399898112
42
-0.819228148582292
0
ELLIPSE
5
1AD
100
AcDbEntity
8
1
62
256
6
ByLayer
370
-1
48
1
60
0
100
AcDbEllipse
10
68.695307
20
13.383532
30
0
11
-0.12894579296412
21
-0.0768529686805865
31
0
210
0
220
0
230
1
40
0.215846
41
-1.71819106648683
42
-1.00566648802705
0
ELLIPSE
5
1AE
100
AcDbEntity
8
1
62
256
6
ByLayer
370
-1
48
1
60
0
100
AcDbEllipse
10
75.036153
20
5.5999
30
0
11
-0.140714192930424
21
-0.239169976646569
31
0
210
0
220
0
230
1
40
0.063581
41
-1.18041021263755
42
-0.753835096904788
0
ELLIPSE
5
1AF
100
AcDbEntity
8
1
62
256
6
ByLayer
370
-1
48
1
60
0
100
AcDbEllipse
10
74.764296
20
13.030832
30
0
11
0.150248298124002
21
0.28253397832976
31
0
210
0
220
0
230
1
40
0.014394
41
1.57841055121133
42
2.74837435944193
0
ELLIPSE
5
1B0
100
AcDbEntity
8
1
62
256
6
ByLayer
370
-1
48
1
60
0
100
AcDbEllipse
10
63.908088
20
9.305221
30
0
11
-0.832437249550367
21
0.488229794597846
31
0
210
0
220
0
230
1
40
0.306363
41
-0.823404481088061
42
-0.00695489505216173
0
ELLIPSE
5
1B1
100
AcDbEntity
8
1
62
256
6
ByLayer
370
-1
48
1
60
0
100
AcDbEllipse
10
68.310641
20
6.194153
30
0
11
0.0357259918071446
21
0.145683401626252
31
0
210
0
220
0
230
1
40
0.046814
41
1.31258632271843
42
1.48711924791781
0
ELLIPSE
5
1B2
100
AcDbEntity
8
1
62
256
6
ByLayer
370
-1
48
1
60
0
100
AcDbEllipse
10
73.830764
20
8.083706
30
0
11
-0.143814300897886
21
-0.0426315242192006
31
0
210
0
220
0
230
1
40
0.244304
41
-1.83516128982982
42
-1.66062836463031
0
ELLIPSE
5
1B3
100
AcDbEntity
8
1
62
256
6
ByLayer
370
-1
48
1
60
0
100
AcDbEllipse
10
73.993128
20
13.967043
30
0
11
-4.67600826818841E-17
21
-0.254558441227155
31
0
210
0
220
0
230
1
40
0.999867
41
-0.558493593836968
42
0.549766437173558
0
ELLIPSE
5
1B4
100
AcDbEntity
8
1
62
256
6
ByLayer
370
-1
48
1
60
0
100
AcDbEllipse
10
71.693385
20
2.709883
30
0
11
-0.289207308001787
21
0.169862174071531
31
0
210
0
220
0
230
1
40
0.223196
41
1.6555297873339
42
1.93117354693492
0
ELLIPSE
5
1B5
100
AcDbEntity
8
1
62
256
6
ByLayer
370
-1
48
1
60
0
100
AcDbEllipse
10
74.121918
20
2.780744
30
0
11
-0.179619284128355
21
0.0117009730030214
31
0
210
0
220
0
230
1
40
0.965789
41
2.39034587768734
42
2.68082561138851
0
ELLIPSE
5
1B6
100
AcDbEntity
8
1
62
256
6
ByLayer
370
-1
48
1
60
0
100
AcDbEllipse
10
74.764296
20
13.030832
30
0
11
-0.175677408214765
21
-0.267464854220032
31
0
210
0
220
0
230
1
40
0.203761
41
0.402079994213905
42
1.3926853202012
0
ELLIPSE
5
1B7
100
AcDbEntity
8
1
62
256
6
ByLayer
370
-1
48
1
60
0
100
AcDbEllipse
10
74.487527
20
7.952518
30
0
11
0.00498680642490531
21
-0.149917082954814
31
0
210
0
220
0
230
1
40
0.026344
41
1.83182940267578
42
2.54435398120054
0
ELLIPSE
5
1B8
100
AcDbEntity
8
1
62
256
6
ByLayer
370
-1
48
1
60
0
100
AcDbEllipse
10
73.686924
20
14.158401
30
0
11
-4.67600826818841E-17
21
-0.254558441227155
31
0
210
0
220
0
230
1
40
0.999867
41
-0.863312072454437
42
-0.558493593836861
0
ELLIPSE
5
1B9
100
AcDbEntity
8
1
62
256
6
ByLayer
370
-1
48
1
60
0
100
AcDbEllipse
10
74.189814
20
1.44743
30
0
11
-0.0878138722405289
21
0.00572047569036602
31
0
210
0
220
0
230
1
40
0.965789
41
2.68082561138846
42
-3.14157919444847
0
ELLIPSE
5
1BA
100
AcDbEntity
8
1
62
256
6
ByLayer
370
-1
48
1
60
0
100
AcDbEllipse
10
74.256343
20
2.468693
30
0
11
-0.0842609164685632
21
-0.0290942334909081
31
0
210
0
220
0
230
1
40
0.911082
41
2.31546043521857
42
-2.93566766437123
0
ELLIPSE
5
1BB
100
AcDbEntity
8
1
62
256
6
ByLayer
370
-1
48
1
60
0
100
AcDbEllipse
10
70.240537
20
8.964191
30
0
11
3.07390048262853
21
-0.200243680603412
31
0
210
0
220
0
230
1
40
0.965789
41
0
42
6.28318530717959
0
ELLIPSE
5
1BC
100
AcDbEntity
8
1
62
256
6
ByLayer
370
-1
48
1
60
0
100
AcDbEllipse
10
74.764296
20
13.030832
30
0
11
-0.101161855390478
21
0.303588996859168
31
0
210
0
220
0
230
1
40
0.015437
41
1.56561488893599
42
1.84125864988302
0
ELLIPSE
5
1BD
100
AcDbEntity
8
1
62
256
6
ByLayer
370
-1
48
1
60
0
100
AcDbEllipse
10
72.941358
20
2.825287
30
0
11
-0.329941928492634
21
-0.00619062376193185
31
0
210
0
220
0
230
1
40
0.387666
41
0.891887709617958
42
1.7729090356274
0
ELLIPSE
5
1BE
100
AcDbEntity
8
1
62
256
6
ByLayer
370
-1
48
1
60
0
100
AcDbEllipse
10
74.176381
20
13.852472
30
0
11
-0.818470076662123
21
0.511508916892604
31
0
210
0
220
0
230
1
40
0.341899
41
0.0104869071733175
42
0.826936493206573
0
ELLIPSE
5
1BF
100
AcDbEntity
8
1
62
256
6
ByLayer
370
-1
48
1
60
0
100
AcDbEllipse
10
64.373711
20
7.448863
30
0
11
-0.352030382742254
21
0.57810192354906
31
0
210
0
220
0
230
1
40
0.071322
41
1.74625735233099
42
2.60919099825595
0
ELLIPSE
5
1C0
100
AcDbEntity
8
1
62
256
6
ByLayer
370
-1
48
1
60
0
100
AcDbEllipse
10
71.810296
20
14.601735
30
0
11
-0.704940313665632
21
0.0225354790914668
31
0
210
0
220
0
230
1
40
0.11846
41
0.62974113370926
42
1.49267477965751
0
ELLIPSE
5
1C1
100
AcDbEntity
8
1
62
256
6
ByLayer
370
-1
48
1
60
0
100
AcDbEllipse
10
73.657629
20
8.667764
30
0
11
-0.143814300897886
21
-0.0426315242192006
31
0
210
0
220
0
230
1
40
0.244304
41
-1.83516128982962
42
-1.66062836463011
0
ELLIPSE
5
1C2
100
AcDbEntity
8
1
62
256
6
ByLayer
370
-1
48
1
60
0
100
AcDbEllipse
10
74.304402
20
14.155669
30
0
11
-0.171567193481959
21
0.281894835214702
31
0
210
0
220
0
230
1
40
0.328804
41
-2.38864574650009
42
-1.57219616046266
0
ELLIPSE
5
1C3
100
AcDbEntity
8
1
62
256
6
ByLayer
370
-1
48
1
60
0
100
AcDbEllipse
10
74.994457
20
12.879656
30
0
11
-0.000910734195811439
21
-0.382239909294172
31
0
210
0
220
0
230
1
40
0.013965
41
-1.40181009868288
42
-0.411204772744515
0
ELLIPSE
5
1C4
100
AcDbEntity
8
1
62
256
6
ByLayer
370
-1
48
1
60
0
100
AcDbEllipse
10
63.430314
20
8.336951
30
0
11
-0.120148037019298
21
0.0531314302255163
31
0
210
0
220
0
230
1
40
0.908072
41
3.10576497505922
42
-2.23387201351385
0
ELLIPSE
5
1C5
100
AcDbEntity
8
1
62
256
6
ByLayer
370
-1
48
1
60
0
100
AcDbEllipse
10
63.767483
20
9.160105
30
0
11
-0.0259338634078486
21
-0.328979383440274
31
0
210
0
220
0
230
1
40
0.228524
41
-1.1682939989811
42
-0.819228148582181
0
ELLIPSE
5
1C6
100
AcDbEntity
8
1
62
256
6
ByLayer
370
-1
48
1
60
0
100
AcDbEllipse
10
65.025785
20
6.862471
30
0
11
0.249471227956048
21
-0.0162513513930857
31
0
210
0
220
0
230
1
40
0.965789
41
-2.12769914672041
42
-2.03156336899611
0
ELLIPSE
5
1C7
100
AcDbEntity
8
1
62
256
6
ByLayer
370
-1
48
1
60
0
100
AcDbEllipse
10
74.158013
20
9.073601
30
0
11
0.0633059060388732
21
-0.135986625300422
31
0
210
0
220
0
230
1
40
0.127852
41
1.09471097891153
42
1.80029716860956
0
ELLIPSE
5
1C8
100
AcDbEntity
8
1
62
256
6
ByLayer
370
-1
48
1
60
0
100
AcDbEllipse
10
73.999689
20
14.688877
30
0
11
-0.285075263893942
21
0.166229040530827
31
0
210
0
220
0
230
1
40
0.008173
41
1.20764539343651
42
1.55671124383623
0
ELLIPSE
5
1C9
100
AcDbEntity
8
1
62
256
6
ByLayer
370
-1
48
1
60
0
100
AcDbEllipse
10
74.752396
20
5.643896
30
0
11
0.249471227956048
21
-0.0162513513930857
31
0
210
0
220
0
230
1
40
0.965789
41
-0.0333040443272383
42
0.0628317333970506
0
ELLIPSE
5
1CA
100
AcDbEntity
8
1
62
256
6
ByLayer
370
-1
48
1
60
0
100
AcDbEllipse
10
74.300991
20
14.155721
30
0
11
-4.67600826818841E-17
21
-0.254558441227155
31
0
210
0
220
0
230
1
40
0.999867
41
0.549766437173629
42
0.854585258752915
0
ELLIPSE
5
1CB
100
AcDbEntity
8
1
62
256
6
ByLayer
370
-1
48
1
60
0
100
AcDbEllipse
10
74.509494
20
4.291528
30
0
11
-0.172351874628365
21
-0.0595109321108626
31
0
210
0
220
0
230
1
40
0.911082
41
2.3154604354665
42
-3.02417655313758
0
ELLIPSE
5
1CC
100
AcDbEntity
8
1
62
256
6
ByLayer
370
-1
48
1
60
0
100
AcDbEllipse
10
74.185064
20
3.750084
30
0
11
-0.172351874612507
21
-0.0595109321241517
31
0
210
0
220
0
230
1
40
0.911082
41
1.37191211674613
42
2.31546043534673
0
ELLIPSE
5
1CD
100
AcDbEntity
8
1
62
256
6
ByLayer
370
-1
48
1
60
0
100
AcDbEllipse
10
74.304402
20
14.155669
30
0
11
0.172437766515787
21
-0.281363140228152
31
0
210
0
220
0
230
1
40
0.013865
41
-1.57933547052241
42
-0.698314144510511
0
ELLIPSE
5
1CE
100
AcDbEntity
8
1
62
256
6
ByLayer
370
-1
48
1
60
0
100
AcDbEllipse
10
74.149569
20
3.454334
30
0
11
-0.124476353878862
21
-0.0429801176559658
31
0
210
0
220
0
230
1
40
0.911082
41
-1.7696805369562
42
-0.826132218327395
0
ELLIPSE
5
1CF
100
AcDbEntity
8
1
62
256
6
ByLayer
370
-1
48
1
60
0
100
AcDbEllipse
10
73.996539
20
13.966991
30
0
11
-0.174886668864488
21
-0.279847553238335
31
0
210
0
220
0
230
1
40
0.013828
41
-1.56219675959257
42
-0.681175433581818
0
ELLIPSE
5
1D0
100
AcDbEntity
8
1
62
256
6
ByLayer
370
-1
48
1
60
0
100
AcDbEllipse
10
74.304402
20
14.155669
30
0
11
0.28651500664998
21
0.1637350022578
31
0
210
0
220
0
230
1
40
0.008111
41
1.23585108313051
42
1.58491693353027
0
ELLIPSE
5
1D1
100
AcDbEntity
8
1
62
256
6
ByLayer
370
-1
48
1
60
0
100
AcDbEllipse
10
74.68311
20
4.580301
30
0
11
0.249471227956048
21
-0.0162513513930857
31
0
210
0
220
0
230
1
40
0.965789
41
-0.460767042201225
42
-1.31917326221932E-06
0
ELLIPSE
5
1D2
100
AcDbEntity
8
1
62
256
6
ByLayer
370
-1
48
1
60
0
100
AcDbEllipse
10
73.690335
20
14.158349
30
0
11
0.174886668864488
21
0.279847553238335
31
0
210
0
220
0
230
1
40
0.013828
41
1.57939589399718
42
2.46041722000549
0
ELLIPSE
5
1D3
100
AcDbEntity
8
1
62
256
6
ByLayer
370
-1
48
1
60
0
100
AcDbEllipse
10
73.999689
20
14.688877
30
0
11
0.28651500664998
21
0.1637350022578
31
0
210
0
220
0
230
1
40
0.008111
41
1.23585108313163
42
1.58491693353031
0
ELLIPSE
5
1D4
100
AcDbEntity
8
1
62
256
6
ByLayer
370
-1
48
1
60
0
100
AcDbEllipse
10
69.182088
20
12.348803
30
0
11
0.105854520827013
21
-0.106277092642222
31
0
210
0
220
0
230
1
40
0.19749
41
1.74310194330164
42
1.91763486850099
0
ELLIPSE
5
1D5
100
AcDbEntity
8
1
62
256
6
ByLayer
370
-1
48
1
60
0
100
AcDbEllipse
10
72.516326
20
2.495358
30
0
11
-0.239377603624248
21
-0.0826540723859446
31
0
210
0
220
0
230
1
40
0.911082
41
0.744664108578752
42
1.28340322781973
0
ELLIPSE
5
1D6
100
AcDbEntity
8
1
62
256
6
ByLayer
370
-1
48
1
60
0
100
AcDbEllipse
10
68.745755
20
11.914205
30
0
11
0.105854520827013
21
-0.106277092642222
31
0
210
0
220
0
230
1
40
0.19749
41
1.74310194330173
42
1.9176348685013
0
ELLIPSE
5
1D7
100
AcDbEntity
8
1
62
256
6
ByLayer
370
-1
48
1
60
0
100
AcDbEllipse
10
63.308316
20
8.541619
30
0
11
-0.120148037018584
21
0.0531314302262459
31
0
210
0
220
0
230
1
40
0.908072
41
-2.23387201350273
42
-1.2018148059459
0
ELLIPSE
5
1D8
100
AcDbEntity
8
1
62
256
6
ByLayer
370
-1
48
1
60
0
100
AcDbEllipse
10
73.999689
20
14.688877
30
0
11
-0.329991143274648
21
0.00241771799247104
31
0
210
0
220
0
230
1
40
0.178986
41
-1.85495451927017
42
-1.25353512295928
0
ELLIPSE
5
1D9
100
AcDbEntity
8
1
62
256
6
ByLayer
370
-1
48
1
60
0
100
AcDbEllipse
10
62.390722
20
7.793703
30
0
11
-0.0878138722405259
21
0.00572047569036583
31
0
210
0
220
0
230
1
40
0.965789
41
1.16283421686264E-05
42
0.586430508995287
0
ELLIPSE
5
1DA
100
AcDbEntity
8
1
62
256
6
ByLayer
370
-1
48
1
60
0
100
AcDbEllipse
10
68.426218
20
5.570999
30
0
11
-0.149596176921153
21
0.0109992659107353
31
0
210
0
220
0
230
1
40
0.259322
41
-1.56863274343715
42
-0.863046553738648
0
ELLIPSE
5
1DB
100
AcDbEntity
8
1
62
256
6
ByLayer
370
-1
48
1
60
0
100
AcDbEllipse
10
73.690335
20
14.158349
30
0
11
-0.285075263893942
21
0.166229040530827
31
0
210
0
220
0
230
1
40
0.008173
41
1.20764539343708
42
1.55671124383614
0
ELLIPSE
5
1DC
100
AcDbEntity
8
1
62
256
6
ByLayer
370
-1
48
1
60
0
100
AcDbEllipse
10
74.742559
20
13.859672
30
0
11
-0.00112718813897997
21
-0.258816590440371
31
0
210
0
220
0
230
1
40
0.965798
41
1.57078801691999
42
2.10952713608985
0
ELLIPSE
5
1DD
100
AcDbEntity
8
1
62
256
6
ByLayer
370
-1
48
1
60
0
100
AcDbEllipse
10
68.359913
20
4.669211
30
0
11
-0.143360189765888
21
0.0848352940995932
31
0
210
0
220
0
230
1
40
0.209444
41
-1.46498982433229
42
-0.759403634584517
0
ELLIPSE
5
1DE
100
AcDbEntity
8
1
62
256
6
ByLayer
370
-1
48
1
60
0
100
AcDbEllipse
10
74.446349
20
3.322189
30
0
11
-0.179619284128355
21
0.0117009730030213
31
0
210
0
220
0
230
1
40
0.965789
41
2.68082561138854
42
-3.14158154768323
0
ELLIPSE
5
1DF
100
AcDbEntity
8
1
62
256
6
ByLayer
370
-1
48
1
60
0
100
AcDbEllipse
10
73.690335
20
14.158349
30
0
11
-0.175765810909959
21
-0.279296222164147
31
0
210
0
220
0
230
1
40
0.354829
41
-1.5511582483868
42
-0.734708662349439
0
ELLIPSE
5
1E0
100
AcDbEntity
8
1
62
256
6
ByLayer
370
-1
48
1
60
0
100
AcDbEllipse
10
63.721586
20
9.414338
30
0
11
0.214135434812113
21
-0.137644526072875
31
0
210
0
220
0
230
1
40
0.895737
41
0.509329721976609
42
1.61758975637605
0
ELLIPSE
5
1E1
100
AcDbEntity
8
1
62
256
6
ByLayer
370
-1
48
1
60
0
100
AcDbEllipse
10
74.027571
20
3.250731
30
0
11
-0.124476353886807
21
-0.0429801176465206
31
0
210
0
220
0
230
1
40
0.911082
41
-0.826132218244646
42
0.205924989308838
0
ELLIPSE
5
1E2
100
AcDbEntity
8
1
62
256
6
ByLayer
370
-1
48
1
60
0
100
AcDbEllipse
10
72.83329
20
14.715167
30
0
11
-0.000811575245297667
21
-0.18634794508919
31
0
210
0
220
0
230
1
40
0.965798
41
2.19803602391009
42
3.14158434253625
0
ELLIPSE
5
1E3
100
AcDbEntity
8
1
62
256
6
ByLayer
370
-1
48
1
60
0
100
AcDbEllipse
10
67.257758
20
5.860238
30
0
11
-0.131634364356026
21
0.0719193584550442
31
0
210
0
220
0
230
1
40
0.236597
41
-2.17381970518013
42
-1.46129512665374
0
ELLIPSE
5
1E4
100
AcDbEntity
8
1
62
256
6
ByLayer
370
-1
48
1
60
0
100
AcDbEllipse
10
74.999831
20
12.036648
30
0
11
-0.000560354039717093
21
-0.175204025515785
31
0
210
0
220
0
230
1
40
0.014074
41
1.79425022144996
42
2.73672801776769
0
ELLIPSE
5
1E5
100
AcDbEntity
8
1
62
256
6
ByLayer
370
-1
48
1
60
0
100
AcDbEllipse
10
64.876591
20
6.586741
30
0
11
-0.140264069854418
21
0.240302574764372
31
0
210
0
220
0
230
1
40
0.078706
41
-0.938728401506027
42
-0.51215328637865
0
ELLIPSE
5
1E6
100
AcDbEntity
8
1
62
256
6
ByLayer
370
-1
48
1
60
0
100
AcDbEllipse
10
73.996539
20
13.966991
30
0
11
-0.172437766515787
21
0.281363140228152
31
0
210
0
220
0
230
1
40
0.013865
41
1.56225718306739
42
2.44327850907677
0
ELLIPSE
5
1E7
100
AcDbEntity
8
1
62
256
6
ByLayer
370
-1
48
1
60
0
100
AcDbEllipse
10
64.009267
20
7.600279
30
0
11
-0.166358820486982
21
0.0735665956984486
31
0
210
0
220
0
230
1
40
0.908072
41
0.907720640090889
42
1.85126895869704
0
ELLIPSE
5
1E8
100
AcDbEntity
8
1
62
256
6
ByLayer
370
-1
48
1
60
0
100
AcDbEllipse
10
63.244599
20
7.56351
30
0
11
0.129725038537145
21
-0.00845070272440455
31
0
210
0
220
0
230
1
40
0.965789
41
0.586430508995376
42
1.61848771655673
0
ELLIPSE
5
1E9
100
AcDbEntity
8
1
62
256
6
ByLayer
370
-1
48
1
60
0
100
AcDbEllipse
10
63.724331
20
9.613498
30
0
11
-0.000207326155496936
21
0.89015752469365
31
0
210
0
220
0
230
1
40
0.360082
41
3.11313022187927
42
-2.35360549926315
0
ELLIPSE
5
1EA
100
AcDbEntity
8
1
62
256
6
ByLayer
370
-1
48
1
60
0
100
AcDbEllipse
10
72.941358
20
2.825287
30
0
11
0.0228891020462498
21
-0.329205238426603
31
0
210
0
220
0
230
1
40
0.196789
41
0.821693699628111
42
1.17075955002685
0
ELLIPSE
5
1EB
100
AcDbEntity
8
1
62
256
6
ByLayer
370
-1
48
1
60
0
100
AcDbEllipse
10
67.701173
20
6.343613
30
0
11
0.0357259918071446
21
0.145683401626252
31
0
210
0
220
0
230
1
40
0.046814
41
1.31258632271883
42
1.48711924791771
0
ELLIPSE
5
1EC
100
AcDbEntity
8
1
62
256
6
ByLayer
370
-1
48
1
60
0
100
AcDbEllipse
10
70.219312
20
8.638373
30
0
11
-2.91486949082833
21
0.189883894622031
31
0
210
0
220
0
230
1
40
0.965789
41
-0.59130688192501
42
0
0
ELLIPSE
5
1ED
100
AcDbEntity
8
1
62
256
6
ByLayer
370
-1
48
1
60
0
100
AcDbEllipse
10
70.219312
20
8.638373
30
0
11
-2.91486949082833
21
0.189883894622031
31
0
210
0
220
0
230
1
40
0.965789
41
0
42
0.440412056915356
0
ELLIPSE
5
1EE
100
AcDbEntity
8
1
62
256
6
ByLayer
370
-1
48
1
60
0
100
AcDbEllipse
10
70.219312
20
8.638373
30
0
11
-2.91486949082833
21
0.189883894622031
31
0
210
0
220
0
230
1
40
0.965789
41
2.70108248924326
42
-2.57767685223083
0
ELLIPSE
5
1EF
100
AcDbEntity
8
1
62
256
6
ByLayer
370
-1
48
1
60
0
100
AcDbEllipse
10
73.248392
20
3.337698
30
0
11
-0.206260449892316
21
0.257597800476284
31
0
210
0
220
0
230
1
40
0.301789
41
-2.0276870397459
42
-1.21123745370855
0
ELLIPSE
5
1F0
100
AcDbEntity
8
1
62
256
6
ByLayer
370
-1
48
1
60
0
100
AcDbEllipse
10
62.459289
20
8.811547
30
0
11
-0.0813309789042673
21
0.0359658912313648
31
0
210
0
220
0
230
1
40
0.908072
41
0.907720640104759
42
1.9397778476617
0
ELLIPSE
5
1F1
100
AcDbEntity
8
1
62
256
6
ByLayer
370
-1
48
1
60
0
100
AcDbEllipse
10
67.018886
20
5.42303
30
0
11
-0.12876919934682
21
0.0771501606209825
31
0
210
0
220
0
230
1
40
0.232115
41
-2.1645905534794
42
-1.45206597490115
0
ELLIPSE
5
1F2
100
AcDbEntity
8
1
62
256
6
ByLayer
370
-1
48
1
60
0
100
AcDbEllipse
10
63.684837
20
8.144555
30
0
11
-0.166358820488378
21
0.0735665956971064
31
0
210
0
220
0
230
1
40
0.908072
41
-0.0358276785298206
42
0.907720640076253
0
ELLIPSE
5
1F3
100
AcDbEntity
8
1
62
256
6
ByLayer
370
-1
48
1
60
0
100
AcDbEllipse
10
63.460449
20
9.675195
30
0
11
-0.21023359508877
21
-0.25436555485374
31
0
210
0
220
0
230
1
40
0.325777
41
-1.90870933697281
42
-1.09225975093537
0
ELLIPSE
5
1F4
100
AcDbEntity
8
1
62
256
6
ByLayer
370
-1
48
1
60
0
100
AcDbEllipse
10
70.94343
20
14.386207
30
0
11
0.249471227956048
21
-0.0162513513930857
31
0
210
0
220
0
230
1
40
0.965789
41
2.06109105806586
42
2.1572268357902
0
ELLIPSE
5
1F5
100
AcDbEntity
8
1
62
256
6
ByLayer
370
-1
48
1
60
0
100
AcDbEllipse
10
64.081064
20
9.585376
30
0
11
-1.53630689171057
21
-0.724448865241005
31
0
210
0
220
0
230
1
40
0.188839
41
-0.282355984095108
42
0.319063412216887
0
ELLIPSE
5
1F6
100
AcDbEntity
8
1
62
256
6
ByLayer
370
-1
48
1
60
0
100
AcDbEllipse
10
73.292036
20
3.25875
30
0
11
0.222782340523559
21
0.123158551269671
31
0
210
0
220
0
230
1
40
0.903036
41
1.2831726709192
42
1.58799132119608
0
ELLIPSE
5
1F7
100
AcDbEntity
8
1
62
256
6
ByLayer
370
-1
48
1
60
0
100
AcDbEllipse
10
63.767483
20
9.160105
30
0
11
0.328515456278559
21
0.0312665154133018
31
0
210
0
220
0
230
1
40
0.671
41
-1.85705436438103
42
-1.04060477834368
0
ELLIPSE
5
1F8
100
AcDbEntity
8
1
62
256
6
ByLayer
370
-1
48
1
60
0
100
AcDbEllipse
10
68.96874
20
12.963365
30
0
11
0.125722164389598
21
0.0818164859988194
31
0
210
0
220
0
230
1
40
0.210253
41
1.41488498587113
42
2.12740956439784
0
ELLIPSE
5
1F9
100
AcDbEntity
8
1
62
256
6
ByLayer
370
-1
48
1
60
0
100
AcDbEllipse
10
63.772069
20
9.492875
30
0
11
-0.166646788342777
21
-0.284831262215084
31
0
210
0
220
0
230
1
40
0.020796
41
-1.99154265753829
42
-1.11052133152874
0
ELLIPSE
5
1FA
100
AcDbEntity
8
1
62
256
6
ByLayer
370
-1
48
1
60
0
100
AcDbEllipse
10
64.214334
20
10.824273
30
0
11
-0.336670865981808
21
-0.199900719029784
31
0
210
0
220
0
230
1
40
0.176549
41
1.40038053931806
42
2.39098586531731
0
ELLIPSE
5
1FB
100
AcDbEntity
8
1
62
256
6
ByLayer
370
-1
48
1
60
0
100
AcDbEllipse
10
72.985002
20
2.746339
30
0
11
0.222782340523559
21
0.123158551269671
31
0
210
0
220
0
230
1
40
0.903036
41
2.69625135559555
42
3.00107000587243
0
ELLIPSE
5
1FC
100
AcDbEntity
8
1
62
256
6
ByLayer
370
-1
48
1
60
0
100
AcDbEllipse
10
73.248392
20
3.337698
30
0
11
0.164123276904415
21
-0.286292769692419
31
0
210
0
220
0
230
1
40
0.007386
41
-2.00786484603826
42
-1.1268435200288
0
ELLIPSE
5
1FD
100
AcDbEntity
8
1
62
256
6
ByLayer
370
-1
48
1
60
0
100
AcDbEllipse
10
64.189619
20
10.549209
30
0
11
-0.319437373112233
21
-0.0189674631713365
31
0
210
0
220
0
230
1
40
0.372092
41
1.30555697618074
42
2.47552078441327
0
ELLIPSE
5
1FE
100
AcDbEntity
8
1
62
256
6
ByLayer
370
-1
48
1
60
0
100
AcDbEllipse
10
73.542053
20
2.867053
30
0
11
0.0228891020462498
21
-0.329205238426603
31
0
210
0
220
0
230
1
40
0.196789
41
0.821693699627937
42
1.1707595500269
0
ELLIPSE
5
1FF
100
AcDbEntity
8
1
62
256
6
ByLayer
370
-1
48
1
60
0
100
AcDbEllipse
10
64.189619
20
10.549209
30
0
11
-0.214373568568197
21
-0.237579403777635
31
0
210
0
220
0
230
1
40
0.080191
41
1.11663809063062
42
1.39228185157723
0
ELLIPSE
5
200
100
AcDbEntity
8
1
62
256
6
ByLayer
370
-1
48
1
60
0
100
AcDbEllipse
10
74.999831
20
9.465493
30
0
11
-0.000592402744224295
21
-0.165729211005899
31
0
210
0
220
0
230
1
40
0.014833
41
1.10168084748033
42
1.80726703593128
0
ELLIPSE
5
201
100
AcDbEntity
8
1
62
256
6
ByLayer
370
-1
48
1
60
0
100
AcDbEllipse
10
64.01006
20
10.711229
30
0
11
-0.289259153159851
21
-0.169069487296854
31
0
210
0
220
0
230
1
40
0.207991
41
1.18265417021198
42
1.45829793177608
0
ELLIPSE
5
202
100
AcDbEntity
8
1
62
256
6
ByLayer
370
-1
48
1
60
0
100
AcDbEllipse
10
63.621691
20
7.175216
30
0
11
-0.179619284128355
21
0.0117009730030214
31
0
210
0
220
0
230
1
40
0.965789
41
9.08050307263698E-07
42
0.586430508995377
0
ELLIPSE
5
203
100
AcDbEntity
8
1
62
256
6
ByLayer
370
-1
48
1
60
0
100
AcDbEllipse
10
72.935114
20
3.158105
30
0
11
0.329941928492634
21
0.00619062376193209
31
0
210
0
220
0
230
1
40
0.387666
41
-2.24970494397178
42
-1.36868361796239
0
ELLIPSE
5
204
100
AcDbEntity
8
1
62
256
6
ByLayer
370
-1
48
1
60
0
100
AcDbEllipse
10
72.97502
20
3.278345
30
0
11
-0.00595811942333367
21
0.890176669395301
31
0
210
0
220
0
230
1
40
0.362985
41
2.34793671772706
42
-3.11879900341453
0
ELLIPSE
5
205
100
AcDbEntity
8
1
62
256
6
ByLayer
370
-1
48
1
60
0
100
AcDbEllipse
10
63.409966
20
9.596658
30
0
11
0.214135434812113
21
-0.137644526072875
31
0
210
0
220
0
230
1
40
0.895737
41
1.61758975637605
42
1.92240840665296
0
ELLIPSE
5
206
100
AcDbEntity
8
1
62
256
6
ByLayer
370
-1
48
1
60
0
100
AcDbEllipse
10
70.66482
20
3.373575
30
0
11
-0.152152475735511
21
0.0895179785083457
31
0
210
0
220
0
230
1
40
0.197758
41
-2.41395421089314
42
-1.47147641479633
0
ELLIPSE
5
207
100
AcDbEntity
8
1
62
256
6
ByLayer
370
-1
48
1
60
0
100
AcDbEllipse
10
71.489111
20
2.82471
30
0
11
-0.33580485893398
21
0.201414936973963
31
0
210
0
220
0
230
1
40
0.189826
41
0.727550146212982
42
1.71815547221407
0
ELLIPSE
5
208
100
AcDbEntity
8
1
62
256
6
ByLayer
370
-1
48
1
60
0
100
AcDbEllipse
10
71.742971
20
2.932986
30
0
11
0.312377620717914
21
-0.0694278191693724
31
0
210
0
220
0
230
1
40
0.335766
41
-1.55801442581503
42
-1.2823706648683
0
ELLIPSE
5
209
100
AcDbEntity
8
1
62
256
6
ByLayer
370
-1
48
1
60
0
100
AcDbEllipse
10
63.767483
20
9.160105
30
0
11
-0.329968661514939
21
0.00454779265573912
31
0
210
0
220
0
230
1
40
0.388155
41
1.33335276074511
42
2.21437408675449
0
ELLIPSE
5
20A
100
AcDbEntity
8
1
62
256
6
ByLayer
370
-1
48
1
60
0
100
AcDbEllipse
10
63.171429
20
9.207093
30
0
11
-0.280790684040503
21
0.173368370114235
31
0
210
0
220
0
230
1
40
0.444526
41
1.21365952070713
42
1.56272537110594
0
ELLIPSE
5
20B
100
AcDbEntity
8
1
62
256
6
ByLayer
370
-1
48
1
60
0
100
AcDbEllipse
10
70.801281
20
14.58948
30
0
11
-0.283033031876576
21
0.00090522292746495
31
0
210
0
220
0
230
1
40
0.13718
41
-2.52176974041494
42
-2.09519462534688
0
ELLIPSE
5
20C
100
AcDbEntity
8
1
62
256
6
ByLayer
370
-1
48
1
60
0
100
AcDbEllipse
10
65.049373
20
11.365898
30
0
11
-0.15230032124541
21
-0.0888973533456205
31
0
210
0
220
0
230
1
40
0.184283
41
-1.69445883678253
42
-0.751981040693933
0
ELLIPSE
5
20D
100
AcDbEntity
8
1
62
256
6
ByLayer
370
-1
48
1
60
0
100
AcDbEllipse
10
64.189619
20
10.549209
30
0
11
0.3187160302586
21
-0.0286372494523999
31
0
210
0
220
0
230
1
40
0.189541
41
-1.6144042886022
42
-0.623798962615098
0
ELLIPSE
5
20E
100
AcDbEntity
8
1
62
256
6
ByLayer
370
-1
48
1
60
0
100
AcDbEllipse
10
62.392761
20
7.790283
30
0
11
-0.0878138722405289
21
0.00572047569036602
31
0
210
0
220
0
230
1
40
0.965789
41
0.586430508995436
42
1.61848771655683
0
ELLIPSE
5
20F
100
AcDbEntity
8
1
62
256
6
ByLayer
370
-1
48
1
60
0
100
AcDbEllipse
10
62.45725
20
8.814967
30
0
11
-0.0813309789035101
21
0.035965891231353
31
0
210
0
220
0
230
1
40
0.908072
41
-0.124336567458295
42
0.907720640105727
0
ELLIPSE
5
210
100
AcDbEntity
8
1
62
256
6
ByLayer
370
-1
48
1
60
0
100
AcDbEllipse
10
68.129793
20
12.131521
30
0
11
0.0824075344049275
21
0.125335542737488
31
0
210
0
220
0
230
1
40
0.131471
41
0.637761892177009
42
1.34334808187597
0
ELLIPSE
5
211
100
AcDbEntity
8
1
62
256
6
ByLayer
370
-1
48
1
60
0
100
AcDbEllipse
10
74.999831
20
7.969559
30
0
11
-0.000654095719536445
21
-0.150104692616456
31
0
210
0
220
0
230
1
40
0.016273
41
1.83244169677659
42
2.54496627470252
0
ELLIPSE
5
212
100
AcDbEntity
8
1
62
256
6
ByLayer
370
-1
48
1
60
0
100
AcDbEllipse
10
72.615509
20
3.253349
30
0
11
-1.55232594750387
21
0.738057643135952
31
0
210
0
220
0
230
1
40
0.185907
41
2.82298096078495
42
-2.85878495008939
0
ELLIPSE
5
213
100
AcDbEntity
8
1
62
256
6
ByLayer
370
-1
48
1
60
0
100
AcDbEllipse
10
63.460449
20
9.675195
30
0
11
-0.280790684040503
21
0.173368370114235
31
0
210
0
220
0
230
1
40
0.444526
41
1.21365952070708
42
1.56272537110594
0
ELLIPSE
5
214
100
AcDbEntity
8
1
62
256
6
ByLayer
370
-1
48
1
60
0
100
AcDbEllipse
10
74.994457
20
13.107527
30
0
11
-0.00147399352447187
21
-0.337784715489314
31
0
210
0
220
0
230
1
40
0.015426
41
-1.57076266113193
42
-1.29511890961087
0
ELLIPSE
5
215
100
AcDbEntity
8
1
62
256
6
ByLayer
370
-1
48
1
60
0
100
AcDbEllipse
10
74.254304
20
2.465291
30
0
11
-0.0842609164770626
21
-0.0290942334838937
31
0
210
0
220
0
230
1
40
0.911082
41
1.28340322778427
42
2.31546043533215
0
ELLIPSE
5
216
100
AcDbEntity
8
1
62
256
6
ByLayer
370
-1
48
1
60
0
100
AcDbEllipse
10
72.978758
20
3.079157
30
0
11
0.222782340523559
21
0.123158551269671
31
0
210
0
220
0
230
1
40
0.903036
41
1.58799132119603
42
2.69625135559558
0
ELLIPSE
5
217
100
AcDbEntity
8
1
62
256
6
ByLayer
370
-1
48
1
60
0
100
AcDbEllipse
10
74.533273
20
4.775482
30
0
11
-0.352978025593553
21
-0.614491679964514
31
0
210
0
220
0
230
1
40
0.052277
41
1.53890582523278
42
2.40183947121478
0
ELLIPSE
5
218
100
AcDbEntity
8
1
62
256
6
ByLayer
370
-1
48
1
60
0
100
AcDbEllipse
10
72.935114
20
3.158105
30
0
11
-0.164123276904415
21
0.286292769692419
31
0
210
0
220
0
230
1
40
0.007386
41
1.13372780755153
42
2.0147491335585
0
ELLIPSE
5
219
100
AcDbEntity
8
1
62
256
6
ByLayer
370
-1
48
1
60
0
100
AcDbEllipse
10
73.369017
20
14.843767
30
0
11
-0.000586137679505378
21
-0.134584627016524
31
0
210
0
220
0
230
1
40
0.965798
41
-8.31103716308025E-06
42
1.03204889650821
0
ELLIPSE
5
21A
100
AcDbEntity
8
1
62
256
6
ByLayer
370
-1
48
1
60
0
100
AcDbEllipse
10
72.184428
20
14.717999
30
0
11
-0.000811575257945161
21
-0.186347945098377
31
0
210
0
220
0
230
1
40
0.965798
41
3.1415843426012
42
-2.19805264597875
0
ELLIPSE
5
21B
100
AcDbEntity
8
1
62
256
6
ByLayer
370
-1
48
1
60
0
100
AcDbEllipse
10
73.125021
20
14.844831
30
0
11
-0.000586137731008319
21
-0.13458462701614
31
0
210
0
220
0
230
1
40
0.965798
41
-0.94355662926516
42
-8.31066886191327E-06
0
ELLIPSE
5
21C
100
AcDbEntity
8
1
62
256
6
ByLayer
370
-1
48
1
60
0
100
AcDbEllipse
10
74.187776
20
1.444027
30
0
11
-0.0878138722405259
21
0.00572047569036583
31
0
210
0
220
0
230
1
40
0.965789
41
1.64876840382731
42
2.68082561138854
0
ELLIPSE
5
21D
100
AcDbEntity
8
1
62
256
6
ByLayer
370
-1
48
1
60
0
100
AcDbEllipse
10
73.248392
20
3.337698
30
0
11
0.279970847001602
21
0.174689223563463
31
0
210
0
220
0
230
1
40
0.429075
41
-1.59348664827039
42
-1.24442079787153
0
ELLIPSE
5
21E
100
AcDbEntity
8
1
62
256
6
ByLayer
370
-1
48
1
60
0
100
AcDbEllipse
10
63.717
20
9.081568
30
0
11
0.214135434812113
21
-0.137644526072875
31
0
210
0
220
0
230
1
40
0.895737
41
0.204511071699704
42
0.509329721976575
0
ELLIPSE
5
21F
100
AcDbEntity
8
1
62
256
6
ByLayer
370
-1
48
1
60
0
100
AcDbEllipse
10
63.433217
20
10.084554
30
0
11
-0.231053917342047
21
0.102175827379924
31
0
210
0
220
0
230
1
40
0.908072
41
-0.663075686623696
42
-0.124336567400093
0
ELLIPSE
5
220
100
AcDbEntity
8
1
62
256
6
ByLayer
370
-1
48
1
60
0
100
AcDbEllipse
10
70.223552
20
8.703454
30
0
11
-3.00359442768437
21
0.195663719966983
31
0
210
0
220
0
230
1
40
0.965789
41
-1.09248911100415
42
0
0
ELLIPSE
5
221
100
AcDbEntity
8
1
62
256
6
ByLayer
370
-1
48
1
60
0
100
AcDbEllipse
10
70.223552
20
8.703454
30
0
11
-3.00359442768437
21
0.195663719966983
31
0
210
0
220
0
230
1
40
0.965789
41
0
42
0.220206031232929
0
ELLIPSE
5
222
100
AcDbEntity
8
1
62
256
6
ByLayer
370
-1
48
1
60
0
100
AcDbEllipse
10
70.223552
20
8.703454
30
0
11
-3.00359442768437
21
0.195663719966983
31
0
210
0
220
0
230
1
40
0.965789
41
2.92128823926725
42
-2.07953834765509
0
ELLIPSE
5
223
100
AcDbEntity
8
1
62
256
6
ByLayer
370
-1
48
1
60
0
100
AcDbEllipse
10
72.791263
20
2.971672
30
0
11
-0.837564038350031
21
-0.479739159381169
31
0
210
0
220
0
230
1
40
0.308746
41
-3.12995290557926
42
-2.31350331953886
0
ELLIPSE
5
224
100
AcDbEntity
8
1
62
256
6
ByLayer
370
-1
48
1
60
0
100
AcDbEllipse
10
73.997706
20
15.485339
30
0
11
-0.000396770114492651
21
-0.0911034398271911
31
0
210
0
220
0
230
1
40
0.965798
41
3.14158434247853
42
-2.10954375715968
0
ELLIPSE
5
225
100
AcDbEntity
8
1
62
256
6
ByLayer
370
-1
48
1
60
0
100
AcDbEllipse
10
73.991235
20
13.534955
30
0
11
-0.00804175809663201
21
-1.84310051253528
31
0
210
0
220
0
230
1
40
0.179021
41
2.84088284843066
42
-2.84088306243973
0
ELLIPSE
5
226
100
AcDbEntity
8
1
62
256
6
ByLayer
370
-1
48
1
60
0
100
AcDbEllipse
10
73.542053
20
2.867053
30
0
11
0.279970847001602
21
0.174689223563463
31
0
210
0
220
0
230
1
40
0.429075
41
-1.59348664827052
42
-1.24442079787162
0
ELLIPSE
5
227
100
AcDbEntity
8
1
62
256
6
ByLayer
370
-1
48
1
60
0
100
AcDbEllipse
10
71.742971
20
2.932986
30
0
11
-0.125543597399466
21
0.294344704644063
31
0
210
0
220
0
230
1
40
0.19293
41
0.864332537322345
42
1.85493786330976
0
ELLIPSE
5
228
100
AcDbEntity
8
1
62
256
6
ByLayer
370
-1
48
1
60
0
100
AcDbEllipse
10
63.772069
20
9.492875
30
0
11
0.329968661514939
21
-0.00454779265573931
31
0
210
0
220
0
230
1
40
0.388155
41
-1.80823989284471
42
-0.92721856683529
0
ELLIPSE
5
229
100
AcDbEntity
8
1
62
256
6
ByLayer
370
-1
48
1
60
0
100
AcDbEllipse
10
75.12537
20
1.267706
30
0
11
0.00693407685584032
21
-1.4096829461188
31
0
210
0
220
0
230
1
40
0.052006
41
-1.83287963693165
42
-0.785682085735028
0
ELLIPSE
5
22A
100
AcDbEntity
8
1
62
256
6
ByLayer
370
-1
48
1
60
0
100
AcDbEllipse
10
75.12537
20
1.267706
30
0
11
0.00693407685584032
21
-1.4096829461188
31
0
210
0
220
0
230
1
40
0.052006
41
-2.88007718812826
42
-1.83287963693165
0
ELLIPSE
5
22B
100
AcDbEntity
8
1
62
256
6
ByLayer
370
-1
48
1
60
0
100
AcDbEllipse
10
75.12537
20
1.267706
30
0
11
0.00693407685584032
21
-1.4096829461188
31
0
210
0
220
0
230
1
40
0.052006
41
0.26151546546154
42
1.30871301665819
0
ELLIPSE
5
22C
100
AcDbEntity
8
1
62
256
6
ByLayer
370
-1
48
1
60
0
100
AcDbEllipse
10
75.12537
20
1.267706
30
0
11
0.00693407685584032
21
-1.4096829461188
31
0
210
0
220
0
230
1
40
0.052006
41
2.35591056785461
42
-2.88007718812826
0
ELLIPSE
5
22D
100
AcDbEntity
8
1
62
256
6
ByLayer
370
-1
48
1
60
0
100
AcDbEllipse
10
75.12537
20
1.267706
30
0
11
0.00693407685584032
21
-1.4096829461188
31
0
210
0
220
0
230
1
40
0.052006
41
1.30871301665819
42
2.35591056785461
0
ELLIPSE
5
22E
100
AcDbEntity
8
1
62
256
6
ByLayer
370
-1
48
1
60
0
100
AcDbEllipse
10
75.12537
20
1.267706
30
0
11
0.00693407685584032
21
-1.4096829461188
31
0
210
0
220
0
230
1
40
0.052006
41
-0.785682085735028
42
0.26151546546154
0
ELLIPSE
5
22F
100
AcDbEntity
8
1
62
256
6
ByLayer
370
-1
48
1
60
0
100
AcDbEllipse
10
74.026871
20
1.262303
30
0
11
-0.0152483778485525
21
3.09996249767203
31
0
210
0
220
0
230
1
40
0.052006
41
1.57054039011302
42
1.57486007868976
0
ELLIPSE
5
230
100
AcDbEntity
8
1
62
256
6
ByLayer
370
-1
48
1
60
0
100
AcDbEllipse
10
74.026871
20
1.262303
30
0
11
-0.0152483778485525
21
3.09996249767203
31
0
210
0
220
0
230
1
40
0.052006
41
1.54049899354178
42
1.57054039011302
0
ELLIPSE
5
231
100
AcDbEntity
8
1
62
256
6
ByLayer
370
-1
48
1
60
0
100
AcDbEllipse
10
75.12537
20
1.267706
30
0
11
-0.00836201365888362
21
1.69997943420724
31
0
210
0
220
0
230
1
40
0.052006
41
0
42
6.28318530717959
0
ELLIPSE
5
232
100
AcDbEntity
8
1
62
256
6
ByLayer
370
-1
48
1
60
0
100
AcDbEllipse
10
70.227432
20
8.699276
30
0
11
-2.71822297044151
21
0.19206478845474
31
0
210
0
220
0
230
1
40
0.965764
41
0
42
3.14149459685375
0
ELLIPSE
5
233
100
AcDbEntity
8
1
62
256
6
ByLayer
370
-1
48
1
60
0
100
AcDbEllipse
10
70.250079
20
9.019799
30
0
11
-2.71822297044151
21
0.19206478845474
31
0
210
0
220
0
230
1
40
0.965764
41
0
42
6.28318530717959
0
ELLIPSE
5
234
100
AcDbEntity
8
1
62
256
6
ByLayer
370
-1
48
1
60
0
100
AcDbEllipse
10
70.251202
20
9.035684
30
0
11
-1.79552343001641
21
0.126868484116893
31
0
210
0
220
0
230
1
40
0.965764
41
0
42
6.28318530717959
0
POINT
5
41
100
AcDbEntity
8
80
62
256
6
ByLayer
370
-1
48
1
60
0
100
AcDbPoint
10
0
20
0
30
0
39
0
210
0
220
0
230
1
50
360
0
POINT
5
43
100
AcDbEntity
8
81
62
256
6
ByLayer
370
-1
48
1
60
0
100
AcDbPoint
10
75
20
16.875
30
0
39
0
210
0
220
0
230
1
50
360
0
POINT
5
45
100
AcDbEntity
8
2
62
256
6
ByLayer
370
-1
48
1
60
0
100
AcDbPoint
10
75
20
16.875
30
0
39
0
210
0
220
0
230
1
50
360
0
POINT
5
47
100
AcDbEntity
8
1
62
256
6
ByLayer
370
-1
48
1
60
0
100
AcDbPoint
10
75.005843
20
16.911222
30
0
39
0
210
0
220
0
230
1
50
360
0
POINT
5
49
100
AcDbEntity
8
1
62
256
6
ByLayer
370
-1
48
1
60
0
100
AcDbPoint
10
75.005843
20
16.911222
30
0
39
0
210
0
220
0
230
1
50
360
0
POINT
5
4A
100
AcDbEntity
8
1
62
256
6
ByLayer
370
-1
48
1
60
0
100
AcDbPoint
10
74.000142
20
15.576468
30
0
39
0
210
0
220
0
230
1
50
360
0
SPLINE
5
235
100
AcDbEntity
8
1
62
256
6
ByLayer
370
-1
48
1
60
0
100
AcDbSpline
70
4
71
1
72
4
73
2
40
0
40
0
40
1
40
1
41
1
10
65.7193348472747
20
12.202101014846
30
0
41
1
10
65.6106558379374
20
11.7139269797371
30
0
0
SPLINE
5
236
100
AcDbEntity
8
1
62
256
6
ByLayer
370
-1
48
1
60
0
100
AcDbSpline
70
4
71
3
72
11
73
7
40
0
40
0
40
0
40
0
40
0.226188693909889
40
0.588397116284296
40
0.934058373065562
40
1
40
1
40
1
40
1
41
1
10
74.6567706825985
20
3.73402081509809
30
0
41
1
10
74.7000468378789
20
3.6795369488737
30
0
41
1
10
74.8082462206651
20
3.53425237157236
30
0
41
1
10
74.9613117775958
20
3.2912005754639
30
0
41
1
10
75.074622503908
20
3.08117586199557
30
0
41
1
10
75.1225268045681
20
2.96410371312419
30
0
41
1
10
75.129979970522
20
2.94524179881285
30
0
0
SPLINE
5
237
100
AcDbEntity
8
1
62
256
6
ByLayer
370
-1
48
1
60
0
100
AcDbSpline
70
4
71
3
72
11
73
7
40
0
40
0
40
0
40
0
40
0.204716263060479
40
0.480372157913319
40
0.775129742537838
40
1
40
1
40
1
40
1
41
1
10
75.1421444500035
20
-0.41360327881219
30
0
41
1
10
75.1091463027919
20
-0.495588557027389
30
0
41
1
10
75.0240416014078
20
-0.68387605895245
30
0
41
1
10
74.8533324900172
20
-0.971439775321699
30
0
41
1
10
74.6519764679419
20
-1.2492110871645
30
0
41
1
10
74.5023329235771
20
-1.41528140613625
30
0
41
1
10
74.4354514200221
20
-1.48540686601388
30
0
0
SPLINE
5
238
100
AcDbEntity
8
SK1
62
256
6
ByLayer
370
-1
48
1
60
0
100
AcDbSpline
70
4
71
2
72
6
73
3
40
0
40
0
40
0
40
1
40
1
40
1
41
1
10
-2.19492488857412
20
22.0202267269672
30
0
41
1
10
-2.59746244428706
20
22.0101135822509
30
0
41
1
10
-3
20
22.0000004375346
30
0
0
SPLINE
5
239
100
AcDbEntity
8
SK1
62
256
6
ByLayer
370
-1
48
1
60
0
100
AcDbSpline
70
4
71
2
72
6
73
3
40
0
40
0
40
0
40
1
40
1
40
1
41
1
10
-3
20
-22.0000004290441
30
0
41
1
10
-2.59746244428706
20
-22.0101135737565
30
0
41
1
10
-2.19492488857412
20
-22.0202267184689
30
0
0
SPLINE
5
23A
100
AcDbEntity
8
SK1
62
256
6
ByLayer
370
-1
48
1
60
0
100
AcDbSpline
70
4
71
2
72
6
73
3
40
0
40
0
40
0
40
1
40
1
40
1
41
1
10
-3
20
22.0000004375346
30
0
41
1
10
-19.7502365839533
20
21.5791761834949
30
0
41
1
10
-36.5004731679067
20
21.1583519294552
30
0
0
SPLINE
5
23B
100
AcDbEntity
8
SK1
62
256
6
ByLayer
370
-1
48
1
60
0
100
AcDbSpline
70
4
71
2
72
6
73
3
40
0
40
0
40
0
40
1
40
1
40
1
41
1
10
-36.5004731679067
20
-21.1583519212896
30
0
41
1
10
-19.7502365839533
20
-21.5791761751668
30
0
41
1
10
-3
20
-22.0000004290441
30
0
0
SPLINE
5
23C
100
AcDbEntity
8
SK1
62
256
6
ByLayer
370
-1
48
1
60
0
100
AcDbSpline
70
4
71
3
72
13
73
9
40
0
40
0
40
0
40
0
40
0.239458034039712
40
0.368362242523299
40
0.500001719408294
40
0.631640907399736
40
0.760544321541715
40
1
40
1
40
1
40
1
41
1
10
-2
20
21.8251283317571
30
0
41
1
10
-2.02607218220658
20
21.8253815759776
30
0
41
1
10
-2.06363558166035
20
21.832499461233
30
0
41
1
10
-2.11047835037542
20
21.8567272581279
30
0
41
1
10
-2.14242263587786
20
21.8827049843059
30
0
41
1
10
-2.16840067179331
20
21.9146489043199
30
0
41
1
10
-2.19262875645049
20
21.9614911190379
30
0
41
1
10
-2.19974671976326
20
21.9990541435572
30
0
41
1
10
-2.20000000000002
20
22.0251260837646
30
0
0
SPLINE
5
23D
100
AcDbEntity
8
SK1
62
256
6
ByLayer
370
-1
48
1
60
0
100
AcDbSpline
70
4
71
3
72
13
73
9
40
0
40
0
40
0
40
0
40
0.239455673358841
40
0.36835908713658
40
0.499998275767174
40
0.631637753936882
40
0.760541963956581
40
1
40
1
40
1
40
1
41
1
10
-2.20000000000002
20
-22.0251260775077
30
0
41
1
10
-2.19974671959665
20
-21.9990541369823
30
0
41
1
10
-2.192628756261
20
-21.9614911120955
30
0
41
1
10
-2.16840067169747
20
-21.9146488976998
30
0
41
1
10
-2.14242263580763
20
-21.8827049776713
30
0
41
1
10
-2.11047835033028
20
-21.8567272514908
30
0
41
1
10
-2.06363558177699
20
-21.8324994546095
30
0
41
1
10
-2.02607218225586
20
-21.8253815693237
30
0
41
1
10
-2
20
-21.8251283250689
30
0
0
SPLINE
5
23E
100
AcDbEntity
8
SK1
62
256
6
ByLayer
370
-1
48
1
60
0
100
AcDbSpline
70
4
71
2
72
6
73
3
40
0
40
0
40
0
40
1
40
1
40
1
41
1
10
-2
20
-21.8251283250689
30
0
41
1
10
-1.20000000000002
20
-21.8251283250689
30
0
41
1
10
-0.400000000000006
20
-21.8251283250689
30
0
0
SPLINE
5
23F
100
AcDbEntity
8
SK1
62
256
6
ByLayer
370
-1
48
1
60
0
100
AcDbSpline
70
4
71
2
72
6
73
3
40
0
40
0
40
0
40
1
40
1
40
1
41
1
10
-0.400000000000006
20
21.8251283317571
30
0
41
1
10
-1.20000000000002
20
21.8251283317571
30
0
41
1
10
-2
20
21.8251283317571
30
0
0
SPLINE
5
240
100
AcDbEntity
8
SK1
62
256
6
ByLayer
370
-1
48
1
60
0
100
AcDbSpline
70
4
71
2
72
6
73
3
40
0
40
0
40
0
40
1
40
1
40
1
41
1
10
-36.5004321682704
20
21.1581061531923
30
0
41
1
10
-37.250216097561
20
20.6997323883077
30
0
41
1
10
-38
20
20.2413583528791
30
0
0
SPLINE
5
241
100
AcDbEntity
8
SK1
62
256
6
ByLayer
370
-1
48
1
60
0
100
AcDbSpline
70
4
71
2
72
6
73
3
40
0
40
0
40
0
40
1
40
1
40
1
41
1
10
-38
20
-20.2397162883162
30
0
41
1
10
-37.2502068935607
20
-20.6982812567361
30
0
41
1
10
-36.500413873027
20
-21.1568446673342
30
0
0
SPLINE
5
242
100
AcDbEntity
8
SK1
62
256
6
ByLayer
370
-1
48
1
60
0
100
AcDbSpline
70
4
71
3
72
19
73
15
40
0
40
0
40
0
40
0
40
0.0583294582142446
40
0.0700676389612778
40
0.0803468174284204
40
0.0897132977641172
40
0.0944696439783045
40
0.0995461499988232
40
0.111500524669673
40
0.127147414527457
40
0.205814422306269
40
0.338157638449729
40
0.6799196435097
40
1
40
1
40
1
40
1
41
1
10
-0.400000000000006
20
-21.8251283250689
30
0
41
1
10
-0.390604659320673
20
-21.8244677899363
30
0
41
1
10
-0.375777363920463
20
-21.8259169436384
30
0
41
1
10
-0.354943830050132
20
-21.8301137148394
30
0
41
1
10
-0.345440403126929
20
-21.8325381196933
30
0
41
1
10
-0.337132470978986
20
-21.8351212756371
30
0
41
1
10
-0.330841884880783
20
-21.8373541813163
30
0
41
1
10
-0.324198234908096
20
-21.8399062309899
30
0
41
1
10
-0.315895825850617
20
-21.8435129828514
30
0
41
1
10
-0.296187745910942
20
-21.8533632453144
30
0
41
1
10
-0.276517312147348
20
-21.8672408094774
30
0
41
1
10
-0.245960081311352
20
-21.893334198965
30
0
41
1
10
-0.224260757337106
20
-21.9218194552531
30
0
41
1
10
-0.213207332795548
20
-21.9390593329063
30
0
41
1
10
-0.21100328279698
20
-21.9455602473069
30
0
0
SPLINE
5
243
100
AcDbEntity
8
SK1
62
256
6
ByLayer
370
-1
48
1
60
0
100
AcDbSpline
70
4
71
3
72
21
73
17
40
0
40
0
40
0
40
0
40
0.263923609093641
40
0.540996754349961
40
0.703854398135008
40
0.745322395233588
40
0.757977200375396
40
0.76272685869387
40
0.766717646458995
40
0.770295107970976
40
0.773869873681294
40
0.777805000581641
40
0.782337921728472
40
0.807900917028639
40
0.891793249709244
40
1
40
1
40
1
40
1
41
1
10
-0.206015330054527
20
21.9638929357849
30
0
41
1
10
-0.207118380959258
20
21.960858068933
30
0
41
1
10
-0.212992891244085
20
21.9495222510664
30
0
41
1
10
-0.227101890212111
20
21.9236531786202
30
0
41
1
10
-0.245554493489919
20
21.8956368355428
30
0
41
1
10
-0.26782248640481
20
21.8729536737536
30
0
41
1
10
-0.27967228922742
20
21.8632984847148
30
0
41
1
10
-0.285884984368664
20
21.8587638741999
30
0
41
1
10
-0.290271368208181
20
21.8557616123155
30
0
41
1
10
-0.294839670843487
20
21.8528389024112
30
0
41
1
10
-0.299438538164623
20
21.8500967243496
30
0
41
1
10
-0.303963380402763
20
21.8475818371044
30
0
41
1
10
-0.315037133432725
20
21.8418614936911
30
0
41
1
10
-0.339272370106272
20
21.8323057881971
30
0
41
1
10
-0.366934076935536
20
21.8269525193066
30
0
41
1
10
-0.390048069436887
20
21.8242656569877
30
0
41
1
10
-0.400000000000006
20
21.8251283317571
30
0
0
SPLINE
5
244
100
AcDbEntity
8
1
62
256
6
ByLayer
370
-1
48
1
60
0
100
AcDbSpline
70
4
71
3
72
16
73
12
40
0
40
0
40
0
40
0
40
0.270525378058593
40
0.270525378058593
40
0.599384185955625
40
0.599384185955625
40
0.762140188651944
40
0.762140188651944
40
0.896616864840276
40
0.896616864840276
40
1
40
1
40
1
40
1
41
1
10
13.8943375672974
20
29.9139548464691
30
0
41
1
10
13.8776365922086
20
29.9340973114522
30
0
41
1
10
13.8572362209579
20
29.9538166638149
30
0
41
1
10
13.8009393101033
20
29.9958084253268
30
0
41
1
10
13.7623213481302
20
30.0181074912897
30
0
41
1
10
13.6864544953215
20
30.0467588108259
30
0
41
1
10
13.6578252730083
20
30.0555916882576
30
0
41
1
10
13.5987984461957
20
30.0688029947856
30
0
41
1
10
13.5689448142149
20
30.0737774310785
30
0
41
1
10
13.5129283913933
20
30.0792804002415
30
0
41
1
10
13.4869872498695
20
30.0805927603169
30
0
41
1
10
13.4613248654052
20
30.0805927603169
30
0
0
SPLINE
5
245
100
AcDbEntity
8
1
62
256
6
ByLayer
370
-1
48
1
60
0
100
AcDbSpline
70
4
71
3
72
18
73
14
40
0
40
0
40
0
40
0
40
0.0048641047854146
40
0.0048641047854146
40
0.113203312756797
40
0.113203312756797
40
0.252307002956716
40
0.252307002956716
40
0.472239664393974
40
0.472239664393974
40
0.894682818087995
40
0.894682818087995
40
1
40
1
40
1
40
1
41
1
10
10.5386751345948
20
-9.34922131452504
30
0
41
1
10
10.5374517449547
20
-9.34922131452504
30
0
41
1
10
10.5362283172892
20
-9.34923052903073
30
0
41
1
10
10.5081150012137
20
-9.34965397724795
30
0
41
1
10
10.4809957906555
20
-9.354712145283
30
0
41
1
10
10.4232970512377
20
-9.37464954573258
30
0
41
1
10
10.3929559316024
20
-9.39202437584845
30
0
41
1
10
10.3234057971774
20
-9.44473147370712
30
0
41
1
10
10.2875093950934
20
-9.48529706929932
30
0
41
1
10
10.1989273616436
20
-9.61035706938748
30
0
41
1
10
10.1580217765465
20
-9.70372859127181
30
0
41
1
10
10.1193258147041
20
-9.82167814889502
30
0
41
1
10
10.1122083227876
20
-9.84548375806278
30
0
41
1
10
10.1056624327026
20
-9.86941261896612
30
0
0
SPLINE
5
246
100
AcDbEntity
8
1
62
256
6
ByLayer
370
-1
48
1
60
0
100
AcDbSpline
70
4
71
2
72
6
73
3
40
0
40
0
40
0
40
1
40
1
40
1
41
0.499999874994453
10
57.65197167883
20
12.4459414263048
30
0
41
0.500000125005547
10
57.2825801315321
20
12.4453243928264
30
0
41
0.499999874994453
10
56.913334238671
20
12.4447003320382
30
0
0
SPLINE
5
247
100
AcDbEntity
8
1
62
256
6
ByLayer
370
-1
48
1
60
0
100
AcDbSpline
70
4
71
3
72
8
73
4
40
0
40
0
40
0
40
0
40
1
40
1
40
1
40
1
41
1
10
57.7780668809284
20
-1.16018080074136
30
0
41
1
10
57.7375553345479
20
-1.10972131562318
30
0
41
1
10
57.6955060868953
20
-1.06026087142524
30
0
41
1
10
57.6519716788307
20
-1.01250880251743
30
0
0
SPLINE
5
248
100
AcDbEntity
8
1
62
256
6
ByLayer
370
-1
48
1
60
0
100
AcDbSpline
70
4
71
3
72
18
73
14
40
0
40
0
40
0
40
0
40
0.0048641047853794
40
0.0048641047853794
40
0.113203312756778
40
0.113203312756778
40
0.252307002956694
40
0.252307002956694
40
0.472239664393917
40
0.472239664393917
40
0.894682818087876
40
0.894682818087876
40
1
40
1
40
1
40
1
41
1
10
13.4613248654052
20
9.34922131452504
30
0
41
1
10
13.4625482550453
20
9.34922131452504
30
0
41
1
10
13.4637716827108
20
9.34923052903076
30
0
41
1
10
13.4918849987862
20
9.34965397724795
30
0
41
1
10
13.5190042093444
20
9.354712145283
30
0
41
1
10
13.5767029487623
20
9.37464954573258
30
0
41
1
10
13.6070440683975
20
9.39202437584845
30
0
41
1
10
13.6765942028226
20
9.44473147370712
30
0
41
1
10
13.7124906049065
20
9.48529706929929
30
0
41
1
10
13.8010726383563
20
9.61035706938739
30
0
41
1
10
13.8419782234534
20
9.70372859127173
30
0
41
1
10
13.8806741852959
20
9.82167814889493
30
0
41
1
10
13.8877916772123
20
9.84548375806273
30
0
41
1
10
13.8943375672974
20
9.86941261896609
30
0
0
SPLINE
5
249
100
AcDbEntity
8
1
62
256
6
ByLayer
370
-1
48
1
60
0
100
AcDbSpline
70
4
71
3
72
8
73
4
40
0
40
0
40
0
40
0
40
1
40
1
40
1
40
1
41
1
10
58.8630960439677
20
13.4710101075813
30
0
41
1
10
58.7830344829273
20
13.3938906700133
30
0
41
1
10
58.7103531352396
20
13.316588098424
30
0
41
1
10
58.6454712334458
20
13.2390919898973
30
0
0
SPLINE
5
24A
100
AcDbEntity
8
1
62
256
6
ByLayer
370
-1
48
1
60
0
100
AcDbSpline
70
4
71
3
72
16
73
12
40
0
40
0
40
0
40
0
40
0.270525378058565
40
0.270525378058565
40
0.599384185955612
40
0.599384185955612
40
0.76214018865193
40
0.76214018865193
40
0.896616864840277
40
0.896616864840277
40
1
40
1
40
1
40
1
41
1
10
13.8943375672974
20
-9.86941261896609
30
0
41
1
10
13.8776365922086
20
-9.80836128680863
30
0
41
1
10
13.8572362209579
20
-9.7479555758492
30
0
41
1
10
13.8009393101034
20
-9.61806206841851
30
0
41
1
10
13.7623213481302
20
-9.54815463560524
30
0
41
1
10
13.6864544953215
20
-9.45744596321492
30
0
41
1
10
13.6578252730083
20
-9.42931579222241
30
0
41
1
10
13.5987984461957
20
-9.38709146615406
30
0
41
1
10
13.5689448142149
20
-9.37112695979135
30
0
41
1
10
13.5129283913933
20
-9.35344618198363
30
0
41
1
10
13.4869872498695
20
-9.34922131452504
30
0
41
1
10
13.4613248654052
20
-9.34922131452504
30
0
0
SPLINE
5
24B
100
AcDbEntity
8
1
62
256
6
ByLayer
370
-1
48
1
60
0
100
AcDbSpline
70
4
71
3
72
16
73
12
40
0
40
0
40
0
40
0
40
0.270525378058462
40
0.270525378058462
40
0.599384185955601
40
0.599384185955601
40
0.762140188651907
40
0.762140188651907
40
0.896616864840264
40
0.896616864840264
40
1
40
1
40
1
40
1
41
1
10
10.1056624327026
20
9.86941261896612
30
0
41
1
10
10.1223634077914
20
9.80836128680866
30
0
41
1
10
10.1427637790421
20
9.74795557584926
30
0
41
1
10
10.1990606898966
20
9.61806206841857
30
0
41
1
10
10.2376786518697
20
9.54815463560527
30
0
41
1
10
10.3135455046785
20
9.45744596321495
30
0
41
1
10
10.3421747269917
20
9.42931579222244
30
0
41
1
10
10.4012015538043
20
9.38709146615406
30
0
41
1
10
10.4310551857851
20
9.37112695979135
30
0
41
1
10
10.4870716086066
20
9.35344618198363
30
0
41
1
10
10.5130127501305
20
9.34922131452504
30
0
41
1
10
10.5386751345948
20
9.34922131452504
30
0
0
SPLINE
5
24C
100
AcDbEntity
8
1
62
256
6
ByLayer
370
-1
48
1
60
0
100
AcDbSpline
70
4
71
3
72
16
73
12
40
0
40
0
40
0
40
0
40
0.270525378058744
40
0.270525378058744
40
0.599384185955696
40
0.599384185955696
40
0.762140188652004
40
0.762140188652004
40
0.896616864840327
40
0.896616864840327
40
1
40
1
40
1
40
1
41
1
10
10.1056624327026
20
-29.9139548464691
30
0
41
1
10
10.1223634077914
20
-29.9340973114522
30
0
41
1
10
10.1427637790421
20
-29.9538166638149
30
0
41
1
10
10.1990606898967
20
-29.9958084253268
30
0
41
1
10
10.2376786518698
20
-30.0181074912897
30
0
41
1
10
10.3135455046785
20
-30.0467588108259
30
0
41
1
10
10.3421747269917
20
-30.0555916882576
30
0
41
1
10
10.4012015538043
20
-30.0688029947856
30
0
41
1
10
10.4310551857851
20
-30.0737774310785
30
0
41
1
10
10.4870716086067
20
-30.0792804002415
30
0
41
1
10
10.5130127501305
20
-30.0805927603169
30
0
41
1
10
10.5386751345948
20
-30.0805927603169
30
0
0
SPLINE
5
24D
100
AcDbEntity
8
1
62
256
6
ByLayer
370
-1
48
1
60
0
100
AcDbSpline
70
4
71
3
72
12
73
8
40
0
40
0
40
0
40
0
40
0.386087661153729
40
0.386087661153729
40
0.773824590235396
40
0.773824590235396
40
1
40
1
40
1
40
1
41
1
10
58.2648072333251
20
12.7407871477259
30
0
41
1
10
58.2087068559786
20
12.6720621318722
30
0
41
1
10
58.1400649052291
20
12.6113311884343
30
0
41
1
10
57.9872625921941
20
12.5167176644611
30
0
41
1
10
57.9008152944628
20
12.4816750093792
30
0
41
1
10
57.759569813581
20
12.4517548800018
30
0
41
1
10
57.7056393393079
20
12.4460310730286
30
0
41
1
10
57.6519716788303
20
12.4459414263015
30
0
0
SPLINE
5
24E
100
AcDbEntity
8
1
62
256
6
ByLayer
370
-1
48
1
60
0
100
AcDbSpline
70
4
71
3
72
8
73
4
40
0
40
0
40
0
40
0
40
1
40
1
40
1
40
1
41
1
10
61.5396364608438
20
8.23486879167598
30
0
41
1
10
61.6173725817542
20
8.45831468339634
30
0
41
1
10
61.6941312865124
20
8.67783386888385
30
0
41
1
10
61.7697923643457
20
8.89395765533069
30
0
0
SPLINE
5
24F
100
AcDbEntity
8
1
62
256
6
ByLayer
370
-1
48
1
60
0
100
AcDbSpline
70
4
71
3
72
18
73
14
40
0
40
0
40
0
40
0
40
0.0048641047853628
40
0.0048641047853628
40
0.113203312756749
40
0.113203312756749
40
0.252307002956659
40
0.252307002956659
40
0.472239664393867
40
0.472239664393867
40
0.894682818087803
40
0.894682818087803
40
1
40
1
40
1
40
1
41
1
10
10.5386751345948
20
30.0805927603169
30
0
41
1
10
10.5374517449547
20
30.0805927603169
30
0
41
1
10
10.5362283172892
20
30.0805898964002
30
0
41
1
10
10.5081150012138
20
30.0804582858311
30
0
41
1
10
10.4809957906556
20
30.0788870212281
30
0
41
1
10
10.4232970512377
20
30.0726800181318
30
0
41
1
10
10.3929559316025
20
30.0672635530197
30
0
41
1
10
10.3234057971774
20
30.0507602157503
30
0
41
1
10
10.2875093950935
20
30.0379954087022
30
0
41
1
10
10.1989273616437
20
29.9983076443639
30
0
41
1
10
10.1580217765466
20
29.968274932258
30
0
41
1
10
10.1193258147041
20
29.9296718333698
30
0
41
1
10
10.1122083227877
20
29.9218496167517
30
0
41
1
10
10.1056624327026
20
29.9139548464691
30
0
0
SPLINE
5
250
100
AcDbEntity
8
1
62
256
6
ByLayer
370
-1
48
1
60
0
100
AcDbSpline
70
4
71
3
72
18
73
14
40
0
40
0
40
0
40
0
40
0.187287979636132
40
0.187287979636132
40
0.376634277289263
40
0.376634277289263
40
0.542704284080318
40
0.542704284080318
40
0.700043616446608
40
0.700043616446608
40
0.873083744952565
40
0.873083744952565
40
1
40
1
40
1
40
1
41
1
10
55.8529124756532
20
12.2499545048212
30
0
41
1
10
55.8203526134902
20
12.2737292352416
30
0
41
1
10
55.8040510455364
20
12.2970057361487
30
0
41
1
10
55.8153277646392
20
12.3391991600473
30
0
41
1
10
55.8440699772916
20
12.3586492484596
30
0
41
1
10
55.9415781607323
20
12.388745570709
30
0
41
1
10
56.0063377670907
20
12.4006184007725
30
0
41
1
10
56.1572692658778
20
12.4187892744882
30
0
41
1
10
56.2438095403816
20
12.4256214804116
30
0
41
1
10
56.4377634141153
20
12.4363096609172
30
0
41
1
10
56.5485581410512
20
12.4399649508867
30
0
41
1
10
56.7439450402429
20
12.4437398212233
30
0
41
1
10
56.8287643765487
20
12.4445574009026
30
0
41
1
10
56.9133342386725
20
12.4447003320383
30
0
0
SPLINE
5
251
100
AcDbEntity
8
1
62
256
6
ByLayer
370
-1
48
1
60
0
100
AcDbSpline
70
4
71
3
72
24
73
20
40
0
40
0
40
0
40
0
40
0.0950870626452268
40
0.0950870626452268
40
0.214159240347702
40
0.214159240347702
40
0.375522869977524
40
0.375522869977524
40
0.467010128926603
40
0.467010128926603
40
0.560100647633611
40
0.560100647633611
40
0.676903299804664
40
0.676903299804664
40
0.835007363256949
40
0.835007363256949
40
0.935138764130349
40
0.935138764130349
40
1
40
1
40
1
40
1
41
1
10
60.7067712745374
20
4.10695520994136
30
0
41
1
10
60.6737149377372
20
4.12317425598314
30
0
41
1
10
60.6525636009567
20
4.16755656881912
30
0
41
1
10
60.6210320507803
20
4.31240435865024
30
0
41
1
10
60.613834831634
20
4.42576151875414
30
0
41
1
10
60.5986904662132
20
4.7315198478012
30
0
41
1
10
60.593363247706
20
4.9436146376971
30
0
41
1
10
60.535733621253
20
5.29193232101761
30
0
41
1
10
60.502951791416
20
5.42442774826159
30
0
41
1
10
60.3911753170374
20
5.67902875483128
30
0
41
1
10
60.3079546051087
20
5.80265973561279
30
0
41
1
10
60.0864301382707
20
6.04623262866386
30
0
41
1
10
59.9398807623113
20
6.16439256953851
30
0
41
1
10
59.603095256682
20
6.42394582248463
30
0
41
1
10
59.406990092231
20
6.56501732521721
30
0
41
1
10
59.1414398549578
20
6.79685336907829
30
0
41
1
10
59.0496878953142
20
6.88885624317291
30
0
41
1
10
58.9395199173575
20
7.04032299189419
30
0
41
1
10
58.9061381506498
20
7.10082701528623
30
0
41
1
10
58.886544300746
20
7.16063014739763
30
0
0
SPLINE
5
252
100
AcDbEntity
8
1
62
256
6
ByLayer
370
-1
48
1
60
0
100
AcDbSpline
70
4
71
3
72
18
73
14
40
0
40
0
40
0
40
0
40
0.0048641047853987
40
0.0048641047853987
40
0.113203312756789
40
0.113203312756789
40
0.252307002956709
40
0.252307002956709
40
0.472239664393952
40
0.472239664393952
40
0.894682818087943
40
0.894682818087943
40
1
40
1
40
1
40
1
41
1
10
13.4613248654052
20
-30.0805927603169
30
0
41
1
10
13.4625482550453
20
-30.0805927603169
30
0
41
1
10
13.4637716827108
20
-30.0805898964002
30
0
41
1
10
13.4918849987862
20
-30.0804582858311
30
0
41
1
10
13.5190042093444
20
-30.0788870212281
30
0
41
1
10
13.5767029487623
20
-30.0726800181318
30
0
41
1
10
13.6070440683976
20
-30.0672635530197
30
0
41
1
10
13.6765942028226
20
-30.0507602157503
30
0
41
1
10
13.7124906049065
20
-30.0379954087022
30
0
41
1
10
13.8010726383563
20
-29.9983076443639
30
0
41
1
10
13.8419782234534
20
-29.968274932258
30
0
41
1
10
13.8806741852959
20
-29.9296718333698
30
0
41
1
10
13.8877916772123
20
-29.9218496167517
30
0
41
1
10
13.8943375672974
20
-29.9139548464691
30
0
0
SPLINE
5
253
100
AcDbEntity
8
1
62
256
6
ByLayer
370
-1
48
1
60
0
100
AcDbSpline
70
4
71
3
72
8
73
4
40
0
40
0
40
0
40
0
40
1
40
1
40
1
40
1
41
1
10
58.8630960439677
20
13.4710101075813
30
0
41
1
10
58.6632392687334
20
13.2279303604667
30
0
41
1
10
58.4637841020974
20
12.9845410956975
30
0
41
1
10
58.2648072333251
20
12.7407871477259
30
0
0
SPLINE
5
254
100
AcDbEntity
8
1
62
256
6
ByLayer
370
-1
48
1
60
0
100
AcDbSpline
70
4
71
3
72
8
73
4
40
0
40
0
40
0
40
0
40
1
40
1
40
1
40
1
41
1
10
68.797243977836
20
8.64070046925622
30
0
41
1
10
68.7906501419502
20
8.64041340087192
30
0
41
1
10
68.784056344762
20
8.64012635700121
30
0
41
1
10
68.7774625847393
20
8.6398393366724
30
0
0
SPLINE
5
255
100
AcDbEntity
8
1
62
256
6
ByLayer
370
-1
48
1
60
0
100
AcDbSpline
70
4
71
3
72
30
73
26
40
0
40
0
40
0
40
0
40
0.051177228752871
40
0.051177228752871
40
0.135075241067768
40
0.135075241067768
40
0.271834780652388
40
0.271834780652388
40
0.469061266910829
40
0.469061266910829
40
0.500636061959768
40
0.500636061959768
40
0.599800502489169
40
0.599800502489169
40
0.697557955314495
40
0.697557955314495
40
0.781333785463094
40
0.781333785463094
40
0.847844869822077
40
0.847844869822077
40
0.899113486931163
40
0.899113486931163
40
0.939077913069179
40
0.939077913069179
40
1
40
1
40
1
40
1
41
1
10
69.1862123299377
20
7.98799385638267
30
0
41
1
10
69.1952536885757
20
7.99585019416347
30
0
41
1
10
69.2023411237447
20
8.00557471525028
30
0
41
1
10
69.2162457808864
20
8.03340280172398
30
0
41
1
10
69.220445718365
20
8.05333513446541
30
0
41
1
10
69.2238416383998
20
8.10715095121429
30
0
41
1
10
69.2185236676094
20
8.14312114884069
30
0
41
1
10
69.1953915565414
20
8.23059804340153
30
0
41
1
10
69.1725602247578
20
8.28390448540995
30
0
41
1
10
69.1395617190858
20
8.3435751558255
30
0
41
1
10
69.1347966449233
20
8.35187044850534
30
0
41
1
10
69.1144826866865
20
8.38595819575548
30
0
41
1
10
69.0975375254497
20
8.41146499339476
30
0
41
1
10
69.0613132373675
20
8.46041829074275
30
0
41
1
10
69.0419523501853
20
8.48405508357499
30
0
41
1
10
69.0037780789728
20
8.52550657291633
30
0
41
1
10
68.9851672669992
20
8.54379796026799
30
0
41
1
10
68.9502139570169
20
8.57395832221434
30
0
41
1
10
68.9340976049593
20
8.5864558607434
30
0
41
1
10
68.9046248615149
20
8.60610770887695
30
0
41
1
10
68.8914048984607
20
8.61387787406659
30
0
41
1
10
68.8674432564296
20
8.62555707721171
30
0
41
1
10
68.8567353506503
20
8.62996588267174
30
0
41
1
10
68.8297335810227
20
8.63850176242858
30
0
41
1
10
68.8130109972661
20
8.64138690017003
30
0
41
1
10
68.797243977836
20
8.64070046925622
30
0
0
SPLINE
5
256
100
AcDbEntity
8
1
62
256
6
ByLayer
370
-1
48
1
60
0
100
AcDbSpline
70
4
71
3
72
30
73
26
40
0
40
0
40
0
40
0
40
0.05151948893097
40
0.05151948893097
40
0.0928771460763089
40
0.0928771460763089
40
0.148185150442174
40
0.148185150442174
40
0.203338923043244
40
0.203338923043244
40
0.287955708682633
40
0.287955708682633
40
0.372427214532557
40
0.372427214532557
40
0.435367147735132
40
0.435367147735132
40
0.498971020782849
40
0.498971020782849
40
0.701334348038897
40
0.701334348038897
40
0.838887327921272
40
0.838887327921272
40
0.925006664597035
40
0.925006664597035
40
1
40
1
40
1
40
1
41
1
10
68.797243977836
20
9.39279578822095
30
0
41
1
10
68.8106201383423
20
9.38796539573988
30
0
41
1
10
68.8246831624704
20
9.38569765145431
30
0
41
1
10
68.8496501657883
20
9.38520861533618
30
0
41
1
10
68.8607962310385
20
9.38626163196227
30
0
41
1
10
68.8863266055463
20
9.39096912813
30
0
41
1
10
68.9006744147181
20
9.39539382138202
30
0
41
1
10
68.928431558419
20
9.40665808168779
30
0
41
1
10
68.9419368983613
20
9.41353190361176
30
0
41
1
10
68.9750168406033
20
9.43326986758029
30
0
41
1
10
68.9941492436003
20
9.44745684428233
30
0
41
1
10
69.030363196083
20
9.47891545136483
30
0
41
1
10
69.0475649083273
20
9.49629456966179
30
0
41
1
10
69.0758329180788
20
9.52877591610542
30
0
41
1
10
69.0873882551283
20
9.54338478977087
30
0
41
1
10
69.1094553402458
20
9.57394119140832
30
0
41
1
10
69.1199839342166
20
9.58994206109395
30
0
41
1
10
69.1609899074376
20
9.65836377284305
30
0
41
1
10
69.1865032113724
20
9.71633065021575
30
0
41
1
10
69.2142129999311
20
9.81725785568318
30
0
41
1
10
69.2215231419923
20
9.8600513562989
30
0
41
1
10
69.2225357180563
20
9.92888295046143
30
0
41
1
10
69.2202602491482
20
9.95571491735652
30
0
41
1
10
69.2083078994519
20
10.0029073918022
30
0
41
1
10
69.1993367564663
20
10.024309119164
30
0
41
1
10
69.1862123299377
20
10.0418202687175
30
0
0
SPLINE
5
257
100
AcDbEntity
8
1
62
256
6
ByLayer
370
-1
48
1
60
0
100
AcDbSpline
70
4
71
3
72
22
73
18
40
0
40
0
40
0
40
0
40
0.142057608739586
40
0.142057608739586
40
0.351004812993286
40
0.351004812993286
40
0.487763342942305
40
0.487763342942305
40
0.59152935350974
40
0.59152935350974
40
0.758694969227313
40
0.758694969227313
40
0.858776631809094
40
0.858776631809094
40
0.960359919517577
40
0.960359919517577
40
1
40
1
40
1
40
1
41
1
10
68.5750820831052
20
9.04361786606788
30
0
41
1
10
68.5750820831052
20
9.06646426137738
30
0
41
1
10
68.5761148661618
20
9.0892513568993
30
0
41
1
10
68.5812931001009
20
9.1450001583186
30
0
41
1
10
68.5866709352441
20
9.17788658889731
30
0
41
1
10
68.6000078335765
20
9.23059379843338
30
0
41
1
10
68.6064645200375
20
9.25109496273635
30
0
41
1
10
68.6202814496132
20
9.28578351355185
30
0
41
1
10
68.627072783583
20
9.30035684720934
30
0
41
1
10
68.6472398695058
20
9.33631874784118
30
0
41
1
10
68.6623759654941
20
9.35704913785173
30
0
41
1
10
68.6917096856829
20
9.38290267056595
30
0
41
1
10
68.7041161680424
20
9.39106283290135
30
0
41
1
10
68.7308785291214
20
9.40171186026913
30
0
41
1
10
68.7456877303862
20
9.4041574274973
30
0
41
1
10
68.7659942179379
20
9.40249258919081
30
0
41
1
10
68.7717783262652
20
9.40147001950876
30
0
41
1
10
68.7774625847393
20
9.39993930465391
30
0
0
SPLINE
5
258
100
AcDbEntity
8
1
62
256
6
ByLayer
370
-1
48
1
60
0
100
AcDbSpline
70
4
71
3
72
8
73
4
40
0
40
0
40
0
40
0
40
1
40
1
40
1
40
1
41
1
10
68.7774625847393
20
9.39993930465391
30
0
41
1
10
68.784056344762
20
9.3975581232522
30
0
41
1
10
68.7906501419502
20
9.39517695098201
30
0
41
1
10
68.797243977836
20
9.39279578822092
30
0
0
SPLINE
5
259
100
AcDbEntity
8
1
62
256
6
ByLayer
370
-1
48
1
60
0
100
AcDbSpline
70
4
71
3
72
24
73
20
40
0
40
0
40
0
40
0
40
0.0974021566270004
40
0.0974021566270004
40
0.180354031075337
40
0.180354031075337
40
0.307542616517216
40
0.307542616517216
40
0.412109117009633
40
0.412109117009633
40
0.516348967690924
40
0.516348967690924
40
0.620446917153532
40
0.620446917153532
40
0.724476829460146
40
0.724476829460146
40
0.933310901386407
40
0.933310901386407
40
1
40
1
40
1
40
1
41
1
10
68.7774625847393
20
8.6398393366724
30
0
41
1
10
68.7637586940945
20
8.64040369489496
30
0
41
1
10
68.7493045673201
20
8.64402823864629
30
0
41
1
10
68.7240757795608
20
8.65573177541415
30
0
41
1
10
68.7127749478255
20
8.66316051365729
30
0
41
1
10
68.6866346395021
20
8.68496771533748
30
0
41
1
10
68.6726035401663
20
8.7012153828164
30
0
41
1
10
68.6506235566252
20
8.73272845751927
30
0
41
1
10
68.6418476138928
20
8.74791041316089
30
0
41
1
10
68.626364429099
20
8.77899042029381
30
0
41
1
10
68.6196034362221
20
8.79498633620162
30
0
41
1
10
68.6077490448384
20
8.8273661601163
30
0
41
1
10
68.6026346635043
20
8.84380711227584
30
0
41
1
10
68.5938237970247
20
8.87689490311095
30
0
41
1
10
68.5901177823477
20
8.89357902879829
30
0
41
1
10
68.580879931272
20
8.94383345040563
30
0
41
1
10
68.5772060123784
20
8.97768773353027
30
0
41
1
10
68.5753109062169
20
9.0221219031159
30
0
41
1
10
68.5750820831052
20
9.03288062921794
30
0
41
1
10
68.5750820831052
20
9.04361786606788
30
0
0
SPLINE
5
25A
100
AcDbEntity
8
1
62
256
6
ByLayer
370
-1
48
1
60
0
100
AcDbSpline
70
4
71
3
72
22
73
18
40
0
40
0
40
0
40
0
40
0.0973712659846742
40
0.0973712659846742
40
0.180296832630675
40
0.180296832630675
40
0.307445080802999
40
0.307445080802999
40
0.411978418514841
40
0.411978418514841
40
0.51618521001102
40
0.51618521001102
40
0.620250145291801
40
0.620250145291801
40
0.829289859625907
40
0.829289859625907
40
1
40
1
40
1
40
1
41
1
10
70.6449723255622
20
7.58935766389286
30
0
41
1
10
70.6506416969107
20
7.57902448502577
30
0
41
1
10
70.6594380125761
20
7.56957056223251
30
0
41
1
10
70.6797719835988
20
7.55564486558032
30
0
41
1
10
70.6909043787538
20
7.55045482428278
30
0
41
1
10
70.7209111289137
20
7.54067908177373
30
0
41
1
10
70.7411968631145
20
7.53762339360747
30
0
41
1
10
70.7784985628655
20
7.53579028517228
30
0
41
1
10
70.7957619927876
20
7.53632498990734
30
0
41
1
10
70.8301096461617
20
7.53937495195393
30
0
41
1
10
70.8473043241611
20
7.54189570751197
30
0
41
1
10
70.8813598760504
20
7.54845100534664
30
0
41
1
10
70.8982809792138
20
7.5524969096457
30
0
41
1
10
70.9485118666784
20
7.56650703103367
30
0
41
1
10
70.9814014302621
20
7.57836597127553
30
0
41
1
10
71.0392334597774
20
7.60327393816334
30
0
41
1
10
71.0646466216471
20
7.61576874988538
30
0
41
1
10
71.0892616975281
20
7.62938181187559
30
0
0
SPLINE
5
25B
100
AcDbEntity
8
1
62
256
6
ByLayer
370
-1
48
1
60
0
100
AcDbSpline
70
4
71
3
72
8
73
4
40
0
40
0
40
0
40
0
40
1
40
1
40
1
40
1
41
1
10
69.1728414789748
20
10.0596602820651
30
0
41
1
10
69.1772984033188
20
10.0537136212129
30
0
41
1
10
69.1817553532876
20
10.0477669502358
30
0
41
1
10
69.1862123299377
20
10.0418202687175
30
0
0
SPLINE
5
25C
100
AcDbEntity
8
1
62
256
6
ByLayer
370
-1
48
1
60
0
100
AcDbSpline
70
4
71
3
72
34
73
30
40
0
40
0
40
0
40
0
40
0.0514465755209212
40
0.0514465755209212
40
0.135786144735386
40
0.135786144735386
40
0.203131635218856
40
0.203131635218856
40
0.270315608875082
40
0.270315608875082
40
0.337431278535928
40
0.337431278535928
40
0.404515897625525
40
0.404515897625525
40
0.499929883690864
40
0.499929883690864
40
0.599210771748131
40
0.599210771748131
40
0.69708301989422
40
0.69708301989422
40
0.780957226922748
40
0.780957226922748
40
0.847546414393261
40
0.847546414393261
40
0.898875235580363
40
0.898875235580363
40
0.980803570703557
40
0.980803570703557
40
1
40
1
40
1
40
1
41
1
10
69.86040981588
20
7.60875508330699
30
0
41
1
10
69.864599060139
20
7.61934075476572
30
0
41
1
10
69.871429302425
20
7.62920994787439
30
0
41
1
10
69.8935161862327
20
7.65243549923562
30
0
41
1
10
69.9116295163334
20
7.66454149317062
30
0
41
1
10
69.9473449453899
20
7.68275772941937
30
0
41
1
10
69.964617399044
20
7.68971846622478
30
0
41
1
10
70.0005561582314
20
7.70172257382603
30
0
41
1
10
70.0193408283864
20
7.70680574170001
30
0
41
1
10
70.0578109315651
20
7.71541582533055
30
0
41
1
10
70.0775813680366
20
7.71896086377507
30
0
41
1
10
70.1176899418912
20
7.72470425973498
30
0
41
1
10
70.1380978093972
20
7.72691201040465
30
0
41
1
10
70.1878611628518
20
7.73076853741836
30
0
41
1
10
70.2175233189763
20
7.73180548603372
30
0
41
1
10
70.2779208130224
20
7.73151961243099
30
0
41
1
10
70.3088452635758
20
7.73009956263834
30
0
41
1
10
70.3693430508269
20
7.72464630709416
30
0
41
1
10
70.399133034007
20
7.72063553943892
30
0
41
1
10
70.4527769118035
20
7.71043895399151
30
0
41
1
10
70.4770347933772
20
7.70461653035781
30
0
41
1
10
70.5185391274958
20
7.69176916275052
30
0
41
1
10
70.5363137443426
20
7.68520289618743
30
0
41
1
10
70.5657749901303
20
7.67170414047743
30
0
41
1
10
70.5779971139547
20
7.66516303039006
30
0
41
1
10
70.6068135593615
20
7.64634727757056
30
0
41
1
10
70.6223167523331
20
7.63257180969563
30
0
41
1
10
70.6345987164564
20
7.6129856180026
30
0
41
1
10
70.6366572243676
20
7.60907969408811
30
0
41
1
10
70.6383465200832
20
7.60507295092998
30
0
0
SPLINE
5
25D
100
AcDbEntity
8
1
62
256
6
ByLayer
370
-1
48
1
60
0
100
AcDbSpline
70
4
71
3
72
24
73
20
40
0
40
0
40
0
40
0
40
0.038019832552191
40
0.038019832552191
40
0.246834654675345
40
0.246834654675345
40
0.404726505663722
40
0.404726505663722
40
0.526150637963208
40
0.526150637963208
40
0.621531995503959
40
0.621531995503959
40
0.776890538332354
40
0.776890538332354
40
0.873684213898214
40
0.873684213898214
40
0.971746172255199
40
0.971746172255199
40
1
40
1
40
1
40
1
41
1
10
69.4131419545795
20
7.63731522694641
30
0
41
1
10
69.4186302737781
20
7.63422802552171
30
0
41
1
10
69.4241560278188
20
7.63119722338732
30
0
41
1
10
69.4602073306911
20
7.61192351229596
30
0
41
1
10
69.4918388400253
20
7.59729835625095
30
0
41
1
10
69.5487498252265
20
7.57526031032307
30
0
41
1
10
69.5738041336136
20
7.56692036611378
30
0
41
1
10
69.6186884805226
20
7.55481996906443
30
0
41
1
10
69.6384623653712
20
7.5504284784916
30
0
41
1
10
69.6738721530973
20
7.5446406091115
30
0
41
1
10
69.6895450702673
20
7.54279576042688
30
0
41
1
10
69.7302506024772
20
7.54037511322082
30
0
41
1
10
69.7556411946572
20
7.5412556059658
30
0
41
1
10
69.7934207062444
20
7.54891246477655
30
0
41
1
10
69.8073572868912
20
7.55346635479944
30
0
41
1
10
69.8313291770157
20
7.56616547024581
30
0
41
1
10
69.841582450884
20
7.57459354607767
30
0
41
1
10
69.8507797406463
20
7.5871024215958
30
0
41
1
10
69.85262332601
20
7.5900586357258
30
0
41
1
10
69.8542145370912
20
7.59310048106497
30
0
0
SPLINE
5
25E
100
AcDbEntity
8
1
62
256
6
ByLayer
370
-1
48
1
60
0
100
AcDbSpline
70
4
71
3
72
8
73
4
40
0
40
0
40
0
40
0
40
1
40
1
40
1
40
1
41
1
10
71.3263453836786
20
7.96618257085026
30
0
41
1
10
71.3217449480731
20
7.97009816910759
30
0
41
1
10
71.3171444891755
20
7.97401381050398
30
0
41
1
10
71.3125440060256
20
7.97792949681903
30
0
0
SPLINE
5
25F
100
AcDbEntity
8
1
62
256
6
ByLayer
370
-1
48
1
60
0
100
AcDbSpline
70
4
71
3
72
22
73
18
40
0
40
0
40
0
40
0
40
0.0973712659846974
40
0.0973712659846974
40
0.180296832630722
40
0.180296832630722
40
0.307445080803056
40
0.307445080803056
40
0.411978418514907
40
0.411978418514907
40
0.516185210011136
40
0.516185210011136
40
0.620250145292013
40
0.620250145292013
40
0.829289859626216
40
0.829289859626216
40
1
40
1
40
1
40
1
41
1
10
69.1728414789748
20
7.97637554208907
30
0
41
1
10
69.1646612774358
20
7.96767089838039
30
0
41
1
10
69.1588588367914
20
7.95677751870937
30
0
41
1
10
69.1537259071769
20
7.93475929011612
30
0
41
1
10
69.1534565520084
20
7.92367670818115
30
0
41
1
10
69.1570995089961
20
7.89550623400024
30
0
41
1
10
69.163243778051
20
7.87789871430354
30
0
41
1
10
69.1784007052705
20
7.84709436111245
30
0
41
1
10
69.1868259283934
20
7.83341197691195
30
0
41
1
10
69.2055841370285
20
7.80703336612848
30
0
41
1
10
69.2159734759069
20
7.79425024413203
30
0
41
1
10
69.2380989106927
20
7.76961037190617
30
0
41
1
10
69.2498741360824
20
7.75770979463618
30
0
41
1
10
69.2867876046084
20
7.72326551270388
30
0
41
1
10
69.3135852798972
20
7.70189967543934
30
0
41
1
10
69.3646110715835
20
7.66616458017759
30
0
41
1
10
69.3885268786986
20
7.65116130524081
30
0
41
1
10
69.4131419545795
20
7.63731522694641
30
0
0
SPLINE
5
260
100
AcDbEntity
8
1
62
256
6
ByLayer
370
-1
48
1
60
0
100
AcDbSpline
70
4
71
3
72
8
73
4
40
0
40
0
40
0
40
0
40
1
40
1
40
1
40
1
41
1
10
70.6383465200833
20
7.60507295092995
30
0
41
1
10
70.6405551325689
20
7.59983447025172
30
0
41
1
10
70.6427637342527
20
7.59459604193071
30
0
41
1
10
70.6449723255622
20
7.58935766389286
30
0
0
SPLINE
5
261
100
AcDbEntity
8
1
62
256
6
ByLayer
370
-1
48
1
60
0
100
AcDbSpline
70
4
71
3
72
24
73
20
40
0
40
0
40
0
40
0
40
0.0380198325523243
40
0.0380198325523243
40
0.246834654675483
40
0.246834654675483
40
0.404726505663808
40
0.404726505663808
40
0.526150637963263
40
0.526150637963263
40
0.621531995504006
40
0.621531995504006
40
0.776890538332327
40
0.776890538332327
40
0.873684213898177
40
0.873684213898177
40
0.971746172255158
40
0.971746172255158
40
1
40
1
40
1
40
1
41
1
10
69.4131419545795
20
10.4419870901186
30
0
41
1
10
69.4076536353809
20
10.4389518433522
30
0
41
1
10
69.4022019120988
20
10.4358477486318
30
0
41
1
10
69.3671115229851
20
10.4152849900934
30
0
41
1
10
69.3385058581517
20
10.3958260708975
30
0
41
1
10
69.2911530053128
20
10.3581033836471
30
0
41
1
10
69.2716172556212
20
10.3406321938874
30
0
41
1
10
69.2393892752365
20
10.3074583053532
30
0
41
1
10
69.2261072060893
20
10.2922235914465
30
0
41
1
10
69.2043755857669
20
10.2635158755179
30
0
41
1
10
69.195465814875
20
10.250316828872
30
0
41
1
10
69.1746993013746
20
10.2143494056199
30
0
41
1
10
69.1641355865451
20
10.19022089292
30
0
41
1
10
69.1548945742965
20
10.1495615990176
30
0
41
1
10
69.1532519873412
20
10.1332633633671
30
0
41
1
10
69.1554422280791
20
10.1014835292301
30
0
41
1
10
69.1594691578788
20
10.0855808429973
30
0
41
1
10
69.1682053414522
20
10.0674608281542
30
0
41
1
10
69.1704211720346
20
10.0634791350577
30
0
41
1
10
69.1728414789748
20
10.0596602820651
30
0
0
SPLINE
5
262
100
AcDbEntity
8
1
62
256
6
ByLayer
370
-1
48
1
60
0
100
AcDbSpline
70
4
71
3
72
22
73
18
40
0
40
0
40
0
40
0
40
0.0973712659846653
40
0.0973712659846653
40
0.180296832630724
40
0.180296832630724
40
0.307445080803053
40
0.307445080803053
40
0.411978418514973
40
0.411978418514973
40
0.516185210011178
40
0.516185210011178
40
0.620250145292049
40
0.620250145292049
40
0.829289859626297
40
0.829289859626297
40
1
40
1
40
1
40
1
41
1
10
69.8542145370912
20
10.4364851890225
30
0
41
1
10
69.848836530228
20
10.4509419432893
30
0
41
1
10
69.8403294736335
20
10.4644896443184
30
0
41
1
10
69.8204717283667
20
10.4851551905777
30
0
41
1
10
69.809541170388
20
10.4932017598892
30
0
41
1
10
69.7799813899256
20
10.5093033016705
30
0
41
1
10
69.7599163873449
20
10.5154829240304
30
0
41
1
10
69.7229442655746
20
10.5219804295407
30
0
41
1
10
69.7058053637861
20
10.5232081261084
30
0
41
1
10
69.6716702303025
20
10.5231658806385
30
0
41
1
10
69.6545642447935
20
10.5219003575809
30
0
41
1
10
69.6206601443438
20
10.5174884967883
30
0
41
1
10
69.6038020340578
20
10.5143341077318
30
0
41
1
10
69.5537309582764
20
10.5025857428674
30
0
41
1
10
69.5209098570403
20
10.4916957252861
30
0
41
1
10
69.4631539066054
20
10.4678644779022
30
0
41
1
10
69.4377570304604
20
10.4556001521088
30
0
41
1
10
69.4131419545795
20
10.4419870901186
30
0
0
SPLINE
5
263
100
AcDbEntity
8
1
62
256
6
ByLayer
370
-1
48
1
60
0
100
AcDbSpline
70
4
71
3
72
24
73
20
40
0
40
0
40
0
40
0
40
0.0380198325521535
40
0.0380198325521535
40
0.246834654675347
40
0.246834654675347
40
0.404726505663712
40
0.404726505663712
40
0.526150637963186
40
0.526150637963186
40
0.621531995503969
40
0.621531995503969
40
0.776890538332307
40
0.776890538332307
40
0.873684213898175
40
0.873684213898175
40
0.971746172255185
40
0.971746172255185
40
1
40
1
40
1
40
1
41
1
10
71.9273215690024
20
9.02775103592626
30
0
41
1
10
71.9273215690024
20
9.03387348411735
30
0
41
1
10
71.927246305988
20
9.03999094130535
30
0
41
1
10
71.9262693760963
20
9.07960074043893
30
0
41
1
10
71.9231936052086
20
9.11297822571666
30
0
41
1
10
71.9134701698806
20
9.17039948625074
30
0
41
1
10
71.9078547730732
20
9.19484010570704
30
0
41
1
10
71.8949649545602
20
9.23681043035475
30
0
41
1
10
71.8883504643625
20
9.25470046738471
30
0
41
1
10
71.8744011622695
20
9.28535878222584
30
0
41
1
10
71.867500238396
20
9.29845276145139
30
0
41
1
10
71.847136735728
20
9.33083326510953
30
0
41
1
10
71.8319789092369
20
9.34939748246049
30
0
41
1
10
71.8027368170627
20
9.37244222451031
30
0
41
1
10
71.7901253331105
20
9.37969324615781
30
0
41
1
10
71.7632419114002
20
9.38856579828752
30
0
41
1
10
71.7485448774721
20
9.39014116189205
30
0
41
1
10
71.7300531367367
20
9.38785134611834
30
0
41
1
10
71.7258651065918
20
9.38705659519152
30
0
41
1
10
71.7217242779141
20
9.38600351624299
30
0
0
SPLINE
5
264
100
AcDbEntity
8
1
62
256
6
ByLayer
370
-1
48
1
60
0
100
AcDbSpline
70
4
71
3
72
22
73
18
40
0
40
0
40
0
40
0
40
0.0973712659846615
40
0.0973712659846615
40
0.180296832630718
40
0.180296832630718
40
0.307445080803035
40
0.307445080803035
40
0.411978418514916
40
0.411978418514916
40
0.516185210011124
40
0.516185210011124
40
0.620250145291971
40
0.620250145291971
40
0.829289859626165
40
0.829289859626165
40
1
40
1
40
1
40
1
41
1
10
71.7217242779141
20
8.62590354826148
30
0
41
1
10
71.7357195330443
20
8.62633680080293
30
0
41
1
10
71.7504629188895
20
8.6298231467986
30
0
41
1
10
71.7761679324048
20
8.6412856035432
30
0
41
1
10
71.7876706013163
20
8.64860640818762
30
0
41
1
10
71.8142578793374
20
8.67016403949563
30
0
41
1
10
71.8285097102933
20
8.68627783812286
30
0
41
1
10
71.8508192718151
20
8.7175812814163
30
0
41
1
10
71.8597197426811
20
8.73267957100327
30
0
41
1
10
71.8754154473654
20
8.76361200212165
30
0
41
1
10
71.8822651327316
20
8.77954349592642
30
0
41
1
10
71.8942709755549
20
8.81181038450796
30
0
41
1
10
71.8994483497674
20
8.8282026236983
30
0
41
1
10
71.9128456745476
20
8.87778790528037
30
0
41
1
10
71.9189717940163
20
8.91149714411705
30
0
41
1
10
71.9258160713854
20
8.97267856601857
30
0
41
1
10
71.9273215690024
20
9.00029189564165
30
0
41
1
10
71.9273215690024
20
9.02775103592626
30
0
0
SPLINE
5
265
100
AcDbEntity
8
1
62
256
6
ByLayer
370
-1
48
1
60
0
100
AcDbSpline
70
4
71
3
72
8
73
4
40
0
40
0
40
0
40
0
40
1
40
1
40
1
40
1
41
1
10
71.3125440060256
20
10.0317559091539
30
0
41
1
10
71.3171444891755
20
10.0376597198759
30
0
41
1
10
71.3217449480731
20
10.0435635202978
30
0
41
1
10
71.3263453836786
20
10.0494673108263
30
0
0
SPLINE
5
266
100
AcDbEntity
8
1
62
256
6
ByLayer
370
-1
48
1
60
0
100
AcDbSpline
70
4
71
3
72
8
73
4
40
0
40
0
40
0
40
0
40
1
40
1
40
1
40
1
41
1
10
71.7217242779141
20
9.38600351624299
30
0
41
1
10
71.7149870066298
20
9.38368543331927
30
0
41
1
10
71.7082497005128
20
9.38136735986782
30
0
41
1
10
71.7015123581272
20
9.3790492962803
30
0
0
SPLINE
5
267
100
AcDbEntity
8
1
62
256
6
ByLayer
370
-1
48
1
60
0
100
AcDbSpline
70
4
71
3
72
8
73
4
40
0
40
0
40
0
40
0
40
1
40
1
40
1
40
1
41
1
10
69.8542145370912
20
7.59310048106497
30
0
41
1
10
69.8562796171392
20
7.59831863094857
30
0
41
1
10
69.8583447098941
20
7.60353683100604
30
0
41
1
10
69.86040981588
20
7.60875508330699
30
0
0
SPLINE
5
268
100
AcDbEntity
8
1
62
256
6
ByLayer
370
-1
48
1
60
0
100
AcDbSpline
70
4
71
3
72
8
73
4
40
0
40
0
40
0
40
0
40
1
40
1
40
1
40
1
41
1
10
69.1862123299376
20
7.98799385638259
30
0
41
1
10
69.1817553532875
20
7.98412104086384
30
0
41
1
10
69.1772984033188
20
7.98024827002268
30
0
41
1
10
69.1728414789748
20
7.97637554208907
30
0
0
SPLINE
5
269
100
AcDbEntity
8
1
62
256
6
ByLayer
370
-1
48
1
60
0
100
AcDbSpline
70
4
71
3
72
8
73
4
40
0
40
0
40
0
40
0
40
1
40
1
40
1
40
1
41
1
10
69.86040981588
20
10.4146768146066
30
0
41
1
10
69.8583447098941
20
10.421946290488
30
0
41
1
10
69.8562796171392
20
10.4292157483898
30
0
41
1
10
69.8542145370912
20
10.4364851890225
30
0
0
SPLINE
5
26A
100
AcDbEntity
8
1
62
256
6
ByLayer
370
-1
48
1
60
0
100
AcDbSpline
70
4
71
3
72
22
73
18
40
0
40
0
40
0
40
0
40
0.0973712659846928
40
0.0973712659846928
40
0.180296832630721
40
0.180296832630721
40
0.307445080803044
40
0.307445080803044
40
0.411978418514896
40
0.411978418514896
40
0.51618521001109
40
0.51618521001109
40
0.620250145291924
40
0.620250145291924
40
0.829289859626134
40
0.829289859626134
40
1
40
1
40
1
40
1
41
1
10
71.3263453836786
20
10.0494673108263
30
0
41
1
10
71.3348169497029
20
10.0622955299347
30
0
41
1
10
71.3409086494183
20
10.0772826878415
30
0
41
1
10
71.3465178047887
20
10.1060407660419
30
0
41
1
10
71.3469889971335
20
10.1199798759909
30
0
41
1
10
71.3437930098433
20
10.154476149444
30
0
41
1
10
71.3378694724085
20
10.1752076033343
30
0
41
1
10
71.3230421231696
20
10.2106763536005
30
0
41
1
10
71.3147414281804
20
10.2261211391038
30
0
41
1
10
71.2961957394358
20
10.2555074664639
30
0
41
1
10
71.2858950930478
20
10.2695458209608
30
0
41
1
10
71.2639211097016
20
10.2963291302287
30
0
41
1
10
71.2522088771894
20
10.3091212227413
30
0
41
1
10
71.2154552203465
20
10.3458272611972
30
0
41
1
10
71.1887260074054
20
10.3681620211223
30
0
41
1
10
71.1377762947993
20
10.404973835888
30
0
41
1
10
71.113876773409
20
10.4202075967533
30
0
41
1
10
71.0892616975281
20
10.4340536750477
30
0
0
SPLINE
5
26B
100
AcDbEntity
8
1
62
256
6
ByLayer
370
-1
48
1
60
0
100
AcDbSpline
70
4
71
3
72
8
73
4
40
0
40
0
40
0
40
0
40
1
40
1
40
1
40
1
41
1
10
70.6449723255622
20
10.4327423718504
30
0
41
1
10
70.6427637342526
20
10.4254931593719
30
0
41
1
10
70.6405551325689
20
10.4182439297337
30
0
41
1
10
70.6383465200832
20
10.4109946822295
30
0
0
SPLINE
5
26C
100
AcDbEntity
8
1
62
256
6
ByLayer
370
-1
48
1
60
0
100
AcDbSpline
70
4
71
3
72
34
73
30
40
0
40
0
40
0
40
0
40
0.0514465755209146
40
0.0514465755209146
40
0.135786144735386
40
0.135786144735386
40
0.203131635218864
40
0.203131635218864
40
0.270315608875123
40
0.270315608875123
40
0.337431278535976
40
0.337431278535976
40
0.404515897625581
40
0.404515897625581
40
0.49992988369085
40
0.49992988369085
40
0.599210771748131
40
0.599210771748131
40
0.697083019894214
40
0.697083019894214
40
0.780957226922747
40
0.780957226922747
40
0.847546414393288
40
0.847546414393288
40
0.898875235580382
40
0.898875235580382
40
0.980803570703584
40
0.980803570703584
40
1
40
1
40
1
40
1
41
1
10
70.6383465200833
20
10.4109946822295
30
0
41
1
10
70.6338661606058
20
10.3962889631541
30
0
41
1
10
70.6267452249736
20
10.3823056930335
30
0
41
1
10
70.6039373337911
20
10.3488759870029
30
0
41
1
10
70.5854080230136
20
10.3308827701159
30
0
41
1
10
70.5490293761322
20
10.3032802536406
30
0
41
1
10
70.5314874508688
20
10.2925057833319
30
0
41
1
10
70.4950660369406
20
10.273670839045
30
0
41
1
10
70.4760665351141
20
10.2655472368001
30
0
41
1
10
70.4372216115946
20
10.2516324574562
30
0
41
1
10
70.417290354282
20
10.2458113802425
30
0
41
1
10
70.3769150366133
20
10.2362928562733
30
0
41
1
10
70.356400786823
20
10.232579515896
30
0
41
1
10
70.3064469715201
20
10.2260274517387
30
0
41
1
10
70.2767284965646
20
10.2241934432285
30
0
41
1
10
70.2163310025185
20
10.2244793168312
30
0
41
1
10
70.1854675255138
20
10.2267623030426
30
0
41
1
10
70.1252098675275
20
10.2356140205778
30
0
41
1
10
70.0955980518439
20
10.2421463278941
30
0
41
1
10
70.0423901413921
20
10.2585130003228
30
0
41
1
10
70.0183762815554
20
10.2677889746874
30
0
41
1
10
69.9773831668538
20
10.2878714444374
30
0
41
1
10
69.959862019376
20
10.2980249706248
30
0
41
1
10
69.930895186376
20
10.3185209703753
30
0
41
1
10
69.9189048805374
20
10.3283429159508
30
0
41
1
10
69.8907240518169
20
10.356154320139
30
0
41
1
10
69.8756585545664
20
10.3761243360766
30
0
41
1
10
69.8639382657969
20
10.4036597144
30
0
41
1
10
69.8619893481506
20
10.4091166294039
30
0
41
1
10
69.8604098158801
20
10.4146768146065
30
0
0
SPLINE
5
26D
100
AcDbEntity
8
1
62
256
6
ByLayer
370
-1
48
1
60
0
100
AcDbSpline
70
4
71
3
72
24
73
20
40
0
40
0
40
0
40
0
40
0.038019832552117
40
0.038019832552117
40
0.246834654675306
40
0.246834654675306
40
0.40472650566365
40
0.40472650566365
40
0.526150637963143
40
0.526150637963143
40
0.621531995503917
40
0.621531995503917
40
0.776890538332293
40
0.776890538332293
40
0.873684213898151
40
0.873684213898151
40
0.97174617225515
40
0.97174617225515
40
1
40
1
40
1
40
1
41
1
10
71.0892616975281
20
10.4340536750477
30
0
41
1
10
71.0837733783295
20
10.4371408764724
30
0
41
1
10
71.078246802785
20
10.4401600521623
30
0
41
1
10
71.0421848224906
20
10.4592826495895
30
0
41
1
10
71.0105200288985
20
10.4734367456591
30
0
41
1
10
70.9534988417201
20
10.4939151431575
30
0
41
1
10
70.9283799745918
20
10.501341411025
30
0
41
1
10
70.8833399930236
20
10.5112391674505
30
0
41
1
10
70.8634843251775
20
10.514473213057
30
0
41
1
10
70.8278937809919
20
10.5177029021254
30
0
41
1
10
70.8121290120916
20
10.51824780674
30
0
41
1
10
70.7711404905761
20
10.5166634094127
30
0
41
1
10
70.7455292656357
20
10.5126603815984
30
0
41
1
10
70.7072806921581
20
10.4983650607598
30
0
41
1
10
70.6931324513374
20
10.4908156214168
30
0
41
1
10
70.6686797006477
20
10.4713110615965
30
0
41
1
10
70.6581485399392
20
10.458950154567
30
0
41
1
10
70.6485790719105
20
10.4411739756498
30
0
41
1
10
70.6466497437476
20
10.4370042749243
30
0
41
1
10
70.6449723255622
20
10.4327423718504
30
0
0
SPLINE
5
26E
100
AcDbEntity
8
1
62
256
6
ByLayer
370
-1
48
1
60
0
100
AcDbSpline
70
4
71
3
72
8
73
4
40
0
40
0
40
0
40
0
40
1
40
1
40
1
40
1
41
1
10
71.7015123581273
20
8.62695397731559
30
0
41
1
10
71.7082497005129
20
8.62660380975774
30
0
41
1
10
71.7149870066298
20
8.62625366706826
30
0
41
1
10
71.7217242779141
20
8.62590354826148
30
0
0
SPLINE
5
26F
100
AcDbEntity
8
1
62
256
6
ByLayer
370
-1
48
1
60
0
100
AcDbSpline
70
4
71
3
72
24
73
20
40
0
40
0
40
0
40
0
40
0.038019832551834
40
0.038019832551834
40
0.246834654674987
40
0.246834654674987
40
0.404726505663421
40
0.404726505663421
40
0.526150637962961
40
0.526150637962961
40
0.621531995503781
40
0.621531995503781
40
0.776890538332198
40
0.776890538332198
40
0.87368421389809
40
0.87368421389809
40
0.971746172255107
40
0.971746172255107
40
1
40
1
40
1
40
1
41
1
10
71.0892616975281
20
7.62938181187559
30
0
41
1
10
71.0947500167267
20
7.63241705864198
30
0
41
1
10
71.1002009185049
20
7.63550952691779
30
0
41
1
10
71.1352806301964
20
7.65592117179207
30
0
41
1
10
71.1638530107719
20
7.67490903101248
30
0
41
1
10
71.2110956616336
20
7.71107206983342
30
0
41
1
10
71.230566852584
20
7.72762958325134
30
0
41
1
10
71.2626391983097
20
7.75860083116163
30
0
41
1
10
71.2758394844593
20
7.77267810010196
30
0
41
1
10
71.2973903483222
20
7.79882763571885
30
0
41
1
10
71.3062082674838
20
7.81072673829476
30
0
41
1
10
71.3266917916786
20
7.84268911701355
30
0
41
1
10
71.3370348737477
20
7.86369509464416
30
0
41
1
10
71.3458068241059
20
7.89771592651869
30
0
41
1
10
71.3472377508874
20
7.91101861284909
30
0
41
1
10
71.3445666495842
20
7.93599300261218
30
0
41
1
10
71.3402618329444
20
7.94796285764738
30
0
41
1
10
71.3311534711046
20
7.96081556909132
30
0
41
1
10
71.328851897723
20
7.9635837755923
30
0
41
1
10
71.3263453836786
20
7.96618257085026
30
0
0
SPLINE
5
270
100
AcDbEntity
8
1
62
256
6
ByLayer
370
-1
48
1
60
0
100
AcDbSpline
70
4
71
3
72
34
73
30
40
0
40
0
40
0
40
0
40
0.0514465755209353
40
0.0514465755209353
40
0.135786144735421
40
0.135786144735421
40
0.203131635218893
40
0.203131635218893
40
0.270315608875134
40
0.270315608875134
40
0.337431278535989
40
0.337431278535989
40
0.404515897625591
40
0.404515897625591
40
0.499929883690887
40
0.499929883690887
40
0.599210771748138
40
0.599210771748138
40
0.697083019894234
40
0.697083019894234
40
0.780957226922769
40
0.780957226922769
40
0.847546414393289
40
0.847546414393289
40
0.898875235580381
40
0.898875235580381
40
0.980803570703584
40
0.980803570703584
40
1
40
1
40
1
40
1
41
1
10
71.3125440060256
20
7.97792949681903
30
0
41
1
10
71.303211532169
20
7.98587280167973
30
0
41
1
10
71.2958334036538
20
7.99566579121671
30
0
41
1
10
71.2812077391374
20
8.02362891749578
30
0
41
1
10
71.276591820982
20
8.04360297747186
30
0
41
1
10
71.2735942336615
20
8.08062143000893
30
0
41
1
10
71.2741400878004
20
8.09775017208207
30
0
41
1
10
71.2780128353352
20
8.13238096060797
30
0
41
1
10
71.2813518607363
20
8.14999701367259
30
0
41
1
10
71.2902332530618
20
8.18536749122751
30
0
41
1
10
71.2957960268004
20
8.20319960308024
30
0
41
1
10
71.3087722948878
20
8.23882937750213
30
0
41
1
10
71.3162089087768
20
8.25668869886263
30
0
41
1
10
71.3361661581357
20
8.29968065348044
30
0
41
1
10
71.3495703818314
20
8.32484713557329
30
0
41
1
10
71.3797691288544
20
8.37523613507
30
0
41
1
10
71.39677526364
20
8.40058223433155
30
0
41
1
10
71.4332396809871
20
8.44919148127778
30
0
41
1
10
71.4527787356673
20
8.47264415278562
30
0
41
1
10
71.4913889742245
20
8.51373220545148
30
0
41
1
10
71.5102438079334
20
8.53184626029602
30
0
41
1
10
71.5457083373328
20
8.56167332031052
30
0
41
1
10
71.5620781587593
20
8.57401709518436
30
0
41
1
10
71.5920453149913
20
8.59338760220379
30
0
41
1
10
71.6054970960315
20
8.60103152461306
30
0
41
1
10
71.6408421924449
20
8.6176177753515
30
0
41
1
10
71.6637635194566
20
8.62499513664599
30
0
41
1
10
71.691114490479
20
8.62713042744193
30
0
41
1
10
71.6963591844943
20
8.62722180906923
30
0
41
1
10
71.7015123581272
20
8.62695397731557
30
0
0
SPLINE
5
271
100
AcDbEntity
8
1
62
256
6
ByLayer
370
-1
48
1
60
0
100
AcDbSpline
70
4
71
3
72
34
73
30
40
0
40
0
40
0
40
0
40
0.0514465755209239
40
0.0514465755209239
40
0.135786144735428
40
0.135786144735428
40
0.203131635218891
40
0.203131635218891
40
0.270315608875115
40
0.270315608875115
40
0.337431278535961
40
0.337431278535961
40
0.404515897625565
40
0.404515897625565
40
0.499929883690876
40
0.499929883690876
40
0.599210771748134
40
0.599210771748134
40
0.697083019894225
40
0.697083019894225
40
0.780957226922756
40
0.780957226922756
40
0.847546414393274
40
0.847546414393274
40
0.898875235580378
40
0.898875235580378
40
0.980803570703577
40
0.980803570703577
40
1
40
1
40
1
40
1
41
1
10
71.7015123581272
20
9.3790492962803
30
0
41
1
10
71.6878450824024
20
9.37434690587395
30
0
41
1
10
71.6734913649281
20
9.37221366379626
30
0
41
1
10
71.6364183129166
20
9.37184916137943
30
0
41
1
10
71.6134810743221
20
9.37677361594447
30
0
41
1
10
71.5744364490326
20
9.39088269211953
30
0
41
1
10
71.5575751137128
20
9.39914383063561
30
0
41
1
10
71.5252677746898
20
9.41835509321749
30
0
41
1
10
71.5097147141002
20
9.42936776122264
30
0
41
1
10
71.4799385930765
20
9.45347580729032
30
0
41
1
10
71.4656505199231
20
9.46662486131393
30
0
41
1
10
71.4383848422489
20
9.49462367577124
30
0
41
1
10
71.4253603974897
20
9.50952245160826
30
0
41
1
10
71.3954590624699
20
9.54731011064061
30
0
41
1
10
71.3791729706255
20
9.57104111417067
30
0
41
1
10
71.3489742236024
20
9.62171598727008
30
0
41
1
10
71.3350863946089
20
9.64891360453368
30
0
41
1
10
71.3111730893374
20
9.70467533801963
30
0
41
1
10
71.3010112445858
20
9.73339954701322
30
0
41
1
10
71.2861955890188
20
9.78776922861709
30
0
41
1
10
71.2809145520225
20
9.81343248246083
30
0
41
1
10
71.2751303570117
20
9.85972446115395
30
0
41
1
10
71.273852296276
20
9.88042813240307
30
0
41
1
10
71.2746054131142
20
9.91679601715273
30
0
41
1
10
71.2759509793228
20
9.93262146739346
30
0
41
1
10
71.2827974386726
20
9.97252129663573
30
0
41
1
10
71.2904344205732
20
9.99677139983649
30
0
41
1
10
71.3057842651493
20
10.0224674756407
30
0
41
1
10
71.3090252463858
20
10.0272402767271
30
0
41
1
10
71.3125440060256
20
10.0317559091538
30
0
0
SPLINE
5
272
100
AcDbEntity
8
1
62
256
6
ByLayer
370
-1
48
1
60
0
100
AcDbSpline
70
4
71
3
72
8
73
4
40
0
40
0
40
0
40
0
40
1
40
1
40
1
40
1
41
1
10
66.1931947459698
20
12.5195752736869
30
0
41
1
10
66.1928674486193
20
12.5195334243282
30
0
41
1
10
66.1925397962008
20
12.5194914679193
30
0
41
1
10
66.1922117941147
20
12.5194494029736
30
0
0
SPLINE
5
273
100
AcDbEntity
8
1
62
256
6
ByLayer
370
-1
48
1
60
0
100
AcDbSpline
70
4
71
1
72
4
73
2
40
0
40
0
40
1
40
1
41
1.08358774580744
10
62.5656940843887
20
6.71708844624648
30
0
41
1.08358774580744
10
62.5985611960972
20
6.87723351878053
30
0
0
SPLINE
5
274
100
AcDbEntity
8
1
62
256
6
ByLayer
370
-1
48
1
60
0
100
AcDbSpline
70
4
71
3
72
10
73
6
40
0
40
0
40
0
40
0
40
0.722254617258839
40
0.722254617258839
40
1
40
1
40
1
40
1
41
1
10
65.9666334467428
20
12.4678449382479
30
0
41
1
10
66.0165381236386
20
12.4921615696966
30
0
41
1
10
66.0715087255541
20
12.5084741975072
30
0
41
1
10
66.1485901637137
20
12.5181415458612
30
0
41
1
10
66.1704228019471
20
12.5194861163459
30
0
41
1
10
66.1922117941136
20
12.5194494029737
30
0
0
SPLINE
5
275
100
AcDbEntity
8
1
62
256
6
ByLayer
370
-1
48
1
60
0
100
AcDbSpline
70
4
71
3
72
10
73
6
40
0
40
0
40
0
40
0
40
0.638091248905442
40
0.638091248905442
40
1
40
1
40
1
40
1
41
1
10
65.9666334467428
20
12.4678449382479
30
0
41
1
10
65.9385978312876
20
12.4574756514364
30
0
41
1
10
65.9138312326531
20
12.446361552474
30
0
41
1
10
65.8820950107051
20
12.4309769815108
30
0
41
1
10
65.8718623344524
20
12.4257459290082
30
0
41
1
10
65.863217013951
20
12.4214773545037
30
0
0
SPLINE
5
276
100
AcDbEntity
8
1
62
256
6
ByLayer
370
-1
48
1
60
0
100
AcDbSpline
70
4
71
3
72
12
73
8
40
0
40
0
40
0
40
0
40
0.404644073901359
40
0.404644073901359
40
0.809285947755716
40
0.809285947755716
40
1
40
1
40
1
40
1
41
1
10
65.6988736992669
20
12.0641123213662
30
0
41
1
10
65.6988736992669
20
12.1181595628661
30
0
41
1
10
65.7085338946952
20
12.1729180566476
30
0
41
1
10
65.7455734564293
20
12.274787942225
30
0
41
1
10
65.7734633761763
20
12.3233040845859
30
0
41
1
10
65.8250688745125
20
12.3854398474739
30
0
41
1
10
65.8434540015143
20
12.4042569846192
30
0
41
1
10
65.8632170139529
20
12.421477354506
30
0
0
SPLINE
5
277
100
AcDbEntity
8
SK1
62
256
6
ByLayer
370
-1
48
1
60
0
100
AcDbSpline
70
4
71
3
72
89
73
85
40
0
40
0
40
0
40
0
40
0.0069866522942655
40
0.0210727459288765
40
0.0351588395634874
40
0.0422018863807929
40
0.0492449331980984
40
0.0527664566067512
40
0.0562879800154039
40
0.0598095034240566
40
0.0633310268327094
40
0.0703740736500149
40
0.0774171204673203
40
0.0915032141019313
40
0.105589307736542
40
0.119675401371153
40
0.133761495005764
40
0.147847588640375
40
0.161933682274986
40
0.176019775909597
40
0.190105869544208
40
0.204191963178819
40
0.21827805681343
40
0.232364150448041
40
0.246450244082652
40
0.260536337717263
40
0.274622431351874
40
0.288708524986485
40
0.302794618621096
40
0.316880712255707
40
0.330966805890318
40
0.345052899524929
40
0.35913899315954
40
0.373225086794151
40
0.387311180428762
40
0.401397274063373
40
0.415483367697983
40
0.429569461332594
40
0.443655554967205
40
0.457741648601816
40
0.471827742236427
40
0.485913835871038
40
0.499999929505649
40
0.51408602314026
40
0.528172116774871
40
0.542258210409482
40
0.556344304044093
40
0.570430397678704
40
0.584516491313315
40
0.598602584947926
40
0.612688678582537
40
0.626774772217148
40
0.640860865851759
40
0.65494695948637
40
0.669033053120981
40
0.683119146755592
40
0.697205240390203
40
0.711291334024814
40
0.725377427659425
40
0.739463521294036
40
0.753549614928647
40
0.767635708563258
40
0.781721802197868
40
0.795807895832479
40
0.80989398946709
40
0.823980083101701
40
0.838066176736312
40
0.852152270370923
40
0.866238364005534
40
0.880324457640145
40
0.894410551274756
40
0.908496644909367
40
0.922582738543978
40
0.929625785361284
40
0.936668832178589
40
0.940190355587242
40
0.943711878995895
40
0.947233402404547
40
0.9507549258132
40
0.957797972630505
40
0.964841019447811
40
0.978927113082422
40
0.993013206717033
40
1
40
1
40
1
40
1
41
1
10
-2
20
21.5597582005666
30
0
41
1
10
-2
20
21.5823348005797
30
0
41
1
10
-2
20
21.6471330989619
30
0
41
1
10
-2
20
21.7367552760374
30
0
41
1
10
-2
20
21.795767724447
30
0
41
1
10
-2
20
21.8207574214533
30
0
41
1
10
-2
20
21.8262248087307
30
0
41
1
10
-2
20
21.8240288460024
30
0
41
1
10
-2
20
21.8189793414588
30
0
41
1
10
-2
20
21.8103813172626
30
0
41
1
10
-2
20
21.7940462079955
30
0
41
1
10
-2
20
21.7642160490035
30
0
41
1
10
-2
20
21.6949779936854
30
0
41
1
10
-2
20
21.5661676526815
30
0
41
1
10
-2
20
21.3371910810194
30
0
41
1
10
-2
20
21.0285622078674
30
0
41
1
10
-2
20
20.6365187777369
30
0
41
1
10
-2
20
20.1589996983693
30
0
41
1
10
-2.00000000000003
20
19.5958617698656
30
0
41
1
10
-2.00000000000003
20
18.9489598758679
30
0
41
1
10
-2.00000000000003
20
18.2221705966385
30
0
41
1
10
-2.00000000000003
20
17.4213307857328
30
0
41
1
10
-2.00000000000003
20
16.5541009338831
30
0
41
1
10
-2.00000000000003
20
15.6297568996197
30
0
41
1
10
-2.00000000000003
20
14.6589138549468
30
0
41
1
10
-2.00000000000003
20
13.6532009067709
30
0
41
1
10
-2.00000000000003
20
12.6248857298215
30
0
41
1
10
-2.00000000000003
20
11.5864803035381
30
0
41
1
10
-2.00000000000003
20
10.5503219390466
30
0
41
1
10
-2.00000000000003
20
9.5281693138144
30
0
41
1
10
-2.00000000000003
20
8.53080274713156
30
0
41
1
10
-2.00000000000003
20
7.56767168233321
30
0
41
1
10
-2.00000000000003
20
6.64657466016962
30
0
41
1
10
-2.00000000000003
20
5.77341249237057
30
0
41
1
10
-2.00000000000003
20
4.95199325849538
30
0
41
1
10
-2.00000000000003
20
4.18393961035022
30
0
41
1
10
-2.00000000000003
20
3.46864023496266
30
0
41
1
10
-2.00000000000003
20
2.80331262467871
30
0
41
1
10
-2.00000000000003
20
2.18314518734891
30
0
41
1
10
-2.00000000000003
20
1.60149397612398
30
0
41
1
10
-2.00000000000003
20
1.05016386127724
30
0
41
1
10
-2.00000000000003
20
0.519747329370034
30
0
41
1
10
-2.00000000000003
20
2.174625422E-07
30
0
41
1
10
-2.00000000000003
20
-0.519747796859832
30
0
41
1
10
-2.00000000000003
20
-1.05016384629153
30
0
41
1
10
-2.00000000000003
20
-1.60149393775734
30
0
41
1
10
-2.00000000000003
20
-2.18314499792092
30
0
41
1
10
-2.00000000000003
20
-2.80331286928887
30
0
41
1
10
-2.00000000000003
20
-3.46863999985663
30
0
41
1
10
-2.00000000000003
20
-4.18394012013403
30
0
41
1
10
-2.00000000000003
20
-4.95199329354998
30
0
41
1
10
-2.00000000000003
20
-5.77341227102076
30
0
41
1
10
-2.00000000000003
20
-6.64657476441815
30
0
41
1
10
-2.00000000000003
20
-7.56767138772486
30
0
41
1
10
-2.00000000000003
20
-8.53080293175961
30
0
41
1
10
-2.00000000000003
20
-9.52816888083231
30
0
41
1
10
-2.00000000000003
20
-10.5503221797328
30
0
41
1
10
-2.00000000000003
20
-11.5864797887658
30
0
41
1
10
-2.00000000000003
20
-12.6248859949608
30
0
41
1
10
-2.00000000000003
20
-13.6532003777634
30
0
41
1
10
-2.00000000000003
20
-14.6589141102143
30
0
41
1
10
-2.00000000000003
20
-15.6297564245795
30
0
41
1
10
-2.00000000000003
20
-16.5541011472568
30
0
41
1
10
-2.00000000000003
20
-17.4213304234775
30
0
41
1
10
-2.00000000000003
20
-18.2221707430851
30
0
41
1
10
-2.00000000000003
20
-18.9489596670075
30
0
41
1
10
-2.00000000000003
20
-19.5958618349948
30
0
41
1
10
-2
20
-20.1589996510313
30
0
41
1
10
-2
20
-20.6365184914532
30
0
41
1
10
-2
20
-21.0285634421464
30
0
41
1
10
-2
20
-21.337187169909
30
0
41
1
10
-2
20
-21.5661689793568
30
0
41
1
10
-2
20
-21.694977581428
30
0
41
1
10
-2
20
-21.7642160759136
30
0
41
1
10
-2
20
-21.7940468728384
30
0
41
1
10
-2
20
-21.810382005051
30
0
41
1
10
-2
20
-21.8189797158788
30
0
41
1
10
-2
20
-21.8240291114512
30
0
41
1
10
-2
20
-21.8262247109582
30
0
41
1
10
-2
20
-21.8207568792357
30
0
41
1
10
-2
20
-21.7957672612685
30
0
41
1
10
-2
20
-21.7367554969224
30
0
41
1
10
-2
20
-21.647132912494
30
0
41
1
10
-2.00000000000003
20
-21.5823341907873
30
0
41
1
10
-2.00000000000003
20
-21.5597571127794
30
0
0
SPLINE
5
278
100
AcDbEntity
8
SK1
62
256
6
ByLayer
370
-1
48
1
60
0
100
AcDbSpline
70
4
71
3
72
10
73
6
40
0
40
0
40
0
40
0
40
0.931951483854433
40
0.931951483854433
40
1
40
1
40
1
40
1
41
1
10
-2.84E-14
20
6.53762644691741
30
0
41
1
10
-0.04849145953483
20
6.70686335370419
30
0
41
1
10
-0.104961398284928
20
6.8740004138196
30
0
41
1
10
-0.188237156292189
20
7.04340072103489
30
0
41
1
10
-0.194048735538786
20
7.05491037332897
30
0
41
1
10
-0.200000000000273
20
7.06635659049311
30
0
0
SPLINE
5
279
100
AcDbEntity
8
SK1
62
256
6
ByLayer
370
-1
48
1
60
0
100
AcDbSpline
70
4
71
3
72
35
73
31
40
0
40
0
40
0
40
0
40
0.0271881725194259
40
0.0707581687555026
40
0.114328164991579
40
0.157898161227656
40
0.201468157463733
40
0.245038153699809
40
0.288608149935886
40
0.332178146171963
40
0.37574814240804
40
0.419318138644116
40
0.462888134880193
40
0.50645813111627
40
0.550028127352346
40
0.593598123588423
40
0.6371681198245
40
0.680738116060577
40
0.724308112296653
40
0.76787810853273
40
0.811448104768807
40
0.855018101004883
40
0.89858809724096
40
0.920373095358999
40
0.942158093477037
40
0.953050592536056
40
0.963943091595075
40
0.974835590654094
40
0.985728089713114
40
1
40
1
40
1
40
1
41
1
10
-0.400000000000063
20
-6.10423156158009
30
0
41
1
10
-0.400000000000063
20
-6.28446194326722
30
0
41
1
10
-0.400000000000063
20
-6.76201538726676
30
0
41
1
10
-0.400000000000063
20
-7.56767138772486
30
0
41
1
10
-0.400000000000034
20
-8.53080293175961
30
0
41
1
10
-0.400000000000034
20
-9.52816888083231
30
0
41
1
10
-0.400000000000034
20
-10.5503221797328
30
0
41
1
10
-0.400000000000034
20
-11.5864797887658
30
0
41
1
10
-0.400000000000034
20
-12.6248859949608
30
0
41
1
10
-0.400000000000034
20
-13.6532003777634
30
0
41
1
10
-0.400000000000034
20
-14.6589141102143
30
0
41
1
10
-0.400000000000034
20
-15.6297564245795
30
0
41
1
10
-0.400000000000034
20
-16.5541011472568
30
0
41
1
10
-0.400000000000034
20
-17.4213304234775
30
0
41
1
10
-0.400000000000034
20
-18.2221707430851
30
0
41
1
10
-0.400000000000034
20
-18.9489596670075
30
0
41
1
10
-0.400000000000034
20
-19.5958618349948
30
0
41
1
10
-0.400000000000034
20
-20.1589996510313
30
0
41
1
10
-0.400000000000034
20
-20.6365184914532
30
0
41
1
10
-0.400000000000034
20
-21.0285634421464
30
0
41
1
10
-0.400000000000034
20
-21.337187169909
30
0
41
1
10
-0.400000000000034
20
-21.5661689793568
30
0
41
1
10
-0.400000000000034
20
-21.694977581428
30
0
41
1
10
-0.400000000000034
20
-21.7642160759136
30
0
41
1
10
-0.400000000000034
20
-21.7940468728384
30
0
41
1
10
-0.400000000000006
20
-21.810382005051
30
0
41
1
10
-0.400000000000006
20
-21.8189797158788
30
0
41
1
10
-0.400000000000006
20
-21.8240291114512
30
0
41
1
10
-0.400000000000006
20
-21.8258461079432
30
0
41
1
10
-0.400000000000006
20
-21.8241921143962
30
0
41
1
10
-0.400000000000006
20
-21.8223590884949
30
0
0
SPLINE
5
27A
100
AcDbEntity
8
SK1
62
256
6
ByLayer
370
-1
48
1
60
0
100
AcDbSpline
70
4
71
3
72
10
73
6
40
0
40
0
40
0
40
0
40
0.5
40
0.5
40
1
40
1
40
1
40
1
41
1
10
-1.30710678118655
20
-4.69591747913023
30
0
41
1
10
-1.57554674537735
20
-3.20453676372955
30
0
41
1
10
-1.78936151312067
20
-1.60679765765514
30
0
41
1
10
-1.7893657244158
20
1.60676394111792
30
0
41
1
10
-1.57555073250512
20
3.20452084810844
30
0
41
1
10
-1.30710678118655
20
4.69591515673878
30
0
0
SPLINE
5
27B
100
AcDbEntity
8
SK1
62
256
6
ByLayer
370
-1
48
1
60
0
100
AcDbSpline
70
4
71
3
72
10
73
6
40
0
40
0
40
0
40
0
40
0.815535209409631
40
0.815535209409631
40
1
40
1
40
1
40
1
41
1
10
-2.20000000000002
20
-18.8057994981526
30
0
41
1
10
-2.20000000000002
20
-20.4449035848964
30
0
41
1
10
-2.20000226725097
20
-21.5642089788153
30
0
41
1
10
-2.19995739562609
20
-21.9906791116876
30
0
41
1
10
-2.19994661317062
20
-22.0297937659093
30
0
41
1
10
-2.19993249039999
20
-22.0201003651307
30
0
0
SPLINE
5
27C
100
AcDbEntity
8
SK1
62
256
6
ByLayer
370
-1
48
1
60
0
100
AcDbSpline
70
4
71
3
72
10
73
6
40
0
40
0
40
0
40
0
40
0.184720296637322
40
0.184720296637322
40
1
40
1
40
1
40
1
41
1
10
-2.19993251944493
20
22.0200998347953
30
0
41
1
10
-2.19994665903494
20
22.0297472193079
30
0
41
1
10
-2.19995744775539
20
21.990450674678
30
0
41
1
10
-2.20000225739005
20
21.563120800415
30
0
41
1
10
-2.20000000000002
20
20.4409087780279
30
0
41
1
10
-2.20000000000002
20
18.8057993596817
30
0
0
SPLINE
5
27D
100
AcDbEntity
8
SK1
62
256
6
ByLayer
370
-1
48
1
60
0
100
AcDbSpline
70
4
71
3
72
14
73
10
40
0
40
0
40
0
40
0
40
0.119777021889854
40
0.278046745203171
40
0.436316468516488
40
0.594586191829805
40
0.752855915143122
40
0.911125638456439
40
1
40
1
40
1
40
1
41
1
10
-2.20000000000002
20
-13.0172198852615
30
0
41
1
10
-2.20000000000002
20
-13.2789204454624
30
0
41
1
10
-2.20000000000002
20
-13.8834372225796
30
0
41
1
10
-2.20000000000002
20
-14.8135248894266
30
0
41
1
10
-2.20000000000002
20
-15.7904214898648
30
0
41
1
10
-2.20000000000002
20
-16.7204320226197
30
0
41
1
10
-2.20000000000002
20
-17.5929249336309
30
0
41
1
10
-2.20000000000002
20
-18.2808591321625
30
0
41
1
10
-2.20000000000002
20
-18.669962461278
30
0
41
1
10
-2.20000000000002
20
-18.8057994981522
30
0
0
SPLINE
5
27E
100
AcDbEntity
8
SK1
62
256
6
ByLayer
370
-1
48
1
60
0
100
AcDbSpline
70
4
71
3
72
22
73
18
40
0
40
0
40
0
40
0
40
0.0423762482151073
40
0.0423762482151073
40
0.0854249042403576
40
0.0854249042403576
40
0.115510710892585
40
0.115510710892585
40
0.145562977863389
40
0.145562977863389
40
0.188866560319605
40
0.188866560319605
40
0.269464421829291
40
0.269464421829291
40
0.539576062841086
40
0.539576062841086
40
1
40
1
40
1
40
1
41
1
10
-0.400000000000063
20
6.10423197315535
30
0
41
1
10
-0.420133409127487
20
6.12423434429553
30
0
41
1
10
-0.442149896508255
20
6.14298369126584
30
0
41
1
10
-0.490914524716317
20
6.17485278184395
30
0
41
1
10
-0.518425990074348
20
6.18818802917735
30
0
41
1
10
-0.568088809269341
20
6.2007917866726
30
0
41
1
10
-0.589839550198434
20
6.20307835596932
30
0
41
1
10
-0.632358101077472
20
6.20079662668147
30
0
41
1
10
-0.65359418173702
20
6.19624019805292
30
0
41
1
10
-0.701806923597019
20
6.17907520886138
30
0
41
1
10
-0.728087274871882
20
6.16375377211619
30
0
41
1
10
-0.795263795653284
20
6.11374953177531
30
0
41
1
10
-0.831450402468533
20
6.07313839594474
30
0
41
1
10
-0.968479126013762
20
5.89027783727639
30
0
41
1
10
-1.03459250955694
20
5.72638662078546
30
0
41
1
10
-1.18908100646803
20
5.28349358994365
30
0
41
1
10
-1.25390182158543
20
4.99150600000522
30
0
41
1
10
-1.30710678118655
20
4.69591515673878
30
0
0
SPLINE
5
27F
100
AcDbEntity
8
SK1
62
256
6
ByLayer
370
-1
48
1
60
0
100
AcDbSpline
70
4
71
3
72
14
73
10
40
0
40
0
40
0
40
0
40
0.0888743441035659
40
0.247144108639162
40
0.405413873174757
40
0.563683637710353
40
0.721953402245948
40
0.880223166781544
40
1
40
1
40
1
40
1
41
1
10
-2.20000000000002
20
18.8057993596815
30
0
41
1
10
-2.20000000000002
20
18.6699623491591
30
0
41
1
10
-2.20000000000002
20
18.2808589940076
30
0
41
1
10
-2.20000000000002
20
17.5929252949647
30
0
41
1
10
-2.20000000000002
20
16.7204318129083
30
0
41
1
10
-2.20000000000002
20
15.7904219641236
30
0
41
1
10
-2.20000000000002
20
14.8135246379527
30
0
41
1
10
-2.20000000000002
20
13.8834381562769
30
0
41
1
10
-2.20000000000002
20
13.2789215159064
30
0
41
1
10
-2.20000000000002
20
13.0172213663826
30
0
0
SPLINE
5
280
100
AcDbEntity
8
SK1
62
256
6
ByLayer
370
-1
48
1
60
0
100
AcDbSpline
70
4
71
3
72
8
73
4
40
0
40
0
40
0
40
0
40
1
40
1
40
1
40
1
41
1
10
-0.199999999999989
20
7.45410255809307
30
0
41
1
10
-0.13333351319929
20
7.46205653145404
30
0
41
1
10
-0.06666684419136
20
7.47000756994314
30
0
41
1
10
-2.84E-14
20
7.47795571927756
30
0
0
SPLINE
5
281
100
AcDbEntity
8
SK1
62
256
6
ByLayer
370
-1
48
1
60
0
100
AcDbSpline
70
4
71
3
72
35
73
31
40
0
40
0
40
0
40
0
40
0.0142712160427593
40
0.0251637229565722
40
0.036056229870385
40
0.0469487367841979
40
0.0578412436980107
40
0.0796262575256365
40
0.101411271353262
40
0.144981299008514
40
0.188551326663765
40
0.232121354319017
40
0.275691381974268
40
0.319261409629519
40
0.362831437284771
40
0.406401464940022
40
0.449971492595274
40
0.493541520250525
40
0.537111547905777
40
0.580681575561028
40
0.624251603216279
40
0.667821630871531
40
0.711391658526782
40
0.754961686182034
40
0.798531713837285
40
0.842101741492537
40
0.885671769147788
40
0.929241796803039
40
0.972811824458291
40
1
40
1
40
1
40
1
41
1
10
-0.399999999999977
20
21.8223596903465
30
0
41
1
10
-0.400000000000006
20
21.8241924485105
30
0
41
1
10
-0.400000000000006
20
21.8258461075737
30
0
41
1
10
-0.400000000000006
20
21.8240288460024
30
0
41
1
10
-0.400000000000006
20
21.8189793414588
30
0
41
1
10
-0.400000000000006
20
21.8103813172626
30
0
41
1
10
-0.400000000000034
20
21.7940462079955
30
0
41
1
10
-0.400000000000034
20
21.7642160490035
30
0
41
1
10
-0.400000000000034
20
21.6949779936854
30
0
41
1
10
-0.400000000000034
20
21.5661676526815
30
0
41
1
10
-0.400000000000034
20
21.3371910810194
30
0
41
1
10
-0.400000000000034
20
21.0285622078674
30
0
41
1
10
-0.400000000000034
20
20.6365187777369
30
0
41
1
10
-0.400000000000034
20
20.1589996983693
30
0
41
1
10
-0.400000000000034
20
19.5958617698656
30
0
41
1
10
-0.400000000000034
20
18.9489598758679
30
0
41
1
10
-0.400000000000034
20
18.2221705966385
30
0
41
1
10
-0.400000000000034
20
17.4213307857328
30
0
41
1
10
-0.400000000000034
20
16.5541009338831
30
0
41
1
10
-0.400000000000034
20
15.6297568996197
30
0
41
1
10
-0.400000000000034
20
14.6589138549468
30
0
41
1
10
-0.400000000000034
20
13.6532009067709
30
0
41
1
10
-0.400000000000034
20
12.6248857298215
30
0
41
1
10
-0.400000000000034
20
11.5864803035381
30
0
41
1
10
-0.400000000000034
20
10.5503219390466
30
0
41
1
10
-0.400000000000034
20
9.5281693138144
30
0
41
1
10
-0.400000000000034
20
8.53080274713156
30
0
41
1
10
-0.400000000000063
20
7.56767168233324
30
0
41
1
10
-0.400000000000063
20
6.76201544986952
30
0
41
1
10
-0.400000000000063
20
6.28446221538795
30
0
41
1
10
-0.400000000000063
20
6.10423197315535
30
0
0
SPLINE
5
282
100
AcDbEntity
8
SK1
62
256
6
ByLayer
370
-1
48
1
60
0
100
AcDbSpline
70
4
71
3
72
8
73
4
40
0
40
0
40
0
40
0
40
1
40
1
40
1
40
1
41
1
10
-2.84E-14
20
-7.47795498707188
30
0
41
1
10
-0.0666668441596983
20
-7.47000684507091
30
0
41
1
10
-0.133333513168509
20
-7.46205581415995
30
0
41
1
10
-0.199999999999989
20
-7.45410184860194
30
0
0
SPLINE
5
283
100
AcDbEntity
8
1
62
256
6
ByLayer
370
-1
48
1
60
0
100
AcDbSpline
70
4
71
3
72
12
73
8
40
0
40
0
40
0
40
0
40
0.347623173836868
40
0.347623173836868
40
0.696503371294807
40
0.696503371294807
40
1
40
1
40
1
40
1
41
1
10
64.394563489464
20
7.32322667964323
30
0
41
1
10
64.3874886405837
20
7.33452097358517
30
0
41
1
10
64.3782734829346
20
7.34490898508071
30
0
41
1
10
64.3568915215767
20
7.36247643812578
30
0
41
1
10
64.3443906795926
20
7.36989429846108
30
0
41
1
10
64.319753341629
20
7.38013819473602
30
0
41
1
10
64.3074909526799
20
7.38355473409385
30
0
41
1
10
64.2954260720382
20
7.38548666000082
30
0
0
SPLINE
5
284
100
AcDbEntity
8
1
62
256
6
ByLayer
370
-1
48
1
60
0
100
AcDbSpline
70
4
71
3
72
20
73
16
40
0
40
0
40
0
40
0
40
0.51136520436744
40
0.51136520436744
40
0.61716730955545
40
0.61716730955545
40
0.785488434327115
40
0.785488434327115
40
0.873398812153864
40
0.873398812153864
40
0.935684402254223
40
0.935684402254223
40
0.97872276537413
40
0.97872276537413
40
1
40
1
40
1
40
1
41
1
10
74.1605421515042
20
9.11241853568669
30
0
41
1
10
74.0557693315754
20
9.06364360448154
30
0
41
1
10
73.9522441193674
20
9.0111138962036
30
0
41
1
10
73.8357586726924
20
8.9354025851911
30
0
41
1
10
73.8160654548722
20
8.92189494953232
30
0
41
1
10
73.7665340746469
20
8.8852039064036
30
0
41
1
10
73.7371436086565
20
8.86099179792728
30
0
41
1
10
73.6981173327077
20
8.81914538342241
30
0
41
1
10
73.6856391724223
20
8.80373351016789
30
0
41
1
10
73.6686546067453
20
8.77507043527854
30
0
41
1
10
73.6627999473585
20
8.76227691483936
30
0
41
1
10
73.6574149009798
20
8.73969477936194
30
0
41
1
10
73.6565130952957
20
8.73000671488546
30
0
41
1
10
73.6578953134845
20
8.71583995318156
30
0
41
1
10
73.6588060519693
20
8.71114017441852
30
0
41
1
10
73.6601575886813
20
8.70658086505907
30
0
0
SPLINE
5
285
100
AcDbEntity
8
1
62
256
6
ByLayer
370
-1
48
1
60
0
100
AcDbSpline
70
4
71
3
72
14
73
10
40
0
40
0
40
0
40
0
40
0.249606055014994
40
0.249606055014994
40
0.499158243446863
40
0.499158243446863
40
0.746144217743583
40
0.746144217743583
40
1
40
1
40
1
40
1
41
1
10
68.3432996562534
20
13.1737464755703
30
0
41
1
10
68.3589843871608
20
13.1826456997342
30
0
41
1
10
68.374684051586
20
13.1919405087065
30
0
41
1
10
68.4054542452957
20
13.2109148462967
30
0
41
1
10
68.4206319070349
20
13.220660149995
30
0
41
1
10
68.4498153198994
20
13.240166788466
30
0
41
1
10
68.4639284453082
20
13.2499916661694
30
0
41
1
10
68.4911671830362
20
13.2697673352095
30
0
41
1
10
68.504349288129
20
13.2797828986409
30
0
41
1
10
68.5166299309381
20
13.2895825839837
30
0
0
SPLINE
5
286
100
AcDbEntity
8
1
62
256
6
ByLayer
370
-1
48
1
60
0
100
AcDbSpline
70
4
71
3
72
12
73
8
40
0
40
0
40
0
40
0
40
0.47437669837107
40
0.47437669837107
40
0.706219783413751
40
0.706219783413751
40
1
40
1
40
1
40
1
41
1
10
68.1016267640547
20
4.80608433076608
30
0
41
1
10
68.0784393712354
20
4.81369625033955
30
0
41
1
10
68.0518793684276
20
4.82440165525961
30
0
41
1
10
68.0106906963517
20
4.84346958286199
30
0
41
1
10
67.9966869500108
20
4.85033158089928
30
0
41
1
10
67.9647397580637
20
4.86679861415655
30
0
41
1
10
67.9465754479039
20
4.87673269981281
30
0
41
1
10
67.928621958918
20
4.8870953086338
30
0
0
SPLINE
5
287
100
AcDbEntity
8
1
62
256
6
ByLayer
370
-1
48
1
60
0
100
AcDbSpline
70
4
71
3
72
18
73
14
40
0
40
0
40
0
40
0
40
0.439677344605702
40
0.439677344605702
40
0.819840138515269
40
0.819840138515269
40
0.920758376963025
40
0.920758376963025
40
0.968467673881563
40
0.968467673881563
40
0.990240013274128
40
0.990240013274128
40
1
40
1
40
1
40
1
41
1
10
67.3464270749263
20
5.84510125318772
30
0
41
1
10
67.3850398882892
20
5.92991152887953
30
0
41
1
10
67.4255300286196
20
6.0140127776306
30
0
41
1
10
67.5087406253859
20
6.16659021419642
30
0
41
1
10
67.5491358125622
20
6.23753117204475
30
0
41
1
10
67.6161105968758
20
6.31497099891357
30
0
41
1
10
67.6313269517236
20
6.33079661849663
30
0
41
1
10
67.6575573198841
20
6.34896300547436
30
0
41
1
10
67.666819430522
20
6.35413053449554
30
0
41
1
10
67.6813803253504
20
6.35794536340026
30
0
41
1
10
67.6862120796345
20
6.35858137920053
30
0
41
1
10
67.6931136453418
20
6.35822427589113
30
0
41
1
10
67.6952642265428
20
6.35793335292999
30
0
41
1
10
67.6973628002793
20
6.35745612326267
30
0
0
SPLINE
5
288
100
AcDbEntity
8
1
62
256
6
ByLayer
370
-1
48
1
60
0
100
AcDbSpline
70
4
71
3
72
20
73
16
40
0
40
0
40
0
40
0
40
0.511365204366866
40
0.511365204366866
40
0.617167309555266
40
0.617167309555266
40
0.785488434327001
40
0.785488434327001
40
0.873398812153786
40
0.873398812153786
40
0.935684402254178
40
0.935684402254178
40
0.978722765374107
40
0.978722765374107
40
1
40
1
40
1
40
1
41
1
10
68.4287469730172
20
5.60981640855474
30
0
41
1
10
68.4369993305703
20
5.72205309330778
30
0
41
1
10
68.4412668021278
20
5.83513804104706
30
0
41
1
10
68.4311825890001
20
5.97074768353724
30
0
41
1
10
68.4288432663654
20
5.99403071702261
30
0
41
1
10
68.4205235805715
20
6.05396031130672
30
0
41
1
10
68.413398943516
20
6.09075068055463
30
0
41
1
10
68.3952462777009
20
6.14448900849533
30
0
41
1
10
68.3876206007028
20
6.16269511572509
30
0
41
1
10
68.3703514837783
20
6.19134895528595
30
0
41
1
10
68.3617871840506
20
6.20269407637824
30
0
41
1
10
68.3442149298857
20
6.21857889418652
30
0
41
1
10
68.3359774583123
20
6.22421532283258
30
0
41
1
10
68.3225919901901
20
6.23019768651807
30
0
41
1
10
68.3179270760795
20
6.231803989501
30
0
41
1
10
68.3131694107344
20
6.23297071344652
30
0
0
SPLINE
5
289
100
AcDbEntity
8
1
62
256
6
ByLayer
370
-1
48
1
60
0
100
AcDbSpline
70
4
71
3
72
12
73
8
40
0
40
0
40
0
40
0
40
0.347623173836841
40
0.347623173836841
40
0.696503371294846
40
0.696503371294846
40
1
40
1
40
1
40
1
41
1
10
74.5541252467711
20
4.73744596379476
30
0
41
1
10
74.5470503978908
20
4.72517693413729
30
0
41
1
10
74.5419007205695
20
4.71161639884741
30
0
41
1
10
74.5363304274205
20
4.6841472374995
30
0
41
1
10
74.535863542846
20
4.66983960752347
30
0
41
1
10
74.5394551123435
20
4.64466621444791
30
0
41
1
10
74.5429802934248
20
4.63330453599437
30
0
41
1
10
74.5479866932225
20
4.62320682869435
30
0
0
SPLINE
5
28A
100
AcDbEntity
8
1
62
256
6
ByLayer
370
-1
48
1
60
0
100
AcDbSpline
70
4
71
3
72
12
73
8
40
0
40
0
40
0
40
0
40
0.47437669837105
40
0.47437669837105
40
0.706219783413742
40
0.706219783413742
40
1
40
1
40
1
40
1
41
1
10
74.9993088935015
20
9.16993280002779
30
0
41
1
10
74.998968152087
20
9.13921639692285
30
0
41
1
10
74.9987026747952
20
9.10580920780069
30
0
41
1
10
74.9984459606277
20
9.05620828486653
30
0
41
1
10
74.9983825030249
20
9.0396835784135
30
0
41
1
10
74.9982887967614
20
9.0027121161956
30
0
41
1
10
74.9982714243002
20
8.98220227939601
30
0
41
1
10
74.9982884283142
20
8.9624169754141
30
0
0
SPLINE
5
28B
100
AcDbEntity
8
1
62
256
6
ByLayer
370
-1
48
1
60
0
100
AcDbSpline
70
4
71
3
72
16
73
12
40
0
40
0
40
0
40
0
40
0.0426292751499065
40
0.0426292751499065
40
0.0996436166287461
40
0.0996436166287461
40
0.207156078099348
40
0.207156078099348
40
0.580806890299258
40
0.580806890299258
40
1
40
1
40
1
40
1
41
1
10
69.184616422264
20
12.3876199113404
30
0
41
1
10
69.1915436649207
20
12.3945196103615
30
0
41
1
10
69.1971204047606
20
12.4028380248574
30
0
41
1
10
69.206554318958
20
12.4233808439934
30
0
41
1
10
69.2094899469837
20
12.4362644955191
30
0
41
1
10
69.2133875132128
20
12.4731442676573
30
0
41
1
10
69.2107894829927
20
12.4977525804541
30
0
41
1
10
69.1907421192701
20
12.6037487750255
30
0
41
1
10
69.1543645107257
20
12.6817325547145
30
0
41
1
10
69.0725935024792
20
12.8409825910019
30
0
41
1
10
69.0231583671109
20
12.9224470015774
30
0
41
1
10
68.9712685222777
20
13.0021828093749
30
0
0
SPLINE
5
28C
100
AcDbEntity
8
1
62
256
6
ByLayer
370
-1
48
1
60
0
100
AcDbSpline
70
4
71
3
72
24
73
20
40
0
40
0
40
0
40
0
40
0.0154450745970612
40
0.0154450745970612
40
0.0417985895668294
40
0.0417985895668294
40
0.0483972597876715
40
0.0483972597876715
40
0.102103855500456
40
0.102103855500456
40
0.185330321121822
40
0.185330321121822
40
0.354377449491157
40
0.354377449491157
40
0.535348727398707
40
0.535348727398707
40
0.666091501001309
40
0.666091501001309
40
1
40
1
40
1
40
1
41
1
10
68.3068304953329
20
6.20799614609879
30
0
41
1
10
68.3100362369561
20
6.20726713906811
30
0
41
1
10
68.3131627834357
20
6.20608389515289
30
0
41
1
10
68.3209294018768
20
6.2019258464519
30
0
41
1
10
68.3252477329253
20
6.19821962341342
30
0
41
1
10
68.3297976113132
20
6.19304861734861
30
0
41
1
10
68.3306813130395
20
6.19196994690617
30
0
41
1
10
68.3383287257741
20
6.18202575184435
30
0
41
1
10
68.3430382889658
20
6.17165320469783
30
0
41
1
10
68.3525157425412
20
6.14495966966186
30
0
41
1
10
68.3560188834566
20
6.12794809945751
30
0
41
1
10
68.3638818284722
20
6.07641176699966
30
0
41
1
10
68.3653785333895
20
6.04133922650297
30
0
41
1
10
68.3658694021076
20
5.96901134780913
30
0
41
1
10
68.3644441131765
20
5.93157805677885
30
0
41
1
10
68.3604825401377
20
5.86723784073169
30
0
41
1
10
68.3583378205896
20
5.84027264802461
30
0
41
1
10
68.3494824608917
20
5.74458068697919
30
0
41
1
10
68.3409122639889
20
5.67600511859428
30
0
41
1
10
68.3311292740381
20
5.60762641257895
30
0
0
SPLINE
5
28D
100
AcDbEntity
8
1
62
256
6
ByLayer
370
-1
48
1
60
0
100
AcDbSpline
70
4
71
3
72
14
73
10
40
0
40
0
40
0
40
0
40
0.249606055015007
40
0.249606055015007
40
0.499158243446879
40
0.499158243446879
40
0.746144217743592
40
0.746144217743592
40
1
40
1
40
1
40
1
41
1
10
67.3688678216052
20
5.21018087520318
30
0
41
1
10
67.3532127450052
20
5.21921685896075
30
0
41
1
10
67.3375950846987
20
5.22864832941724
30
0
41
1
10
67.3070879542433
20
5.24789006692538
30
0
41
1
10
67.2920922286485
20
5.25776704023241
30
0
41
1
10
67.2633625089836
20
5.27752639807551
30
0
41
1
10
67.249521697856
20
5.28747326022326
30
0
41
1
10
67.2229184690107
20
5.30748388301902
30
0
41
1
10
67.2101040876088
20
5.31761288904033
30
0
41
1
10
67.1982294163911
20
5.32751798252676
30
0
0
SPLINE
5
28E
100
AcDbEntity
8
1
62
256
6
ByLayer
370
-1
48
1
60
0
100
AcDbSpline
70
4
71
3
72
10
73
6
40
0
40
0
40
0
40
0
40
0.709495622816728
40
0.709495622816728
40
1
40
1
40
1
40
1
41
1
10
75.0012058988419
20
5.61963082946676
30
0
41
1
10
74.9987534331304
20
5.5950728089116
30
0
41
1
10
74.992130941094
20
5.56945769790357
30
0
41
1
10
74.9783043093756
20
5.53603195679159
30
0
41
1
10
74.9736778280507
20
5.52643430143971
30
0
41
1
10
74.9685421027961
20
5.51715830363736
30
0
0
SPLINE
5
28F
100
AcDbEntity
8
1
62
256
6
ByLayer
370
-1
48
1
60
0
100
AcDbSpline
70
4
71
3
72
24
73
20
40
0
40
0
40
0
40
0
40
0.0154450745970633
40
0.0154450745970633
40
0.0417985895668769
40
0.0417985895668769
40
0.0483972597877291
40
0.0483972597877291
40
0.102103855500575
40
0.102103855500575
40
0.185330321122069
40
0.185330321122069
40
0.354377449491648
40
0.354377449491648
40
0.535348727399446
40
0.535348727399446
40
0.666091500997342
40
0.666091500997342
40
1
40
1
40
1
40
1
41
1
10
73.6851538154918
20
8.7128168472421
30
0
41
1
10
73.6841944096306
20
8.71586419749769
30
0
41
1
10
73.6836752576174
20
8.71906069538963
30
0
41
1
10
73.6834606556868
20
8.7275802633051
30
0
41
1
10
73.684571180002
20
8.73297984146032
30
0
41
1
10
73.6868579523848
20
8.73927055929428
30
0
41
1
10
73.6873676630204
20
8.74052769706603
30
0
41
1
10
73.6923162607559
20
8.75169641526932
30
0
41
1
10
73.6991111068649
20
8.76059334292628
30
0
41
1
10
73.717918098235
20
8.78126259907535
30
0
41
1
10
73.7311714111494
20
8.79229728919174
30
0
41
1
10
73.7726959197032
20
8.82340891801329
30
0
41
1
10
73.8028806679833
20
8.84133282594357
30
0
41
1
10
73.8664245003498
20
8.8761066997543
30
0
41
1
10
73.9001500789516
20
8.89268763390069
30
0
41
1
10
73.9588717218141
20
8.91991105779425
30
0
41
1
10
73.9837238482398
20
8.93091171275037
30
0
41
1
10
74.0725376834062
20
8.96889948954501
30
0
41
1
10
74.1372933387234
20
8.99424483621098
30
0
41
1
10
74.2024794711793
20
9.01847176625353
30
0
0
SPLINE
5
290
100
AcDbEntity
8
1
62
256
6
ByLayer
370
-1
48
1
60
0
100
AcDbSpline
70
4
71
2
72
6
73
3
40
0
40
0
40
0
40
1
40
1
40
1
41
0.500001284212195
10
74.5479866932225
20
4.62320682869437
30
0
41
0.499998715787805
10
74.5484028025991
20
4.62236755279557
30
0
41
0.500001284212195
10
74.5488184035136
20
4.62153129237076
30
0
0
SPLINE
5
291
100
AcDbEntity
8
1
62
256
6
ByLayer
370
-1
48
1
60
0
100
AcDbSpline
70
4
71
3
72
20
73
16
40
0
40
0
40
0
40
0
40
0.51136520436743
40
0.51136520436743
40
0.617167309555436
40
0.617167309555436
40
0.785488434327099
40
0.785488434327099
40
0.873398812153852
40
0.873398812153852
40
0.935684402254224
40
0.935684402254224
40
0.978722765374121
40
0.978722765374121
40
1
40
1
40
1
40
1
41
1
10
68.1323215128037
20
12.1703386782686
30
0
41
1
10
68.2288419751794
20
12.1068769247207
30
0
41
1
10
68.3280997158311
20
12.0463216852593
30
0
41
1
10
68.4546693756342
20
11.9864233537817
30
0
41
1
10
68.4767019160876
20
11.9766479559551
30
0
41
1
10
68.5345529821068
20
11.9534094047997
30
0
41
1
10
68.5710680851526
20
11.9408311440281
30
0
41
1
10
68.6282470269165
20
11.9289392305923
30
0
41
1
10
68.6483508642
20
11.9261449966171
30
0
41
1
10
68.6826045468015
20
11.9261542319456
30
0
41
1
10
68.697023505916
20
11.9276026312924
30
0
41
1
10
68.7199808064597
20
11.9342999489616
30
0
41
1
10
68.7291200837171
20
11.938351584792
30
0
41
1
10
68.7411233336504
20
11.9465359828104
30
0
41
1
10
68.7448775092763
20
11.9496294585906
30
0
41
1
10
68.7482836379094
20
11.9530220440045
30
0
0
SPLINE
5
292
100
AcDbEntity
8
1
62
256
6
ByLayer
370
-1
48
1
60
0
100
AcDbSpline
70
4
71
3
72
16
73
12
40
0
40
0
40
0
40
0
40
0.0426292751499157
40
0.0426292751499157
40
0.0996436166287497
40
0.0996436166287497
40
0.207156078099349
40
0.207156078099349
40
0.580806890299271
40
0.580806890299271
40
1
40
1
40
1
40
1
41
1
10
73.8332924993804
20
8.12252302055936
30
0
41
1
10
73.8360411984967
20
8.11325048693487
30
0
41
1
10
73.8407316707448
20
8.1043929469536
30
0
41
1
10
73.8544671885374
20
8.08614827046983
30
0
41
1
10
73.8645603828548
20
8.07719994544817
30
0
41
1
10
73.8956876469509
20
8.0553548821654
30
0
41
1
10
73.9190365732361
20
8.04512810862477
30
0
41
1
10
74.0240019155125
20
8.00848803815228
30
0
41
1
10
74.111956822972
20
7.99962649290214
30
0
41
1
10
74.2952818347612
20
7.98779240534253
30
0
41
1
10
74.392834630849
20
7.98810153818357
30
0
41
1
10
74.4900555765011
20
7.99133547274832
30
0
0
SPLINE
5
293
100
AcDbEntity
8
1
62
256
6
ByLayer
370
-1
48
1
60
0
100
AcDbSpline
70
4
71
3
72
10
73
6
40
0
40
0
40
0
40
0
40
0.709495622816717
40
0.709495622816717
40
1
40
1
40
1
40
1
41
1
10
70.8398038349676
20
14.6064123582383
30
0
41
1
10
70.8630546515993
20
14.6165434392561
30
0
41
1
10
70.888166127392
20
14.6219874249782
30
0
41
1
10
70.9228031113536
20
14.6236746442518
30
0
41
1
10
70.9329839697443
20
14.6234717072203
30
0
41
1
10
70.9431008469153
20
14.6226363932798
30
0
0
SPLINE
5
294
100
AcDbEntity
8
1
62
256
6
ByLayer
370
-1
48
1
60
0
100
AcDbSpline
70
4
71
3
72
14
73
10
40
0
40
0
40
0
40
0
40
0.249606055014989
40
0.249606055014989
40
0.499158243446871
40
0.499158243446871
40
0.746144217743599
40
0.746144217743599
40
1
40
1
40
1
40
1
41
1
10
74.9988185797055
20
8.34555048386048
30
0
41
1
10
74.9988334068592
20
8.32829810190651
30
0
41
1
10
74.9988744089185
20
8.31146006558762
30
0
41
1
10
74.9990059405457
20
8.27930133718365
30
0
41
1
10
74.9990969086179
20
8.26386835793895
30
0
41
1
10
74.9993237552176
20
8.23504919126262
30
0
41
1
10
74.9994599123583
20
8.22154781408821
30
0
41
1
10
74.9997776667996
20
8.19639487588964
30
0
41
1
10
74.9999615286451
20
8.18471758511015
30
0
41
1
10
75.0001645144408
20
8.17436078870264
30
0
0
SPLINE
5
295
100
AcDbEntity
8
1
62
256
6
ByLayer
370
-1
48
1
60
0
100
AcDbSpline
70
4
71
3
72
24
73
20
40
0
40
0
40
0
40
0
40
0.0154450745970614
40
0.0154450745970614
40
0.0417985895668934
40
0.0417985895668934
40
0.0483972597877403
40
0.0483972597877403
40
0.102103855500583
40
0.102103855500583
40
0.185330321122068
40
0.185330321122068
40
0.354377449491647
40
0.354377449491647
40
0.535348727399449
40
0.535348727399449
40
0.666091500997336
40
0.666091500997336
40
1
40
1
40
1
40
1
41
1
10
68.7295110772648
20
11.9699914613254
30
0
41
1
10
68.7272652305627
20
11.9676806255588
30
0
41
1
10
68.7246569782995
20
11.9656542037167
30
0
41
1
10
68.7170993833281
20
11.9612070506699
30
0
41
1
10
68.7116634817384
20
11.9594055303532
30
0
41
1
10
68.7048158199375
20
11.9581167904758
30
0
41
1
10
68.7034200583771
20
11.957902261072
30
0
41
1
10
68.6908019908416
20
11.9563391443538
30
0
41
1
10
68.679271954699
20
11.9574213713445
30
0
41
1
10
68.6509193985499
20
11.9624000888381
30
0
41
1
10
68.6341174680789
20
11.9676788661505
30
0
41
1
10
68.5845899095937
20
11.9859528473912
30
0
41
1
10
68.5528098480983
20
12.0015877638019
30
0
41
1
10
68.4885693836333
20
12.0359831363987
30
0
41
1
10
68.456161074521
20
12.0551773085544
30
0
41
1
10
68.4012138517763
20
12.0894211538427
30
0
41
1
10
68.3784275358792
20
12.104174375464
30
0
41
1
10
68.2981877602043
20
12.1575603767459
30
0
41
1
10
68.2417984242115
20
12.1976609144383
30
0
41
1
10
68.1861905812906
20
12.2386703754825
30
0
0
SPLINE
5
296
100
AcDbEntity
8
1
62
256
6
ByLayer
370
-1
48
1
60
0
100
AcDbSpline
70
4
71
2
72
6
73
3
40
0
40
0
40
0
40
1
40
1
40
1
41
0.500001284110201
10
71.8578399044045
20
14.5713690651681
30
0
41
0.499998715889799
10
71.8584373319049
20
14.5722129181398
30
0
41
0.500001284110201
10
71.8590339794569
20
14.573057266447
30
0
0
SPLINE
5
297
100
AcDbEntity
8
1
62
256
6
ByLayer
370
-1
48
1
60
0
100
AcDbSpline
70
4
71
3
72
12
73
8
40
0
40
0
40
0
40
0
40
0.347623173836898
40
0.347623173836898
40
0.696503371294921
40
0.696503371294921
40
1
40
1
40
1
40
1
41
1
10
71.7526194007186
20
14.5202413776193
30
0
41
1
10
71.7666678476776
20
14.5196618326364
30
0
41
1
10
71.7809381549005
20
14.5213832799838
30
0
41
1
10
71.8077731599582
20
14.5294851155642
30
0
41
1
10
71.8207179949088
20
14.5360234807311
30
0
41
1
10
71.8418344427971
20
14.5520379631346
30
0
41
1
10
71.8506519843863
20
14.5612162890356
30
0
41
1
10
71.8578399044045
20
14.5713690651681
30
0
0
SPLINE
5
298
100
AcDbEntity
8
1
62
256
6
ByLayer
370
-1
48
1
60
0
100
AcDbSpline
70
4
71
2
72
6
73
3
40
0
40
0
40
0
40
1
40
1
40
1
41
0.500001284536288
10
64.2954260720382
20
7.38548666000083
30
0
41
0.499998715463712
10
64.2944232935619
20
7.38564723297078
30
0
41
0.500001284536288
10
64.2934221311149
20
7.38580932434724
30
0
0
SPLINE
5
299
100
AcDbEntity
8
1
62
256
6
ByLayer
370
-1
48
1
60
0
100
AcDbSpline
70
4
71
3
72
12
73
8
40
0
40
0
40
0
40
0
40
0.474376698371063
40
0.474376698371063
40
0.706219783413764
40
0.706219783413764
40
1
40
1
40
1
40
1
41
1
10
67.611521341396
20
12.7760408293623
30
0
41
1
10
67.6340272513862
20
12.7834533540439
30
0
41
1
10
67.6600562996099
20
12.7939292726391
30
0
41
1
10
67.7007315433508
20
12.8126399652501
30
0
41
1
10
67.7146083744865
20
12.8193802989646
30
0
41
1
10
67.7463681539067
20
12.8355693298915
30
0
41
1
10
67.7644977191443
20
12.8453450375598
30
0
41
1
10
67.7824852161581
20
12.8555508083197
30
0
0
SPLINE
5
29A
100
AcDbEntity
8
1
62
256
6
ByLayer
370
-1
48
1
60
0
100
AcDbSpline
70
4
71
3
72
18
73
14
40
0
40
0
40
0
40
0
40
0.439677344605714
40
0.439677344605714
40
0.819840138515269
40
0.819840138515269
40
0.920758376963035
40
0.920758376963035
40
0.968467673881574
40
0.968467673881574
40
0.990240013274135
40
0.990240013274135
40
1
40
1
40
1
40
1
41
1
10
74.4856243699837
20
8.07655719358598
30
0
41
1
10
74.3915234179367
20
8.06879641802919
30
0
41
1
10
74.2971062263633
20
8.06294958897797
30
0
41
1
10
74.1209332270556
20
8.0605518141131
30
0
41
1
10
74.0381662521438
20
8.0608713033028
30
0
41
1
10
73.936379454369
20
8.08049438024517
30
0
41
1
10
73.9148137405959
20
8.08579299328349
30
0
41
1
10
73.8856777661561
20
8.09925865507228
30
0
41
1
10
73.8764897602854
20
8.10460620491779
30
0
41
1
10
73.865846279341
20
8.11506098117312
30
0
41
1
10
73.8628700360824
20
8.11882955117792
30
0
41
1
10
73.8597351689593
20
8.12481395365083
30
0
41
1
10
73.8589167817798
20
8.12676411670222
30
0
41
1
10
73.8582887261908
20
8.12875900274233
30
0
0
SPLINE
5
29B
100
AcDbEntity
8
1
62
256
6
ByLayer
370
-1
48
1
60
0
100
AcDbSpline
70
4
71
3
72
16
73
12
40
0
40
0
40
0
40
0
40
0.0426292751498772
40
0.0426292751498772
40
0.0996436166287371
40
0.0996436166287371
40
0.207156078099323
40
0.207156078099323
40
0.580806890299251
40
0.580806890299251
40
1
40
1
40
1
40
1
41
1
10
67.7037017156807
20
6.38243069061034
30
0
41
1
10
67.6940257739078
20
6.38480352521364
30
0
41
1
10
67.6837585618197
20
6.3853426506991
30
0
41
1
10
67.6605891298297
20
6.38304450804685
30
0
41
1
10
67.6475603074865
20
6.37910918154276
30
0
41
1
10
67.6125354771614
20
6.36407447268732
30
0
41
1
10
67.5917845810963
20
6.34969293343116
30
0
41
1
10
67.5068666025424
20
6.28033680933223
30
0
41
1
10
67.4552893036275
20
6.21121457489343
30
0
41
1
10
67.3537353000847
20
6.06379862616566
30
0
41
1
10
67.3056176393653
20
5.98202508274903
30
0
41
1
10
67.2602865385463
20
5.89905534038684
30
0
0
SPLINE
5
29C
100
AcDbEntity
8
1
62
256
6
ByLayer
370
-1
48
1
60
0
100
AcDbSpline
70
4
71
3
72
18
73
14
40
0
40
0
40
0
40
0
40
0.439677344605706
40
0.439677344605706
40
0.819840138515274
40
0.819840138515274
40
0.920758376963032
40
0.920758376963032
40
0.968467673881576
40
0.968467673881576
40
0.990240013274127
40
0.990240013274127
40
1
40
1
40
1
40
1
41
1
10
68.8877136101133
20
12.9425840128711
30
0
41
1
10
68.9434738421378
20
12.8697113628993
30
0
41
1
10
68.9976718394034
20
12.7956161811196
30
0
41
1
10
69.0911325465436
20
12.6530858931328
30
0
41
1
10
69.1337369283884
20
12.5853959515042
30
0
41
1
10
69.168820811949
20
12.4925064709321
30
0
41
1
10
69.1752269345296
20
12.4722536057685
30
0
41
1
10
69.178204674419
20
12.4417288655493
30
0
41
1
10
69.1781525223055
20
12.4315507774569
30
0
41
1
10
69.1742574580355
20
12.4176242567272
30
0
41
1
10
69.1724075854198
20
12.4133062250155
30
0
41
1
10
69.1686453655449
20
12.4077476776194
30
0
41
1
10
69.167314059614
20
12.4061020704288
30
0
41
1
10
69.1658438616195
20
12.4045893286613
30
0
0
SPLINE
5
29D
100
AcDbEntity
8
1
62
256
6
ByLayer
370
-1
48
1
60
0
100
AcDbSpline
70
4
71
3
72
10
73
6
40
0
40
0
40
0
40
0
40
0.709495622816769
40
0.709495622816769
40
1
40
1
40
1
40
1
41
1
10
64.8806009035156
20
6.66653043480503
30
0
41
1
10
64.8598025525954
20
6.68095737434237
30
0
41
1
10
64.8410800375326
20
6.69754360749164
30
0
41
1
10
64.819818683946
20
6.72235889838211
30
0
41
1
10
64.8141160707407
20
6.72988394758951
30
0
41
1
10
64.8089803454861
20
6.73762243509381
30
0
0
SPLINE
5
29E
100
AcDbEntity
8
1
62
256
6
ByLayer
370
-1
48
1
60
0
100
AcDbSpline
70
4
71
3
72
22
73
18
40
0
40
0
40
0
40
0
40
0.208266363442909
40
0.208266363442909
40
0.317899168105635
40
0.317899168105635
40
0.427584739862003
40
0.427584739862003
40
0.537377253733143
40
0.537377253733143
40
0.647402228731135
40
0.647402228731135
40
0.811583680502367
40
0.811583680502367
40
0.906636022131574
40
0.906636022131574
40
1
40
1
40
1
40
1
41
1
10
75.1723215795345
20
2.26447458437136
30
0
41
1
10
75.1711443840491
20
2.2851599734245
30
0
41
1
10
75.1692962053805
20
2.30451439501894
30
0
41
1
10
75.1653384580202
20
2.33139392657722
30
0
41
1
10
75.1637592713555
20
2.34020644600696
30
0
41
1
10
75.1601073349776
20
2.35668206377014
30
0
41
1
10
75.1580310055169
20
2.36436402305267
30
0
41
1
10
75.1532620868333
20
2.37829752735325
30
0
41
1
10
75.1505623989054
20
2.38457235065155
30
0
41
1
10
75.1443504654912
20
2.39523191745195
30
0
41
1
10
75.1408210755319
20
2.39964482243246
30
0
41
1
10
75.1307188679146
20
2.4072626620756
30
0
41
1
10
75.123308517068
20
2.40896096738183
30
0
41
1
10
75.1089403208748
20
2.40374660067175
30
0
41
1
10
75.1029482830561
20
2.40002976041686
30
0
41
1
10
75.090269851277
20
2.38889154742455
30
0
41
1
10
75.0834332768991
20
2.38137265727752
30
0
41
1
10
75.076639479046
20
2.37255885853406
30
0
0
SPLINE
5
29F
100
AcDbEntity
8
1
62
256
6
ByLayer
370
-1
48
1
60
0
100
AcDbSpline
70
4
71
3
72
8
73
4
40
0
40
0
40
0
40
0
40
1
40
1
40
1
40
1
41
1
10
75.090580085623
20
1.89538586892988
30
0
41
1
10
75.0947697997178
20
1.89916771366225
30
0
41
1
10
75.0989596056796
20
1.90294952882886
30
0
41
1
10
75.1031494991758
20
1.90673131582125
30
0
0
SPLINE
5
2A0
100
AcDbEntity
8
1
62
256
6
ByLayer
370
-1
48
1
60
0
100
AcDbSpline
70
4
71
3
72
8
73
4
40
0
40
0
40
0
40
0
40
1
40
1
40
1
40
1
41
1
10
75.1152175052289
20
1.26615226944688
30
0
41
1
10
75.1109486996911
20
1.26655919434185
30
0
41
1
10
75.1066799810874
20
1.26696612291892
30
0
41
1
10
75.102411353721
20
1.26737305536
30
0
0
SPLINE
5
2A1
100
AcDbEntity
8
1
62
256
6
ByLayer
370
-1
48
1
60
0
100
AcDbSpline
70
4
71
3
72
8
73
4
40
0
40
0
40
0
40
0
40
1
40
1
40
1
40
1
41
1
10
75.0967351440364
20
0.638860126854667
30
0
41
1
10
75.1009803002594
20
0.635854291638083
30
0
41
1
10
75.1052255479069
20
0.632848481026798
30
0
41
1
10
75.1094708826671
20
0.629842693862685
30
0
0
SPLINE
5
2A2
100
AcDbEntity
8
1
62
256
6
ByLayer
370
-1
48
1
60
0
100
AcDbSpline
70
4
71
3
72
22
73
18
40
0
40
0
40
0
40
0
40
0.208266363442955
40
0.208266363442955
40
0.317899168105687
40
0.317899168105687
40
0.427584739862063
40
0.427584739862063
40
0.537377253733222
40
0.537377253733222
40
0.64740222873121
40
0.64740222873121
40
0.811583680502416
40
0.811583680502416
40
0.906636022131603
40
0.906636022131603
40
1
40
1
40
1
40
1
41
1
10
75.1510222070448
20
-0.0939532614266341
30
0
41
1
10
75.1524545852159
20
-0.0863828907353934
30
0
41
1
10
75.153253099998
20
-0.076898686166345
30
0
41
1
10
75.1533327326731
20
-0.0594928747265442
30
0
41
1
10
75.1531500633945
20
-0.0529333844697533
30
0
41
1
10
75.1522799531897
20
-0.0386690128406713
30
0
41
1
10
75.1515920683561
20
-0.0309483682290761
30
0
41
1
10
75.149571821067
20
-0.014249337341397
30
0
41
1
10
75.1482369158066
20
-0.0052434689978895
30
0
41
1
10
75.1446960969101
20
0.0141815533504541
30
0
41
1
10
75.1424805049699
20
0.0246568278523398
30
0
41
1
10
75.1354805548146
20
0.0524996244942884
30
0
41
1
10
75.1298377966859
20
0.0712939678140572
30
0
41
1
10
75.1176688257102
20
0.102798049856546
30
0
41
1
10
75.1123698654825
20
0.11502430780871
30
0
41
1
10
75.1006553776919
20
0.138641891960276
30
0
41
1
10
75.0941055088808
20
0.150326519498606
30
0
41
1
10
75.0873828003315
20
0.160923000850573
30
0
0
SPLINE
5
2A3
100
AcDbEntity
8
1
62
256
6
ByLayer
370
-1
48
1
60
0
100
AcDbSpline
70
4
71
3
72
16
73
12
40
0
40
0
40
0
40
0
40
0.0023448809052929
40
0.0023448809052929
40
0.244769775799888
40
0.244769775799888
40
0.487038716339783
40
0.487038716339783
40
0.973677497833519
40
0.973677497833519
40
1
40
1
40
1
40
1
41
1
10
75.1314810547483
20
-0.11381877530556
30
0
41
1
10
75.1315060050832
20
-0.113829931401995
30
0
41
1
10
75.1315309254937
20
-0.113841011640147
30
0
41
1
10
75.1341303835551
20
-0.114990276839109
30
0
41
1
10
75.136393917598
20
-0.115321828353103
30
0
41
1
10
75.1404198218609
20
-0.114623355823909
30
0
41
1
10
75.1421865200235
20
-0.113592237818068
30
0
41
1
10
75.1468661470128
20
-0.108691501490057
30
0
41
1
10
75.1491756946846
20
-0.103010617231263
30
0
41
1
10
75.1508557739443
20
-0.0948152944019114
30
0
41
1
10
75.1509400619354
20
-0.0943874127848687
30
0
41
1
10
75.1510222070448
20
-0.0939532614266341
30
0
0
SPLINE
5
2A4
100
AcDbEntity
8
1
62
256
6
ByLayer
370
-1
48
1
60
0
100
AcDbSpline
70
4
71
3
72
24
73
20
40
0
40
0
40
0
40
0
40
0.104000448201678
40
0.104000448201678
40
0.192499055460834
40
0.192499055460834
40
0.328500518746472
40
0.328500518746472
40
0.438682575665106
40
0.438682575665106
40
0.548533158171558
40
0.548533158171558
40
0.658237202769618
40
0.658237202769618
40
0.767870673660752
40
0.767870673660752
40
0.988088331634137
40
0.988088331634137
40
1
40
1
40
1
40
1
41
1
10
75.1031494991758
20
1.90673131582125
30
0
41
1
10
75.1107721018049
20
1.91474118781608
30
0
41
1
10
75.1182232728751
20
1.92524496412901
30
0
41
1
10
75.1302805574532
20
1.94716496931608
30
0
41
1
10
75.1353014040292
20
1.95843904644917
30
0
41
1
10
75.1462523120469
20
1.98764014533936
30
0
41
1
10
75.1514729874096
20
2.00636519834305
30
0
41
1
10
75.1589428158416
20
2.03948798973758
30
0
41
1
10
75.1616296393536
20
2.05430408784318
30
0
41
1
10
75.1660175041134
20
2.08322328423714
30
0
41
1
10
75.1677334565741
20
2.09742097231191
30
0
41
1
10
75.1704539087458
20
2.12508857385848
30
0
41
1
10
75.171462711731
20
2.13860941105301
30
0
41
1
10
75.1729315909846
20
2.16492630603949
30
0
41
1
10
75.173392887976
20
2.17775411825701
30
0
41
1
10
75.1741001733909
20
2.21520225339776
30
0
41
1
10
75.1736795418804
20
2.23885866780066
30
0
41
1
10
75.1724543610016
20
2.26209740236317
30
0
41
1
10
75.1723890902337
20
2.26328830299641
30
0
41
1
10
75.1723215795345
20
2.26447458437136
30
0
0
SPLINE
5
2A5
100
AcDbEntity
8
1
62
256
6
ByLayer
370
-1
48
1
60
0
100
AcDbSpline
70
4
71
3
72
22
73
18
40
0
40
0
40
0
40
0
40
0.208266363442759
40
0.208266363442759
40
0.317899168105475
40
0.317899168105475
40
0.427584739861837
40
0.427584739861837
40
0.537377253732982
40
0.537377253732982
40
0.647402228730973
40
0.647402228730973
40
0.811583680502289
40
0.811583680502289
40
0.906636022131499
40
0.906636022131499
40
1
40
1
40
1
40
1
41
1
10
75.1979741742682
20
0.902815118908023
30
0
41
1
10
75.1982293569539
20
0.931070878652378
30
0
41
1
10
75.1977819576906
20
0.959912467289911
30
0
41
1
10
75.195876459711
20
1.00420751337467
30
0
41
1
10
75.1949916311289
20
1.01958383706327
30
0
41
1
10
75.1926883530761
20
1.05033474033621
30
0
41
1
10
75.1912678533106
20
1.06574395381574
30
0
41
1
10
75.1877565368566
20
1.09639261238874
30
0
41
1
10
75.185660711685
20
1.11168284061921
30
0
41
1
10
75.1805788350014
20
1.14179040529638
30
0
41
1
10
75.177578745315
20
1.15669208660455
30
0
41
1
10
75.1686368528944
20
1.19219286234602
30
0
41
1
10
75.1618032198159
20
1.2127161038965
30
0
41
1
10
75.1479185904757
20
1.23906805568427
30
0
41
1
10
75.1420127345699
20
1.24760396230914
30
0
41
1
10
75.1292635927506
20
1.26014060794282
30
0
41
1
10
75.1222716951121
20
1.26433779940712
30
0
41
1
10
75.1152175052312
20
1.26615226944668
30
0
0
SPLINE
5
2A6
100
AcDbEntity
8
1
62
256
6
ByLayer
370
-1
48
1
60
0
100
AcDbSpline
70
4
71
3
72
24
73
20
40
0
40
0
40
0
40
0
40
0.104000448201683
40
0.104000448201683
40
0.192499055460834
40
0.192499055460834
40
0.328500518746441
40
0.328500518746441
40
0.438682575665057
40
0.438682575665057
40
0.548533158171487
40
0.548533158171487
40
0.658237202769531
40
0.658237202769531
40
0.76787067366065
40
0.76787067366065
40
0.988088331634003
40
0.988088331634003
40
1
40
1
40
1
40
1
41
1
10
75.1094708826671
20
0.629842693862685
30
0
41
1
10
75.1172606490928
20
0.62544306241125
30
0
41
1
10
75.1250321279212
20
0.62367095624802
30
0
41
1
10
75.1379000772805
20
0.625597384779354
30
0
41
1
10
75.1433861225741
20
0.628496442316049
30
0
41
1
10
75.1556303635548
20
0.639503354745671
30
0
41
1
10
75.1617583409071
20
0.649645866416364
30
0
41
1
10
75.1709196027537
20
0.671012226712435
30
0
41
1
10
75.1743949547577
20
0.681834096418925
30
0
41
1
10
75.1803689918492
20
0.704821740468816
30
0
41
1
10
75.1828876771352
20
0.717058761721887
30
0
41
1
10
75.1872109351901
20
0.74243142569091
30
0
41
1
10
75.1890227554445
20
0.755613527248556
30
0
41
1
10
75.1920885542556
20
0.78261694685304
30
0
41
1
10
75.1933456869409
20
0.796471101509667
30
0
41
1
10
75.1964239626847
20
0.838808617046169
30
0
41
1
10
75.1975663486083
20
0.868142243606911
30
0
41
1
10
75.1979425464667
20
0.899575913879488
30
0
41
1
10
75.1979595398581
20
0.901194686174819
30
0
41
1
10
75.1979741742682
20
0.902815118908023
30
0
0
SPLINE
5
2A7
100
AcDbEntity
8
1
62
256
6
ByLayer
370
-1
48
1
60
0
100
AcDbSpline
70
4
71
3
72
10
73
6
40
0
40
0
40
0
40
0
40
0.425586067180685
40
0.425586067180685
40
1
40
1
40
1
40
1
41
1
10
75.102411353721
20
1.26737305536
30
0
41
1
10
75.0945990655104
20
1.26811780847123
30
0
41
1
10
75.0867910806479
20
1.27133125445937
30
0
41
1
10
75.0695423170445
20
1.28271082674277
30
0
41
1
10
75.060214207995
20
1.29226898552775
30
0
41
1
10
75.051728316024
20
1.30350688193619
30
0
0
SPLINE
5
2A8
100
AcDbEntity
8
1
62
256
6
ByLayer
370
-1
48
1
60
0
100
AcDbSpline
70
4
71
3
72
10
73
6
40
0
40
0
40
0
40
0
40
0.74705217531673
40
0.74705217531673
40
1
40
1
40
1
40
1
41
1
10
75.0568932564664
20
1.85152610305715
30
0
41
1
10
75.0645785809977
20
1.86458610540436
30
0
41
1
10
75.0728916857416
20
1.87654835986771
30
0
41
1
10
75.0845041047393
20
1.88955711635481
30
0
41
1
10
75.0875333851048
20
1.8926357652127
30
0
41
1
10
75.090580085623
20
1.89538586892982
30
0
0
SPLINE
5
2A9
100
AcDbEntity
8
SK1
62
256
6
ByLayer
370
-1
48
1
60
0
100
AcDbSpline
70
4
71
3
72
87
73
83
40
0
40
0
40
0
40
0
40
0.0064304546702832
40
0.0205324395379753
40
0.0346344244056674
40
0.0416854168395135
40
0.0487364092733595
40
0.0522619054902826
40
0.0557874017072056
40
0.0628383941410516
40
0.0698893865748977
40
0.0769403790087437
40
0.0910423638764358
40
0.105144348744128
40
0.11924633361182
40
0.133348318479512
40
0.147450303347204
40
0.161552288214896
40
0.175654273082588
40
0.189756257950281
40
0.203858242817973
40
0.217960227685665
40
0.232062212553357
40
0.246164197421049
40
0.260266182288741
40
0.274368167156433
40
0.288470152024125
40
0.302572136891817
40
0.316674121759509
40
0.330776106627202
40
0.344878091494894
40
0.358980076362586
40
0.373082061230278
40
0.38718404609797
40
0.401286030965662
40
0.415388015833354
40
0.429490000701046
40
0.443591985568738
40
0.457693970436431
40
0.471795955304123
40
0.485897940171815
40
0.499999925039507
40
0.514101909907199
40
0.528203894774891
40
0.542305879642583
40
0.556407864510275
40
0.570509849377967
40
0.584611834245659
40
0.598713819113352
40
0.612815803981044
40
0.626917788848736
40
0.641019773716428
40
0.65512175858412
40
0.669223743451812
40
0.683325728319504
40
0.697427713187196
40
0.711529698054888
40
0.72563168292258
40
0.739733667790273
40
0.753835652657965
40
0.767937637525657
40
0.782039622393349
40
0.796141607261041
40
0.810243592128733
40
0.824345576996425
40
0.838447561864117
40
0.852549546731809
40
0.866651531599501
40
0.880753516467194
40
0.894855501334886
40
0.908957486202578
40
0.92305947107027
40
0.930110463504116
40
0.937161455937962
40
0.944212448371808
40
0.947737944588731
40
0.951263440805654
40
0.9583144332395
40
0.965365425673346
40
0.979467410541038
40
0.99356939540873
40
1
40
1
40
1
40
1
41
1
10
-2.99999999999997
20
-21.737311732065
30
0
41
1
10
-2.99999999999997
20
-21.7581505759412
30
0
41
1
10
-2.99999999999997
20
-21.8216572693935
30
0
41
1
10
-3
20
-21.9107797633372
30
0
41
1
10
-3
20
-21.9704004421262
30
0
41
1
10
-3
20
-21.9955838514163
30
0
41
1
10
-3
20
-22.0011048464384
30
0
41
1
10
-3
20
-21.9988957932114
30
0
41
1
10
-3
20
-21.9921074341117
30
0
41
1
10
-3
20
-21.9747088550401
30
0
41
1
10
-3
20
-21.9386456245555
30
0
41
1
10
-3
20
-21.868993702256
30
0
41
1
10
-3
20
-21.7393283758615
30
0
41
1
10
-3
20
-21.5090390087807
30
0
41
1
10
-3
20
-21.1987879004756
30
0
41
1
10
-3
20
-20.8048153118584
30
0
41
1
10
-3
20
-20.3250833271079
30
0
41
1
10
-3
20
-19.7594566764181
30
0
41
1
10
-3
20
-19.1097943347758
30
0
41
1
10
-3
20
-18.3799726709714
30
0
41
1
10
-3
20
-17.5758204617336
30
0
41
1
10
-3
20
-16.7049885958267
30
0
41
1
10
-3
20
-15.7767347946731
30
0
41
1
10
-3
20
-14.8016577436089
30
0
41
1
10
-3
20
-13.7913621958654
30
0
41
1
10
-3
20
-12.7580964435599
30
0
41
1
10
-3
20
-11.7143471465197
30
0
41
1
10
-3.00000000000003
20
-10.6724342215934
30
0
41
1
10
-3.00000000000003
20
-9.64409593406697
30
0
41
1
10
-3.00000000000003
20
-8.64010224817511
30
0
41
1
10
-3.00000000000003
20
-7.66989272366362
30
0
41
1
10
-3.00000000000003
20
-6.74126705030582
30
0
41
1
10
-3.00000000000003
20
-5.86013077636733
30
0
41
1
10
-3.00000000000003
20
-5.03031048105601
30
0
41
1
10
-3.00000000000003
20
-4.25344644766659
30
0
41
1
10
-3.00000000000003
20
-3.5289614043765
30
0
41
1
10
-3.00000000000003
20
-2.85411734459242
30
0
41
1
10
-3.00000000000003
20
-2.22414379058173
30
0
41
1
10
-3.00000000000003
20
-1.63245137350921
30
0
41
1
10
-3.00000000000003
20
-1.07090162750731
30
0
41
1
10
-3.00000000000003
20
-0.530146398226009
30
0
41
1
10
-3.00000000000003
20
1.1052839E-07
30
0
41
1
10
-3.00000000000003
20
0.530145956112307
30
0
41
1
10
-3.00000000000003
20
1.07090183098106
30
0
41
1
10
-3.00000000000003
20
1.63245100172756
30
0
41
1
10
-3.00000000000003
20
2.22414394390051
30
0
41
1
10
-3.00000000000003
20
2.85411710309862
30
0
41
1
10
-3.00000000000003
20
3.52896148234822
30
0
41
1
10
-3.00000000000003
20
4.25344637727321
30
0
41
1
10
-3.00000000000003
20
5.03031046956039
30
0
41
1
10
-3.00000000000003
20
5.86013089274292
30
0
41
1
10
-3.00000000000003
20
6.7412669483133
30
0
41
1
10
-3.00000000000003
20
7.66989301525788
30
0
41
1
10
-3.00000000000003
20
8.64010206779591
30
0
41
1
10
-3.00000000000003
20
9.64409636398926
30
0
41
1
10
-3.00000000000003
20
10.6724339861579
30
0
41
1
10
-3.00000000000003
20
11.7143476583394
30
0
41
1
10
-3
20
12.7580961840504
30
0
41
1
10
-3
20
13.7913627220832
30
0
41
1
10
-3
20
14.8016574939434
30
0
41
1
10
-3
20
15.7767352671169
30
0
41
1
10
-3
20
16.7049883877483
30
0
41
1
10
-3
20
17.5758208216031
30
0
41
1
10
-3
20
18.3799725293323
30
0
41
1
10
-3
20
19.1097945414623
30
0
41
1
10
-3
20
19.759456615498
30
0
41
1
10
-3
20
20.3250833641014
30
0
41
1
10
-3
20
20.804815632754
30
0
41
1
10
-3
20
21.1987865798995
30
0
41
1
10
-3
20
21.5090429333437
30
0
41
1
10
-3
20
21.7393270779667
30
0
41
1
10
-3
20
21.868994103416
30
0
41
1
10
-3
20
21.9386456157424
30
0
41
1
10
-3
20
21.9747080149673
30
0
41
1
10
-3
20
21.9921069826245
30
0
41
1
10
-3
20
21.9988955684255
30
0
41
1
10
-3
20
22.0011049359544
30
0
41
1
10
-3
20
21.9955842966017
30
0
41
1
10
-3
20
21.9704009616837
30
0
41
1
10
-3
20
21.9107795104958
30
0
41
1
10
-3
20
21.821656702497
30
0
41
1
10
-2.99999999999997
20
21.7581493940426
30
0
41
1
10
-2.99999999999997
20
21.7373100008038
30
0
0
SPLINE
5
2AA
100
AcDbEntity
8
SK1
62
256
6
ByLayer
370
-1
48
1
60
0
100
AcDbSpline
70
4
71
3
72
77
73
73
40
0
40
0
40
0
40
0
40
0.0022824631450066
40
0.0177381238225019
40
0.0331937844999972
40
0.0486494451774926
40
0.0563772755162403
40
0.0641051058549879
40
0.0679690210243618
40
0.0718329361937357
40
0.0795607665324833
40
0.0872885968712309
40
0.0950164272099786
40
0.110472087887474
40
0.125927748564969
40
0.141383409242465
40
0.15683906991996
40
0.172294730597455
40
0.187750391274951
40
0.203206051952446
40
0.218661712629941
40
0.234117373307437
40
0.249573033984932
40
0.265028694662427
40
0.280484355339923
40
0.295940016017418
40
0.311395676694913
40
0.326851337372409
40
0.342306998049904
40
0.357762658727399
40
0.373218319404895
40
0.38867398008239
40
0.404129640759885
40
0.419585301437381
40
0.435040962114876
40
0.450496622792371
40
0.465952283469867
40
0.481407944147362
40
0.496863604824857
40
0.512319265502353
40
0.527774926179848
40
0.543230586857343
40
0.558686247534839
40
0.574141908212334
40
0.589597568889829
40
0.605053229567325
40
0.62050889024482
40
0.635964550922315
40
0.651420211599811
40
0.666875872277306
40
0.682331532954801
40
0.697787193632297
40
0.713242854309792
40
0.728698514987287
40
0.744154175664783
40
0.759609836342278
40
0.775065497019773
40
0.790521157697269
40
0.805976818374764
40
0.821432479052259
40
0.836888139729755
40
0.85234380040725
40
0.867799461084745
40
0.883255121762241
40
0.898710782439736
40
0.914166443117231
40
0.929622103794727
40
0.945077764472222
40
0.960533425149717
40
0.975989085827213
40
0.991444746504708
40
1
40
1
40
1
40
1
41
1
10
-36.5004731679066
20
20.8085343339317
30
0
41
1
10
-36.5004731679066
20
20.8158530892065
30
0
41
1
10
-36.5004731679066
20
20.8720970112215
30
0
41
1
10
-36.5004731679067
20
20.9678459995098
30
0
41
1
10
-36.5004731679067
20
21.0725443050817
30
0
41
1
10
-36.5004731679067
20
21.1298848333404
30
0
41
1
10
-36.5004731679067
20
21.1541047357202
30
0
41
1
10
-36.5004731679067
20
21.1594141733555
30
0
41
1
10
-36.5004731679067
20
21.157289329047
30
0
41
1
10
-36.5004731679067
20
21.1507604524732
30
0
41
1
10
-36.5004731679067
20
21.134027112765
30
0
41
1
10
-36.5004731679067
20
21.0993443437175
30
0
41
1
10
-36.5004731679067
20
21.0323574718579
30
0
41
1
10
-36.5004731679067
20
20.9076510853334
30
0
41
1
10
-36.5004731679067
20
20.6861768635695
30
0
41
1
10
-36.5004731679067
20
20.3877899097529
30
0
41
1
10
-36.5004731679067
20
20.0088910104845
30
0
41
1
10
-36.5004731679067
20
19.5475117391118
30
0
41
1
10
-36.5004731679067
20
19.0035240314004
30
0
41
1
10
-36.5004731679067
20
18.3787159166599
30
0
41
1
10
-36.5004731679067
20
17.6768145225052
30
0
41
1
10
-36.5004731679067
20
16.9034270453042
30
0
41
1
10
-36.5004731679067
20
16.0659098298204
30
0
41
1
10
-36.5004731679067
20
15.1731686563964
30
0
41
1
10
-36.5004731679067
20
14.2353941894379
30
0
41
1
10
-36.5004731679067
20
13.2637500116935
30
0
41
1
10
-36.5004731679067
20
12.2700128928828
30
0
41
1
10
-36.5004731679067
20
11.266194793172
30
0
41
1
10
-36.5004731679067
20
10.2641413514586
30
0
41
1
10
-36.5004731679067
20
9.27514458421214
30
0
41
1
10
-36.5004731679067
20
8.30955984641452
30
0
41
1
10
-36.5004731679067
20
7.37646783866529
30
0
41
1
10
-36.5004731679067
20
6.48336798664181
30
0
41
1
10
-36.5004731679067
20
5.63594133251854
30
0
41
1
10
-36.5004731679067
20
4.837867141484
30
0
41
1
10
-36.5004731679067
20
4.0907233442536
30
0
41
1
10
-36.5004731679067
20
3.39395488654742
30
0
41
1
10
-36.5004731679067
20
2.74492785973806
30
0
41
1
10
-36.5004731679067
20
2.13905542595012
30
0
41
1
10
-36.5004731679067
20
1.56999873250976
30
0
41
1
10
-36.5004731679067
20
1.02993260778018
30
0
41
1
10
-36.5004731679067
20
0.509864295014495
30
0
41
1
10
-36.5004731679067
20
1.062999218E-07
30
0
41
1
10
-36.5004731679067
20
-0.509864720214352
30
0
41
1
10
-36.5004731679067
20
-1.02993241209069
30
0
41
1
10
-36.5004731679067
20
-1.56999909006825
30
0
41
1
10
-36.5004731679067
20
-2.13905527849684
30
0
41
1
10
-36.5004731679067
20
-2.74492809199307
30
0
41
1
10
-36.5004731679067
20
-3.39395481155864
30
0
41
1
10
-36.5004731679067
20
-4.090723411954
30
0
41
1
10
-36.5004731679067
20
-4.83786715253981
30
0
41
1
10
-36.5004731679067
20
-5.6359412205951
30
0
41
1
10
-36.5004731679067
20
-6.48336808473243
30
0
41
1
10
-36.5004731679067
20
-7.37646755822649
30
0
41
1
10
-36.5004731679067
20
-8.30956001989298
30
0
41
1
10
-36.5004731679067
20
-9.27514417073732
30
0
41
1
10
-36.5004731679067
20
-10.2641415778872
30
0
41
1
10
-36.5004731679067
20
-11.2661943009328
30
0
41
1
10
-36.5004731679067
20
-12.2700131424643
30
0
41
1
10
-36.5004731679067
20
-13.263749505607
30
0
41
1
10
-36.5004731679067
20
-14.235394429552
30
0
41
1
10
-36.5004731679067
20
-15.1731682020267
30
0
41
1
10
-36.5004731679067
20
-16.0659100299384
30
0
41
1
10
-36.5004731679067
20
-16.9034266992021
30
0
41
1
10
-36.5004731679067
20
-17.6768146587256
30
0
41
1
10
-36.5004731679067
20
-18.3787157178805
30
0
41
1
10
-36.5004731679067
20
-19.0035240899899
30
0
41
1
10
-36.5004731679067
20
-19.5475117035335
30
0
41
1
10
-36.5004731679067
20
-20.0088907018653
30
0
41
1
10
-36.5004731679067
20
-20.387791179808
30
0
41
1
10
-36.5004731679067
20
-20.641767424168
30
0
41
1
10
-36.5004731679067
20
-20.7653492956254
30
0
41
1
10
-36.5004731679066
20
-20.8055984755284
30
0
0
SPLINE
5
2AB
100
AcDbEntity
8
SK1
62
256
6
ByLayer
370
-1
48
1
60
0
100
AcDbSpline
70
4
71
3
72
24
73
20
40
0
40
0
40
0
40
0
40
0.0294153399389211
40
0.0294153399389211
40
0.0518467100213715
40
0.0518467100213715
40
0.0692787757243901
40
0.0692787757243901
40
0.0867341179257953
40
0.0867341179257953
40
0.110052112814912
40
0.110052112814912
40
0.151327143358807
40
0.151327143358807
40
0.280433151236764
40
0.280433151236764
40
0.826010984226231
40
0.826010984226231
40
1
40
1
40
1
40
1
41
1
10
-0.400000000000063
20
-6.10423156158009
30
0
41
1
10
-0.39416832201357
20
-6.0984378364349
30
0
41
1
10
-0.387759070234381
20
-6.09310363146565
30
0
41
1
10
-0.375252799010866
20
-6.08576185737678
30
0
41
1
10
-0.369325414442443
20
-6.08323164407952
30
0
41
1
10
-0.358286953254265
20
-6.08095158529639
30
0
41
1
10
-0.35318139109782
20
-6.08071718931328
30
0
41
1
10
-0.343215930012207
20
-6.08206381901587
30
0
41
1
10
-0.338244421136807
20
-6.08366165110795
30
0
41
1
10
-0.327535291974414
20
-6.08894854878486
30
0
41
1
10
-0.321910546955053
20
-6.09319179328202
30
0
41
1
10
-0.308125841787699
20
-6.1063104020192
30
0
41
1
10
-0.300919930144914
20
-6.11641452751712
30
0
41
1
10
-0.27546743580686
20
-6.15911632586153
30
0
41
1
10
-0.263960841290896
20
-6.19549277148192
30
0
41
1
10
-0.214259344319259
20
-6.38188374133711
30
0
41
1
10
-0.20677942828101
20
-6.5373918542702
30
0
41
1
10
-0.2006609556407
20
-6.7376412219165
30
0
41
1
10
-0.200000000000216
20
-6.78608759881158
30
0
41
1
10
-0.200000000000074
20
-6.83438537300094
30
0
0
SPLINE
5
2AC
100
AcDbEntity
8
SK1
62
256
6
ByLayer
370
-1
48
1
60
0
100
AcDbSpline
70
4
71
3
72
18
73
14
40
0
40
0
40
0
40
0
40
0.0968863178950323
40
0.183966667862442
40
0.260068802091392
40
0.324994649537974
40
0.37952973055763
40
0.42536525658285
40
0.46494139567331
40
0.50122598950253
40
0.749389404701453
40
0.882143765887257
40
1
40
1
40
1
40
1
41
1
10
-2.20000000000002
20
13.0172213663826
30
0
41
1
10
-2.19999990742258
20
12.3227942988746
30
0
41
1
10
-2.19999973163755
20
11.0042238705779
30
0
41
1
10
-2.19999786301233
20
8.92642792292401
30
0
41
1
10
-2.19999443011093
20
6.98686226381397
30
0
41
1
10
-2.19998893263653
20
5.22858160512752
30
0
41
1
10
-2.19998120124936
20
3.67870674061049
30
0
41
1
10
-2.19997005075533
20
2.3248061791129
30
0
41
1
10
-2.19995684327318
20
1.12315161344193
30
0
41
1
10
-2.19989253304598
20
-2.11124486478204
30
0
41
1
10
-2.20000303639378
20
-6.24087389980025
30
0
41
1
10
-2.1999974192872
20
-10.3543556290831
30
0
41
1
10
-2.19999917454419
20
-12.1654874411551
30
0
41
1
10
-2.20000000000002
20
-13.0172198852615
30
0
0
SPLINE
5
2AD
100
AcDbEntity
8
SK1
62
256
6
ByLayer
370
-1
48
1
60
0
100
AcDbSpline
70
4
71
3
72
24
73
20
40
0
40
0
40
0
40
0
40
0.360879502691496
40
0.360879502691496
40
0.679522527249465
40
0.679522527249465
40
0.773125538541259
40
0.773125538541259
40
0.824378815352241
40
0.824378815352241
40
0.862175757855351
40
0.862175757855351
40
0.892530262599779
40
0.892530262599779
40
0.922882097305825
40
0.922882097305825
40
0.965340403806628
40
0.965340403806628
40
1
40
1
40
1
40
1
41
1
10
-1.30710678118655
20
-4.69591747913023
30
0
41
1
10
-1.26533314969214
20
-4.9280006140346
30
0
41
1
10
-1.21563689128735
20
-5.15732729985041
30
0
41
1
10
-1.09208849439545
20
-5.57726964614551
30
0
41
1
10
-1.02458712063205
20
-5.77316566660494
30
0
41
1
10
-0.886361634688797
20
-6.00127451080465
30
0
41
1
10
-0.850777002090695
20
-6.05190263088906
30
0
41
1
10
-0.783955064248175
20
-6.12096806939894
30
0
41
1
10
-0.757647970575704
20
-6.14385724295292
30
0
41
1
10
-0.706249370394545
20
-6.17602680222078
30
0
41
1
10
-0.682168850057224
20
-6.18745435634116
30
0
41
1
10
-0.636302078399041
20
-6.20006250680512
30
0
41
1
10
-0.614540165939815
20
-6.20282738019478
30
0
41
1
10
-0.571796256965456
20
-6.20141682079489
30
0
41
1
10
-0.550342277966621
20
-6.19724496298289
30
0
41
1
10
-0.502408394194077
20
-6.18104812749763
30
0
41
1
10
-0.476466316815021
20
-6.16651733970684
30
0
41
1
10
-0.434092524691693
20
-6.13600824129722
30
0
41
1
10
-0.416431789013416
20
-6.12055641171887
30
0
41
1
10
-0.400000000000063
20
-6.10423156158009
30
0
0
SPLINE
5
2AE
100
AcDbEntity
8
SK1
62
256
6
ByLayer
370
-1
48
1
60
0
100
AcDbSpline
70
4
71
3
72
26
73
22
40
0
40
0
40
0
40
0
40
0.457923600856098
40
0.457923600856098
40
0.670531455381554
40
0.670531455381554
40
0.777312304321617
40
0.777312304321617
40
0.855624581606838
40
0.855624581606838
40
0.882245097500181
40
0.882245097500181
40
0.909233674833623
40
0.909233674833623
40
0.927145375687156
40
0.927145375687156
40
0.945135954238661
40
0.945135954238661
40
0.967293802310234
40
0.967293802310234
40
1
40
1
40
1
40
1
41
1
10
-0.200000000000046
20
6.83438539664965
30
0
41
1
10
-0.200000000000046
20
6.70719073091024
30
0
41
1
10
-0.203979144864121
20
6.57870929193157
30
0
41
1
10
-0.223627541461042
20
6.39017150226596
30
0
41
1
10
-0.231853472691626
20
6.33010102013236
30
0
41
1
10
-0.251444012213824
20
6.24081591520616
30
0
41
1
10
-0.259216096655962
20
6.21099031479625
30
0
41
1
10
-0.277247637353241
20
6.16071699918314
30
0
41
1
10
-0.286250660556362
20
6.13953740203621
30
0
41
1
10
-0.302932806634829
20
6.11392996324469
30
0
41
1
10
-0.307645108303149
20
6.10762540709976
30
0
41
1
10
-0.318350610916298
20
6.09617933549782
30
0
41
1
10
-0.324493078466162
20
6.09093379280867
30
0
41
1
10
-0.335880535666092
20
6.08462414761271
30
0
41
1
10
-0.340842620996938
20
6.08272810789862
30
0
41
1
10
-0.350925208731582
20
6.08080706244004
30
0
41
1
10
-0.356163682835501
20
6.08077671184125
30
0
41
1
10
-0.367263062380886
20
6.08257928125934
30
0
41
1
10
-0.373161858956763
20
6.08482424567788
30
0
41
1
10
-0.386495243089513
20
6.09205228504601
30
0
41
1
10
-0.393601922598037
20
6.09787553754282
30
0
41
1
10
-0.400000000000063
20
6.10423197315532
30
0
0
SPLINE
5
2AF
100
AcDbEntity
8
SK1
62
256
6
ByLayer
370
-1
48
1
60
0
100
AcDbSpline
70
4
71
3
72
8
73
4
40
0
40
0
40
0
40
0
40
1
40
1
40
1
40
1
41
1
10
-0.200000000000074
20
7.45410255809307
30
0
41
1
10
-0.200000000000074
20
7.3235826688034
30
0
41
1
10
-0.200000000000074
20
7.19431032038869
30
0
41
1
10
-0.200000000000074
20
7.06635659049329
30
0
0
SPLINE
5
2B0
100
AcDbEntity
8
SK1
62
256
6
ByLayer
370
-1
48
1
60
0
100
AcDbSpline
70
4
71
3
72
10
73
6
40
0
40
0
40
0
40
0
40
0.368997675668995
40
0.368997675668995
40
1
40
1
40
1
40
1
41
1
10
-0.200000000000074
20
-7.06635637915039
30
0
41
1
10
-0.167862826598508
20
-7.0045462175766
30
0
41
1
10
-0.139671627572113
20
-6.94091959541143
30
0
41
1
10
-0.0698615112816867
20
-6.76585631953489
30
0
41
1
10
-0.0328909637924539
20
-6.65241705190053
30
0
41
1
10
-2.84E-14
20
-6.53762631735268
30
0
0
SPLINE
5
2B1
100
AcDbEntity
8
SK1
62
256
6
ByLayer
370
-1
48
1
60
0
100
AcDbSpline
70
4
71
3
72
8
73
4
40
0
40
0
40
0
40
0
40
1
40
1
40
1
40
1
41
1
10
-0.200000000000074
20
-7.06635637915059
30
0
41
1
10
-0.200000000000074
20
-7.19430994365547
30
0
41
1
10
-0.200000000000074
20
-7.32358212001932
30
0
41
1
10
-0.200000000000074
20
-7.45410184860194
30
0
0
LINE
5
4B
100
AcDbEntity
8
4
62
256
6
ByLayer
370
-1
48
0.05
60
0
100
AcDbLine
10
0
20
0
30
0
11
75
21
0
31
0
39
0
210
0
220
0
230
1
0
LINE
5
4D
100
AcDbEntity
8
SK4
62
256
6
ByLayer
370
-1
48
0.05
60
0
100
AcDbLine
10
-43
20
0
30
0
11
80
21
0
31
0
39
0
210
0
220
0
230
1
0
LINE
5
4F
100
AcDbEntity
8
80
62
256
6
ByLayer
370
-1
48
1
60
0
100
AcDbLine
10
0
20
0
30
0
11
-5
21
0
31
0
39
0
210
0
220
0
230
1
0
LINE
5
50
100
AcDbEntity
8
81
62
256
6
ByLayer
370
-1
48
1
60
0
100
AcDbLine
10
75
20
16.875
30
0
11
80
21
16.875
31
0
39
0
210
0
220
0
230
1
0
LINE
5
51
100
AcDbEntity
8
1
62
256
6
ByLayer
370
-1
48
1
60
0
100
AcDbLine
10
70.818448
20
14.595882
30
0
11
68.697836
21
13.42235
31
0
39
0
210
0
220
0
230
1
0
LINE
5
52
100
AcDbEntity
8
1
62
256
6
ByLayer
370
-1
48
1
60
0
100
AcDbLine
10
74.992524
20
13.858581
30
0
11
74.989247
21
13.107538
31
0
39
0
210
0
220
0
230
1
0
LINE
5
53
100
AcDbEntity
8
1
62
256
6
ByLayer
370
-1
48
1
60
0
100
AcDbLine
10
74.277628
20
1.441709
30
0
11
74.344513
21
2.468439
31
0
39
0
210
0
220
0
230
1
0
LINE
5
54
100
AcDbEntity
8
1
62
256
6
ByLayer
370
-1
48
1
60
0
100
AcDbLine
10
74.625968
20
3.310488
30
0
11
74.689842
21
4.291007
31
0
39
0
210
0
220
0
230
1
0
LINE
5
55
100
AcDbEntity
8
1
62
256
6
ByLayer
370
-1
48
1
60
0
100
AcDbLine
10
74.932581
20
4.564049
30
0
11
75.001887
21
5.62795
31
0
39
0
210
0
220
0
230
1
0
LINE
5
56
100
AcDbEntity
8
1
62
256
6
ByLayer
370
-1
48
1
60
0
100
AcDbLine
10
62.369768
20
8.82577
30
0
11
62.302908
21
7.799424
31
0
39
0
210
0
220
0
230
1
0
LINE
5
57
100
AcDbEntity
8
1
62
256
6
ByLayer
370
-1
48
1
60
0
100
AcDbLine
10
63.505895
20
8.166652
30
0
11
63.442072
21
7.186917
31
0
39
0
210
0
220
0
230
1
0
LINE
5
58
100
AcDbEntity
8
SK1
62
256
6
ByLayer
370
-1
48
1
60
0
100
AcDbLine
10
-0.2
20
-22.45
30
0
11
0
21
-22.45
31
0
39
0
210
0
220
0
230
1
0
LINE
5
5A
100
AcDbEntity
8
SK1
62
256
6
ByLayer
370
-1
48
1
60
0
100
AcDbLine
10
0
20
22.45
30
0
11
-0.2
21
22.45
31
0
39
0
210
0
220
0
230
1
0
LINE
5
5B
100
AcDbEntity
8
1
62
256
6
ByLayer
370
-1
48
1
60
0
100
AcDbLine
10
75.063281
20
0.650463
30
0
11
75.062475
21
0.650459
31
0
39
0
210
0
220
0
230
1
0
LINE
5
5C
100
AcDbEntity
8
1
62
256
6
ByLayer
370
-1
48
1
60
0
100
AcDbLine
10
67.531856
20
9.211864
30
0
11
67.509209
21
8.891341
31
0
39
0
210
0
220
0
230
1
0
LINE
5
5D
100
AcDbEntity
8
1
62
256
6
ByLayer
370
-1
48
1
60
0
100
AcDbLine
10
72.945655
20
8.507211
30
0
11
72.968302
21
8.827735
31
0
39
0
210
0
220
0
230
1
0
LINE
5
5E
100
AcDbEntity
8
1
62
256
6
ByLayer
370
-1
48
1
60
0
100
AcDbLine
10
69.203211
20
7.811522
30
0
11
69.221635
21
8.072275
31
0
39
0
210
0
220
0
230
1
0
LINE
5
5F
100
AcDbEntity
8
1
62
256
6
ByLayer
370
-1
48
1
60
0
100
AcDbLine
10
71.274911
20
8.102362
30
0
11
71.249282
21
7.739644
31
0
39
0
210
0
220
0
230
1
0
LINE
5
60
100
AcDbEntity
8
1
62
256
6
ByLayer
370
-1
48
1
60
0
100
AcDbLine
10
69.195525
20
9.516581
30
0
11
69.221173
21
9.879573
31
0
39
0
210
0
220
0
230
1
0
LINE
5
61
100
AcDbEntity
8
1
62
256
6
ByLayer
370
-1
48
1
60
0
100
AcDbLine
10
71.275072
20
9.918468
30
0
11
71.24912
21
9.551176
31
0
39
0
210
0
220
0
230
1
0
LINE
5
62
100
AcDbEntity
8
1
62
256
6
ByLayer
370
-1
48
1
60
0
100
AcDbLine
10
21.5
20
-31.5
30
0
11
26.352716
21
-13.389417
31
0
39
0
210
0
220
0
230
1
0
LINE
5
63
100
AcDbEntity
8
1
62
256
6
ByLayer
370
-1
48
1
60
0
100
AcDbLine
10
26.352716
20
13.389417
30
0
11
21.5
21
31.5
31
0
39
0
210
0
220
0
230
1
0
LINE
5
64
100
AcDbEntity
8
1
62
256
6
ByLayer
370
-1
48
1
60
0
100
AcDbLine
10
21.5
20
31.5
30
0
11
0.3
21
31.5
31
0
39
0
210
0
220
0
230
1
0
LINE
5
65
100
AcDbEntity
8
1
62
256
6
ByLayer
370
-1
48
1
60
0
100
AcDbLine
10
0.3
20
-31.5
30
0
11
21.5
21
-31.5
31
0
39
0
210
0
220
0
230
1
0
LINE
5
66
100
AcDbEntity
8
1
62
256
6
ByLayer
370
-1
48
1
60
0
100
AcDbLine
10
0.3
20
31.5
30
0
11
0
21
31.2
31
0
39
0
210
0
220
0
230
1
0
LINE
5
67
100
AcDbEntity
8
1
62
256
6
ByLayer
370
-1
48
1
60
0
100
AcDbLine
10
0
20
-31.2
30
0
11
0.3
21
-31.5
31
0
39
0
210
0
220
0
230
1
0
LINE
5
68
100
AcDbEntity
8
1
62
256
6
ByLayer
370
-1
48
1
60
0
100
AcDbLine
10
27.511827
20
-12.5
30
0
11
57.651972
21
-12.5
31
0
39
0
210
0
220
0
230
1
0
LINE
5
69
100
AcDbEntity
8
1
62
256
6
ByLayer
370
-1
48
1
60
0
100
AcDbLine
10
57.651972
20
12.5
30
0
11
27.511827
21
12.5
31
0
39
0
210
0
220
0
230
1
0
LINE
5
6A
100
AcDbEntity
8
1
62
256
6
ByLayer
370
-1
48
1
60
0
100
AcDbLine
10
57.778067
20
-12.51
30
0
11
58.027804
21
-12.51
31
0
39
0
210
0
220
0
230
1
0
LINE
5
6B
100
AcDbEntity
8
1
62
256
6
ByLayer
370
-1
48
1
60
0
100
AcDbLine
10
58.650243
20
13.245115
30
0
11
58.264807
21
12.78577
31
0
39
0
210
0
220
0
230
1
0
LINE
5
6C
100
AcDbEntity
8
1
62
256
6
ByLayer
370
-1
48
1
60
0
100
AcDbLine
10
13.461325
20
-30.080593
30
0
11
13.461325
21
-9.349221
31
0
39
0
210
0
220
0
230
1
0
LINE
5
6D
100
AcDbEntity
8
1
62
256
6
ByLayer
370
-1
48
1
60
0
100
AcDbLine
10
65.303782
20
11.544101
30
0
11
65.437318
21
12.010823
31
0
39
0
210
0
220
0
230
1
0
LINE
5
6E
100
AcDbEntity
8
1
62
256
6
ByLayer
370
-1
48
1
60
0
100
AcDbLine
10
0.3
20
-31.5
30
0
11
0.3
21
0
31
0
39
0
210
0
220
0
230
1
0
LINE
5
6F
100
AcDbEntity
8
1
62
256
6
ByLayer
370
-1
48
1
60
0
100
AcDbLine
10
0.3
20
0
30
0
11
0.3
21
31.5
31
0
39
0
210
0
220
0
230
1
0
LINE
5
70
100
AcDbEntity
8
1
62
256
6
ByLayer
370
-1
48
1
60
0
100
AcDbLine
10
10.105662
20
-29.913955
30
0
11
10.105662
21
-9.869413
31
0
39
0
210
0
220
0
230
1
0
LINE
5
71
100
AcDbEntity
8
1
62
256
6
ByLayer
370
-1
48
1
60
0
100
AcDbLine
10
65.437318
20
13.442322
30
0
11
65.437318
21
12.010823
31
0
39
0
210
0
220
0
230
1
0
LINE
5
72
100
AcDbEntity
8
1
62
256
6
ByLayer
370
-1
48
1
60
0
100
AcDbLine
10
63.841327
20
6.887517
30
0
11
63.653741
21
6.954083
31
0
39
0
210
0
220
0
230
1
0
LINE
5
73
100
AcDbEntity
8
1
62
256
6
ByLayer
370
-1
48
1
60
0
100
AcDbLine
10
67.280429
20
-6.921238
30
0
11
65.823217
21
-7.801422
31
0
39
0
210
0
220
0
230
1
0
LINE
5
74
100
AcDbEntity
8
1
62
256
6
ByLayer
370
-1
48
1
60
0
100
AcDbLine
10
68.14548
20
-6.398731
30
0
11
67.280431
21
-6.921237
31
0
39
0
210
0
220
0
230
1
0
LINE
5
75
100
AcDbEntity
8
1
62
256
6
ByLayer
370
-1
48
1
60
0
100
AcDbLine
10
13.894338
20
-29.913955
30
0
11
13.894338
21
-9.869413
31
0
39
0
210
0
220
0
230
1
0
LINE
5
76
100
AcDbEntity
8
1
62
256
6
ByLayer
370
-1
48
1
60
0
100
AcDbLine
10
58.886544
20
7.16063
30
0
11
55.852912
21
12.249955
31
0
39
0
210
0
220
0
230
1
0
LINE
5
77
100
AcDbEntity
8
1
62
256
6
ByLayer
370
-1
48
1
60
0
100
AcDbLine
10
57.778067
20
-12.51
30
0
11
57.778067
21
-1.160181
31
0
39
0
210
0
220
0
230
1
0
LINE
5
78
100
AcDbEntity
8
1
62
256
6
ByLayer
370
-1
48
1
60
0
100
AcDbLine
10
62.885958
20
9.678267
30
0
11
61.268384
21
8.783688
31
0
39
0
210
0
220
0
230
1
0
LINE
5
79
100
AcDbEntity
8
1
62
256
6
ByLayer
370
-1
48
1
60
0
100
AcDbLine
10
10.105662
20
9.869413
30
0
11
10.105662
21
29.913955
31
0
39
0
210
0
220
0
230
1
0
LINE
5
7A
100
AcDbEntity
8
1
62
256
6
ByLayer
370
-1
48
1
60
0
100
AcDbLine
10
71.884554
20
2.363169
30
0
11
74.419707
21
0.937135
31
0
39
0
210
0
220
0
230
1
0
LINE
5
7B
100
AcDbEntity
8
1
62
256
6
ByLayer
370
-1
48
1
60
0
100
AcDbLine
10
74.432902
20
0.889981
30
0
11
63.653741
21
6.954083
31
0
39
0
210
0
220
0
230
1
0
LINE
5
7C
100
AcDbEntity
8
1
62
256
6
ByLayer
370
-1
48
1
60
0
100
AcDbLine
10
63.653741
20
6.954083
30
0
11
63.621014
21
6.92474
31
0
39
0
210
0
220
0
230
1
0
LINE
5
7D
100
AcDbEntity
8
1
62
256
6
ByLayer
370
-1
48
1
60
0
100
AcDbLine
10
58.264807
20
12.78577
30
0
11
58.264807
21
12.740787
31
0
39
0
210
0
220
0
230
1
0
LINE
5
7E
100
AcDbEntity
8
1
62
256
6
ByLayer
370
-1
48
1
60
0
100
AcDbLine
10
68.14548
20
-6.398731
30
0
11
74.432902
21
-2.601008
31
0
39
0
210
0
220
0
230
1
0
LINE
5
7F
100
AcDbEntity
8
1
62
256
6
ByLayer
370
-1
48
1
60
0
100
AcDbLine
10
68.14548
20
-6.398731
30
0
11
56.913334
21
12.4447
31
0
39
0
210
0
220
0
230
1
0
LINE
5
80
100
AcDbEntity
8
1
62
256
6
ByLayer
370
-1
48
1
60
0
100
AcDbLine
10
13.461325
20
-30.080593
30
0
11
10.538675
21
-30.080593
31
0
39
0
210
0
220
0
230
1
0
LINE
5
81
100
AcDbEntity
8
1
62
256
6
ByLayer
370
-1
48
1
60
0
100
AcDbLine
10
13.461325
20
9.349221
30
0
11
13.461325
21
30.080593
31
0
39
0
210
0
220
0
230
1
0
LINE
5
82
100
AcDbEntity
8
1
62
256
6
ByLayer
370
-1
48
1
60
0
100
AcDbLine
10
26.352716
20
-13.389417
30
0
11
26.352716
21
13.389417
31
0
39
0
210
0
220
0
230
1
0
LINE
5
83
100
AcDbEntity
8
1
62
256
6
ByLayer
370
-1
48
1
60
0
100
AcDbLine
10
10.538675
20
9.349221
30
0
11
10.538675
21
30.080593
31
0
39
0
210
0
220
0
230
1
0
LINE
5
84
100
AcDbEntity
8
1
62
256
6
ByLayer
370
-1
48
1
60
0
100
AcDbLine
10
27.511827
20
-12.5
30
0
11
27.511827
21
0
31
0
39
0
210
0
220
0
230
1
0
LINE
5
85
100
AcDbEntity
8
1
62
256
6
ByLayer
370
-1
48
1
60
0
100
AcDbLine
10
27.511827
20
0
30
0
11
27.511827
21
12.5
31
0
39
0
210
0
220
0
230
1
0
LINE
5
86
100
AcDbEntity
8
1
62
256
6
ByLayer
370
-1
48
1
60
0
100
AcDbLine
10
67.280429
20
-6.921238
30
0
11
60.706771
21
4.106955
31
0
39
0
210
0
220
0
230
1
0
LINE
5
87
100
AcDbEntity
8
1
62
256
6
ByLayer
370
-1
48
1
60
0
100
AcDbLine
10
66.531977
20
5.393502
30
0
11
71.27199
21
2.727226
31
0
39
0
210
0
220
0
230
1
0
LINE
5
88
100
AcDbEntity
8
1
62
256
6
ByLayer
370
-1
48
1
60
0
100
AcDbLine
10
58.863096
20
13.47101
30
0
11
65.437318
21
13.442322
31
0
39
0
210
0
220
0
230
1
0
LINE
5
89
100
AcDbEntity
8
1
62
256
6
ByLayer
370
-1
48
1
60
0
100
AcDbLine
10
65.437318
20
12.010823
30
0
11
62.028509
21
10.124674
31
0
39
0
210
0
220
0
230
1
0
LINE
5
8A
100
AcDbEntity
8
1
62
256
6
ByLayer
370
-1
48
1
60
0
100
AcDbLine
10
21.5
20
-31.5
30
0
11
21.5
21
0
31
0
39
0
210
0
220
0
230
1
0
LINE
5
8B
100
AcDbEntity
8
1
62
256
6
ByLayer
370
-1
48
1
60
0
100
AcDbLine
10
21.5
20
0
30
0
11
21.5
21
31.5
31
0
39
0
210
0
220
0
230
1
0
LINE
5
8C
100
AcDbEntity
8
1
62
256
6
ByLayer
370
-1
48
1
60
0
100
AcDbLine
10
10.538675
20
-30.080593
30
0
11
10.538675
21
-9.349221
31
0
39
0
210
0
220
0
230
1
0
LINE
5
8D
100
AcDbEntity
8
1
62
256
6
ByLayer
370
-1
48
1
60
0
100
AcDbLine
10
13.461325
20
9.349221
30
0
11
10.538675
21
9.349221
31
0
39
0
210
0
220
0
230
1
0
LINE
5
8E
100
AcDbEntity
8
1
62
256
6
ByLayer
370
-1
48
1
60
0
100
AcDbLine
10
65.823217
20
-7.801422
30
0
11
58.027804
21
-12.51
31
0
39
0
210
0
220
0
230
1
0
LINE
5
8F
100
AcDbEntity
8
1
62
256
6
ByLayer
370
-1
48
1
60
0
100
AcDbLine
10
57.651972
20
12.5
30
0
11
57.651972
21
12.445941
31
0
39
0
210
0
220
0
230
1
0
LINE
5
90
100
AcDbEntity
8
1
62
256
6
ByLayer
370
-1
48
1
60
0
100
AcDbLine
10
57.651972
20
-1.012509
30
0
11
57.651972
21
-12.5
31
0
39
0
210
0
220
0
230
1
0
LINE
5
91
100
AcDbEntity
8
1
62
256
6
ByLayer
370
-1
48
1
60
0
100
AcDbLine
10
74.432902
20
0.889981
30
0
11
74.432902
21
-2.601008
31
0
39
0
210
0
220
0
230
1
0
LINE
5
92
100
AcDbEntity
8
1
62
256
6
ByLayer
370
-1
48
1
60
0
100
AcDbLine
10
0
20
-31.2
30
0
11
0
21
31.2
31
0
39
0
210
0
220
0
230
1
0
LINE
5
93
100
AcDbEntity
8
1
62
256
6
ByLayer
370
-1
48
1
60
0
100
AcDbLine
10
13.894338
20
9.869413
30
0
11
13.894338
21
29.913955
31
0
39
0
210
0
220
0
230
1
0
LINE
5
94
100
AcDbEntity
8
1
62
256
6
ByLayer
370
-1
48
1
60
0
100
AcDbLine
10
10.538675
20
-9.349221
30
0
11
13.461325
21
-9.349221
31
0
39
0
210
0
220
0
230
1
0
LINE
5
95
100
AcDbEntity
8
1
62
256
6
ByLayer
370
-1
48
1
60
0
100
AcDbLine
10
65.408016
20
11.908401
30
0
11
65.408016
21
11.601765
31
0
39
0
210
0
220
0
230
1
0
LINE
5
96
100
AcDbEntity
8
1
62
256
6
ByLayer
370
-1
48
1
60
0
100
AcDbLine
10
63.841327
20
6.887517
30
0
11
65.82339
21
5.772598
31
0
39
0
210
0
220
0
230
1
0
LINE
5
97
100
AcDbEntity
8
1
62
256
6
ByLayer
370
-1
48
1
60
0
100
AcDbLine
10
74.432902
20
0.889981
30
0
11
74.419707
21
0.937135
31
0
39
0
210
0
220
0
230
1
0
LINE
5
98
100
AcDbEntity
8
1
62
256
6
ByLayer
370
-1
48
1
60
0
100
AcDbLine
10
10.538675
20
30.080593
30
0
11
13.461325
21
30.080593
31
0
39
0
210
0
220
0
230
1
0
LINE
5
99
100
AcDbEntity
8
1
62
256
6
ByLayer
370
-1
48
1
60
0
100
AcDbLine
10
68.770269
20
9.011034
30
0
11
68.797244
21
9.392796
31
0
39
0
210
0
220
0
230
1
0
LINE
5
9A
100
AcDbEntity
8
1
62
256
6
ByLayer
370
-1
48
1
60
0
100
AcDbLine
10
68.750273
20
9.01513
30
0
11
68.777463
21
9.399939
31
0
39
0
210
0
220
0
230
1
0
LINE
5
9B
100
AcDbEntity
8
1
62
256
6
ByLayer
370
-1
48
1
60
0
100
AcDbLine
10
69.16592
20
7.878418
30
0
11
69.172841
21
7.976376
31
0
39
0
210
0
220
0
230
1
0
LINE
5
9C
100
AcDbEntity
8
1
62
256
6
ByLayer
370
-1
48
1
60
0
100
AcDbLine
10
71.300266
20
7.804168
30
0
11
71.312544
21
7.977929
31
0
39
0
210
0
220
0
230
1
0
LINE
5
9D
100
AcDbEntity
8
1
62
256
6
ByLayer
370
-1
48
1
60
0
100
AcDbLine
10
70.611372
20
10.029232
30
0
11
70.638347
21
10.410995
31
0
39
0
210
0
220
0
230
1
0
LINE
5
9E
100
AcDbEntity
8
1
62
256
6
ByLayer
370
-1
48
1
60
0
100
AcDbLine
10
69.827025
20
10.051676
30
0
11
69.854215
21
10.436485
31
0
39
0
210
0
220
0
230
1
0
LINE
5
9F
100
AcDbEntity
8
1
62
256
6
ByLayer
370
-1
48
1
60
0
100
AcDbLine
10
71.674538
20
8.997287
30
0
11
71.694534
21
9.001195
31
0
39
0
210
0
220
0
230
1
0
LINE
5
A0
100
AcDbEntity
8
1
62
256
6
ByLayer
370
-1
48
1
60
0
100
AcDbLine
10
71.694534
20
9.001195
30
0
11
71.721724
21
9.386004
31
0
39
0
210
0
220
0
230
1
0
LINE
5
A1
100
AcDbEntity
8
1
62
256
6
ByLayer
370
-1
48
1
60
0
100
AcDbLine
10
70.617782
20
10.047934
30
0
11
70.644972
21
10.432742
31
0
39
0
210
0
220
0
230
1
0
LINE
5
A2
100
AcDbEntity
8
1
62
256
6
ByLayer
370
-1
48
1
60
0
100
AcDbLine
10
71.316621
20
7.828553
30
0
11
71.326345
21
7.966183
31
0
39
0
210
0
220
0
230
1
0
LINE
5
A3
100
AcDbEntity
8
1
62
256
6
ByLayer
370
-1
48
1
60
0
100
AcDbLine
10
71.674538
20
8.997287
30
0
11
71.701512
21
9.379049
31
0
39
0
210
0
220
0
230
1
0
LINE
5
A4
100
AcDbEntity
8
1
62
256
6
ByLayer
370
-1
48
1
60
0
100
AcDbLine
10
69.176645
20
7.852588
30
0
11
69.186212
21
7.987994
31
0
39
0
210
0
220
0
230
1
0
LINE
5
A5
100
AcDbEntity
8
1
62
256
6
ByLayer
370
-1
48
1
60
0
100
AcDbLine
10
68.750273
20
9.01513
30
0
11
68.770269
21
9.011034
31
0
39
0
210
0
220
0
230
1
0
LINE
5
A6
100
AcDbEntity
8
1
62
256
6
ByLayer
370
-1
48
1
60
0
100
AcDbLine
10
70.611372
20
10.029232
30
0
11
70.617782
21
10.047934
31
0
39
0
210
0
220
0
230
1
0
LINE
5
A7
100
AcDbEntity
8
1
62
256
6
ByLayer
370
-1
48
1
60
0
100
AcDbLine
10
69.827025
20
10.051676
30
0
11
69.833435
21
10.032915
31
0
39
0
210
0
220
0
230
1
0
LINE
5
A8
100
AcDbEntity
8
1
62
256
6
ByLayer
370
-1
48
1
60
0
100
AcDbLine
10
69.833435
20
10.032915
30
0
11
69.86041
21
10.414677
31
0
39
0
210
0
220
0
230
1
0
LINE
5
A9
100
AcDbEntity
8
1
62
256
6
ByLayer
370
-1
48
1
60
0
100
AcDbLine
10
67.025223
20
12.648729
30
0
11
67.025223
21
12.496736
31
0
39
0
210
0
220
0
230
1
0
LINE
5
AA
100
AcDbEntity
8
1
62
256
6
ByLayer
370
-1
48
1
60
0
100
AcDbLine
10
65.698874
20
11.76273
30
0
11
65.698874
21
12.064112
31
0
39
0
210
0
220
0
230
1
0
LINE
5
AB
100
AcDbEntity
8
1
62
256
6
ByLayer
370
-1
48
1
60
0
100
AcDbLine
10
62.431842
20
7.704519
30
0
11
62.431842
21
6.71643
31
0
39
0
210
0
220
0
230
1
0
LINE
5
AC
100
AcDbEntity
8
1
62
256
6
ByLayer
370
-1
48
1
60
0
100
AcDbLine
10
65.966633
20
12.467845
30
0
11
65.966633
21
11.910817
31
0
39
0
210
0
220
0
230
1
0
LINE
5
AD
100
AcDbEntity
8
1
62
256
6
ByLayer
370
-1
48
1
60
0
100
AcDbLine
10
62.598561
20
6.877234
30
0
11
62.598561
21
7.701386
31
0
39
0
210
0
220
0
230
1
0
LINE
5
AE
100
AcDbEntity
8
1
62
256
6
ByLayer
370
-1
48
1
60
0
100
AcDbLine
10
65.622353
20
11.720391
30
0
11
65.698874
21
12.064112
31
0
39
0
210
0
220
0
230
1
0
LINE
5
AF
100
AcDbEntity
8
1
62
256
6
ByLayer
370
-1
48
1
60
0
100
AcDbLine
10
67.20842
20
12.62709
30
0
11
67.20842
21
12.598079
31
0
39
0
210
0
220
0
230
1
0
LINE
5
B0
100
AcDbEntity
8
1
62
256
6
ByLayer
370
-1
48
1
60
0
100
AcDbLine
10
66.298354
20
12.54496
30
0
11
66.298354
21
12.094386
31
0
39
0
210
0
220
0
230
1
0
LINE
5
B1
100
AcDbEntity
8
1
62
256
6
ByLayer
370
-1
48
1
60
0
100
AcDbLine
10
66.192212
20
12.51945
30
0
11
66.192212
21
12.035719
31
0
39
0
210
0
220
0
230
1
0
LINE
5
B2
100
AcDbEntity
8
1
62
256
6
ByLayer
370
-1
48
1
60
0
100
AcDbLine
10
67.025223
20
12.648729
30
0
11
66.727775
21
12.649778
31
0
39
0
210
0
220
0
230
1
0
LINE
5
B3
100
AcDbEntity
8
1
62
256
6
ByLayer
370
-1
48
1
60
0
100
AcDbLine
10
65.863217
20
12.421477
30
0
11
65.863217
21
11.853651
31
0
39
0
210
0
220
0
230
1
0
LINE
5
B4
100
AcDbEntity
8
1
62
256
6
ByLayer
370
-1
48
1
60
0
100
AcDbLine
10
66.727775
20
12.649778
30
0
11
66.727775
21
12.332096
31
0
39
0
210
0
220
0
230
1
0
LINE
5
B5
100
AcDbEntity
8
1
62
256
6
ByLayer
370
-1
48
1
60
0
100
AcDbLine
10
66.542367
20
12.62944
30
0
11
66.542367
21
12.229475
31
0
39
0
210
0
220
0
230
1
0
LINE
5
B6
100
AcDbEntity
8
1
62
256
6
ByLayer
370
-1
48
1
60
0
100
AcDbLine
10
62.923701
20
6.694815
30
0
11
62.598561
21
6.877234
31
0
39
0
210
0
220
0
230
1
0
LINE
5
B7
100
AcDbEntity
8
SK1
62
256
6
ByLayer
370
-1
48
1
60
0
100
AcDbLine
10
-1.307107
20
4.695915
30
0
11
-1.307107
21
-4.695917
31
0
39
0
210
0
220
0
230
1
0
LINE
5
B8
100
AcDbEntity
8
SK1
62
256
6
ByLayer
370
-1
48
1
60
0
100
AcDbLine
10
-0.2
20
-22.45
30
0
11
-0.2
21
-7.454102
31
0
39
0
210
0
220
0
230
1
0
LINE
5
B9
100
AcDbEntity
8
SK1
62
256
6
ByLayer
370
-1
48
1
60
0
100
AcDbLine
10
-0.2
20
7.454103
30
0
11
-0.2
21
22.45
31
0
39
0
210
0
220
0
230
1
0
LINE
5
BA
100
AcDbEntity
8
SK1
62
256
6
ByLayer
370
-1
48
1
60
0
100
AcDbLine
10
-38
20
-20.238234
30
0
11
-38
21
20.248119
31
0
39
0
210
0
220
0
230
1
0
LINE
5
BB
100
AcDbEntity
8
1
62
256
6
ByLayer
370
-1
48
1
60
0
100
AcDbLine
10
74.33294
20
2.431962
30
0
11
74.266014
21
1.404597
31
0
39
0
210
0
220
0
230
1
0
LINE
5
BC
100
AcDbEntity
8
1
62
256
6
ByLayer
370
-1
48
1
60
0
100
AcDbLine
10
75.001206
20
5.619631
30
0
11
70.667349
21
3.412393
31
0
39
0
210
0
220
0
230
1
0
LINE
5
BD
100
AcDbEntity
8
1
62
256
6
ByLayer
370
-1
48
1
60
0
100
AcDbLine
10
68.362442
20
4.708029
30
0
11
70.667349
21
3.412393
31
0
39
0
210
0
220
0
230
1
0
LINE
5
BE
100
AcDbEntity
8
1
62
256
6
ByLayer
370
-1
48
1
60
0
100
AcDbLine
10
74.490056
20
7.991335
30
0
11
75.00236
21
8.008377
31
0
39
0
210
0
220
0
230
1
0
LINE
5
BF
100
AcDbEntity
8
1
62
256
6
ByLayer
370
-1
48
1
60
0
100
AcDbLine
10
63.688152
20
9.03669
30
0
11
63.692739
21
9.36946
31
0
39
0
210
0
220
0
230
1
0
LINE
5
C0
100
AcDbEntity
8
1
62
256
6
ByLayer
370
-1
48
1
60
0
100
AcDbLine
10
63.933134
20
10.591554
30
0
11
64.112693
21
10.429533
31
0
39
0
210
0
220
0
230
1
0
LINE
5
C1
100
AcDbEntity
8
1
62
256
6
ByLayer
370
-1
48
1
60
0
100
AcDbLine
10
75.00236
20
5.642805
30
0
11
75.00236
21
8.008377
31
0
39
0
210
0
220
0
230
1
0
LINE
5
C2
100
AcDbEntity
8
1
62
256
6
ByLayer
370
-1
48
1
60
0
100
AcDbLine
10
64.445139
20
10.490678
30
0
11
64.484606
21
10.929913
31
0
39
0
210
0
220
0
230
1
0
LINE
5
C3
100
AcDbEntity
8
1
62
256
6
ByLayer
370
-1
48
1
60
0
100
AcDbLine
10
63.715416
20
8.723699
30
0
11
63.694848
21
8.939813
31
0
39
0
210
0
220
0
230
1
0
LINE
5
C4
100
AcDbEntity
8
1
62
256
6
ByLayer
370
-1
48
1
60
0
100
AcDbLine
10
73.660158
20
8.706581
30
0
11
73.833292
21
8.122523
31
0
39
0
210
0
220
0
230
1
0
LINE
5
C5
100
AcDbEntity
8
1
62
256
6
ByLayer
370
-1
48
1
60
0
100
AcDbLine
10
64.656088
20
6.938032
30
0
11
64.445139
21
10.490678
31
0
39
0
210
0
220
0
230
1
0
LINE
5
C6
100
AcDbEntity
8
1
62
256
6
ByLayer
370
-1
48
1
60
0
100
AcDbLine
10
68.51663
20
13.289583
30
0
11
68.887714
21
12.942584
31
0
39
0
210
0
220
0
230
1
0
LINE
5
C7
100
AcDbEntity
8
1
62
256
6
ByLayer
370
-1
48
1
60
0
100
AcDbLine
10
64.394563
20
7.323227
30
0
11
64.347628
21
6.602725
31
0
39
0
210
0
220
0
230
1
0
LINE
5
C8
100
AcDbEntity
8
1
62
256
6
ByLayer
370
-1
48
1
60
0
100
AcDbLine
10
62.391429
20
7.705297
30
0
11
63.246566
21
7.689057
31
0
39
0
210
0
220
0
230
1
0
LINE
5
C9
100
AcDbEntity
8
1
62
256
6
ByLayer
370
-1
48
1
60
0
100
AcDbLine
10
64.192019
20
10.731794
30
0
11
64.170302
21
10.490105
31
0
39
0
210
0
220
0
230
1
0
LINE
5
CA
100
AcDbEntity
8
1
62
256
6
ByLayer
370
-1
48
1
60
0
100
AcDbLine
10
68.3433
20
13.173746
30
0
11
69.165844
21
12.404589
31
0
39
0
210
0
220
0
230
1
0
LINE
5
CB
100
AcDbEntity
8
1
62
256
6
ByLayer
370
-1
48
1
60
0
100
AcDbLine
10
64.484606
20
10.929913
30
0
11
64.926952
21
11.320144
31
0
39
0
210
0
220
0
230
1
0
LINE
5
CC
100
AcDbEntity
8
1
62
256
6
ByLayer
370
-1
48
1
60
0
100
AcDbLine
10
74.077512
20
15.531733
30
0
11
74.957697
21
13.991523
31
0
39
0
210
0
220
0
230
1
0
LINE
5
CD
100
AcDbEntity
8
1
62
256
6
ByLayer
370
-1
48
1
60
0
100
AcDbLine
10
68.748284
20
11.953022
30
0
11
69.184616
21
12.38762
31
0
39
0
210
0
220
0
230
1
0
LINE
5
CE
100
AcDbEntity
8
1
62
256
6
ByLayer
370
-1
48
1
60
0
100
AcDbLine
10
74.989042
20
12.815383
30
0
11
74.786807
21
12.948216
31
0
39
0
210
0
220
0
230
1
0
LINE
5
CF
100
AcDbEntity
8
1
62
256
6
ByLayer
370
-1
48
1
60
0
100
AcDbLine
10
73.858289
20
8.128759
30
0
11
73.685154
21
8.712817
31
0
39
0
210
0
220
0
230
1
0
LINE
5
D0
100
AcDbEntity
8
1
62
256
6
ByLayer
370
-1
48
1
60
0
100
AcDbLine
10
74.263975
20
1.401194
30
0
11
74.266014
21
1.404597
31
0
39
0
210
0
220
0
230
1
0
LINE
5
D1
100
AcDbEntity
8
1
62
256
6
ByLayer
370
-1
48
1
60
0
100
AcDbLine
10
68.313169
20
6.232971
30
0
11
67.703702
21
6.382431
31
0
39
0
210
0
220
0
230
1
0
LINE
5
D2
100
AcDbEntity
8
1
62
256
6
ByLayer
370
-1
48
1
60
0
100
AcDbLine
10
73.610636
20
2.742992
30
0
11
73.009942
21
2.701226
31
0
39
0
210
0
220
0
230
1
0
LINE
5
D3
100
AcDbEntity
8
1
62
256
6
ByLayer
370
-1
48
1
60
0
100
AcDbLine
10
71.500596
20
2.732083
30
0
11
71.680085
21
2.631189
31
0
39
0
210
0
220
0
230
1
0
LINE
5
D4
100
AcDbEntity
8
1
62
256
6
ByLayer
370
-1
48
1
60
0
100
AcDbLine
10
74.786807
20
12.948216
30
0
11
74.989042
21
13.015604
31
0
39
0
210
0
220
0
230
1
0
LINE
5
D5
100
AcDbEntity
8
1
62
256
6
ByLayer
370
-1
48
1
60
0
100
AcDbLine
10
72.391343
20
2.286775
30
0
11
71.75989
21
2.589582
31
0
39
0
210
0
220
0
230
1
0
LINE
5
D6
100
AcDbEntity
8
1
62
256
6
ByLayer
370
-1
48
1
60
0
100
AcDbLine
10
64.295426
20
7.385487
30
0
11
64.248082
21
6.658722
31
0
39
0
210
0
220
0
230
1
0
LINE
5
D7
100
AcDbEntity
8
1
62
256
6
ByLayer
370
-1
48
1
60
0
100
AcDbLine
10
63.529787
20
8.070784
30
0
11
63.465828
21
7.088963
31
0
39
0
210
0
220
0
230
1
0
LINE
5
D8
100
AcDbEntity
8
1
62
256
6
ByLayer
370
-1
48
1
60
0
100
AcDbLine
10
63.991124
20
7.434752
30
0
11
63.951441
21
6.825588
31
0
39
0
210
0
220
0
230
1
0
LINE
5
D9
100
AcDbEntity
8
1
62
256
6
ByLayer
370
-1
48
1
60
0
100
AcDbLine
10
67.611521
20
12.776041
30
0
11
68.186191
21
12.23867
31
0
39
0
210
0
220
0
230
1
0
LINE
5
DA
100
AcDbEntity
8
1
62
256
6
ByLayer
370
-1
48
1
60
0
100
AcDbLine
10
74.899585
20
4.458615
30
0
11
74.968542
21
5.517158
31
0
39
0
210
0
220
0
230
1
0
LINE
5
DB
100
AcDbEntity
8
1
62
256
6
ByLayer
370
-1
48
1
60
0
100
AcDbLine
10
63.290083
20
9.618861
30
0
11
63.001063
21
9.150758
31
0
39
0
210
0
220
0
230
1
0
LINE
5
DC
100
AcDbEntity
8
1
62
256
6
ByLayer
370
-1
48
1
60
0
100
AcDbLine
10
63.076711
20
9.795213
30
0
11
63.290083
21
9.618861
31
0
39
0
210
0
220
0
230
1
0
LINE
5
DD
100
AcDbEntity
8
1
62
256
6
ByLayer
370
-1
48
1
60
0
100
AcDbLine
10
74.66617
20
4.216396
30
0
11
74.602211
21
3.234576
31
0
39
0
210
0
220
0
230
1
0
LINE
5
DE
100
AcDbEntity
8
1
62
256
6
ByLayer
370
-1
48
1
60
0
100
AcDbLine
10
73.605082
20
2.646168
30
0
11
74.046728
21
2.462037
31
0
39
0
210
0
220
0
230
1
0
LINE
5
DF
100
AcDbEntity
8
1
62
256
6
ByLayer
370
-1
48
1
60
0
100
AcDbLine
10
63.520978
20
8.223486
30
0
11
63.548656
21
8.279945
31
0
39
0
210
0
220
0
230
1
0
LINE
5
E0
100
AcDbEntity
8
1
62
256
6
ByLayer
370
-1
48
1
60
0
100
AcDbLine
10
62.381449
20
8.778901
30
0
11
62.314523
21
7.751535
31
0
39
0
210
0
220
0
230
1
0
LINE
5
E1
100
AcDbEntity
8
1
62
256
6
ByLayer
370
-1
48
1
60
0
100
AcDbLine
10
62.567476
20
8.970446
30
0
11
63.076711
21
9.795213
31
0
39
0
210
0
220
0
230
1
0
LINE
5
E2
100
AcDbEntity
8
1
62
256
6
ByLayer
370
-1
48
1
60
0
100
AcDbLine
10
68.268175
20
4.75141
30
0
11
68.101627
21
4.806084
31
0
39
0
210
0
220
0
230
1
0
LINE
5
E3
100
AcDbEntity
8
1
62
256
6
ByLayer
370
-1
48
1
60
0
100
AcDbLine
10
74.204162
20
3.584394
30
0
11
74.135776
21
3.573998
31
0
39
0
210
0
220
0
230
1
0
LINE
5
E4
100
AcDbEntity
8
1
62
256
6
ByLayer
370
-1
48
1
60
0
100
AcDbLine
10
73.914417
20
3.304993
30
0
11
73.90739
21
3.197135
31
0
39
0
210
0
220
0
230
1
0
LINE
5
E5
100
AcDbEntity
8
1
62
256
6
ByLayer
370
-1
48
1
60
0
100
AcDbLine
10
74.66617
20
4.216396
30
0
11
74.341739
21
3.674951
31
0
39
0
210
0
220
0
230
1
0
LINE
5
E6
100
AcDbEntity
8
1
62
256
6
ByLayer
370
-1
48
1
60
0
100
AcDbLine
10
64.112693
20
10.429533
30
0
11
64.293422
21
7.385809
31
0
39
0
210
0
220
0
230
1
0
LINE
5
E7
100
AcDbEntity
8
1
62
256
6
ByLayer
370
-1
48
1
60
0
100
AcDbLine
10
67.356809
20
12.680235
30
0
11
65.051901
21
11.404715
31
0
39
0
210
0
220
0
230
1
0
LINE
5
E8
100
AcDbEntity
8
1
62
256
6
ByLayer
370
-1
48
1
60
0
100
AcDbLine
10
74.623956
20
12.77069
30
0
11
74.991489
21
12.529285
31
0
39
0
210
0
220
0
230
1
0
LINE
5
E9
100
AcDbEntity
8
1
62
256
6
ByLayer
370
-1
48
1
60
0
100
AcDbLine
10
74.433969
20
13.938628
30
0
11
74.126106
21
13.74995
31
0
39
0
210
0
220
0
230
1
0
LINE
5
EA
100
AcDbEntity
8
1
62
256
6
ByLayer
370
-1
48
1
60
0
100
AcDbLine
10
74.341739
20
3.674951
30
0
11
74.27778
21
2.693131
31
0
39
0
210
0
220
0
230
1
0
LINE
5
EB
100
AcDbEntity
8
1
62
256
6
ByLayer
370
-1
48
1
60
0
100
AcDbLine
10
62.383487
20
8.77548
30
0
11
62.316562
21
7.748115
31
0
39
0
210
0
220
0
230
1
0
LINE
5
EC
100
AcDbEntity
8
1
62
256
6
ByLayer
370
-1
48
1
60
0
100
AcDbLine
10
74.096647
20
15.294923
30
0
11
74.633532
21
14.355444
31
0
39
0
210
0
220
0
230
1
0
LINE
5
ED
100
AcDbEntity
8
1
62
256
6
ByLayer
370
-1
48
1
60
0
100
AcDbLine
10
63.542294
20
8.39023
30
0
11
63.533033
21
8.248076
31
0
39
0
210
0
220
0
230
1
0
LINE
5
EE
100
AcDbEntity
8
1
62
256
6
ByLayer
370
-1
48
1
60
0
100
AcDbLine
10
62.458161
20
8.729691
30
0
11
62.391429
21
7.705297
31
0
39
0
210
0
220
0
230
1
0
LINE
5
EF
100
AcDbEntity
8
1
62
256
6
ByLayer
370
-1
48
1
60
0
100
AcDbLine
10
63.854218
20
7.526507
30
0
11
63.813242
21
6.897498
31
0
39
0
210
0
220
0
230
1
0
LINE
5
F0
100
AcDbEntity
8
1
62
256
6
ByLayer
370
-1
48
1
60
0
100
AcDbLine
10
73.316975
20
3.213637
30
0
11
73.610636
21
2.742992
31
0
39
0
210
0
220
0
230
1
0
LINE
5
F1
100
AcDbEntity
8
1
62
256
6
ByLayer
370
-1
48
1
60
0
100
AcDbLine
10
63.465828
20
7.088963
30
0
11
63.578401
21
6.900107
31
0
39
0
210
0
220
0
230
1
0
LINE
5
F2
100
AcDbEntity
8
1
62
256
6
ByLayer
370
-1
48
1
60
0
100
AcDbLine
10
63.357166
20
7.625804
30
0
11
63.45948
21
7.454157
31
0
39
0
210
0
220
0
230
1
0
LINE
5
F3
100
AcDbEntity
8
1
62
256
6
ByLayer
370
-1
48
1
60
0
100
AcDbLine
10
64.900803
20
6.653887
30
0
11
67.021415
21
5.461847
31
0
39
0
210
0
220
0
230
1
0
LINE
5
F4
100
AcDbEntity
8
1
62
256
6
ByLayer
370
-1
48
1
60
0
100
AcDbLine
10
71.500596
20
2.732083
30
0
11
71.723654
21
2.827221
31
0
39
0
210
0
220
0
230
1
0
LINE
5
F5
100
AcDbEntity
8
1
62
256
6
ByLayer
370
-1
48
1
60
0
100
AcDbLine
10
74.25584
20
2.383424
30
0
11
74.189108
21
1.35903
31
0
39
0
210
0
220
0
230
1
0
LINE
5
F6
100
AcDbEntity
8
1
62
256
6
ByLayer
370
-1
48
1
60
0
100
AcDbLine
10
72.988341
20
2.388449
30
0
11
73.004387
21
2.604403
31
0
39
0
210
0
220
0
230
1
0
LINE
5
F7
100
AcDbEntity
8
1
62
256
6
ByLayer
370
-1
48
1
60
0
100
AcDbLine
10
67.260287
20
5.899055
30
0
11
67.021415
21
5.461847
31
0
39
0
210
0
220
0
230
1
0
LINE
5
F8
100
AcDbEntity
8
1
62
256
6
ByLayer
370
-1
48
1
60
0
100
AcDbLine
10
67.198229
20
5.327518
30
0
11
67.105776
21
5.404637
31
0
39
0
210
0
220
0
230
1
0
LINE
5
F9
100
AcDbEntity
8
1
62
256
6
ByLayer
370
-1
48
1
60
0
100
AcDbLine
10
74.036415
20
3.508596
30
0
11
73.914417
21
3.304993
31
0
39
0
210
0
220
0
230
1
0
LINE
5
FA
100
AcDbEntity
8
1
62
256
6
ByLayer
370
-1
48
1
60
0
100
AcDbLine
10
70.790214
20
3.326741
30
0
11
74.923154
21
5.431652
31
0
39
0
210
0
220
0
230
1
0
LINE
5
FB
100
AcDbEntity
8
1
62
256
6
ByLayer
370
-1
48
1
60
0
100
AcDbLine
10
72.863727
20
3.27819
30
0
11
73.177005
21
3.457783
31
0
39
0
210
0
220
0
230
1
0
LINE
5
FC
100
AcDbEntity
8
1
62
256
6
ByLayer
370
-1
48
1
60
0
100
AcDbLine
10
73.858245
20
13.751119
30
0
11
73.55204
21
13.942477
31
0
39
0
210
0
220
0
230
1
0
LINE
5
FD
100
AcDbEntity
8
1
62
256
6
ByLayer
370
-1
48
1
60
0
100
AcDbLine
10
74.989247
20
13.107538
30
0
11
74.759085
21
13.030844
31
0
39
0
210
0
220
0
230
1
0
LINE
5
FE
100
AcDbEntity
8
1
62
256
6
ByLayer
370
-1
48
1
60
0
100
AcDbLine
10
63.092099
20
9.083677
30
0
11
63.381119
21
9.55178
31
0
39
0
210
0
220
0
230
1
0
LINE
5
FF
100
AcDbEntity
8
1
62
256
6
ByLayer
370
-1
48
1
60
0
100
AcDbLine
10
62.665208
20
8.806488
30
0
11
63.098794
21
8.986801
31
0
39
0
210
0
220
0
230
1
0
LINE
5
100
100
AcDbEntity
8
1
62
256
6
ByLayer
370
-1
48
1
60
0
100
AcDbLine
10
63.688152
20
9.03669
30
0
11
63.092099
21
9.083677
31
0
39
0
210
0
220
0
230
1
0
LINE
5
101
100
AcDbEntity
8
1
62
256
6
ByLayer
370
-1
48
1
60
0
100
AcDbLine
10
64.293422
20
7.385809
30
0
11
63.991124
21
7.434752
31
0
39
0
210
0
220
0
230
1
0
LINE
5
102
100
AcDbEntity
8
1
62
256
6
ByLayer
370
-1
48
1
60
0
100
AcDbLine
10
73.901184
20
15.295776
30
0
11
73.897154
21
14.745747
31
0
39
0
210
0
220
0
230
1
0
LINE
5
103
100
AcDbEntity
8
1
62
256
6
ByLayer
370
-1
48
1
60
0
100
AcDbLine
10
73.994316
20
14.688889
30
0
11
74.299028
21
14.155681
31
0
39
0
210
0
220
0
230
1
0
LINE
5
104
100
AcDbEntity
8
1
62
256
6
ByLayer
370
-1
48
1
60
0
100
AcDbLine
10
73.356122
20
14.361018
30
0
11
73.901184
21
15.295776
31
0
39
0
210
0
220
0
230
1
0
LINE
5
105
100
AcDbEntity
8
1
62
256
6
ByLayer
370
-1
48
1
60
0
100
AcDbLine
10
71.239005
20
14.570768
30
0
11
74.623956
21
12.77069
31
0
39
0
210
0
220
0
230
1
0
LINE
5
106
100
AcDbEntity
8
1
62
256
6
ByLayer
370
-1
48
1
60
0
100
AcDbLine
10
63.420296
20
8.594898
30
0
11
63.357166
21
7.625804
31
0
39
0
210
0
220
0
230
1
0
LINE
5
107
100
AcDbEntity
8
1
62
256
6
ByLayer
370
-1
48
1
60
0
100
AcDbLine
10
74.999309
20
9.169933
30
0
11
74.202479
21
9.018472
31
0
39
0
210
0
220
0
230
1
0
LINE
5
108
100
AcDbEntity
8
1
62
256
6
ByLayer
370
-1
48
1
60
0
100
AcDbLine
10
73.913731
20
3.18547
30
0
11
74.333403
21
2.51287
31
0
39
0
210
0
220
0
230
1
0
LINE
5
109
100
AcDbEntity
8
1
62
256
6
ByLayer
370
-1
48
1
60
0
100
AcDbLine
10
74.33294
20
2.431962
30
0
11
74.330901
21
2.42856
31
0
39
0
210
0
220
0
230
1
0
LINE
5
10A
100
AcDbEntity
8
1
62
256
6
ByLayer
370
-1
48
1
60
0
100
AcDbLine
10
74.299028
20
14.155681
30
0
11
73.991166
21
13.967002
31
0
39
0
210
0
220
0
230
1
0
LINE
5
10B
100
AcDbEntity
8
1
62
256
6
ByLayer
370
-1
48
1
60
0
100
AcDbLine
10
74.998819
20
8.34555
30
0
11
73.858289
21
8.128759
31
0
39
0
210
0
220
0
230
1
0
LINE
5
10C
100
AcDbEntity
8
1
62
256
6
ByLayer
370
-1
48
1
60
0
100
AcDbLine
10
64.926952
20
11.320144
30
0
11
64.763593
21
6.801621
31
0
39
0
210
0
220
0
230
1
0
LINE
5
10D
100
AcDbEntity
8
1
62
256
6
ByLayer
370
-1
48
1
60
0
100
AcDbLine
10
75.00236
20
9.50431
30
0
11
74.160542
21
9.112419
31
0
39
0
210
0
220
0
230
1
0
LINE
5
10E
100
AcDbEntity
8
1
62
256
6
ByLayer
370
-1
48
1
60
0
100
AcDbLine
10
73.684961
20
14.158361
30
0
11
73.994316
21
14.688889
31
0
39
0
210
0
220
0
230
1
0
LINE
5
10F
100
AcDbEntity
8
1
62
256
6
ByLayer
370
-1
48
1
60
0
100
AcDbLine
10
74.092617
20
14.744895
30
0
11
74.096647
21
15.294923
31
0
39
0
210
0
220
0
230
1
0
LINE
5
110
100
AcDbEntity
8
1
62
256
6
ByLayer
370
-1
48
1
60
0
100
AcDbLine
10
69.165844
20
12.404589
30
0
11
68.729511
21
11.969991
31
0
39
0
210
0
220
0
230
1
0
LINE
5
111
100
AcDbEntity
8
1
62
256
6
ByLayer
370
-1
48
1
60
0
100
AcDbLine
10
73.897154
20
14.745747
30
0
11
73.5878
21
14.215219
31
0
39
0
210
0
220
0
230
1
0
LINE
5
112
100
AcDbEntity
8
1
62
256
6
ByLayer
370
-1
48
1
60
0
100
AcDbLine
10
68.362442
20
4.708029
30
0
11
68.428747
21
5.609816
31
0
39
0
210
0
220
0
230
1
0
LINE
5
113
100
AcDbEntity
8
1
62
256
6
ByLayer
370
-1
48
1
60
0
100
AcDbLine
10
73.678973
20
1.353794
30
0
11
74.189108
21
1.35903
31
0
39
0
210
0
220
0
230
1
0
LINE
5
114
100
AcDbEntity
8
1
62
256
6
ByLayer
370
-1
48
1
60
0
100
AcDbLine
10
74.67651
20
4.086324
30
0
11
74.899585
21
4.458615
31
0
39
0
210
0
220
0
230
1
0
LINE
5
115
100
AcDbEntity
8
1
62
256
6
ByLayer
370
-1
48
1
60
0
100
AcDbLine
10
67.198229
20
5.327518
30
0
11
67.346427
21
5.845101
31
0
39
0
210
0
220
0
230
1
0
LINE
5
116
100
AcDbEntity
8
1
62
256
6
ByLayer
370
-1
48
1
60
0
100
AcDbLine
10
75.001756
20
9.390559
30
0
11
74.999309
21
9.169933
31
0
39
0
210
0
220
0
230
1
0
LINE
5
117
100
AcDbEntity
8
1
62
256
6
ByLayer
370
-1
48
1
60
0
100
AcDbLine
10
74.633532
20
14.355444
30
0
11
74.39733
21
14.211686
31
0
39
0
210
0
220
0
230
1
0
LINE
5
118
100
AcDbEntity
8
1
62
256
6
ByLayer
370
-1
48
1
60
0
100
AcDbLine
10
74.330901
20
2.42856
30
0
11
74.263975
21
1.401194
31
0
39
0
210
0
220
0
230
1
0
LINE
5
119
100
AcDbEntity
8
1
62
256
6
ByLayer
370
-1
48
1
60
0
100
AcDbLine
10
75.000165
20
8.174361
30
0
11
74.485624
21
8.076557
31
0
39
0
210
0
220
0
230
1
0
LINE
5
11A
100
AcDbEntity
8
1
62
256
6
ByLayer
370
-1
48
1
60
0
100
AcDbLine
10
72.520689
20
2.262782
30
0
11
72.504512
21
2.01444
31
0
39
0
210
0
220
0
230
1
0
LINE
5
11B
100
AcDbEntity
8
1
62
256
6
ByLayer
370
-1
48
1
60
0
100
AcDbLine
10
73.356122
20
14.361018
30
0
11
73.5878
21
14.215219
31
0
39
0
210
0
220
0
230
1
0
LINE
5
11C
100
AcDbEntity
8
1
62
256
6
ByLayer
370
-1
48
1
60
0
100
AcDbLine
10
74.548818
20
4.621531
30
0
11
74.674308
21
4.369025
31
0
39
0
210
0
220
0
230
1
0
LINE
5
11D
100
AcDbEntity
8
1
62
256
6
ByLayer
370
-1
48
1
60
0
100
AcDbLine
10
67.449868
20
12.722799
30
0
11
67.611521
21
12.776041
31
0
39
0
210
0
220
0
230
1
0
LINE
5
11E
100
AcDbEntity
8
1
62
256
6
ByLayer
370
-1
48
1
60
0
100
AcDbLine
10
67.697363
20
6.357456
30
0
11
68.30683
21
6.207996
31
0
39
0
210
0
220
0
230
1
0
LINE
5
11F
100
AcDbEntity
8
1
62
256
6
ByLayer
370
-1
48
1
60
0
100
AcDbLine
10
73.684961
20
14.158361
30
0
11
73.991166
21
13.967002
31
0
39
0
210
0
220
0
230
1
0
LINE
5
120
100
AcDbEntity
8
1
62
256
6
ByLayer
370
-1
48
1
60
0
100
AcDbLine
10
68.186191
20
12.23867
30
0
11
67.449868
21
12.722799
31
0
39
0
210
0
220
0
230
1
0
LINE
5
121
100
AcDbEntity
8
1
62
256
6
ByLayer
370
-1
48
1
60
0
100
AcDbLine
10
74.39733
20
14.211686
30
0
11
74.092617
21
14.744895
31
0
39
0
210
0
220
0
230
1
0
LINE
5
122
100
AcDbEntity
8
1
62
256
6
ByLayer
370
-1
48
1
60
0
100
AcDbLine
10
68.971269
20
13.002183
30
0
11
68.697836
21
13.42235
31
0
39
0
210
0
220
0
230
1
0
LINE
5
123
100
AcDbEntity
8
1
62
256
6
ByLayer
370
-1
48
1
60
0
100
AcDbLine
10
74.991489
20
12.529285
30
0
11
75.001318
21
12.197685
31
0
39
0
210
0
220
0
230
1
0
LINE
5
124
100
AcDbEntity
8
1
62
256
6
ByLayer
370
-1
48
1
60
0
100
AcDbLine
10
73.124434
20
14.710247
30
0
11
73.36843
21
14.709182
31
0
39
0
210
0
220
0
230
1
0
LINE
5
125
100
AcDbEntity
8
1
62
256
6
ByLayer
370
-1
48
1
60
0
100
AcDbLine
10
67.928622
20
4.887095
30
0
11
68.30683
21
6.207996
31
0
39
0
210
0
220
0
230
1
0
LINE
5
126
100
AcDbEntity
8
1
62
256
6
ByLayer
370
-1
48
1
60
0
100
AcDbLine
10
73.702813
20
2.809273
30
0
11
73.409152
21
3.279918
31
0
39
0
210
0
220
0
230
1
0
LINE
5
127
100
AcDbEntity
8
1
62
256
6
ByLayer
370
-1
48
1
60
0
100
AcDbLine
10
64.170302
20
10.490105
30
0
11
64.01253
21
10.632466
31
0
39
0
210
0
220
0
230
1
0
LINE
5
128
100
AcDbEntity
8
1
62
256
6
ByLayer
370
-1
48
1
60
0
100
AcDbLine
10
74.25584
20
2.383424
30
0
11
72.520689
21
2.262782
31
0
39
0
210
0
220
0
230
1
0
LINE
5
129
100
AcDbEntity
8
1
62
256
6
ByLayer
370
-1
48
1
60
0
100
AcDbLine
10
74.923154
20
5.431652
30
0
11
74.815649
21
5.216928
31
0
39
0
210
0
220
0
230
1
0
LINE
5
12A
100
AcDbEntity
8
1
62
256
6
ByLayer
370
-1
48
1
60
0
100
AcDbLine
10
74.135776
20
3.573998
30
0
11
74.091869
21
2.899987
31
0
39
0
210
0
220
0
230
1
0
LINE
5
12B
100
AcDbEntity
8
1
62
256
6
ByLayer
370
-1
48
1
60
0
100
AcDbLine
10
67.928622
20
4.887095
30
0
11
67.368868
21
5.210181
31
0
39
0
210
0
220
0
230
1
0
LINE
5
12C
100
AcDbEntity
8
1
62
256
6
ByLayer
370
-1
48
1
60
0
100
AcDbLine
10
73.004387
20
2.604403
30
0
11
73.605082
21
2.646168
31
0
39
0
210
0
220
0
230
1
0
LINE
5
12D
100
AcDbEntity
8
1
62
256
6
ByLayer
370
-1
48
1
60
0
100
AcDbLine
10
73.009942
20
2.701226
30
0
11
73.003697
21
3.034044
31
0
39
0
210
0
220
0
230
1
0
LINE
5
12E
100
AcDbEntity
8
1
62
256
6
ByLayer
370
-1
48
1
60
0
100
AcDbLine
10
74.27778
20
2.693131
30
0
11
74.602211
21
3.234576
31
0
39
0
210
0
220
0
230
1
0
LINE
5
12F
100
AcDbEntity
8
1
62
256
6
ByLayer
370
-1
48
1
60
0
100
AcDbLine
10
74.202479
20
9.018472
30
0
11
75.001756
21
9.390559
31
0
39
0
210
0
220
0
230
1
0
LINE
5
130
100
AcDbEntity
8
1
62
256
6
ByLayer
370
-1
48
1
60
0
100
AcDbLine
10
63.542294
20
8.39023
30
0
11
63.420296
21
8.594898
31
0
39
0
210
0
220
0
230
1
0
LINE
5
131
100
AcDbEntity
8
1
62
256
6
ByLayer
370
-1
48
1
60
0
100
AcDbLine
10
73.316975
20
3.213637
30
0
11
73.003697
21
3.034044
31
0
39
0
210
0
220
0
230
1
0
LINE
5
132
100
AcDbEntity
8
1
62
256
6
ByLayer
370
-1
48
1
60
0
100
AcDbLine
10
63.308234
20
10.294229
30
0
11
63.933134
21
10.591554
31
0
39
0
210
0
220
0
230
1
0
LINE
5
133
100
AcDbEntity
8
1
62
256
6
ByLayer
370
-1
48
1
60
0
100
AcDbLine
10
62.314523
20
7.751535
30
0
11
62.316562
21
7.748115
31
0
39
0
210
0
220
0
230
1
0
LINE
5
134
100
AcDbEntity
8
1
62
256
6
ByLayer
370
-1
48
1
60
0
100
AcDbLine
10
63.381119
20
9.55178
30
0
11
63.692739
21
9.36946
31
0
39
0
210
0
220
0
230
1
0
LINE
5
135
100
AcDbEntity
8
1
62
256
6
ByLayer
370
-1
48
1
60
0
100
AcDbLine
10
63.098794
20
8.986801
30
0
11
63.694848
21
8.939813
31
0
39
0
210
0
220
0
230
1
0
LINE
5
136
100
AcDbEntity
8
1
62
256
6
ByLayer
370
-1
48
1
60
0
100
AcDbLine
10
73.627047
20
3.454388
30
0
11
74.144459
21
2.625141
31
0
39
0
210
0
220
0
230
1
0
LINE
5
137
100
AcDbEntity
8
1
62
256
6
ByLayer
370
-1
48
1
60
0
100
AcDbLine
10
72.736041
20
2.721855
30
0
11
72.729796
21
3.054672
31
0
39
0
210
0
220
0
230
1
0
LINE
5
138
100
AcDbEntity
8
1
62
256
6
ByLayer
370
-1
48
1
60
0
100
AcDbLine
10
63.854218
20
7.526507
30
0
11
63.529787
21
8.070784
31
0
39
0
210
0
220
0
230
1
0
LINE
5
139
100
AcDbEntity
8
1
62
256
6
ByLayer
370
-1
48
1
60
0
100
AcDbLine
10
64.784195
20
6.357142
30
0
11
64.80898
21
6.737622
31
0
39
0
210
0
220
0
230
1
0
LINE
5
13A
100
AcDbEntity
8
1
62
256
6
ByLayer
370
-1
48
1
60
0
100
AcDbLine
10
71.809476
20
2.812684
30
0
11
74.548818
21
4.621531
31
0
39
0
210
0
220
0
230
1
0
LINE
5
13B
100
AcDbEntity
8
1
62
256
6
ByLayer
370
-1
48
1
60
0
100
AcDbLine
10
68.331129
20
5.607626
30
0
11
68.268175
21
4.75141
31
0
39
0
210
0
220
0
230
1
0
LINE
5
13C
100
AcDbEntity
8
1
62
256
6
ByLayer
370
-1
48
1
60
0
100
AcDbLine
10
62.383487
20
8.77548
30
0
11
62.381449
21
8.778901
31
0
39
0
210
0
220
0
230
1
0
LINE
5
13D
100
AcDbEntity
8
1
62
256
6
ByLayer
370
-1
48
1
60
0
100
AcDbLine
10
68.612244
20
13.365881
30
0
11
68.887714
21
12.942584
31
0
39
0
210
0
220
0
230
1
0
LINE
5
13E
100
AcDbEntity
8
1
62
256
6
ByLayer
370
-1
48
1
60
0
100
AcDbLine
10
64.192019
20
10.731794
30
0
11
64.01253
21
10.632466
31
0
39
0
210
0
220
0
230
1
0
LINE
5
13F
100
AcDbEntity
8
1
62
256
6
ByLayer
370
-1
48
1
60
0
100
AcDbLine
10
74.204162
20
3.584394
30
0
11
74.153176
21
2.80172
31
0
39
0
210
0
220
0
230
1
0
LINE
5
140
100
AcDbEntity
8
1
62
256
6
ByLayer
370
-1
48
1
60
0
100
AcDbLine
10
71.212903
20
2.932735
30
0
11
70.790214
21
3.326741
31
0
39
0
210
0
220
0
230
1
0
LINE
5
141
100
AcDbEntity
8
1
62
256
6
ByLayer
370
-1
48
1
60
0
100
AcDbLine
10
64.880601
20
6.66653
30
0
11
65.051901
21
11.404715
31
0
39
0
210
0
220
0
230
1
0
LINE
5
142
100
AcDbEntity
8
1
62
256
6
ByLayer
370
-1
48
1
60
0
100
AcDbLine
10
63.001063
20
9.150758
30
0
11
62.567476
21
8.970446
31
0
39
0
210
0
220
0
230
1
0
LINE
5
143
100
AcDbEntity
8
1
62
256
6
ByLayer
370
-1
48
1
60
0
100
AcDbLine
10
75.001318
20
12.197685
30
0
11
71.031737
21
14.611298
31
0
39
0
210
0
220
0
230
1
0
LINE
5
144
100
AcDbEntity
8
1
62
256
6
ByLayer
370
-1
48
1
60
0
100
AcDbLine
10
74.036415
20
3.508596
30
0
11
74.005757
21
3.037979
31
0
39
0
210
0
220
0
230
1
0
LINE
5
145
100
AcDbEntity
8
1
62
256
6
ByLayer
370
-1
48
1
60
0
100
AcDbLine
10
63.309982
20
8.662541
30
0
11
62.458161
21
8.729691
31
0
39
0
210
0
220
0
230
1
0
LINE
5
146
100
AcDbEntity
8
1
62
256
6
ByLayer
370
-1
48
1
60
0
100
AcDbLine
10
63.309982
20
8.662541
30
0
11
63.246566
21
7.689057
31
0
39
0
210
0
220
0
230
1
0
LINE
5
147
100
AcDbEntity
8
1
62
256
6
ByLayer
370
-1
48
1
60
0
100
AcDbLine
10
67.782485
20
12.855551
30
0
11
68.3433
21
13.173746
31
0
39
0
210
0
220
0
230
1
0
LINE
5
148
100
AcDbEntity
8
1
62
256
6
ByLayer
370
-1
48
1
60
0
100
AcDbLine
10
71.859034
20
14.573057
30
0
11
72.03919
21
14.828006
31
0
39
0
210
0
220
0
230
1
0
LINE
5
149
100
AcDbEntity
8
1
62
256
6
ByLayer
370
-1
48
1
60
0
100
AcDbLine
10
70.839804
20
14.606412
30
0
11
75.00236
21
12.075466
31
0
39
0
210
0
220
0
230
1
0
LINE
5
14A
100
AcDbEntity
8
1
62
256
6
ByLayer
370
-1
48
1
60
0
100
AcDbLine
10
68.101627
20
4.806084
30
0
11
68.331129
21
5.607626
31
0
39
0
210
0
220
0
230
1
0
LINE
5
14B
100
AcDbEntity
8
1
62
256
6
ByLayer
370
-1
48
1
60
0
100
AcDbLine
10
74.144459
20
2.625141
30
0
11
73.702813
21
2.809273
31
0
39
0
210
0
220
0
230
1
0
LINE
5
14C
100
AcDbEntity
8
1
62
256
6
ByLayer
370
-1
48
1
60
0
100
AcDbLine
10
72.378229
20
2.085461
30
0
11
72.391343
21
2.286775
31
0
39
0
210
0
220
0
230
1
0
LINE
5
14D
100
AcDbEntity
8
1
62
256
6
ByLayer
370
-1
48
1
60
0
100
AcDbLine
10
67.782485
20
12.855551
30
0
11
68.729511
21
11.969991
31
0
39
0
210
0
220
0
230
1
0
LINE
5
14E
100
AcDbEntity
8
1
62
256
6
ByLayer
370
-1
48
1
60
0
100
AcDbLine
10
74.554125
20
4.737446
30
0
11
74.546911
21
4.626705
31
0
39
0
210
0
220
0
230
1
0
LINE
5
14F
100
AcDbEntity
8
1
62
256
6
ByLayer
370
-1
48
1
60
0
100
AcDbLine
10
74.989042
20
12.815383
30
0
11
74.989042
21
13.015604
31
0
39
0
210
0
220
0
230
1
0
LINE
5
150
100
AcDbEntity
8
1
62
256
6
ByLayer
370
-1
48
1
60
0
100
AcDbLine
10
71.031737
20
14.611298
30
0
11
71.239005
21
14.570768
31
0
39
0
210
0
220
0
230
1
0
LINE
5
151
100
AcDbEntity
8
1
62
256
6
ByLayer
370
-1
48
1
60
0
100
AcDbLine
10
63.523108
20
9.794696
30
0
11
63.834728
21
9.612375
31
0
39
0
210
0
220
0
230
1
0
LINE
5
152
100
AcDbEntity
8
1
62
256
6
ByLayer
370
-1
48
1
60
0
100
AcDbLine
10
63.715416
20
8.723699
30
0
11
62.665208
21
8.806488
31
0
39
0
210
0
220
0
230
1
0
LINE
5
153
100
AcDbEntity
8
1
62
256
6
ByLayer
370
-1
48
1
60
0
100
AcDbLine
10
67.356809
20
12.680235
30
0
11
68.132322
21
12.170339
31
0
39
0
210
0
220
0
230
1
0
LINE
5
154
100
AcDbEntity
8
1
62
256
6
ByLayer
370
-1
48
1
60
0
100
AcDbLine
10
74.998288
20
8.962417
30
0
11
74.998819
21
8.34555
31
0
39
0
210
0
220
0
230
1
0
LINE
5
155
100
AcDbEntity
8
1
62
256
6
ByLayer
370
-1
48
1
60
0
100
AcDbLine
10
74.046728
20
2.462037
30
0
11
72.988341
21
2.388449
31
0
39
0
210
0
220
0
230
1
0
LINE
5
156
100
AcDbEntity
8
1
62
256
6
ByLayer
370
-1
48
1
60
0
100
AcDbLine
10
67.105776
20
5.404637
30
0
11
67.346427
21
5.845101
31
0
39
0
210
0
220
0
230
1
0
LINE
5
157
100
AcDbEntity
8
1
62
256
6
ByLayer
370
-1
48
1
60
0
100
AcDbLine
10
75.001745
20
8.093725
30
0
11
74.485624
21
8.076557
31
0
39
0
210
0
220
0
230
1
0
LINE
5
158
100
AcDbEntity
8
1
62
256
6
ByLayer
370
-1
48
1
60
0
100
AcDbLine
10
74.998288
20
8.962417
30
0
11
73.685154
21
8.712817
31
0
39
0
210
0
220
0
230
1
0
LINE
5
159
100
AcDbEntity
8
1
62
256
6
ByLayer
370
-1
48
1
60
0
100
AcDbLine
10
73.480286
20
14.77423
30
0
11
73.922385
21
15.53241
31
0
39
0
210
0
220
0
230
1
0
LINE
5
15A
100
AcDbEntity
8
1
62
256
6
ByLayer
370
-1
48
1
60
0
100
AcDbLine
10
72.185241
20
14.904347
30
0
11
72.834103
21
14.901515
31
0
39
0
210
0
220
0
230
1
0
LINE
5
15B
100
AcDbEntity
8
1
62
256
6
ByLayer
370
-1
48
1
60
0
100
AcDbLine
10
72.979483
20
14.823903
30
0
11
73.019438
21
14.7663
31
0
39
0
210
0
220
0
230
1
0
LINE
5
15C
100
AcDbEntity
8
1
62
256
6
ByLayer
370
-1
48
1
60
0
100
AcDbLine
10
74.815649
20
5.216928
30
0
11
71.618278
21
3.105635
31
0
39
0
210
0
220
0
230
1
0
LINE
5
15D
100
AcDbEntity
8
1
62
256
6
ByLayer
370
-1
48
1
60
0
100
AcDbLine
10
71.75989
20
2.589582
30
0
11
71.809476
21
2.812684
31
0
39
0
210
0
220
0
230
1
0
LINE
5
15E
100
AcDbEntity
8
1
62
256
6
ByLayer
370
-1
48
1
60
0
100
AcDbLine
10
62.380598
20
8.859814
30
0
11
63.215453
21
10.211962
31
0
39
0
210
0
220
0
230
1
0
LINE
5
15F
100
AcDbEntity
8
1
62
256
6
ByLayer
370
-1
48
1
60
0
100
AcDbLine
10
73.627047
20
3.454388
30
0
11
73.409152
21
3.279918
31
0
39
0
210
0
220
0
230
1
0
LINE
5
160
100
AcDbEntity
8
1
62
256
6
ByLayer
370
-1
48
1
60
0
100
AcDbLine
10
71.618278
20
3.105635
30
0
11
71.212903
21
2.932735
31
0
39
0
210
0
220
0
230
1
0
LINE
5
161
100
AcDbEntity
8
1
62
256
6
ByLayer
370
-1
48
1
60
0
100
AcDbLine
10
64.763593
20
6.801621
30
0
11
64.656088
21
6.938032
31
0
39
0
210
0
220
0
230
1
0
LINE
5
162
100
AcDbEntity
8
1
62
256
6
ByLayer
370
-1
48
1
60
0
100
AcDbLine
10
64.900803
20
6.653887
30
0
11
64.878034
21
6.304363
31
0
39
0
210
0
220
0
230
1
0
LINE
5
163
100
AcDbEntity
8
1
62
256
6
ByLayer
370
-1
48
1
60
0
100
AcDbLine
10
71.723654
20
2.827221
30
0
11
71.680085
21
2.631189
31
0
39
0
210
0
220
0
230
1
0
LINE
5
164
100
AcDbEntity
8
1
62
256
6
ByLayer
370
-1
48
1
60
0
100
AcDbLine
10
75.00236
20
9.50431
30
0
11
75.00236
21
12.075466
31
0
39
0
210
0
220
0
230
1
0
LINE
5
165
100
AcDbEntity
8
1
62
256
6
ByLayer
370
-1
48
1
60
0
100
AcDbLine
10
75.000165
20
8.174361
30
0
11
75.001745
21
8.093725
31
0
39
0
210
0
220
0
230
1
0
LINE
5
166
100
AcDbEntity
8
1
62
256
6
ByLayer
370
-1
48
1
60
0
100
AcDbLine
10
63.968658
20
9.387689
30
0
11
63.964072
21
9.054919
31
0
39
0
210
0
220
0
230
1
0
LINE
5
167
100
AcDbEntity
8
1
62
256
6
ByLayer
370
-1
48
1
60
0
100
AcDbLine
10
67.368868
20
5.210181
30
0
11
67.697363
21
6.357456
31
0
39
0
210
0
220
0
230
1
0
LINE
5
168
100
AcDbEntity
8
1
62
256
6
ByLayer
370
-1
48
1
60
0
100
AcDbLine
10
73.998103
20
15.576442
30
0
11
74.002181
21
15.576425
31
0
39
0
210
0
220
0
230
1
0
LINE
5
169
100
AcDbEntity
8
1
62
256
6
ByLayer
370
-1
48
1
60
0
100
AcDbLine
10
74.759085
20
13.030844
30
0
11
71.859034
21
14.573057
31
0
39
0
210
0
220
0
230
1
0
LINE
5
16A
100
AcDbEntity
8
1
62
256
6
ByLayer
370
-1
48
1
60
0
100
AcDbLine
10
68.51663
20
13.289583
30
0
11
68.612244
21
13.365881
31
0
39
0
210
0
220
0
230
1
0
LINE
5
16B
100
AcDbEntity
8
1
62
256
6
ByLayer
370
-1
48
1
60
0
100
AcDbLine
10
75.056875
20
1.906504
30
0
11
75.103149
21
1.906731
31
0
39
0
210
0
220
0
230
1
0
LINE
5
16C
100
AcDbEntity
8
1
62
256
6
ByLayer
370
-1
48
1
60
0
100
AcDbLine
10
75.085376
20
0.160913
30
0
11
75.087383
21
0.160923
31
0
39
0
210
0
220
0
230
1
0
LINE
5
16D
100
AcDbEntity
8
1
62
256
6
ByLayer
370
-1
48
1
60
0
100
AcDbLine
10
75.056623
20
1.895219
30
0
11
75.09058
21
1.895386
31
0
39
0
210
0
220
0
230
1
0
LINE
5
16E
100
AcDbEntity
8
1
62
256
6
ByLayer
370
-1
48
1
60
0
100
AcDbLine
10
75.052055
20
1.265842
30
0
11
75.115218
21
1.266152
31
0
39
0
210
0
220
0
230
1
0
LINE
5
16F
100
AcDbEntity
8
1
62
256
6
ByLayer
370
-1
48
1
60
0
100
AcDbLine
10
75.052057
20
1.267125
30
0
11
75.102411
21
1.267373
31
0
39
0
210
0
220
0
230
1
0
LINE
5
170
100
AcDbEntity
8
SK1
62
256
6
ByLayer
370
-1
48
1
60
0
100
AcDbLine
10
-0.2
20
-7.066356
30
0
11
-0.2
21
-6.834385
31
0
39
0
210
0
220
0
230
1
0
LINE
5
171
100
AcDbEntity
8
SK1
62
256
6
ByLayer
370
-1
48
1
60
0
100
AcDbLine
10
-0.2
20
6.834385
30
0
11
-0.2
21
7.066357
31
0
39
0
210
0
220
0
230
1
0
MTEXT
5
2B2
100
AcDbEntity
8
SK6
62
256
6
ByLayer
370
-1
48
1
60
0
100
AcDbMText
10
-18.125
20
-42.375
30
0
210
0
220
0
230
1
1
\W00.705;\fsimplex.shx,bigfont.shx;C6-266RKF-17075-16 
40
3.5
41
0
44
1.084337
50
0
71
7
72
5
7
DEFAULT
0
DIMENSION
5
2E5
100
AcDbEntity
8
2
62
256
6
ByLayer
370
-3
48
1
60
0
100
AcDbDimension
2
DimnDraft3D1
10
89.25
20
16.875
30
0
11
89.25
21
6.371053
31
0
70
32
71
5
72
1
41
1
210
0
220
0
230
1
3
Standard
100
AcDbAlignedDimension
13
81.5
23
0
33
0
14
76.5
24
16.875
34
0
50
90
100
AcDbRotatedDimension
1001
ACAD
1000
DSTYLE
1002
{
1070
    74
1070
     0
1070
   279
1070
     0
1070
   172
1070
     1
1070
   173
1070
     1
1070
   340
1005
2B3
1070
   271
1070
     3
1070
   272
1070
     3
1070
    77
1070
     1
1070
    73
1070
     0
1070
   171
1070
     4
1070
   274
1070
     4
1070
   177
1070
     2
1070
   176
1070
     2
1070
   178
1070
     7
1070
    78
1070
     8
1070
    41
1041
3.0
1070
   147
1041
2.25
1070
    42
1041
1.5
1070
    44
1041
3.0
1070
   140
1041
4.5
1070
   343
1005
2E6
1070
   344
1005
2E6
1002
}
0
DIMENSION
5
2FB
100
AcDbEntity
8
SK2
62
256
6
ByLayer
370
-3
48
1
60
0
100
AcDbDimension
2
DimnDraft3D2
10
-47.75
20
-31.5
30
0
11
-47.75
21
-4.784211
31
0
70
32
71
5
72
1
41
1
210
0
220
0
230
1
3
Standard
100
AcDbAlignedDimension
13
-1.5
23
31.5
33
0
14
-1.5
24
-31.5
34
0
50
90
100
AcDbRotatedDimension
1001
ACAD
1000
DSTYLE
1002
{
1070
    74
1070
     0
1070
   279
1070
     0
1070
   172
1070
     1
1070
   173
1070
     1
1070
   340
1005
2B3
1070
   271
1070
     3
1070
   272
1070
     3
1070
    77
1070
     1
1070
    73
1070
     0
1070
   171
1070
     4
1070
   274
1070
     4
1070
   177
1070
     2
1070
   176
1070
     2
1070
   178
1070
     7
1070
    78
1070
     8
1070
    41
1041
3.0
1070
   147
1041
2.25
1070
    42
1041
1.5
1070
    44
1041
3.0
1070
   140
1041
4.5
1070
   343
1005
2E6
1070
   344
1005
2E6
1002
}
0
DIMENSION
5
309
100
AcDbEntity
8
2
62
256
6
ByLayer
370
-3
48
1
60
0
100
AcDbDimension
2
DimnDraft3D3
10
0
20
36.625
30
0
11
34.871053
21
36.625
31
0
70
32
71
5
72
1
41
1
210
0
220
0
230
1
3
Standard
100
AcDbAlignedDimension
13
75
23
18.375
33
0
14
0
24
1.5
34
0
50
0
100
AcDbRotatedDimension
1001
ACAD
1000
DSTYLE
1002
{
1070
   279
1070
     0
1070
   172
1070
     1
1070
   173
1070
     1
1070
   340
1005
2B3
1070
   271
1070
     3
1070
   272
1070
     3
1070
    77
1070
     1
1070
    73
1070
     0
1070
   171
1070
     4
1070
   274
1070
     4
1070
   177
1070
     2
1070
   176
1070
     2
1070
   178
1070
     7
1070
    78
1070
     8
1070
    41
1041
3.0
1070
   147
1041
2.25
1070
    42
1041
1.5
1070
    44
1041
3.0
1070
   140
1041
4.5
1070
   343
1005
2E6
1070
   344
1005
2E6
1002
}
0
DIMENSION
5
317
100
AcDbEntity
8
2
62
256
6
ByLayer
370
-3
48
1
60
0
100
AcDbDimension
2
DimnDraft3D4
10
75
20
26.625
30
0
11
47.929728
21
26.625
31
0
70
32
71
5
72
1
41
1
210
0
220
0
230
1
3
Standard
100
AcDbAlignedDimension
13
26.591035
23
18.375
33
0
14
75
24
18.375
34
0
50
0
100
AcDbRotatedDimension
1001
ACAD
1000
DSTYLE
1002
{
1070
   279
1070
     0
1070
   172
1070
     1
1070
   173
1070
     1
1070
   340
1005
2B3
1070
   271
1070
     3
1070
   272
1070
     3
1070
    77
1070
     1
1070
    73
1070
     0
1070
   171
1070
     4
1070
   274
1070
     4
1070
   177
1070
     2
1070
   176
1070
     2
1070
   178
1070
     7
1070
    78
1070
     8
1070
    41
1041
3.0
1070
   147
1041
2.25
1070
    42
1041
1.5
1070
    44
1041
3.0
1070
   140
1041
4.5
1070
   343
1005
2E6
1070
   344
1005
2E6
1002
}
0
ENDSEC
0
SECTION
2
OBJECTS
0
DICTIONARY
5
348
330
0
100
AcDbDictionary
280
0
281
1
3
ACAD_GROUP
350
349
3
ACAD_MLINESTYLE
350
34a
0
DICTIONARY
5
349
330
0
100
AcDbDictionary
280
0
281
1
0
DICTIONARY
5
34a
330
0
100
AcDbDictionary
280
0
281
1
3
Standard
350
18
0
MLINESTYLE
5
18
330
34a
100
AcDbMlineStyle
2
Standard
70
0
3

62
256
51
90
52
90
71
2
49
-0.5
62
256
6
ByLayer
49
0.5
62
256
6
ByLayer
0
RASTERVARIABLES
5
336
330

100
AcDbRasterVariables
90
0
70
1
71
1
72
1
0
ENDSEC
0
EOF
