0
SECTION
2
HEADER
9
$ACADVER
1
AC1015
9
$DWGCODEPAGE
3
ANSI_1252
9
$HANDSEED
5
333
9
$ANGBASE
50
0
9
$ANGDIR
70
0
9
$ATTMODE
70
1
9
$AUNITS
70
0
9
$AUPREC
70
0
9
$CECOLOR
62
256
9
$CELTSCALE
40
1
9
$CELTYPE
6
ByLayer
9
$CELWEIGHT
370
-1
9
$CLAYER
8
0
9
$CMLJUST
70
0
9
$CMLSCALE
40
1
9
$CMLSTYLE
2
Standard
9
$DIMSTYLE
2
Standard
9
$TEXTSIZE
40
0.2
9
$TEXTSTYLE
7
Standard
9
$LUNITS
70
2
9
$LUPREC
70
4
9
$EXTNAMES
290
1
9
$INSUNITS
70
4
9
$LTSCALE
40
1
9
$LWDISPLAY
290
0
9
$PDMODE
70
0
9
$PDSIZE
40
0
9
$PLINEGEN
70
0
0
ENDSEC
0
SECTION
2
CLASSES
0
CLASS
1
RASTERVARIABLES
2
AcDbRasterVariables
3
ISM
90
0
280
0
281
0
0
ENDSEC
0
SECTION
2
TABLES
0
TABLE
2
VPORT
5
329
100
AcDbSymbolTable
0
VPORT
5
1
100
AcDbSymbolTableRecord
100
AcDbViewportTableRecord
2
*Active
70
0
10
0
20
0
11
1
21
1
12
-1
22
1
13
0
23
0
14
0.5
24
0.5
15
10
25
10
16
0
26
0
36
1
17
0
27
0
37
0
0
ENDTAB
0
TABLE
2
LTYPE
5
32a
100
AcDbSymbolTable
0
LTYPE
5
14
100
AcDbSymbolTableRecord
100
AcDbLinetypeTableRecord
70
0
2
ByBlock
3

72
65
73
0
40
0
0
LTYPE
5
15
100
AcDbSymbolTableRecord
100
AcDbLinetypeTableRecord
70
0
2
ByLayer
3

72
65
73
0
40
0
0
LTYPE
5
16
100
AcDbSymbolTableRecord
100
AcDbLinetypeTableRecord
70
0
2
CONTINUOUS
3
Solid line
72
65
73
0
40
0
0
LTYPE
5
3B
100
AcDbSymbolTableRecord
100
AcDbLinetypeTableRecord
70
0
2
DASHED
3
__ __ __ __ __ __ __ __ __
72
65
73
2
40
25.72
49
12.86
74
0
49
-12.86
74
0
0
LTYPE
5
3C
100
AcDbSymbolTableRecord
100
AcDbLinetypeTableRecord
70
0
2
HIDDEN
3
_ _ _ _ _ _ _ _ _ _ _ _ _ _ _
72
65
73
2
40
0.5
49
0.25
74
0
49
-0.25
74
0
0
LTYPE
5
3D
100
AcDbSymbolTableRecord
100
AcDbLinetypeTableRecord
70
0
2
PHANTOM
3
____ _ _ ____ _ _ _____ _ _ ____
72
65
73
6
40
50.5
49
18
74
0
49
-6.5
74
0
49
6.5
74
0
49
-6.5
74
0
49
6.5
74
0
49
-6.5
74
0
0
LTYPE
5
3E
100
AcDbSymbolTableRecord
100
AcDbLinetypeTableRecord
70
0
2
CENTER
3
____ _ ____ _ ____ _ ____
72
65
73
4
40
47.5
49
22
74
0
49
-8.5
74
0
49
8.5
74
0
49
-8.5
74
0
0
LTYPE
5
3F
100
AcDbSymbolTableRecord
100
AcDbLinetypeTableRecord
70
0
2
DOT
3
.........................
72
65
73
2
40
10
49
0
74
0
49
-10
74
0
0
LTYPE
5
40
100
AcDbSymbolTableRecord
100
AcDbLinetypeTableRecord
70
0
2
DASHDOT
3
_._._._._._._._._._._._._._._._.
72
65
73
4
40
70
49
31
74
0
49
-13
74
0
49
13
74
0
49
-13
74
0
0
ENDTAB
0
TABLE
2
LAYER
5
32b
100
AcDbSymbolTable
0
LAYER
5
10
100
AcDbSymbolTableRecord
100
AcDbLayerTableRecord
2
0
70
0
62
7
6
CONTINUOUS
290
1
370
-3
390
0
0
LAYER
5
42
100
AcDbSymbolTableRecord
100
AcDbLayerTableRecord
2
80
70
0
62
-6
6
CONTINUOUS
290
1
370
-3
390
0
0
LAYER
5
44
100
AcDbSymbolTableRecord
100
AcDbLayerTableRecord
2
81
70
0
62
-3
6
CONTINUOUS
290
1
370
-3
390
0
0
LAYER
5
46
100
AcDbSymbolTableRecord
100
AcDbLayerTableRecord
2
2
70
0
62
7
6
CONTINUOUS
290
1
370
-3
390
0
0
LAYER
5
48
100
AcDbSymbolTableRecord
100
AcDbLayerTableRecord
2
4
70
0
62
-2
6
CENTER
290
1
370
-3
390
0
0
LAYER
5
4E
100
AcDbSymbolTableRecord
100
AcDbLayerTableRecord
2
1
70
0
62
4
6
CONTINUOUS
290
1
370
-3
390
0
0
LAYER
5
315
100
AcDbSymbolTableRecord
100
AcDbLayerTableRecord
2
SK4
70
0
62
2
6
CENTER
290
1
370
-3
390
0
0
LAYER
5
316
100
AcDbSymbolTableRecord
100
AcDbLayerTableRecord
2
SK1
70
0
62
4
6
CONTINUOUS
290
1
370
-3
390
0
0
LAYER
5
317
100
AcDbSymbolTableRecord
100
AcDbLayerTableRecord
2
SK6
70
0
62
5
6
CONTINUOUS
290
1
370
-3
390
0
0
LAYER
5
318
100
AcDbSymbolTableRecord
100
AcDbLayerTableRecord
2
SK2
70
0
62
7
6
CONTINUOUS
290
1
370
-3
390
0
0
ENDTAB
0
TABLE
2
STYLE
5
32c
100
AcDbSymbolTable
0
STYLE
5
11
100
AcDbSymbolTableRecord
100
AcDbTextStyleTableRecord
2
Standard
3
txt
70
0
71
0
40
0
41
1
42
0
50
0
0
STYLE
5
29F
100
AcDbSymbolTableRecord
100
AcDbTextStyleTableRecord
2
DEFAULT
3
simplex.shx
70
0
71
0
40
0
41
1
42
0
50
0
0
STYLE
5
2C2
100
AcDbSymbolTableRecord
100
AcDbTextStyleTableRecord
2
DWGDirectTextStyle
3
SIMPLEX
70
0
71
0
40
0
41
1
42
0
50
0
0
ENDTAB
0
TABLE
2
DIMSTYLE
5
32d
100
AcDbSymbolTable
100
AcDbDimStyleTable
0
DIMSTYLE
105
27
100
AcDbSymbolTableRecord
100
AcDbDimStyleTableRecord
2
Standard
70
0
3
<>
41
0.18
42
0.0625
44
0.18
140
0.18
147
0.09
73
0
74
0
77
1
271
2
275
0
278
52
280
0
340
11
0
ENDTAB
0
TABLE
2
VIEW
5
32e
100
AcDbSymbolTable
0
ENDTAB
0
TABLE
2
UCS
5
32f
100
AcDbSymbolTable
0
ENDTAB
0
TABLE
2
APPID
5
330
100
AcDbSymbolTable
0
APPID
5
12
100
AcDbSymbolTableRecord
100
AcDbRegAppTableRecord
2
ACAD
70
0
0
ENDTAB
0
TABLE
2
BLOCK_RECORD
5
331
100
AcDbSymbolTable
0
BLOCK_RECORD
5
1F
100
AcDbSymbolTableRecord
100
AcDbBlockTableRecord
2
*Model_Space
340
0
70
0
0
BLOCK_RECORD
5
1B
100
AcDbSymbolTableRecord
100
AcDbBlockTableRecord
2
*Paper_Space
340
0
70
0
0
BLOCK_RECORD
5
23
100
AcDbSymbolTableRecord
100
AcDbBlockTableRecord
2
*Paper_Space0
340
0
70
0
0
BLOCK_RECORD
5
2C4
100
AcDbSymbolTableRecord
100
AcDbBlockTableRecord
2
DimnDraft3D1
340
0
70
0
0
BLOCK_RECORD
5
2D2
100
AcDbSymbolTableRecord
100
AcDbBlockTableRecord
2
_CLOSED
340
0
70
0
0
BLOCK_RECORD
5
2D9
100
AcDbSymbolTableRecord
100
AcDbBlockTableRecord
2
DimnDraft3D2
340
0
70
0
0
BLOCK_RECORD
5
2E8
100
AcDbSymbolTableRecord
100
AcDbBlockTableRecord
2
DimnDraft3D3
340
0
70
0
0
ENDTAB
0
ENDSEC
0
SECTION
2
BLOCKS
0
BLOCK
5
20
100
AcDbEntity
8
0
100
AcDbBlockBegin
2
*Model_Space
70
0
10
0
20
0
30
0
3
*Model_Space
0
ENDBLK
5
21
100
AcDbEntity
8
0
100
AcDbBlockEnd
0
BLOCK
5
1C
100
AcDbEntity
8
0
100
AcDbBlockBegin
2
*Paper_Space
70
0
10
0
20
0
30
0
3
*Paper_Space
0
ENDBLK
5
1D
100
AcDbEntity
8
0
100
AcDbBlockEnd
0
BLOCK
5
24
100
AcDbEntity
8
0
100
AcDbBlockBegin
2
*Paper_Space0
70
0
10
0
20
0
30
0
3
*Paper_Space0
0
ENDBLK
5
25
100
AcDbEntity
8
0
100
AcDbBlockEnd
0
BLOCK
5
2CF
100
AcDbEntity
8
0
100
AcDbBlockBegin
2
DimnDraft3D1
70
0
10
0
20
0
30
0
3
DimnDraft3D1
0
MTEXT
5
2C5
100
AcDbEntity
8
2
62
256
6
ByLayer
370
-1
48
1
60
0
100
AcDbMText
10
78.125
20
20.759211
30
0
210
0
220
0
230
1
1
\W01.000;\fsimplex.shx,bigfont.shx;45 
40
4.5
41
0
44
1.084337
50
90
71
7
72
5
7
DEFAULT
0
LINE
5
2C6
100
AcDbEntity
8
2
62
256
6
ByLayer
370
-1
48
1
60
0
100
AcDbLine
10
71.5
20
0
30
0
11
82.25
21
0
31
0
39
0
210
0
220
0
230
1
0
LINE
5
2C7
100
AcDbEntity
8
2
62
256
6
ByLayer
370
-1
48
1
60
0
100
AcDbLine
10
66.5
20
45
30
0
11
82.25
21
45
31
0
39
0
210
0
220
0
230
1
0
LINE
5
2C8
100
AcDbEntity
8
2
62
256
6
ByLayer
370
-1
48
1
60
0
100
AcDbLine
10
79.25
20
0
30
0
11
79.25
21
45
31
0
39
0
210
0
220
0
230
1
0
LINE
5
2C9
100
AcDbEntity
8
2
62
256
6
ByLayer
370
-1
48
1
60
0
100
AcDbLine
10
79.25
20
0
30
0
11
78.855043
21
2.999999
31
0
39
0
210
0
220
0
230
1
0
LINE
5
2CA
100
AcDbEntity
8
2
62
256
6
ByLayer
370
-1
48
1
60
0
100
AcDbLine
10
79.25
20
0
30
0
11
79.644957
21
3.000001
31
0
39
0
210
0
220
0
230
1
0
LINE
5
2CB
100
AcDbEntity
8
2
62
256
6
ByLayer
370
-1
48
1
60
0
100
AcDbLine
10
78.855043
20
2.999999
30
0
11
79.644957
21
3.000001
31
0
39
0
210
0
220
0
230
1
0
LINE
5
2CC
100
AcDbEntity
8
2
62
256
6
ByLayer
370
-1
48
1
60
0
100
AcDbLine
10
79.25
20
45
30
0
11
79.644957
21
42.000001
31
0
39
0
210
0
220
0
230
1
0
LINE
5
2CD
100
AcDbEntity
8
2
62
256
6
ByLayer
370
-1
48
1
60
0
100
AcDbLine
10
79.25
20
45
30
0
11
78.855043
21
41.999999
31
0
39
0
210
0
220
0
230
1
0
LINE
5
2CE
100
AcDbEntity
8
2
62
256
6
ByLayer
370
-1
48
1
60
0
100
AcDbLine
10
79.644957
20
42.000001
30
0
11
78.855043
21
41.999999
31
0
39
0
210
0
220
0
230
1
0
ENDBLK
5
2D0
100
AcDbEntity
8
0
100
AcDbBlockEnd
0
BLOCK
5
2D3
100
AcDbEntity
8
0
100
AcDbBlockBegin
2
_CLOSED
70
0
10
0
20
0
30
0
3
_CLOSED
0
LINE
5
2D5
100
AcDbEntity
8
0
62
256
6
ByLayer
370
-2
48
1
60
0
100
AcDbLine
10
-1
20
0.166667
30
0
11
0
21
0
31
0
39
0
210
0
220
0
230
1
0
LINE
5
2D6
100
AcDbEntity
8
0
62
256
6
ByLayer
370
-2
48
1
60
0
100
AcDbLine
10
0
20
0
30
0
11
-1
21
-0.166667
31
0
39
0
210
0
220
0
230
1
0
LINE
5
2D7
100
AcDbEntity
8
0
62
256
6
ByLayer
370
-2
48
1
60
0
100
AcDbLine
10
-1
20
0.166667
30
0
11
-1
21
-0.166667
31
0
39
0
210
0
220
0
230
1
0
LINE
5
2D8
100
AcDbEntity
8
0
62
256
6
ByLayer
370
-2
48
1
60
0
100
AcDbLine
10
0
20
0
30
0
11
-1
21
0
31
0
39
0
210
0
220
0
230
1
0
ENDBLK
5
2D4
100
AcDbEntity
8
0
100
AcDbBlockEnd
0
BLOCK
5
2E5
100
AcDbEntity
8
0
100
AcDbBlockBegin
2
DimnDraft3D2
70
0
10
0
20
0
30
0
3
DimnDraft3D2
0
MTEXT
5
2DA
100
AcDbEntity
8
SK2
62
256
6
ByLayer
370
-1
48
1
60
0
100
AcDbMText
10
-48.875
20
-3.659211
30
0
210
0
220
0
230
1
1
\W01.000;\fsimplex.shx,bigfont.shx;%%c63 
40
4.5
41
0
44
1.084337
50
90
71
7
72
5
7
DEFAULT
0
LINE
5
2DC
100
AcDbEntity
8
SK2
62
256
6
ByLayer
370
-1
48
1
60
0
100
AcDbLine
10
-1.5
20
31.5
30
0
11
-50.75
21
31.5
31
0
39
0
210
0
220
0
230
1
0
LINE
5
2DD
100
AcDbEntity
8
SK2
62
256
6
ByLayer
370
-1
48
1
60
0
100
AcDbLine
10
-1.5
20
-31.5
30
0
11
-50.75
21
-31.5
31
0
39
0
210
0
220
0
230
1
0
LINE
5
2DE
100
AcDbEntity
8
SK2
62
256
6
ByLayer
370
-1
48
1
60
0
100
AcDbLine
10
-47.75
20
31.5
30
0
11
-47.75
21
-31.5
31
0
39
0
210
0
220
0
230
1
0
LINE
5
2DF
100
AcDbEntity
8
SK2
62
256
6
ByLayer
370
-1
48
1
60
0
100
AcDbLine
10
-47.75
20
31.5
30
0
11
-47.355043
21
28.500001
31
0
39
0
210
0
220
0
230
1
0
LINE
5
2E0
100
AcDbEntity
8
SK2
62
256
6
ByLayer
370
-1
48
1
60
0
100
AcDbLine
10
-47.75
20
31.5
30
0
11
-48.144957
21
28.499999
31
0
39
0
210
0
220
0
230
1
0
LINE
5
2E1
100
AcDbEntity
8
SK2
62
256
6
ByLayer
370
-1
48
1
60
0
100
AcDbLine
10
-47.355043
20
28.500001
30
0
11
-48.144957
21
28.499999
31
0
39
0
210
0
220
0
230
1
0
LINE
5
2E2
100
AcDbEntity
8
SK2
62
256
6
ByLayer
370
-1
48
1
60
0
100
AcDbLine
10
-47.75
20
-31.5
30
0
11
-48.144957
21
-28.500001
31
0
39
0
210
0
220
0
230
1
0
LINE
5
2E3
100
AcDbEntity
8
SK2
62
256
6
ByLayer
370
-1
48
1
60
0
100
AcDbLine
10
-47.75
20
-31.5
30
0
11
-47.355043
21
-28.499999
31
0
39
0
210
0
220
0
230
1
0
LINE
5
2E4
100
AcDbEntity
8
SK2
62
256
6
ByLayer
370
-1
48
1
60
0
100
AcDbLine
10
-48.144957
20
-28.500001
30
0
11
-47.355043
21
-28.499999
31
0
39
0
210
0
220
0
230
1
0
ENDBLK
5
2E6
100
AcDbEntity
8
0
100
AcDbBlockEnd
0
BLOCK
5
2F3
100
AcDbEntity
8
0
100
AcDbBlockBegin
2
DimnDraft3D3
70
0
10
0
20
0
30
0
3
DimnDraft3D3
0
MTEXT
5
2E9
100
AcDbEntity
8
2
62
256
6
ByLayer
370
-1
48
1
60
0
100
AcDbMText
10
30.996053
20
65.875
30
0
210
0
220
0
230
1
1
\W01.000;\fsimplex.shx,bigfont.shx;65 
40
4.5
41
0
44
1.084337
50
0
71
7
72
5
7
DEFAULT
0
LINE
5
2EA
100
AcDbEntity
8
2
62
256
6
ByLayer
370
-1
48
1
60
0
100
AcDbLine
10
65
20
46.5
30
0
11
65
21
67.75
31
0
39
0
210
0
220
0
230
1
0
LINE
5
2EB
100
AcDbEntity
8
2
62
256
6
ByLayer
370
-1
48
1
60
0
100
AcDbLine
10
0
20
1.5
30
0
11
0
21
67.75
31
0
39
0
210
0
220
0
230
1
0
LINE
5
2EC
100
AcDbEntity
8
2
62
256
6
ByLayer
370
-1
48
1
60
0
100
AcDbLine
10
65
20
64.75
30
0
11
0
21
64.75
31
0
39
0
210
0
220
0
230
1
0
LINE
5
2ED
100
AcDbEntity
8
2
62
256
6
ByLayer
370
-1
48
1
60
0
100
AcDbLine
10
65
20
64.75
30
0
11
62.000001
21
64.355043
31
0
39
0
210
0
220
0
230
1
0
LINE
5
2EE
100
AcDbEntity
8
2
62
256
6
ByLayer
370
-1
48
1
60
0
100
AcDbLine
10
65
20
64.75
30
0
11
61.999999
21
65.144957
31
0
39
0
210
0
220
0
230
1
0
LINE
5
2EF
100
AcDbEntity
8
2
62
256
6
ByLayer
370
-1
48
1
60
0
100
AcDbLine
10
62.000001
20
64.355043
30
0
11
61.999999
21
65.144957
31
0
39
0
210
0
220
0
230
1
0
LINE
5
2F0
100
AcDbEntity
8
2
62
256
6
ByLayer
370
-1
48
1
60
0
100
AcDbLine
10
0
20
64.75
30
0
11
2.999999
21
65.144957
31
0
39
0
210
0
220
0
230
1
0
LINE
5
2F1
100
AcDbEntity
8
2
62
256
6
ByLayer
370
-1
48
1
60
0
100
AcDbLine
10
0
20
64.75
30
0
11
3.000001
21
64.355043
31
0
39
0
210
0
220
0
230
1
0
LINE
5
2F2
100
AcDbEntity
8
2
62
256
6
ByLayer
370
-1
48
1
60
0
100
AcDbLine
10
2.999999
20
65.144957
30
0
11
3.000001
21
64.355043
31
0
39
0
210
0
220
0
230
1
0
ENDBLK
5
2F4
100
AcDbEntity
8
0
100
AcDbBlockEnd
0
ENDSEC
0
SECTION
2
ENTITIES
0
ARC
5
13D
100
AcDbEntity
8
1
62
256
6
ByLayer
370
-1
48
1
60
0
100
AcDbCircle
39
0
10
15.153481
20
1.112922
30
0
40
4
210
0
220
0
230
1
100
AcDbArc
50
332.45021
51
347.688782
0
ARC
5
13E
100
AcDbEntity
8
1
62
256
6
ByLayer
370
-1
48
1
60
0
100
AcDbCircle
39
0
10
-19.305747
20
0.20673
30
0
40
0.25
210
0
220
0
230
-1
100
AcDbArc
50
12.311218
51
105
0
ARC
5
13F
100
AcDbEntity
8
SK1
62
256
6
ByLayer
370
-1
48
1
60
0
100
AcDbCircle
39
0
10
0.6
20
-23.45
30
0
40
0.999999999999999
210
0
220
0
230
-1
100
AcDbArc
50
113.578178
51
126.869898
0
ARC
5
140
100
AcDbEntity
8
SK1
62
256
6
ByLayer
370
-1
48
1
60
0
100
AcDbCircle
39
0
10
0.6
20
23.45
30
0
40
0.999999999999999
210
0
220
0
230
-1
100
AcDbArc
50
233.130102
51
246.421822
0
ARC
5
141
100
AcDbEntity
8
1
62
256
6
ByLayer
370
-1
48
1
60
0
100
AcDbCircle
39
0
10
45.055258
20
39.260072
30
0
40
5.97633063734988
210
0
220
0
230
1
100
AcDbArc
50
54.315661
51
69.095151
0
ARC
5
142
100
AcDbEntity
8
1
62
256
6
ByLayer
370
-1
48
1
60
0
100
AcDbCircle
39
0
10
45.055258
20
39.260072
30
0
40
5.97633063734988
210
0
220
0
230
1
100
AcDbArc
50
110.837319
51
122.502808
0
ELLIPSE
5
143
100
AcDbEntity
8
1
62
256
6
ByLayer
370
-1
48
1
60
0
100
AcDbEllipse
10
26.347154
20
0
30
0
11
-14.7536831606557
21
-31.0932549155804
31
0
210
0
220
0
230
1
40
0.341999
41
-1.09123958575284
42
-0.157806186645435
0
ELLIPSE
5
144
100
AcDbEntity
8
1
62
256
6
ByLayer
370
-1
48
1
60
0
100
AcDbEllipse
10
52.381584
20
28.943237
30
0
11
-0.268441419904055
21
2.73686667634357
31
0
210
0
220
0
230
1
40
0.984665
41
-2.17767013075927
42
-1.69448171525846
0
ELLIPSE
5
145
100
AcDbEntity
8
1
62
256
6
ByLayer
370
-1
48
1
60
0
100
AcDbEllipse
10
26.347154
20
0
30
0
11
-14.7536831606557
21
31.0932549155804
31
0
210
0
220
0
230
1
40
0.341999
41
0.157806186645434
42
1.09123958575284
0
ELLIPSE
5
146
100
AcDbEntity
8
1
62
256
6
ByLayer
370
-1
48
1
60
0
100
AcDbEllipse
10
-2.347154
20
0
30
0
11
-14.7536831606544
21
31.0932549155788
31
0
210
0
220
0
230
1
40
0.341999
41
-2.98378646694435
42
-2.05035306783691
0
ELLIPSE
5
147
100
AcDbEntity
8
1
62
256
6
ByLayer
370
-1
48
1
60
0
100
AcDbEllipse
10
51.751333
20
28.881419
30
0
11
-0.285461719077497
21
2.91039537264476
31
0
210
0
220
0
230
1
40
0.984665
41
-2.28817713324621
42
-1.82289570904543
0
ELLIPSE
5
148
100
AcDbEntity
8
1
62
256
6
ByLayer
370
-1
48
1
60
0
100
AcDbEllipse
10
46.114896
20
42.090438
30
0
11
-1.16166011397189
21
2.82949830537399
31
0
210
0
220
0
230
1
40
0.404894
41
1.88248147961211
42
2.24654148178319
0
ELLIPSE
5
149
100
AcDbEntity
8
1
62
256
6
ByLayer
370
-1
48
1
60
0
100
AcDbEllipse
10
-2.347154
20
0
30
0
11
-14.7536831606537
21
-31.0932549155778
31
0
210
0
220
0
230
1
40
0.341999
41
2.05035306783689
42
2.98378646694435
0
ELLIPSE
5
14A
100
AcDbEntity
8
1
62
256
6
ByLayer
370
-1
48
1
60
0
100
AcDbEllipse
10
51.998828
20
27.476514
30
0
11
-0.204991629744915
21
2.08997091648055
31
0
210
0
220
0
230
1
40
0.984665
41
-2.69410010730694
42
-1.25505427596365
0
ELLIPSE
5
14B
100
AcDbEntity
8
1
62
256
6
ByLayer
370
-1
48
1
60
0
100
AcDbEllipse
10
60.128507
20
28.273901
30
0
11
-5.86696719924338
21
-2.19955227394999
31
0
210
0
220
0
230
1
40
0.221467
41
-0.838625155320531
42
-0.453141779082962
0
ELLIPSE
5
14C
100
AcDbEntity
8
1
62
256
6
ByLayer
370
-1
48
1
60
0
100
AcDbEllipse
10
52.681167
20
27.54344
30
0
11
0.204991629744915
21
-2.08997091648054
31
0
210
0
220
0
230
1
40
0.984665
41
1.14558685807708
42
1.50122801580433
0
ELLIPSE
5
14D
100
AcDbEntity
8
1
62
256
6
ByLayer
370
-1
48
1
60
0
100
AcDbEllipse
10
52.608694
20
28.865957
30
0
11
-0.199160462254053
21
2.01187397822141
31
0
210
0
220
0
230
1
40
0.984662
41
0.692778987388942
42
2.62878226714764
0
ELLIPSE
5
14E
100
AcDbEntity
8
1
62
256
6
ByLayer
370
-1
48
1
60
0
100
AcDbEllipse
10
19.181097
20
2.192118
30
0
11
-0.0109713636240809
21
-5.69547850150024
31
0
210
0
220
0
230
1
40
0.084464
41
1.96577948525319
42
-1.54799375804912
0
ELLIPSE
5
14F
100
AcDbEntity
8
1
62
256
6
ByLayer
370
-1
48
1
60
0
100
AcDbEllipse
10
52.050915
20
27.481622
30
0
11
-0.204991629744915
21
2.08997091648054
31
0
210
0
220
0
230
1
40
0.984665
41
-1.81127820694355
42
-1.25494885880058
0
ELLIPSE
5
150
100
AcDbEntity
8
1
62
256
6
ByLayer
370
-1
48
1
60
0
100
AcDbEllipse
10
51.213034
20
33.17167
30
0
11
-1.16166011395064
21
2.82949830519198
31
0
210
0
220
0
230
1
40
0.404894
41
1.51842147739618
42
1.88248147958565
0
ELLIPSE
5
151
100
AcDbEntity
8
1
62
256
6
ByLayer
370
-1
48
1
60
0
100
AcDbEllipse
10
20.755893
20
0
30
0
11
1.92875500727024E-15
21
31.5
31
0
210
0
220
0
230
1
40
0.087489
41
0.311401384074086
42
2.83019126951571
0
ELLIPSE
5
152
100
AcDbEntity
8
1
62
256
6
ByLayer
370
-1
48
1
60
0
100
AcDbEllipse
10
53.779797
20
27.651197
30
0
11
-0.206873124354593
21
2.08978554383574
31
0
210
0
220
0
230
1
40
0.984662
41
1.78063588072536
42
-1.61140889874678
0
ELLIPSE
5
153
100
AcDbEntity
8
1
62
256
6
ByLayer
370
-1
48
1
60
0
100
AcDbEllipse
10
58.12683
20
32.684274
30
0
11
-0.0585690370699756
21
0.597134547565869
31
0
210
0
220
0
230
1
40
0.984665
41
3.04531189936409
42
-3.14159150847991
0
ELLIPSE
5
154
100
AcDbEntity
8
1
62
256
6
ByLayer
370
-1
48
1
60
0
100
AcDbEllipse
10
51.386323
20
29.284767
30
0
11
-0.0976150617832928
21
0.995224245943116
31
0
210
0
220
0
230
1
40
0.984665
41
2.64202029075124
42
3.0453118993641
0
ELLIPSE
5
155
100
AcDbEntity
8
1
62
256
6
ByLayer
370
-1
48
1
60
0
100
AcDbEllipse
10
53.508288
20
29.284767
30
0
11
-0.0976150617832928
21
0.995224245943116
31
0
210
0
220
0
230
1
40
0.984665
41
3.0453118993641
42
-3.14158846175826
0
ELLIPSE
5
156
100
AcDbEntity
8
1
62
256
6
ByLayer
370
-1
48
1
60
0
100
AcDbEllipse
10
54.566653
20
29.596705
30
0
11
-4.85074540943414
21
-0.827581472900072
31
0
210
0
220
0
230
1
40
0.190838
41
0.71352119510001
42
0.973077720542405
0
ELLIPSE
5
157
100
AcDbEntity
8
1
62
256
6
ByLayer
370
-1
48
1
60
0
100
AcDbEllipse
10
59.436135
20
34.411704
30
0
11
3.67381906146713E-17
21
0.599999999999999
31
0
210
0
220
0
230
1
40
0.173648
41
-1.55609306079291
42
-0.727061666095628
0
ELLIPSE
5
158
100
AcDbEntity
8
1
62
256
6
ByLayer
370
-1
48
1
60
0
100
AcDbEllipse
10
59.436425
20
34.298223
30
0
11
3.67381906146713E-17
21
0.599999999999999
31
0
210
0
220
0
230
1
40
0.173648
41
-2.38512445549028
42
-1.55609306079291
0
ELLIPSE
5
159
100
AcDbEntity
8
1
62
256
6
ByLayer
370
-1
48
1
60
0
100
AcDbEllipse
10
59.150382
20
36.043659
30
0
11
1.83690953073357E-16
21
3
31
0
210
0
220
0
230
1
40
0.173648
41
-2.55965738068966
42
-2.38512445549022
0
ELLIPSE
5
15A
100
AcDbEntity
8
1
62
256
6
ByLayer
370
-1
48
1
60
0
100
AcDbEllipse
10
54.227912
20
29.355351
30
0
11
-0.0843626025319924
21
0.996437820111188
31
0
210
0
220
0
230
1
40
0.984699
41
3.05841628189602
42
-1.65397269848843
0
ELLIPSE
5
15B
100
AcDbEntity
8
1
62
256
6
ByLayer
370
-1
48
1
60
0
100
AcDbEllipse
10
59.446211
20
35.29987
30
0
11
9.18454765366783E-18
21
0.15
31
0
210
0
220
0
230
1
40
0.173648
41
2.15016447796843
42
2.58906391269333
0
ELLIPSE
5
15C
100
AcDbEntity
8
1
62
256
6
ByLayer
370
-1
48
1
60
0
100
AcDbEllipse
10
58.847828
20
32.754992
30
0
11
-0.0506175615273296
21
0.597862692066368
31
0
210
0
220
0
230
1
40
0.984699
41
3.05841628188274
42
-1.65397269850231
0
ELLIPSE
5
15D
100
AcDbEntity
8
1
62
256
6
ByLayer
370
-1
48
1
60
0
100
AcDbEllipse
10
52.105946
20
29.355351
30
0
11
-0.084362598170551
21
0.99643782127652
31
0
210
0
220
0
230
1
40
0.984699
41
2.91468120323343
42
3.05841628630445
0
ELLIPSE
5
15E
100
AcDbEntity
8
1
62
256
6
ByLayer
370
-1
48
1
60
0
100
AcDbEllipse
10
59.451031
20
33.412147
30
0
11
9.18454765366783E-18
21
0.15
31
0
210
0
220
0
230
1
40
0.173648
41
0.581935272900151
42
2.58906391269364
0
ELLIPSE
5
15F
100
AcDbEntity
8
1
62
256
6
ByLayer
370
-1
48
1
60
0
100
AcDbEllipse
10
59.159127
20
32.61859
30
0
11
1.83690953073357E-16
21
3
31
0
210
0
220
0
230
1
40
0.173648
41
-0.727061666095602
42
-0.552528740896162
0
ELLIPSE
5
160
100
AcDbEntity
8
1
62
256
6
ByLayer
370
-1
48
1
60
0
100
AcDbEllipse
10
59.919933
20
44.869672
30
0
11
-0.750296194735691
21
0.434738948697645
31
0
210
0
220
0
230
1
40
0.088816
41
1.44800889773699
42
1.62254181817322
0
ELLIPSE
5
161
100
AcDbEntity
8
1
62
256
6
ByLayer
370
-1
48
1
60
0
100
AcDbEllipse
10
61.155163
20
40.2982
30
0
11
-0.253855532568933
21
-0.000754189499875262
31
0
210
0
220
0
230
1
40
0.984667
41
1.38365364253092E-05
42
0.952733513456437
0
ELLIPSE
5
162
100
AcDbEntity
8
1
62
256
6
ByLayer
370
-1
48
1
60
0
100
AcDbEllipse
10
62.806648
20
42.524186
30
0
11
-0.528019507739123
21
-0.0015687140956498
31
0
210
0
220
0
230
1
40
0.984667
41
-3.14157881693392
42
-2.10103542326105
0
ELLIPSE
5
163
100
AcDbEntity
8
1
62
256
6
ByLayer
370
-1
48
1
60
0
100
AcDbEllipse
10
62.806799
20
42.473401
30
0
11
-0.528019507739525
21
-0.00156871415743695
31
0
210
0
220
0
230
1
40
0.984667
41
2.10106309645848
42
-3.14157881704896
0
ELLIPSE
5
164
100
AcDbEntity
8
1
62
256
6
ByLayer
370
-1
48
1
60
0
100
AcDbEllipse
10
61.154206
20
40.61884
30
0
11
-0.25385553257024
21
-0.000754189446161131
31
0
210
0
220
0
230
1
40
0.984667
41
-1.04052955692044
42
1.38367445871761E-05
0
ELLIPSE
5
165
100
AcDbEntity
8
1
62
256
6
ByLayer
370
-1
48
1
60
0
100
AcDbEllipse
10
52.232555
20
29.015385
30
0
11
-0.0512257656543606
21
0.517470695724043
31
0
210
0
220
0
230
1
40
0.984662
41
2.52082656649368
42
3.141591287188
0
ELLIPSE
5
166
100
AcDbEntity
8
1
62
256
6
ByLayer
370
-1
48
1
60
0
100
AcDbEllipse
10
51.408531
20
31.379534
30
0
11
0.0246277719492116
21
-0.248783988328867
31
0
210
0
220
0
230
1
40
0.984662
41
1.48028317282332
42
2.52082656649367
0
ELLIPSE
5
167
100
AcDbEntity
8
1
62
256
6
ByLayer
370
-1
48
1
60
0
100
AcDbEllipse
10
52.307962
20
31.468571
30
0
11
-0.104148322262846
21
0.228445258143023
31
0
210
0
220
0
230
1
40
0.958576
41
-1.97766540597824
42
-0.937122012308396
0
ELLIPSE
5
168
100
AcDbEntity
8
1
62
256
6
ByLayer
370
-1
48
1
60
0
100
AcDbEllipse
10
53.138581
20
29.134763
30
0
11
-0.216628510306818
21
0.475166136936806
31
0
210
0
220
0
230
1
40
0.958576
41
1.16392724761031
42
2.20447064128145
0
ELLIPSE
5
169
100
AcDbEntity
8
1
62
256
6
ByLayer
370
-1
48
1
60
0
100
AcDbEllipse
10
52.033979
20
31.628891
30
0
11
-0.104148322264544
21
0.228445258141965
31
0
210
0
220
0
230
1
40
0.958576
41
-0.937122012316144
42
0.0155976646064598
0
ELLIPSE
5
16A
100
AcDbEntity
8
1
62
256
6
ByLayer
370
-1
48
1
60
0
100
AcDbEllipse
10
48.377141
20
36.080544
30
0
11
-0.155247516410865
21
0.241830006311616
31
0
210
0
220
0
230
1
40
0.120053
41
-2.53402038934016
42
-1.03690980341098
0
ELLIPSE
5
16B
100
AcDbEntity
8
1
62
256
6
ByLayer
370
-1
48
1
60
0
100
AcDbEllipse
10
48.219003
20
36.456809
30
0
11
-0.156347378541952
21
0.266684179865837
31
0
210
0
220
0
230
1
40
0.154177
41
1.4999102775445
42
2.19804197832863
0
ELLIPSE
5
16C
100
AcDbEntity
8
1
62
256
6
ByLayer
370
-1
48
1
60
0
100
AcDbEllipse
10
47.277034
20
38.154958
30
0
11
-0.444948532402828
21
0.763538154325942
31
0
210
0
220
0
230
1
40
0.134911
41
1.5091705321647
42
2.40290295666639
0
ELLIPSE
5
16D
100
AcDbEntity
8
1
62
256
6
ByLayer
370
-1
48
1
60
0
100
AcDbEllipse
10
47.772725
20
37.237496
30
0
11
-0.156347378341106
21
0.26668417957913
31
0
210
0
220
0
230
1
40
0.154177
41
1.0747339665465
42
1.49991027807849
0
ELLIPSE
5
16E
100
AcDbEntity
8
1
62
256
6
ByLayer
370
-1
48
1
60
0
100
AcDbEllipse
10
53.277603
20
45.002988
30
0
11
-1.48293986337868
21
-0.00113199992073856
31
0
210
0
220
0
230
1
40
0.008659
41
1.30833359030088
42
2.44279760404371
0
ELLIPSE
5
16F
100
AcDbEntity
8
1
62
256
6
ByLayer
370
-1
48
1
60
0
100
AcDbEllipse
10
54.265193
20
38.658627
30
0
11
-0.478749947312059
21
4.83621992075254
31
0
210
0
220
0
230
1
40
0.984662
41
0.426431464100481
42
0.984936824738663
0
ELLIPSE
5
170
100
AcDbEntity
8
1
62
256
6
ByLayer
370
-1
48
1
60
0
100
AcDbEllipse
10
53.764784
20
43.747349
30
0
11
-0.230406752779602
21
-0.227796117649247
31
0
210
0
220
0
230
1
40
0.628363
41
2.56493088444828
42
-2.22114383679504
0
ELLIPSE
5
171
100
AcDbEntity
8
1
62
256
6
ByLayer
370
-1
48
1
60
0
100
AcDbEllipse
10
54.259728
20
38.658086
30
0
11
0.439414618244764
21
-4.43886363258441
31
0
210
0
220
0
230
1
40
0.984662
41
-3.11707500541202
42
-1.75474201292831
0
ELLIPSE
5
172
100
AcDbEntity
8
1
62
256
6
ByLayer
370
-1
48
1
60
0
100
AcDbEllipse
10
49.227669
20
38.962237
30
0
11
-0.19167021836605
21
-0.230486518019309
31
0
210
0
220
0
230
1
40
0.678021
41
-0.964928537794741
42
0.53218204814375
0
ELLIPSE
5
173
100
AcDbEntity
8
1
62
256
6
ByLayer
370
-1
48
1
60
0
100
AcDbEllipse
10
49.245031
20
38.963956
30
0
11
-0.190444039245502
21
-0.196955959498107
31
0
210
0
220
0
230
1
40
0.38081
41
-0.908778104876979
42
0.588332481057211
0
ELLIPSE
5
174
100
AcDbEntity
8
1
62
256
6
ByLayer
370
-1
48
1
60
0
100
AcDbEllipse
10
54.272597
20
38.65936
30
0
11
-0.448930058632645
21
4.53498638438203
31
0
210
0
220
0
230
1
40
0.984662
41
0.0245176481742459
42
1.38685064066148
0
ELLIPSE
5
175
100
AcDbEntity
8
1
62
256
6
ByLayer
370
-1
48
1
60
0
100
AcDbEllipse
10
53.782146
20
43.749067
30
0
11
-0.185582861240143
21
-0.201683646239071
31
0
210
0
220
0
230
1
40
0.380522
41
2.53967617191014
42
-2.24639854933131
0
ELLIPSE
5
176
100
AcDbEntity
8
1
62
256
6
ByLayer
370
-1
48
1
60
0
100
AcDbEllipse
10
54.272597
20
38.65936
30
0
11
0.470680391416663
21
-4.75470315570216
31
0
210
0
220
0
230
1
40
0.984662
41
-2.71516118948931
42
-2.15665582885113
0
ELLIPSE
5
177
100
AcDbEntity
8
1
62
256
6
ByLayer
370
-1
48
1
60
0
100
AcDbEllipse
10
53.33861
20
38.863954
30
0
11
-0.15942181233749
21
-4.41689822463154
31
0
210
0
220
0
230
1
40
0.859742
41
2.90096364010112
42
3.03887278945108
0
ELLIPSE
5
178
100
AcDbEntity
8
1
62
256
6
ByLayer
370
-1
48
1
60
0
100
AcDbEllipse
10
53.940531
20
39.498776
30
0
11
-2.25135349869002
21
-4.13800147022292
31
0
210
0
220
0
230
1
40
0.856395
41
-0.997177235826632
42
-0.859268086196826
0
ELLIPSE
5
179
100
AcDbEntity
8
1
62
256
6
ByLayer
370
-1
48
1
60
0
100
AcDbEllipse
10
47.857467
20
37.379584
30
0
11
-0.588573992529137
21
-0.583709000317241
31
0
210
0
220
0
230
1
40
0.430952
41
-1.63053612053935
42
-1.61795061183388
0
ELLIPSE
5
17A
100
AcDbEntity
8
1
62
256
6
ByLayer
370
-1
48
1
60
0
100
AcDbEllipse
10
47.983266
20
37.298797
30
0
11
-0.629899784851096
21
-0.405034210018648
31
0
210
0
220
0
230
1
40
0.294797
41
-1.51794676203592
42
-1.50536057695776
0
ELLIPSE
5
17B
100
AcDbEntity
8
1
62
256
6
ByLayer
370
-1
48
1
60
0
100
AcDbEllipse
10
54.133699
20
38.64561
30
0
11
0.404758269530185
21
-4.08877330886741
31
0
210
0
220
0
230
1
40
0.984662
41
2.90673834865456
42
-1.49537005981541
0
ELLIPSE
5
17C
100
AcDbEntity
8
1
62
256
6
ByLayer
370
-1
48
1
60
0
100
AcDbEllipse
10
54.160079
20
38.648221
30
0
11
0.42426492232534
21
-4.28582495005253
31
0
210
0
220
0
230
1
40
0.984662
41
3.02014473408993
42
-1.60877644525079
0
ELLIPSE
5
17D
100
AcDbEntity
8
1
62
256
6
ByLayer
370
-1
48
1
60
0
100
AcDbEllipse
10
51.264139
20
43.820687
30
0
11
0.379766412202703
21
-0.646743745360314
31
0
210
0
220
0
230
1
40
0.158847
41
-1.81848809092722
42
-0.68402407713094
0
ELLIPSE
5
17E
100
AcDbEntity
8
1
62
256
6
ByLayer
370
-1
48
1
60
0
100
AcDbEllipse
10
54.232628
20
38.005601
30
0
11
-1.39227953661632
21
-6.6788456180148
31
0
210
0
220
0
230
1
40
0.960266
41
-2.42525216140357
42
-2.21273284337522
0
ELLIPSE
5
17F
100
AcDbEntity
8
1
62
256
6
ByLayer
370
-1
48
1
60
0
100
AcDbEllipse
10
50.122167
20
42.975288
30
0
11
0.379766412202703
21
-0.646743745360314
31
0
210
0
220
0
230
1
40
0.158847
41
-1.81848809092722
42
-1.64395516572782
0
ELLIPSE
5
180
100
AcDbEntity
8
1
62
256
6
ByLayer
370
-1
48
1
60
0
100
AcDbEllipse
10
50.122167
20
42.975288
30
0
11
0.507192783306788
21
-0.55249930367514
31
0
210
0
220
0
230
1
40
0.102923
41
-1.84632301281813
42
-0.716375128219904
0
ELLIPSE
5
181
100
AcDbEntity
8
1
62
256
6
ByLayer
370
-1
48
1
60
0
100
AcDbEllipse
10
50.122167
20
42.975288
30
0
11
0.523699716093521
21
-0.536878577858686
31
0
210
0
220
0
230
1
40
0.137103
41
-1.6799443182632
42
-0.720013229666406
0
ELLIPSE
5
182
100
AcDbEntity
8
1
62
256
6
ByLayer
370
-1
48
1
60
0
100
AcDbEllipse
10
54.082802
20
38.640572
30
0
11
-0.589672763894407
21
5.95673625340889
31
0
210
0
220
0
230
1
40
0.984662
41
0.666776392043989
42
0.984936824738662
0
ELLIPSE
5
183
100
AcDbEntity
8
1
62
256
6
ByLayer
370
-1
48
1
60
0
100
AcDbEllipse
10
54.13833
20
38.646068
30
0
11
0.529151094678961
21
-5.34536051553101
31
0
210
0
220
0
230
1
40
0.984662
41
-2.4748162615458
42
-2.15665582885113
0
ELLIPSE
5
184
100
AcDbEntity
8
1
62
256
6
ByLayer
370
-1
48
1
60
0
100
AcDbEllipse
10
48.999733
20
41.463234
30
0
11
0.665215374977294
21
-0.346393569359795
31
0
210
0
220
0
230
1
40
0.096468
41
-1.71737772613792
42
-0.757446637541041
0
ELLIPSE
5
185
100
AcDbEntity
8
1
62
256
6
ByLayer
370
-1
48
1
60
0
100
AcDbEllipse
10
47.767343
20
37.586783
30
0
11
-0.140555557628673
21
0.14922846651927
31
0
210
0
220
0
230
1
40
0.249834
41
0.784202037758806
42
2.28131262369598
0
ELLIPSE
5
186
100
AcDbEntity
8
1
62
256
6
ByLayer
370
-1
48
1
60
0
100
AcDbEllipse
10
47.759777
20
37.579618
30
0
11
-0.141364748562555
21
0.148462142864252
31
0
210
0
220
0
230
1
40
0.244711
41
0.78285774228652
42
2.26981503406455
0
ELLIPSE
5
187
100
AcDbEntity
8
1
62
256
6
ByLayer
370
-1
48
1
60
0
100
AcDbEllipse
10
49.72308
20
38.380879
30
0
11
-0.203058355103601
21
-0.0281479026327011
31
0
210
0
220
0
230
1
40
0.658003
41
1.79607876326914
42
3.02654093053705
0
ELLIPSE
5
188
100
AcDbEntity
8
1
62
256
6
ByLayer
370
-1
48
1
60
0
100
AcDbEllipse
10
49.813944
20
38.18312
30
0
11
-0.145616974328061
21
-0.144293786378834
31
0
210
0
220
0
230
1
40
0.661379
41
1.36345832542032
42
2.26098977545906
0
ELLIPSE
5
189
100
AcDbEntity
8
1
62
256
6
ByLayer
370
-1
48
1
60
0
100
AcDbEllipse
10
50.262592
20
36.490614
30
0
11
0.187908468395977
21
0.0819475899894448
31
0
210
0
220
0
230
1
40
0.6096
41
0.126191590979811
42
1.35665375824769
0
ELLIPSE
5
18A
100
AcDbEntity
8
1
62
256
6
ByLayer
370
-1
48
1
60
0
100
AcDbEllipse
10
50.232013
20
36.718347
30
0
11
0.20091479286169
21
-0.0407215668822348
31
0
210
0
220
0
230
1
40
0.618552
41
0.841860612036521
42
1.73939206207528
0
ELLIPSE
5
18B
100
AcDbEntity
8
1
62
256
6
ByLayer
370
-1
48
1
60
0
100
AcDbEllipse
10
53.811805
20
43.257748
30
0
11
-0.0971812891280715
21
0.0235753482138903
31
0
210
0
220
0
230
1
40
0.058433
41
-2.43435818834247
42
-1.73622648754599
0
ELLIPSE
5
18C
100
AcDbEntity
8
1
62
256
6
ByLayer
370
-1
48
1
60
0
100
AcDbEllipse
10
53.961206
20
43.873601
30
0
11
0.0971812891280083
21
-0.0235753482141509
31
0
210
0
220
0
230
1
40
0.058433
41
0.707234465247327
42
1.40536616604429
0
ELLIPSE
5
18D
100
AcDbEntity
8
1
62
256
6
ByLayer
370
-1
48
1
60
0
100
AcDbEllipse
10
53.696968
20
43.180428
30
0
11
-0.0123256273635031
21
0.0992374874233325
31
0
210
0
220
0
230
1
40
0.174419
41
-2.88413705677204
42
-1.57514011778049
0
ELLIPSE
5
18E
100
AcDbEntity
8
1
62
256
6
ByLayer
370
-1
48
1
60
0
100
AcDbEllipse
10
53.820955
20
43.928581
30
0
11
-0.0506355216270263
21
0.0862324993813757
31
0
210
0
220
0
230
1
40
0.158847
41
-1.64395516572784
42
-0.684024077132388
0
ELLIPSE
5
18F
100
AcDbEntity
8
1
62
256
6
ByLayer
370
-1
48
1
60
0
100
AcDbEllipse
10
49.783024
20
39.052549
30
0
11
-0.0996597563433027
21
0.00824214569111306
31
0
210
0
220
0
230
1
40
0.031913
41
-3.05226220714033
42
-1.74326526814775
0
ELLIPSE
5
190
100
AcDbEntity
8
1
62
256
6
ByLayer
370
-1
48
1
60
0
100
AcDbEllipse
10
51.890207
20
42.79485
30
0
11
-0.0506355216270263
21
0.0862324993813757
31
0
210
0
220
0
230
1
40
0.158847
41
-1.64395516572777
42
-0.684024077130674
0
ELLIPSE
5
191
100
AcDbEntity
8
1
62
256
6
ByLayer
370
-1
48
1
60
0
100
AcDbEllipse
10
49.711286
20
38.933096
30
0
11
-0.0279745547181485
21
0.0960074178817518
31
0
210
0
220
0
230
1
40
0.171587
41
-2.30100253057275
42
-1.60287082977474
0
ELLIPSE
5
192
100
AcDbEntity
8
1
62
256
6
ByLayer
370
-1
48
1
60
0
100
AcDbEllipse
10
50.093957
20
40.900418
30
0
11
-0.088695383330306
21
0.0461858092479722
31
0
210
0
220
0
230
1
40
0.096468
41
-1.71737772613794
42
-0.757446637540447
0
ELLIPSE
5
193
100
AcDbEntity
8
1
62
256
6
ByLayer
370
-1
48
1
60
0
100
AcDbEllipse
10
49.110869
20
38.758147
30
0
11
-0.0279745547181485
21
0.0960074178817518
31
0
210
0
220
0
230
1
40
0.171587
41
-2.30100253057285
42
-1.60287082977481
0
ELLIPSE
5
194
100
AcDbEntity
8
1
62
256
6
ByLayer
370
-1
48
1
60
0
100
AcDbEllipse
10
49.051442
20
38.898369
30
0
11
-0.088695383330306
21
0.0461858092479722
31
0
210
0
220
0
230
1
40
0.096468
41
-1.71737772613794
42
-0.757446637541324
0
ELLIPSE
5
195
100
AcDbEntity
8
1
62
256
6
ByLayer
370
-1
48
1
60
0
100
AcDbEllipse
10
54.806296
20
44.994492
30
0
11
-0.266397243563626
21
0.000798625381268709
31
0
210
0
220
0
230
1
40
0.014886
41
-2.31078868971413
42
-0.813678103673539
0
ELLIPSE
5
196
100
AcDbEntity
8
1
62
256
6
ByLayer
370
-1
48
1
60
0
100
AcDbEllipse
10
55.282065
20
44.999828
30
0
11
-0.308909849081405
21
-0.000869647335765364
31
0
210
0
220
0
230
1
40
0.016452
41
0.7031941772265
42
1.40132587846011
0
ELLIPSE
5
197
100
AcDbEntity
8
1
62
256
6
ByLayer
370
-1
48
1
60
0
100
AcDbEllipse
10
57.237583
20
45.002524
30
0
11
-0.880628696864855
21
-0.0019064945467866
31
0
210
0
220
0
230
1
40
0.014477
41
0.528620229794599
42
1.42235265441986
0
ELLIPSE
5
198
100
AcDbEntity
8
1
62
256
6
ByLayer
370
-1
48
1
60
0
100
AcDbEllipse
10
56.169961
20
44.999828
30
0
11
-0.308909849666603
21
-0.000869647339972961
31
0
210
0
220
0
230
1
40
0.016452
41
1.40132587822769
42
1.82650218882127
0
ELLIPSE
5
199
100
AcDbEntity
8
1
62
256
6
ByLayer
370
-1
48
1
60
0
100
AcDbEllipse
10
54.265193
20
38.658627
30
0
11
-0.478749947312059
21
4.83621992075254
31
0
210
0
220
0
230
1
40
0.984662
41
-1.66796363829271
42
-1.10945827765453
0
ELLIPSE
5
19A
100
AcDbEntity
8
1
62
256
6
ByLayer
370
-1
48
1
60
0
100
AcDbEllipse
10
58.840705
20
36.53066
30
0
11
-0.114905950198245
21
0.296452990404018
31
0
210
0
220
0
230
1
40
0.634221
41
2.4996792489775
42
-2.28639547226548
0
ELLIPSE
5
19B
100
AcDbEntity
8
1
62
256
6
ByLayer
370
-1
48
1
60
0
100
AcDbEllipse
10
54.259728
20
38.658086
30
0
11
0.439414618244764
21
-4.43886363258441
31
0
210
0
220
0
230
1
40
0.984662
41
1.07171519937438
42
2.43404819185808
0
ELLIPSE
5
19C
100
AcDbEntity
8
1
62
256
6
ByLayer
370
-1
48
1
60
0
100
AcDbEllipse
10
57.015643
20
42.925058
30
0
11
-0.0542977281529555
21
0.307627406499107
31
0
210
0
220
0
230
1
40
0.644722
41
-0.839805110891385
42
0.657305475044443
0
ELLIPSE
5
19D
100
AcDbEntity
8
1
62
256
6
ByLayer
370
-1
48
1
60
0
100
AcDbEllipse
10
57.033005
20
42.926776
30
0
11
-0.0723853551991281
21
0.266698746769974
31
0
210
0
220
0
230
1
40
0.374291
41
-0.899769069369026
42
0.597341516566256
0
ELLIPSE
5
19E
100
AcDbEntity
8
1
62
256
6
ByLayer
370
-1
48
1
60
0
100
AcDbEllipse
10
54.272597
20
38.65936
30
0
11
-0.448930058632645
21
4.53498638438203
31
0
210
0
220
0
230
1
40
0.984662
41
-2.06987745421895
42
-0.707544461731715
0
ELLIPSE
5
19F
100
AcDbEntity
8
1
62
256
6
ByLayer
370
-1
48
1
60
0
100
AcDbEllipse
10
58.858067
20
36.532379
30
0
11
-0.0788069796400056
21
0.264833866487498
31
0
210
0
220
0
230
1
40
0.37439
41
2.54904330410657
42
-2.23703141713632
0
ELLIPSE
5
1A0
100
AcDbEntity
8
1
62
256
6
ByLayer
370
-1
48
1
60
0
100
AcDbEllipse
10
54.272597
20
38.65936
30
0
11
0.470680391416663
21
-4.75470315570216
31
0
210
0
220
0
230
1
40
0.984662
41
1.47362901529708
42
2.03213437593526
0
ELLIPSE
5
1A1
100
AcDbEntity
8
1
62
256
6
ByLayer
370
-1
48
1
60
0
100
AcDbEllipse
10
55.0267
20
38.436959
30
0
11
-5.05800581608343
21
0.527036718946449
31
0
210
0
220
0
230
1
40
0.86101
41
-1.81752603499131
42
-1.67961688553451
0
ELLIPSE
5
1A2
100
AcDbEntity
8
1
62
256
6
ByLayer
370
-1
48
1
60
0
100
AcDbEllipse
10
56.277974
20
44.874905
30
0
11
-0.298675179365824
21
0.752433064931
31
0
210
0
220
0
230
1
40
0.288465
41
-1.71644304687252
42
-1.70385550253776
0
ELLIPSE
5
1A3
100
AcDbEntity
8
1
62
256
6
ByLayer
370
-1
48
1
60
0
100
AcDbEllipse
10
56.117697
20
44.783921
30
0
11
-0.0930817325734309
21
0.720772321167707
31
0
210
0
220
0
230
1
40
0.219191
41
-1.58438794453105
42
-1.57179574388094
0
ELLIPSE
5
1A4
100
AcDbEntity
8
1
62
256
6
ByLayer
370
-1
48
1
60
0
100
AcDbEllipse
10
60.094
20
38.653926
30
0
11
-0.749996658706078
21
-0.0022387339544526
31
0
210
0
220
0
230
1
40
0.016926
41
0.43630704891714
42
1.5707710627122
0
ELLIPSE
5
1A5
100
AcDbEntity
8
1
62
256
6
ByLayer
370
-1
48
1
60
0
100
AcDbEllipse
10
53.181609
20
38.620601
30
0
11
-6.91241000152153
21
-0.0205681060850404
31
0
210
0
220
0
230
1
40
0.977133
41
-3.14158341135078
42
-2.92906409328715
0
ELLIPSE
5
1A6
100
AcDbEntity
8
1
62
256
6
ByLayer
370
-1
48
1
60
0
100
AcDbEllipse
10
59.934236
20
40.07811
30
0
11
-0.749996658706078
21
-0.0022387339544526
31
0
210
0
220
0
230
1
40
0.016926
41
1.39623813751276
42
1.57077106271217
0
ELLIPSE
5
1A7
100
AcDbEntity
8
1
62
256
6
ByLayer
370
-1
48
1
60
0
100
AcDbEllipse
10
59.934236
20
40.07811
30
0
11
-0.731869975798781
21
-0.163909543725469
31
0
210
0
220
0
230
1
40
0.016523
41
0.437173922974188
42
1.56712180757186
0
ELLIPSE
5
1A8
100
AcDbEntity
8
1
62
256
6
ByLayer
370
-1
48
1
60
0
100
AcDbEllipse
10
59.934236
20
40.07811
30
0
11
-0.728560147993159
21
-0.178045249181736
31
0
210
0
220
0
230
1
40
0.024895
41
-1.3971860840169
42
-0.437254995420272
0
ELLIPSE
5
1A9
100
AcDbEntity
8
1
62
256
6
ByLayer
370
-1
48
1
60
0
100
AcDbEllipse
10
54.082802
20
38.640572
30
0
11
-0.589672763894407
21
5.95673625340889
31
0
210
0
220
0
230
1
40
0.984662
41
-1.4276187103492
42
-1.10945827765453
0
ELLIPSE
5
1AA
100
AcDbEntity
8
1
62
256
6
ByLayer
370
-1
48
1
60
0
100
AcDbEllipse
10
54.13833
20
38.646068
30
0
11
0.529151094678961
21
-5.34536051553101
31
0
210
0
220
0
230
1
40
0.984662
41
1.71397394324059
42
2.03213437593527
0
ELLIPSE
5
1AB
100
AcDbEntity
8
1
62
256
6
ByLayer
370
-1
48
1
60
0
100
AcDbEllipse
10
59.202722
20
41.825012
30
0
11
-0.637868808874099
21
-0.394491296058022
31
0
210
0
220
0
230
1
40
0.077665
41
-1.41344291262322
42
-0.453511824026403
0
ELLIPSE
5
1AC
100
AcDbEntity
8
1
62
256
6
ByLayer
370
-1
48
1
60
0
100
AcDbEllipse
10
56.375679
20
44.759953
30
0
11
0.193564836018629
21
0.0675104011029495
31
0
210
0
220
0
230
1
40
0.346701
41
0.484409122246118
42
1.98151970818351
0
ELLIPSE
5
1AD
100
AcDbEntity
8
1
62
256
6
ByLayer
370
-1
48
1
60
0
100
AcDbEllipse
10
56.372335
20
44.769483
30
0
11
0.193313961817342
21
0.0682254510170735
31
0
210
0
220
0
230
1
40
0.340496
41
0.48313899359576
42
1.97009628537389
0
ELLIPSE
5
1AE
100
AcDbEntity
8
1
62
256
6
ByLayer
370
-1
48
1
60
0
100
AcDbEllipse
10
56.125873
20
42.674379
30
0
11
0.0402479264483286
21
0.201010209732267
31
0
210
0
220
0
230
1
40
0.506688
41
1.49994058563904
42
2.73040275290692
0
ELLIPSE
5
1AF
100
AcDbEntity
8
1
62
256
6
ByLayer
370
-1
48
1
60
0
100
AcDbEllipse
10
55.866427
20
42.660734
30
0
11
-0.0673423310881079
21
0.193623372668745
31
0
210
0
220
0
230
1
40
0.421353
41
1.24768327877899
42
2.14521472881758
0
ELLIPSE
5
1B0
100
AcDbEntity
8
1
62
256
6
ByLayer
370
-1
48
1
60
0
100
AcDbEllipse
10
54.245133
20
43.150105
30
0
11
-0.0633371763412873
21
-0.194970259509271
31
0
210
0
220
0
230
1
40
0.758553
41
0.436134588316469
42
1.66659675558435
0
ELLIPSE
5
1B1
100
AcDbEntity
8
1
62
256
6
ByLayer
370
-1
48
1
60
0
100
AcDbEllipse
10
54.409034
20
43.029375
30
0
11
-0.167732241456934
21
-0.117859641845004
31
0
210
0
220
0
230
1
40
0.644202
41
1.23179492555297
42
2.12932637559179
0
ELLIPSE
5
1B2
100
AcDbEntity
8
1
62
256
6
ByLayer
370
-1
48
1
60
0
100
AcDbEllipse
10
58.399687
20
36.735402
30
0
11
0.0699045413981624
21
0.0715077274978908
31
0
210
0
220
0
230
1
40
0.113154
41
-2.13486650757792
42
-1.43673480678017
0
ELLIPSE
5
1B3
100
AcDbEntity
8
1
62
256
6
ByLayer
370
-1
48
1
60
0
100
AcDbEllipse
10
58.850703
20
36.294498
30
0
11
-0.0699045413983562
21
-0.0715077274977013
31
0
210
0
220
0
230
1
40
0.113154
41
1.00672614601206
42
1.70485784680997
0
ELLIPSE
5
1B4
100
AcDbEntity
8
1
62
256
6
ByLayer
370
-1
48
1
60
0
100
AcDbEllipse
10
58.39085
20
36.875236
30
0
11
0.0923403222557836
21
-0.0383831328280801
31
0
210
0
220
0
230
1
40
0.083505
41
1.41645776164777
42
2.7254547006403
0
ELLIPSE
5
1B5
100
AcDbEntity
8
1
62
256
6
ByLayer
370
-1
48
1
60
0
100
AcDbEllipse
10
58.967358
20
36.39018
30
0
11
0.0999995544941437
21
0.000298497860593912
31
0
210
0
220
0
230
1
40
0.016926
41
0.436307048915584
42
1.39623813751277
0
ELLIPSE
5
1B6
100
AcDbEntity
8
1
62
256
6
ByLayer
370
-1
48
1
60
0
100
AcDbEllipse
10
56.816459
20
42.391366
30
0
11
0.0578196889703938
21
0.0815897270945732
31
0
210
0
220
0
230
1
40
0.132591
41
-2.76513106635129
42
-1.45613412735601
0
ELLIPSE
5
1B7
100
AcDbEntity
8
1
62
256
6
ByLayer
370
-1
48
1
60
0
100
AcDbEllipse
10
58.96059
20
38.657641
30
0
11
0.0999995544941437
21
0.000298497860593912
31
0
210
0
220
0
230
1
40
0.016926
41
0.436307048915554
42
1.39623813751319
0
ELLIPSE
5
1B8
100
AcDbEntity
8
1
62
256
6
ByLayer
370
-1
48
1
60
0
100
AcDbEllipse
10
56.750247
20
42.514481
30
0
11
0.0971812891280083
21
-0.0235753482141509
31
0
210
0
220
0
230
1
40
0.058433
41
1.40536616604408
42
2.10349786684094
0
ELLIPSE
5
1B9
100
AcDbEntity
8
1
62
256
6
ByLayer
370
-1
48
1
60
0
100
AcDbEllipse
10
58.238046
20
41.189191
30
0
11
0.0850491745165465
21
0.0525988394744031
31
0
210
0
220
0
230
1
40
0.077665
41
-1.41344291262332
42
-0.453511824027682
0
ELLIPSE
5
1BA
100
AcDbEntity
8
1
62
256
6
ByLayer
370
-1
48
1
60
0
100
AcDbEllipse
10
56.899647
20
43.130335
30
0
11
0.0971812891280083
21
-0.0235753482141509
31
0
210
0
220
0
230
1
40
0.058433
41
1.40536616604415
42
2.10349786684168
0
ELLIPSE
5
1BB
100
AcDbEntity
8
1
62
256
6
ByLayer
370
-1
48
1
60
0
100
AcDbEllipse
10
57.048814
20
43.112107
30
0
11
0.0850491745165465
21
0.0525988394744031
31
0
210
0
220
0
230
1
40
0.077665
41
-1.41344291262332
42
-0.453511824027682
0
ELLIPSE
5
1BC
100
AcDbEntity
8
1
62
256
6
ByLayer
370
-1
48
1
60
0
100
AcDbEllipse
10
49.644815
20
44.273813
30
0
11
-0.0595777299889569
21
-0.192154317240152
31
0
210
0
220
0
230
1
40
0.960584
41
-2.33004026977635
42
-1.3773205928612
0
ELLIPSE
5
1BD
100
AcDbEntity
8
1
62
256
6
ByLayer
370
-1
48
1
60
0
100
AcDbEllipse
10
45.620004
20
44.245937
30
0
11
-0.0512257656543606
21
0.517470695724043
31
0
210
0
220
0
230
1
40
0.984662
41
-1.27356957271194E-05
42
0.426431464100501
0
ELLIPSE
5
1BE
100
AcDbEntity
8
1
62
256
6
ByLayer
370
-1
48
1
60
0
100
AcDbEllipse
10
46.042142
20
40.579507
30
0
11
-0.00514834931728954
21
-0.869332178131092
31
0
210
0
220
0
230
1
40
0.149715
41
-1.72961401614261
42
-1.55508109046633
0
ELLIPSE
5
1BF
100
AcDbEntity
8
1
62
256
6
ByLayer
370
-1
48
1
60
0
100
AcDbEllipse
10
60.101058
20
36.289324
30
0
11
-0.740383803526091
21
-1.29783052841939
31
0
210
0
220
0
230
1
40
0.071516
41
-1.69462957681162
42
-0.560165563024856
0
ELLIPSE
5
1C0
100
AcDbEntity
8
1
62
256
6
ByLayer
370
-1
48
1
60
0
100
AcDbEllipse
10
59.212211
20
34.861254
30
0
11
-0.154370698297159
21
-0.244728101724786
31
0
210
0
220
0
230
1
40
0.105802
41
1.05786417070704
42
2.554974756635
0
ELLIPSE
5
1C1
100
AcDbEntity
8
1
62
256
6
ByLayer
370
-1
48
1
60
0
100
AcDbEllipse
10
59.056287
20
34.495661
30
0
11
-0.155871228084696
21
-0.266908649638113
31
0
210
0
220
0
230
1
40
0.13779
41
-2.1693764744005
42
-1.47124477350743
0
ELLIPSE
5
1C2
100
AcDbEntity
8
1
62
256
6
ByLayer
370
-1
48
1
60
0
100
AcDbEllipse
10
58.124441
20
32.802904
30
0
11
-0.442835045795696
21
-0.764026523428512
31
0
210
0
220
0
230
1
40
0.12071
41
-2.37784691029232
42
-1.48411448577353
0
ELLIPSE
5
1C3
100
AcDbEntity
8
1
62
256
6
ByLayer
370
-1
48
1
60
0
100
AcDbEllipse
10
58.61467
20
33.714974
30
0
11
-0.155871228133909
21
-0.266908649719668
31
0
210
0
220
0
230
1
40
0.13779
41
-1.47124477349853
42
-1.04606846247008
0
ELLIPSE
5
1C4
100
AcDbEntity
8
1
62
256
6
ByLayer
370
-1
48
1
60
0
100
AcDbEllipse
10
49.274463
20
34.669466
30
0
11
-0.746681204353739
21
1.29754494913592
31
0
210
0
220
0
230
1
40
0.079737
41
0.574936535421097
42
1.70940054921824
0
ELLIPSE
5
1C5
100
AcDbEntity
8
1
62
256
6
ByLayer
370
-1
48
1
60
0
100
AcDbEllipse
10
54.133699
20
38.64561
30
0
11
-0.394907160750505
21
3.98925971353587
31
0
210
0
220
0
230
1
40
0.984662
41
0
42
6.28318530717959
0
ELLIPSE
5
1C6
100
AcDbEntity
8
1
62
256
6
ByLayer
370
-1
48
1
60
0
100
AcDbEllipse
10
54.088381
20
38.641124
30
0
11
-0.383286223598645
21
3.87186772620056
31
0
210
0
220
0
230
1
40
0.984662
41
0
42
6.28318530717959
0
ELLIPSE
5
1C7
100
AcDbEntity
8
1
62
256
6
ByLayer
370
-1
48
1
60
0
100
AcDbEllipse
10
61.149855
20
39.75097
30
0
11
-0.203084426055031
21
-0.000603351602628697
31
0
210
0
220
0
230
1
40
0.984667
41
-3.14157881706633
42
-2.18885914014631
0
ELLIPSE
5
1C8
100
AcDbEntity
8
1
62
256
6
ByLayer
370
-1
48
1
60
0
100
AcDbEllipse
10
51.569535
20
31.908395
30
0
11
-0.0833186578127235
21
0.182756206512752
31
0
210
0
220
0
230
1
40
0.958576
41
2.20447064126655
42
-3.12599498898988
0
ELLIPSE
5
1C9
100
AcDbEntity
8
1
62
256
6
ByLayer
370
-1
48
1
60
0
100
AcDbEllipse
10
54.265193
20
38.658627
30
0
11
-0.478749947312059
21
4.83621992075254
31
0
210
0
220
0
230
1
40
0.984662
41
2.52082656649368
42
3.07933192713186
0
ELLIPSE
5
1CA
100
AcDbEntity
8
1
62
256
6
ByLayer
370
-1
48
1
60
0
100
AcDbEllipse
10
50.160214
20
35.694914
30
0
11
-0.28365797468585
21
0.0811316868775369
31
0
210
0
220
0
230
1
40
0.693231
41
-0.558498766331265
42
0.938611819608494
0
ELLIPSE
5
1CB
100
AcDbEntity
8
1
62
256
6
ByLayer
370
-1
48
1
60
0
100
AcDbEllipse
10
54.259728
20
38.658086
30
0
11
0.439414618244764
21
-4.43886363258441
31
0
210
0
220
0
230
1
40
0.984662
41
-1.02267990301882
42
0.339653089464885
0
ELLIPSE
5
1CC
100
AcDbEntity
8
1
62
256
6
ByLayer
370
-1
48
1
60
0
100
AcDbEllipse
10
56.522391
20
34.085629
30
0
11
-0.316202589598047
21
0.0767036367305682
31
0
210
0
220
0
230
1
40
0.628866
41
2.23190931594049
42
-2.5541654053012
0
ELLIPSE
5
1CD
100
AcDbEntity
8
1
62
256
6
ByLayer
370
-1
48
1
60
0
100
AcDbEllipse
10
56.539754
20
34.087347
30
0
11
-0.263435906701119
21
0.0706360774049668
31
0
210
0
220
0
230
1
40
0.384253
41
2.24411311368184
42
-2.54196160756014
0
ELLIPSE
5
1CE
100
AcDbEntity
8
1
62
256
6
ByLayer
370
-1
48
1
60
0
100
AcDbEllipse
10
54.272597
20
38.65936
30
0
11
-0.448930058632645
21
4.53498638438203
31
0
210
0
220
0
230
1
40
0.984662
41
2.11891275056745
42
-2.80193956412491
0
ELLIPSE
5
1CF
100
AcDbEntity
8
1
62
256
6
ByLayer
370
-1
48
1
60
0
100
AcDbEllipse
10
50.177576
20
35.696633
30
0
11
-0.265058776117749
21
0.063995360948509
31
0
210
0
220
0
230
1
40
0.384441
41
-0.590834750056164
42
0.906275835879555
0
ELLIPSE
5
1D0
100
AcDbEntity
8
1
62
256
6
ByLayer
370
-1
48
1
60
0
100
AcDbEllipse
10
54.272597
20
38.65936
30
0
11
0.470680391416663
21
-4.75470315570216
31
0
210
0
220
0
230
1
40
0.984662
41
-0.620766087096116
42
-0.0622607264579279
0
ELLIPSE
5
1D1
100
AcDbEntity
8
1
62
256
6
ByLayer
370
-1
48
1
60
0
100
AcDbEllipse
10
54.424779
20
37.802137
30
0
11
-3.72864875571126
21
3.08300633130191
31
0
210
0
220
0
230
1
40
0.85683
41
1.03710868484646
42
1.17501783428949
0
ELLIPSE
5
1D2
100
AcDbEntity
8
1
62
256
6
ByLayer
370
-1
48
1
60
0
100
AcDbEllipse
10
54.784576
20
39.285278
30
0
11
-4.38136130546491
21
-2.46862495422282
31
0
210
0
220
0
230
1
40
0.85965
41
1.80944139436382
42
1.94735054373651
0
ELLIPSE
5
1D3
100
AcDbEntity
8
1
62
256
6
ByLayer
370
-1
48
1
60
0
100
AcDbEllipse
10
53.580734
20
38.015634
30
0
11
-1.68068887102982
21
4.16587691972648
31
0
210
0
220
0
230
1
40
0.858326
41
-2.80029230947854
42
-2.66238316005392
0
ELLIPSE
5
1D4
100
AcDbEntity
8
1
62
256
6
ByLayer
370
-1
48
1
60
0
100
AcDbEllipse
10
58.483092
20
33.703612
30
0
11
-0.736358494977957
21
0.126326347289259
31
0
210
0
220
0
230
1
40
0.44442
41
1.31078054259902
42
1.32337180395457
0
ELLIPSE
5
1D5
100
AcDbEntity
8
1
62
256
6
ByLayer
370
-1
48
1
60
0
100
AcDbEllipse
10
58.456596
20
33.869637
30
0
11
-0.618208194952802
21
0.308636382451041
31
0
210
0
220
0
230
1
40
0.323717
41
1.527404857565
42
1.53998973561277
0
ELLIPSE
5
1D6
100
AcDbEntity
8
1
62
256
6
ByLayer
370
-1
48
1
60
0
100
AcDbEllipse
10
54.133699
20
38.64561
30
0
11
0.404758269530185
21
-4.08877330886741
31
0
210
0
220
0
230
1
40
0.984662
41
0.812343246261364
42
2.69342014497098
0
ELLIPSE
5
1D7
100
AcDbEntity
8
1
62
256
6
ByLayer
370
-1
48
1
60
0
100
AcDbEllipse
10
54.133699
20
38.64561
30
0
11
0.404758269530185
21
-4.08877330886741
31
0
210
0
220
0
230
1
40
0.984662
41
-1.28205185613183
42
0.599025042577785
0
ELLIPSE
5
1D8
100
AcDbEntity
8
1
62
256
6
ByLayer
370
-1
48
1
60
0
100
AcDbEllipse
10
54.160079
20
38.648221
30
0
11
0.42426492232534
21
-4.28582495005253
31
0
210
0
220
0
230
1
40
0.984662
41
0.925749631696737
42
2.58001375953561
0
ELLIPSE
5
1D9
100
AcDbEntity
8
1
62
256
6
ByLayer
370
-1
48
1
60
0
100
AcDbEllipse
10
54.160079
20
38.648221
30
0
11
0.42426492232534
21
-4.28582495005253
31
0
210
0
220
0
230
1
40
0.984662
41
-1.16864547069646
42
0.485618657142417
0
ELLIPSE
5
1DA
100
AcDbEntity
8
1
62
256
6
ByLayer
370
-1
48
1
60
0
100
AcDbEllipse
10
51.294985
20
33.487165
30
0
11
0.378778588461339
21
0.647322779549148
31
0
210
0
220
0
230
1
40
0.141921
41
0.71356602192785
42
1.84803003572421
0
ELLIPSE
5
1DB
100
AcDbEntity
8
1
62
256
6
ByLayer
370
-1
48
1
60
0
100
AcDbEllipse
10
54.228957
20
39.235601
30
0
11
-2.25120814108044
21
6.42152964717938
31
0
210
0
220
0
230
1
40
0.960139
41
2.29511388711437
42
2.507633205179
0
ELLIPSE
5
1DC
100
AcDbEntity
8
1
62
256
6
ByLayer
370
-1
48
1
60
0
100
AcDbEllipse
10
52.582654
20
32.906989
30
0
11
0.378778588461339
21
0.647322779549148
31
0
210
0
220
0
230
1
40
0.141921
41
1.67349711052474
42
1.8480300357242
0
ELLIPSE
5
1DD
100
AcDbEntity
8
1
62
256
6
ByLayer
370
-1
48
1
60
0
100
AcDbEllipse
10
52.582654
20
32.906989
30
0
11
0.233290113117002
21
0.712794306319752
31
0
210
0
220
0
230
1
40
0.196995
41
0.681804793544341
42
1.81175267814247
0
ELLIPSE
5
1DE
100
AcDbEntity
8
1
62
256
6
ByLayer
370
-1
48
1
60
0
100
AcDbEllipse
10
52.582654
20
32.906989
30
0
11
0.212385396647172
21
0.719299967531643
31
0
210
0
220
0
230
1
40
0.161998
41
0.676562815569681
42
1.63649390416655
0
ELLIPSE
5
1DF
100
AcDbEntity
8
1
62
256
6
ByLayer
370
-1
48
1
60
0
100
AcDbEllipse
10
54.082802
20
38.640572
30
0
11
-0.589672763894407
21
5.95673625340889
31
0
210
0
220
0
230
1
40
0.984662
41
2.76117149443719
42
3.07933192713186
0
ELLIPSE
5
1E0
100
AcDbEntity
8
1
62
256
6
ByLayer
370
-1
48
1
60
0
100
AcDbEllipse
10
54.13833
20
38.646068
30
0
11
0.529151094678961
21
-5.34536051553101
31
0
210
0
220
0
230
1
40
0.984662
41
-0.380421159152606
42
-0.0622607264579283
0
ELLIPSE
5
1E1
100
AcDbEntity
8
1
62
256
6
ByLayer
370
-1
48
1
60
0
100
AcDbEllipse
10
54.436603
20
32.67214
30
0
11
-0.0265767931705793
21
0.749528968129163
31
0
210
0
220
0
230
1
40
0.174133
41
0.621889571214167
42
1.58182065981105
0
ELLIPSE
5
1E2
100
AcDbEntity
8
1
62
256
6
ByLayer
370
-1
48
1
60
0
100
AcDbEllipse
10
58.212835
20
33.585616
30
0
11
-0.0581462248231529
21
-0.196580814269387
31
0
210
0
220
0
230
1
40
0.525366
41
0.739898180572423
42
2.23700876650951
0
ELLIPSE
5
1E3
100
AcDbEntity
8
1
62
256
6
ByLayer
370
-1
48
1
60
0
100
AcDbEllipse
10
58.221632
20
33.583042
30
0
11
-0.0569865995697243
21
-0.196920104279578
31
0
210
0
220
0
230
1
40
0.520662
41
0.736815573718458
42
2.22377286549651
0
ELLIPSE
5
1E4
100
AcDbEntity
8
1
62
256
6
ByLayer
370
-1
48
1
60
0
100
AcDbEllipse
10
56.603648
20
34.88667
30
0
11
0.164065786984745
21
-0.122912235115452
31
0
210
0
220
0
230
1
40
0.73407
41
1.39775006092694
42
2.62821222819492
0
ELLIPSE
5
1E5
100
AcDbEntity
8
1
62
256
6
ByLayer
370
-1
48
1
60
0
100
AcDbEllipse
10
56.675486
20
35.088498
30
0
11
0.204832711838611
21
-0.00828010633026313
31
0
210
0
220
0
230
1
40
0.597289
41
0.986412609208126
42
1.88394405924692
0
ELLIPSE
5
1E6
100
AcDbEntity
8
1
62
256
6
ByLayer
370
-1
48
1
60
0
100
AcDbEllipse
10
57.944876
20
36.30121
30
0
11
-0.135060805906664
21
0.154219255308286
31
0
210
0
220
0
230
1
40
0.530608
41
0.477477109125211
42
1.70793927639308
0
ELLIPSE
5
1E7
100
AcDbEntity
8
1
62
256
6
ByLayer
370
-1
48
1
60
0
100
AcDbEllipse
10
57.714809
20
36.184629
30
0
11
-0.0391603218264137
21
0.201224921901964
31
0
210
0
220
0
230
1
40
0.417266
41
1.06581627605474
42
1.96334772609348
0
ELLIPSE
5
1E8
100
AcDbEntity
8
1
62
256
6
ByLayer
370
-1
48
1
60
0
100
AcDbEllipse
10
50.554211
20
35.979773
30
0
11
0.0279745547184132
21
-0.0960074178816747
31
0
210
0
220
0
230
1
40
0.171587
41
1.53872182381462
42
2.23685352461215
0
ELLIPSE
5
1E9
100
AcDbEntity
8
1
62
256
6
ByLayer
370
-1
48
1
60
0
100
AcDbEllipse
10
49.953794
20
35.804824
30
0
11
-0.0279745547181485
21
0.0960074178817518
31
0
210
0
220
0
230
1
40
0.171587
41
-1.60287082977481
42
-0.904739128977163
0
ELLIPSE
5
1EA
100
AcDbEntity
8
1
62
256
6
ByLayer
370
-1
48
1
60
0
100
AcDbEllipse
10
50.677885
20
35.91726
30
0
11
-0.08021329413433
21
-0.0597145496853109
31
0
210
0
220
0
230
1
40
0.090914
41
1.72089095133516
42
3.02988789032599
0
ELLIPSE
5
1EB
100
AcDbEntity
8
1
62
256
6
ByLayer
370
-1
48
1
60
0
100
AcDbEllipse
10
49.97739
20
35.654163
30
0
11
-0.0505038117948474
21
-0.0863097039398852
31
0
210
0
220
0
230
1
40
0.141921
41
0.713566021928281
42
1.67349711052472
0
ELLIPSE
5
1EC
100
AcDbEntity
8
1
62
256
6
ByLayer
370
-1
48
1
60
0
100
AcDbEllipse
10
56.16622
20
34.529009
30
0
11
0.0428840397794431
21
-0.090338027055029
31
0
210
0
220
0
230
1
40
0.164504
41
1.51183251964727
42
2.82082945864298
0
ELLIPSE
5
1ED
100
AcDbEntity
8
1
62
256
6
ByLayer
370
-1
48
1
60
0
100
AcDbEllipse
10
51.914906
20
34.520432
30
0
11
-0.0505038117948474
21
-0.0863097039398852
31
0
210
0
220
0
230
1
40
0.141921
41
0.713566021928142
42
1.67349711052479
0
ELLIPSE
5
1EE
100
AcDbEntity
8
1
62
256
6
ByLayer
370
-1
48
1
60
0
100
AcDbEllipse
10
56.30417
20
34.525346
30
0
11
-0.0699045413983562
21
-0.0715077274977013
31
0
210
0
220
0
230
1
40
0.113154
41
1.70485784680983
42
2.40298954760747
0
ELLIPSE
5
1EF
100
AcDbEntity
8
1
62
256
6
ByLayer
370
-1
48
1
60
0
100
AcDbEllipse
10
54.4337
20
33.883314
30
0
11
0.0035435724227466
21
-0.099937195750555
31
0
210
0
220
0
230
1
40
0.174133
41
0.621889571213777
42
1.58182065981101
0
ELLIPSE
5
1F0
100
AcDbEntity
8
1
62
256
6
ByLayer
370
-1
48
1
60
0
100
AcDbEllipse
10
56.755187
20
34.084441
30
0
11
-0.0699045413983562
21
-0.0715077274977013
31
0
210
0
220
0
230
1
40
0.113154
41
1.7048578468099
42
2.40298954760747
0
ELLIPSE
5
1F1
100
AcDbEntity
8
1
62
256
6
ByLayer
370
-1
48
1
60
0
100
AcDbEllipse
10
56.665447
20
33.962447
30
0
11
0.0035435724227466
21
-0.099937195750555
31
0
210
0
220
0
230
1
40
0.174133
41
0.621889571213819
42
1.58182065981101
0
ELLIPSE
5
1F2
100
AcDbEntity
8
1
62
256
6
ByLayer
370
-1
48
1
60
0
100
AcDbEllipse
10
46.526182
20
44.31453
30
0
11
-0.154902097995599
21
-0.499601224814034
31
0
210
0
220
0
230
1
40
0.960584
41
-2.33004026972741
42
-1.28949687605988
0
ELLIPSE
5
1F3
100
AcDbEntity
8
1
62
256
6
ByLayer
370
-1
48
1
60
0
100
AcDbEllipse
10
52.189159
20
29.040777
30
0
11
-0.0512257656543606
21
0.517470695724043
31
0
210
0
220
0
230
1
40
0.984662
41
1.48028317282337
42
2.52082656649366
0
ELLIPSE
5
1F4
100
AcDbEntity
8
1
62
256
6
ByLayer
370
-1
48
1
60
0
100
AcDbEllipse
10
56.676982
20
30.511208
30
0
11
-0.75388323138799
21
-0.427274540316431
31
0
210
0
220
0
230
1
40
0.061745
41
-1.43228535018743
42
-1.25775242418164
0
ELLIPSE
5
1F5
100
AcDbEntity
8
1
62
256
6
ByLayer
370
-1
48
1
60
0
100
AcDbEllipse
10
50.670313
20
31.819378
30
0
11
-0.0197022175593696
21
0.199027190663095
31
0
210
0
220
0
230
1
40
0.984662
41
2.7211194125097
42
3.14157888877628
0
ELLIPSE
5
1F6
100
AcDbEntity
8
1
62
256
6
ByLayer
370
-1
48
1
60
0
100
AcDbEllipse
10
53.181976
20
29.10937
30
0
11
-0.216628510309348
21
0.475166136935683
31
0
210
0
220
0
230
1
40
0.958576
41
2.20447064127547
42
-3.03817127223343
0
ELLIPSE
5
1F7
100
AcDbEntity
8
1
62
256
6
ByLayer
370
-1
48
1
60
0
100
AcDbEllipse
10
48.745594
20
44.184797
30
0
11
-0.0197022175593696
21
0.199027190663095
31
0
210
0
220
0
230
1
40
0.984662
41
0.426431464100443
42
1.3791511410226
0
ELLIPSE
5
1F8
100
AcDbEntity
8
1
62
256
6
ByLayer
370
-1
48
1
60
0
100
AcDbEllipse
10
46.569426
20
44.339923
30
0
11
-0.154902098003287
21
-0.499601224810953
31
0
210
0
220
0
230
1
40
0.960584
41
2.91260164379657
42
-2.33004026971342
0
ELLIPSE
5
1F9
100
AcDbEntity
8
1
62
256
6
ByLayer
370
-1
48
1
60
0
100
AcDbEllipse
10
45.57676
20
44.220544
30
0
11
-0.0512257656543606
21
0.517470695724043
31
0
210
0
220
0
230
1
40
0.984662
41
0.42643146410047
42
1.46697485777083
0
ELLIPSE
5
1FA
100
AcDbEntity
8
1
62
256
6
ByLayer
370
-1
48
1
60
0
100
AcDbEllipse
10
49.175691
20
44.006149
30
0
11
-0.0744721625004078
21
-0.24019289654379
31
0
210
0
220
0
230
1
40
0.960584
41
0.811552383872067
42
1.76427206079417
0
ELLIPSE
5
1FB
100
AcDbEntity
8
1
62
256
6
ByLayer
370
-1
48
1
60
0
100
AcDbEllipse
10
48.27626
20
43.917112
30
0
11
0.0246277719492116
21
-0.248783988328867
31
0
210
0
220
0
230
1
40
0.984662
41
0.977951918309087
42
1.37915114102266
0
ELLIPSE
5
1FC
100
AcDbEntity
8
1
62
256
6
ByLayer
370
-1
48
1
60
0
100
AcDbEllipse
10
48.902665
20
43.845829
30
0
11
-0.0744721625002552
21
-0.240192896544808
31
0
210
0
220
0
230
1
40
0.960584
41
-0.22899100979902
42
0.811552383869212
0
ELLIPSE
5
1FD
100
AcDbEntity
8
1
62
256
6
ByLayer
370
-1
48
1
60
0
100
AcDbEllipse
10
54.228705
20
38.655015
30
0
11
0.193919076328091
21
-1.95892512410149
31
0
210
0
220
0
230
1
40
0.984662
41
1.47362901529707
42
2.5141694949007
0
ELLIPSE
5
1FE
100
AcDbEntity
8
1
62
256
6
ByLayer
370
-1
48
1
60
0
100
AcDbEllipse
10
53.950909
20
38.627515
30
0
11
-0.139491700320335
21
1.4091125098947
31
0
210
0
220
0
230
1
40
0.984662
41
-2.18823387809452
42
-1.1476933984909
0
ELLIPSE
5
1FF
100
AcDbEntity
8
1
62
256
6
ByLayer
370
-1
48
1
60
0
100
AcDbEllipse
10
54.173322
20
38.649532
30
0
11
0.139491700320336
21
-1.4091125098947
31
0
210
0
220
0
230
1
40
0.984662
41
2.93634691015985
42
-3.1306815331555
0
ELLIPSE
5
200
100
AcDbEntity
8
1
62
256
6
ByLayer
370
-1
48
1
60
0
100
AcDbEllipse
10
53.950909
20
38.627515
30
0
11
-0.139491700320335
21
1.4091125098947
31
0
210
0
220
0
230
1
40
0.984662
41
1.17753040921202
42
1.7123193845814
0
ELLIPSE
5
201
100
AcDbEntity
8
1
62
256
6
ByLayer
370
-1
48
1
60
0
100
AcDbEllipse
10
53.950909
20
38.627515
30
0
11
0.139491700320334
21
-1.4091125098947
31
0
210
0
220
0
230
1
40
0.984662
41
-3.13068153315552
42
-2.56054477153638
0
ELLIPSE
5
202
100
AcDbEntity
8
1
62
256
6
ByLayer
370
-1
48
1
60
0
100
AcDbEllipse
10
54.228705
20
38.655015
30
0
11
0.193919076328091
21
-1.95892512410149
31
0
210
0
220
0
230
1
40
0.984662
41
2.5141694949007
42
-2.70850411789635
0
ELLIPSE
5
203
100
AcDbEntity
8
1
62
256
6
ByLayer
370
-1
48
1
60
0
100
AcDbEllipse
10
53.139039
20
37.214226
30
0
11
-0.0325086589729595
21
0.328394864594104
31
0
210
0
220
0
230
1
40
0.984662
41
-2.68961876492365
42
-2.43948678553538
0
ELLIPSE
5
204
100
AcDbEntity
8
1
62
256
6
ByLayer
370
-1
48
1
60
0
100
AcDbEllipse
10
54.228705
20
38.655015
30
0
11
0.193919076328091
21
-1.95892512410149
31
0
210
0
220
0
230
1
40
0.984662
41
-0.627423158689078
42
0.433088535693452
0
ELLIPSE
5
205
100
AcDbEntity
8
1
62
256
6
ByLayer
370
-1
48
1
60
0
100
AcDbEllipse
10
53.130602
20
40.040804
30
0
11
-0.0325086589729595
21
0.328394864594104
31
0
210
0
220
0
230
1
40
0.984662
41
-0.896440491050039
42
-0.464930579114049
0
ELLIPSE
5
206
100
AcDbEntity
8
1
62
256
6
ByLayer
370
-1
48
1
60
0
100
AcDbEllipse
10
53.944285
20
40.84668
30
0
11
-0.0813701585201958
21
0.821982297438575
31
0
210
0
220
0
230
1
40
0.984662
41
2.24515216253975
42
2.85843812004663
0
ELLIPSE
5
207
100
AcDbEntity
8
1
62
256
6
ByLayer
370
-1
48
1
60
0
100
AcDbEllipse
10
54.762779
20
40.040804
30
0
11
-0.0325086589729595
21
0.328394864594104
31
0
210
0
220
0
230
1
40
0.984662
41
-1.92955846579779
42
-0.422767543732136
0
ELLIPSE
5
208
100
AcDbEntity
8
1
62
256
6
ByLayer
370
-1
48
1
60
0
100
AcDbEllipse
10
53.950909
20
38.627515
30
0
11
-0.139491700320335
21
1.4091125098947
31
0
210
0
220
0
230
1
40
0.984662
41
-2.9749863829689
42
-2.18823387809452
0
ELLIPSE
5
209
100
AcDbEntity
8
1
62
256
6
ByLayer
370
-1
48
1
60
0
100
AcDbEllipse
10
54.173322
20
38.649532
30
0
11
0.139491700320336
21
-1.4091125098947
31
0
210
0
220
0
230
1
40
0.984662
41
-0.205245743429882
42
0.0109111204342587
0
ELLIPSE
5
20A
100
AcDbEntity
8
1
62
256
6
ByLayer
370
-1
48
1
60
0
100
AcDbEllipse
10
54.228705
20
38.655015
30
0
11
0.193919076328091
21
-1.95892512410149
31
0
210
0
220
0
230
1
40
0.984662
41
0.433088535693452
42
1.47362901529707
0
ELLIPSE
5
20B
100
AcDbEntity
8
1
62
256
6
ByLayer
370
-1
48
1
60
0
100
AcDbEllipse
10
55.863378
20
39.741882
30
0
11
-0.0813701585201958
21
0.821982297438575
31
0
210
0
220
0
230
1
40
0.984662
41
1.99389925509888
42
2.77576432240577
0
ELLIPSE
5
20C
100
AcDbEntity
8
1
62
256
6
ByLayer
370
-1
48
1
60
0
100
AcDbEllipse
10
53.950909
20
38.627515
30
0
11
-0.139491700320335
21
1.4091125098947
31
0
210
0
220
0
230
1
40
0.984662
41
2.36924401397462
42
2.9363469101599
0
ELLIPSE
5
20D
100
AcDbEntity
8
1
62
256
6
ByLayer
370
-1
48
1
60
0
100
AcDbEllipse
10
55.870031
20
37.513149
30
0
11
-0.0813701585201958
21
0.821982297438575
31
0
210
0
220
0
230
1
40
0.984662
41
0.953358775495282
42
1.73522384280214
0
ELLIPSE
5
20E
100
AcDbEntity
8
1
62
256
6
ByLayer
370
-1
48
1
60
0
100
AcDbEllipse
10
54.228705
20
38.655015
30
0
11
0.193919076328091
21
-1.95892512410149
31
0
210
0
220
0
230
1
40
0.984662
41
-2.70850411789635
42
-1.66796363829271
0
ELLIPSE
5
20F
100
AcDbEntity
8
1
62
256
6
ByLayer
370
-1
48
1
60
0
100
AcDbEllipse
10
53.957533
20
36.40835
30
0
11
-0.0813701585201958
21
0.821982297438575
31
0
210
0
220
0
230
1
40
0.984662
41
0.0888199105475142
42
0.702105868054388
0
ELLIPSE
5
210
100
AcDbEntity
8
1
62
256
6
ByLayer
370
-1
48
1
60
0
100
AcDbEllipse
10
53.950909
20
38.627515
30
0
11
-0.139491700320335
21
1.4091125098947
31
0
210
0
220
0
230
1
40
0.984662
41
-1.1476933984909
42
-0.205245743429918
0
ELLIPSE
5
211
100
AcDbEntity
8
1
62
256
6
ByLayer
370
-1
48
1
60
0
100
AcDbEllipse
10
54.228705
20
38.655015
30
0
11
0.193919076328091
21
-1.95892512410149
31
0
210
0
220
0
230
1
40
0.984662
41
-1.66796363829271
42
-0.627423158689078
0
ELLIPSE
5
212
100
AcDbEntity
8
1
62
256
6
ByLayer
370
-1
48
1
60
0
100
AcDbEllipse
10
55.863378
20
39.741882
30
0
11
-0.0813701585201958
21
0.821982297438575
31
0
210
0
220
0
230
1
40
0.984662
41
1.21203418779203
42
1.99389925509888
0
ELLIPSE
5
213
100
AcDbEntity
8
1
62
256
6
ByLayer
370
-1
48
1
60
0
100
AcDbEllipse
10
55.564517
20
38.627515
30
0
11
-0.0325086589729595
21
0.328394864594104
31
0
210
0
220
0
230
1
40
0.984662
41
-2.97009894540145
42
-0.365828331183958
0
ELLIPSE
5
214
100
AcDbEntity
8
1
62
256
6
ByLayer
370
-1
48
1
60
0
100
AcDbEllipse
10
55.870031
20
37.513149
30
0
11
-0.0813701585201958
21
0.821982297438575
31
0
210
0
220
0
230
1
40
0.984662
41
0.171493708188409
42
0.953358775495282
0
ELLIPSE
5
215
100
AcDbEntity
8
1
62
256
6
ByLayer
370
-1
48
1
60
0
100
AcDbEllipse
10
54.771216
20
37.214226
30
0
11
-0.0325086589729595
21
0.328394864594104
31
0
210
0
220
0
230
1
40
0.984662
41
-2.72257122584912
42
-1.40636881078762
0
ELLIPSE
5
216
100
AcDbEntity
8
1
62
256
6
ByLayer
370
-1
48
1
60
0
100
AcDbEllipse
10
45.058231
20
44.828296
30
0
11
1.96849965818183
21
-0.00116005943422346
31
0
210
0
220
0
230
1
40
0.053469
41
-0.432657031241974
42
-0.37146942560557
0
ELLIPSE
5
217
100
AcDbEntity
8
1
62
256
6
ByLayer
370
-1
48
1
60
0
100
AcDbEllipse
10
45.058231
20
44.828296
30
0
11
1.96849965818183
21
-0.00116005943422346
31
0
210
0
220
0
230
1
40
0.053469
41
-1.41850830097582
42
-1.38661682772161
0
ELLIPSE
5
218
100
AcDbEntity
8
1
62
256
6
ByLayer
370
-1
48
1
60
0
100
AcDbEllipse
10
45.058231
20
44.828296
30
0
11
1.96849965818183
21
-0.00116005943422346
31
0
210
0
220
0
230
1
40
0.053469
41
2.77012322798444
42
-2.46586452799863
0
ELLIPSE
5
219
100
AcDbEntity
8
1
62
256
6
ByLayer
370
-1
48
1
60
0
100
AcDbEllipse
10
45.058231
20
44.828296
30
0
11
1.96849965818183
21
-0.00116005943422346
31
0
210
0
220
0
230
1
40
0.053469
41
0.675728125591165
42
1.72292567678769
0
ELLIPSE
5
21A
100
AcDbEntity
8
1
62
256
6
ByLayer
370
-1
48
1
60
0
100
AcDbEllipse
10
45.058231
20
44.828296
30
0
11
1.96849965818183
21
-0.00116005943422346
31
0
210
0
220
0
230
1
40
0.053469
41
1.72292567678769
42
2.77012322798444
0
ELLIPSE
5
21B
100
AcDbEntity
8
1
62
256
6
ByLayer
370
-1
48
1
60
0
100
AcDbEllipse
10
45.058231
20
44.828296
30
0
11
1.96849965818183
21
-0.00116005943422346
31
0
210
0
220
0
230
1
40
0.053469
41
-2.46586452799863
42
-1.41866697680212
0
ELLIPSE
5
21C
100
AcDbEntity
8
1
62
256
6
ByLayer
370
-1
48
1
60
0
100
AcDbEllipse
10
45.058231
20
44.828296
30
0
11
1.96849965818183
21
-0.00116005943422346
31
0
210
0
220
0
230
1
40
0.053469
41
-0.37146942560557
42
0.675728125591165
0
ELLIPSE
5
21D
100
AcDbEntity
8
1
62
256
6
ByLayer
370
-1
48
1
60
0
100
AcDbEllipse
10
45.057464
20
43.530156
30
0
11
-4.17499927503646
21
0.00246037497479402
31
0
210
0
220
0
230
1
40
0.053469
41
1.2969974304604
42
1.57168767873664
0
ELLIPSE
5
21E
100
AcDbEntity
8
1
62
256
6
ByLayer
370
-1
48
1
60
0
100
AcDbEllipse
10
45.058231
20
44.828296
30
0
11
-2.14999962666549
21
0.00126701944809752
31
0
210
0
220
0
230
1
40
0.053469
41
-1.57090824447374
42
0
0
ELLIPSE
5
21F
100
AcDbEntity
8
1
62
256
6
ByLayer
370
-1
48
1
60
0
100
AcDbEllipse
10
45.058231
20
44.828296
30
0
11
-2.14999962666549
21
0.00126701944809752
31
0
210
0
220
0
230
1
40
0.053469
41
0
42
1.72893629346615
0
ELLIPSE
5
220
100
AcDbEntity
8
1
62
256
6
ByLayer
370
-1
48
1
60
0
100
AcDbEllipse
10
45.058231
20
44.828296
30
0
11
-2.14999962666549
21
0.00126701944809752
31
0
210
0
220
0
230
1
40
0.053469
41
2.57689459473711
42
-1.57090824447367
0
ELLIPSE
5
221
100
AcDbEntity
8
1
62
256
6
ByLayer
370
-1
48
1
60
0
100
AcDbEllipse
10
54.020358
20
38.63439
30
0
11
0.352177138873726
21
-3.5576110331028
31
0
210
0
220
0
230
1
40
0.984662
41
-3.14154131716743
42
-0.100197928696288
0
ELLIPSE
5
222
100
AcDbEntity
8
1
62
256
6
ByLayer
370
-1
48
1
60
0
100
AcDbEllipse
10
54.020358
20
38.63439
30
0
11
0.352177138873726
21
-3.5576110331028
31
0
210
0
220
0
230
1
40
0.984662
41
-0.100197928696274
42
0
0
ELLIPSE
5
223
100
AcDbEntity
8
1
62
256
6
ByLayer
370
-1
48
1
60
0
100
AcDbEllipse
10
54.228705
20
38.655015
30
0
11
0.23642661071243
21
-2.38832628795711
31
0
210
0
220
0
230
1
40
0.984662
41
0
42
6.28318530717959
0
ELLIPSE
5
224
100
AcDbEntity
8
1
62
256
6
ByLayer
370
-1
48
1
60
0
100
AcDbEllipse
10
54.146279
20
38.646855
30
0
11
0.352177138873726
21
-3.5576110331028
31
0
210
0
220
0
230
1
40
0.984662
41
0
42
6.28318530717959
0
POINT
5
41
100
AcDbEntity
8
80
62
256
6
ByLayer
370
-1
48
1
60
0
100
AcDbPoint
10
0
20
0
30
0
39
0
210
0
220
0
230
1
50
360
0
POINT
5
43
100
AcDbEntity
8
81
62
256
6
ByLayer
370
-1
48
1
60
0
100
AcDbPoint
10
65
20
45
30
0
39
0
210
0
220
0
230
1
50
360
0
POINT
5
45
100
AcDbEntity
8
2
62
256
6
ByLayer
370
-1
48
1
60
0
100
AcDbPoint
10
65
20
45
30
0
39
0
210
0
220
0
230
1
50
360
0
SPLINE
5
225
100
AcDbEntity
8
SK1
62
256
6
ByLayer
370
-1
48
1
60
0
100
AcDbSpline
70
4
71
3
72
13
73
9
40
0
40
0
40
0
40
0
40
0.239456135763293
40
0.36835972193326
40
0.499998984020783
40
0.63163841528349
40
0.760542467778012
40
1
40
1
40
1
40
1
41
1
10
-2.19999999999999
20
-22.0200986606755
30
0
41
1
10
-2.19909198642273
20
-21.9940411845603
30
0
41
1
10
-2.19103284106944
20
-21.9566686002239
30
0
41
1
10
-2.16563592203343
20
-21.9104494263859
30
0
41
1
10
-2.13886378679268
20
-21.8791678725254
30
0
41
1
10
-2.10627712749874
20
-21.854000502323
30
0
41
1
10
-2.05884064234081
20
-21.8309566998545
30
0
41
1
10
-2.02111030873027
20
-21.8247844448324
30
0
41
1
10
-1.99503997793928
20
-21.825186084775
30
0
0
SPLINE
5
226
100
AcDbEntity
8
SK1
62
256
6
ByLayer
370
-1
48
1
60
0
100
AcDbSpline
70
4
71
3
72
13
73
9
40
0
40
0
40
0
40
0
40
0.23945753215315
40
0.368361584623414
40
0.500001015876472
40
0.631640277971597
40
0.760543864164749
40
1
40
1
40
1
40
1
41
1
10
-1.99503997793928
20
21.8251861015554
30
0
41
1
10
-2.02111030873166
20
21.8247844616134
30
0
41
1
10
-2.05884064234348
20
21.8309567166392
30
0
41
1
10
-2.10627712750085
20
21.854000519123
30
0
41
1
10
-2.13886378679464
20
21.8791678893422
30
0
41
1
10
-2.16563592203494
20
21.9104494432232
30
0
41
1
10
-2.19103284107058
20
21.956668617092
30
0
41
1
10
-2.19909198642387
20
21.994041201451
30
0
41
1
10
-2.19999999999999
20
22.0200986775813
30
0
0
SPLINE
5
227
100
AcDbEntity
8
SK1
62
256
6
ByLayer
370
-1
48
1
60
0
100
AcDbSpline
70
4
71
2
72
6
73
3
40
0
40
0
40
0
40
1
40
1
40
1
41
1
10
-36.5
20
-21.1521177089669
30
0
41
1
10
-19.3499999999701
20
-21.5828554470541
30
0
41
1
10
-2.19999999999999
20
-22.0135928951589
30
0
0
SPLINE
5
228
100
AcDbEntity
8
SK1
62
256
6
ByLayer
370
-1
48
1
60
0
100
AcDbSpline
70
4
71
2
72
6
73
3
40
0
40
0
40
0
40
1
40
1
40
1
41
1
10
-2.19999999999999
20
22.0135927638551
30
0
41
1
10
-19.3499999999869
20
21.5828539542124
30
0
41
1
10
-36.5
20
21.1521149580209
30
0
0
SPLINE
5
229
100
AcDbEntity
8
SK1
62
256
6
ByLayer
370
-1
48
1
60
0
100
AcDbSpline
70
4
71
2
72
6
73
3
40
0
40
0
40
0
40
1
40
1
40
1
41
1
10
-1.99503997793928
20
-21.8251812553753
30
0
41
1
10
-1.19500843340728
20
-21.8452807024746
30
0
41
1
10
-0.394976888875277
20
-21.8653801495793
30
0
0
SPLINE
5
22A
100
AcDbEntity
8
SK1
62
256
6
ByLayer
370
-1
48
1
60
0
100
AcDbSpline
70
4
71
2
72
6
73
3
40
0
40
0
40
0
40
1
40
1
40
1
41
1
10
-0.394976888875277
20
21.8653802062992
30
0
41
1
10
-1.19500843340728
20
21.8452807593862
30
0
41
1
10
-1.99503997793928
20
21.8251813124779
30
0
0
SPLINE
5
22B
100
AcDbEntity
8
SK1
62
256
6
ByLayer
370
-1
48
1
60
0
100
AcDbSpline
70
4
71
2
72
6
73
3
40
0
40
0
40
0
40
1
40
1
40
1
41
1
10
-38
20
-20.289405225553
30
0
41
1
10
-37.2500000000012
20
-20.7223540793631
30
0
41
1
10
-36.5
20
-21.1553029418638
30
0
0
SPLINE
5
22C
100
AcDbEntity
8
SK1
62
256
6
ByLayer
370
-1
48
1
60
0
100
AcDbSpline
70
4
71
2
72
6
73
3
40
0
40
0
40
0
40
1
40
1
40
1
41
1
10
-36.5
20
21.155302724897
30
0
41
1
10
-37.2500000000012
20
20.7223538609616
30
0
41
1
10
-38
20
20.2894050057151
30
0
0
SPLINE
5
22D
100
AcDbEntity
8
SK1
62
256
6
ByLayer
370
-1
48
1
60
0
100
AcDbSpline
70
4
71
3
72
18
73
14
40
0
40
0
40
0
40
0
40
0.0672382563215554
40
0.0811096257885339
40
0.0934387461551844
40
0.10468022253315
40
0.116011636982839
40
0.129170963688488
40
0.14584209113507
40
0.194578127712937
40
0.367894501516736
40
0.735617522922154
40
1
40
1
40
1
40
1
41
1
10
-0.394976888875277
20
-21.8653849865467
30
0
41
1
10
-0.385367724925317
20
-21.8650589764544
30
0
41
1
10
-0.370769899633302
20
-21.8668245623102
30
0
41
1
10
-0.350602834672031
20
-21.8713724905555
30
0
41
1
10
-0.341354641125889
20
-21.8739511590897
30
0
41
1
10
-0.331761818972836
20
-21.8771456376099
30
0
41
1
10
-0.322000393797538
20
-21.8809836517657
30
0
41
1
10
-0.312675854503226
20
-21.8852359586887
30
0
41
1
10
-0.299158508391656
20
-21.8922659040287
30
0
41
1
10
-0.274228940510625
20
-21.9083875411195
30
0
41
1
10
-0.24661438820695
20
-21.9342372497571
30
0
41
1
10
-0.2247179152657
20
-21.9626598520358
30
0
41
1
10
-0.216050180133948
20
-21.9783575508399
30
0
41
1
10
-0.214299796343113
20
-21.9837864939934
30
0
0
SPLINE
5
22E
100
AcDbEntity
8
SK1
62
256
6
ByLayer
370
-1
48
1
60
0
100
AcDbSpline
70
4
71
3
72
21
73
17
40
0
40
0
40
0
40
0
40
0.228918380244403
40
0.519567862881993
40
0.686499133490117
40
0.728866425682776
40
0.742084405934426
40
0.747218466939511
40
0.75168906902335
40
0.755838002852708
40
0.76003650204894
40
0.76460070399263
40
0.769743599359952
40
0.797552158202929
40
0.886046400205926
40
1
40
1
40
1
40
1
41
1
10
-0.207411331258953
20
22.0044787047945
30
0
41
1
10
-0.208318189389644
20
22.001289229706
30
0
41
1
10
-0.213303269205767
20
21.9901220666371
30
0
41
1
10
-0.226159555477835
20
21.9654154799143
30
0
41
1
10
-0.244026724966773
20
21.9377710152598
30
0
41
1
10
-0.265879117946582
20
21.9152361581686
30
0
41
1
10
-0.277404558589097
20
21.9056658887585
30
0
41
1
10
-0.283401057762063
20
21.9011770953515
30
0
41
1
10
-0.287668636036131
20
21.8981716907254
30
0
41
1
10
-0.292059582382024
20
21.8952686846974
30
0
41
1
10
-0.296473357627605
20
21.8925343095178
30
0
41
1
10
-0.300857602501225
20
21.8899891408788
30
0
41
1
10
-0.311373677740875
20
21.8842840996068
30
0
41
1
10
-0.335101334244342
20
21.874157081924
30
0
41
1
10
-0.362447610698183
20
21.8680409475183
30
0
41
1
10
-0.385119537986839
20
21.8648047289598
30
0
41
1
10
-0.394976888875277
20
21.865385003355
30
0
0
SPLINE
5
22F
100
AcDbEntity
8
1
62
256
6
ByLayer
370
-1
48
1
60
0
100
AcDbSpline
70
4
71
3
72
16
73
12
40
0
40
0
40
0
40
0
40
0.463423600832241
40
0.463423600832241
40
0.646243952932837
40
0.646243952932837
40
0.831657283224505
40
0.831657283224505
40
0.947504344290848
40
0.947504344290848
40
1
40
1
40
1
40
1
41
1
10
10.1056624327026
20
9.86941261896621
30
0
41
1
10
10.1343390747265
20
9.76458357826289
30
0
41
1
10
10.1736499876091
20
9.66039292789938
30
0
41
1
10
10.2546180633468
20
9.52957658281042
30
0
41
1
10
10.2809130191141
20
9.49380155568073
30
0
41
1
10
10.3420137796675
20
9.42941539787637
30
0
41
1
10
10.3777400094532
20
9.40014891155712
30
0
41
1
10
10.4433516536449
20
9.36662118733787
30
0
41
1
10
10.4710402024013
20
9.35698328824239
30
0
41
1
10
10.5123223625249
20
9.35029954873107
30
0
41
1
10
10.5255210031399
20
9.34922131452504
30
0
41
1
10
10.5386751345948
20
9.34922131452504
30
0
0
SPLINE
5
230
100
AcDbEntity
8
1
62
256
6
ByLayer
370
-1
48
1
60
0
100
AcDbSpline
70
4
71
3
72
16
73
12
40
0
40
0
40
0
40
0
40
0.113316224833594
40
0.113316224833594
40
0.252990411571577
40
0.252990411571577
40
0.473309013928351
40
0.473309013928351
40
0.896716357718897
40
0.896716357718897
40
1
40
1
40
1
40
1
41
1
10
10.5386751345948
20
30.0805927603169
30
0
41
1
10
10.5105874404281
20
30.0805927603169
30
0
41
1
10
10.482150642237
20
30.0790101689566
30
0
41
1
10
10.4232029654275
20
30.0726712338969
30
0
41
1
10
10.3927526278712
20
30.0672275748685
30
0
41
1
10
10.3230856363398
20
30.0506647867052
30
0
41
1
10
10.2871733492349
20
30.0378702684275
30
0
41
1
10
10.1985362549164
20
29.9980833386355
30
0
41
1
10
10.1576291602469
20
29.967975934908
30
0
41
1
10
10.1190965262402
20
29.9294196064672
30
0
41
1
10
10.112102816203
20
29.9217223689309
30
0
41
1
10
10.1056624327025
20
29.9139548464691
30
0
0
SPLINE
5
231
100
AcDbEntity
8
1
62
256
6
ByLayer
370
-1
48
1
60
0
100
AcDbSpline
70
4
71
3
72
16
73
12
40
0
40
0
40
0
40
0
40
0.113316224833596
40
0.113316224833596
40
0.252990411571581
40
0.252990411571581
40
0.473309013928343
40
0.473309013928343
40
0.896716357718895
40
0.896716357718895
40
1
40
1
40
1
40
1
41
1
10
13.4613248654052
20
-30.0805927603169
30
0
41
1
10
13.4894125595718
20
-30.0805927603169
30
0
41
1
10
13.517849357763
20
-30.0790101689567
30
0
41
1
10
13.5767970345725
20
-30.0726712338969
30
0
41
1
10
13.6072473721288
20
-30.0672275748685
30
0
41
1
10
13.6769143636602
20
-30.0506647867053
30
0
41
1
10
13.7128266507651
20
-30.0378702684276
30
0
41
1
10
13.8014637450836
20
-29.9980833386355
30
0
41
1
10
13.842370839753
20
-29.967975934908
30
0
41
1
10
13.8809034737598
20
-29.9294196064672
30
0
41
1
10
13.8878971837969
20
-29.9217223689309
30
0
41
1
10
13.8943375672975
20
-29.9139548464691
30
0
0
SPLINE
5
232
100
AcDbEntity
8
1
62
256
6
ByLayer
370
-1
48
1
60
0
100
AcDbSpline
70
4
71
3
72
16
73
12
40
0
40
0
40
0
40
0
40
0.463423600832241
40
0.463423600832241
40
0.646243952932834
40
0.646243952932834
40
0.831657283224497
40
0.831657283224497
40
0.947504344290847
40
0.947504344290847
40
1
40
1
40
1
40
1
41
1
10
13.8943375672974
20
29.9139548464691
30
0
41
1
10
13.8656609252734
20
29.9485407466772
30
0
41
1
10
13.8263500123909
20
29.982269090612
30
0
41
1
10
13.7453819366532
20
30.0239686896252
30
0
41
1
10
13.7190869808859
20
30.0352936109065
30
0
41
1
10
13.6579862203325
20
30.0555697561518
30
0
41
1
10
13.6222599905467
20
30.0647246060481
30
0
41
1
10
13.556648346355
20
30.0751823136668
30
0
41
1
10
13.5289597975987
20
30.0781795790239
30
0
41
1
10
13.4876776374751
20
30.0802576981002
30
0
41
1
10
13.47447899686
20
30.0805927603169
30
0
41
1
10
13.4613248654052
20
30.0805927603169
30
0
0
SPLINE
5
233
100
AcDbEntity
8
1
62
256
6
ByLayer
370
-1
48
1
60
0
100
AcDbSpline
70
4
71
3
72
15
73
11
40
0
40
0
40
0
40
0
40
0.196055392839223
40
0.196055392839223
40
0.196055392839223
40
0.463887027452276
40
0.463887027452276
40
0.731409602812358
40
0.731409602812358
40
1
40
1
40
1
40
1
41
1
10
22.92079238
20
30.8996141556632
30
0
41
1
10
22.6010101872137
20
30.8836852365775
30
0
41
1
10
22.2892365686343
20
30.8594158482651
30
0
41
1
10
22
20
30.8266899178068
30
0
41
1
10
21.6074742830719
20
30.7822772442091
30
0
41
1
10
21.2473936978372
20
30.7209106462045
30
0
41
1
10
20.6508982012657
20
30.5661453460797
30
0
41
1
10
20.406219073854
20
30.470499321146
30
0
41
1
10
20.0572565184467
20
30.2501116763097
30
0
41
1
10
19.9488361922315
20
30.1223474639947
30
0
41
1
10
19.9115068236138
20
29.9850116132029
30
0
0
SPLINE
5
234
100
AcDbEntity
8
1
62
256
6
ByLayer
370
-1
48
1
60
0
100
AcDbSpline
70
4
71
3
72
16
73
12
40
0
40
0
40
0
40
0
40
0.311970812512747
40
0.311970812512747
40
0.624644060493244
40
0.624644060493244
40
0.892076769842842
40
0.892076769842842
40
0.92625702866383
40
0.92625702866383
40
1
40
1
40
1
40
1
41
1
10
19.9115068236138
20
-29.9850116132029
30
0
41
1
10
19.9505361776874
20
-30.1286017607469
30
0
41
1
10
20.0674973665296
20
-30.2617723075543
30
0
41
1
10
20.4463314652044
20
-30.4898950501641
30
0
41
1
10
20.7141452574929
20
-30.5880850478214
30
0
41
1
10
21.3182213269549
20
-30.7328471313112
30
0
41
1
10
21.6457864587422
20
-30.7866121096192
30
0
41
1
10
22.0458014934599
20
-30.831872168782
30
0
41
1
10
22.0921122736506
20
-30.8368388805824
30
0
41
1
10
22.2394281700458
20
-30.8518058454384
30
0
41
1
10
22.3422197362553
20
-30.8610385287876
30
0
41
1
10
22.4466935802336
20
-30.8692920530823
30
0
0
SPLINE
5
235
100
AcDbEntity
8
1
62
256
6
ByLayer
370
-1
48
1
60
0
100
AcDbSpline
70
4
71
3
72
8
73
4
40
0
40
0
40
0
40
0
40
1
40
1
40
1
40
1
41
1
10
23.8962856159808
20
34.6245734699538
30
0
41
1
10
23.5684820644022
20
33.3829616943839
30
0
41
1
10
23.2426423178719
20
32.140145184889
30
0
41
1
10
22.92079238
20
30.8996141556632
30
0
0
SPLINE
5
236
100
AcDbEntity
8
1
62
256
6
ByLayer
370
-1
48
1
60
0
100
AcDbSpline
70
4
71
3
72
16
73
12
40
0
40
0
40
0
40
0
40
0.113316224833593
40
0.113316224833593
40
0.252990411571579
40
0.252990411571579
40
0.473309013928354
40
0.473309013928354
40
0.896716357718913
40
0.896716357718913
40
1
40
1
40
1
40
1
41
1
10
10.5386751345948
20
-9.34922131452512
30
0
41
1
10
10.5105874404281
20
-9.34922131452512
30
0
41
1
10
10.482150642237
20
-9.35431657338984
30
0
41
1
10
10.4232029654275
20
-9.37467777536568
30
0
41
1
10
10.3927526278712
20
-9.39213979793414
30
0
41
1
10
10.3230856363398
20
-9.44503542604386
30
0
41
1
10
10.2871733492349
20
-9.48569380431883
30
0
41
1
10
10.1985362549164
20
-9.6110592336681
30
0
41
1
10
10.1576291602469
20
-9.70465429390072
30
0
41
1
10
10.1190965262402
20
-9.82244573862477
30
0
41
1
10
10.112102816203
20
-9.84586944318031
30
0
41
1
10
10.1056624327025
20
-9.86941261896618
30
0
0
SPLINE
5
237
100
AcDbEntity
8
1
62
256
6
ByLayer
370
-1
48
1
60
0
100
AcDbSpline
70
4
71
3
72
16
73
12
40
0
40
0
40
0
40
0
40
0.463423600832209
40
0.463423600832209
40
0.646243952932815
40
0.646243952932815
40
0.831657283224495
40
0.831657283224495
40
0.947504344290837
40
0.947504344290837
40
1
40
1
40
1
40
1
41
1
10
13.8943375672974
20
-9.86941261896621
30
0
41
1
10
13.8656609252734
20
-9.76458357826289
30
0
41
1
10
13.8263500123909
20
-9.66039292789938
30
0
41
1
10
13.7453819366532
20
-9.52957658281042
30
0
41
1
10
13.7190869808859
20
-9.49380155568073
30
0
41
1
10
13.6579862203325
20
-9.42941539787637
30
0
41
1
10
13.6222599905468
20
-9.40014891155712
30
0
41
1
10
13.556648346355
20
-9.36662118733784
30
0
41
1
10
13.5289597975987
20
-9.35698328824239
30
0
41
1
10
13.4876776374751
20
-9.35029954873104
30
0
41
1
10
13.4744789968601
20
-9.34922131452501
30
0
41
1
10
13.4613248654052
20
-9.34922131452501
30
0
0
SPLINE
5
238
100
AcDbEntity
8
1
62
256
6
ByLayer
370
-1
48
1
60
0
100
AcDbSpline
70
4
71
3
72
8
73
4
40
0
40
0
40
0
40
0
40
1
40
1
40
1
40
1
41
1
10
54.0984392858455
20
27.179892271354
30
0
41
1
10
54.3259363892693
20
27.325696132666
30
0
41
1
10
54.5415013573086
20
27.4653536917646
30
0
41
1
10
54.7483594279742
20
27.5995210724947
30
0
0
SPLINE
5
239
100
AcDbEntity
8
1
62
256
6
ByLayer
370
-1
48
1
60
0
100
AcDbSpline
70
4
71
3
72
16
73
12
40
0
40
0
40
0
40
0
40
0.113316224833592
40
0.113316224833592
40
0.252990411571568
40
0.252990411571568
40
0.473309013928318
40
0.473309013928318
40
0.896716357718825
40
0.896716357718825
40
1
40
1
40
1
40
1
41
1
10
13.4613248654052
20
9.3492213145251
30
0
41
1
10
13.4894125595718
20
9.3492213145251
30
0
41
1
10
13.517849357763
20
9.35431657338981
30
0
41
1
10
13.5767970345725
20
9.37467777536565
30
0
41
1
10
13.6072473721288
20
9.39213979793414
30
0
41
1
10
13.6769143636602
20
9.44503542604383
30
0
41
1
10
13.7128266507651
20
9.4856938043188
30
0
41
1
10
13.8014637450836
20
9.61105923366804
30
0
41
1
10
13.842370839753
20
9.70465429390066
30
0
41
1
10
13.8809034737598
20
9.82244573862474
30
0
41
1
10
13.8878971837969
20
9.84586944318031
30
0
41
1
10
13.8943375672975
20
9.86941261896621
30
0
0
SPLINE
5
23A
100
AcDbEntity
8
1
62
256
6
ByLayer
370
-1
48
1
60
0
100
AcDbSpline
70
4
71
3
72
8
73
4
40
0
40
0
40
0
40
0
40
1
40
1
40
1
40
1
41
1
10
26.4568016711321
20
44.2920200684097
30
0
41
1
10
26.3747398346777
20
44.2574705763448
30
0
41
1
10
26.3316343744356
20
44.2230915312913
30
0
41
1
10
26.3253965634188
20
44.1888737943789
30
0
0
SPLINE
5
23B
100
AcDbEntity
8
1
62
256
6
ByLayer
370
-1
48
1
60
0
100
AcDbSpline
70
4
71
3
72
8
73
4
40
0
40
0
40
0
40
0
40
1
40
1
40
1
40
1
41
1
10
23.8962856159808
20
34.6245734699538
30
0
41
1
10
24.7472385413477
20
37.8477025895231
30
0
41
1
10
25.6012903125821
20
41.0700462973493
30
0
41
1
10
26.4568016711321
20
44.2920200684097
30
0
0
SPLINE
5
23C
100
AcDbEntity
8
1
62
256
6
ByLayer
370
-1
48
1
60
0
100
AcDbSpline
70
4
71
3
72
16
73
12
40
0
40
0
40
0
40
0
40
0.463423600832262
40
0.463423600832262
40
0.646243952932856
40
0.646243952932856
40
0.831657283224518
40
0.831657283224518
40
0.94750434429086
40
0.94750434429086
40
1
40
1
40
1
40
1
41
1
10
10.1056624327026
20
-29.9139548464691
30
0
41
1
10
10.1343390747265
20
-29.9485407466772
30
0
41
1
10
10.1736499876091
20
-29.982269090612
30
0
41
1
10
10.2546180633468
20
-30.0239686896252
30
0
41
1
10
10.2809130191141
20
-30.0352936109065
30
0
41
1
10
10.3420137796675
20
-30.0555697561518
30
0
41
1
10
10.3777400094532
20
-30.0647246060481
30
0
41
1
10
10.4433516536449
20
-30.0751823136668
30
0
41
1
10
10.4710402024013
20
-30.0781795790239
30
0
41
1
10
10.5123223625249
20
-30.0802576981002
30
0
41
1
10
10.5255210031399
20
-30.0805927603169
30
0
41
1
10
10.5386751345948
20
-30.0805927603169
30
0
0
SPLINE
5
23D
100
AcDbEntity
8
1
62
256
6
ByLayer
370
-1
48
1
60
0
100
AcDbSpline
70
4
71
3
72
8
73
4
40
0
40
0
40
0
40
0
40
1
40
1
40
1
40
1
41
1
10
50.9097298115111
20
28.5275192906119
30
0
41
1
10
50.8415679608772
20
28.6467627780344
30
0
41
1
10
50.7699996263538
20
28.765043505031
30
0
41
1
10
50.7018377757199
20
28.8842869924535
30
0
0
SPLINE
5
23E
100
AcDbEntity
8
1
62
256
6
ByLayer
370
-1
48
1
60
0
100
AcDbSpline
70
4
71
3
72
14
73
10
40
0
40
0
40
0
40
0
40
0.250654849280892
40
0.250654849280892
40
0.500616057245246
40
0.500616057245246
40
0.761141676212511
40
0.761141676212511
40
1
40
1
40
1
40
1
41
1
10
47.5366494632251
20
37.5500170850734
30
0
41
1
10
47.5466815517813
20
37.5374761139316
30
0
41
1
10
47.5577736193374
20
37.5223017057628
30
0
41
1
10
47.5801219517154
20
37.489436304575
30
0
41
1
10
47.5916690174577
20
37.4713299082484
30
0
41
1
10
47.6142580789163
20
37.433864127908
30
0
41
1
10
47.6255418857812
20
37.4140222916138
30
0
41
1
10
47.6453735802093
20
37.3771549189527
30
0
41
1
10
47.6542558842082
20
37.359693116737
30
0
41
1
10
47.6621482586075
20
37.3432291863635
30
0
0
SPLINE
5
23F
100
AcDbEntity
8
1
62
256
6
ByLayer
370
-1
48
1
60
0
100
AcDbSpline
70
4
71
3
72
16
73
12
40
0
40
0
40
0
40
0
40
0.20152822239502
40
0.20152822239502
40
0.42576092519419
40
0.42576092519419
40
0.658562188548514
40
0.658562188548514
40
0.868007617002697
40
0.868007617002697
40
1
40
1
40
1
40
1
41
1
10
53.7132949050178
20
43.0850083396971
30
0
41
1
10
53.7295191118924
20
43.0884033205266
30
0
41
1
10
53.7455224410953
20
43.0933434953543
30
0
41
1
10
53.7778344385882
20
43.1069814395492
30
0
41
1
10
53.7941855335395
20
43.1161327603625
30
0
41
1
10
53.8245634632151
20
43.1384554810938
30
0
41
1
10
53.8387296631831
20
43.1519685020615
30
0
41
1
10
53.8612659786959
20
43.1807578585341
30
0
41
1
10
53.8702501417402
20
43.195970664229
30
0
41
1
10
53.8810369831621
20
43.2221713254225
30
0
41
1
10
53.8843150814115
20
43.2327618171551
30
0
41
1
10
53.886573502555
20
43.2435161425617
30
0
0
SPLINE
5
240
100
AcDbEntity
8
1
62
256
6
ByLayer
370
-1
48
1
60
0
100
AcDbSpline
70
4
71
3
72
14
73
10
40
0
40
0
40
0
40
0
40
0.217576655773127
40
0.217576655773127
40
0.418639226347896
40
0.418639226347896
40
0.722992246166042
40
0.722992246166042
40
1
40
1
40
1
40
1
41
1
10
49.7422191400763
20
38.8726333453865
30
0
41
1
10
49.7593466596246
20
38.8769562976712
30
0
41
1
10
49.7758180436085
20
38.883932370478
30
0
41
1
10
49.8043036509622
20
38.9013040567658
30
0
41
1
10
49.8168208588398
20
38.9115419570182
30
0
41
1
10
49.8440164760303
20
38.9402443956774
30
0
41
1
10
49.857008607204
20
38.9606973938019
30
0
41
1
10
49.8745069068986
20
39.0020841507823
30
0
41
1
10
49.8798821029722
20
39.0232531518785
30
0
41
1
10
49.8823096848562
20
39.044623292851
30
0
0
SPLINE
5
241
100
AcDbEntity
8
1
62
256
6
ByLayer
370
-1
48
1
60
0
100
AcDbSpline
70
4
71
3
72
14
73
10
40
0
40
0
40
0
40
0
40
0.305545320902018
40
0.305545320902018
40
0.618172577983469
40
0.618172577983469
40
0.807733277772239
40
0.807733277772239
40
1
40
1
40
1
40
1
41
1
10
49.8003860906276
20
39.0542675804691
30
0
41
1
10
49.7991424655321
20
39.039230310001
30
0
41
1
10
49.7964752749645
20
39.0242074111215
30
0
41
1
10
49.7875751245259
20
38.995135350069
30
0
41
1
10
49.7811666334751
20
38.9807903893499
30
0
41
1
10
49.7670267142012
20
38.9606726913956
30
0
41
1
10
49.7606755048383
20
38.9536242519948
30
0
41
1
10
49.7460897634427
20
38.9420426238447
30
0
41
1
10
49.7375909357812
20
38.9374207434022
30
0
41
1
10
49.7286482668979
20
38.9348150366191
30
0
0
SPLINE
5
242
100
AcDbEntity
8
1
62
256
6
ByLayer
370
-1
48
1
60
0
100
AcDbSpline
70
4
71
3
72
14
73
10
40
0
40
0
40
0
40
0
40
0.114560016218196
40
0.114560016218196
40
0.305723973353156
40
0.305723973353156
40
0.535366948316029
40
0.535366948316029
40
1
40
1
40
1
40
1
41
1
10
53.8291672113642
20
43.2594663927211
30
0
41
1
10
53.8278241015491
20
43.2539298830549
30
0
41
1
10
53.8257728388005
20
43.2485351227686
30
0
41
1
10
53.8188524423339
20
43.2351302553405
30
0
41
1
10
53.8129212558014
20
43.2275426259149
30
0
41
1
10
53.7980905029706
20
43.2132242399084
30
0
41
1
10
53.7886579034411
20
43.2067359706096
30
0
41
1
10
53.758912419709
20
43.1909586858945
30
0
41
1
10
53.7365671762939
20
43.18490826145
30
0
41
1
10
53.7143305706229
20
43.1821464007596
30
0
0
SPLINE
5
243
100
AcDbEntity
8
1
62
256
6
ByLayer
370
-1
48
1
60
0
100
AcDbSpline
70
4
71
3
72
10
73
6
40
0
40
0
40
0
40
0
40
0.303481278345296
40
0.303481278345296
40
1
40
1
40
1
40
1
41
1
10
50.2231316109679
20
36.8476939466449
30
0
41
1
10
50.2183911553544
20
36.8243051693806
30
0
41
1
10
50.2165268203548
20
36.8005706277584
30
0
41
1
10
50.2182684498545
20
36.7235413572148
30
0
41
1
10
50.2318277363774
20
36.6701377297823
30
0
41
1
10
50.2537100579358
20
36.6199608602792
30
0
0
SPLINE
5
244
100
AcDbEntity
8
1
62
256
6
ByLayer
370
-1
48
1
60
0
100
AcDbSpline
70
4
71
3
72
12
73
8
40
0
40
0
40
0
40
0
40
0.012721753469305
40
0.012721753469305
40
0.526205585976673
40
0.526205585976673
40
1
40
1
40
1
40
1
41
1
10
50.3895624635731
20
37.0992851368905
30
0
41
1
10
50.3887509926328
20
37.0982016683407
30
0
41
1
10
50.3879398251903
20
37.0971184609303
30
0
41
1
10
50.3543601644352
20
37.0522008295819
30
0
41
1
10
50.3227404717407
20
37.0078290890692
30
0
41
1
10
50.2674201007956
20
36.9244362298772
30
0
41
1
10
50.2427664163534
20
36.8845295285047
30
0
41
1
10
50.2231316109679
20
36.8476939466449
30
0
0
SPLINE
5
245
100
AcDbEntity
8
1
62
256
6
ByLayer
370
-1
48
1
60
0
100
AcDbSpline
70
4
71
3
72
12
73
8
40
0
40
0
40
0
40
0
40
0.470534389757152
40
0.470534389757152
40
0.985921764955496
40
0.985921764955496
40
1
40
1
40
1
40
1
41
1
10
50.384625651789
20
36.7839187144142
30
0
41
1
10
50.3816410143623
20
36.8299164905546
30
0
41
1
10
50.3810629416185
20
36.8792198206571
30
0
41
1
10
50.3827819172385
20
36.9834232623598
30
0
41
1
10
50.3854162886908
20
37.0391914874878
30
0
41
1
10
50.389350800635
20
37.0962551103474
30
0
41
1
10
50.3894565118784
20
37.0977700841772
30
0
41
1
10
50.3895624635731
20
37.0992851368905
30
0
0
SPLINE
5
246
100
AcDbEntity
8
1
62
256
6
ByLayer
370
-1
48
1
60
0
100
AcDbSpline
70
4
71
3
72
10
73
6
40
0
40
0
40
0
40
0
40
0.709213553058288
40
0.709213553058288
40
1
40
1
40
1
40
1
41
1
10
50.4427189925937
20
36.5863263897906
30
0
41
1
10
50.4211841210026
20
36.6309047325798
30
0
41
1
10
50.4036551388255
20
36.6774080620261
30
0
41
1
10
50.3889763399519
20
36.7443516506299
30
0
41
1
10
50.3859094941024
20
36.7641327629269
30
0
41
1
10
50.384625651789
20
36.7839187144142
30
0
0
SPLINE
5
247
100
AcDbEntity
8
1
62
256
6
ByLayer
370
-1
48
1
60
0
100
AcDbSpline
70
4
71
3
72
10
73
6
40
0
40
0
40
0
40
0
40
0.469696784645114
40
0.469696784645114
40
1
40
1
40
1
40
1
41
1
10
49.9269225402996
20
38.3935019941488
30
0
41
1
10
49.9127173845303
20
38.4934199742908
30
0
41
1
10
49.9018788646682
20
38.5944230927295
30
0
41
1
10
49.8860490055338
20
38.8112954943199
30
0
41
1
10
49.8819826266107
20
38.927501838172
30
0
41
1
10
49.8823096848562
20
39.044623292851
30
0
0
SPLINE
5
248
100
AcDbEntity
8
1
62
256
6
ByLayer
370
-1
48
1
60
0
100
AcDbSpline
70
4
71
3
72
10
73
6
40
0
40
0
40
0
40
0
40
0.33992222369292
40
0.33992222369292
40
1
40
1
40
1
40
1
41
1
10
53.7132949050034
20
43.0850083396942
30
0
41
1
10
53.7752838695681
20
43.0755062265464
30
0
41
1
10
53.8369355089899
20
43.0641270293705
30
0
41
1
10
54.0170769893325
20
43.0252250341656
30
0
41
1
10
54.1345741908806
20
42.9925603273778
30
0
41
1
10
54.2502014204443
20
42.95308923787
30
0
0
SPLINE
5
249
100
AcDbEntity
8
1
62
256
6
ByLayer
370
-1
48
1
60
0
100
AcDbSpline
70
4
71
3
72
10
73
6
40
0
40
0
40
0
40
0
40
0.296681385512608
40
0.296681385512608
40
1
40
1
40
1
40
1
41
1
10
49.7864933208957
20
38.2569296400592
30
0
41
1
10
49.7895670592619
20
38.2347557585869
30
0
41
1
10
49.7942418097069
20
38.2130094659567
30
0
41
1
10
49.8156531975264
20
38.1427576448835
30
0
41
1
10
49.8406057879147
20
38.0962588751426
30
0
41
1
10
49.8773570431028
20
38.059170607397
30
0
0
SPLINE
5
24A
100
AcDbEntity
8
1
62
256
6
ByLayer
370
-1
48
1
60
0
100
AcDbSpline
70
4
71
3
72
12
73
8
40
0
40
0
40
0
40
0
40
0.473794414023353
40
0.473794414023353
40
0.987278246530699
40
0.987278246530699
40
1
40
1
40
1
40
1
41
1
10
49.8773570431029
20
38.059170607397
30
0
41
1
10
49.9129593663827
20
38.040061429125
30
0
41
1
10
49.9545639707217
20
38.0205778637113
30
0
41
1
10
50.0449302954275
20
37.981181602532
30
0
41
1
10
50.0949796835866
20
37.9609819488619
30
0
41
1
10
50.1470698502593
20
37.9410450536426
30
0
41
1
10
50.1483272526827
20
37.9405648052209
30
0
41
1
10
50.1495851078469
20
37.9400842950426
30
0
0
SPLINE
5
24B
100
AcDbEntity
8
1
62
256
6
ByLayer
370
-1
48
1
60
0
100
AcDbSpline
70
4
71
3
72
12
73
8
40
0
40
0
40
0
40
0
40
0.0140782350444978
40
0.0140782350444978
40
0.529465610242861
40
0.529465610242861
40
1
40
1
40
1
40
1
41
1
10
50.1495851078469
20
37.9400842950426
30
0
41
1
10
50.1486969874262
20
37.9413096959206
30
0
41
1
10
50.1478091707205
20
37.942534954028
30
0
41
1
10
50.1144105146907
20
37.9887036860207
30
0
41
1
10
50.0828726407817
20
38.034203517871
30
0
41
1
10
50.0268450443051
20
38.1202790404418
30
0
41
1
10
50.0015970367039
20
38.161461525331
30
0
41
1
10
49.9802469930723
20
38.2007242075611
30
0
0
SPLINE
5
24C
100
AcDbEntity
8
1
62
256
6
ByLayer
370
-1
48
1
60
0
100
AcDbSpline
70
4
71
3
72
10
73
6
40
0
40
0
40
0
40
0
40
0.691437525404669
40
0.691437525404669
40
1
40
1
40
1
40
1
41
1
10
49.9802469930723
20
38.2007242075611
30
0
41
1
10
49.9585436140746
20
38.2406366727348
30
0
41
1
10
49.9449227917293
20
38.2855563901885
30
0
41
1
10
49.9320582296927
20
38.3516912839748
30
0
41
1
10
49.9290591192559
20
38.3725105621872
30
0
41
1
10
49.9269225402559
20
38.3935019941269
30
0
0
SPLINE
5
24D
100
AcDbEntity
8
1
62
256
6
ByLayer
370
-1
48
1
60
0
100
AcDbSpline
70
4
71
3
72
8
73
4
40
0
40
0
40
0
40
0
40
1
40
1
40
1
40
1
41
1
10
47.6621482586075
20
37.3432291863635
30
0
41
1
10
47.7145964153651
20
37.383082575836
30
0
41
1
10
47.7684977522788
20
37.4211007584623
30
0
41
1
10
47.8229305045124
20
37.457606751597
30
0
0
SPLINE
5
24E
100
AcDbEntity
8
1
62
256
6
ByLayer
370
-1
48
1
60
0
100
AcDbSpline
70
4
71
3
72
8
73
4
40
0
40
0
40
0
40
0
40
1
40
1
40
1
40
1
41
1
10
47.6339392297227
20
37.6604635037263
30
0
41
1
10
47.6009030227247
20
37.6246146642073
30
0
41
1
10
47.5683475635909
20
37.5877602530061
30
0
41
1
10
47.5366494632251
20
37.5500170850734
30
0
0
SPLINE
5
24F
100
AcDbEntity
8
1
62
256
6
ByLayer
370
-1
48
1
60
0
100
AcDbSpline
70
4
71
3
72
8
73
4
40
0
40
0
40
0
40
0
40
1
40
1
40
1
40
1
41
1
10
50.4673468726234
20
42.5243190880145
30
0
41
1
10
50.7835433461328
20
42.8125855285933
30
0
41
1
10
51.1280785593342
20
43.0667114308114
30
0
41
1
10
51.4935531075088
20
43.2813172293326
30
0
0
SPLINE
5
250
100
AcDbEntity
8
1
62
256
6
ByLayer
370
-1
48
1
60
0
100
AcDbSpline
70
4
71
3
72
14
73
10
40
0
40
0
40
0
40
0
40
0.250654849280891
40
0.250654849280891
40
0.50061605724523
40
0.50061605724523
40
0.761141676212504
40
0.761141676212504
40
1
40
1
40
1
40
1
41
1
10
56.4771707339442
20
44.9944480978306
30
0
41
1
10
56.4653122080921
20
44.9947163407132
30
0
41
1
10
56.4500845041361
20
44.9949428518646
30
0
41
1
10
56.4156965664334
20
44.9952764743705
30
0
41
1
10
56.3961086801661
20
44.9953885828557
30
0
41
1
10
56.3544820687275
20
44.9954983717762
30
0
41
1
10
56.3318660972631
20
44.9954928684374
30
0
41
1
10
56.2888915059893
20
44.9953763672058
30
0
41
1
10
56.2681081216703
20
44.995273335455
30
0
41
1
10
56.2481073127981
20
44.9951310006147
30
0
0
SPLINE
5
251
100
AcDbEntity
8
1
62
256
6
ByLayer
370
-1
48
1
60
0
100
AcDbSpline
70
4
71
3
72
16
73
12
40
0
40
0
40
0
40
0
40
0.201528222395002
40
0.201528222395002
40
0.425760925194166
40
0.425760925194166
40
0.658562188548505
40
0.658562188548505
40
0.868007617002668
40
0.868007617002668
40
1
40
1
40
1
40
1
41
1
10
58.3076857342717
20
36.9134601176239
30
0
41
1
10
58.3037865077099
20
36.8984156843657
30
0
41
1
10
58.3012832775936
20
36.8827655849005
30
0
41
1
10
58.2993182645786
20
36.8492995818097
30
0
41
1
10
58.3002212240152
20
36.8312176543527
30
0
41
1
10
58.3063849883618
20
36.7949114356329
30
0
41
1
10
58.3118757189741
20
36.7763986029875
30
0
41
1
10
58.3267611868265
20
36.7432315234149
30
0
41
1
10
58.3358463563239
20
36.7281057077286
30
0
41
1
10
58.3534510660876
20
36.7059037469687
30
0
41
1
10
58.3610190173453
20
36.6978182375524
30
0
41
1
10
58.3691518625938
20
36.6904872636637
30
0
0
SPLINE
5
252
100
AcDbEntity
8
1
62
256
6
ByLayer
370
-1
48
1
60
0
100
AcDbSpline
70
4
71
3
72
14
73
10
40
0
40
0
40
0
40
0
40
0.21757665577313
40
0.21757665577313
40
0.418639226347894
40
0.418639226347894
40
0.722992246166053
40
0.722992246166053
40
1
40
1
40
1
40
1
41
1
10
56.7020785325844
20
42.5313460738987
30
0
41
1
10
56.6971115477895
20
42.5140150827621
30
0
41
1
10
56.6945089275881
20
42.4957637040961
30
0
41
1
10
56.6940959909857
20
42.4612127528695
30
0
41
1
10
56.6959205762631
20
42.4445644619407
30
0
41
1
10
56.7048561908682
20
42.4047554603422
30
0
41
1
10
56.7143132301702
20
42.3819405587463
30
0
41
1
10
56.7377006137243
20
42.3434158537312
30
0
41
1
10
56.7513919351027
20
42.3268182927562
30
0
41
1
10
56.7666656550098
20
42.3126711449481
30
0
0
SPLINE
5
253
100
AcDbEntity
8
1
62
256
6
ByLayer
370
-1
48
1
60
0
100
AcDbSpline
70
4
71
3
72
14
73
10
40
0
40
0
40
0
40
0
40
0.305545320901989
40
0.305545320901989
40
0.61817257798346
40
0.61817257798346
40
0.807733277772264
40
0.807733277772264
40
1
40
1
40
1
40
1
41
1
10
56.8338214862782
20
42.3930843902437
30
0
41
1
10
56.8216132075734
20
42.4017359558599
30
0
41
1
10
56.8101252343566
20
42.4116319755125
30
0
41
1
10
56.7897534136766
20
42.434069812542
30
0
41
1
10
56.78070455425
20
42.446914642264
30
0
41
1
10
56.770576958746
20
42.4694588911442
30
0
41
1
10
56.7677235587555
20
42.4785859447452
30
0
41
1
10
56.7650989919512
20
42.497231746693
30
0
41
1
10
56.7653836250653
20
42.5070274570083
30
0
41
1
10
56.7676088147974
20
42.5162000386712
30
0
0
SPLINE
5
254
100
AcDbEntity
8
1
62
256
6
ByLayer
370
-1
48
1
60
0
100
AcDbSpline
70
4
71
3
72
14
73
10
40
0
40
0
40
0
40
0
40
0.114560016218209
40
0.114560016218209
40
0.305723973353136
40
0.305723973353136
40
0.535366948316046
40
0.535366948316046
40
1
40
1
40
1
40
1
41
1
10
58.4170492761172
20
36.7371208122032
30
0
41
1
10
58.4129946501004
20
36.7410845344773
30
0
41
1
10
58.4094131545094
20
36.745599657282
30
0
41
1
10
58.4014208060596
20
36.7584220685905
30
0
41
1
10
58.3978985666669
20
36.7674508250275
30
0
41
1
10
58.3930614016068
20
36.7876876163304
30
0
41
1
10
58.3922184357969
20
36.7992424434477
30
0
41
1
10
58.3935550473822
20
36.8333263699459
30
0
41
1
10
58.3995079960724
20
36.8560146366318
30
0
41
1
10
58.4082120636774
20
36.8769544700574
30
0
0
SPLINE
5
255
100
AcDbEntity
8
1
62
256
6
ByLayer
370
-1
48
1
60
0
100
AcDbSpline
70
4
71
3
72
10
73
6
40
0
40
0
40
0
40
0
40
0.303481278345301
40
0.303481278345301
40
1
40
1
40
1
40
1
41
1
10
54.5623099150041
20
43.000200770929
30
0
41
1
10
54.5489544520614
20
43.0192076311231
30
0
41
1
10
54.5341014753369
20
43.0360252750169
30
0
41
1
10
54.4824583860572
20
43.0840728060957
30
0
41
1
10
54.4412042296206
20
43.1070274576994
30
0
41
1
10
54.3984084883092
20
43.1209298929781
30
0
0
SPLINE
5
256
100
AcDbEntity
8
1
62
256
6
ByLayer
370
-1
48
1
60
0
100
AcDbSpline
70
4
71
3
72
12
73
8
40
0
40
0
40
0
40
0
40
0.0127217534692973
40
0.0127217534692973
40
0.526205585976634
40
0.526205585976634
40
1
40
1
40
1
40
1
41
1
10
54.6769211774433
20
42.7148823969592
30
0
41
1
10
54.6764005819159
20
42.7161404650346
30
0
41
1
10
54.6758808696153
20
42.7173987253698
30
0
41
1
10
54.654335065817
20
42.769549523784
30
0
41
1
10
54.6335913275929
20
42.8206566602505
30
0
41
1
10
54.5956511034248
20
42.9153446076423
30
0
41
1
10
54.5779739628822
20
42.9600635006223
30
0
41
1
10
54.5623099150041
20
43.000200770929
30
0
0
SPLINE
5
257
100
AcDbEntity
8
1
62
256
6
ByLayer
370
-1
48
1
60
0
100
AcDbSpline
70
4
71
3
72
12
73
8
40
0
40
0
40
0
40
0
40
0.470534389757143
40
0.470534389757143
40
0.985921764955494
40
0.985921764955494
40
1
40
1
40
1
40
1
41
1
10
54.4248601396198
20
42.8882777908717
30
0
41
1
10
54.460499356196
20
42.8640853209706
30
0
41
1
10
54.4994183223949
20
42.8373210427619
30
0
41
1
10
54.5826688476943
20
42.7799564413319
30
0
41
1
10
54.6277858153979
20
42.7487779300727
30
0
41
1
10
54.6744426504302
20
42.7165920628295
30
0
41
1
10
54.6756815316657
20
42.7157370582717
30
0
41
1
10
54.6769211774433
20
42.7148823969592
30
0
0
SPLINE
5
258
100
AcDbEntity
8
1
62
256
6
ByLayer
370
-1
48
1
60
0
100
AcDbSpline
70
4
71
3
72
10
73
6
40
0
40
0
40
0
40
0
40
0.709213553058295
40
0.709213553058295
40
1
40
1
40
1
40
1
41
1
10
54.2502014204443
20
42.95308923787
30
0
41
1
10
54.293629513783
20
42.9457556094338
30
0
41
1
10
54.3365668640818
20
42.9338301361239
30
0
41
1
10
54.3933544517031
20
42.9075476714087
30
0
41
1
10
54.4095299243488
20
42.8986841860496
30
0
41
1
10
54.4248601396198
20
42.8882777908717
30
0
0
SPLINE
5
259
100
AcDbEntity
8
1
62
256
6
ByLayer
370
-1
48
1
60
0
100
AcDbSpline
70
4
71
3
72
10
73
6
40
0
40
0
40
0
40
0
40
0.469696784645119
40
0.469696784645119
40
1
40
1
40
1
40
1
41
1
10
56.04827096699
20
42.498275164101
30
0
41
1
10
56.1626599136056
20
42.4766182965251
30
0
41
1
10
56.2763061682346
20
42.4514603642213
30
0
41
1
10
56.5161317359761
20
42.3905396311344
30
0
41
1
10
56.6421486795968
20
42.3538015380092
30
0
41
1
10
56.7666656550098
20
42.3126711449481
30
0
0
SPLINE
5
25A
100
AcDbEntity
8
1
62
256
6
ByLayer
370
-1
48
1
60
0
100
AcDbSpline
70
4
71
3
72
10
73
6
40
0
40
0
40
0
40
0
40
0.296681385512609
40
0.296681385512609
40
1
40
1
40
1
40
1
41
1
10
56.0271288542051
20
42.7089519769588
30
0
41
1
10
56.0019979672308
20
42.7139838909689
30
0
41
1
10
55.9764276034559
20
42.7173874370077
30
0
41
1
10
55.8903102738208
20
42.7225631830691
30
0
41
1
10
55.8273099862243
20
42.7160455724148
30
0
41
1
10
55.7676821460126
20
42.6953069719955
30
0
0
SPLINE
5
25B
100
AcDbEntity
8
1
62
256
6
ByLayer
370
-1
48
1
60
0
100
AcDbSpline
70
4
71
3
72
12
73
8
40
0
40
0
40
0
40
0
40
0.473794414023359
40
0.473794414023359
40
0.987278246530693
40
0.987278246530693
40
1
40
1
40
1
40
1
41
1
10
55.7676821460125
20
42.6953069719955
30
0
41
1
10
55.7276833301162
20
42.6692493872492
30
0
41
1
10
55.686269461566
20
42.6394773146634
30
0
41
1
10
55.6020392793528
20
42.5756918539563
30
0
41
1
10
55.5585369879281
20
42.5408354784928
30
0
41
1
10
55.5155550563499
20
42.5050066973523
30
0
41
1
10
55.5145191908127
20
42.5041419138404
30
0
41
1
10
55.5134836882413
20
42.5032774541863
30
0
0
SPLINE
5
25C
100
AcDbEntity
8
1
62
256
6
ByLayer
370
-1
48
1
60
0
100
AcDbSpline
70
4
71
3
72
12
73
8
40
0
40
0
40
0
40
0
40
0.0140782350445217
40
0.0140782350445217
40
0.529465610242862
40
0.529465610242862
40
1
40
1
40
1
40
1
41
1
10
55.5134836882413
20
42.5032774541863
30
0
41
1
10
55.5149706873642
20
42.5034424222235
30
0
41
1
10
55.5164582304923
20
42.5036077892898
30
0
41
1
10
55.5725135796164
20
42.5098130447197
30
0
41
1
10
55.6281543959662
20
42.5155053013915
30
0
41
1
10
55.7342240508326
20
42.524982165357
30
0
41
1
10
55.7853349566277
20
42.5289737688818
30
0
41
1
10
55.8345265851287
20
42.5317086359305
30
0
0
SPLINE
5
25D
100
AcDbEntity
8
1
62
256
6
ByLayer
370
-1
48
1
60
0
100
AcDbSpline
70
4
71
3
72
10
73
6
40
0
40
0
40
0
40
0
40
0.69143752540465
40
0.69143752540465
40
1
40
1
40
1
40
1
41
1
10
55.8345265851287
20
42.5317086359305
30
0
41
1
10
55.8845323169805
20
42.5344887640225
30
0
41
1
10
55.9349872266788
20
42.527789583821
30
0
41
1
10
56.0053866806138
20
42.5113803654249
30
0
41
1
10
56.0269803802166
20
42.5052578461454
30
0
41
1
10
56.0482709669976
20
42.4982751641537
30
0
0
SPLINE
5
25E
100
AcDbEntity
8
1
62
256
6
ByLayer
370
-1
48
1
60
0
100
AcDbSpline
70
4
71
3
72
8
73
4
40
0
40
0
40
0
40
0
40
1
40
1
40
1
40
1
41
1
10
56.2481073127981
20
44.9951310006147
30
0
41
1
10
56.2586762738133
20
44.9309199677269
30
0
41
1
10
56.2676247112533
20
44.8668394262261
30
0
41
1
10
56.2757770490041
20
44.803603277354
30
0
0
SPLINE
5
25F
100
AcDbEntity
8
1
62
256
6
ByLayer
370
-1
48
1
60
0
100
AcDbSpline
70
4
71
3
72
8
73
4
40
0
40
0
40
0
40
0
40
1
40
1
40
1
40
1
41
1
10
56.5327308894117
20
44.8604779757259
30
0
41
1
10
56.5148556571823
20
44.9048317510352
30
0
41
1
10
56.4963841184441
20
44.9496324425196
30
0
41
1
10
56.4771707339442
20
44.9944480978306
30
0
0
SPLINE
5
260
100
AcDbEntity
8
1
62
256
6
ByLayer
370
-1
48
1
60
0
100
AcDbSpline
70
4
71
3
72
8
73
4
40
0
40
0
40
0
40
0
40
1
40
1
40
1
40
1
41
1
10
59.2723438609132
20
39.9244958400691
30
0
41
1
10
59.3653672426829
20
39.5047897405591
30
0
41
1
10
59.4129987319937
20
39.0757441125445
30
0
41
1
10
59.414279925136
20
38.646532515502
30
0
0
SPLINE
5
261
100
AcDbEntity
8
1
62
256
6
ByLayer
370
-1
48
1
60
0
100
AcDbSpline
70
4
71
3
72
14
73
10
40
0
40
0
40
0
40
0
40
0.250654849280875
40
0.250654849280875
40
0.500616057245211
40
0.500616057245211
40
0.761141676212476
40
0.761141676212476
40
1
40
1
40
1
40
1
41
1
10
58.3804923826038
20
33.3916930491081
30
0
41
1
10
58.3904480003596
20
33.4047705060151
30
0
41
1
10
58.4014481246768
20
33.4203979364868
30
0
41
1
10
58.4235982594208
20
33.4539305826863
30
0
41
1
10
58.4350365609844
20
33.4722611959833
30
0
41
1
10
58.4574012969029
20
33.5099465541647
30
0
41
1
10
58.4685666811812
20
33.5297773837813
30
0
41
1
10
58.488178973502
20
33.5664117539793
30
0
41
1
10
58.4969576459223
20
33.5836674926933
30
0
41
1
10
58.5047525806605
20
33.5998467533862
30
0
0
SPLINE
5
262
100
AcDbEntity
8
1
62
256
6
ByLayer
370
-1
48
1
60
0
100
AcDbSpline
70
4
71
3
72
16
73
12
40
0
40
0
40
0
40
0
40
0.201528222394976
40
0.201528222394976
40
0.425760925194164
40
0.425760925194164
40
0.658562188548488
40
0.658562188548488
40
0.868007617002675
40
0.868007617002675
40
1
40
1
40
1
40
1
41
1
10
50.75820339175
20
35.9757891973879
30
0
41
1
10
50.7485842027205
20
35.9877065031103
30
0
41
1
10
50.7377221278357
20
35.9986775726022
30
0
41
1
10
50.7126258792266
20
36.0190254154537
30
0
41
1
10
50.6979823365272
20
36.028214443417
30
0
41
1
10
50.66617900776
20
36.0426670044656
30
0
41
1
10
50.6486665748024
20
36.0478791055225
30
0
41
1
10
50.6145083998307
20
36.0525799016779
30
0
41
1
10
50.5976644154136
20
36.0526142120566
30
0
41
1
10
50.5705905339853
20
36.0487459511683
30
0
41
1
10
50.5600941446114
20
36.046275582615
30
0
41
1
10
50.5498783925761
20
36.0428696057183
30
0
0
SPLINE
5
263
100
AcDbEntity
8
1
62
256
6
ByLayer
370
-1
48
1
60
0
100
AcDbSpline
70
4
71
3
72
14
73
10
40
0
40
0
40
0
40
0
40
0.217576655773135
40
0.217576655773135
40
0.418639226347882
40
0.418639226347882
40
0.722992246166034
40
0.722992246166034
40
1
40
1
40
1
40
1
41
1
10
56.3613060850643
20
34.5728935926586
30
0
41
1
10
56.3488574989177
20
34.5858731165562
30
0
41
1
10
56.334222743981
20
34.5970725949653
30
0
41
1
10
56.3038931005101
20
34.6140284363237
30
0
41
1
10
56.2881019488891
20
34.6202953512483
30
0
41
1
10
56.2476792195666
20
34.6309770877221
30
0
41
1
10
56.2219869059217
20
34.6330179440437
30
0
41
1
10
56.1742805377932
20
34.6294806948004
30
0
41
1
10
56.1516206560114
20
34.6245535382288
30
0
41
1
10
56.1302086911712
20
34.6169632169096
30
0
0
SPLINE
5
264
100
AcDbEntity
8
1
62
256
6
ByLayer
370
-1
48
1
60
0
100
AcDbSpline
70
4
71
3
72
14
73
10
40
0
40
0
40
0
40
0
40
0.305545320902013
40
0.305545320902013
40
0.618172577983489
40
0.618172577983489
40
0.80773327777228
40
0.80773327777228
40
1
40
1
40
1
40
1
41
1
10
56.1835821673532
20
34.5307273636287
30
0
41
1
10
56.1970340711534
20
34.5371130684806
30
0
41
1
10
56.2111892349378
20
34.5422399477075
30
0
41
1
10
56.2404612060565
20
34.5488741717305
30
0
41
1
10
56.2559185565338
20
34.5503743027276
30
0
41
1
10
56.2801860713117
20
34.5479477518018
30
0
41
1
10
56.2893906806651
20
34.5458691376016
30
0
41
1
10
56.306600988865
20
34.5388049638038
30
0
41
1
10
56.3148151834125
20
34.533631133931
30
0
41
1
10
56.3215326625636
20
34.5270642590513
30
0
0
SPLINE
5
265
100
AcDbEntity
8
1
62
256
6
ByLayer
370
-1
48
1
60
0
100
AcDbSpline
70
4
71
3
72
14
73
10
40
0
40
0
40
0
40
0
40
0.114560016218203
40
0.114560016218203
40
0.305723973353161
40
0.305723973353161
40
0.535366948316018
40
0.535366948316018
40
1
40
1
40
1
40
1
41
1
10
50.5715732567775
20
35.9814921294172
30
0
41
1
10
50.5769709926095
20
35.9830649168092
30
0
41
1
10
50.582603750949
20
35.9839445542909
30
0
41
1
10
50.5975164958654
20
35.9845270104104
30
0
41
1
10
50.6069699217906
20
35.9830858833991
30
0
41
1
10
50.6266378396816
20
35.9771674781028
30
0
41
1
10
50.6369134050209
20
35.9721009202842
30
0
41
1
10
50.6653222771678
20
35.9537942785011
30
0
41
1
10
50.6817145718926
20
35.9371564362597
30
0
41
1
10
50.6952471099586
20
35.9189784635244
30
0
0
SPLINE
5
266
100
AcDbEntity
8
1
62
256
6
ByLayer
370
-1
48
1
60
0
100
AcDbSpline
70
4
71
3
72
12
73
8
40
0
40
0
40
0
40
0
40
0.339979538766793
40
0.339979538766793
40
0.835812874070232
40
0.835812874070232
40
1
40
1
40
1
40
1
41
1
10
58.3076857342755
20
36.9134601176373
30
0
41
1
10
58.2528625603357
20
36.8521738163803
30
0
41
1
10
58.1965683836679
20
36.7921002054786
30
0
41
1
10
58.0547479578102
20
36.6475376730465
30
0
41
1
10
57.9675941618621
20
36.564422086328
30
0
41
1
10
57.8478414118493
20
36.4575253654561
30
0
41
1
10
57.8177315297901
20
36.4312313921861
30
0
41
1
10
57.7873169772771
20
36.4052485240975
30
0
0
SPLINE
5
267
100
AcDbEntity
8
1
62
256
6
ByLayer
370
-1
48
1
60
0
100
AcDbSpline
70
4
71
3
72
10
73
6
40
0
40
0
40
0
40
0
40
0.303481278345311
40
0.303481278345311
40
1
40
1
40
1
40
1
41
1
10
57.6522121118403
20
36.0925539581303
30
0
41
1
10
57.6793051208858
20
36.097826520512
30
0
41
1
10
57.7055034855709
20
36.1056819722515
30
0
41
1
10
57.7871034513252
20
36.1378016289975
30
0
41
1
10
57.8382459472445
20
36.1705717461099
30
0
41
1
10
57.8822792837801
20
36.2091348808324
30
0
0
SPLINE
5
268
100
AcDbEntity
8
1
62
256
6
ByLayer
370
-1
48
1
60
0
100
AcDbSpline
70
4
71
3
72
12
73
8
40
0
40
0
40
0
40
0
40
0.0127217534693043
40
0.0127217534693043
40
0.526205585976647
40
0.526205585976647
40
1
40
1
40
1
40
1
41
1
10
57.3346120371941
20
36.1226621746611
30
0
41
1
10
57.3359441036619
20
36.1224875751356
30
0
41
1
10
57.3372767062593
20
36.1223126927605
30
0
41
1
10
57.3925451578297
20
36.1150936803503
30
0
41
1
10
57.4478356949382
20
36.1086480462263
30
0
41
1
10
57.5531543619571
20
36.0985466178237
30
0
41
1
10
57.6041930920084
20
36.0945964443129
30
0
41
1
10
57.6522121118403
20
36.0925539581303
30
0
0
SPLINE
5
269
100
AcDbEntity
8
1
62
256
6
ByLayer
370
-1
48
1
60
0
100
AcDbSpline
70
4
71
3
72
12
73
8
40
0
40
0
40
0
40
0
40
0.470534389757138
40
0.470534389757138
40
0.98592176495548
40
0.98592176495548
40
1
40
1
40
1
40
1
41
1
10
57.6223795027999
20
36.2676791672793
30
0
41
1
10
57.578935717519
20
36.2448058095553
30
0
41
1
10
57.5333239772103
20
36.2215469976825
30
0
41
1
10
57.4382047900492
20
36.1737034136569
30
0
41
1
10
57.3880261864184
20
36.1488734185853
30
0
41
1
10
57.3373039615125
20
36.1239827070235
30
0
41
1
10
57.3359576346665
20
36.1233225660619
30
0
41
1
10
57.3346120371941
20
36.1226621746611
30
0
0
SPLINE
5
26A
100
AcDbEntity
8
1
62
256
6
ByLayer
370
-1
48
1
60
0
100
AcDbSpline
70
4
71
3
72
10
73
6
40
0
40
0
40
0
40
0
40
0.70921355305828
40
0.70921355305828
40
1
40
1
40
1
40
1
41
1
10
57.7873169772771
20
36.4052485240975
30
0
41
1
10
57.7541530537826
20
36.3668880937606
30
0
41
1
10
57.7171760290405
20
36.3311650263148
30
0
41
1
10
57.6588959480016
20
36.2889030642801
30
0
41
1
10
57.6410668546703
20
36.2775181461225
30
0
41
1
10
57.6223795027999
20
36.2676791672793
30
0
0
SPLINE
5
26B
100
AcDbEntity
8
1
62
256
6
ByLayer
370
-1
48
1
60
0
100
AcDbSpline
70
4
71
3
72
10
73
6
40
0
40
0
40
0
40
0
40
0.469696784645118
40
0.469696784645118
40
1
40
1
40
1
40
1
41
1
10
56.5050438830255
20
35.0528869935083
30
0
41
1
10
56.4517696500652
20
34.979269579685
30
0
41
1
10
56.3958845618202
20
34.9080693879711
30
0
41
1
10
56.271595200872
20
34.7619879092998
30
0
41
1
10
56.2024499295752
20
34.6877469914585
30
0
41
1
10
56.1302086911712
20
34.6169632169096
30
0
0
SPLINE
5
26C
100
AcDbEntity
8
1
62
256
6
ByLayer
370
-1
48
1
60
0
100
AcDbSpline
70
4
71
3
72
10
73
6
40
0
40
0
40
0
40
0
40
0.339922223692915
40
0.339922223692915
40
1
40
1
40
1
40
1
41
1
10
50.7582033917586
20
35.9757891973772
30
0
41
1
10
50.7173076705043
20
36.043238598508
30
0
41
1
10
50.6781403947543
20
36.1113444855489
30
0
41
1
10
50.5681084677744
20
36.3133452059892
30
0
41
1
10
50.5020305391627
20
36.4489699762515
30
0
41
1
10
50.4427189925937
20
36.5863263897906
30
0
0
SPLINE
5
26D
100
AcDbEntity
8
1
62
256
6
ByLayer
370
-1
48
1
60
0
100
AcDbSpline
70
4
71
3
72
10
73
6
40
0
40
0
40
0
40
0
40
0.2966813855126
40
0.2966813855126
40
1
40
1
40
1
40
1
41
1
10
56.7207756549244
20
34.9841440170718
30
0
41
1
10
56.7328796634903
20
35.0003006973988
30
0
41
1
10
56.7438053482652
20
35.0176564949167
30
0
41
1
10
56.7755100538481
20
35.0794656920018
30
0
41
1
10
56.7903593900043
20
35.1301856064973
30
0
41
1
10
56.7926144486969
20
35.1859710963117
30
0
0
SPLINE
5
26E
100
AcDbEntity
8
1
62
256
6
ByLayer
370
-1
48
1
60
0
100
AcDbSpline
70
4
71
3
72
12
73
8
40
0
40
0
40
0
40
0
40
0.473794414023364
40
0.473794414023364
40
0.987278246530715
40
0.987278246530715
40
1
40
1
40
1
40
1
41
1
10
56.7926144486968
20
35.1859710963117
30
0
41
1
10
56.7842907747452
20
35.2298786570659
30
0
41
1
10
56.7753921338899
20
35.2782722769685
30
0
41
1
10
56.7571979194915
20
35.3802603390578
30
0
41
1
10
56.7477237165673
20
35.4350266063614
30
0
41
1
10
56.7384724944557
20
35.4907781280658
30
0
41
1
10
56.7382492347151
20
35.4921229894495
30
0
41
1
10
56.7380268821224
20
35.4934679592819
30
0
0
SPLINE
5
26F
100
AcDbEntity
8
1
62
256
6
ByLayer
370
-1
48
1
60
0
100
AcDbSpline
70
4
71
3
72
12
73
8
40
0
40
0
40
0
40
0
40
0.0140782350445077
40
0.0140782350445077
40
0.529465610242853
40
0.529465610242853
40
1
40
1
40
1
40
1
41
1
10
56.7380268821224
20
35.4934679592819
30
0
41
1
10
56.7374280034201
20
35.4920775903667
30
0
41
1
10
56.736830011365
20
35.4906871368825
30
0
41
1
10
56.7143041961999
20
35.4383261054054
30
0
41
1
10
56.692628518234
20
35.3873742980861
30
0
41
1
10
56.652736146086
20
35.2928266553029
30
0
41
1
10
56.6341440947456
20
35.2483723268677
30
0
41
1
10
56.6170917160078
20
35.2074428290737
30
0
0
SPLINE
5
270
100
AcDbEntity
8
1
62
256
6
ByLayer
370
-1
48
1
60
0
100
AcDbSpline
70
4
71
3
72
10
73
6
40
0
40
0
40
0
40
0
40
0.691437525404684
40
0.691437525404684
40
1
40
1
40
1
40
1
41
1
10
56.6170917160078
20
35.2074428290737
30
0
41
1
10
56.5997571266765
20
35.1658359631518
30
0
41
1
10
56.5743112998281
20
35.1287427793297
30
0
41
1
10
56.5328869551214
20
35.0806119287708
30
0
41
1
10
56.5192673782822
20
35.0664076592052
30
0
41
1
10
56.5050438830714
20
35.0528869934784
30
0
0
SPLINE
5
271
100
AcDbEntity
8
1
62
256
6
ByLayer
370
-1
48
1
60
0
100
AcDbSpline
70
4
71
3
72
8
73
4
40
0
40
0
40
0
40
0
40
1
40
1
40
1
40
1
41
1
10
58.5047525806605
20
33.5998467533862
30
0
41
1
10
58.4473840262855
20
33.6247635627354
30
0
41
1
10
58.3916004782917
20
33.6515254256758
30
0
41
1
10
58.3376912740789
20
33.6791144298369
30
0
0
SPLINE
5
272
100
AcDbEntity
8
1
62
256
6
ByLayer
370
-1
48
1
60
0
100
AcDbSpline
70
4
71
3
72
8
73
4
40
0
40
0
40
0
40
0
40
1
40
1
40
1
40
1
41
1
10
58.2483199340065
20
33.4172636692526
30
0
41
1
10
58.2913170255547
20
33.4079752716684
30
0
41
1
10
58.3354924865532
20
33.3993507399884
30
0
41
1
10
58.3804923826038
20
33.3916930491081
30
0
0
SPLINE
5
273
100
AcDbEntity
8
1
62
256
6
ByLayer
370
-1
48
1
60
0
100
AcDbSpline
70
4
71
3
72
8
73
4
40
0
40
0
40
0
40
0
40
1
40
1
40
1
40
1
41
1
10
52.6752993196044
20
33.4893902206211
30
0
41
1
10
52.2754212628316
20
33.6217546484041
30
0
41
1
10
51.8879784385233
20
33.7971420031502
30
0
41
1
10
51.5212226972063
20
34.0117478016714
30
0
0
SPLINE
5
274
100
AcDbEntity
8
SK1
62
256
6
ByLayer
370
-1
48
1
60
0
100
AcDbSpline
70
4
71
3
72
295
73
291
40
0
40
0
40
0
40
0
40
0.0029463028677511
40
0.006522227751277
40
0.010098152634803
40
0.0136740775183289
40
0.0172500024018548
40
0.0208259272853808
40
0.0279777770524327
40
0.0351296268194845
40
0.0422814765865364
40
0.0458574014700624
40
0.0494333263535883
40
0.0530092512371143
40
0.0565851761206402
40
0.0637370258876921
40
0.067312950771218
40
0.070888875654744
40
0.0744648005382699
40
0.0780407254217958
40
0.0816166503053218
40
0.0851925751888477
40
0.0923444249558996
40
0.0959203498394256
40
0.0994962747229515
40
0.103072199606477
40
0.106648124490003
40
0.110224049373529
40
0.113799974257055
40
0.117375899140581
40
0.120951824024107
40
0.124527748907633
40
0.128103673791159
40
0.131679598674685
40
0.135255523558211
40
0.138831448441737
40
0.142407373325263
40
0.149559223092315
40
0.153135147975841
40
0.156711072859367
40
0.158499035301129
40
0.160286997742893
40
0.163862922626418
40
0.17101477239347
40
0.174590697276996
40
0.178166622160522
40
0.181742547044048
40
0.185318471927574
40
0.192470321694626
40
0.196046246578152
40
0.199622171461678
40
0.201410133903441
40
0.203198096345204
40
0.20677402122873
40
0.213925870995782
40
0.217501795879308
40
0.221077720762833
40
0.224653645646359
40
0.228229570529885
40
0.235381420296937
40
0.238957345180463
40
0.242533270063989
40
0.244321232505752
40
0.246109194947515
40
0.249685119831041
40
0.253261044714567
40
0.256836969598093
40
0.258624932039856
40
0.260412894481619
40
0.263988819365145
40
0.267564744248671
40
0.271140669132197
40
0.274716594015723
40
0.278292518899249
40
0.281868443782774
40
0.285444368666301
40
0.289020293549826
40
0.292596218433352
40
0.296172143316878
40
0.299748068200404
40
0.30332399308393
40
0.306899917967456
40
0.310475842850982
40
0.314051767734508
40
0.32120361750156
40
0.324779542385086
40
0.328355467268612
40
0.331931392152138
40
0.335507317035664
40
0.339083241919189
40
0.342659166802716
40
0.346235091686241
40
0.349811016569767
40
0.356962866336819
40
0.364114716103871
40
0.371266565870923
40
0.374842490754449
40
0.378418415637975
40
0.381994340521501
40
0.385570265405027
40
0.389146190288553
40
0.392722115172079
40
0.396298040055605
40
0.399873964939131
40
0.403449889822656
40
0.407025814706182
40
0.410601739589708
40
0.414177664473234
40
0.41775358935676
40
0.421329514240286
40
0.424905439123812
40
0.428481364007338
40
0.432057288890864
40
0.433845251332627
40
0.43563321377439
40
0.437421176216153
40
0.439209138657916
40
0.442785063541442
40
0.446360988424968
40
0.448148950866731
40
0.449936913308494
40
0.451724875750257
40
0.45351283819202
40
0.457088763075546
40
0.458876725517309
40
0.460664687959072
40
0.462452650400835
40
0.464240612842597
40
0.46602857528436
40
0.467816537726124
40
0.469604500167886
40
0.471392462609649
40
0.473180425051412
40
0.474968387493175
40
0.476756349934938
40
0.478544312376701
40
0.480332274818464
40
0.482120237260227
40
0.48390819970199
40
0.485696162143753
40
0.487484124585516
40
0.489272087027279
40
0.491060049469042
40
0.492848011910805
40
0.494635974352568
40
0.496423936794331
40
0.498211899236094
40
0.499999861677857
40
0.50178782411962
40
0.503575786561383
40
0.505363749003146
40
0.507151711444909
40
0.508939673886672
40
0.510727636328435
40
0.512515598770198
40
0.514303561211961
40
0.516091523653724
40
0.517879486095487
40
0.51966744853725
40
0.521455410979012
40
0.523243373420776
40
0.525031335862538
40
0.526819298304301
40
0.528607260746064
40
0.530395223187827
40
0.53218318562959
40
0.533971148071353
40
0.535759110513116
40
0.537547072954879
40
0.539335035396642
40
0.541122997838405
40
0.542910960280168
40
0.546486885163694
40
0.548274847605457
40
0.55006281004722
40
0.551850772488983
40
0.553638734930746
40
0.557214659814272
40
0.560790584697798
40
0.562578547139561
40
0.564366509581324
40
0.566154472023087
40
0.56794243446485
40
0.571518359348376
40
0.575094284231902
40
0.578670209115428
40
0.582246133998954
40
0.58582205888248
40
0.589397983766005
40
0.592973908649531
40
0.596549833533057
40
0.600125758416583
40
0.603701683300109
40
0.607277608183635
40
0.610853533067161
40
0.614429457950687
40
0.618005382834213
40
0.621581307717739
40
0.625157232601265
40
0.628733157484791
40
0.635885007251843
40
0.643036857018895
40
0.650188706785946
40
0.653764631669472
40
0.657340556552998
40
0.660916481436524
40
0.66449240632005
40
0.668068331203576
40
0.671644256087102
40
0.675220180970628
40
0.678796105854154
40
0.685947955621206
40
0.689523880504732
40
0.693099805388258
40
0.696675730271784
40
0.70025165515531
40
0.703827580038836
40
0.707403504922361
40
0.710979429805887
40
0.714555354689413
40
0.718131279572939
40
0.721707204456465
40
0.725283129339991
40
0.728859054223517
40
0.736010903990569
40
0.739586828874095
40
0.743162753757621
40
0.750314603524673
40
0.753890528408199
40
0.757466453291725
40
0.761042378175251
40
0.764618303058777
40
0.771770152825828
40
0.775346077709354
40
0.77892200259288
40
0.782497927476406
40
0.786073852359932
40
0.793225702126984
40
0.79680162701051
40
0.800377551894036
40
0.803953476777562
40
0.807529401661088
40
0.81468125142814
40
0.818257176311666
40
0.821833101195192
40
0.825409026078718
40
0.828984950962243
40
0.836136800729295
40
0.839712725612821
40
0.843288650496347
40
0.846864575379873
40
0.850440500263399
40
0.857592350030451
40
0.861168274913977
40
0.864744199797503
40
0.868320124681029
40
0.871896049564555
40
0.875471974448081
40
0.879047899331607
40
0.882623824215133
40
0.886199749098659
40
0.889775673982184
40
0.89335159886571
40
0.896927523749236
40
0.900503448632762
40
0.904079373516288
40
0.907655298399814
40
0.914807148166866
40
0.918383073050392
40
0.921958997933918
40
0.925534922817444
40
0.92911084770097
40
0.932686772584496
40
0.936262697468022
40
0.943414547235074
40
0.9469904721186
40
0.950566397002125
40
0.954142321885651
40
0.957718246769177
40
0.964870096536229
40
0.968446021419755
40
0.972021946303281
40
0.975597871186807
40
0.979173796070333
40
0.982749720953859
40
0.986325645837385
40
0.989901570720911
40
0.993477495604437
40
0.997053420487963
40
1
40
1
40
1
40
1
41
1
10
-2.19999999999999
20
22.0135196667453
30
0
41
1
10
-2.19999999999999
20
22.011727601812
30
0
41
1
10
-2.19999999999999
20
22.0069596851807
30
0
41
1
10
-2.19999999999999
20
21.9968726461305
30
0
41
1
10
-2.19999999999999
20
21.9830583750197
30
0
41
1
10
-2.19999999999999
20
21.9661971621578
30
0
41
1
10
-2.19999999999999
20
21.9463373083127
30
0
41
1
10
-2.19999999999999
20
21.9159230944434
30
0
41
1
10
-2.19999999999999
20
21.870633664349
30
0
41
1
10
-2.19999999999999
20
21.8049949078793
30
0
41
1
10
-2.19999999999999
20
21.7411390111089
30
0
41
1
10
-2.19999999999999
20
21.6847072709128
30
0
41
1
10
-2.19999999999999
20
21.6397397481888
30
0
41
1
10
-2.19999999999999
20
21.5921615264852
30
0
41
1
10
-2.19999999999999
20
21.5252891523049
30
0
41
1
10
-2.19999999999999
20
21.453308753177
30
0
41
1
10
-2.19999999999999
20
21.3763547276269
30
0
41
1
10
-2.19999999999999
20
21.3161703964091
30
0
41
1
10
-2.19999999999999
20
21.2535469243879
30
0
41
1
10
-2.19999999999999
20
21.1885090229233
30
0
41
1
10
-2.19999999999999
20
21.121080083473
30
0
41
1
10
-2.19999999999999
20
21.0280237507364
30
0
41
1
10
-2.19999999999999
20
20.9302657445266
30
0
41
1
10
-2.19999999999999
20
20.8279188369072
30
0
41
1
10
-2.19999999999999
20
20.7488739070252
30
0
41
1
10
-2.19999999999999
20
20.6675681841826
30
0
41
1
10
-2.19999999999999
20
20.5840212184218
30
0
41
1
10
-2.19999999999999
20
20.4982502525025
30
0
41
1
10
-2.19999999999999
20
20.4102747128949
30
0
41
1
10
-2.19999999999999
20
20.3201119071544
30
0
41
1
10
-2.19999999999999
20
20.2277776663919
30
0
41
1
10
-2.19999999999999
20
20.1332899477274
30
0
41
1
10
-2.19999999999999
20
20.0366642357895
30
0
41
1
10
-2.19999999999999
20
19.9379151599299
30
0
41
1
10
-2.19999999999999
20
19.8370591957147
30
0
41
1
10
-2.19999999999999
20
19.7341102362335
30
0
41
1
10
-2.19999999999999
20
19.5940778412012
30
0
41
1
10
-2.19999999999999
20
19.4499005336558
30
0
41
1
10
-2.19999999999999
20
19.3016622310533
30
0
41
1
10
-2.19999999999999
20
19.2073184270571
30
0
41
1
10
-2.19999999999999
20
19.1308417758755
30
0
41
1
10
-2.19999999999999
20
19.0536957086557
30
0
41
1
10
-2.19999999999999
20
18.9169360704622
30
0
41
1
10
-2.19999999999999
20
18.756645794641
30
0
41
1
10
-2.19999999999999
20
18.5924362845557
30
0
41
1
10
-2.19999999999999
20
18.4673177976698
30
0
41
1
10
-2.19999999999999
20
18.3402521463352
30
0
41
1
10
-2.19999999999999
20
18.1682545122203
30
0
41
1
10
-2.19999999999999
20
17.9923842356821
30
0
41
1
10
-2.19999999999999
20
17.8127164551587
30
0
41
1
10
-2.19999999999999
20
17.6988333809735
30
0
41
1
10
-2.19999999999999
20
17.606787767091
30
0
41
1
10
-2.19999999999999
20
17.5141131161323
30
0
41
1
10
-2.19999999999999
20
17.3502824417036
30
0
41
1
10
-2.19999999999999
20
17.1592829447589
30
0
41
1
10
-2.19999999999999
20
16.9645867974536
30
0
41
1
10
-2.19999999999999
20
16.8167088060477
30
0
41
1
10
-2.19999999999999
20
16.6669871400996
30
0
41
1
10
-2.19999999999999
20
16.4649164953067
30
0
41
1
10
-2.19999999999999
20
16.2591646002876
30
0
41
1
10
-2.19999999999999
20
16.049802831716
30
0
41
1
10
-2.19999999999999
20
15.9174340084588
30
0
41
1
10
-2.19999999999999
20
15.8106442286412
30
0
41
1
10
-2.19999999999999
20
15.7032538676567
30
0
41
1
10
-2.19999999999999
20
15.567882396309
30
0
41
1
10
-2.19999999999999
20
15.4036502143979
30
0
41
1
10
-2.19999999999999
20
15.2652965264295
30
0
41
1
10
-2.19999999999999
20
15.1537302031574
30
0
41
1
10
-2.19999999999999
20
15.0415708470876
30
0
41
1
10
-2.19999999999999
20
14.90025131083
30
0
41
1
10
-2.19999999999999
20
14.7289012367181
30
0
41
1
10
-2.19999999999999
20
14.5557843226631
30
0
41
1
10
-2.19999999999999
20
14.3809062427341
30
0
41
1
10
-2.19999999999999
20
14.2042700822292
30
0
41
1
10
-2.19999999999999
20
14.0258803741545
30
0
41
1
10
-2.19999999999999
20
13.8457420253844
30
0
41
1
10
-2.19999999999999
20
13.6638579861817
30
0
41
1
10
-2.19999999999999
20
13.4802328481714
30
0
41
1
10
-2.19999999999999
20
13.2948705974071
30
0
41
1
10
-2.19999999999999
20
13.1077737485311
30
0
41
1
10
-2.19999999999999
20
12.9189467805057
30
0
41
1
10
-2.19999999999999
20
12.728392778749
30
0
41
1
10
-2.19999999999999
20
12.5361142588231
30
0
41
1
10
-2.19999999999999
20
12.2774598592137
30
0
41
1
10
-2.19999999999999
20
12.0153352592314
30
0
41
1
10
-2.19999999999999
20
11.7498207258852
30
0
41
1
10
-2.19999999999999
20
11.5489655826483
30
0
41
1
10
-2.19999999999999
20
11.3464032807099
30
0
41
1
10
-2.19999999999999
20
11.1421359853758
30
0
41
1
10
-2.19999999999999
20
10.9361655879759
30
0
41
1
10
-2.19999999999999
20
10.7284950970913
30
0
41
1
10
-2.19999999999999
20
10.5191258614377
30
0
41
1
10
-2.19999999999999
20
10.2377184130835
30
0
41
1
10
-2.19999999999999
20
9.88169304970987
30
0
41
1
10
-2.19999999999999
20
9.44771865839311
30
0
41
1
10
-2.19999999999999
20
9.08043848955603
30
0
41
1
10
-2.19999999999999
20
8.78327689677775
30
0
41
1
10
-2.19999999999999
20
8.55871419535617
30
0
41
1
10
-2.19999999999999
20
8.33247380011301
30
0
41
1
10
-2.19999999999999
20
8.10455852701506
30
0
41
1
10
-2.19999999999999
20
7.87497060194644
30
0
41
1
10
-2.19999999999999
20
7.6437128367312
30
0
41
1
10
-2.19999999999999
20
7.41078884464241
30
0
41
1
10
-2.19999999999999
20
7.17620220160032
30
0
41
1
10
-2.19999999999999
20
6.93995692090419
30
0
41
1
10
-2.19999999999999
20
6.70205758660663
30
0
41
1
10
-2.19999999999999
20
6.46250918569618
30
0
41
1
10
-2.19999999999999
20
6.2213178400012
30
0
41
1
10
-2.19999999999999
20
5.97849049576266
30
0
41
1
10
-2.19999999999999
20
5.73403521575827
30
0
41
1
10
-2.19999999999999
20
5.48796107357256
30
0
41
1
10
-2.19999999999999
20
5.24027911118978
30
0
41
1
10
-2.19999999999999
20
5.03253661023487
30
0
41
1
10
-2.19999999999999
20
4.86557359122418
30
0
41
1
10
-2.19999999999999
20
4.73994908127321
30
0
41
1
10
-2.19999999999999
20
4.61393371339017
30
0
41
1
10
-2.19999999999999
20
4.44540774959788
30
0
41
1
10
-2.19999999999999
20
4.23375652596863
30
0
41
1
10
-2.19999999999999
20
4.02083961713782
30
0
41
1
10
-2.19999999999999
20
3.84978439152417
30
0
41
1
10
-2.19999999999999
20
3.72111342731068
30
0
41
1
10
-2.19999999999999
20
3.59207749308624
30
0
41
1
10
-2.19999999999999
20
3.41956369464535
30
0
41
1
10
-2.19999999999999
20
3.24629481959221
30
0
41
1
10
-2.19999999999999
20
3.0723836150739
30
0
41
1
10
-2.19999999999999
20
2.94160046512801
30
0
41
1
10
-2.19999999999999
20
2.81048647644627
30
0
41
1
10
-2.19999999999999
20
2.67904892732182
30
0
41
1
10
-2.19999999999999
20
2.54729562722176
30
0
41
1
10
-2.19999999999999
20
2.41523551097489
30
0
41
1
10
-2.19999999999999
20
2.28287740252156
30
0
41
1
10
-2.19999999999999
20
2.15023166945255
30
0
41
1
10
-2.19999999999999
20
2.01730873413072
30
0
41
1
10
-2.19999999999999
20
1.88412021099791
30
0
41
1
10
-2.19999999999999
20
1.75067841854351
30
0
41
1
10
-2.19999999999999
20
1.61699634722072
30
0
41
1
10
-2.19999999999999
20
1.48308821885627
30
0
41
1
10
-2.19999999999999
20
1.34896859254377
30
0
41
1
10
-2.19999999999999
20
1.21465350310541
30
0
41
1
10
-2.19999999999999
20
1.0801592162689
30
0
41
1
10
-2.19999999999999
20
0.945503442662783
30
0
41
1
10
-2.19999999999999
20
0.810704113119073
30
0
41
1
10
-2.19999999999999
20
0.675780421912322
30
0
41
1
10
-2.19999999999999
20
0.540751787789588
30
0
41
1
10
-2.19999999999999
20
0.405638599098921
30
0
41
1
10
-2.19999999999999
20
0.270461428271432
30
0
41
1
10
-2.19999999999999
20
0.135241462279822
30
0
41
1
10
-2.19999999999999
20
-5.3654787E-09
30
0
41
1
10
-2.19999999999999
20
-0.135241472589996
30
0
41
1
10
-2.19999999999999
20
-0.270461437853925
30
0
41
1
10
-2.19999999999999
20
-0.405638608907907
30
0
41
1
10
-2.19999999999999
20
-0.540751798686529
30
0
41
1
10
-2.19999999999999
20
-0.675780432522174
30
0
41
1
10
-2.19999999999999
20
-0.810704122044939
30
0
41
1
10
-2.19999999999999
20
-0.945503451789534
30
0
41
1
10
-2.19999999999999
20
-1.08015922751395
30
0
41
1
10
-2.19999999999999
20
-1.21465351395383
30
0
41
1
10
-2.19999999999999
20
-1.34896860046499
30
0
41
1
10
-2.19999999999999
20
-1.48308822685564
30
0
41
1
10
-2.19999999999999
20
-1.61699635855226
30
0
41
1
10
-2.19999999999999
20
-1.75067843002711
30
0
41
1
10
-2.19999999999999
20
-1.88412021847037
30
0
41
1
10
-2.19999999999999
20
-2.01730874020455
30
0
41
1
10
-2.19999999999999
20
-2.15023167925048
30
0
41
1
10
-2.19999999999999
20
-2.28287741514001
30
0
41
1
10
-2.19999999999999
20
-2.41523552035437
30
0
41
1
10
-2.19999999999999
20
-2.54729563151926
30
0
41
1
10
-2.19999999999999
20
-2.67904893291683
30
0
41
1
10
-2.19999999999999
20
-2.81048648769612
30
0
41
1
10
-2.19999999999999
20
-2.94160047796311
30
0
41
1
10
-2.19999999999999
20
-3.072383622975
30
0
41
1
10
-2.19999999999999
20
-3.24629481975686
30
0
41
1
10
-2.19999999999999
20
-3.41956370437865
30
0
41
1
10
-2.19999999999999
20
-3.59207750684843
30
0
41
1
10
-2.19999999999999
20
-3.72111343644576
30
0
41
1
10
-2.19999999999999
20
-3.84978439330678
30
0
41
1
10
-2.19999999999999
20
-4.020839617489
30
0
41
1
10
-2.19999999999999
20
-4.23375654375474
30
0
41
1
10
-2.19999999999999
20
-4.44540775759583
30
0
41
1
10
-2.19999999999999
20
-4.61393371339872
30
0
41
1
10
-2.19999999999999
20
-4.73994907984499
30
0
41
1
10
-2.19999999999999
20
-4.86557359653659
30
0
41
1
10
-2.19999999999999
20
-5.03253662624778
30
0
41
1
10
-2.19999999999999
20
-5.24027911954084
30
0
41
1
10
-2.19999999999999
20
-5.48796106514416
30
0
41
1
10
-2.19999999999999
20
-5.73403522651989
30
0
41
1
10
-2.19999999999999
20
-5.97849051253721
30
0
41
1
10
-2.19999999999999
20
-6.22131783489101
30
0
41
1
10
-2.19999999999999
20
-6.46250917346813
30
0
41
1
10
-2.19999999999999
20
-6.70205756880287
30
0
41
1
10
-2.19999999999999
20
-6.93995689241021
30
0
41
1
10
-2.19999999999999
20
-7.17620223308296
30
0
41
1
10
-2.19999999999999
20
-7.41078904293681
30
0
41
1
10
-2.19999999999999
20
-7.64371312168015
30
0
41
1
10
-2.19999999999999
20
-7.87497052861914
30
0
41
1
10
-2.19999999999999
20
-8.10455846042146
30
0
41
1
10
-2.19999999999999
20
-8.33247384441506
30
0
41
1
10
-2.19999999999999
20
-8.55871423477029
30
0
41
1
10
-2.19999999999999
20
-8.78327691067398
30
0
41
1
10
-2.19999999999999
20
-9.08043846702645
30
0
41
1
10
-2.19999999999999
20
-9.44771866001565
30
0
41
1
10
-2.19999999999999
20
-9.88169305528194
30
0
41
1
10
-2.19999999999999
20
-10.2377183913447
30
0
41
1
10
-2.19999999999999
20
-10.5191258633122
30
0
41
1
10
-2.19999999999999
20
-10.7284951094206
30
0
41
1
10
-2.19999999999999
20
-10.9361655882296
30
0
41
1
10
-2.19999999999999
20
-11.1421359694817
30
0
41
1
10
-2.19999999999999
20
-11.3464032666245
30
0
41
1
10
-2.19999999999999
20
-11.5489655840494
30
0
41
1
10
-2.19999999999999
20
-11.7498207382014
30
0
41
1
10
-2.19999999999999
20
-12.015335258712
30
0
41
1
10
-2.19999999999999
20
-12.277459839655
30
0
41
1
10
-2.19999999999999
20
-12.5361142561418
30
0
41
1
10
-2.19999999999999
20
-12.7283927892775
30
0
41
1
10
-2.19999999999999
20
-12.9189467887917
30
0
41
1
10
-2.19999999999999
20
-13.1077737445537
30
0
41
1
10
-2.19999999999999
20
-13.2948705838035
30
0
41
1
10
-2.19999999999999
20
-13.4802328404438
30
0
41
1
10
-2.19999999999999
20
-13.6638579908946
30
0
41
1
10
-2.19999999999999
20
-13.845742035678
30
0
41
1
10
-2.19999999999999
20
-14.0258803815961
30
0
41
1
10
-2.19999999999999
20
-14.2042701267483
30
0
41
1
10
-2.19999999999999
20
-14.3809064511142
30
0
41
1
10
-2.19999999999999
20
-14.61406817927
30
0
41
1
10
-2.19999999999999
20
-14.8437340716545
30
0
41
1
10
-2.19999999999999
20
-15.069828938707
30
0
41
1
10
-2.19999999999999
20
-15.2935559429894
30
0
41
1
10
-2.19999999999999
20
-15.513744330902
30
0
41
1
10
-2.19999999999999
20
-15.7303232767805
30
0
41
1
10
-2.19999999999999
20
-15.8909649274654
30
0
41
1
10
-2.19999999999999
20
-16.0498023362736
30
0
41
1
10
-2.19999999999999
20
-16.2591647559547
30
0
41
1
10
-2.19999999999999
20
-16.4649171124643
30
0
41
1
10
-2.19999999999999
20
-16.666987304737
30
0
41
1
10
-2.19999999999999
20
-16.8167085043733
30
0
41
1
10
-2.19999999999999
20
-16.9645862898264
30
0
41
1
10
-2.19999999999999
20
-17.1592828976246
30
0
41
1
10
-2.19999999999999
20
-17.3502835148979
30
0
41
1
10
-2.19999999999999
20
-17.5375147595292
30
0
41
1
10
-2.19999999999999
20
-17.676060438985
30
0
41
1
10
-2.19999999999999
20
-17.8127154575359
30
0
41
1
10
-2.19999999999999
20
-17.9923842415008
30
0
41
1
10
-2.19999999999999
20
-18.1682547291306
30
0
41
1
10
-2.19999999999999
20
-18.3402522143585
30
0
41
1
10
-2.19999999999999
20
-18.4673177032107
30
0
41
1
10
-2.19999999999999
20
-18.5924361073221
30
0
41
1
10
-2.19999999999999
20
-18.7566457425986
30
0
41
1
10
-2.19999999999999
20
-18.9169371900015
30
0
41
1
10
-2.19999999999999
20
-19.0732305996174
30
0
41
1
10
-2.19999999999999
20
-19.1884526890887
30
0
41
1
10
-2.19999999999999
20
-19.3016611759423
30
0
41
1
10
-2.19999999999999
20
-19.4499005391959
30
0
41
1
10
-2.19999999999999
20
-19.5940785255289
30
0
41
1
10
-2.19999999999999
20
-19.7341104289282
30
0
41
1
10
-2.19999999999999
20
-19.8370589164793
30
0
41
1
10
-2.19999999999999
20
-19.9379146863563
30
0
41
1
10
-2.19999999999999
20
-20.0366640227898
30
0
41
1
10
-2.19999999999999
20
-20.133289903145
30
0
41
1
10
-2.19999999999999
20
-20.2277776697998
30
0
41
1
10
-2.19999999999999
20
-20.3201119082527
30
0
41
1
10
-2.19999999999999
20
-20.4102747220553
30
0
41
1
10
-2.19999999999999
20
-20.4982502752196
30
0
41
1
10
-2.19999999999999
20
-20.5840212474559
30
0
41
1
10
-2.19999999999999
20
-20.6675682022903
30
0
41
1
10
-2.19999999999999
20
-20.7488739108727
30
0
41
1
10
-2.19999999999999
20
-20.82791883753
30
0
41
1
10
-2.19999999999999
20
-20.9302657657864
30
0
41
1
10
-2.19999999999999
20
-21.0280237880878
30
0
41
1
10
-2.19999999999999
20
-21.1210800961781
30
0
41
1
10
-2.19999999999999
20
-21.1885090211437
30
0
41
1
10
-2.19999999999999
20
-21.2535469320083
30
0
41
1
10
-2.19999999999999
20
-21.3161704250344
30
0
41
1
10
-2.19999999999999
20
-21.3763547664481
30
0
41
1
10
-2.19999999999999
20
-21.4533087676779
30
0
41
1
10
-2.19999999999999
20
-21.5252891448141
30
0
41
1
10
-2.19999999999999
20
-21.5921615531195
30
0
41
1
10
-2.19999999999999
20
-21.6397397916631
30
0
41
1
10
-2.19999999999999
20
-21.6847072964973
30
0
41
1
10
-2.19999999999999
20
-21.7411389990572
30
0
41
1
10
-2.19999999999999
20
-21.7922265879071
30
0
41
1
10
-2.19999999999999
20
-21.8378144981283
30
0
41
1
10
-2.19999999999999
20
-21.8692221254414
30
0
41
1
10
-2.19999999999999
20
-21.8978063777089
30
0
41
1
10
-2.19999999999999
20
-21.9235254752891
30
0
41
1
10
-2.19999999999999
20
-21.9463373508774
30
0
41
1
10
-2.19999999999999
20
-21.9661972037607
30
0
41
1
10
-2.19999999999999
20
-21.9830583809744
30
0
41
1
10
-2.19999999999999
20
-21.9968726399857
30
0
41
1
10
-2.19999999999999
20
-22.0069599973205
30
0
41
1
10
-2.19999999999996
20
-22.0117281256598
30
0
41
1
10
-2.19999999999999
20
-22.0135203327236
30
0
0
SPLINE
5
275
100
AcDbEntity
8
SK1
62
256
6
ByLayer
370
-1
48
1
60
0
100
AcDbSpline
70
4
71
3
72
22
73
18
40
0
40
0
40
0
40
0
40
0.038427246458711
40
0.038427246458711
40
0.0775026456766427
40
0.0775026456766427
40
0.106475059033524
40
0.106475059033524
40
0.135305917881828
40
0.135305917881828
40
0.182167074412018
40
0.182167074412018
40
0.275660663800869
40
0.275660663800869
40
0.616530102228659
40
0.616530102228659
40
1
40
1
40
1
40
1
41
1
10
-0.394976888875306
20
-6.32694279392757
30
0
41
1
10
-0.414867561016194
20
-6.34445862132063
30
0
41
1
10
-0.436644357284194
20
-6.36058691921457
30
0
41
1
10
-0.484524151203374
20
-6.3868168818706
30
0
41
1
10
-0.511419954277358
20
-6.39702622866628
30
0
41
1
10
-0.560078773491597
20
-6.40490957850619
30
0
41
1
10
-0.58185248496946
20
-6.40512642059926
30
0
41
1
10
-0.623683911276856
20
-6.39912423041605
30
0
41
1
10
-0.644207278837683
20
-6.39293597600829
30
0
41
1
10
-0.694134540330907
20
-6.37121870092642
30
0
41
1
10
-0.722113964046542
20
-6.35215911803172
30
0
41
1
10
-0.796598131612939
20
-6.28903777408343
30
0
41
1
10
-0.836555557792792
20
-6.23798237717094
30
0
41
1
10
-0.997773060879837
20
-5.995390913813
30
0
41
1
10
-1.07178904300878
20
-5.77805690787602
30
0
41
1
10
-1.20827315239353
20
-5.31693201445015
30
0
41
1
10
-1.26212533694985
20
-5.06551762472202
30
0
41
1
10
-1.30710678118655
20
-4.81101321788441
30
0
0
SPLINE
5
276
100
AcDbEntity
8
SK1
62
256
6
ByLayer
370
-1
48
1
60
0
100
AcDbSpline
70
4
71
3
72
22
73
18
40
0
40
0
40
0
40
0
40
0.025518692999354
40
0.025518692999354
40
0.0515625307794633
40
0.0515625307794633
40
0.0689220502117166
40
0.0689220502117166
40
0.0862030429090035
40
0.0862030429090035
40
0.113761926258803
40
0.113761926258803
40
0.167639902693809
40
0.167639902693809
40
0.357269752158031
40
0.357269752158031
40
1
40
1
40
1
40
1
41
1
10
-0.394976888875277
20
6.326943090669
30
0
41
1
10
-0.389699799773268
20
6.32229605774103
30
0
41
1
10
-0.38394554029108
20
6.31808234313019
30
0
41
1
10
-0.371336208800898
20
6.31155719556298
30
0
41
1
10
-0.364237316839024
20
6.30923328231674
30
0
41
1
10
-0.35209572007625
20
6.30844589498398
30
0
41
1
10
-0.347038791108759
20
6.3089739150856
30
0
41
1
10
-0.337436838154161
20
6.31166640764118
30
0
41
1
10
-0.332782752688161
20
6.31383711710231
30
0
41
1
10
-0.321723955926899
20
6.32078578121266
30
0
41
1
10
-0.315689795621665
20
6.32640446307903
30
0
41
1
10
-0.300083216036057
20
6.3442802085479
30
0
41
1
10
-0.292057158925616
20
6.35806878925098
30
0
41
1
10
-0.261294067338724
20
6.42092251611513
30
0
41
1
10
-0.248999237994838
20
6.47445017323312
30
0
41
1
10
-0.204624309665832
20
6.70435570668306
30
0
41
1
10
-0.200000000000955
20
6.88379158154922
30
0
41
1
10
-0.200000000000955
20
7.05951756777668
30
0
0
SPLINE
5
277
100
AcDbEntity
8
SK1
62
256
6
ByLayer
370
-1
48
1
60
0
100
AcDbSpline
70
4
71
3
72
299
73
295
40
0
40
0
40
0
40
0
40
0.0029473644251228
40
0.0064724363576856
40
0.0099975082902484
40
0.0135225802228112
40
0.017047652155374
40
0.0205727240879368
40
0.0240977960204996
40
0.0276228679530624
40
0.034673011818188
40
0.0417231556833136
40
0.0487732995484392
40
0.052298371481002
40
0.0558234434135648
40
0.0593485153461276
40
0.0628735872786904
40
0.069923731143816
40
0.0734488030763788
40
0.0769738750089415
40
0.0804989469415043
40
0.0840240188740672
40
0.08754909080663
40
0.0910741627391928
40
0.0981243066043184
40
0.101649378536881
40
0.105174450469444
40
0.108699522402007
40
0.112224594334569
40
0.115749666267132
40
0.119274738199695
40
0.122799810132258
40
0.126324882064821
40
0.129849953997383
40
0.133375025929946
40
0.136900097862509
40
0.140425169795072
40
0.143950241727635
40
0.147475313660198
40
0.154525457525323
40
0.158050529457886
40
0.161575601390449
40
0.16333813735673
40
0.165100673323012
40
0.168625745255574
40
0.1756758891207
40
0.179200961053263
40
0.182726032985826
40
0.186251104918388
40
0.189776176850951
40
0.196826320716077
40
0.20035139264864
40
0.203876464581203
40
0.205639000547484
40
0.207401536513765
40
0.210926608446328
40
0.217976752311454
40
0.221501824244016
40
0.225026896176579
40
0.228551968109142
40
0.232077040041705
40
0.23912718390683
40
0.242652255839393
40
0.246177327771956
40
0.247939863738238
40
0.249702399704519
40
0.253227471637082
40
0.256752543569644
40
0.260277615502207
40
0.262040151468489
40
0.26380268743477
40
0.267327759367333
40
0.270852831299896
40
0.274377903232458
40
0.277902975165021
40
0.281428047097584
40
0.284953119030147
40
0.28847819096271
40
0.292003262895273
40
0.295528334827835
40
0.299053406760398
40
0.302578478692961
40
0.306103550625524
40
0.309628622558086
40
0.313153694490649
40
0.316678766423212
40
0.323728910288338
40
0.3272539822209
40
0.330779054153463
40
0.334304126086026
40
0.337829198018589
40
0.341354269951152
40
0.344879341883714
40
0.348404413816277
40
0.35192948574884
40
0.358979629613966
40
0.366029773479091
40
0.373079917344217
40
0.37660498927678
40
0.380130061209342
40
0.383655133141905
40
0.387180205074468
40
0.390705277007031
40
0.394230348939594
40
0.397755420872156
40
0.401280492804719
40
0.404805564737282
40
0.408330636669845
40
0.411855708602408
40
0.415380780534971
40
0.418905852467533
40
0.422430924400096
40
0.425955996332659
40
0.429481068265222
40
0.433006140197784
40
0.434768676164066
40
0.436531212130347
40
0.438293748096629
40
0.44005628406291
40
0.443581355995473
40
0.447106427928036
40
0.448868963894317
40
0.450631499860598
40
0.45239403582688
40
0.454156571793161
40
0.457681643725724
40
0.459444179692005
40
0.461206715658287
40
0.462969251624568
40
0.46473178759085
40
0.466494323557131
40
0.468256859523412
40
0.470019395489694
40
0.471781931455975
40
0.473544467422257
40
0.475307003388538
40
0.477069539354819
40
0.478832075321101
40
0.480594611287382
40
0.482357147253664
40
0.484119683219945
40
0.485882219186226
40
0.487644755152508
40
0.489407291118789
40
0.491169827085071
40
0.492932363051352
40
0.494694899017633
40
0.496457434983915
40
0.498219970950196
40
0.499982506916478
40
0.501745042882759
40
0.50350757884904
40
0.505270114815322
40
0.507032650781603
40
0.508795186747885
40
0.510557722714166
40
0.512320258680447
40
0.514082794646729
40
0.51584533061301
40
0.517607866579292
40
0.519370402545573
40
0.521132938511854
40
0.522895474478136
40
0.524658010444417
40
0.526420546410699
40
0.52818308237698
40
0.529945618343261
40
0.531708154309543
40
0.533470690275824
40
0.535233226242106
40
0.536995762208387
40
0.538758298174668
40
0.54052083414095
40
0.542283370107231
40
0.545808442039794
40
0.547570978006075
40
0.549333513972357
40
0.551096049938638
40
0.55285858590492
40
0.556383657837482
40
0.559908729770045
40
0.561671265736327
40
0.563433801702608
40
0.565196337668889
40
0.566958873635171
40
0.570483945567734
40
0.574009017500296
40
0.577534089432859
40
0.581059161365422
40
0.584584233297985
40
0.588109305230548
40
0.59163437716311
40
0.595159449095673
40
0.598684521028236
40
0.602209592960799
40
0.605734664893362
40
0.609259736825924
40
0.612784808758487
40
0.61630988069105
40
0.619834952623613
40
0.623360024556176
40
0.626885096488738
40
0.633935240353864
40
0.64098538421899
40
0.648035528084115
40
0.651560600016678
40
0.655085671949241
40
0.658610743881804
40
0.662135815814366
40
0.665660887746929
40
0.669185959679492
40
0.672711031612055
40
0.676236103544618
40
0.683286247409743
40
0.686811319342306
40
0.690336391274869
40
0.693861463207432
40
0.697386535139994
40
0.700911607072557
40
0.70443667900512
40
0.707961750937683
40
0.711486822870246
40
0.715011894802808
40
0.718536966735371
40
0.722062038667934
40
0.725587110600497
40
0.732637254465622
40
0.736162326398185
40
0.739687398330748
40
0.746737542195874
40
0.750262614128437
40
0.753787686060999
40
0.757312757993562
40
0.760837829926125
40
0.767887973791251
40
0.771413045723813
40
0.774938117656376
40
0.778463189588939
40
0.781988261521502
40
0.789038405386627
40
0.79256347731919
40
0.796088549251753
40
0.799613621184316
40
0.803138693116879
40
0.810188836982004
40
0.813713908914567
40
0.81723898084713
40
0.820764052779693
40
0.824289124712255
40
0.831339268577381
40
0.834864340509944
40
0.838389412442507
40
0.841914484375069
40
0.845439556307632
40
0.852489700172758
40
0.856014772105321
40
0.859539844037883
40
0.863064915970446
40
0.866589987903009
40
0.870115059835572
40
0.873640131768135
40
0.877165203700697
40
0.88069027563326
40
0.884215347565823
40
0.887740419498386
40
0.891265491430948
40
0.894790563363511
40
0.898315635296074
40
0.901840707228637
40
0.908890851093763
40
0.912415923026325
40
0.915940994958888
40
0.919466066891451
40
0.922991138824014
40
0.926516210756577
40
0.930041282689139
40
0.937091426554265
40
0.940616498486828
40
0.944141570419391
40
0.947666642351953
40
0.951191714284516
40
0.958241858149642
40
0.961766930082204
40
0.965292002014767
40
0.96881707394733
40
0.972342145879893
40
0.975867217812456
40
0.979392289745019
40
0.982917361677581
40
0.986442433610144
40
0.989967505542707
40
0.99349257747527
40
0.997017649407832
40
1
40
1
40
1
40
1
41
1
10
-38
20
20.2923486495189
30
0
41
1
10
-38
20
20.292354969317
30
0
41
1
10
-38
20
20.2915868453764
30
0
41
1
10
-38
20
20.2877827415225
30
0
41
1
10
-38
20
20.2807871950942
30
0
41
1
10
-38
20
20.270864225278
30
0
41
1
10
-38
20
20.2580557575388
30
0
41
1
10
-38
20
20.2424031034125
30
0
41
1
10
-38
20
20.2239454925533
30
0
41
1
10
-38
20
20.19551262204
30
0
41
1
10
-38
20
20.153458157969
30
0
41
1
10
-38
20
20.0921783324266
30
0
41
1
10
-38
20
20.0326760120608
30
0
41
1
10
-38
20
19.9796195423852
30
0
41
1
10
-38
20
19.9374871337363
30
0
41
1
10
-38
20
19.8928775037255
30
0
41
1
10
-38
20
19.8298739849263
30
0
41
1
10
-38
20
19.7628242930463
30
0
41
1
10
-38
20
19.6902080345968
30
0
41
1
10
-38
20
19.6336084813315
30
0
41
1
10
-38
20
19.5746836513967
30
0
41
1
10
-38
20
19.5134574775013
30
0
41
1
10
-38
20
19.4499498796239
30
0
41
1
10
-38
20
19.361926580552
30
0
41
1
10
-38
20
19.2704514952516
30
0
41
1
10
-38
20
19.1735363516591
30
0
41
1
10
-38
20
19.0989364266239
30
0
41
1
10
-38
20
19.0221745884206
30
0
41
1
10
-38
20
18.9432715601189
30
0
41
1
10
-38
20
18.8622425921487
30
0
41
1
10
-38
20
18.7791047356355
30
0
41
1
10
-38
20
18.6938772447032
30
0
41
1
10
-38
20
18.6065734364562
30
0
41
1
10
-38
20
18.5172096781029
30
0
41
1
10
-38
20
18.4258037757915
30
0
41
1
10
-38
20
18.3323676597213
30
0
41
1
10
-38
20
18.236917040573
30
0
41
1
10
-38
20
18.1394682315479
30
0
41
1
10
-38
20
18.006423045464
30
0
41
1
10
-38
20
17.870842154793
30
0
41
1
10
-38
20
17.7299440627733
30
0
41
1
10
-38
20
17.6408187485726
30
0
41
1
10
-38
20
17.5681131617785
30
0
41
1
10
-38
20
17.4947669133713
30
0
41
1
10
-38
20
17.3649201654158
30
0
41
1
10
-38
20
17.2140632768009
30
0
41
1
10
-38
20
17.0578935907134
30
0
41
1
10
-38
20
16.9392992293059
30
0
41
1
10
-38
20
16.8188549914818
30
0
41
1
10
-38
20
16.6552510003021
30
0
41
1
10
-38
20
16.489672496603
30
0
41
1
10
-38
20
16.3187666825072
30
0
41
1
10
-38
20
16.2111031772939
30
0
41
1
10
-38
20
16.1235473577608
30
0
41
1
10
-38
20
16.0353949417433
30
0
41
1
10
-38
20
15.8797855584285
30
0
41
1
10
-38
20
15.6999813794666
30
0
41
1
10
-38
20
15.5148116907138
30
0
41
1
10
-38
20
15.3746600384839
30
0
41
1
10
-38
20
15.2327750536327
30
0
41
1
10
-38
20
15.0406360987563
30
0
41
1
10
-38
20
14.8470518249568
30
0
41
1
10
-38
20
14.6480433816337
30
0
41
1
10
-38
20
14.5230237603812
30
0
41
1
10
-38
20
14.4215395322791
30
0
41
1
10
-38
20
14.319494446119
30
0
41
1
10
-38
20
14.1916826014269
30
0
41
1
10
-38
20
14.0362107113462
30
0
41
1
10
-38
20
13.905633632864
30
0
41
1
10
-38
20
13.7996824703933
30
0
41
1
10
-38
20
13.6931799140641
30
0
41
1
10
-38
20
13.5598675642285
30
0
41
1
10
-38
20
13.3977994204325
30
0
41
1
10
-38
20
13.2340971553998
30
0
41
1
10
-38
20
13.0687736820565
30
0
41
1
10
-38
20
12.9018380893652
30
0
41
1
10
-38
20
12.7332922951509
30
0
41
1
10
-38
20
12.5631480531082
30
0
41
1
10
-38
20
12.3914123687224
30
0
41
1
10
-38
20
12.2180896154105
30
0
41
1
10
-38
20
12.0431930727568
30
0
41
1
10
-38
20
11.8667275879997
30
0
41
1
10
-38
20
11.6886992220563
30
0
41
1
10
-38
20
11.5091211559413
30
0
41
1
10
-38
20
11.3279971676986
30
0
41
1
10
-38
20
11.0835274575533
30
0
41
1
10
-38
20
10.8388445996823
30
0
41
1
10
-38
20
10.5882272221232
30
0
41
1
10
-38
20
10.3995106478125
30
0
41
1
10
-38
20
10.2093006505112
30
0
41
1
10
-38
20
10.0176111741013
30
0
41
1
10
-38
20
9.82444825814403
30
0
41
1
10
-38
20
9.62982433363783
30
0
41
1
10
-38
20
9.43375032895256
30
0
41
1
10
-38
20
9.16930024978845
30
0
41
1
10
-38
20
8.83774034996793
30
0
41
1
10
-38
20
8.43283016067576
30
0
41
1
10
-38
20
8.09202302704495
30
0
41
1
10
-38
20
7.81440668711983
30
0
41
1
10
-38
20
7.60585888080689
30
0
41
1
10
-38
20
7.39600299493051
30
0
41
1
10
-38
20
7.18486050853949
30
0
41
1
10
-38
20
6.972454820743
30
0
41
1
10
-38
20
6.75880464755275
30
0
41
1
10
-38
20
6.54393387937549
30
0
41
1
10
-38
20
6.32787102064523
30
0
41
1
10
-38
20
6.11064460524281
30
0
41
1
10
-38
20
5.89228682406826
30
0
41
1
10
-38
20
5.67283049766698
30
0
41
1
10
-38
20
5.45231041402207
30
0
41
1
10
-38
20
5.2307661198837
30
0
41
1
10
-38
20
5.00824236668089
30
0
41
1
10
-38
20
4.78478453894905
30
0
41
1
10
-38
20
4.56044477194348
30
0
41
1
10
-38
20
4.3737593142329
30
0
41
1
10
-38
20
4.22222174308928
30
0
41
1
10
-38
20
4.10916467830538
30
0
41
1
10
-38
20
3.99593123757285
30
0
41
1
10
-38
20
3.84368490764803
30
0
41
1
10
-38
20
3.65544484289478
30
0
41
1
10
-38
20
3.46668355973628
30
0
41
1
10
-38
20
3.31336520651504
30
0
41
1
10
-38
20
3.19916977025284
30
0
41
1
10
-38
20
3.0848771849204
30
0
41
1
10
-38
20
2.93116533478539
30
0
41
1
10
-38
20
2.7810630459212
30
0
41
1
10
-38
20
2.62697343511894
30
0
41
1
10
-38
20
2.51237687493429
30
0
41
1
10
-38
20
2.39774974487253
30
0
41
1
10
-38
20
2.28311555219403
30
0
41
1
10
-38
20
2.16847618976473
30
0
41
1
10
-38
20
2.05384840107453
30
0
41
1
10
-38
20
1.93924458170406
30
0
41
1
10
-38
20
1.82466899171223
30
0
41
1
10
-38
20
1.71014121398446
30
0
41
1
10
-38
20
1.59566009898879
30
0
41
1
10
-38
20
1.48124309885608
30
0
41
1
10
-38
20
1.36688883878045
30
0
41
1
10
-38
20
1.25260906632701
30
0
41
1
10
-38
20
1.13840321986405
30
0
41
1
10
-38
20
1.02427614220741
30
0
41
1
10
-38
20
0.910225811803912
30
0
41
1
10
-38
20
0.796251800903974
30
0
41
1
10
-38
20
0.682349388495624
30
0
41
1
10
-38
20
0.568513483413511
30
0
41
1
10
-38
20
0.454735475948979
30
0
41
1
10
-38
20
0.341006791030111
30
0
41
1
10
-38
20
0.227315919379521
30
0
41
1
10
-38
20
0.113651444289076
30
0
41
1
10
-38
20
2.39306814E-08
30
0
41
1
10
-38
20
-0.113651428861147
30
0
41
1
10
-38
20
-0.227315965161807
30
0
41
1
10
-38
20
-0.341006831114754
30
0
41
1
10
-38
20
-0.454735424962735
30
0
41
1
10
-38
20
-0.568513412391525
30
0
41
1
10
-38
20
-0.682349437337052
30
0
41
1
10
-38
20
-0.796251898049235
30
0
41
1
10
-38
20
-0.910225765592202
30
0
41
1
10
-38
20
-1.02427601417025
30
0
41
1
10
-38
20
-1.13840324907633
30
0
41
1
10
-38
20
-1.25260921865757
30
0
41
1
10
-38
20
-1.36688883944316
30
0
41
1
10
-38
20
-1.48124293103632
30
0
41
1
10
-38
20
-1.59566004663384
30
0
41
1
10
-38
20
-1.71014137238996
30
0
41
1
10
-38
20
-1.82466911261432
30
0
41
1
10
-38
20
-1.93924446866484
30
0
41
1
10
-38
20
-2.05384821372689
30
0
41
1
10
-38
20
-2.1684762190329
30
0
41
1
10
-38
20
-2.28311576323418
30
0
41
1
10
-38
20
-2.39774983280105
30
0
41
1
10
-38
20
-2.51237672316307
30
0
41
1
10
-38
20
-2.62697323991799
30
0
41
1
10
-38
20
-2.78106315146928
30
0
41
1
10
-38
20
-2.93116552693385
30
0
41
1
10
-38
20
-3.08487708212581
30
0
41
1
10
-38
20
-3.19916954549007
30
0
41
1
10
-38
20
-3.31336512600546
30
0
41
1
10
-38
20
-3.46668375918677
30
0
41
1
10
-38
20
-3.65544489425088
30
0
41
1
10
-38
20
-3.84368470208372
30
0
41
1
10
-38
20
-3.99593117493791
30
0
41
1
10
-38
20
-4.10916481607396
30
0
41
1
10
-38
20
-4.22222196867938
30
0
41
1
10
-38
20
-4.37375933349006
30
0
41
1
10
-38
20
-4.56044458630845
30
0
41
1
10
-38
20
-4.78478457648492
30
0
41
1
10
-38
20
-5.00824253816086
30
0
41
1
10
-38
20
-5.23076600439052
30
0
41
1
10
-38
20
-5.45231022599046
30
0
41
1
10
-38
20
-5.67283041504652
30
0
41
1
10
-38
20
-5.89228674128222
30
0
41
1
10
-38
20
-6.11064496108523
30
0
41
1
10
-38
20
-6.32787239667013
30
0
41
1
10
-38
20
-6.54393525610644
30
0
41
1
10
-38
20
-6.75880334040127
30
0
41
1
10
-38
20
-6.97245311766207
30
0
41
1
10
-38
20
-7.18486111103374
30
0
41
1
10
-38
20
-7.39600347561742
30
0
41
1
10
-38
20
-7.60585874971361
30
0
41
1
10
-38
20
-7.8144064520111
30
0
41
1
10
-38
20
-8.09202295752311
30
0
41
1
10
-38
20
-8.43283023540656
30
0
41
1
10
-38
20
-8.83774029355055
30
0
41
1
10
-38
20
-9.16930023887323
30
0
41
1
10
-38
20
-9.43375044009511
30
0
41
1
10
-38
20
-9.62982432960192
30
0
41
1
10
-38
20
-9.82444814962994
30
0
41
1
10
-38
20
-10.0176111126089
30
0
41
1
10
-38
20
-10.2093007057547
30
0
41
1
10
-38
20
-10.3995107409486
30
0
41
1
10
-38
20
-10.5882272324294
30
0
41
1
10
-38
20
-10.8388445170812
30
0
41
1
10
-38
20
-11.0835274377931
30
0
41
1
10
-38
20
-11.327997250045
30
0
41
1
10
-38
20
-11.5091211965041
30
0
41
1
10
-38
20
-11.6886991809046
30
0
41
1
10
-38
20
-11.8667275177687
30
0
41
1
10
-38
20
-12.0431930522803
30
0
41
1
10
-38
20
-12.2180896645831
30
0
41
1
10
-38
20
-12.3914124247035
30
0
41
1
10
-38
20
-12.5631480735019
30
0
41
1
10
-38
20
-12.7332924196477
30
0
41
1
10
-38
20
-12.9018387248249
30
0
41
1
10
-38
20
-13.068774902876
30
0
41
1
10
-38
20
-13.2899980003418
30
0
41
1
10
-38
20
-13.5056406071554
30
0
41
1
10
-38
20
-13.7202970548285
30
0
41
1
10
-38
20
-13.9327572918622
30
0
41
1
10
-38
20
-14.1397069500695
30
0
41
1
10
-38
20
-14.3454836148157
30
0
41
1
10
-38
20
-14.4976048095277
30
0
41
1
10
-38
20
-14.6480433741443
30
0
41
1
10
-38
20
-14.8470538575164
30
0
41
1
10
-38
20
-15.0406366439893
30
0
41
1
10
-38
20
-15.2327734637881
30
0
41
1
10
-38
20
-15.3746583733236
30
0
41
1
10
-38
20
-15.5148115582755
30
0
41
1
10
-38
20
-15.6999837411247
30
0
41
1
10
-38
20
-15.8797870255403
30
0
41
1
10
-38
20
-16.0578801048401
30
0
41
1
10
-38
20
-16.189216581434
30
0
41
1
10
-38
20
-16.3187661779867
30
0
41
1
10
-38
20
-16.4896741385663
30
0
41
1
10
-38
20
-16.6552512602625
30
0
41
1
10
-38
20
-16.8188545807649
30
0
41
1
10
-38
20
-16.9392987318018
30
0
41
1
10
-38
20
-17.0578934672827
30
0
41
1
10
-38
20
-17.2140648101705
30
0
41
1
10
-38
20
-17.3649216616153
30
0
41
1
10
-38
20
-17.513530035822
30
0
41
1
10
-38
20
-17.6226956365842
30
0
41
1
10
-38
20
-17.7299433731025
30
0
41
1
10
-38
20
-17.8708440004863
30
0
41
1
10
-38
20
-18.0064238716364
30
0
41
1
10
-38
20
-18.1394672902698
30
0
41
1
10
-38
20
-18.236915915677
30
0
41
1
10
-38
20
-18.3323672965474
30
0
41
1
10
-38
20
-18.4258040962282
30
0
41
1
10
-38
20
-18.517209887002
30
0
41
1
10
-38
20
-18.6065734896479
30
0
41
1
10
-38
20
-18.6938772522127
30
0
41
1
10
-38
20
-18.7791047692188
30
0
41
1
10
-38
20
-18.8622426359768
30
0
41
1
10
-38
20
-18.9432715834756
30
0
41
1
10
-38
20
-19.0221745805325
30
0
41
1
10
-38
20
-19.0989364136873
30
0
41
1
10
-38
20
-19.1735363647814
30
0
41
1
10
-38
20
-19.2704515417461
30
0
41
1
10
-38
20
-19.3619266112172
30
0
41
1
10
-38
20
-19.4499498647732
30
0
41
1
10
-38
20
-19.5134574724377
30
0
41
1
10
-38
20
-19.5746836830748
30
0
41
1
10
-38
20
-19.6336085328263
30
0
41
1
10
-38
20
-19.6902080668946
30
0
41
1
10
-38
20
-19.7628242842049
30
0
41
1
10
-38
20
-19.829873984374
30
0
41
1
10
-38
20
-19.8928775551026
30
0
41
1
10
-38
20
-19.9374871757691
30
0
41
1
10
-38
20
-19.9796195436673
30
0
41
1
10
-38
20
-20.0326760063813
30
0
41
1
10
-38
20
-20.0800381474625
30
0
41
1
10
-38
20
-20.1228090027496
30
0
41
1
10
-38
20
-20.1521177658612
30
0
41
1
10
-38
20
-20.1787668505585
30
0
41
1
10
-38
20
-20.2027210424566
30
0
41
1
10
-38
20
-20.2239455432986
30
0
41
1
10
-38
20
-20.2424031363825
30
0
41
1
10
-38
20
-20.2580557552655
30
0
41
1
10
-38
20
-20.2708642249464
30
0
41
1
10
-38
20
-20.2807872561095
30
0
41
1
10
-38
20
-20.2877829489451
30
0
41
1
10
-38
20
-20.2916004827877
30
0
41
1
10
-38
20
-20.2923633099756
30
0
41
1
10
-38
20
-20.2923482514233
30
0
0
SPLINE
5
278
100
AcDbEntity
8
SK1
62
256
6
ByLayer
370
-1
48
1
60
0
100
AcDbSpline
70
4
71
3
72
22
73
18
40
0
40
0
40
0
40
0
40
0.366862607601256
40
0.366862607601256
40
0.737339621375052
40
0.737339621375052
40
0.838459586400285
40
0.838459586400285
40
0.872990642836393
40
0.872990642836393
40
0.908114554314301
40
0.908114554314301
40
0.93841147631739
40
0.93841147631739
40
0.978567405872927
40
0.978567405872927
40
1
40
1
40
1
40
1
41
1
10
-1.30710678118655
20
4.81101329740289
30
0
41
1
10
-1.26411319574365
20
5.05427021725674
30
0
41
1
10
-1.21291926611929
20
5.29463858107241
30
0
41
1
10
-1.07751639291712
20
5.76447191425098
30
0
41
1
10
-0.99999394263088
20
6.0024064332149
30
0
41
1
10
-0.818580317119483
20
6.26150782359156
30
0
41
1
10
-0.772786229091963
20
6.31609141287933
30
0
41
1
10
-0.693958175551444
20
6.37002132562083
30
0
41
1
10
-0.67174289599555
20
6.38213989760789
30
0
41
1
10
-0.624176343099663
20
6.39933264200099
30
0
41
1
10
-0.598041368844491
20
6.40433410743103
30
0
41
1
10
-0.550095873812666
20
6.4042038836908
30
0
41
1
10
-0.52764508925199
20
6.40038614973912
30
0
41
1
10
-0.479150674129698
20
6.38487542657816
30
0
41
1
10
-0.453444961156862
20
6.37100758594852
30
0
41
1
10
-0.417985764291785
20
6.34622757774423
30
0
41
1
10
-0.406197231050186
20
6.33682378409867
30
0
41
1
10
-0.394976888874737
20
6.32694309068151
30
0
0
SPLINE
5
279
100
AcDbEntity
8
1
62
256
6
ByLayer
370
-1
48
1
60
0
100
AcDbSpline
70
4
71
3
72
12
73
8
40
0
40
0
40
0
40
0
40
0.215516644879757
40
0.215516644879757
40
0.714865241665019
40
0.714865241665019
40
1
40
1
40
1
40
1
41
1
10
54.0271027454175
20
37.2420023441484
30
0
41
1
10
53.9909898321488
20
37.234996472993
30
0
41
1
10
53.9560241707971
20
37.2254113919021
30
0
41
1
10
53.8462294963615
20
37.186425229801
30
0
41
1
10
53.777496154597
20
37.1468545755655
30
0
41
1
10
53.6858805104604
20
37.0720925331369
30
0
41
1
10
53.6554574384215
20
37.0418956256467
30
0
41
1
10
53.6282839170534
20
37.0094769231049
30
0
0
SPLINE
5
27A
100
AcDbEntity
8
1
62
256
6
ByLayer
370
-1
48
1
60
0
100
AcDbSpline
70
4
71
3
72
18
73
14
40
0
40
0
40
0
40
0
40
0.112011648086718
40
0.112011648086718
40
0.306446977577081
40
0.306446977577081
40
0.4657536314901
40
0.4657536314901
40
0.625653969130954
40
0.625653969130954
40
0.778498773020545
40
0.778498773020545
40
1
40
1
40
1
40
1
41
1
10
52.5064993993572
20
38.9710129659232
30
0
41
1
10
52.5451578004728
20
38.9825623129616
30
0
41
1
10
52.5835516491584
20
38.9978472070783
30
0
41
1
10
52.6860977867498
20
39.0499332134463
30
0
41
1
10
52.74981366642
20
39.0951947608716
30
0
41
1
10
52.8550870513722
20
39.1979878872146
30
0
41
1
10
52.8996516491875
20
39.2531087563061
30
0
41
1
10
52.9754896219723
20
39.3738646814579
30
0
41
1
10
53.0076357887683
20
39.4410937110881
30
0
41
1
10
53.0541001370017
20
39.5740763761823
30
0
41
1
10
53.0697791698678
20
39.6412742572913
30
0
41
1
10
53.0904845191752
20
39.8010094989014
30
0
41
1
10
53.0881945269169
20
39.8943245210372
30
0
41
1
10
53.0733385294293
20
39.9808541453348
30
0
0
SPLINE
5
27B
100
AcDbEntity
8
1
62
256
6
ByLayer
370
-1
48
1
60
0
100
AcDbSpline
70
4
71
3
72
16
73
12
40
0
40
0
40
0
40
0
40
0.0787875328674797
40
0.0787875328674797
40
0.394338838009184
40
0.394338838009184
40
0.676533788437887
40
0.676533788437887
40
0.924926972378641
40
0.924926972378641
40
1
40
1
40
1
40
1
41
1
10
55.9081428843806
20
38.3347830203413
30
0
41
1
10
55.9190999165814
20
38.3376763189136
30
0
41
1
10
55.9299634191001
20
38.3410717964469
30
0
41
1
10
55.9830870177319
20
38.3603906789801
30
0
41
1
10
56.0238777908637
20
38.3842385625278
30
0
41
1
10
56.0888922679506
20
38.4425565541217
30
0
41
1
10
56.1153669524672
20
38.4766224074431
30
0
41
1
10
56.1505881959585
20
38.5472102141171
30
0
41
1
10
56.1615445987127
20
38.5840096435159
30
0
41
1
10
56.1667391317162
20
38.6322938050477
30
0
41
1
10
56.1673331874973
20
38.6436659833677
30
0
41
1
10
56.1672993111884
20
38.6550148613723
30
0
0
SPLINE
5
27C
100
AcDbEntity
8
1
62
256
6
ByLayer
370
-1
48
1
60
0
100
AcDbSpline
70
4
71
3
72
16
73
12
40
0
40
0
40
0
40
0
40
0.127627815582627
40
0.127627815582627
40
0.350325478338657
40
0.350325478338657
40
0.57951926183672
40
0.57951926183672
40
0.826356513011929
40
0.826356513011929
40
1
40
1
40
1
40
1
41
1
10
55.2142253969209
20
36.9570846469744
30
0
41
1
10
55.2304612324022
20
36.9667656899123
30
0
41
1
10
55.2457874523024
20
36.9779297052098
30
0
41
1
10
55.2841904009354
20
37.0117282764258
30
0
41
1
10
55.3050013254072
20
37.0372311116269
30
0
41
1
10
55.3371493442645
20
37.0927543373377
30
0
41
1
10
55.3486252345625
20
37.1235698747109
30
0
41
1
10
55.3616635066193
20
37.1881210633427
30
0
41
1
10
55.3625955143694
20
37.2226961289463
30
0
41
1
10
55.355131307375
20
37.2795090858336
30
0
41
1
10
55.3493808085908
20
37.3027191311032
30
0
41
1
10
55.3413037543085
20
37.3249418409304
30
0
0
SPLINE
5
27D
100
AcDbEntity
8
1
62
256
6
ByLayer
370
-1
48
1
60
0
100
AcDbSpline
70
4
71
3
72
18
73
14
40
0
40
0
40
0
40
0
40
0.21173671552156
40
0.21173671552156
40
0.386043728065625
40
0.386043728065625
40
0.562074977609647
40
0.562074977609647
40
0.714803156409158
40
0.714803156409158
40
0.918086007818329
40
0.918086007818329
40
1
40
1
40
1
40
1
41
1
10
55.3333758775809
20
39.9808541453348
30
0
41
1
10
55.3043300839342
20
39.8980752109101
30
0
41
1
10
55.2876458220322
20
39.8091716776389
30
0
41
1
10
55.2864890842109
20
39.6449194170431
30
0
41
1
10
55.2970647440792
20
39.5681123949308
30
0
41
1
10
55.3431421601474
20
39.4202236726293
30
0
41
1
10
55.3798583656007
20
39.3470901572886
30
0
41
1
10
55.4674438180058
20
39.2270562255756
30
0
41
1
10
55.5167197275715
20
39.1764704810447
30
0
41
1
10
55.6411580773526
20
39.0775336059694
30
0
41
1
10
55.7213958925227
20
39.0335037396099
30
0
41
1
10
55.8374886711455
20
38.9900553952157
30
0
41
1
10
55.8717133716172
20
38.9795243323393
30
0
41
1
10
55.9062437431435
20
38.9710129659232
30
0
0
SPLINE
5
27E
100
AcDbEntity
8
1
62
256
6
ByLayer
370
-1
48
1
60
0
100
AcDbSpline
70
4
71
3
72
18
73
14
40
0
40
0
40
0
40
0
40
0.207901775533359
40
0.207901775533359
40
0.382890954466066
40
0.382890954466066
40
0.559650066752759
40
0.559650066752759
40
0.712518135594048
40
0.712518135594048
40
0.915117683447258
40
0.915117683447258
40
1
40
1
40
1
40
1
41
1
10
55.9081428843803
20
38.3347830203437
30
0
41
1
10
55.8215147419287
20
38.3119081144124
30
0
41
1
10
55.7361215936242
20
38.276013712799
30
0
41
1
10
55.592355798893
20
38.1862038800097
30
0
41
1
10
55.5303577690063
20
38.1348557135027
30
0
41
1
10
55.4252010473958
20
38.0160104512896
30
0
41
1
10
55.3809126091682
20
37.946424620559
30
0
41
1
10
55.3236115487317
20
37.8113452346125
30
0
41
1
10
55.3063713146512
20
37.744999843414
30
0
41
1
10
55.2881987737607
20
37.593784335281
30
0
41
1
10
55.2937172895993
20
37.5073268756043
30
0
41
1
10
55.319431010706
20
37.3916212995877
30
0
41
1
10
55.3293464904412
20
37.3578403204956
30
0
41
1
10
55.3413037543085
20
37.3249418409304
30
0
0
SPLINE
5
27F
100
AcDbEntity
8
1
62
256
6
ByLayer
370
-1
48
1
60
0
100
AcDbSpline
70
4
71
3
72
12
73
8
40
0
40
0
40
0
40
0
40
0.238592977482624
40
0.238592977482624
40
0.744789629092776
40
0.744789629092776
40
1
40
1
40
1
40
1
41
1
10
54.3195414339839
20
40.0570623334928
30
0
41
1
10
54.3619665502562
20
40.0650576854265
30
0
41
1
10
54.4039743612239
20
40.0763134928319
30
0
41
1
10
54.5301531327779
20
40.1198361627133
30
0
41
1
10
54.6110029954751
20
40.1622342510107
30
0
41
1
10
54.718603059955
20
40.2383535043898
30
0
41
1
10
54.7528536920208
20
40.266346858261
30
0
41
1
10
54.7847174162821
20
40.2961566212279
30
0
0
SPLINE
5
280
100
AcDbEntity
8
1
62
256
6
ByLayer
370
-1
48
1
60
0
100
AcDbSpline
70
4
71
3
72
14
73
10
40
0
40
0
40
0
40
0
40
0.280140124941039
40
0.280140124941039
40
0.568092970253071
40
0.568092970253071
40
0.828406595346671
40
0.828406595346671
40
1
40
1
40
1
40
1
41
1
10
53.081266406156
20
37.3249418409305
30
0
41
1
10
53.0752455959945
20
37.289287470531
30
0
41
1
10
53.0749327658396
20
37.2508428751411
30
0
41
1
10
53.0874193006857
20
37.1732388304404
30
0
41
1
10
53.1008526663164
20
37.1328826622516
30
0
41
1
10
53.139157121303
20
37.0622261758774
30
0
41
1
10
53.1634450736589
20
37.0302938257498
30
0
41
1
10
53.210542234958
20
36.985887069464
30
0
41
1
10
53.2313863071968
20
36.9701178161502
30
0
41
1
10
53.2533217177347
20
36.9570846469744
30
0
0
SPLINE
5
281
100
AcDbEntity
8
1
62
256
6
ByLayer
370
-1
48
1
60
0
100
AcDbSpline
70
4
71
3
72
18
73
14
40
0
40
0
40
0
40
0
40
0.196598884261242
40
0.196598884261242
40
0.373667023274276
40
0.373667023274276
40
0.552639135080426
40
0.552639135080426
40
0.706003143876188
40
0.706003143876188
40
0.906663000120468
40
0.906663000120468
40
1
40
1
40
1
40
1
41
1
10
53.0812664061564
20
37.3249418409303
30
0
41
1
10
53.0940070743681
20
37.4003902426187
30
0
41
1
10
53.0968255935929
20
37.4810821647383
30
0
41
1
10
53.080715380923
20
37.637415378956
30
0
41
1
10
53.0635648233748
20
37.7145777629784
30
0
41
1
10
53.0101951514787
20
37.8644654772798
30
0
41
1
10
52.9727850498147
20
37.9393544527314
30
0
41
1
10
52.8904766818863
20
38.0626062529838
30
0
41
1
10
52.8464786233273
20
38.114755861957
30
0
41
1
10
52.7393408073233
20
38.2166294548892
30
0
41
1
10
52.6727559846908
20
38.2626162060288
30
0
41
1
10
52.5732628964597
20
38.3114261503479
30
0
41
1
10
52.5409239453972
20
38.324408312649
30
0
41
1
10
52.508398540594
20
38.3347830203437
30
0
0
SPLINE
5
282
100
AcDbEntity
8
1
62
256
6
ByLayer
370
-1
48
1
60
0
100
AcDbSpline
70
4
71
3
72
16
73
12
40
0
40
0
40
0
40
0
40
0.213538877707802
40
0.213538877707802
40
0.437190569935502
40
0.437190569935502
40
0.671932374615006
40
0.671932374615006
40
0.927916080141878
40
0.927916080141878
40
1
40
1
40
1
40
1
41
1
10
53.2431851018468
20
40.3529450757701
30
0
41
1
10
53.2160729872512
20
40.3367787660142
30
0
41
1
10
53.1906276578725
20
40.3162481512842
30
0
41
1
10
53.1456818392724
20
40.2686191630473
30
0
41
1
10
53.1259420125658
20
40.2406508696717
30
0
41
1
10
53.0945729715792
20
40.180682730868
30
0
41
1
10
53.0829719478248
20
40.1478141013081
30
0
41
1
10
53.0686806080859
20
40.079703911331
30
0
41
1
10
53.0666748074173
20
40.0436695540676
30
0
41
1
10
53.0704812638733
20
39.9998617823958
30
0
41
1
10
53.07172019179
20
39.9902802473534
30
0
41
1
10
53.0733385294292
20
39.9808541453347
30
0
0
SPLINE
5
283
100
AcDbEntity
8
1
62
256
6
ByLayer
370
-1
48
1
60
0
100
AcDbSpline
70
4
71
3
72
16
73
12
40
0
40
0
40
0
40
0
40
0.152937598148389
40
0.152937598148389
40
0.375689428467759
40
0.375689428467759
40
0.606320624574687
40
0.606320624574687
40
0.855690651943396
40
0.855690651943396
40
1
40
1
40
1
40
1
41
1
10
56.1672993111884
20
38.6550148613723
30
0
41
1
10
56.1672309078393
20
38.6779306183518
30
0
41
1
10
56.1645718151906
20
38.7009745715069
30
0
41
1
10
56.1520211628944
20
38.7556717756712
30
0
41
1
10
56.1391537134336
20
38.7871437785346
30
0
41
1
10
56.1045477183513
20
38.8445886111153
30
0
41
1
10
56.0821039529707
20
38.8710670706536
30
0
41
1
10
56.0294535628236
20
38.9172159734141
30
0
41
1
10
55.9981335494235
20
38.9367638409252
30
0
41
1
10
55.9461731833882
20
38.9593937587577
30
0
41
1
10
55.926344252612
20
38.9660584058164
30
0
41
1
10
55.9062437431435
20
38.9710129659232
30
0
0
SPLINE
5
284
100
AcDbEntity
8
1
62
256
6
ByLayer
370
-1
48
1
60
0
100
AcDbSpline
70
4
71
3
72
12
73
8
40
0
40
0
40
0
40
0
40
0.497028833984314
40
0.497028833984314
40
0.945312370476769
40
0.945312370476769
40
1
40
1
40
1
40
1
41
1
10
54.7945281285733
20
37.0094769231052
30
0
41
1
10
54.7326358912029
20
37.0656278395698
30
0
41
1
10
54.6613880123611
20
37.1153714991366
30
0
41
1
10
54.5135394639773
20
37.1907393133398
30
0
41
1
10
54.4363653947651
20
37.2189504715848
30
0
41
1
10
54.3475486824709
20
37.2382536294044
30
0
41
1
10
54.337760186948
20
37.2402111307765
30
0
41
1
10
54.327944365262
20
37.2420023441484
30
0
0
SPLINE
5
285
100
AcDbEntity
8
1
62
256
6
ByLayer
370
-1
48
1
60
0
100
AcDbSpline
70
4
71
3
72
16
73
12
40
0
40
0
40
0
40
0
40
0.0513580794936523
40
0.0513580794936523
40
0.274725697225994
40
0.274725697225994
40
0.50025879580201
40
0.50025879580201
40
0.739951195105374
40
0.739951195105374
40
1
40
1
40
1
40
1
41
1
10
52.2901111875793
20
38.6550148613723
30
0
41
1
10
52.2901343286405
20
38.6472623910316
30
0
41
1
10
52.290404252078
20
38.6395017550906
30
0
41
1
10
52.2931416526988
20
38.5983986031409
30
0
41
1
10
52.3001020317478
20
38.5650086844486
30
0
41
1
10
52.3220838047219
20
38.503162390778
30
0
41
1
10
52.3374395566498
20
38.4739599289038
30
0
41
1
10
52.3749547467808
20
38.4215428429338
30
0
41
1
10
52.3979240442893
20
38.3981407100557
30
0
41
1
10
52.4493231455269
20
38.3593355438507
30
0
41
1
10
52.4786613732145
20
38.3442683571472
30
0
41
1
10
52.508398540594
20
38.3347830203437
30
0
0
SPLINE
5
286
100
AcDbEntity
8
1
62
256
6
ByLayer
370
-1
48
1
60
0
100
AcDbSpline
70
4
71
3
72
16
73
12
40
0
40
0
40
0
40
0
40
0.062945744139573
40
0.062945744139573
40
0.374286864275315
40
0.374286864275315
40
0.654270571665937
40
0.654270571665937
40
0.900378573883539
40
0.900378573883539
40
1
40
1
40
1
40
1
41
1
10
54.7945281285718
20
37.009476923104
30
0
41
1
10
54.8012407915016
20
37.0033869481501
30
0
41
1
10
54.808205913339
20
36.9975050419644
30
0
41
1
10
54.8505923249649
20
36.9642517406221
30
0
41
1
10
54.8922786006927
20
36.9418609934654
30
0
41
1
10
54.9767409028824
20
36.9155306966455
30
0
41
1
10
55.0203467016636
20
36.9096338598679
30
0
41
1
10
55.1006379360708
20
36.9138457040956
30
0
41
1
10
55.1387065859131
20
36.9222265191703
30
0
41
1
10
55.1874857332816
20
36.942440873788
30
0
41
1
10
55.201190651593
20
36.9493123380379
30
0
41
1
10
55.2142253969209
20
36.9570846469744
30
0
0
SPLINE
5
287
100
AcDbEntity
8
1
62
256
6
ByLayer
370
-1
48
1
60
0
100
AcDbSpline
70
4
71
3
72
18
73
14
40
0
40
0
40
0
40
0
40
0.0241452680582867
40
0.0241452680582867
40
0.243251449958417
40
0.243251449958417
40
0.462933467910835
40
0.462933467910835
40
0.695215358988456
40
0.695215358988456
40
0.949601033713121
40
0.949601033713121
40
1
40
1
40
1
40
1
41
1
10
55.204088781033
20
40.3529450757701
30
0
41
1
10
55.2009071825626
20
40.3548354580377
30
0
41
1
10
55.197688228763
20
40.3566708368019
30
0
41
1
10
55.1652421150596
20
40.374410123178
30
0
41
1
10
55.1327980158717
20
40.385874378853
30
0
41
1
10
55.0667402151159
20
40.3983073762014
30
0
41
1
10
55.0322854907508
20
40.3994318907765
30
0
41
1
10
54.963846801394
20
40.3919245228012
30
0
41
1
10
54.929143330827
20
40.3826705970451
30
0
41
1
10
54.8621463105536
20
40.3544549468419
30
0
41
1
10
54.8295405393714
20
40.334336420908
30
0
41
1
10
54.7955588565913
20
40.3060131248222
30
0
41
1
10
54.790057291368
20
40.3011522836713
30
0
41
1
10
54.7847174162818
20
40.2961566212281
30
0
0
SPLINE
5
288
100
AcDbEntity
8
1
62
256
6
ByLayer
370
-1
48
1
60
0
100
AcDbSpline
70
4
71
3
72
14
73
10
40
0
40
0
40
0
40
0
40
0.264403361323193
40
0.264403361323193
40
0.554346349806185
40
0.554346349806185
40
0.816286796967967
40
0.816286796967967
40
1
40
1
40
1
40
1
41
1
10
52.5064993993572
20
38.9710129659233
30
0
41
1
10
52.4763039586867
20
38.9619919610908
30
0
41
1
10
52.4465489628074
20
38.9471593806664
30
0
41
1
10
52.3900283414028
20
38.9048908552689
30
0
41
1
10
52.3629719197883
20
38.8756223018354
30
0
41
1
10
52.3226679048268
20
38.810485116556
30
0
41
1
10
52.3077825898972
20
38.7744963290235
30
0
41
1
10
52.2931345890771
20
38.710404813653
30
0
41
1
10
52.2900288548859
20
38.6825970780391
30
0
41
1
10
52.2901111875793
20
38.6550148613723
30
0
0
SPLINE
5
289
100
AcDbEntity
8
1
62
256
6
ByLayer
370
-1
48
1
60
0
100
AcDbSpline
70
4
71
3
72
12
73
8
40
0
40
0
40
0
40
0
40
0.537410795186718
40
0.537410795186718
40
0.978132403445708
40
0.978132403445708
40
1
40
1
40
1
40
1
41
1
10
53.6184732047664
20
40.2961566212236
30
0
41
1
10
53.669725444533
20
40.2338988437864
30
0
41
1
10
53.7328170245475
20
40.1791432880569
30
0
41
1
10
53.8660058131688
20
40.1021753867942
30
0
41
1
10
53.9344350791445
20
40.0751876620431
30
0
41
1
10
54.011302666937
20
40.0585710253705
30
0
41
1
10
54.01499481497
20
40.0578029444146
30
0
41
1
10
54.0186998141393
20
40.0570623334929
30
0
0
SPLINE
5
28A
100
AcDbEntity
8
1
62
256
6
ByLayer
370
-1
48
1
60
0
100
AcDbSpline
70
4
71
3
72
14
73
10
40
0
40
0
40
0
40
0
40
0.226614623799106
40
0.226614623799106
40
0.521306004459427
40
0.521306004459427
40
0.78727344983859
40
0.78727344983859
40
1
40
1
40
1
40
1
41
1
10
55.3333758775817
20
39.9808541453345
30
0
41
1
10
55.3436930034011
20
40.010257393599
30
0
41
1
10
55.3500729320564
20
40.0413813787836
30
0
41
1
10
55.3540972669373
20
40.113322051212
30
0
41
1
10
55.3484867820368
20
40.1554678403333
30
0
41
1
10
55.3219741616968
20
40.2300603468758
30
0
41
1
10
55.3021363194755
20
40.2641644708649
30
0
41
1
10
55.2559952317659
20
40.3163094324831
30
0
41
1
10
55.2312571941015
20
40.3368026596914
30
0
41
1
10
55.204088781033
20
40.3529450757701
30
0
0
SPLINE
5
28B
100
AcDbEntity
8
1
62
256
6
ByLayer
370
-1
48
1
60
0
100
AcDbSpline
70
4
71
3
72
18
73
14
40
0
40
0
40
0
40
0
40
0.0611914818579885
40
0.0611914818579885
40
0.279419736756864
40
0.279419736756864
40
0.500404252544612
40
0.500404252544612
40
0.735751387169674
40
0.735751387169674
40
0.994496400107436
40
0.994496400107436
40
1
40
1
40
1
40
1
41
1
10
53.2533217177347
20
36.9570846469744
30
0
41
1
10
53.2613525611669
20
36.9523130316497
30
0
41
1
10
53.2695596738094
20
36.9478827226318
30
0
41
1
10
53.3073870741178
20
36.9294404413977
30
0
41
1
10
53.3389404161019
20
36.9195968056773
30
0
41
1
10
53.4013878650297
20
36.9100628291949
30
0
41
1
10
53.4330602885317
20
36.9103542946387
30
0
41
1
10
53.4942502836219
20
36.9205139129738
30
0
41
1
10
53.5242669127904
20
36.931094467117
30
0
41
1
10
53.580101909701
20
36.9618381087238
30
0
41
1
10
53.6059279584627
20
36.9831995096564
30
0
41
1
10
53.6273866012119
20
37.0084105011085
30
0
41
1
10
53.6278362953898
20
37.0089428990682
30
0
41
1
10
53.6282839170536
20
37.0094769231048
30
0
0
SPLINE
5
28C
100
AcDbEntity
8
1
62
256
6
ByLayer
370
-1
48
1
60
0
100
AcDbSpline
70
4
71
3
72
16
73
12
40
0
40
0
40
0
40
0
40
0.192651042858057
40
0.192651042858057
40
0.487072921301154
40
0.487072921301154
40
0.75281593067442
40
0.75281593067442
40
0.988571524642445
40
0.988571524642445
40
1
40
1
40
1
40
1
41
1
10
53.6184732047678
20
40.2961566212265
30
0
41
1
10
53.6028378892694
20
40.315149352021
30
0
41
1
10
53.5845945793743
20
40.3322683288486
30
0
41
1
10
53.5333569555349
20
40.3686425613799
30
0
41
1
10
53.4966456770316
20
40.3848044785834
30
0
41
1
10
53.4221386132649
20
40.3994901615326
30
0
41
1
10
53.3836258818225
20
40.3997235564411
30
0
41
1
10
53.3124654194301
20
40.38598532805
30
0
41
1
10
53.2786275918071
20
40.3733756162522
30
0
41
1
10
53.2462090446851
20
40.3547320685502
30
0
41
1
10
53.2446940407594
20
40.3538448201917
30
0
41
1
10
53.2431851018468
20
40.3529450757701
30
0
0
SPLINE
5
28D
100
AcDbEntity
8
1
62
256
6
ByLayer
370
-1
48
1
60
0
100
AcDbSpline
70
4
71
3
72
8
73
4
40
0
40
0
40
0
40
0
40
1
40
1
40
1
40
1
41
1
10
45.2532010128488
20
44.8126861332969
30
0
41
1
10
45.2536013114165
20
44.8169748802319
30
0
41
1
10
45.2540016085044
20
44.8212636704719
30
0
41
1
10
45.2544019041624
20
44.8255525025563
30
0
0
SPLINE
5
28E
100
AcDbEntity
8
1
62
256
6
ByLayer
370
-1
48
1
60
0
100
AcDbSpline
70
4
71
3
72
22
73
18
40
0
40
0
40
0
40
0
40
0.0450139638011299
40
0.0450139638011299
40
0.239486137884394
40
0.239486137884394
40
0.434170968409503
40
0.434170968409503
40
0.563611300621786
40
0.563611300621786
40
0.661927398778704
40
0.661927398778704
40
0.820451041495717
40
0.820451041495717
40
0.916235947302988
40
0.916235947302988
40
1
40
1
40
1
40
1
41
1
10
46.5945037820843
20
44.8932236987535
30
0
41
1
10
46.589274097409
20
44.8935756209727
30
0
41
1
10
46.58396142363
20
44.8938938389655
30
0
41
1
10
46.5552924480315
20
44.8954041819477
30
0
41
1
10
46.530475142685
20
44.896009940234
30
0
41
1
10
46.47799153481
20
44.8957241797791
30
0
41
1
10
46.4502068322053
20
44.8948397261858
30
0
41
1
10
46.4014898018915
20
44.8915359932835
30
0
41
1
10
46.3813000915067
20
44.8897215542952
30
0
41
1
10
46.3446031218277
20
44.8852844991944
30
0
41
1
10
46.3283192685429
20
44.8829530582631
30
0
41
1
10
46.2850831088997
20
44.8754162393286
30
0
41
1
10
46.2570336094158
20
44.8692542038206
30
0
41
1
10
46.2124412895974
20
44.8554225901807
30
0
41
1
10
46.1954123720169
20
44.8491627383395
30
0
41
1
10
46.1657328138181
20
44.8355547663828
30
0
41
1
10
46.1525044944661
20
44.8282575784786
30
0
41
1
10
46.1410851613537
20
44.8205145173596
30
0
0
SPLINE
5
28F
100
AcDbEntity
8
1
62
256
6
ByLayer
370
-1
48
1
60
0
100
AcDbSpline
70
4
71
3
72
18
73
14
40
0
40
0
40
0
40
0
40
0.0235065764910552
40
0.0235065764910552
40
0.159686101650041
40
0.159686101650041
40
0.295423883198147
40
0.295423883198147
40
0.550420325548252
40
0.550420325548252
40
0.804718733926776
40
0.804718733926776
40
1
40
1
40
1
40
1
41
1
10
46.7613084857713
20
44.8349194237432
30
0
41
1
10
46.7613192710806
20
44.8359263204916
30
0
41
1
10
46.7612716478264
20
44.8369074757582
30
0
41
1
10
46.7605748820987
20
44.8434371059573
30
0
41
1
10
46.7581550273634
20
44.8482616356814
30
0
41
1
10
46.7508260483627
20
44.85677722197
30
0
41
1
10
46.7458979293703
20
44.8604958010096
30
0
41
1
10
46.7290955105214
20
44.8700332236459
30
0
41
1
10
46.7148735430231
20
44.8749093762722
30
0
41
1
10
46.6823087083275
20
44.8829330780464
30
0
41
1
10
46.6638515401841
20
44.8860932139752
30
0
41
1
10
46.6283098144213
20
44.8905203539202
30
0
41
1
10
46.6118502169599
20
44.8920564016341
30
0
41
1
10
46.5945037820843
20
44.8932236987535
30
0
0
SPLINE
5
290
100
AcDbEntity
8
1
62
256
6
ByLayer
370
-1
48
1
60
0
100
AcDbSpline
70
4
71
3
72
8
73
4
40
0
40
0
40
0
40
0
40
1
40
1
40
1
40
1
41
1
10
44.3361664698982
20
44.818566380265
30
0
41
1
10
44.3385822925661
20
44.8142989737827
30
0
41
1
10
44.3409981241026
20
44.8100316092231
30
0
41
1
10
44.3434139648169
20
44.8057642880496
30
0
0
SPLINE
5
291
100
AcDbEntity
8
1
62
256
6
ByLayer
370
-1
48
1
60
0
100
AcDbSpline
70
4
71
3
72
10
73
6
40
0
40
0
40
0
40
0
40
0.898347317820465
40
0.898347317820465
40
1
40
1
40
1
40
1
41
1
10
44.3434139648169
20
44.8057642880496
30
0
41
1
10
44.3487217382377
20
44.7963886807222
30
0
41
1
10
44.351299246757
20
44.7869569530344
30
0
41
1
10
44.3518158859673
20
44.7769992757791
30
0
41
1
10
44.3518423027848
20
44.7759956758255
30
0
41
1
10
44.3518436577327
20
44.7749963236913
30
0
0
SPLINE
5
292
100
AcDbEntity
8
1
62
256
6
ByLayer
370
-1
48
1
60
0
100
AcDbSpline
70
4
71
3
72
24
73
20
40
0
40
0
40
0
40
0
40
0.04299522696172
40
0.04299522696172
40
0.228745926441469
40
0.228745926441469
40
0.414699745380382
40
0.414699745380382
40
0.538335079652051
40
0.538335079652051
40
0.632242005354154
40
0.632242005354154
40
0.783656353743898
40
0.783656353743898
40
0.875145603232539
40
0.875145603232539
40
0.967942630461917
40
0.967942630461917
40
1
40
1
40
1
40
1
41
1
10
44.7602882126429
20
44.9325102053342
30
0
41
1
10
44.7520231485719
20
44.9324473230426
30
0
41
1
10
44.7437733693732
20
44.9323485898205
30
0
41
1
10
44.7000236303831
20
44.9316322123084
30
0
41
1
10
44.6647854338209
20
44.9303901870904
30
0
41
1
10
44.5956847698524
20
44.9263609449513
30
0
41
1
10
44.5616571271202
20
44.9235720665642
30
0
41
1
10
44.5070891482766
20
44.9170835122438
30
0
41
1
10
44.4857662657456
20
44.9139883208008
30
0
41
1
10
44.4498543041644
20
44.9073095399299
30
0
41
1
10
44.4348240232405
20
44.9040107834238
30
0
41
1
10
44.3979093315483
20
44.8939962711491
30
0
41
1
10
44.3768345889913
20
44.8863138931258
30
0
41
1
10
44.3509763085668
20
44.8702969454375
30
0
41
1
10
44.3429415069331
20
44.8632583086266
30
0
41
1
10
44.3329674207705
20
44.8473340208006
30
0
41
1
10
44.3310884368787
20
44.8381549370034
30
0
41
1
10
44.3335806565629
20
44.825355768815
30
0
41
1
10
44.3346699974686
20
44.8219659230824
30
0
41
1
10
44.3361664698982
20
44.818566380265
30
0
0
SPLINE
5
293
100
AcDbEntity
8
1
62
256
6
ByLayer
370
-1
48
1
60
0
100
AcDbSpline
70
4
71
3
72
22
73
18
40
0
40
0
40
0
40
0
40
0.0904884159773565
40
0.0904884159773565
40
0.16761533503394
40
0.16761533503394
40
0.286482716021663
40
0.286482716021663
40
0.385988194077784
40
0.385988194077784
40
0.485170893000069
40
0.485170893000069
40
0.671495106342981
40
0.671495106342981
40
0.857309270881116
40
0.857309270881116
40
1
40
1
40
1
40
1
41
1
10
45.2544019041624
20
44.8255525025563
30
0
41
1
10
45.2540121207182
20
44.8349981456755
30
0
41
1
10
45.2501039954493
20
44.8444157916081
30
0
41
1
10
45.2370651388322
20
44.8599831850114
30
0
41
1
10
45.2286950038002
20
44.8666063244357
30
0
41
1
10
45.2039635451846
20
44.8813528499956
30
0
41
1
10
45.1854258971688
20
44.8886755356918
30
0
41
1
10
45.1492167526119
20
44.8997268326154
30
0
41
1
10
45.1315962468874
20
44.9039415022495
30
0
41
1
10
45.0955754431664
20
44.9111354868542
30
0
41
1
10
45.0770615127584
20
44.9141382848929
30
0
41
1
10
45.0232596903026
20
44.9215176241127
30
0
41
1
10
44.987230592026
20
44.9248552089543
30
0
41
1
10
44.9152144233212
20
44.9296734707985
30
0
41
1
10
44.8789954983803
20
44.9311561176418
30
0
41
1
10
44.8153205491968
20
44.9325368745938
30
0
41
1
10
44.7877027518651
20
44.9327187807348
30
0
41
1
10
44.7602882126429
20
44.9325102053342
30
0
0
SPLINE
5
294
100
AcDbEntity
8
1
62
256
6
ByLayer
370
-1
48
1
60
0
100
AcDbSpline
70
4
71
3
72
22
73
18
40
0
40
0
40
0
40
0
40
0.0904884159773337
40
0.0904884159773337
40
0.167615335033914
40
0.167615335033914
40
0.28648271602162
40
0.28648271602162
40
0.385988194077738
40
0.385988194077738
40
0.485170893000005
40
0.485170893000005
40
0.671495106342898
40
0.671495106342898
40
0.857309270881012
40
0.857309270881012
40
1
40
1
40
1
40
1
41
1
10
43.6084566650636
20
44.7878049883952
30
0
41
1
10
43.595174699759
20
44.7968358408017
30
0
41
1
10
43.5798669241524
20
44.8056666705149
30
0
41
1
10
43.5508218608725
20
44.8199438069749
30
0
41
1
10
43.5368656482715
20
44.8258807869821
30
0
41
1
10
43.5024982761782
20
44.8388080842209
30
0
41
1
10
43.4820659986749
20
44.8449286254296
30
0
41
1
10
43.4471634200173
20
44.8537835442445
30
0
41
1
10
43.4319650142078
20
44.8569835193121
30
0
41
1
10
43.4032770279409
20
44.8621753722704
30
0
41
1
10
43.3896928222229
20
44.8641842922969
30
0
41
1
10
43.3526973813555
20
44.868750563885
30
0
41
1
10
43.3308920670187
20
44.870294307328
30
0
41
1
10
43.2914434222944
20
44.8716523031283
30
0
41
1
10
43.2736825393621
20
44.8714576717638
30
0
41
1
10
43.245550242381
20
44.8699833600495
30
0
41
1
10
43.2343922365941
20
44.8689585577615
30
0
41
1
10
43.2243241322475
20
44.8675826852414
30
0
0
SPLINE
5
295
100
AcDbEntity
8
1
62
256
6
ByLayer
370
-1
48
1
60
0
100
AcDbSpline
70
4
71
3
72
14
73
10
40
0
40
0
40
0
40
0
40
0.142282681336569
40
0.142282681336569
40
0.426493461709666
40
0.426493461709666
40
0.866145857124196
40
0.866145857124196
40
1
40
1
40
1
40
1
41
1
10
45.3327576670275
20
44.7174258832849
30
0
41
1
10
45.3263575052932
20
44.7209491224187
30
0
41
1
10
45.320186286623
20
44.7246166120833
30
0
41
1
10
45.3024905884021
20
44.7360405891658
30
0
41
1
10
45.2917052038405
20
44.7442686636723
30
0
41
1
10
45.2684105410495
20
44.7665271118696
30
0
41
1
10
45.2576311874129
20
44.7817430501777
30
0
41
1
10
45.253099268122
20
44.8026104810778
30
0
41
1
10
45.2527307825541
20
44.8076481469098
30
0
41
1
10
45.2532010128486
20
44.8126861332967
30
0
0
SPLINE
5
296
100
AcDbEntity
8
1
62
256
6
ByLayer
370
-1
48
1
60
0
100
AcDbSpline
70
4
71
3
72
20
73
16
40
0
40
0
40
0
40
0
40
0.0545696736365966
40
0.0545696736365966
40
0.290325029863267
40
0.290325029863267
40
0.526338185929106
40
0.526338185929106
40
0.683256530543975
40
0.683256530543975
40
0.802443488025471
40
0.802443488025471
40
0.994619042370223
40
0.994619042370223
40
1
40
1
40
1
40
1
41
1
10
43.2243241322475
20
44.8675826852414
30
0
41
1
10
43.2212887528518
20
44.8671678807306
30
0
41
1
10
43.2183516296073
20
44.8667206826895
30
0
41
1
10
43.203270676093
20
44.8641713438469
30
0
41
1
10
43.1928493026297
20
44.8615052365612
30
0
41
1
10
43.1762305005914
20
44.8547990689781
30
0
41
1
10
43.1699862970334
20
44.8507507346339
30
0
41
1
10
43.1641322856045
20
44.8423684932814
30
0
41
1
10
43.1629976286977
20
44.8385682573283
30
0
41
1
10
43.1637793703014
20
44.8307836322809
30
0
41
1
10
43.1650313124789
20
44.82705006584
30
0
41
1
10
43.1713477674561
20
44.8160658797406
30
0
41
1
10
43.1783186268729
20
44.8079318696109
30
0
41
1
10
43.1902994577051
20
44.7975268313187
30
0
41
1
10
43.1906313248946
20
44.7972403077581
30
0
41
1
10
43.1909673100927
20
44.796951916051
30
0
0
SPLINE
5
297
100
AcDbEntity
8
1
62
256
6
ByLayer
370
-1
48
1
60
0
100
AcDbSpline
70
4
71
3
72
8
73
4
40
0
40
0
40
0
40
0
40
1
40
1
40
1
40
1
41
1
10
43.6255340405202
20
44.7754184200674
30
0
41
1
10
43.6198415606988
20
44.7795472327601
30
0
41
1
10
43.6141491024555
20
44.783676089363
30
0
41
1
10
43.6084566650636
20
44.7878049883952
30
0
0
SPLINE
5
298
100
AcDbEntity
8
SK1
62
256
6
ByLayer
370
-1
48
1
60
0
100
AcDbSpline
70
4
71
3
72
303
73
299
40
0
40
0
40
0
40
0
40
0.0005133468269429
40
0.0040062632125037
40
0.0074991795980645
40
0.0109920959836253
40
0.0144850123691861
40
0.017977928754747
40
0.0214708451403078
40
0.0249637615258686
40
0.0284566779114294
40
0.0319495942969902
40
0.0389354270681119
40
0.0459212598392335
40
0.0529070926103551
40
0.056400008995916
40
0.0598929253814768
40
0.0633858417670376
40
0.0668787581525983
40
0.07386459092372
40
0.0773575073092808
40
0.0808504236948417
40
0.0843433400804025
40
0.0878362564659633
40
0.0913291728515241
40
0.0948220892370849
40
0.101807922008207
40
0.105300838393767
40
0.108793754779328
40
0.112286671164889
40
0.11577958755045
40
0.119272503936011
40
0.122765420321571
40
0.126258336707132
40
0.129751253092693
40
0.133244169478254
40
0.136737085863815
40
0.140230002249376
40
0.143722918634936
40
0.147215835020497
40
0.150708751406058
40
0.15769458417718
40
0.16118750056274
40
0.164680416948301
40
0.166426875141082
40
0.168173333333862
40
0.171666249719423
40
0.178652082490545
40
0.182144998876105
40
0.185637915261666
40
0.189130831647227
40
0.192623748032788
40
0.199609580803909
40
0.20310249718947
40
0.206595413575031
40
0.208341871767811
40
0.210088329960592
40
0.213581246346153
40
0.220567079117274
40
0.224059995502835
40
0.227552911888396
40
0.231045828273957
40
0.234538744659518
40
0.241524577430639
40
0.2450174938162
40
0.248510410201761
40
0.250256868394541
40
0.252003326587322
40
0.255496242972882
40
0.258989159358443
40
0.262482075744004
40
0.264228533936785
40
0.265974992129565
40
0.269467908515126
40
0.272960824900687
40
0.276453741286247
40
0.279946657671808
40
0.283439574057369
40
0.28693249044293
40
0.290425406828491
40
0.293918323214051
40
0.297411239599612
40
0.300904155985173
40
0.304397072370734
40
0.307889988756295
40
0.311382905141856
40
0.314875821527416
40
0.318368737912977
40
0.325354570684099
40
0.32884748706966
40
0.33234040345522
40
0.335833319840781
40
0.339326236226342
40
0.342819152611903
40
0.346312068997464
40
0.349804985383025
40
0.353297901768585
40
0.360283734539707
40
0.367269567310828
40
0.37425540008195
40
0.377748316467511
40
0.381241232853072
40
0.384734149238633
40
0.388227065624194
40
0.391719982009754
40
0.395212898395315
40
0.398705814780876
40
0.402198731166437
40
0.405691647551997
40
0.409184563937558
40
0.412677480323119
40
0.41617039670868
40
0.419663313094241
40
0.423156229479802
40
0.426649145865363
40
0.430142062250923
40
0.433634978636484
40
0.435381436829265
40
0.437127895022045
40
0.438874353214825
40
0.440620811407606
40
0.444113727793167
40
0.447606644178727
40
0.449353102371508
40
0.451099560564288
40
0.452846018757069
40
0.454592476949849
40
0.45808539333541
40
0.45983185152819
40
0.461578309720971
40
0.463324767913751
40
0.465071226106532
40
0.466817684299312
40
0.468564142492092
40
0.470310600684873
40
0.472057058877653
40
0.473803517070433
40
0.475549975263214
40
0.477296433455994
40
0.479042891648775
40
0.480789349841555
40
0.482535808034336
40
0.484282266227116
40
0.486028724419896
40
0.487775182612677
40
0.489521640805457
40
0.491268098998237
40
0.493014557191018
40
0.494761015383798
40
0.496507473576579
40
0.498253931769359
40
0.500000389962139
40
0.50174684815492
40
0.5034933063477
40
0.505239764540481
40
0.506986222733261
40
0.508732680926042
40
0.510479139118822
40
0.512225597311602
40
0.513972055504383
40
0.515718513697163
40
0.517464971889944
40
0.519211430082724
40
0.520957888275504
40
0.522704346468285
40
0.524450804661065
40
0.526197262853846
40
0.527943721046626
40
0.529690179239407
40
0.531436637432187
40
0.533183095624967
40
0.534929553817748
40
0.536676012010528
40
0.538422470203309
40
0.540168928396089
40
0.541915386588869
40
0.54540830297443
40
0.54715476116721
40
0.548901219359991
40
0.550647677552772
40
0.552394135745552
40
0.555887052131113
40
0.559379968516674
40
0.561126426709454
40
0.562872884902234
40
0.564619343095015
40
0.566365801287795
40
0.569858717673356
40
0.573351634058917
40
0.576844550444478
40
0.580337466830039
40
0.583830383215599
40
0.58732329960116
40
0.590816215986721
40
0.594309132372282
40
0.597802048757842
40
0.601294965143404
40
0.604787881528964
40
0.608280797914525
40
0.611773714300086
40
0.615266630685647
40
0.618759547071207
40
0.622252463456768
40
0.625745379842329
40
0.632731212613451
40
0.639717045384572
40
0.646702878155694
40
0.650195794541255
40
0.653688710926816
40
0.657181627312377
40
0.660674543697937
40
0.664167460083498
40
0.667660376469059
40
0.67115329285462
40
0.67464620924018
40
0.681632042011302
40
0.685124958396863
40
0.688617874782424
40
0.692110791167985
40
0.695603707553546
40
0.699096623939106
40
0.702589540324667
40
0.706082456710228
40
0.709575373095789
40
0.713068289481349
40
0.71656120586691
40
0.720054122252471
40
0.723547038638032
40
0.730532871409154
40
0.734025787794714
40
0.737518704180275
40
0.744504536951397
40
0.747997453336958
40
0.751490369722519
40
0.754983286108079
40
0.75847620249364
40
0.765462035264762
40
0.768954951650323
40
0.772447868035884
40
0.775940784421444
40
0.779433700807005
40
0.786419533578127
40
0.789912449963687
40
0.793405366349248
40
0.796898282734809
40
0.80039119912037
40
0.807377031891492
40
0.810869948277052
40
0.814362864662613
40
0.817855781048174
40
0.821348697433735
40
0.828334530204857
40
0.831827446590417
40
0.835320362975978
40
0.838813279361539
40
0.8423061957471
40
0.849292028518222
40
0.852784944903782
40
0.856277861289343
40
0.859770777674904
40
0.863263694060465
40
0.866756610446026
40
0.870249526831586
40
0.873742443217147
40
0.877235359602708
40
0.880728275988269
40
0.88422119237383
40
0.88771410875939
40
0.891207025144951
40
0.894699941530512
40
0.898192857916073
40
0.905178690687194
40
0.908671607072755
40
0.912164523458316
40
0.915657439843877
40
0.919150356229438
40
0.922643272614999
40
0.926136189000559
40
0.933122021771681
40
0.936614938157242
40
0.940107854542802
40
0.943600770928364
40
0.947093687313924
40
0.954079520085046
40
0.957572436470607
40
0.961065352856167
40
0.964558269241728
40
0.968051185627289
40
0.97154410201285
40
0.975037018398411
40
0.978529934783972
40
0.982022851169532
40
0.985515767555093
40
0.989008683940654
40
0.992501600326215
40
0.995994516711776
40
0.999487433097336
40
1
40
1
40
1
40
1
41
1
10
-36.5
20
21.1555776027976
30
0
41
1
10
-36.5
20
21.1557858181832
30
0
41
1
10
-36.5
20
21.1573191503486
30
0
41
1
10
-36.5
20
21.1588544331657
30
0
41
1
10
-36.5
20
21.1578038223016
30
0
41
1
10
-36.5
20
21.1536126358382
30
0
41
1
10
-36.5
20
21.1463317213717
30
0
41
1
10
-36.5
20
21.1360112678938
30
0
41
1
10
-36.5
20
21.1226986497682
30
0
41
1
10
-36.5
20
21.1064402158535
30
0
41
1
10
-36.5
20
21.0872797426226
30
0
41
1
10
-36.5
20
21.0578537406018
30
0
41
1
10
-36.5
20
21.0141777773224
30
0
41
1
10
-36.5
20
20.950713074722
30
0
41
1
10
-36.5
20
20.8890285612071
30
0
41
1
10
-36.5
20
20.8342802658871
30
0
41
1
10
-36.5
20
20.7907267804185
30
0
41
1
10
-36.5
20
20.7446291690672
30
0
41
1
10
-36.5
20
20.6796864194097
30
0
41
1
10
-36.5
20
20.6101652524536
30
0
41
1
10
-36.5
20
20.5353747251341
30
0
41
1
10
-36.5
20
20.4769783324059
30
0
41
1
10
-36.5
20
20.4161995895792
30
0
41
1
10
-36.5
20
20.3530628196555
30
0
41
1
10
-36.5
20
20.2875896826626
30
0
41
1
10
-36.5
20
20.1970436182683
30
0
41
1
10
-36.5
20
20.1024192722933
30
0
41
1
10
-36.5
20
20.0027815031752
30
0
41
1
10
-36.5
20
19.9259535572617
30
0
41
1
10
-36.5
20
19.8469141355251
30
0
41
1
10
-36.5
20
19.7656833730651
30
0
41
1
10
-36.5
20
19.6822775189499
30
0
41
1
10
-36.5
20
19.5967148149262
30
0
41
1
10
-36.5
20
19.5090135394173
30
0
41
1
10
-36.5
20
19.4191882696517
30
0
41
1
10
-36.5
20
19.3272561697677
30
0
41
1
10
-36.5
20
19.2332338822713
30
0
41
1
10
-36.5
20
19.1371346902892
30
0
41
1
10
-36.5
20
19.0389746878943
30
0
41
1
10
-36.5
20
18.9387689752275
30
0
41
1
10
-36.5
20
18.8022215100789
30
0
41
1
10
-36.5
20
18.6623317385554
30
0
41
1
10
-36.5
20
18.5177544284038
30
0
41
1
10
-36.5
20
18.4260133905722
30
0
41
1
10
-36.5
20
18.3514175898237
30
0
41
1
10
-36.5
20
18.2761667145511
30
0
41
1
10
-36.5
20
18.1428549391526
30
0
41
1
10
-36.5
20
17.987269645424
30
0
41
1
10
-36.5
20
17.8270700659299
30
0
41
1
10
-36.5
20
17.705205542109
30
0
41
1
10
-36.5
20
17.5814423770725
30
0
41
1
10
-36.5
20
17.4136311437529
30
0
41
1
10
-36.5
20
17.2428939764416
30
0
41
1
10
-36.5
20
17.0675963011875
30
0
41
1
10
-36.5
20
16.9568152899196
30
0
41
1
10
-36.5
20
16.867008999151
30
0
41
1
10
-36.5
20
16.7765898513273
30
0
41
1
10
-36.5
20
16.6168596157572
30
0
41
1
10
-36.5
20
16.4314438788638
30
0
41
1
10
-36.5
20
16.2414991337765
30
0
41
1
10
-36.5
20
16.097474719741
30
0
41
1
10
-36.5
20
15.9516616651348
30
0
41
1
10
-36.5
20
15.7545445351489
30
0
41
1
10
-36.5
20
15.5548613446891
30
0
41
1
10
-36.5
20
15.350663385132
30
0
41
1
10
-36.5
20
15.2219600388738
30
0
41
1
10
-36.5
20
15.1178164480938
30
0
41
1
10
-36.5
20
15.0130920883853
30
0
41
1
10
-36.5
20
14.8814910451208
30
0
41
1
10
-36.5
20
14.7216281332594
30
0
41
1
10
-36.5
20
14.5871530954062
30
0
41
1
10
-36.5
20
14.4783873813363
30
0
41
1
10
-36.5
20
14.3690494022437
30
0
41
1
10
-36.5
20
14.2317235183089
30
0
41
1
10
-36.5
20
14.0650028858775
30
0
41
1
10
-36.5
20
13.8965816080865
30
0
41
1
10
-36.5
20
13.7264689694465
30
0
41
1
10
-36.5
20
13.5546710496343
30
0
41
1
10
-36.5
20
13.3811910773122
30
0
41
1
10
-36.5
20
13.2060373742643
30
0
41
1
10
-36.5
20
13.0292149133303
30
0
41
1
10
-36.5
20
12.850728177302
30
0
41
1
10
-36.5
20
12.6705857874604
30
0
41
1
10
-36.5
20
12.4887914218501
30
0
41
1
10
-36.5
20
12.3053503484466
30
0
41
1
10
-36.5
20
12.1202706879328
30
0
41
1
10
-36.5
20
11.9335555855444
30
0
41
1
10
-36.5
20
11.6819759204348
30
0
41
1
10
-36.5
20
11.4285505376587
30
0
41
1
10
-36.5
20
11.1704660874499
30
0
41
1
10
-36.5
20
10.9756651586938
30
0
41
1
10
-36.5
20
10.7792636737398
30
0
41
1
10
-36.5
20
10.5812696725585
30
0
41
1
10
-36.5
20
10.3816871154457
30
0
41
1
10
-36.5
20
10.180523710493
30
0
41
1
10
-36.5
20
9.9777855843503
30
0
41
1
10
-36.5
20
9.70483576808863
30
0
41
1
10
-36.5
20
9.36101276272154
30
0
41
1
10
-36.5
20
8.94153438933262
30
0
41
1
10
-36.5
20
8.58745787193689
30
0
41
1
10
-36.5
20
8.30004464023602
30
0
41
1
10
-36.5
20
8.08346950394392
30
0
41
1
10
-36.5
20
7.86540102208471
30
0
41
1
10
-36.5
20
7.64585131899614
30
0
41
1
10
-36.5
20
7.42483318088833
30
0
41
1
10
-36.5
20
7.20235735193418
30
0
41
1
10
-36.5
20
6.97843755879967
30
0
41
1
10
-36.5
20
6.75308981071325
30
0
41
1
10
-36.5
20
6.52633035082275
30
0
41
1
10
-36.5
20
6.29817753233076
30
0
41
1
10
-36.5
20
6.06865022444896
30
0
41
1
10
-36.5
20
5.83776884649418
30
0
41
1
10
-36.5
20
5.60555660448861
30
0
41
1
10
-36.5
20
5.37203985998678
30
0
41
1
10
-36.5
20
5.13724579696881
30
0
41
1
10
-36.5
20
4.90120595303733
30
0
41
1
10
-36.5
20
4.70396583147402
30
0
41
1
10
-36.5
20
4.54469638576828
30
0
41
1
10
-36.5
20
4.42533999597057
30
0
41
1
10
-36.5
20
4.30569972295402
30
0
41
1
10
-36.5
20
4.14529336499854
30
0
41
1
10
-36.5
20
3.94531865595207
30
0
41
1
10
-36.5
20
3.74444957084984
30
0
41
1
10
-36.5
20
3.58224076117995
30
0
41
1
10
-36.5
20
3.46078958963511
30
0
41
1
10
-36.5
20
3.33910702605107
30
0
41
1
10
-36.5
20
3.17597085922341
30
0
41
1
10
-36.5
20
3.01425651604552
30
0
41
1
10
-36.5
20
2.85023149996007
30
0
41
1
10
-36.5
20
2.72752154931175
30
0
41
1
10
-36.5
20
2.60463052157442
30
0
41
1
10
-36.5
20
2.48157378937663
30
0
41
1
10
-36.5
20
2.35835621123036
30
0
41
1
10
-36.5
20
2.23499061660055
30
0
41
1
10
-36.5
20
2.11148761081347
30
0
41
1
10
-36.5
20
1.9878545152765
30
0
41
1
10
-36.5
20
1.86410632124094
30
0
41
1
10
-36.5
20
1.74024827700825
30
0
41
1
10
-36.5
20
1.61629526151512
30
0
41
1
10
-36.5
20
1.49225310041959
30
0
41
1
10
-36.5
20
1.3681347814894
30
0
41
1
10
-36.5
20
1.2439473222278
30
0
41
1
10
-36.5
20
1.11970117534864
30
0
41
1
10
-36.5
20
0.995403485642782
30
0
41
1
10
-36.5
20
0.8710629170684
30
0
41
1
10
-36.5
20
0.746686102657719
30
0
41
1
10
-36.5
20
0.622280124115576
30
0
41
1
10
-36.5
20
0.497850420758397
30
0
41
1
10
-36.5
20
0.373402935182185
30
0
41
1
10
-36.5
20
0.248942238793148
30
0
41
1
10
-36.5
20
0.124473257200918
30
0
41
1
10
-36.5
20
9.2462358E-09
30
0
41
1
10
-36.5
20
-0.124473254673973
30
0
41
1
10
-36.5
20
-0.248942266430618
30
0
41
1
10
-36.5
20
-0.373402960091397
30
0
41
1
10
-36.5
20
-0.497850400790554
30
0
41
1
10
-36.5
20
-0.622280094010847
30
0
41
1
10
-36.5
20
-0.746686131491799
30
0
41
1
10
-36.5
20
-0.871062970095124
30
0
41
1
10
-36.5
20
-0.995403468230791
30
0
41
1
10
-36.5
20
-1.11970111692671
30
0
41
1
10
-36.5
20
-1.24394734076813
30
0
41
1
10
-36.5
20
-1.36813486147517
30
0
41
1
10
-36.5
20
-1.49225310642996
30
0
41
1
10
-36.5
20
-1.61629518356963
30
0
41
1
10
-36.5
20
-1.7402482546413
30
0
41
1
10
-36.5
20
-1.86410640329151
30
0
41
1
10
-36.5
20
-1.98785458048855
30
0
41
1
10
-36.5
20
-2.11148756075909
30
0
41
1
10
-36.5
20
-2.2349905278607
30
0
41
1
10
-36.5
20
-2.3583562279822
30
0
41
1
10
-36.5
20
-2.48157389743918
30
0
41
1
10
-36.5
20
-2.60463057106841
30
0
41
1
10
-36.5
20
-2.72752148004804
30
0
41
1
10
-36.5
20
-2.8502314065623
30
0
41
1
10
-36.5
20
-3.01425656877106
30
0
41
1
10
-36.5
20
-3.17597095993784
30
0
41
1
10
-36.5
20
-3.33910698167958
30
0
41
1
10
-36.5
20
-3.46078948211164
30
0
41
1
10
-36.5
20
-3.58224072191865
30
0
41
1
10
-36.5
20
-3.74444967050349
30
0
41
1
10
-36.5
20
-3.94531869048151
30
0
41
1
10
-36.5
20
-4.14529326648051
30
0
41
1
10
-36.5
20
-4.30569969171862
30
0
41
1
10
-36.5
20
-4.42534006396792
30
0
41
1
10
-36.5
20
-4.54469650094606
30
0
41
1
10
-36.5
20
-4.70396584910503
30
0
41
1
10
-36.5
20
-4.90120586463618
30
0
41
1
10
-36.5
20
-5.1372458114655
30
0
41
1
10
-36.5
20
-5.37203995090806
30
0
41
1
10
-36.5
20
-5.6055565552935
30
0
41
1
10
-36.5
20
-5.83776875015039
30
0
41
1
10
-36.5
20
-6.06865017711209
30
0
41
1
10
-36.5
20
-6.29817748211653
30
0
41
1
10
-36.5
20
-6.52633051401983
30
0
41
1
10
-36.5
20
-6.75309051279777
30
0
41
1
10
-36.5
20
-6.97843834484934
30
0
41
1
10
-36.5
20
-7.20235684280954
30
0
41
1
10
-36.5
20
-7.42483229470756
30
0
41
1
10
-36.5
20
-7.64585158611581
30
0
41
1
10
-36.5
20
-7.86540128403743
30
0
41
1
10
-36.5
20
-8.08346945831602
30
0
41
1
10
-36.5
20
-8.3000445299389
30
0
41
1
10
-36.5
20
-8.58745782596952
30
0
41
1
10
-36.5
20
-8.94153442741853
30
0
41
1
10
-36.5
20
-9.36101273737586
30
0
41
1
10
-36.5
20
-9.70483575174822
30
0
41
1
10
-36.5
20
-9.97778564072317
30
0
41
1
10
-36.5
20
-10.18052371466
30
0
41
1
10
-36.5
20
-10.3816870614505
30
0
41
1
10
-36.5
20
-10.5812696339219
30
0
41
1
10
-36.5
20
-10.7792636942327
30
0
41
1
10
-36.5
20
-10.9756652058486
30
0
41
1
10
-36.5
20
-11.1704660987636
30
0
41
1
10
-36.5
20
-11.4285504962004
30
0
41
1
10
-36.5
20
-11.6819759007756
30
0
41
1
10
-36.5
20
-11.9335556252714
30
0
41
1
10
-36.5
20
-12.1202707134412
30
0
41
1
10
-36.5
20
-12.3053503320752
30
0
41
1
10
-36.5
20
-12.4887913848281
30
0
41
1
10
-36.5
20
-12.6705857704289
30
0
41
1
10
-36.5
20
-12.8507281979538
30
0
41
1
10
-36.5
20
-13.0292149436137
30
0
41
1
10
-36.5
20
-13.2060373895955
30
0
41
1
10
-36.5
20
-13.3811911431361
30
0
41
1
10
-36.5
20
-13.5546713888901
30
0
41
1
10
-36.5
20
-13.7264696827894
30
0
41
1
10
-36.5
20
-13.9536769173599
30
0
41
1
10
-36.5
20
-14.176348576809
30
0
41
1
10
-36.5
20
-14.3967384349213
30
0
41
1
10
-36.5
20
-14.6148460432235
30
0
41
1
10
-36.5
20
-14.8284315021107
30
0
41
1
10
-36.5
20
-15.0396227184095
30
0
41
1
10
-36.5
20
-15.1960147192182
30
0
41
1
10
-36.5
20
-15.3506631330603
30
0
41
1
10
-36.5
20
-15.5548624364723
30
0
41
1
10
-36.5
20
-15.7545451164335
30
0
41
1
10
-36.5
20
-15.9516609547094
30
0
41
1
10
-36.5
20
-16.0974737380165
30
0
41
1
10
-36.5
20
-16.241498813278
30
0
41
1
10
-36.5
20
-16.4314450331352
30
0
41
1
10
-36.5
20
-16.6168608854212
30
0
41
1
10
-36.5
20
-16.7995343923805
30
0
41
1
10
-36.5
20
-16.9344844206004
30
0
41
1
10
-36.5
20
-17.0675955495038
30
0
41
1
10
-36.5
20
-17.2428947983014
30
0
41
1
10
-36.5
20
-17.4136313821348
30
0
41
1
10
-36.5
20
-17.5814422063202
30
0
41
1
10
-36.5
20
-17.7052052466277
30
0
41
1
10
-36.5
20
-17.827069915531
30
0
41
1
10
-36.5
20
-17.9872703841193
30
0
41
1
10
-36.5
20
-18.1428562465544
30
0
41
1
10
-36.5
20
-18.2953166794047
30
0
41
1
10
-36.5
20
-18.4075180436267
30
0
41
1
10
-36.5
20
-18.5177535555592
30
0
41
1
10
-36.5
20
-18.6623326618876
30
0
41
1
10
-36.5
20
-18.8022222651529
30
0
41
1
10
-36.5
20
-18.9387686023437
30
0
41
1
10
-36.5
20
-19.0389739868785
30
0
41
1
10
-36.5
20
-19.1371342717784
30
0
41
1
10
-36.5
20
-19.2332339353276
30
0
41
1
10
-36.5
20
-19.3272562516113
30
0
41
1
10
-36.5
20
-19.4191882978898
30
0
41
1
10
-36.5
20
-19.5090135437133
30
0
41
1
10
-36.5
20
-19.5967148362678
30
0
41
1
10
-36.5
20
-19.6822775521962
30
0
41
1
10
-36.5
20
-19.7656833992675
30
0
41
1
10
-36.5
20
-19.8469141406672
30
0
41
1
10
-36.5
20
-19.9259535527381
30
0
41
1
10
-36.5
20
-20.0027815100322
30
0
41
1
10
-36.5
20
-20.1024193061391
30
0
41
1
10
-36.5
20
-20.1970436522849
30
0
41
1
10
-36.5
20
-20.287589681624
30
0
41
1
10
-36.5
20
-20.353062816238
30
0
41
1
10
-36.5
20
-20.4161996091986
30
0
41
1
10
-36.5
20
-20.4769783724375
30
0
41
1
10
-36.5
20
-20.5353747607017
30
0
41
1
10
-36.5
20
-20.6101652553123
30
0
41
1
10
-36.5
20
-20.6796864153796
30
0
41
1
10
-36.5
20
-20.7446292080422
30
0
41
1
10
-36.5
20
-20.7907268231739
30
0
41
1
10
-36.5
20
-20.8342802793506
30
0
41
1
10
-36.5
20
-20.8890285523336
30
0
41
1
10
-36.5
20
-20.9382580424269
30
0
41
1
10
-36.5
20
-20.9824409225429
30
0
41
1
10
-36.5
20
-21.0128017234864
30
0
41
1
10
-36.5
20
-21.0404207944711
30
0
41
1
10
-36.5
20
-21.0652596303332
30
0
41
1
10
-36.5
20
-21.0872797892674
30
0
41
1
10
-36.5
20
-21.1064402531507
30
0
41
1
10
-36.5
20
-21.1226986516191
30
0
41
1
10
-36.5
20
-21.1360112646484
30
0
41
1
10
-36.5
20
-21.1463317710584
30
0
41
1
10
-36.5
20
-21.1536128319466
30
0
41
1
10
-36.5
20
-21.1578041644649
30
0
41
1
10
-36.5
20
-21.1588543296933
30
0
41
1
10
-36.5
20
-21.157318971902
30
0
41
1
10
-36.5
20
-21.1557860313917
30
0
41
1
10
-36.5
20
-21.1555781635058
30
0
0
SPLINE
5
299
100
AcDbEntity
8
SK1
62
256
6
ByLayer
370
-1
48
1
60
0
100
AcDbSpline
70
4
71
3
72
299
73
295
40
0
40
0
40
0
40
0
40
0.0032949082170907
40
0.0068176352460696
40
0.0103403622750486
40
0.0138630893040275
40
0.0173858163330065
40
0.0209085433619855
40
0.0244312703909644
40
0.0279539974199434
40
0.0349994514779013
40
0.0420449055358592
40
0.0490903595938171
40
0.0526130866227961
40
0.0561358136517751
40
0.059658540680754
40
0.063181267709733
40
0.0702267217676909
40
0.0737494487966699
40
0.0772721758256488
40
0.0807949028546278
40
0.0843176298836067
40
0.0878403569125857
40
0.0913630839415647
40
0.0984085379995226
40
0.101931265028502
40
0.105453992057481
40
0.10897671908646
40
0.112499446115438
40
0.116022173144417
40
0.119544900173396
40
0.123067627202375
40
0.126590354231354
40
0.130113081260333
40
0.133635808289312
40
0.137158535318291
40
0.14068126234727
40
0.144203989376249
40
0.147726716405228
40
0.154772170463186
40
0.158294897492165
40
0.161817624521144
40
0.163578988035633
40
0.165340351550123
40
0.168863078579102
40
0.17590853263706
40
0.179431259666039
40
0.182953986695018
40
0.186476713723997
40
0.189999440752976
40
0.197044894810934
40
0.200567621839912
40
0.204090348868891
40
0.205851712383381
40
0.20761307589787
40
0.211135802926849
40
0.218181256984807
40
0.221703984013786
40
0.225226711042765
40
0.228749438071744
40
0.232272165100723
40
0.239317619158681
40
0.24284034618766
40
0.246363073216639
40
0.248124436731128
40
0.249885800245618
40
0.253408527274597
40
0.256931254303576
40
0.260453981332555
40
0.262215344847044
40
0.263976708361534
40
0.267499435390513
40
0.271022162419492
40
0.274544889448471
40
0.278067616477449
40
0.281590343506428
40
0.285113070535408
40
0.288635797564387
40
0.292158524593365
40
0.295681251622344
40
0.299203978651323
40
0.302726705680302
40
0.306249432709281
40
0.30977215973826
40
0.313294886767239
40
0.316817613796218
40
0.323863067854176
40
0.327385794883155
40
0.330908521912134
40
0.334431248941113
40
0.337953975970092
40
0.341476702999071
40
0.34499943002805
40
0.348522157057029
40
0.352044884086008
40
0.359090338143966
40
0.366135792201923
40
0.373181246259882
40
0.376703973288861
40
0.380226700317839
40
0.383749427346818
40
0.387272154375797
40
0.390794881404776
40
0.394317608433755
40
0.397840335462734
40
0.401363062491713
40
0.404885789520692
40
0.408408516549671
40
0.41193124357865
40
0.415453970607629
40
0.418976697636608
40
0.422499424665587
40
0.426022151694566
40
0.429544878723545
40
0.433067605752524
40
0.434828969267013
40
0.436590332781503
40
0.438351696295992
40
0.440113059810482
40
0.443635786839461
40
0.44715851386844
40
0.448919877382929
40
0.450681240897419
40
0.452442604411908
40
0.454203967926398
40
0.457726694955376
40
0.459488058469866
40
0.461249421984355
40
0.463010785498845
40
0.464772149013334
40
0.466533512527824
40
0.468294876042313
40
0.470056239556803
40
0.471817603071292
40
0.473578966585782
40
0.475340330100271
40
0.477101693614761
40
0.47886305712925
40
0.48062442064374
40
0.482385784158229
40
0.484147147672719
40
0.485908511187208
40
0.487669874701698
40
0.489431238216187
40
0.491192601730677
40
0.492953965245166
40
0.494715328759656
40
0.496476692274145
40
0.498238055788635
40
0.499999419303124
40
0.501760782817613
40
0.503522146332103
40
0.505283509846592
40
0.507044873361082
40
0.508806236875571
40
0.510567600390061
40
0.51232896390455
40
0.51409032741904
40
0.515851690933529
40
0.517613054448019
40
0.519374417962508
40
0.521135781476998
40
0.522897144991487
40
0.524658508505977
40
0.526419872020466
40
0.528181235534956
40
0.529942599049445
40
0.531703962563935
40
0.533465326078424
40
0.535226689592914
40
0.536988053107403
40
0.538749416621893
40
0.540510780136382
40
0.542272143650872
40
0.545794870679851
40
0.54755623419434
40
0.549317597708829
40
0.551078961223319
40
0.552840324737808
40
0.556363051766787
40
0.559885778795766
40
0.561647142310256
40
0.563408505824745
40
0.565169869339235
40
0.566931232853724
40
0.570453959882703
40
0.573976686911682
40
0.577499413940661
40
0.58102214096964
40
0.584544867998619
40
0.588067595027598
40
0.591590322056577
40
0.595113049085556
40
0.598635776114535
40
0.602158503143514
40
0.605681230172493
40
0.609203957201472
40
0.612726684230451
40
0.61624941125943
40
0.619772138288409
40
0.623294865317388
40
0.626817592346367
40
0.633863046404325
40
0.640908500462282
40
0.64795395452024
40
0.651476681549219
40
0.654999408578198
40
0.658522135607177
40
0.662044862636156
40
0.665567589665135
40
0.669090316694114
40
0.672613043723093
40
0.676135770752072
40
0.68318122481003
40
0.686703951839009
40
0.690226678867988
40
0.693749405896967
40
0.697272132925946
40
0.700794859954925
40
0.704317586983904
40
0.707840314012883
40
0.711363041041862
40
0.714885768070841
40
0.71840849509982
40
0.721931222128798
40
0.725453949157778
40
0.732499403215735
40
0.736022130244714
40
0.739544857273693
40
0.746590311331651
40
0.75011303836063
40
0.753635765389609
40
0.757158492418588
40
0.760681219447567
40
0.767726673505525
40
0.771249400534504
40
0.774772127563483
40
0.778294854592462
40
0.781817581621441
40
0.788863035679399
40
0.792385762708378
40
0.795908489737357
40
0.799431216766336
40
0.802953943795315
40
0.809999397853272
40
0.813522124882251
40
0.81704485191123
40
0.820567578940209
40
0.824090305969188
40
0.831135760027146
40
0.834658487056125
40
0.838181214085104
40
0.841703941114083
40
0.845226668143062
40
0.85227212220102
40
0.855794849229999
40
0.859317576258978
40
0.862840303287957
40
0.866363030316936
40
0.869885757345915
40
0.873408484374894
40
0.876931211403873
40
0.880453938432852
40
0.883976665461831
40
0.88749939249081
40
0.891022119519789
40
0.894544846548768
40
0.898067573577747
40
0.901590300606726
40
0.908635754664683
40
0.912158481693662
40
0.915681208722641
40
0.91920393575162
40
0.922726662780599
40
0.926249389809578
40
0.929772116838557
40
0.936817570896515
40
0.940340297925494
40
0.943863024954473
40
0.947385751983452
40
0.950908479012431
40
0.957953933070389
40
0.961476660099368
40
0.964999387128347
40
0.968522114157326
40
0.972044841186305
40
0.975567568215284
40
0.979090295244263
40
0.982613022273242
40
0.98613574930222
40
0.9896584763312
40
0.993181203360178
40
0.996703930389157
40
1
40
1
40
1
40
1
41
1
10
-1.99503997793928
20
21.8251672746015
30
0
41
1
10
-1.99503997793928
20
21.8252770301056
30
0
41
1
10
-1.99503997793928
20
21.8245105348206
30
0
41
1
10
-1.99503997793928
20
21.8202836860757
30
0
41
1
10
-1.99503997793928
20
21.812783044142
30
0
41
1
10
-1.99503997793928
20
21.8021565364934
30
0
41
1
10
-1.99503997793928
20
21.7884557330328
30
0
41
1
10
-1.99503997793928
20
21.7717308612526
30
0
41
1
10
-1.99503997793928
20
21.7520291985819
30
0
41
1
10
-1.99503997793928
20
21.7218385059106
30
0
41
1
10
-1.99503997793928
20
21.6769140218914
30
0
41
1
10
-1.99503997793928
20
21.6117670092986
30
0
41
1
10
-1.99503997793928
20
21.5484022523455
30
0
41
1
10
-1.99503997793928
20
21.4923512863894
30
0
41
1
10
-1.99503997793928
20
21.4477036012609
30
0
41
1
10
-1.99503997793928
20
21.4004602751572
30
0
41
1
10
-1.99503997793928
20
21.3340243579833
30
0
41
1
10
-1.99503997793928
20
21.2626002065084
30
0
41
1
10
-1.99503997793928
20
21.1861355372814
30
0
41
1
10
-1.99503997793928
20
21.126355615456
30
0
41
1
10
-1.99503997793928
20
21.0641493981766
30
0
41
1
10
-1.99503997793928
20
20.9995415089612
30
0
41
1
10
-1.99503997793928
20
20.9325549476398
30
0
41
1
10
-1.99503997793928
20
20.8400664063016
30
0
41
1
10
-1.99503997793928
20
20.7430171949632
30
0
41
1
10
-1.99503997793928
20
20.6412830606924
30
0
41
1
10
-1.99503997793928
20
20.5627395849404
30
0
41
1
10
-1.99503997793928
20
20.4819464711493
30
0
41
1
10
-1.99503997793928
20
20.3989234016943
30
0
41
1
10
-1.99503997793928
20
20.3136873945745
30
0
41
1
10
-1.99503997793928
20
20.2262576082901
30
0
41
1
10
-1.99503997793928
20
20.136651569995
30
0
41
1
10
-1.99503997793928
20
20.0448848271876
30
0
41
1
10
-1.99503997793928
20
19.9509751576252
30
0
41
1
10
-1.99503997793928
20
19.8549383078336
30
0
41
1
10
-1.99503997793928
20
19.7567886026657
30
0
41
1
10
-1.99503997793928
20
19.6565424313982
30
0
41
1
10
-1.99503997793928
20
19.5542139601407
30
0
41
1
10
-1.99503997793928
20
19.4149698127943
30
0
41
1
10
-1.99503997793928
20
19.2717622924356
30
0
41
1
10
-1.99503997793928
20
19.1243520606764
30
0
41
1
10
-1.99503997793928
20
19.0305969699326
30
0
41
1
10
-1.99503997793928
20
18.9545457436666
30
0
41
1
10
-1.99503997793928
20
18.877828345234
30
0
41
1
10
-1.99503997793928
20
18.7418485706132
30
0
41
1
10
-1.99503997793928
20
18.5826225030747
30
0
41
1
10
-1.99503997793928
20
18.4193199892891
30
0
41
1
10
-1.99503997793928
20
18.2949375082747
30
0
41
1
10
-1.99503997793928
20
18.1686188381619
30
0
41
1
10
-1.99503997793928
20
17.9975681157064
30
0
41
1
10
-1.99503997793928
20
17.8228588844704
30
0
41
1
10
-1.99503997793928
20
17.6441795672679
30
0
41
1
10
-1.99503997793928
20
17.5309981410348
30
0
41
1
10
-1.99503997793928
20
17.4394590341184
30
0
41
1
10
-1.99503997793928
20
17.3472945498449
30
0
41
1
10
-1.99503997793928
20
17.1843913435575
30
0
41
1
10
-1.99503997793928
20
16.9946548235122
30
0
41
1
10
-1.99503997793928
20
16.8010333841432
30
0
41
1
10
-1.99503997793928
20
16.654027023888
30
0
41
1
10
-1.99503997793928
20
16.5051894370887
30
0
41
1
10
-1.99503997793928
20
16.3042392155796
30
0
41
1
10
-1.99503997793928
20
16.0998599858609
30
0
41
1
10
-1.99503997793928
20
15.8916662065006
30
0
41
1
10
-1.99503997793928
20
15.7601264684356
30
0
41
1
10
-1.99503997793928
20
15.6539352235828
30
0
41
1
10
-1.99503997793928
20
15.5471478788445
30
0
41
1
10
-1.99503997793928
20
15.4126292313156
30
0
41
1
10
-1.99503997793928
20
15.2493853238091
30
0
41
1
10
-1.99503997793928
20
15.1119089381336
30
0
41
1
10
-1.99503997793928
20
15.0009760777421
30
0
41
1
10
-1.99503997793928
20
14.8894548819647
30
0
41
1
10
-1.99503997793928
20
14.7490386600655
30
0
41
1
10
-1.99503997793928
20
14.578735707937
30
0
41
1
10
-1.99503997793928
20
14.4066808882548
30
0
41
1
10
-1.99503997793928
20
14.2328806917249
30
0
41
1
10
-1.99503997793928
20
14.0573388809364
30
0
41
1
10
-1.99503997793928
20
13.8800596938692
30
0
41
1
10
-1.99503997793928
20
13.7010488098078
30
0
41
1
10
-1.99503997793928
20
13.5203096364964
30
0
41
1
10
-1.99503997793928
20
13.3378467409434
30
0
41
1
10
-1.99503997793928
20
13.1536651576331
30
0
41
1
10
-1.99503997793928
20
12.967767664355
30
0
41
1
10
-1.99503997793928
20
12.7801589185361
30
0
41
1
10
-1.99503997793928
20
12.5908431445087
30
0
41
1
10
-1.99503997793928
20
12.3998230002593
30
0
41
1
10
-1.99503997793928
20
12.1427688173785
30
0
41
1
10
-1.99503997793928
20
11.8826118718573
30
0
41
1
10
-1.99503997793928
20
11.6187779306707
30
0
41
1
10
-1.99503997793928
20
11.4192921752591
30
0
41
1
10
-1.99503997793928
20
11.2181233733031
30
0
41
1
10
-1.99503997793928
20
11.0152750188843
30
0
41
1
10
-1.99503997793928
20
10.8107494713072
30
0
41
1
10
-1.99503997793928
20
10.6045508021232
30
0
41
1
10
-1.99503997793928
20
10.3966814407573
30
0
41
1
10
-1.99503997793928
20
10.1171870033238
30
0
41
1
10
-1.99503997793928
20
9.76392166117952
30
0
41
1
10
-1.99503997793928
20
9.33322608836653
30
0
41
1
10
-1.99503997793928
20
8.96893242084855
30
0
41
1
10
-1.99503997793928
20
8.67397578579323
30
0
41
1
10
-1.99503997793928
20
8.45121977200662
30
0
41
1
10
-1.99503997793928
20
8.22682776167497
30
0
41
1
10
-1.99503997793928
20
8.00080467620242
30
0
41
1
10
-1.99503997793928
20
7.77315513008728
30
0
41
1
10
-1.99503997793928
20
7.54388372935193
30
0
41
1
10
-1.99503997793928
20
7.31299637479285
30
0
41
1
10
-1.99503997793928
20
7.08049945458953
30
0
41
1
10
-1.99503997793928
20
6.8463997482805
30
0
41
1
10
-1.99503997793928
20
6.61070495432838
30
0
41
1
10
-1.99503997793928
20
6.37342319970753
30
0
41
1
10
-1.99503997793928
20
6.13456384015993
30
0
41
1
10
-1.99503997793928
20
5.89413749968631
30
0
41
1
10
-1.99503997793928
20
5.65215638001948
30
0
41
1
10
-1.99503997793928
20
5.4086336510897
30
0
41
1
10
-1.99503997793928
20
5.16358499073451
30
0
41
1
10
-1.99503997793928
20
4.95821799704331
30
0
41
1
10
-1.99503997793928
20
4.79299516838267
30
0
41
1
10
-1.99503997793928
20
4.66878842905288
30
0
41
1
10
-1.99503997793928
20
4.5442150281373
30
0
41
1
10
-1.99503997793928
20
4.37752561794156
30
0
41
1
10
-1.99503997793928
20
4.16851547631595
30
0
41
1
10
-1.99503997793928
20
3.95832363498766
30
0
41
1
10
-1.99503997793928
20
3.78926935835412
30
0
41
1
10
-1.99503997793928
20
3.66223142121836
30
0
41
1
10
-1.99503997793928
20
3.53485872774326
30
0
41
1
10
-1.99503997793928
20
3.36446603264318
30
0
41
1
10
-1.99503997793928
20
3.19381064862623
30
0
41
1
10
-1.99503997793928
20
3.02213557666008
30
0
41
1
10
-1.99503997793928
20
2.8931784837302
30
0
41
1
10
-1.99503997793928
20
2.76392442628162
30
0
41
1
10
-1.99503997793928
20
2.63438251344519
30
0
41
1
10
-1.99503997793928
20
2.50455988721876
30
0
41
1
10
-1.99503997793928
20
2.37446636334928
30
0
41
1
10
-1.99503997793928
20
2.24411116870439
30
0
41
1
10
-1.99503997793928
20
2.11350398186613
30
0
41
1
10
-1.99503997793928
20
1.98265625862297
30
0
41
1
10
-1.99503997793928
20
1.85157817347522
30
0
41
1
10
-1.99503997793928
20
1.72028262405345
30
0
41
1
10
-1.99503997793928
20
1.58878098022359
30
0
41
1
10
-1.99503997793928
20
1.45708718468359
30
0
41
1
10
-1.99503997793928
20
1.32521409071333
30
0
41
1
10
-1.99503997793928
20
1.19317647053177
30
0
41
1
10
-1.99503997793928
20
1.06098852682439
30
0
41
1
10
-1.99503997793928
20
0.928665923975672
30
0
41
1
10
-1.99503997793928
20
0.796224037396229
30
0
41
1
10
-1.99503997793928
20
0.663679321648374
30
0
41
1
10
-1.99503997793928
20
0.531048033506266
30
0
41
1
10
-1.99503997793928
20
0.398347293868937
30
0
41
1
10
-1.99503997793928
20
0.265594055935196
30
0
41
1
10
-1.99503997793928
20
0.132805828560237
30
0
41
1
10
-1.99503997793928
20
-2.0604887E-09
30
0
41
1
10
-1.99503997793928
20
-0.132805835966792
30
0
41
1
10
-1.99503997793928
20
-0.265594069601519
30
0
41
1
10
-1.99503997793928
20
-0.398347307093388
30
0
41
1
10
-1.99503997793928
20
-0.531048037421954
30
0
41
1
10
-1.99503997793928
20
-0.663679323049081
30
0
41
1
10
-1.99503997793928
20
-0.796224050825089
30
0
41
1
10
-1.99503997793928
20
-0.92866594303203
30
0
41
1
10
-1.99503997793928
20
-1.06098853158755
30
0
41
1
10
-1.99503997793928
20
-1.1931764657121
30
0
41
1
10
-1.99503997793928
20
-1.32521410103647
30
0
41
1
10
-1.99503997793928
20
-1.45708720896539
30
0
41
1
10
-1.99503997793928
20
-1.58878099035152
30
0
41
1
10
-1.99503997793928
20
-1.72028261530932
30
0
41
1
10
-1.99503997793928
20
-1.85157817419835
30
0
41
1
10
-1.99503997793928
20
-1.98265628188182
30
0
41
1
10
-1.99503997793928
20
-2.11350400419804
30
0
41
1
10
-1.99503997793928
20
-2.24411116714702
30
0
41
1
10
-1.99503997793928
20
-2.37446635053539
30
0
41
1
10
-1.99503997793928
20
-2.50455989433328
30
0
41
1
10
-1.99503997793928
20
-2.63438254221708
30
0
41
1
10
-1.99503997793928
20
-2.76392444618182
30
0
41
1
10
-1.99503997793928
20
-2.89317847799558
30
0
41
1
10
-1.99503997793928
20
-3.02213556164864
30
0
41
1
10
-1.99503997793928
20
-3.19381066067948
30
0
41
1
10
-1.99503997793928
20
-3.36446606295527
30
0
41
1
10
-1.99503997793928
20
-3.53485872835634
30
0
41
1
10
-1.99503997793928
20
-3.66223140396673
30
0
41
1
10
-1.99503997793928
20
-3.78926935085312
30
0
41
1
10
-1.99503997793928
20
-3.95832365779984
30
0
41
1
10
-1.99503997793928
20
-4.16851549788919
30
0
41
1
10
-1.99503997793928
20
-4.37752560184694
30
0
41
1
10
-1.99503997793928
20
-4.54421502107886
30
0
41
1
10
-1.99503997793928
20
-4.66878844332788
30
0
41
1
10
-1.99503997793928
20
-4.79299519854527
30
0
41
1
10
-1.99503997793928
20
-4.95821801342223
30
0
41
1
10
-1.99503997793928
20
-5.16358497720142
30
0
41
1
10
-1.99503997793928
20
-5.40863364784667
30
0
41
1
10
-1.99503997793928
20
-5.65215640891225
30
0
41
1
10
-1.99503997793928
20
-5.89413750153935
30
0
41
1
10
-1.99503997793928
20
-6.13456381441384
30
0
41
1
10
-1.99503997793928
20
-6.37342317953835
30
0
41
1
10
-1.99503997793928
20
-6.61070492919379
30
0
41
1
10
-1.99503997793928
20
-6.84639976314463
30
0
41
1
10
-1.99503997793928
20
-7.08049963775395
30
0
41
1
10
-1.99503997793928
20
-7.31299670603016
30
0
41
1
10
-1.99503997793928
20
-7.54388383469134
30
0
41
1
10
-1.99503997793928
20
-7.77315487290267
30
0
41
1
10
-1.99503997793928
20
-8.00080468509063
30
0
41
1
10
-1.99503997793928
20
-8.22682785520686
30
0
41
1
10
-1.99503997793928
20
-8.4512197921853
30
0
41
1
10
-1.99503997793928
20
-8.67397577159846
30
0
41
1
10
-1.99503997793928
20
-8.96893239301764
30
0
41
1
10
-1.99503997793928
20
-9.33322609823665
30
0
41
1
10
-1.99503997793928
20
-9.76392165975841
30
0
41
1
10
-1.99503997793928
20
-10.1171869828061
30
0
41
1
10
-1.99503997793928
20
-10.3966814549587
30
0
41
1
10
-1.99503997793928
20
-10.6045508126063
30
0
41
1
10
-1.99503997793928
20
-10.8107494592904
30
0
41
1
10
-1.99503997793928
20
-11.0152749978462
30
0
41
1
10
-1.99503997793928
20
-11.2181233670389
30
0
41
1
10
-1.99503997793928
20
-11.4192921870092
30
0
41
1
10
-1.99503997793928
20
-11.6187779427602
30
0
41
1
10
-1.99503997793928
20
-11.8826118620781
30
0
41
1
10
-1.99503997793928
20
-12.1427687977971
30
0
41
1
10
-1.99503997793928
20
-12.3998230071702
30
0
41
1
10
-1.99503997793928
20
-12.5908431584255
30
0
41
1
10
-1.99503997793928
20
-12.7801589212449
30
0
41
1
10
-1.99503997793928
20
-12.9677676529033
30
0
41
1
10
-1.99503997793928
20
-13.1536651432542
30
0
41
1
10
-1.99503997793928
20
-13.3378467396349
30
0
41
1
10
-1.99503997793928
20
-13.520309646993
30
0
41
1
10
-1.99503997793928
20
-13.7010488212408
30
0
41
1
10
-1.99503997793928
20
-13.8800597145162
30
0
41
1
10
-1.99503997793928
20
-14.0573389921213
30
0
41
1
10
-1.99503997793928
20
-14.2328810143213
30
0
41
1
10
-1.99503997793928
20
-14.4646959102749
30
0
41
1
10
-1.99503997793928
20
-14.6927797943809
30
0
41
1
10
-1.99503997793928
20
-14.9175842595472
30
0
41
1
10
-1.99503997793928
20
-15.1400402265273
30
0
41
1
10
-1.99503997793928
20
-15.3587351142266
30
0
41
1
10
-1.99503997793928
20
-15.574095422854
30
0
41
1
10
-1.99503997793928
20
-15.733775855726
30
0
41
1
10
-1.99503997793928
20
-15.8916657661057
30
0
41
1
10
-1.99503997793928
20
-16.0998603532658
30
0
41
1
10
-1.99503997793928
20
-16.3042398246232
30
0
41
1
10
-1.99503997793928
20
-16.5051894037979
30
0
41
1
10
-1.99503997793928
20
-16.6540265683948
30
0
41
1
10
-1.99503997793928
20
-16.8010329188422
30
0
41
1
10
-1.99503997793928
20
-16.9946550481209
30
0
41
1
10
-1.99503997793928
20
-17.1843924611907
30
0
41
1
10
-1.99503997793928
20
-17.3705928023913
30
0
41
1
10
-1.99503997793928
20
-17.5083251903719
30
0
41
1
10
-1.99503997793928
20
-17.6441786252734
30
0
41
1
10
-1.99503997793928
20
-17.8228590748675
30
0
41
1
10
-1.99503997793928
20
-17.9975683374733
30
0
41
1
10
-1.99503997793928
20
-18.1686188521771
30
0
41
1
10
-1.99503997793928
20
-18.2949373683468
30
0
41
1
10
-1.99503997793928
20
-18.4193198181252
30
0
41
1
10
-1.99503997793928
20
-18.5826226298873
30
0
41
1
10
-1.99503997793928
20
-18.7418497326446
30
0
41
1
10
-1.99503997793928
20
-18.8972761707097
30
0
41
1
10
-1.99503997793928
20
-19.0118150097952
30
0
41
1
10
-1.99503997793928
20
-19.1243510467918
30
0
41
1
10
-1.99503997793928
20
-19.2717625055688
30
0
41
1
10
-1.99503997793928
20
-19.414970513124
30
0
41
1
10
-1.99503997793928
20
-19.5542140249085
30
0
41
1
10
-1.99503997793928
20
-19.6565420567613
30
0
41
1
10
-1.99503997793928
20
-19.7567881415466
30
0
41
1
10
-1.99503997793928
20
-19.8549381550126
30
0
41
1
10
-1.99503997793928
20
-19.9509751416388
30
0
41
1
10
-1.99503997793928
20
-20.0448848362119
30
0
41
1
10
-1.99503997793928
20
-20.1366515718167
30
0
41
1
10
-1.99503997793928
20
-20.2262576202058
30
0
41
1
10
-1.99503997793928
20
-20.3136874196731
30
0
41
1
10
-1.99503997793928
20
-20.398923430088
30
0
41
1
10
-1.99503997793928
20
-20.4819464863244
30
0
41
1
10
-1.99503997793928
20
-20.5627395868944
30
0
41
1
10
-1.99503997793928
20
-20.6412830627252
30
0
41
1
10
-1.99503997793928
20
-20.7430172190697
30
0
41
1
10
-1.99503997793928
20
-20.8400664428987
30
0
41
1
10
-1.99503997793928
20
-20.9325549572362
30
0
41
1
10
-1.99503997793928
20
-20.9995415068112
30
0
41
1
10
-1.99503997793928
20
-21.064149408511
30
0
41
1
10
-1.99503997793928
20
-21.1263556466612
30
0
41
1
10
-1.99503997793928
20
-21.1861355753666
30
0
41
1
10
-1.99503997793928
20
-21.262600218376
30
0
41
1
10
-1.99503997793928
20
-21.3340243512753
30
0
41
1
10
-1.99503997793928
20
-21.4004603045828
30
0
41
1
10
-1.99503997793928
20
-21.4477036445725
30
0
41
1
10
-1.99503997793928
20
-21.4923513092323
30
0
41
1
10
-1.99503997793928
20
-21.5484022410126
30
0
41
1
10
-1.99503997793928
20
-21.5990695510926
30
0
41
1
10
-1.99503997793928
20
-21.6443396610233
30
0
41
1
10
-1.99503997793928
20
-21.6755105092645
30
0
41
1
10
-1.99503997793928
20
-21.7038764495607
30
0
41
1
10
-1.99503997793928
20
-21.7293964429163
30
0
41
1
10
-1.99503997793928
20
-21.7520292420694
30
0
41
1
10
-1.99503997793928
20
-21.7717309018817
30
0
41
1
10
-1.99503997793928
20
-21.7884557380592
30
0
41
1
10
-1.99503997793928
20
-21.8021565310045
30
0
41
1
10
-1.99503997793928
20
-21.8127830851058
30
0
41
1
10
-1.99503997793928
20
-21.8202838734724
30
0
41
1
10
-1.99503997793928
20
-21.8245113565545
30
0
41
1
10
-1.99503997793928
20
-21.8252773561974
30
0
41
1
10
-1.99503997793928
20
-21.8251670981947
30
0
0
SPLINE
5
29A
100
AcDbEntity
8
SK1
62
256
6
ByLayer
370
-1
48
1
60
0
100
AcDbSpline
70
4
71
3
72
111
73
107
40
0
40
0
40
0
40
0
40
0.0023117070103626
40
0.0108572534823504
40
0.0194027999543382
40
0.027948346426326
40
0.0364938928983138
40
0.0450394393703016
40
0.0535849858422893
40
0.0621305323142771
40
0.0706760787862649
40
0.0792216252582527
40
0.0877671717302405
40
0.0963127182022283
40
0.113403811146204
40
0.130494904090179
40
0.147585997034155
40
0.156131543506143
40
0.16467708997813
40
0.173222636450118
40
0.181768182922106
40
0.190313729394094
40
0.198859275866082
40
0.20740482233807
40
0.215950368810057
40
0.233041461754033
40
0.241587008226021
40
0.250132554698008
40
0.258678101169996
40
0.267223647641984
40
0.275769194113972
40
0.28431474058596
40
0.292860287057947
40
0.301405833529935
40
0.309951380001923
40
0.318496926473911
40
0.327042472945898
40
0.335588019417886
40
0.352679112361862
40
0.36122465883385
40
0.369770205305837
40
0.386861298249813
40
0.395406844721801
40
0.403952391193789
40
0.412497937665776
40
0.421043484137764
40
0.43813457708174
40
0.446680123553727
40
0.455225670025715
40
0.463771216497703
40
0.472316762969691
40
0.489407855913666
40
0.497953402385654
40
0.506498948857642
40
0.51504449532963
40
0.523590041801617
40
0.540681134745593
40
0.549226681217581
40
0.557772227689569
40
0.566317774161556
40
0.574863320633544
40
0.59195441357752
40
0.600499960049508
40
0.609045506521495
40
0.617591052993483
40
0.626136599465471
40
0.643227692409446
40
0.651773238881434
40
0.660318785353422
40
0.66886433182541
40
0.677409878297398
40
0.685955424769385
40
0.694500971241373
40
0.703046517713361
40
0.711592064185349
40
0.720137610657336
40
0.728683157129324
40
0.737228703601312
40
0.7457742500733
40
0.754319796545288
40
0.762865343017275
40
0.779956435961251
40
0.788501982433239
40
0.797047528905227
40
0.805593075377214
40
0.814138621849202
40
0.82268416832119
40
0.831229714793178
40
0.848320807737153
40
0.856866354209141
40
0.865411900681129
40
0.873957447153117
40
0.882502993625104
40
0.89959408656908
40
0.908139633041068
40
0.916685179513056
40
0.925230725985043
40
0.933776272457031
40
0.942321818929019
40
0.950867365401007
40
0.959412911872994
40
0.967958458344982
40
0.97650400481697
40
0.985049551288958
40
0.993595097760946
40
1
40
1
40
1
40
1
41
1
10
-0.394976888875277
20
-6.32694279392976
30
0
41
1
10
-0.394976888875277
20
-6.3484916311391
30
0
41
1
10
-0.394976888875277
20
-6.44960775400912
30
0
41
1
10
-0.394976888875277
20
-6.62954555948866
30
0
41
1
10
-0.394976888875277
20
-6.8656950488801
30
0
41
1
10
-0.394976888875277
20
-7.10023740586411
30
0
41
1
10
-0.394976888875277
20
-7.33316546385933
30
0
41
1
10
-0.394976888875277
20
-7.56447269448574
30
0
41
1
10
-0.394976888875277
20
-7.79415340272945
30
0
41
1
10
-0.394976888875277
20
-8.02220293401996
30
0
41
1
10
-0.394976888875277
20
-8.24861635560848
30
0
41
1
10
-0.394976888875277
20
-8.47338951886385
30
0
41
1
10
-0.394976888875277
20
-8.69651811258549
30
0
41
1
10
-0.394976888875277
20
-8.99192948127941
30
0
41
1
10
-0.394976888875277
20
-9.35683912175983
30
0
41
1
10
-0.394976888875277
20
-9.78821091217483
30
0
41
1
10
-0.394976888875277
20
-10.142045462177
30
0
41
1
10
-0.394976888875277
20
-10.4219344727077
30
0
41
1
10
-0.394976888875277
20
-10.6301131683678
30
0
41
1
10
-0.394976888875277
20
-10.8366153667066
30
0
41
1
10
-0.394976888875277
20
-11.0414388905992
30
0
41
1
10
-0.394976888875277
20
-11.2445799004538
30
0
41
1
10
-0.394976888875277
20
-11.4460361162834
30
0
41
1
10
-0.394976888875277
20
-11.6458042976885
30
0
41
1
10
-0.394976888875277
20
-11.9099848253352
30
0
41
1
10
-0.394976888875277
20
-12.1705475695385
30
0
41
1
10
-0.394976888875277
20
-12.4279318067111
30
0
41
1
10
-0.394976888875277
20
-12.6192114874981
30
0
41
1
10
-0.394976888875277
20
-12.8087826250924
30
0
41
1
10
-0.394976888875277
20
-12.9966426041155
30
0
41
1
10
-0.394976888875277
20
-13.182787448996
30
0
41
1
10
-0.394976888875277
20
-13.3672125455487
30
0
41
1
10
-0.394976888875277
20
-13.5499151547097
30
0
41
1
10
-0.394976888875277
20
-13.7308904478326
30
0
41
1
10
-0.394976888875277
20
-13.910133867705
30
0
41
1
10
-0.394976888875277
20
-14.0876421688895
30
0
41
1
10
-0.394976888875277
20
-14.2634098807097
30
0
41
1
10
-0.394976888875277
20
-14.4955025482493
30
0
41
1
10
-0.394976888875277
20
-14.7239127068147
30
0
41
1
10
-0.394976888875277
20
-14.9489833053404
30
0
41
1
10
-0.394976888875277
20
-15.171701411915
30
0
41
1
10
-0.394976888875277
20
-15.3907043201103
30
0
41
1
10
-0.394976888875277
20
-15.6063159613101
30
0
41
1
10
-0.394976888875277
20
-15.7661946363952
30
0
41
1
10
-0.394976888875277
20
-15.9242799594928
30
0
41
1
10
-0.394976888875277
20
-16.1327154012234
30
0
41
1
10
-0.394976888875277
20
-16.3373780173449
30
0
41
1
10
-0.394976888875277
20
-16.5385587125243
30
0
41
1
10
-0.394976888875277
20
-16.6875782011067
30
0
41
1
10
-0.394976888875277
20
-16.8347642769002
30
0
41
1
10
-0.394976888875277
20
-17.0286080073569
30
0
41
1
10
-0.394976888875277
20
-17.2186059445175
30
0
41
1
10
-0.394976888875277
20
-17.4050188999402
30
0
41
1
10
-0.394976888875277
20
-17.5429190217058
30
0
41
1
10
-0.394976888875277
20
-17.6789377757623
30
0
41
1
10
-0.394976888875277
20
-17.8578220601067
30
0
41
1
10
-0.394976888875277
20
-18.0327708145484
30
0
41
1
10
-0.394976888875277
20
-18.2040166330947
30
0
41
1
10
-0.394976888875277
20
-18.3304892054167
30
0
41
1
10
-0.394976888875277
20
-18.4550234389153
30
0
41
1
10
-0.394976888875277
20
-18.6185132745736
30
0
41
1
10
-0.394976888875277
20
-18.7779598884918
30
0
41
1
10
-0.394976888875277
20
-18.933565131357
30
0
41
1
10
-0.394976888875277
20
-19.048244884465
30
0
41
1
10
-0.394976888875277
20
-19.1609196079758
30
0
41
1
10
-0.394976888875277
20
-19.3085018143331
30
0
41
1
10
-0.394976888875277
20
-19.4519098709686
30
0
41
1
10
-0.394976888875277
20
-19.5913159811741
30
0
41
1
10
-0.394976888875277
20
-19.6937719762305
30
0
41
1
10
-0.394976888875277
20
-19.7941438028822
30
0
41
1
10
-0.394976888875277
20
-19.8924174211231
30
0
41
1
10
-0.394976888875277
20
-19.988575861591
30
0
41
1
10
-0.394976888875277
20
-20.082604778142
30
0
41
1
10
-0.394976888875277
20
-20.1744885559187
30
0
41
1
10
-0.394976888875277
20
-20.264209431984
30
0
41
1
10
-0.394976888875277
20
-20.3517517880635
30
0
41
1
10
-0.394976888875277
20
-20.437098129367
30
0
41
1
10
-0.394976888875277
20
-20.5202292348052
30
0
41
1
10
-0.394976888875277
20
-20.6011280559991
30
0
41
1
10
-0.394976888875277
20
-20.6797749513881
30
0
41
1
10
-0.394976888875277
20
-20.781635486227
30
0
41
1
10
-0.394976888875277
20
-20.8788308931333
30
0
41
1
10
-0.394976888875277
20
-20.9714365096391
30
0
41
1
10
-0.394976888875277
20
-21.0385142950144
30
0
41
1
10
-0.394976888875277
20
-21.1032108820957
30
0
41
1
10
-0.394976888875277
20
-21.1655031751743
30
0
41
1
10
-0.394976888875277
20
-21.2253665102307
30
0
41
1
10
-0.394976888875277
20
-21.301932078811
30
0
41
1
10
-0.394976888875277
20
-21.3734709318986
30
0
41
1
10
-0.394976888875277
20
-21.4399968999807
30
0
41
1
10
-0.394976888875277
20
-21.4873093096751
30
0
41
1
10
-0.394976888875277
20
-21.5320229383892
30
0
41
1
10
-0.394976888875277
20
-21.5881524005931
30
0
41
1
10
-0.394976888875277
20
-21.6389063892513
30
0
41
1
10
-0.394976888875277
20
-21.6842420425293
30
0
41
1
10
-0.394976888875277
20
-21.7154617242468
30
0
41
1
10
-0.394976888875277
20
-21.7438726893518
30
0
41
1
10
-0.394976888875277
20
-21.7694337460976
30
0
41
1
10
-0.394976888875277
20
-21.7921034780961
30
0
41
1
10
-0.394976888875277
20
-21.8118377637545
30
0
41
1
10
-0.394976888875277
20
-21.8285907189997
30
0
41
1
10
-0.394976888875277
20
-21.8423149132633
30
0
41
1
10
-0.394976888875277
20
-21.8529599173647
30
0
41
1
10
-0.394976888875277
20
-21.8604739519412
30
0
41
1
10
-0.394976888875277
20
-21.8644404773555
30
0
41
1
10
-0.394976888875277
20
-21.8653100974114
30
0
41
1
10
-0.394976888875277
20
-21.8653747942799
30
0
0
SPLINE
5
29B
100
AcDbEntity
8
SK1
62
256
6
ByLayer
370
-1
48
1
60
0
100
AcDbSpline
70
4
71
3
72
116
73
112
40
0
40
0
40
0
40
0
40
0.0006048374413675
40
0.0091269724720962
40
0.0176491075028249
40
0.0261712425335536
40
0.0346933775642823
40
0.0432155125950111
40
0.0517376476257397
40
0.0602597826564684
40
0.0687819176871972
40
0.0858261877486546
40
0.102870457810112
40
0.119914727871569
40
0.128436862902298
40
0.136958997933027
40
0.145481132963756
40
0.154003267994484
40
0.171047538055942
40
0.17956967308667
40
0.188091808117399
40
0.196613943148128
40
0.205136078178856
40
0.213658213209585
40
0.222180348240314
40
0.239224618301771
40
0.2477467533325
40
0.256268888363229
40
0.264791023393957
40
0.273313158424686
40
0.281835293455415
40
0.290357428486143
40
0.298879563516872
40
0.307401698547601
40
0.315923833578329
40
0.324445968609058
40
0.332968103639787
40
0.341490238670516
40
0.350012373701244
40
0.358534508731973
40
0.37557877879343
40
0.384100913824159
40
0.392623048854888
40
0.396884116370252
40
0.401145183885617
40
0.409667318916345
40
0.426711588977803
40
0.435233724008531
40
0.44375585903926
40
0.452277994069989
40
0.460800129100717
40
0.477844399162175
40
0.486366534192904
40
0.494888669223632
40
0.499149736738997
40
0.503410804254361
40
0.51193293928509
40
0.528977209346547
40
0.537499344377276
40
0.546021479408004
40
0.554543614438733
40
0.563065749469462
40
0.580110019530919
40
0.588632154561648
40
0.597154289592377
40
0.601415357107741
40
0.605676424623105
40
0.614198559653834
40
0.622720694684563
40
0.631242829715292
40
0.635503897230656
40
0.63976496474602
40
0.648287099776749
40
0.656809234807478
40
0.665331369838206
40
0.673853504868935
40
0.682375639899664
40
0.690897774930393
40
0.699419909961121
40
0.70794204499185
40
0.716464180022579
40
0.724986315053307
40
0.733508450084036
40
0.742030585114765
40
0.750552720145493
40
0.759074855176222
40
0.767596990206951
40
0.784641260268408
40
0.793163395299137
40
0.801685530329866
40
0.810207665360594
40
0.818729800391323
40
0.827251935422052
40
0.835774070452781
40
0.844296205483509
40
0.852818340514238
40
0.869862610575695
40
0.886906880637153
40
0.90395115069861
40
0.912473285729339
40
0.920995420760067
40
0.929517555790796
40
0.938039690821525
40
0.946561825852254
40
0.955083960882982
40
0.963606095913711
40
0.97212823094444
40
0.980650365975168
40
0.989172501005897
40
0.997694636036626
40
1
40
1
40
1
40
1
41
1
10
-0.394976888875306
20
21.8652879159784
30
0
41
1
10
-0.394976888875306
20
21.8653068616644
30
0
41
1
10
-0.394976888875306
20
21.8655508458955
30
0
41
1
10
-0.394976888875277
20
21.8648015036862
30
0
41
1
10
-0.394976888875277
20
21.8604737650697
30
0
41
1
10
-0.394976888875277
20
21.8529598769268
30
0
41
1
10
-0.394976888875277
20
21.8423149188875
30
0
41
1
10
-0.394976888875277
20
21.8285907137819
30
0
41
1
10
-0.394976888875277
20
21.8118377229246
30
0
41
1
10
-0.394976888875277
20
21.7921034347989
30
0
41
1
10
-0.394976888875277
20
21.7618666429643
30
0
41
1
10
-0.394976888875277
20
21.7168668922192
30
0
41
1
10
-0.394976888875277
20
21.651618462036
30
0
41
1
10
-0.394976888875277
20
21.5881524120742
30
0
41
1
10
-0.394976888875277
20
21.5320229149808
30
0
41
1
10
-0.394976888875277
20
21.4873092663299
30
0
41
1
10
-0.394976888875277
20
21.4399968711307
30
0
41
1
10
-0.394976888875277
20
21.3734709387681
30
0
41
1
10
-0.394976888875277
20
21.3019320664004
30
0
41
1
10
-0.394976888875277
20
21.2253664719936
30
0
41
1
10
-0.394976888875277
20
21.1655031445011
30
0
41
1
10
-0.394976888875277
20
21.1032108723211
30
0
41
1
10
-0.394976888875277
20
21.038514297088
30
0
41
1
10
-0.394976888875277
20
20.9714364994015
30
0
41
1
10
-0.394976888875277
20
20.8788308563806
30
0
41
1
10
-0.394976888875277
20
20.7816354627076
30
0
41
1
10
-0.394976888875277
20
20.6797749496461
30
0
41
1
10
-0.394976888875277
20
20.6011280536546
30
0
41
1
10
-0.394976888875277
20
20.5202292190253
30
0
41
1
10
-0.394976888875277
20
20.4370981008412
30
0
41
1
10
-0.394976888875277
20
20.3517517634561
30
0
41
1
10
-0.394976888875277
20
20.2642094206366
30
0
41
1
10
-0.394976888875277
20
20.1744885542463
30
0
41
1
10
-0.394976888875277
20
20.082604770276
30
0
41
1
10
-0.394976888875277
20
19.9885758834751
30
0
41
1
10
-0.394976888875277
20
19.8924175863555
30
0
41
1
10
-0.394976888875277
20
19.79414426657
30
0
41
1
10
-0.394976888875277
20
19.6937723311917
30
0
41
1
10
-0.394976888875277
20
19.5913158900225
30
0
41
1
10
-0.394976888875277
20
19.4519091739392
30
0
41
1
10
-0.394976888875277
20
19.308501644014
30
0
41
1
10
-0.394976888875277
20
19.160920630363
30
0
41
1
10
-0.394976888875277
20
19.0670441229991
30
0
41
1
10
-0.394976888875277
20
18.9909051568102
30
0
41
1
10
-0.394976888875277
20
18.9140993494365
30
0
41
1
10
-0.394976888875277
20
18.777958735224
30
0
41
1
10
-0.394976888875277
20
18.6185131846482
30
0
41
1
10
-0.394976888875277
20
18.4550236113311
30
0
41
1
10
-0.394976888875277
20
18.330489335967
30
0
41
1
10
-0.394976888875277
20
18.2040166079408
30
0
41
1
10
-0.394976888875277
20
18.0327705937831
30
0
41
1
10
-0.394976888875277
20
17.8578219077773
30
0
41
1
10
-0.394976888875277
20
17.6789387292296
30
0
41
1
10
-0.394976888875277
20
17.5656125946474
30
0
41
1
10
-0.394976888875277
20
17.4739690253912
30
0
41
1
10
-0.394976888875277
20
17.3816993239948
30
0
41
1
10
-0.394976888875277
20
17.2186048360495
30
0
41
1
10
-0.394976888875277
20
17.0286078387926
30
0
41
1
10
-0.394976888875277
20
16.8347647509306
30
0
41
1
10
-0.394976888875277
20
16.6875786248762
30
0
41
1
10
-0.394976888875277
20
16.5385587049942
30
0
41
1
10
-0.394976888875277
20
16.3373774066279
30
0
41
1
10
-0.394976888875277
20
16.1327150774874
30
0
41
1
10
-0.394976888875277
20
15.9242804112408
30
0
41
1
10
-0.394976888875277
20
15.7925696820839
30
0
41
1
10
-0.394976888875277
20
15.6862549949744
30
0
41
1
10
-0.394976888875277
20
15.5793432837569
30
0
41
1
10
-0.394976888875277
20
15.4446487492657
30
0
41
1
10
-0.394976888875277
20
15.2812010193763
30
0
41
1
10
-0.394976888875277
20
15.1435436982815
30
0
41
1
10
-0.394976888875277
20
15.0324801920763
30
0
41
1
10
-0.394976888875277
20
14.9208273816877
30
0
41
1
10
-0.394976888875277
20
14.7802248596231
30
0
41
1
10
-0.394976888875277
20
14.6097059483473
30
0
41
1
10
-0.394976888875277
20
14.4374320816019
30
0
41
1
10
-0.394976888875277
20
14.2634095816694
30
0
41
1
10
-0.394976888875277
20
14.0876420714538
30
0
41
1
10
-0.394976888875277
20
13.9101338497815
30
0
41
1
10
-0.394976888875277
20
13.7308904366346
30
0
41
1
10
-0.394976888875277
20
13.549915145406
30
0
41
1
10
-0.394976888875277
20
13.3672125481811
30
0
41
1
10
-0.394976888875277
20
13.182787463215
30
0
41
1
10
-0.394976888875277
20
12.9966426140257
30
0
41
1
10
-0.394976888875277
20
12.8087826212334
30
0
41
1
10
-0.394976888875277
20
12.6192114742801
30
0
41
1
10
-0.394976888875277
20
12.4279318017785
30
0
41
1
10
-0.394976888875277
20
12.1705475891153
30
0
41
1
10
-0.394976888875277
20
11.9099848332047
30
0
41
1
10
-0.394976888875277
20
11.6458042855523
30
0
41
1
10
-0.394976888875277
20
11.4460361066677
30
0
41
1
10
-0.394976888875277
20
11.2445799083311
30
0
41
1
10
-0.394976888875277
20
11.0414389105764
30
0
41
1
10
-0.394976888875277
20
10.8366153761928
30
0
41
1
10
-0.394976888875277
20
10.630113157504
30
0
41
1
10
-0.394976888875277
20
10.4219344610486
30
0
41
1
10
-0.394976888875277
20
10.1420454829465
30
0
41
1
10
-0.394976888875277
20
9.78821091215369
30
0
41
1
10
-0.394976888875277
20
9.3568391135907
30
0
41
1
10
-0.394976888875277
20
8.99192950801697
30
0
41
1
10
-0.394976888875277
20
8.69651812098675
30
0
41
1
10
-0.394976888875277
20
8.47338949471808
30
0
41
1
10
-0.394976888875277
20
8.24861627222975
30
0
41
1
10
-0.394976888875277
20
8.0222029406992
30
0
41
1
10
-0.394976888875277
20
7.79415362199521
30
0
41
1
10
-0.394976888875277
20
7.56447255210352
30
0
41
1
10
-0.394976888875277
20
7.33316516004027
30
0
41
1
10
-0.394976888875277
20
7.10023725398264
30
0
41
1
10
-0.394976888875277
20
6.86569504295815
30
0
41
1
10
-0.394976888875277
20
6.62954558311137
30
0
41
1
10
-0.394976888875277
20
6.44960786563362
30
0
41
1
10
-0.394976888875277
20
6.34849183540922
30
0
41
1
10
-0.394976888875277
20
6.32694309067119
30
0
0
SPLINE
5
29C
100
AcDbEntity
8
SK1
62
256
6
ByLayer
370
-1
48
1
60
0
100
AcDbSpline
70
4
71
3
72
26
73
22
40
0
40
0
40
0
40
0
40
0.462420532187944
40
0.462420532187944
40
0.662465761698283
40
0.662465761698283
40
0.830433309169693
40
0.830433309169693
40
0.87601894963741
40
0.87601894963741
40
0.905535493032455
40
0.905535493032455
40
0.92577818311669
40
0.92577818311669
40
0.946307111163799
40
0.946307111163799
40
0.963675313617857
40
0.963675313617857
40
0.991859972782862
40
0.991859972782862
40
1
40
1
40
1
40
1
41
1
10
-0.199999999999989
20
-7.05951749342083
30
0
41
1
10
-0.199999999999989
20
-6.93273416480454
30
0
41
1
10
-0.203968014086513
20
-6.80463429773329
30
0
41
1
10
-0.223222206303944
20
-6.62063667774228
30
0
41
1
10
-0.230822389897867
20
-6.56482953243432
30
0
41
1
10
-0.252035566714568
20
-6.46316921019911
30
0
41
1
10
-0.263798801619998
20
-6.41617607028249
30
0
41
1
10
-0.290531391619595
20
-6.36108887379029
30
0
41
1
10
-0.29710300077241
20
-6.34947181616241
30
0
41
1
10
-0.310313928765424
20
-6.33213067856883
30
0
41
1
10
-0.316208846631128
20
-6.32567949173321
30
0
41
1
10
-0.327595492701022
20
-6.31681373578161
30
0
41
1
10
-0.332739264568545
20
-6.31372817209197
30
0
41
1
10
-0.343644708736434
20
-6.30958040401461
30
0
41
1
10
-0.349575964479982
20
-6.30853210514005
30
0
41
1
10
-0.360183897281416
20
-6.30881607347521
30
0
41
1
10
-0.365032052617437
20
-6.30978620719449
30
0
41
1
10
-0.376922909163994
20
-6.31387292952667
30
0
41
1
10
-0.383695246431131
20
-6.3179475897727
30
0
41
1
10
-0.39156461480826
20
-6.32402624429125
30
0
41
1
10
-0.393293161608796
20
-6.32546009510432
30
0
41
1
10
-0.394976888875277
20
-6.32694279392757
30
0
0
SPLINE
5
29D
100
AcDbEntity
8
SK1
62
256
6
ByLayer
370
-1
48
1
60
0
100
AcDbSpline
70
4
71
3
72
10
73
6
40
0
40
0
40
0
40
0
40
0.5
40
0.5
40
1
40
1
40
1
40
1
41
1
10
-1.30710678118655
20
4.81101329740289
30
0
41
1
10
-1.57713284158248
20
3.28321078789992
30
0
41
1
10
-1.79449339715802
20
1.64680798700616
30
0
41
1
10
-1.7943854551184
20
-1.6481258022005
30
0
41
1
10
-1.57704898370505
20
-3.28368386467716
30
0
41
1
10
-1.30710678118663
20
-4.81101321788435
30
0
0
LINE
5
47
100
AcDbEntity
8
4
62
256
6
ByLayer
370
-1
48
0.05
60
0
100
AcDbLine
10
0
20
0
30
0
11
65
21
0
31
0
39
0
210
0
220
0
230
1
0
LINE
5
49
100
AcDbEntity
8
SK4
62
256
6
ByLayer
370
-1
48
0.05
60
0
100
AcDbLine
10
-43
20
0
30
0
11
70
21
0
31
0
39
0
210
0
220
0
230
1
0
LINE
5
4B
100
AcDbEntity
8
80
62
256
6
ByLayer
370
-1
48
1
60
0
100
AcDbLine
10
0
20
0
30
0
11
-5
21
0
31
0
39
0
210
0
220
0
230
1
0
LINE
5
4C
100
AcDbEntity
8
81
62
256
6
ByLayer
370
-1
48
1
60
0
100
AcDbLine
10
65
20
45
30
0
11
70
21
45
31
0
39
0
210
0
220
0
230
1
0
LINE
5
4D
100
AcDbEntity
8
1
62
256
6
ByLayer
370
-1
48
1
60
0
100
AcDbLine
10
53.605903
20
28.289543
30
0
11
54.325125
21
28.360087
31
0
39
0
210
0
220
0
230
1
0
LINE
5
4F
100
AcDbEntity
8
1
62
256
6
ByLayer
370
-1
48
1
60
0
100
AcDbLine
10
58.185399
20
32.08714
30
0
11
58.906155
21
32.157834
31
0
39
0
210
0
220
0
230
1
0
LINE
5
50
100
AcDbEntity
8
1
62
256
6
ByLayer
370
-1
48
1
60
0
100
AcDbLine
10
0.3
20
31.5
30
0
11
0
21
31.2
31
0
39
0
210
0
220
0
230
1
0
LINE
5
51
100
AcDbEntity
8
1
62
256
6
ByLayer
370
-1
48
1
60
0
100
AcDbLine
10
0
20
-31.2
30
0
11
0.3
21
-31.5
31
0
39
0
210
0
220
0
230
1
0
LINE
5
52
100
AcDbEntity
8
1
62
256
6
ByLayer
370
-1
48
1
60
0
100
AcDbLine
10
0.3
20
-31.5
30
0
11
22.013738
21
-31.5
31
0
39
0
210
0
220
0
230
1
0
LINE
5
53
100
AcDbEntity
8
1
62
256
6
ByLayer
370
-1
48
1
60
0
100
AcDbLine
10
22.920792
20
31.5
30
0
11
0.3
21
31.5
31
0
39
0
210
0
220
0
230
1
0
LINE
5
54
100
AcDbEntity
8
1
62
256
6
ByLayer
370
-1
48
1
60
0
100
AcDbLine
10
26.321337
20
44.191006
30
0
11
22.920792
21
31.5
31
0
39
0
210
0
220
0
230
1
0
LINE
5
55
100
AcDbEntity
8
1
62
256
6
ByLayer
370
-1
48
1
60
0
100
AcDbLine
10
21.652425
20
4.924861
30
0
11
18.850027
21
4.173961
31
0
39
0
210
0
220
0
230
1
0
LINE
5
56
100
AcDbEntity
8
1
62
256
6
ByLayer
370
-1
48
1
60
0
100
AcDbLine
10
19.885303
20
0.310257
30
0
11
22.687701
21
1.061158
31
0
39
0
210
0
220
0
230
1
0
LINE
5
57
100
AcDbEntity
8
1
62
256
6
ByLayer
370
-1
48
1
60
0
100
AcDbLine
10
22.687701
20
1.061158
30
0
11
22.829122
21
1.306107
31
0
39
0
210
0
220
0
230
1
0
LINE
5
58
100
AcDbEntity
8
1
62
256
6
ByLayer
370
-1
48
1
60
0
100
AcDbLine
10
21.897374
20
4.78344
30
0
11
21.652425
21
4.924861
31
0
39
0
210
0
220
0
230
1
0
LINE
5
59
100
AcDbEntity
8
1
62
256
6
ByLayer
370
-1
48
1
60
0
100
AcDbLine
10
18.850027
20
4.173961
30
0
11
18.73002
21
4.053954
31
0
39
0
210
0
220
0
230
1
0
LINE
5
5A
100
AcDbEntity
8
1
62
256
6
ByLayer
370
-1
48
1
60
0
100
AcDbLine
10
19.370452
20
0.448211
30
0
11
19.885303
21
0.310257
31
0
39
0
210
0
220
0
230
1
0
LINE
5
5B
100
AcDbEntity
8
1
62
256
6
ByLayer
370
-1
48
1
60
0
100
AcDbLine
10
54.372535
20
35.076779
30
0
11
54.498456
21
35.089244
31
0
39
0
210
0
220
0
230
1
0
LINE
5
5C
100
AcDbEntity
8
1
62
256
6
ByLayer
370
-1
48
1
60
0
100
AcDbLine
10
53.794102
20
42.204466
30
0
11
53.668181
21
42.192001
31
0
39
0
210
0
220
0
230
1
0
LINE
5
5D
100
AcDbEntity
8
1
62
256
6
ByLayer
370
-1
48
1
60
0
100
AcDbLine
10
44.351817
20
44.730453
30
0
11
44.351843
21
44.775206
31
0
39
0
210
0
220
0
230
1
0
LINE
5
5E
100
AcDbEntity
8
1
62
256
6
ByLayer
370
-1
48
1
60
0
100
AcDbLine
10
46.532694
20
44.858828
30
0
11
45.568778
21
44.763408
31
0
39
0
210
0
220
0
230
1
0
LINE
5
5F
100
AcDbEntity
8
1
62
256
6
ByLayer
370
-1
48
1
60
0
100
AcDbLine
10
52.28378
20
28.497914
30
0
11
53.246152
21
28.593181
31
0
39
0
210
0
220
0
230
1
0
LINE
5
60
100
AcDbEntity
8
1
62
256
6
ByLayer
370
-1
48
1
60
0
100
AcDbLine
10
50.690015
20
31.620351
30
0
11
51.594217
21
31.70986
31
0
39
0
210
0
220
0
230
1
0
LINE
5
61
100
AcDbEntity
8
1
62
256
6
ByLayer
370
-1
48
1
60
0
100
AcDbLine
10
0.3
20
-31.5
30
0
11
0.3
21
31.5
31
0
39
0
210
0
220
0
230
1
0
LINE
5
62
100
AcDbEntity
8
1
62
256
6
ByLayer
370
-1
48
1
60
0
100
AcDbLine
10
43.248186
20
44.300309
30
0
11
51.232503
21
30.33186
31
0
39
0
210
0
220
0
230
1
0
LINE
5
63
100
AcDbEntity
8
1
62
256
6
ByLayer
370
-1
48
1
60
0
100
AcDbLine
10
13.461325
20
-9.349221
30
0
11
10.538675
21
-9.349221
31
0
39
0
210
0
220
0
230
1
0
LINE
5
64
100
AcDbEntity
8
1
62
256
6
ByLayer
370
-1
48
1
60
0
100
AcDbLine
10
58.389245
20
32.10714
30
0
11
58.389731
21
31.942917
31
0
39
0
210
0
220
0
230
1
0
LINE
5
65
100
AcDbEntity
8
1
62
256
6
ByLayer
370
-1
48
1
60
0
100
AcDbLine
10
45.947609
20
39.953661
30
0
11
50.008144
21
32.850093
31
0
39
0
210
0
220
0
230
1
0
LINE
5
66
100
AcDbEntity
8
1
62
256
6
ByLayer
370
-1
48
1
60
0
100
AcDbLine
10
23.896286
20
-28.7576
30
0
11
34.881656
21
-12.754671
31
0
39
0
210
0
220
0
230
1
0
LINE
5
67
100
AcDbEntity
8
1
62
256
6
ByLayer
370
-1
48
1
60
0
100
AcDbLine
10
60.142574
20
24.044154
30
0
11
34.881656
21
-12.754671
31
0
39
0
210
0
220
0
230
1
0
LINE
5
68
100
AcDbEntity
8
1
62
256
6
ByLayer
370
-1
48
1
60
0
100
AcDbLine
10
50.478825
20
31.856281
30
0
11
51.238991
21
30.526434
31
0
39
0
210
0
220
0
230
1
0
LINE
5
69
100
AcDbEntity
8
1
62
256
6
ByLayer
370
-1
48
1
60
0
100
AcDbLine
10
58.10873
20
31.772976
30
0
11
55.844233
21
27.769881
31
0
39
0
210
0
220
0
230
1
0
LINE
5
6A
100
AcDbEntity
8
1
62
256
6
ByLayer
370
-1
48
1
60
0
100
AcDbLine
10
10.538675
20
9.349221
30
0
11
13.461325
21
9.349221
31
0
39
0
210
0
220
0
230
1
0
LINE
5
6B
100
AcDbEntity
8
1
62
256
6
ByLayer
370
-1
48
1
60
0
100
AcDbLine
10
13.894338
20
9.869413
30
0
11
13.894338
21
29.913955
31
0
39
0
210
0
220
0
230
1
0
LINE
5
6C
100
AcDbEntity
8
1
62
256
6
ByLayer
370
-1
48
1
60
0
100
AcDbLine
10
19.662285
20
0.369996
30
0
11
19.662285
21
-5.282163
31
0
39
0
210
0
220
0
230
1
0
LINE
5
6D
100
AcDbEntity
8
1
62
256
6
ByLayer
370
-1
48
1
60
0
100
AcDbLine
10
23.896286
20
34.624573
30
0
11
23.896286
21
-28.7576
31
0
39
0
210
0
220
0
230
1
0
LINE
5
6E
100
AcDbEntity
8
1
62
256
6
ByLayer
370
-1
48
1
60
0
100
AcDbLine
10
57.514936
20
31.942802
30
0
11
59.020165
21
31.942802
31
0
39
0
210
0
220
0
230
1
0
LINE
5
6F
100
AcDbEntity
8
1
62
256
6
ByLayer
370
-1
48
1
60
0
100
AcDbLine
10
13.461325
20
30.080593
30
0
11
10.538675
21
30.080593
31
0
39
0
210
0
220
0
230
1
0
LINE
5
70
100
AcDbEntity
8
1
62
256
6
ByLayer
370
-1
48
1
60
0
100
AcDbLine
10
60.119504
20
31.772976
30
0
11
58.10873
21
31.772976
31
0
39
0
210
0
220
0
230
1
0
LINE
5
71
100
AcDbEntity
8
1
62
256
6
ByLayer
370
-1
48
1
60
0
100
AcDbLine
10
10.105662
20
9.869413
30
0
11
10.105662
21
29.913955
31
0
39
0
210
0
220
0
230
1
0
LINE
5
72
100
AcDbEntity
8
1
62
256
6
ByLayer
370
-1
48
1
60
0
100
AcDbLine
10
13.461325
20
9.349221
30
0
11
13.461325
21
30.080593
31
0
39
0
210
0
220
0
230
1
0
LINE
5
73
100
AcDbEntity
8
1
62
256
6
ByLayer
370
-1
48
1
60
0
100
AcDbLine
10
19.911507
20
29.985012
30
0
11
19.911507
21
4.457459
31
0
39
0
210
0
220
0
230
1
0
LINE
5
74
100
AcDbEntity
8
1
62
256
6
ByLayer
370
-1
48
1
60
0
100
AcDbLine
10
19.911507
20
0.316717
30
0
11
19.911507
21
-29.985012
31
0
39
0
210
0
220
0
230
1
0
LINE
5
75
100
AcDbEntity
8
1
62
256
6
ByLayer
370
-1
48
1
60
0
100
AcDbLine
10
18.699909
20
-1.69053
30
0
11
18.699909
21
2.063184
31
0
39
0
210
0
220
0
230
1
0
LINE
5
76
100
AcDbEntity
8
1
62
256
6
ByLayer
370
-1
48
1
60
0
100
AcDbLine
10
0
20
-31.2
30
0
11
0
21
31.2
31
0
39
0
210
0
220
0
230
1
0
LINE
5
77
100
AcDbEntity
8
1
62
256
6
ByLayer
370
-1
48
1
60
0
100
AcDbLine
10
10.538675
20
9.349221
30
0
11
10.538675
21
30.080593
31
0
39
0
210
0
220
0
230
1
0
LINE
5
78
100
AcDbEntity
8
1
62
256
6
ByLayer
370
-1
48
1
60
0
100
AcDbLine
10
26.456802
20
44.29202
30
0
11
29.233635
21
44.300309
31
0
39
0
210
0
220
0
230
1
0
LINE
5
79
100
AcDbEntity
8
1
62
256
6
ByLayer
370
-1
48
1
60
0
100
AcDbLine
10
43.248186
20
44.300309
30
0
11
43.373663
21
44.286171
31
0
39
0
210
0
220
0
230
1
0
LINE
5
7A
100
AcDbEntity
8
1
62
256
6
ByLayer
370
-1
48
1
60
0
100
AcDbLine
10
57.186798
20
31.362651
30
0
11
58.10873
21
31.772976
31
0
39
0
210
0
220
0
230
1
0
LINE
5
7B
100
AcDbEntity
8
1
62
256
6
ByLayer
370
-1
48
1
60
0
100
AcDbLine
10
10.538675
20
-30.080593
30
0
11
10.538675
21
-9.349221
31
0
39
0
210
0
220
0
230
1
0
LINE
5
7C
100
AcDbEntity
8
1
62
256
6
ByLayer
370
-1
48
1
60
0
100
AcDbLine
10
18.699909
20
-1.69053
30
0
11
19.662285
21
-5.282163
31
0
39
0
210
0
220
0
230
1
0
LINE
5
7D
100
AcDbEntity
8
1
62
256
6
ByLayer
370
-1
48
1
60
0
100
AcDbLine
10
22.920792
20
31.5
30
0
11
22.920792
21
30.899614
31
0
39
0
210
0
220
0
230
1
0
LINE
5
7E
100
AcDbEntity
8
1
62
256
6
ByLayer
370
-1
48
1
60
0
100
AcDbLine
10
59.020668
20
31.772968
30
0
11
59.020165
21
31.942802
31
0
39
0
210
0
220
0
230
1
0
LINE
5
7F
100
AcDbEntity
8
1
62
256
6
ByLayer
370
-1
48
1
60
0
100
AcDbLine
10
13.894338
20
-29.913955
30
0
11
13.894338
21
-9.869413
31
0
39
0
210
0
220
0
230
1
0
LINE
5
80
100
AcDbEntity
8
1
62
256
6
ByLayer
370
-1
48
1
60
0
100
AcDbLine
10
51.232503
20
30.33186
30
0
11
51.190214
21
30.288793
31
0
39
0
210
0
220
0
230
1
0
LINE
5
81
100
AcDbEntity
8
1
62
256
6
ByLayer
370
-1
48
1
60
0
100
AcDbLine
10
51.232503
20
30.33186
30
0
11
51.238991
21
30.526434
31
0
39
0
210
0
220
0
230
1
0
LINE
5
82
100
AcDbEntity
8
1
62
256
6
ByLayer
370
-1
48
1
60
0
100
AcDbLine
10
10.105662
20
-29.913955
30
0
11
10.105662
21
-9.869413
31
0
39
0
210
0
220
0
230
1
0
LINE
5
83
100
AcDbEntity
8
1
62
256
6
ByLayer
370
-1
48
1
60
0
100
AcDbLine
10
23.896286
20
-28.7576
30
0
11
22.446694
21
-30.869292
31
0
39
0
210
0
220
0
230
1
0
LINE
5
84
100
AcDbEntity
8
1
62
256
6
ByLayer
370
-1
48
1
60
0
100
AcDbLine
10
34.881656
20
-12.754671
30
0
11
29.233635
21
44.300309
31
0
39
0
210
0
220
0
230
1
0
LINE
5
85
100
AcDbEntity
8
1
62
256
6
ByLayer
370
-1
48
1
60
0
100
AcDbLine
10
13.461325
20
-30.080593
30
0
11
13.461325
21
-9.349221
31
0
39
0
210
0
220
0
230
1
0
LINE
5
86
100
AcDbEntity
8
1
62
256
6
ByLayer
370
-1
48
1
60
0
100
AcDbLine
10
54.640396
20
26.865176
30
0
11
56.768044
21
30.626238
31
0
39
0
210
0
220
0
230
1
0
LINE
5
87
100
AcDbEntity
8
1
62
256
6
ByLayer
370
-1
48
1
60
0
100
AcDbLine
10
10.538675
20
-30.080593
30
0
11
13.461325
21
-30.080593
31
0
39
0
210
0
220
0
230
1
0
LINE
5
88
100
AcDbEntity
8
1
62
256
6
ByLayer
370
-1
48
1
60
0
100
AcDbLine
10
60.119504
20
31.772976
30
0
11
60.142574
21
24.044154
31
0
39
0
210
0
220
0
230
1
0
LINE
5
89
100
AcDbEntity
8
1
62
256
6
ByLayer
370
-1
48
1
60
0
100
AcDbLine
10
29.233635
20
44.300309
30
0
11
43.248186
21
44.300309
31
0
39
0
210
0
220
0
230
1
0
LINE
5
8A
100
AcDbEntity
8
1
62
256
6
ByLayer
370
-1
48
1
60
0
100
AcDbLine
10
45.380687
20
40.775049
30
0
11
43.373663
21
44.286171
31
0
39
0
210
0
220
0
230
1
0
LINE
5
8B
100
AcDbEntity
8
1
62
256
6
ByLayer
370
-1
48
1
60
0
100
AcDbLine
10
22.446694
20
-30.869292
30
0
11
22.013738
21
-31.5
31
0
39
0
210
0
220
0
230
1
0
LINE
5
8C
100
AcDbEntity
8
1
62
256
6
ByLayer
370
-1
48
1
60
0
100
AcDbLine
10
22.363248
20
3.044773
30
0
11
22.829122
21
1.306107
31
0
39
0
210
0
220
0
230
1
0
LINE
5
8D
100
AcDbEntity
8
1
62
256
6
ByLayer
370
-1
48
1
60
0
100
AcDbLine
10
21.897374
20
4.78344
30
0
11
22.363248
21
3.044773
31
0
39
0
210
0
220
0
230
1
0
LINE
5
8E
100
AcDbEntity
8
1
62
256
6
ByLayer
370
-1
48
1
60
0
100
AcDbLine
10
21.652425
20
4.924861
30
0
11
22.687701
21
1.061158
31
0
39
0
210
0
220
0
230
1
0
LINE
5
8F
100
AcDbEntity
8
1
62
256
6
ByLayer
370
-1
48
1
60
0
100
AcDbLine
10
19.370452
20
0.448211
30
0
11
18.705531
21
2.929731
31
0
39
0
210
0
220
0
230
1
0
LINE
5
90
100
AcDbEntity
8
1
62
256
6
ByLayer
370
-1
48
1
60
0
100
AcDbLine
10
19.367665
20
2.242109
30
0
11
19.885303
21
0.310257
31
0
39
0
210
0
220
0
230
1
0
LINE
5
91
100
AcDbEntity
8
1
62
256
6
ByLayer
370
-1
48
1
60
0
100
AcDbLine
10
18.850027
20
4.173961
30
0
11
19.367665
21
2.242109
31
0
39
0
210
0
220
0
230
1
0
LINE
5
92
100
AcDbEntity
8
1
62
256
6
ByLayer
370
-1
48
1
60
0
100
AcDbLine
10
19.061496
20
0.260035
30
0
11
18.699914
21
1.60948
31
0
39
0
210
0
220
0
230
1
0
LINE
5
93
100
AcDbEntity
8
1
62
256
6
ByLayer
370
-1
48
1
60
0
100
AcDbLine
10
59.540602
20
34.307045
30
0
11
58.900289
21
34.307045
31
0
39
0
210
0
220
0
230
1
0
LINE
5
94
100
AcDbEntity
8
1
62
256
6
ByLayer
370
-1
48
1
60
0
100
AcDbLine
10
59.507936
20
33.861865
30
0
11
58.648434
21
33.861865
31
0
39
0
210
0
220
0
230
1
0
LINE
5
95
100
AcDbEntity
8
1
62
256
6
ByLayer
370
-1
48
1
60
0
100
AcDbLine
10
59.436714
20
33.537457
30
0
11
58.472285
21
33.537457
31
0
39
0
210
0
220
0
230
1
0
LINE
5
96
100
AcDbEntity
8
1
62
256
6
ByLayer
370
-1
48
1
60
0
100
AcDbLine
10
59.43736
20
33.284467
30
0
11
58.302505
21
33.284467
31
0
39
0
210
0
220
0
230
1
0
LINE
5
97
100
AcDbEntity
8
1
62
256
6
ByLayer
370
-1
48
1
60
0
100
AcDbLine
10
58.84936
20
32.155055
30
0
11
58.128605
21
32.084361
31
0
39
0
210
0
220
0
230
1
0
LINE
5
98
100
AcDbEntity
8
1
62
256
6
ByLayer
370
-1
48
1
60
0
100
AcDbLine
10
57.595008
20
32.084361
30
0
11
58.128605
21
32.084361
31
0
39
0
210
0
220
0
230
1
0
LINE
5
99
100
AcDbEntity
8
1
62
256
6
ByLayer
370
-1
48
1
60
0
100
AcDbLine
10
51.38928
20
28.284912
30
0
11
53.511245
21
28.284912
31
0
39
0
210
0
220
0
230
1
0
LINE
5
9A
100
AcDbEntity
8
1
62
256
6
ByLayer
370
-1
48
1
60
0
100
AcDbLine
10
44.478186
20
42.353981
30
0
11
45.058065
21
42.353981
31
0
39
0
210
0
220
0
230
1
0
LINE
5
9B
100
AcDbEntity
8
1
62
256
6
ByLayer
370
-1
48
1
60
0
100
AcDbLine
10
58.84936
20
32.155055
30
0
11
57.634999
21
32.155055
31
0
39
0
210
0
220
0
230
1
0
LINE
5
9C
100
AcDbEntity
8
1
62
256
6
ByLayer
370
-1
48
1
60
0
100
AcDbLine
10
59.43254
20
35.17219
30
0
11
59.404891
21
35.17219
31
0
39
0
210
0
220
0
230
1
0
LINE
5
9D
100
AcDbEntity
8
1
62
256
6
ByLayer
370
-1
48
1
60
0
100
AcDbLine
10
59.505387
20
34.859982
30
0
11
59.247502
21
34.859982
31
0
39
0
210
0
220
0
230
1
0
LINE
5
9E
100
AcDbEntity
8
1
62
256
6
ByLayer
370
-1
48
1
60
0
100
AcDbLine
10
59.540602
20
34.307045
30
0
11
59.540313
21
34.420525
31
0
39
0
210
0
220
0
230
1
0
LINE
5
9F
100
AcDbEntity
8
1
62
256
6
ByLayer
370
-1
48
1
60
0
100
AcDbLine
10
55.211822
20
29.707063
30
0
11
55.21272
21
29.355351
31
0
39
0
210
0
220
0
230
1
0
LINE
5
A0
100
AcDbEntity
8
1
62
256
6
ByLayer
370
-1
48
1
60
0
100
AcDbLine
10
59.540313
20
34.420525
30
0
11
58.964526
21
34.420525
31
0
39
0
210
0
220
0
230
1
0
LINE
5
A1
100
AcDbEntity
8
1
62
256
6
ByLayer
370
-1
48
1
60
0
100
AcDbLine
10
50.701838
20
28.884287
30
0
11
50.62313
21
29.021981
31
0
39
0
210
0
220
0
230
1
0
LINE
5
A2
100
AcDbEntity
8
1
62
256
6
ByLayer
370
-1
48
1
60
0
100
AcDbLine
10
51.967408
20
28.365767
30
0
11
50.999284
21
30.061028
31
0
39
0
210
0
220
0
230
1
0
LINE
5
A3
100
AcDbEntity
8
1
62
256
6
ByLayer
370
-1
48
1
60
0
100
AcDbLine
10
50.90973
20
28.527519
30
0
11
51.002557
21
28.365127
31
0
39
0
210
0
220
0
230
1
0
LINE
5
A4
100
AcDbEntity
8
1
62
256
6
ByLayer
370
-1
48
1
60
0
100
AcDbLine
10
54.230465
20
28.355456
30
0
11
52.108499
21
28.355456
31
0
39
0
210
0
220
0
230
1
0
LINE
5
A5
100
AcDbEntity
8
1
62
256
6
ByLayer
370
-1
48
1
60
0
100
AcDbLine
10
59.43736
20
33.284467
30
0
11
59.438712
21
32.754992
31
0
39
0
210
0
220
0
230
1
0
LINE
5
A6
100
AcDbEntity
8
1
62
256
6
ByLayer
370
-1
48
1
60
0
100
AcDbLine
10
52.108499
20
28.355456
30
0
11
51.38928
21
28.284912
31
0
39
0
210
0
220
0
230
1
0
LINE
5
A7
100
AcDbEntity
8
1
62
256
6
ByLayer
370
-1
48
1
60
0
100
AcDbLine
10
54.230465
20
28.355456
30
0
11
53.511245
21
28.284912
31
0
39
0
210
0
220
0
230
1
0
LINE
5
A8
100
AcDbEntity
8
1
62
256
6
ByLayer
370
-1
48
1
60
0
100
AcDbLine
10
59.92018
20
44.780637
30
0
11
63.072356
21
42.97351
31
0
39
0
210
0
220
0
230
1
0
LINE
5
A9
100
AcDbEntity
8
1
62
256
6
ByLayer
370
-1
48
1
60
0
100
AcDbLine
10
61.00867
20
40.094042
30
0
11
61.26705
21
39.914296
31
0
39
0
210
0
220
0
230
1
0
LINE
5
AA
100
AcDbEntity
8
1
62
256
6
ByLayer
370
-1
48
1
60
0
100
AcDbLine
10
63.075185
20
42.025671
30
0
11
61.025175
21
40.834095
31
0
39
0
210
0
220
0
230
1
0
LINE
5
AB
100
AcDbEntity
8
1
62
256
6
ByLayer
370
-1
48
1
60
0
100
AcDbLine
10
60.900351
20
40.618083
30
0
11
60.901308
21
40.297442
31
0
39
0
210
0
220
0
230
1
0
LINE
5
AC
100
AcDbEntity
8
1
62
256
6
ByLayer
370
-1
48
1
60
0
100
AcDbLine
10
51.654722
20
31.381197
30
0
11
51.677081
21
29.037318
31
0
39
0
210
0
220
0
230
1
0
LINE
5
AD
100
AcDbEntity
8
1
62
256
6
ByLayer
370
-1
48
1
60
0
100
AcDbLine
10
51.926427
20
31.855751
30
0
11
51.655576
21
31.726906
31
0
39
0
210
0
220
0
230
1
0
LINE
5
AE
100
AcDbEntity
8
1
62
256
6
ByLayer
370
-1
48
1
60
0
100
AcDbLine
10
52.422763
20
31.684288
30
0
11
52.14878
21
31.844608
31
0
39
0
210
0
220
0
230
1
0
LINE
5
AF
100
AcDbEntity
8
1
62
256
6
ByLayer
370
-1
48
1
60
0
100
AcDbLine
10
51.934453
20
28.59051
30
0
11
51.977849
21
28.565118
31
0
39
0
210
0
220
0
230
1
0
LINE
5
B0
100
AcDbEntity
8
1
62
256
6
ByLayer
370
-1
48
1
60
0
100
AcDbLine
10
56.41972
20
30.423912
30
0
11
53.44447
21
28.658181
31
0
39
0
210
0
220
0
230
1
0
LINE
5
B1
100
AcDbEntity
8
1
62
256
6
ByLayer
370
-1
48
1
60
0
100
AcDbLine
10
48.521179
20
35.892633
30
0
11
48.591567
21
35.726025
31
0
39
0
210
0
220
0
230
1
0
LINE
5
B2
100
AcDbEntity
8
1
62
256
6
ByLayer
370
-1
48
1
60
0
100
AcDbLine
10
48.32313
20
36.219652
30
0
11
48.277476
21
36.280771
31
0
39
0
210
0
220
0
230
1
0
LINE
5
B3
100
AcDbEntity
8
1
62
256
6
ByLayer
370
-1
48
1
60
0
100
AcDbLine
10
47.146818
20
38.142068
30
0
11
45.910988
21
40.303939
31
0
39
0
210
0
220
0
230
1
0
LINE
5
B4
100
AcDbEntity
8
1
62
256
6
ByLayer
370
-1
48
1
60
0
100
AcDbLine
10
50.482567
20
44.994061
30
0
11
52.892849
21
44.990294
31
0
39
0
210
0
220
0
230
1
0
LINE
5
B5
100
AcDbEntity
8
1
62
256
6
ByLayer
370
-1
48
1
60
0
100
AcDbLine
10
47.720638
20
37.23234
30
0
11
48.166916
21
36.451653
31
0
39
0
210
0
220
0
230
1
0
LINE
5
B6
100
AcDbEntity
8
1
62
256
6
ByLayer
370
-1
48
1
60
0
100
AcDbLine
10
50.032573
20
40.939855
30
0
11
48.990058
21
38.937806
31
0
39
0
210
0
220
0
230
1
0
LINE
5
B7
100
AcDbEntity
8
1
62
256
6
ByLayer
370
-1
48
1
60
0
100
AcDbLine
10
53.790366
20
44.000497
30
0
11
51.859618
21
42.866766
31
0
39
0
210
0
220
0
230
1
0
LINE
5
B8
100
AcDbEntity
8
1
62
256
6
ByLayer
370
-1
48
1
60
0
100
AcDbLine
10
53.886574
20
43.243516
30
0
11
54.035974
21
43.85937
31
0
39
0
210
0
220
0
230
1
0
LINE
5
B9
100
AcDbEntity
8
1
62
256
6
ByLayer
370
-1
48
1
60
0
100
AcDbLine
10
49.141802
20
38.697684
30
0
11
49.742219
21
38.872633
31
0
39
0
210
0
220
0
230
1
0
LINE
5
BA
100
AcDbEntity
8
1
62
256
6
ByLayer
370
-1
48
1
60
0
100
AcDbLine
10
49.728648
20
38.934815
30
0
11
49.128231
21
38.759866
31
0
39
0
210
0
220
0
230
1
0
LINE
5
BB
100
AcDbEntity
8
1
62
256
6
ByLayer
370
-1
48
1
60
0
100
AcDbLine
10
53.978568
20
43.87532
30
0
11
53.829167
21
43.259466
31
0
39
0
210
0
220
0
230
1
0
LINE
5
BC
100
AcDbEntity
8
1
62
256
6
ByLayer
370
-1
48
1
60
0
100
AcDbLine
10
51.907569
20
42.796569
30
0
11
53.838317
21
43.930299
31
0
39
0
210
0
220
0
230
1
0
LINE
5
BD
100
AcDbEntity
8
1
62
256
6
ByLayer
370
-1
48
1
60
0
100
AcDbLine
10
49.068804
20
38.900088
30
0
11
50.11132
21
40.902137
31
0
39
0
210
0
220
0
230
1
0
LINE
5
BE
100
AcDbEntity
8
1
62
256
6
ByLayer
370
-1
48
1
60
0
100
AcDbLine
10
54.623335
20
44.997923
30
0
11
53.790366
21
44.000497
31
0
39
0
210
0
220
0
230
1
0
LINE
5
BF
100
AcDbEntity
8
1
62
256
6
ByLayer
370
-1
48
1
60
0
100
AcDbLine
10
54.035974
20
43.85937
30
0
11
54.985932
21
44.996882
31
0
39
0
210
0
220
0
230
1
0
LINE
5
C0
100
AcDbEntity
8
1
62
256
6
ByLayer
370
-1
48
1
60
0
100
AcDbLine
10
47.830756
20
37.462834
30
0
11
49.141802
21
38.697684
31
0
39
0
210
0
220
0
230
1
0
LINE
5
C1
100
AcDbEntity
8
1
62
256
6
ByLayer
370
-1
48
1
60
0
100
AcDbLine
10
48.990058
20
38.937806
30
0
11
47.641505
21
37.667629
31
0
39
0
210
0
220
0
230
1
0
LINE
5
C2
100
AcDbEntity
8
1
62
256
6
ByLayer
370
-1
48
1
60
0
100
AcDbLine
10
47.146818
20
38.142068
30
0
11
48.869516
21
41.450344
31
0
39
0
210
0
220
0
230
1
0
LINE
5
C3
100
AcDbEntity
8
1
62
256
6
ByLayer
370
-1
48
1
60
0
100
AcDbLine
10
45.911926
20
40.566616
30
0
11
49.991951
21
42.962397
31
0
39
0
210
0
220
0
230
1
0
LINE
5
C4
100
AcDbEntity
8
1
62
256
6
ByLayer
370
-1
48
1
60
0
100
AcDbLine
10
45.914443
20
40.717753
30
0
11
49.929463
21
43.075364
31
0
39
0
210
0
220
0
230
1
0
LINE
5
C5
100
AcDbEntity
8
1
62
256
6
ByLayer
370
-1
48
1
60
0
100
AcDbLine
10
50.032573
20
40.939855
30
0
11
49.460114
21
41.167457
31
0
39
0
210
0
220
0
230
1
0
LINE
5
C6
100
AcDbEntity
8
1
62
256
6
ByLayer
370
-1
48
1
60
0
100
AcDbLine
10
51.859618
20
42.866766
30
0
11
51.493553
21
43.281317
31
0
39
0
210
0
220
0
230
1
0
LINE
5
C7
100
AcDbEntity
8
1
62
256
6
ByLayer
370
-1
48
1
60
0
100
AcDbLine
10
52.892849
20
44.990294
30
0
11
51.071435
21
43.920764
31
0
39
0
210
0
220
0
230
1
0
LINE
5
C8
100
AcDbEntity
8
1
62
256
6
ByLayer
370
-1
48
1
60
0
100
AcDbLine
10
51.493553
20
43.281317
30
0
11
54.412974
21
44.995595
31
0
39
0
210
0
220
0
230
1
0
LINE
5
C9
100
AcDbEntity
8
1
62
256
6
ByLayer
370
-1
48
1
60
0
100
AcDbLine
10
47.633939
20
37.660464
30
0
11
49.460114
21
41.167457
31
0
39
0
210
0
220
0
230
1
0
LINE
5
CA
100
AcDbEntity
8
1
62
256
6
ByLayer
370
-1
48
1
60
0
100
AcDbLine
10
48.277476
20
36.280771
30
0
11
50.223132
21
36.847694
31
0
39
0
210
0
220
0
230
1
0
LINE
5
CB
100
AcDbEntity
8
1
62
256
6
ByLayer
370
-1
48
1
60
0
100
AcDbLine
10
49.877357
20
38.059171
30
0
11
47.830756
21
37.462834
31
0
39
0
210
0
220
0
230
1
0
LINE
5
CC
100
AcDbEntity
8
1
62
256
6
ByLayer
370
-1
48
1
60
0
100
AcDbLine
10
47.720638
20
37.23234
30
0
11
50.149585
21
37.940084
31
0
39
0
210
0
220
0
230
1
0
LINE
5
CD
100
AcDbEntity
8
1
62
256
6
ByLayer
370
-1
48
1
60
0
100
AcDbLine
10
50.389562
20
37.099285
30
0
11
48.166916
21
36.451653
31
0
39
0
210
0
220
0
230
1
0
LINE
5
CE
100
AcDbEntity
8
1
62
256
6
ByLayer
370
-1
48
1
60
0
100
AcDbLine
10
54.623335
20
44.997923
30
0
11
54.412974
21
44.995595
31
0
39
0
210
0
220
0
230
1
0
LINE
5
CF
100
AcDbEntity
8
1
62
256
6
ByLayer
370
-1
48
1
60
0
100
AcDbLine
10
54.985932
20
44.996882
30
0
11
55.046444
21
44.995878
31
0
39
0
210
0
220
0
230
1
0
LINE
5
D0
100
AcDbEntity
8
1
62
256
6
ByLayer
370
-1
48
1
60
0
100
AcDbLine
10
57.107366
20
44.989634
30
0
11
59.566119
21
44.989634
31
0
39
0
210
0
220
0
230
1
0
LINE
5
D1
100
AcDbEntity
8
1
62
256
6
ByLayer
370
-1
48
1
60
0
100
AcDbLine
10
61.356202
20
38.658652
30
0
11
60.100404
21
36.502172
31
0
39
0
210
0
220
0
230
1
0
LINE
5
D2
100
AcDbEntity
8
1
62
256
6
ByLayer
370
-1
48
1
60
0
100
AcDbLine
10
56.117875
20
44.994672
30
0
11
55.229979
21
44.994672
31
0
39
0
210
0
220
0
230
1
0
LINE
5
D3
100
AcDbEntity
8
1
62
256
6
ByLayer
370
-1
48
1
60
0
100
AcDbLine
10
58.316287
20
41.233579
30
0
11
57.127056
21
43.156495
31
0
39
0
210
0
220
0
230
1
0
LINE
5
D4
100
AcDbEntity
8
1
62
256
6
ByLayer
370
-1
48
1
60
0
100
AcDbLine
10
59.057988
20
36.391166
30
0
11
59.051219
21
38.658627
31
0
39
0
210
0
220
0
230
1
0
LINE
5
D5
100
AcDbEntity
8
1
62
256
6
ByLayer
370
-1
48
1
60
0
100
AcDbLine
10
58.369152
20
36.690487
30
0
11
58.820168
21
36.249583
31
0
39
0
210
0
220
0
230
1
0
LINE
5
D6
100
AcDbEntity
8
1
62
256
6
ByLayer
370
-1
48
1
60
0
100
AcDbLine
10
56.851479
20
43.147199
30
0
11
56.702079
21
42.531346
31
0
39
0
210
0
220
0
230
1
0
LINE
5
D7
100
AcDbEntity
8
1
62
256
6
ByLayer
370
-1
48
1
60
0
100
AcDbLine
10
56.767609
20
42.5162
30
0
11
56.91701
21
43.132053
31
0
39
0
210
0
220
0
230
1
0
LINE
5
D8
100
AcDbEntity
8
1
62
256
6
ByLayer
370
-1
48
1
60
0
100
AcDbLine
10
58.868065
20
36.296216
30
0
11
58.417049
21
36.737121
31
0
39
0
210
0
220
0
230
1
0
LINE
5
D9
100
AcDbEntity
8
1
62
256
6
ByLayer
370
-1
48
1
60
0
100
AcDbLine
10
58.977952
20
38.65936
30
0
11
58.984721
21
36.391899
31
0
39
0
210
0
220
0
230
1
0
LINE
5
DA
100
AcDbEntity
8
1
62
256
6
ByLayer
370
-1
48
1
60
0
100
AcDbLine
10
57.066176
20
43.113826
30
0
11
58.255408
21
41.19091
31
0
39
0
210
0
220
0
230
1
0
LINE
5
DB
100
AcDbEntity
8
1
62
256
6
ByLayer
370
-1
48
1
60
0
100
AcDbLine
10
56.276935
20
44.794526
30
0
11
56.851479
21
43.147199
31
0
39
0
210
0
220
0
230
1
0
LINE
5
DC
100
AcDbEntity
8
1
62
256
6
ByLayer
370
-1
48
1
60
0
100
AcDbLine
10
57.127056
20
43.156495
30
0
11
56.536075
21
44.850948
31
0
39
0
210
0
220
0
230
1
0
LINE
5
DD
100
AcDbEntity
8
1
62
256
6
ByLayer
370
-1
48
1
60
0
100
AcDbLine
10
57.107366
20
44.989634
30
0
11
59.072505
21
41.812121
31
0
39
0
210
0
220
0
230
1
0
LINE
5
DE
100
AcDbEntity
8
1
62
256
6
ByLayer
370
-1
48
1
60
0
100
AcDbLine
10
59.789716
20
44.856781
30
0
11
59.804019
21
40.065219
31
0
39
0
210
0
220
0
230
1
0
LINE
5
DF
100
AcDbEntity
8
1
62
256
6
ByLayer
370
-1
48
1
60
0
100
AcDbLine
10
59.92018
20
44.780637
30
0
11
59.934255
21
40.065415
31
0
39
0
210
0
220
0
230
1
0
LINE
5
E0
100
AcDbEntity
8
1
62
256
6
ByLayer
370
-1
48
1
60
0
100
AcDbLine
10
58.316287
20
41.233579
30
0
11
58.61591
21
41.492103
31
0
39
0
210
0
220
0
230
1
0
LINE
5
E1
100
AcDbEntity
8
1
62
256
6
ByLayer
370
-1
48
1
60
0
100
AcDbLine
10
59.051219
20
38.658627
30
0
11
59.41428
21
38.646533
31
0
39
0
210
0
220
0
230
1
0
LINE
5
E2
100
AcDbEntity
8
1
62
256
6
ByLayer
370
-1
48
1
60
0
100
AcDbLine
10
60.100404
20
36.502172
30
0
11
60.094019
21
38.641232
31
0
39
0
210
0
220
0
230
1
0
LINE
5
E3
100
AcDbEntity
8
1
62
256
6
ByLayer
370
-1
48
1
60
0
100
AcDbLine
10
56.532731
20
44.860478
30
0
11
58.61591
21
41.492103
31
0
39
0
210
0
220
0
230
1
0
LINE
5
E4
100
AcDbEntity
8
1
62
256
6
ByLayer
370
-1
48
1
60
0
100
AcDbLine
10
55.046444
20
44.995878
30
0
11
54.56231
21
43.000201
31
0
39
0
210
0
220
0
230
1
0
LINE
5
E5
100
AcDbEntity
8
1
62
256
6
ByLayer
370
-1
48
1
60
0
100
AcDbLine
10
55.767682
20
42.695307
30
0
11
56.276935
21
44.794526
31
0
39
0
210
0
220
0
230
1
0
LINE
5
E6
100
AcDbEntity
8
1
62
256
6
ByLayer
370
-1
48
1
60
0
100
AcDbLine
10
56.117875
20
44.994672
30
0
11
55.513484
21
42.503277
31
0
39
0
210
0
220
0
230
1
0
LINE
5
E7
100
AcDbEntity
8
1
62
256
6
ByLayer
370
-1
48
1
60
0
100
AcDbLine
10
54.676921
20
42.714882
30
0
11
55.229979
21
44.994672
31
0
39
0
210
0
220
0
230
1
0
LINE
5
E8
100
AcDbEntity
8
1
62
256
6
ByLayer
370
-1
48
1
60
0
100
AcDbLine
10
50.482567
20
44.994061
30
0
11
49.577223
21
44.904438
31
0
39
0
210
0
220
0
230
1
0
LINE
5
E9
100
AcDbEntity
8
1
62
256
6
ByLayer
370
-1
48
1
60
0
100
AcDbLine
10
46.284707
20
44.766373
30
0
11
46.327951
21
44.791765
31
0
39
0
210
0
220
0
230
1
0
LINE
5
EA
100
AcDbEntity
8
1
62
256
6
ByLayer
370
-1
48
1
60
0
100
AcDbLine
10
45.910988
20
40.303939
30
0
11
45.911926
21
40.566616
31
0
39
0
210
0
220
0
230
1
0
LINE
5
EB
100
AcDbEntity
8
1
62
256
6
ByLayer
370
-1
48
1
60
0
100
AcDbLine
10
49.577223
20
44.904438
30
0
11
48.646596
21
44.357977
31
0
39
0
210
0
220
0
230
1
0
LINE
5
EC
100
AcDbEntity
8
1
62
256
6
ByLayer
370
-1
48
1
60
0
100
AcDbLine
10
49.018759
20
43.628597
30
0
11
49.291785
21
43.788917
31
0
39
0
210
0
220
0
230
1
0
LINE
5
ED
100
AcDbEntity
8
1
62
256
6
ByLayer
370
-1
48
1
60
0
100
AcDbLine
10
59.355106
20
35.056027
30
0
11
59.424514
21
35.217978
31
0
39
0
210
0
220
0
230
1
0
LINE
5
EE
100
AcDbEntity
8
1
62
256
6
ByLayer
370
-1
48
1
60
0
100
AcDbLine
10
59.159017
20
34.726927
30
0
11
59.113733
21
34.6638
31
0
39
0
210
0
220
0
230
1
0
LINE
5
EF
100
AcDbEntity
8
1
62
256
6
ByLayer
370
-1
48
1
60
0
100
AcDbLine
10
57.994224
20
32.790013
30
0
11
56.771301
21
30.628142
31
0
39
0
210
0
220
0
230
1
0
LINE
5
F0
100
AcDbEntity
8
1
62
256
6
ByLayer
370
-1
48
1
60
0
100
AcDbLine
10
61.352939
20
39.751576
30
0
11
61.356202
21
38.658652
31
0
39
0
210
0
220
0
230
1
0
LINE
5
F1
100
AcDbEntity
8
1
62
256
6
ByLayer
370
-1
48
1
60
0
100
AcDbLine
10
63.334667
20
42.525762
30
0
11
63.334819
21
42.474977
31
0
39
0
210
0
220
0
230
1
0
LINE
5
F2
100
AcDbEntity
8
1
62
256
6
ByLayer
370
-1
48
1
60
0
100
AcDbLine
10
59.566119
20
44.989634
30
0
11
59.789716
21
44.856781
31
0
39
0
210
0
220
0
230
1
0
LINE
5
F3
100
AcDbEntity
8
1
62
256
6
ByLayer
370
-1
48
1
60
0
100
AcDbLine
10
50.543805
20
32.282283
30
0
11
50.267859
21
32.254966
31
0
39
0
210
0
220
0
230
1
0
LINE
5
F4
100
AcDbEntity
8
1
62
256
6
ByLayer
370
-1
48
1
60
0
100
AcDbLine
10
56.771301
20
30.628142
30
0
11
56.546765
21
30.498317
31
0
39
0
210
0
220
0
230
1
0
LINE
5
F5
100
AcDbEntity
8
1
62
256
6
ByLayer
370
-1
48
1
60
0
100
AcDbLine
10
52.94319
20
28.660679
30
0
11
52.899795
21
28.686072
31
0
39
0
210
0
220
0
230
1
0
LINE
5
F6
100
AcDbEntity
8
1
62
256
6
ByLayer
370
-1
48
1
60
0
100
AcDbLine
10
52.634554
20
29.1321
30
0
11
52.550282
21
31.469851
31
0
39
0
210
0
220
0
230
1
0
LINE
5
F7
100
AcDbEntity
8
1
62
256
6
ByLayer
370
-1
48
1
60
0
100
AcDbLine
10
46.022134
20
44.318787
30
0
11
45.064661
21
44.224004
31
0
39
0
210
0
220
0
230
1
0
LINE
5
F8
100
AcDbEntity
8
1
62
256
6
ByLayer
370
-1
48
1
60
0
100
AcDbLine
10
46.284707
20
44.766373
30
0
11
45.319366
21
44.670811
31
0
39
0
210
0
220
0
230
1
0
LINE
5
F9
100
AcDbEntity
8
1
62
256
6
ByLayer
370
-1
48
1
60
0
100
AcDbLine
10
46.327951
20
44.791765
30
0
11
45.36261
21
44.696204
31
0
39
0
210
0
220
0
230
1
0
LINE
5
FA
100
AcDbEntity
8
1
62
256
6
ByLayer
370
-1
48
1
60
0
100
AcDbLine
10
50.543805
20
32.282283
30
0
11
49.275155
21
34.431229
31
0
39
0
210
0
220
0
230
1
0
LINE
5
FB
100
AcDbEntity
8
1
62
256
6
ByLayer
370
-1
48
1
60
0
100
AcDbLine
10
58.562583
20
33.709818
30
0
11
59.004201
21
34.490505
31
0
39
0
210
0
220
0
230
1
0
LINE
5
FC
100
AcDbEntity
8
1
62
256
6
ByLayer
370
-1
48
1
60
0
100
AcDbLine
10
54.446718
20
33.802446
30
0
11
56.678465
21
33.88158
31
0
39
0
210
0
220
0
230
1
0
LINE
5
FD
100
AcDbEntity
8
1
62
256
6
ByLayer
370
-1
48
1
60
0
100
AcDbLine
10
49.947225
20
35.584218
30
0
11
51.884741
21
34.450488
31
0
39
0
210
0
220
0
230
1
0
LINE
5
FE
100
AcDbEntity
8
1
62
256
6
ByLayer
370
-1
48
1
60
0
100
AcDbLine
10
50.549878
20
36.04287
30
0
11
49.949462
21
35.867921
31
0
39
0
210
0
220
0
230
1
0
LINE
5
FF
100
AcDbEntity
8
1
62
256
6
ByLayer
370
-1
48
1
60
0
100
AcDbLine
10
56.812322
20
34.131989
30
0
11
56.361306
21
34.572894
31
0
39
0
210
0
220
0
230
1
0
LINE
5
100
100
AcDbEntity
8
1
62
256
6
ByLayer
370
-1
48
1
60
0
100
AcDbLine
10
56.321533
20
34.527064
30
0
11
56.772549
21
34.08616
31
0
39
0
210
0
220
0
230
1
0
LINE
5
101
100
AcDbEntity
8
1
62
256
6
ByLayer
370
-1
48
1
60
0
100
AcDbLine
10
49.971156
20
35.806543
30
0
11
50.571573
21
35.981492
31
0
39
0
210
0
220
0
230
1
0
LINE
5
102
100
AcDbEntity
8
1
62
256
6
ByLayer
370
-1
48
1
60
0
100
AcDbLine
10
51.932268
20
34.522151
30
0
11
49.994752
21
35.655881
31
0
39
0
210
0
220
0
230
1
0
LINE
5
103
100
AcDbEntity
8
1
62
256
6
ByLayer
370
-1
48
1
60
0
100
AcDbLine
10
56.682809
20
33.964166
30
0
11
54.451062
21
33.885032
31
0
39
0
210
0
220
0
230
1
0
LINE
5
104
100
AcDbEntity
8
1
62
256
6
ByLayer
370
-1
48
1
60
0
100
AcDbLine
10
48.521179
20
35.892633
30
0
11
49.947225
21
35.584218
31
0
39
0
210
0
220
0
230
1
0
LINE
5
105
100
AcDbEntity
8
1
62
256
6
ByLayer
370
-1
48
1
60
0
100
AcDbLine
10
49.949462
20
35.867921
30
0
11
48.32313
21
36.219652
31
0
39
0
210
0
220
0
230
1
0
LINE
5
106
100
AcDbEntity
8
1
62
256
6
ByLayer
370
-1
48
1
60
0
100
AcDbLine
10
59.355106
20
35.056027
30
0
11
59.057988
21
36.391166
31
0
39
0
210
0
220
0
230
1
0
LINE
5
107
100
AcDbEntity
8
1
62
256
6
ByLayer
370
-1
48
1
60
0
100
AcDbLine
10
58.820168
20
36.249583
30
0
11
59.159017
21
34.726927
31
0
39
0
210
0
220
0
230
1
0
LINE
5
108
100
AcDbEntity
8
1
62
256
6
ByLayer
370
-1
48
1
60
0
100
AcDbLine
10
58.329963
20
33.683089
30
0
11
56.812322
21
34.131989
31
0
39
0
210
0
220
0
230
1
0
LINE
5
109
100
AcDbEntity
8
1
62
256
6
ByLayer
370
-1
48
1
60
0
100
AcDbLine
10
56.678465
20
33.88158
30
0
11
58.239523
21
33.419838
31
0
39
0
210
0
220
0
230
1
0
LINE
5
10A
100
AcDbEntity
8
1
62
256
6
ByLayer
370
-1
48
1
60
0
100
AcDbLine
10
57.994224
20
32.790013
30
0
11
54.306386
21
32.65925
31
0
39
0
210
0
220
0
230
1
0
LINE
5
10B
100
AcDbEntity
8
1
62
256
6
ByLayer
370
-1
48
1
60
0
100
AcDbLine
10
56.546765
20
30.498317
30
0
11
52.452438
21
32.894098
31
0
39
0
210
0
220
0
230
1
0
LINE
5
10C
100
AcDbEntity
8
1
62
256
6
ByLayer
370
-1
48
1
60
0
100
AcDbLine
10
56.41972
20
30.423912
30
0
11
52.390624
21
32.781523
31
0
39
0
210
0
220
0
230
1
0
LINE
5
10D
100
AcDbEntity
8
1
62
256
6
ByLayer
370
-1
48
1
60
0
100
AcDbLine
10
54.446718
20
33.802446
30
0
11
54.338966
21
33.278646
31
0
39
0
210
0
220
0
230
1
0
LINE
5
10E
100
AcDbEntity
8
1
62
256
6
ByLayer
370
-1
48
1
60
0
100
AcDbLine
10
51.884741
20
34.450488
30
0
11
51.521223
21
34.011748
31
0
39
0
210
0
220
0
230
1
0
LINE
5
10F
100
AcDbEntity
8
1
62
256
6
ByLayer
370
-1
48
1
60
0
100
AcDbLine
10
49.275155
20
34.431229
30
0
11
51.102954
21
33.361699
31
0
39
0
210
0
220
0
230
1
0
LINE
5
110
100
AcDbEntity
8
1
62
256
6
ByLayer
370
-1
48
1
60
0
100
AcDbLine
10
51.521223
20
34.011748
30
0
11
48.591567
21
35.726025
31
0
39
0
210
0
220
0
230
1
0
LINE
5
111
100
AcDbEntity
8
1
62
256
6
ByLayer
370
-1
48
1
60
0
100
AcDbLine
10
58.24832
20
33.417264
30
0
11
54.338966
21
33.278646
31
0
39
0
210
0
220
0
230
1
0
LINE
5
112
100
AcDbEntity
8
1
62
256
6
ByLayer
370
-1
48
1
60
0
100
AcDbLine
10
59.41428
20
38.646533
30
0
11
59.424514
21
35.217978
31
0
39
0
210
0
220
0
230
1
0
LINE
5
113
100
AcDbEntity
8
1
62
256
6
ByLayer
370
-1
48
1
60
0
100
AcDbLine
10
59.113733
20
34.6638
30
0
11
57.652212
21
36.092554
31
0
39
0
210
0
220
0
230
1
0
LINE
5
114
100
AcDbEntity
8
1
62
256
6
ByLayer
370
-1
48
1
60
0
100
AcDbLine
10
56.792614
20
35.185971
30
0
11
58.329963
21
33.683089
31
0
39
0
210
0
220
0
230
1
0
LINE
5
115
100
AcDbEntity
8
1
62
256
6
ByLayer
370
-1
48
1
60
0
100
AcDbLine
10
58.562583
20
33.709818
30
0
11
56.738027
21
35.493468
31
0
39
0
210
0
220
0
230
1
0
LINE
5
116
100
AcDbEntity
8
1
62
256
6
ByLayer
370
-1
48
1
60
0
100
AcDbLine
10
57.334612
20
36.122662
30
0
11
59.004201
21
34.490505
31
0
39
0
210
0
220
0
230
1
0
LINE
5
117
100
AcDbEntity
8
1
62
256
6
ByLayer
370
-1
48
1
60
0
100
AcDbLine
10
51.477694
20
31.735821
30
0
11
50.597501
21
31.648689
31
0
39
0
210
0
220
0
230
1
0
LINE
5
118
100
AcDbEntity
8
1
62
256
6
ByLayer
370
-1
48
1
60
0
100
AcDbLine
10
51.373719
20
31.688032
30
0
11
51.530986
21
31.596008
31
0
39
0
210
0
220
0
230
1
0
LINE
5
119
100
AcDbEntity
8
1
62
256
6
ByLayer
370
-1
48
1
60
0
100
AcDbLine
10
52.94319
20
28.660679
30
0
11
51.977849
21
28.565118
31
0
39
0
210
0
220
0
230
1
0
LINE
5
11A
100
AcDbEntity
8
1
62
256
6
ByLayer
370
-1
48
1
60
0
100
AcDbLine
10
52.899795
20
28.686072
30
0
11
51.934453
21
28.59051
31
0
39
0
210
0
220
0
230
1
0
LINE
5
11B
100
AcDbEntity
8
1
62
256
6
ByLayer
370
-1
48
1
60
0
100
AcDbLine
10
52.634554
20
29.1321
30
0
11
51.677081
21
29.037318
31
0
39
0
210
0
220
0
230
1
0
LINE
5
11C
100
AcDbEntity
8
1
62
256
6
ByLayer
370
-1
48
1
60
0
100
AcDbLine
10
52.550282
20
31.469851
30
0
11
51.654722
21
31.381197
31
0
39
0
210
0
220
0
230
1
0
LINE
5
11D
100
AcDbEntity
8
1
62
256
6
ByLayer
370
-1
48
1
60
0
100
AcDbLine
10
52.422763
20
31.684288
30
0
11
51.530986
21
31.596008
31
0
39
0
210
0
220
0
230
1
0
LINE
5
11E
100
AcDbEntity
8
1
62
256
6
ByLayer
370
-1
48
1
60
0
100
AcDbLine
10
52.14878
20
31.844608
30
0
11
51.838413
21
31.813884
31
0
39
0
210
0
220
0
230
1
0
LINE
5
11F
100
AcDbEntity
8
1
62
256
6
ByLayer
370
-1
48
1
60
0
100
AcDbLine
10
45.064661
20
44.224004
30
0
11
45.054389
21
41.345912
31
0
39
0
210
0
220
0
230
1
0
LINE
5
120
100
AcDbEntity
8
1
62
256
6
ByLayer
370
-1
48
1
60
0
100
AcDbLine
10
49.41643
20
43.982129
30
0
11
49.452224
21
44.293029
31
0
39
0
210
0
220
0
230
1
0
LINE
5
121
100
AcDbEntity
8
1
62
256
6
ByLayer
370
-1
48
1
60
0
100
AcDbLine
10
51.477694
20
31.735821
30
0
11
50.543805
21
32.282283
31
0
39
0
210
0
220
0
230
1
0
LINE
5
122
100
AcDbEntity
8
1
62
256
6
ByLayer
370
-1
48
1
60
0
100
AcDbLine
10
49.018759
20
43.628597
30
0
11
48.818722
21
43.608795
31
0
39
0
210
0
220
0
230
1
0
LINE
5
123
100
AcDbEntity
8
1
62
256
6
ByLayer
370
-1
48
1
60
0
100
AcDbLine
10
49.291785
20
43.788917
30
0
11
48.620026
21
43.722418
31
0
39
0
210
0
220
0
230
1
0
LINE
5
124
100
AcDbEntity
8
1
62
256
6
ByLayer
370
-1
48
1
60
0
100
AcDbLine
10
49.41643
20
43.982129
30
0
11
48.521435
21
43.893531
31
0
39
0
210
0
220
0
230
1
0
LINE
5
125
100
AcDbEntity
8
1
62
256
6
ByLayer
370
-1
48
1
60
0
100
AcDbLine
10
49.452224
20
44.293029
30
0
11
48.549455
21
44.203662
31
0
39
0
210
0
220
0
230
1
0
LINE
5
126
100
AcDbEntity
8
1
62
256
6
ByLayer
370
-1
48
1
60
0
100
AcDbLine
10
49.551941
20
44.447599
30
0
11
48.646596
21
44.357977
31
0
39
0
210
0
220
0
230
1
0
LINE
5
127
100
AcDbEntity
8
1
62
256
6
ByLayer
370
-1
48
1
60
0
100
AcDbLine
10
45.36261
20
44.696204
30
0
11
45.319366
21
44.670811
31
0
39
0
210
0
220
0
230
1
0
LINE
5
128
100
AcDbEntity
8
1
62
256
6
ByLayer
370
-1
48
1
60
0
100
AcDbLine
10
49.551941
20
44.447599
30
0
11
50.482567
21
44.994061
31
0
39
0
210
0
220
0
230
1
0
LINE
5
129
100
AcDbEntity
8
1
62
256
6
ByLayer
370
-1
48
1
60
0
100
AcDbLine
10
48.549455
20
44.203662
30
0
11
48.521435
21
43.893531
31
0
39
0
210
0
220
0
230
1
0
LINE
5
12A
100
AcDbEntity
8
1
62
256
6
ByLayer
370
-1
48
1
60
0
100
AcDbLine
10
45.914443
20
40.717753
30
0
11
46.022134
21
44.318787
31
0
39
0
210
0
220
0
230
1
0
LINE
5
12B
100
AcDbEntity
8
1
62
256
6
ByLayer
370
-1
48
1
60
0
100
AcDbLine
10
46.829221
20
44.792706
30
0
11
48.777763
21
43.628145
31
0
39
0
210
0
220
0
230
1
0
LINE
5
12C
100
AcDbEntity
8
1
62
256
6
ByLayer
370
-1
48
1
60
0
100
AcDbLine
10
45.693573
20
40.282417
30
0
11
45.910988
21
40.303939
31
0
39
0
210
0
220
0
230
1
0
LINE
5
12D
100
AcDbEntity
8
SK1
62
256
6
ByLayer
370
-1
48
1
60
0
100
AcDbLine
10
-0.2
20
7.059518
30
0
11
-0.2
21
22.533485
31
0
39
0
210
0
220
0
230
1
0
LINE
5
12F
100
AcDbEntity
8
SK1
62
256
6
ByLayer
370
-1
48
1
60
0
100
AcDbLine
10
-1.307107
20
-4.811013
30
0
11
-1.307107
21
4.811013
31
0
39
0
210
0
220
0
230
1
0
LINE
5
130
100
AcDbEntity
8
1
62
256
6
ByLayer
370
-1
48
1
60
0
100
AcDbLine
10
54.327944
20
37.242002
30
0
11
54.297665
21
37.239005
31
0
39
0
210
0
220
0
230
1
0
LINE
5
131
100
AcDbEntity
8
1
62
256
6
ByLayer
370
-1
48
1
60
0
100
AcDbLine
10
53.80469
20
37.219985
30
0
11
54.027103
21
37.242002
31
0
39
0
210
0
220
0
230
1
0
LINE
5
132
100
AcDbEntity
8
1
62
256
6
ByLayer
370
-1
48
1
60
0
100
AcDbLine
10
54.0187
20
40.057062
30
0
11
53.796287
21
40.035045
31
0
39
0
210
0
220
0
230
1
0
LINE
5
133
100
AcDbEntity
8
1
62
256
6
ByLayer
370
-1
48
1
60
0
100
AcDbLine
10
53.362882
20
40.270855
30
0
11
53.618473
21
40.296157
31
0
39
0
210
0
220
0
230
1
0
LINE
5
134
100
AcDbEntity
8
1
62
256
6
ByLayer
370
-1
48
1
60
0
100
AcDbLine
10
55.084892
20
37.299559
30
0
11
55.341304
21
37.324942
31
0
39
0
210
0
220
0
230
1
0
LINE
5
135
100
AcDbEntity
8
1
62
256
6
ByLayer
370
-1
48
1
60
0
100
AcDbLine
10
55.651731
20
38.3094
30
0
11
55.908143
21
38.334783
31
0
39
0
210
0
220
0
230
1
0
LINE
5
136
100
AcDbEntity
8
1
62
256
6
ByLayer
370
-1
48
1
60
0
100
AcDbLine
10
55.649832
20
38.94563
30
0
11
55.906244
21
38.971013
31
0
39
0
210
0
220
0
230
1
0
LINE
5
137
100
AcDbEntity
8
1
62
256
6
ByLayer
370
-1
48
1
60
0
100
AcDbLine
10
55.076964
20
39.955471
30
0
11
55.333376
21
39.980854
31
0
39
0
210
0
220
0
230
1
0
LINE
5
138
100
AcDbEntity
8
1
62
256
6
ByLayer
370
-1
48
1
60
0
100
AcDbLine
10
53.372692
20
36.984175
30
0
11
53.628284
21
37.009477
31
0
39
0
210
0
220
0
230
1
0
LINE
5
139
100
AcDbEntity
8
1
62
256
6
ByLayer
370
-1
48
1
60
0
100
AcDbLine
10
43.608439
20
44.757955
30
0
11
43.608457
21
44.787805
31
0
39
0
210
0
220
0
230
1
0
LINE
5
13A
100
AcDbEntity
8
1
62
256
6
ByLayer
370
-1
48
1
60
0
100
AcDbLine
10
43.625523
20
44.756961
30
0
11
43.625534
21
44.775418
31
0
39
0
210
0
220
0
230
1
0
LINE
5
13B
100
AcDbEntity
8
1
62
256
6
ByLayer
370
-1
48
1
60
0
100
AcDbLine
10
45.253148
20
44.723422
30
0
11
45.253201
21
44.812686
31
0
39
0
210
0
220
0
230
1
0
LINE
5
13C
100
AcDbEntity
8
SK1
62
256
6
ByLayer
370
-1
48
1
60
0
100
AcDbLine
10
-0.2
20
-22.533485
30
0
11
-0.2
21
-7.059517
31
0
39
0
210
0
220
0
230
1
0
MTEXT
5
29E
100
AcDbEntity
8
SK6
62
256
6
ByLayer
370
-1
48
1
60
0
100
AcDbMText
10
-18.125
20
-48.493234
30
0
210
0
220
0
230
1
1
\W00.738;\fsimplex.shx,bigfont.shx;C6-266RFG-45065-22 
40
3.5
41
0
44
1.084337
50
0
71
7
72
5
7
DEFAULT
0
DIMENSION
5
2D1
100
AcDbEntity
8
2
62
256
6
ByLayer
370
-3
48
1
60
0
100
AcDbDimension
2
DimnDraft3D1
10
79.25
20
45
30
0
11
79.25
21
19.634211
31
0
70
32
71
5
72
1
41
1
210
0
220
0
230
1
3
Standard
100
AcDbAlignedDimension
13
71.5
23
0
33
0
14
66.5
24
45
34
0
50
90
100
AcDbRotatedDimension
1001
ACAD
1000
DSTYLE
1002
{
1070
    74
1070
     0
1070
   279
1070
     0
1070
   172
1070
     1
1070
   173
1070
     1
1070
   340
1005
29F
1070
   271
1070
     3
1070
   272
1070
     3
1070
    77
1070
     1
1070
    73
1070
     0
1070
   171
1070
     4
1070
   274
1070
     4
1070
   177
1070
     2
1070
   176
1070
     2
1070
   178
1070
     7
1070
    78
1070
     8
1070
    41
1041
3.0
1070
   147
1041
2.25
1070
    42
1041
1.5
1070
    44
1041
3.0
1070
   140
1041
4.5
1070
   343
1005
2D2
1070
   344
1005
2D2
1002
}
0
DIMENSION
5
2E7
100
AcDbEntity
8
SK2
62
256
6
ByLayer
370
-3
48
1
60
0
100
AcDbDimension
2
DimnDraft3D2
10
-47.75
20
-31.5
30
0
11
-47.75
21
-4.784211
31
0
70
32
71
5
72
1
41
1
210
0
220
0
230
1
3
Standard
100
AcDbAlignedDimension
13
-1.5
23
31.5
33
0
14
-1.5
24
-31.5
34
0
50
90
100
AcDbRotatedDimension
1001
ACAD
1000
DSTYLE
1002
{
1070
    74
1070
     0
1070
   279
1070
     0
1070
   172
1070
     1
1070
   173
1070
     1
1070
   340
1005
29F
1070
   271
1070
     3
1070
   272
1070
     3
1070
    77
1070
     1
1070
    73
1070
     0
1070
   171
1070
     4
1070
   274
1070
     4
1070
   177
1070
     2
1070
   176
1070
     2
1070
   178
1070
     7
1070
    78
1070
     8
1070
    41
1041
3.0
1070
   147
1041
2.25
1070
    42
1041
1.5
1070
    44
1041
3.0
1070
   140
1041
4.5
1070
   343
1005
2D2
1070
   344
1005
2D2
1002
}
0
DIMENSION
5
2F5
100
AcDbEntity
8
2
62
256
6
ByLayer
370
-3
48
1
60
0
100
AcDbDimension
2
DimnDraft3D3
10
0
20
64.75
30
0
11
29.871053
21
64.75
31
0
70
32
71
5
72
1
41
1
210
0
220
0
230
1
3
Standard
100
AcDbAlignedDimension
13
65
23
46.5
33
0
14
0
24
1.5
34
0
50
0
100
AcDbRotatedDimension
1001
ACAD
1000
DSTYLE
1002
{
1070
   279
1070
     0
1070
   172
1070
     1
1070
   173
1070
     1
1070
   340
1005
29F
1070
   271
1070
     3
1070
   272
1070
     3
1070
    77
1070
     1
1070
    73
1070
     0
1070
   171
1070
     4
1070
   274
1070
     4
1070
   177
1070
     2
1070
   176
1070
     2
1070
   178
1070
     7
1070
    78
1070
     8
1070
    41
1041
3.0
1070
   147
1041
2.25
1070
    42
1041
1.5
1070
    44
1041
3.0
1070
   140
1041
4.5
1070
   343
1005
2D2
1070
   344
1005
2D2
1002
}
0
ENDSEC
0
SECTION
2
OBJECTS
0
DICTIONARY
5
326
330
0
100
AcDbDictionary
280
0
281
1
3
ACAD_GROUP
350
327
3
ACAD_MLINESTYLE
350
328
0
DICTIONARY
5
327
330
0
100
AcDbDictionary
280
0
281
1
0
DICTIONARY
5
328
330
0
100
AcDbDictionary
280
0
281
1
3
Standard
350
18
0
MLINESTYLE
5
18
330
328
100
AcDbMlineStyle
2
Standard
70
0
3

62
256
51
90
52
90
71
2
49
-0.5
62
256
6
ByLayer
49
0.5
62
256
6
ByLayer
0
RASTERVARIABLES
5
314
330

100
AcDbRasterVariables
90
0
70
1
71
1
72
1
0
ENDSEC
0
EOF
