0
SECTION
2
HEADER
9
$ACADVER
1
AC1015
9
$DWGCODEPAGE
3
ANSI_1252
9
$HANDSEED
5
354
9
$ANGBASE
50
0
9
$ANGDIR
70
0
9
$ATTMODE
70
1
9
$AUNITS
70
0
9
$AUPREC
70
0
9
$CECOLOR
62
256
9
$CELTSCALE
40
1
9
$CELTYPE
6
ByLayer
9
$CELWEIGHT
370
-1
9
$CLAYER
8
0
9
$CMLJUST
70
0
9
$CMLSCALE
40
1
9
$CMLSTYLE
2
Standard
9
$DIMSTYLE
2
Standard
9
$TEXTSIZE
40
0.2
9
$TEXTSTYLE
7
Standard
9
$LUNITS
70
2
9
$LUPREC
70
4
9
$EXTNAMES
290
1
9
$INSUNITS
70
4
9
$LTSCALE
40
1
9
$LWDISPLAY
290
0
9
$PDMODE
70
0
9
$PDSIZE
40
0
9
$PLINEGEN
70
0
0
ENDSEC
0
SECTION
2
CLASSES
0
CLASS
1
RASTERVARIABLES
2
AcDbRasterVariables
3
ISM
90
0
280
0
281
0
0
ENDSEC
0
SECTION
2
TABLES
0
TABLE
2
VPORT
5
34a
100
AcDbSymbolTable
0
VPORT
5
1
100
AcDbSymbolTableRecord
100
AcDbViewportTableRecord
2
*Active
70
0
10
0
20
0
11
1
21
1
12
-1
22
1
13
0
23
0
14
0.5
24
0.5
15
10
25
10
16
0
26
0
36
1
17
0
27
0
37
0
0
ENDTAB
0
TABLE
2
LTYPE
5
34b
100
AcDbSymbolTable
0
LTYPE
5
14
100
AcDbSymbolTableRecord
100
AcDbLinetypeTableRecord
70
0
2
ByBlock
3

72
65
73
0
40
0
0
LTYPE
5
15
100
AcDbSymbolTableRecord
100
AcDbLinetypeTableRecord
70
0
2
ByLayer
3

72
65
73
0
40
0
0
LTYPE
5
16
100
AcDbSymbolTableRecord
100
AcDbLinetypeTableRecord
70
0
2
CONTINUOUS
3
Solid line
72
65
73
0
40
0
0
LTYPE
5
3B
100
AcDbSymbolTableRecord
100
AcDbLinetypeTableRecord
70
0
2
DASHED
3
__ __ __ __ __ __ __ __ __
72
65
73
2
40
25.72
49
12.86
74
0
49
-12.86
74
0
0
LTYPE
5
3C
100
AcDbSymbolTableRecord
100
AcDbLinetypeTableRecord
70
0
2
HIDDEN
3
_ _ _ _ _ _ _ _ _ _ _ _ _ _ _
72
65
73
2
40
0.5
49
0.25
74
0
49
-0.25
74
0
0
LTYPE
5
3D
100
AcDbSymbolTableRecord
100
AcDbLinetypeTableRecord
70
0
2
PHANTOM
3
____ _ _ ____ _ _ _____ _ _ ____
72
65
73
6
40
50.5
49
18
74
0
49
-6.5
74
0
49
6.5
74
0
49
-6.5
74
0
49
6.5
74
0
49
-6.5
74
0
0
LTYPE
5
3E
100
AcDbSymbolTableRecord
100
AcDbLinetypeTableRecord
70
0
2
CENTER
3
____ _ ____ _ ____ _ ____
72
65
73
4
40
47.5
49
22
74
0
49
-8.5
74
0
49
8.5
74
0
49
-8.5
74
0
0
LTYPE
5
3F
100
AcDbSymbolTableRecord
100
AcDbLinetypeTableRecord
70
0
2
DOT
3
.........................
72
65
73
2
40
10
49
0
74
0
49
-10
74
0
0
LTYPE
5
40
100
AcDbSymbolTableRecord
100
AcDbLinetypeTableRecord
70
0
2
DASHDOT
3
_._._._._._._._._._._._._._._._.
72
65
73
4
40
70
49
31
74
0
49
-13
74
0
49
13
74
0
49
-13
74
0
0
ENDTAB
0
TABLE
2
LAYER
5
34c
100
AcDbSymbolTable
0
LAYER
5
10
100
AcDbSymbolTableRecord
100
AcDbLayerTableRecord
2
0
70
0
62
7
6
CONTINUOUS
290
1
370
-3
390
0
0
LAYER
5
42
100
AcDbSymbolTableRecord
100
AcDbLayerTableRecord
2
1
70
0
62
4
6
CONTINUOUS
290
1
370
-3
390
0
0
LAYER
5
44
100
AcDbSymbolTableRecord
100
AcDbLayerTableRecord
2
80
70
0
62
-6
6
CONTINUOUS
290
1
370
-3
390
0
0
LAYER
5
46
100
AcDbSymbolTableRecord
100
AcDbLayerTableRecord
2
81
70
0
62
-3
6
CONTINUOUS
290
1
370
-3
390
0
0
LAYER
5
48
100
AcDbSymbolTableRecord
100
AcDbLayerTableRecord
2
2
70
0
62
7
6
CONTINUOUS
290
1
370
-3
390
0
0
LAYER
5
4B
100
AcDbSymbolTableRecord
100
AcDbLayerTableRecord
2
4
70
0
62
-2
6
CENTER
290
1
370
-3
390
0
0
LAYER
5
336
100
AcDbSymbolTableRecord
100
AcDbLayerTableRecord
2
SK4
70
0
62
2
6
CENTER
290
1
370
-3
390
0
0
LAYER
5
337
100
AcDbSymbolTableRecord
100
AcDbLayerTableRecord
2
SK1
70
0
62
4
6
CONTINUOUS
290
1
370
-3
390
0
0
LAYER
5
338
100
AcDbSymbolTableRecord
100
AcDbLayerTableRecord
2
SK6
70
0
62
5
6
CONTINUOUS
290
1
370
-3
390
0
0
LAYER
5
339
100
AcDbSymbolTableRecord
100
AcDbLayerTableRecord
2
SK2
70
0
62
7
6
CONTINUOUS
290
1
370
-3
390
0
0
ENDTAB
0
TABLE
2
STYLE
5
34d
100
AcDbSymbolTable
0
STYLE
5
11
100
AcDbSymbolTableRecord
100
AcDbTextStyleTableRecord
2
Standard
3
txt
70
0
71
0
40
0
41
1
42
0
50
0
0
STYLE
5
2B2
100
AcDbSymbolTableRecord
100
AcDbTextStyleTableRecord
2
DEFAULT
3
simplex.shx
70
0
71
0
40
0
41
1
42
0
50
0
0
STYLE
5
2D5
100
AcDbSymbolTableRecord
100
AcDbTextStyleTableRecord
2
DWGDirectTextStyle
3
SIMPLEX
70
0
71
0
40
0
41
1
42
0
50
0
0
ENDTAB
0
TABLE
2
DIMSTYLE
5
34e
100
AcDbSymbolTable
100
AcDbDimStyleTable
0
DIMSTYLE
105
27
100
AcDbSymbolTableRecord
100
AcDbDimStyleTableRecord
2
Standard
70
0
3
<>
41
0.18
42
0.0625
44
0.18
140
0.18
147
0.09
73
0
74
0
77
1
271
2
275
0
278
52
280
0
340
11
0
ENDTAB
0
TABLE
2
VIEW
5
34f
100
AcDbSymbolTable
0
ENDTAB
0
TABLE
2
UCS
5
350
100
AcDbSymbolTable
0
ENDTAB
0
TABLE
2
APPID
5
351
100
AcDbSymbolTable
0
APPID
5
12
100
AcDbSymbolTableRecord
100
AcDbRegAppTableRecord
2
ACAD
70
0
0
ENDTAB
0
TABLE
2
BLOCK_RECORD
5
352
100
AcDbSymbolTable
0
BLOCK_RECORD
5
1F
100
AcDbSymbolTableRecord
100
AcDbBlockTableRecord
2
*Model_Space
340
0
70
0
0
BLOCK_RECORD
5
1B
100
AcDbSymbolTableRecord
100
AcDbBlockTableRecord
2
*Paper_Space
340
0
70
0
0
BLOCK_RECORD
5
23
100
AcDbSymbolTableRecord
100
AcDbBlockTableRecord
2
*Paper_Space0
340
0
70
0
0
BLOCK_RECORD
5
2D7
100
AcDbSymbolTableRecord
100
AcDbBlockTableRecord
2
DimnDraft3D1
340
0
70
0
0
BLOCK_RECORD
5
2E5
100
AcDbSymbolTableRecord
100
AcDbBlockTableRecord
2
_CLOSED
340
0
70
0
0
BLOCK_RECORD
5
2EC
100
AcDbSymbolTableRecord
100
AcDbBlockTableRecord
2
DimnDraft3D2
340
0
70
0
0
BLOCK_RECORD
5
2FA
100
AcDbSymbolTableRecord
100
AcDbBlockTableRecord
2
DimnDraft3D3
340
0
70
0
0
BLOCK_RECORD
5
309
100
AcDbSymbolTableRecord
100
AcDbBlockTableRecord
2
DimnDraft3D4
340
0
70
0
0
ENDTAB
0
ENDSEC
0
SECTION
2
BLOCKS
0
BLOCK
5
20
100
AcDbEntity
8
0
100
AcDbBlockBegin
2
*Model_Space
70
0
10
0
20
0
30
0
3
*Model_Space
0
ENDBLK
5
21
100
AcDbEntity
8
0
100
AcDbBlockEnd
0
BLOCK
5
1C
100
AcDbEntity
8
0
100
AcDbBlockBegin
2
*Paper_Space
70
0
10
0
20
0
30
0
3
*Paper_Space
0
ENDBLK
5
1D
100
AcDbEntity
8
0
100
AcDbBlockEnd
0
BLOCK
5
24
100
AcDbEntity
8
0
100
AcDbBlockBegin
2
*Paper_Space0
70
0
10
0
20
0
30
0
3
*Paper_Space0
0
ENDBLK
5
25
100
AcDbEntity
8
0
100
AcDbBlockEnd
0
BLOCK
5
2E2
100
AcDbEntity
8
0
100
AcDbBlockBegin
2
DimnDraft3D1
70
0
10
0
20
0
30
0
3
DimnDraft3D1
0
MTEXT
5
2D8
100
AcDbEntity
8
2
62
256
6
ByLayer
370
-1
48
1
60
0
100
AcDbMText
10
56.085817
20
-35
30
0
210
0
220
0
230
1
1
\W01.000;\fsimplex.shx,bigfont.shx;64 
40
4.5
41
0
44
1.084337
50
0
71
7
72
5
7
DEFAULT
0
LINE
5
2D9
100
AcDbEntity
8
2
62
256
6
ByLayer
370
-1
48
1
60
0
100
AcDbLine
10
90
20
-23.375
30
0
11
90
21
-39.125
31
0
39
0
210
0
220
0
230
1
0
LINE
5
2DA
100
AcDbEntity
8
2
62
256
6
ByLayer
370
-1
48
1
60
0
100
AcDbLine
10
25.653212
20
-23.375
30
0
11
25.653212
21
-39.125
31
0
39
0
210
0
220
0
230
1
0
LINE
5
2DB
100
AcDbEntity
8
2
62
256
6
ByLayer
370
-1
48
1
60
0
100
AcDbLine
10
90
20
-36.125
30
0
11
25.653212
21
-36.125
31
0
39
0
210
0
220
0
230
1
0
LINE
5
2DC
100
AcDbEntity
8
2
62
256
6
ByLayer
370
-1
48
1
60
0
100
AcDbLine
10
90
20
-36.125
30
0
11
87.000001
21
-36.519957
31
0
39
0
210
0
220
0
230
1
0
LINE
5
2DD
100
AcDbEntity
8
2
62
256
6
ByLayer
370
-1
48
1
60
0
100
AcDbLine
10
90
20
-36.125
30
0
11
86.999999
21
-35.730043
31
0
39
0
210
0
220
0
230
1
0
LINE
5
2DE
100
AcDbEntity
8
2
62
256
6
ByLayer
370
-1
48
1
60
0
100
AcDbLine
10
87.000001
20
-36.519957
30
0
11
86.999999
21
-35.730043
31
0
39
0
210
0
220
0
230
1
0
LINE
5
2DF
100
AcDbEntity
8
2
62
256
6
ByLayer
370
-1
48
1
60
0
100
AcDbLine
10
25.653212
20
-36.125
30
0
11
28.653211
21
-35.730043
31
0
39
0
210
0
220
0
230
1
0
LINE
5
2E0
100
AcDbEntity
8
2
62
256
6
ByLayer
370
-1
48
1
60
0
100
AcDbLine
10
25.653212
20
-36.125
30
0
11
28.653214
21
-36.519957
31
0
39
0
210
0
220
0
230
1
0
LINE
5
2E1
100
AcDbEntity
8
2
62
256
6
ByLayer
370
-1
48
1
60
0
100
AcDbLine
10
28.653211
20
-35.730043
30
0
11
28.653214
21
-36.519957
31
0
39
0
210
0
220
0
230
1
0
ENDBLK
5
2E3
100
AcDbEntity
8
0
100
AcDbBlockEnd
0
BLOCK
5
2E6
100
AcDbEntity
8
0
100
AcDbBlockBegin
2
_CLOSED
70
0
10
0
20
0
30
0
3
_CLOSED
0
LINE
5
2E8
100
AcDbEntity
8
0
62
256
6
ByLayer
370
-2
48
1
60
0
100
AcDbLine
10
-1
20
0.166667
30
0
11
0
21
0
31
0
39
0
210
0
220
0
230
1
0
LINE
5
2E9
100
AcDbEntity
8
0
62
256
6
ByLayer
370
-2
48
1
60
0
100
AcDbLine
10
0
20
0
30
0
11
-1
21
-0.166667
31
0
39
0
210
0
220
0
230
1
0
LINE
5
2EA
100
AcDbEntity
8
0
62
256
6
ByLayer
370
-2
48
1
60
0
100
AcDbLine
10
-1
20
0.166667
30
0
11
-1
21
-0.166667
31
0
39
0
210
0
220
0
230
1
0
LINE
5
2EB
100
AcDbEntity
8
0
62
256
6
ByLayer
370
-2
48
1
60
0
100
AcDbLine
10
0
20
0
30
0
11
-1
21
0
31
0
39
0
210
0
220
0
230
1
0
ENDBLK
5
2E7
100
AcDbEntity
8
0
100
AcDbBlockEnd
0
BLOCK
5
2F7
100
AcDbEntity
8
0
100
AcDbBlockBegin
2
DimnDraft3D2
70
0
10
0
20
0
30
0
3
DimnDraft3D2
0
MTEXT
5
2ED
100
AcDbEntity
8
2
62
256
6
ByLayer
370
-1
48
1
60
0
100
AcDbMText
10
43.496053
20
-45
30
0
210
0
220
0
230
1
1
\W01.000;\fsimplex.shx,bigfont.shx;90 
40
4.5
41
0
44
1.084337
50
0
71
7
72
5
7
DEFAULT
0
LINE
5
2EE
100
AcDbEntity
8
2
62
256
6
ByLayer
370
-1
48
1
60
0
100
AcDbLine
10
90
20
-23.375
30
0
11
90
21
-49.125
31
0
39
0
210
0
220
0
230
1
0
LINE
5
2EF
100
AcDbEntity
8
2
62
256
6
ByLayer
370
-1
48
1
60
0
100
AcDbLine
10
0
20
-1.501
30
0
11
0
21
-49.125
31
0
39
0
210
0
220
0
230
1
0
LINE
5
2F0
100
AcDbEntity
8
2
62
256
6
ByLayer
370
-1
48
1
60
0
100
AcDbLine
10
90
20
-46.125
30
0
11
0
21
-46.125
31
0
39
0
210
0
220
0
230
1
0
LINE
5
2F1
100
AcDbEntity
8
2
62
256
6
ByLayer
370
-1
48
1
60
0
100
AcDbLine
10
90
20
-46.125
30
0
11
87.000001
21
-46.519957
31
0
39
0
210
0
220
0
230
1
0
LINE
5
2F2
100
AcDbEntity
8
2
62
256
6
ByLayer
370
-1
48
1
60
0
100
AcDbLine
10
90
20
-46.125
30
0
11
86.999999
21
-45.730043
31
0
39
0
210
0
220
0
230
1
0
LINE
5
2F3
100
AcDbEntity
8
2
62
256
6
ByLayer
370
-1
48
1
60
0
100
AcDbLine
10
87.000001
20
-46.519957
30
0
11
86.999999
21
-45.730043
31
0
39
0
210
0
220
0
230
1
0
LINE
5
2F4
100
AcDbEntity
8
2
62
256
6
ByLayer
370
-1
48
1
60
0
100
AcDbLine
10
0
20
-46.125
30
0
11
2.999999
21
-45.730043
31
0
39
0
210
0
220
0
230
1
0
LINE
5
2F5
100
AcDbEntity
8
2
62
256
6
ByLayer
370
-1
48
1
60
0
100
AcDbLine
10
0
20
-46.125
30
0
11
3.000001
21
-46.519957
31
0
39
0
210
0
220
0
230
1
0
LINE
5
2F6
100
AcDbEntity
8
2
62
256
6
ByLayer
370
-1
48
1
60
0
100
AcDbLine
10
2.999999
20
-45.730043
30
0
11
3.000001
21
-46.519957
31
0
39
0
210
0
220
0
230
1
0
ENDBLK
5
2F8
100
AcDbEntity
8
0
100
AcDbBlockEnd
0
BLOCK
5
306
100
AcDbEntity
8
0
100
AcDbBlockBegin
2
DimnDraft3D3
70
0
10
0
20
0
30
0
3
DimnDraft3D3
0
MTEXT
5
2FB
100
AcDbEntity
8
SK2
62
256
6
ByLayer
370
-1
48
1
60
0
100
AcDbMText
10
-48.875
20
-3.659211
30
0
210
0
220
0
230
1
1
\W01.000;\fsimplex.shx,bigfont.shx;%%c63 
40
4.5
41
0
44
1.084337
50
90
71
7
72
5
7
DEFAULT
0
LINE
5
2FD
100
AcDbEntity
8
SK2
62
256
6
ByLayer
370
-1
48
1
60
0
100
AcDbLine
10
-1.5
20
31.5
30
0
11
-50.75
21
31.5
31
0
39
0
210
0
220
0
230
1
0
LINE
5
2FE
100
AcDbEntity
8
SK2
62
256
6
ByLayer
370
-1
48
1
60
0
100
AcDbLine
10
-1.5
20
-31.5
30
0
11
-50.75
21
-31.5
31
0
39
0
210
0
220
0
230
1
0
LINE
5
2FF
100
AcDbEntity
8
SK2
62
256
6
ByLayer
370
-1
48
1
60
0
100
AcDbLine
10
-47.75
20
31.5
30
0
11
-47.75
21
-31.5
31
0
39
0
210
0
220
0
230
1
0
LINE
5
300
100
AcDbEntity
8
SK2
62
256
6
ByLayer
370
-1
48
1
60
0
100
AcDbLine
10
-47.75
20
31.5
30
0
11
-47.355043
21
28.500001
31
0
39
0
210
0
220
0
230
1
0
LINE
5
301
100
AcDbEntity
8
SK2
62
256
6
ByLayer
370
-1
48
1
60
0
100
AcDbLine
10
-47.75
20
31.5
30
0
11
-48.144957
21
28.499999
31
0
39
0
210
0
220
0
230
1
0
LINE
5
302
100
AcDbEntity
8
SK2
62
256
6
ByLayer
370
-1
48
1
60
0
100
AcDbLine
10
-47.355043
20
28.500001
30
0
11
-48.144957
21
28.499999
31
0
39
0
210
0
220
0
230
1
0
LINE
5
303
100
AcDbEntity
8
SK2
62
256
6
ByLayer
370
-1
48
1
60
0
100
AcDbLine
10
-47.75
20
-31.5
30
0
11
-48.144957
21
-28.500001
31
0
39
0
210
0
220
0
230
1
0
LINE
5
304
100
AcDbEntity
8
SK2
62
256
6
ByLayer
370
-1
48
1
60
0
100
AcDbLine
10
-47.75
20
-31.5
30
0
11
-47.355043
21
-28.499999
31
0
39
0
210
0
220
0
230
1
0
LINE
5
305
100
AcDbEntity
8
SK2
62
256
6
ByLayer
370
-1
48
1
60
0
100
AcDbLine
10
-48.144957
20
-28.500001
30
0
11
-47.355043
21
-28.499999
31
0
39
0
210
0
220
0
230
1
0
ENDBLK
5
307
100
AcDbEntity
8
0
100
AcDbBlockEnd
0
BLOCK
5
314
100
AcDbEntity
8
0
100
AcDbBlockBegin
2
DimnDraft3D4
70
0
10
0
20
0
30
0
3
DimnDraft3D4
0
MTEXT
5
30A
100
AcDbEntity
8
2
62
256
6
ByLayer
370
-1
48
1
60
0
100
AcDbMText
10
103.125
20
-12.441447
30
0
210
0
220
0
230
1
1
\W01.000;\fsimplex.shx,bigfont.shx;22 
40
4.5
41
0
44
1.084337
50
90
71
7
72
5
7
DEFAULT
0
LINE
5
30B
100
AcDbEntity
8
2
62
256
6
ByLayer
370
-1
48
1
60
0
100
AcDbLine
10
96.5
20
0
30
0
11
107.25
21
0
31
0
39
0
210
0
220
0
230
1
0
LINE
5
30C
100
AcDbEntity
8
2
62
256
6
ByLayer
370
-1
48
1
60
0
100
AcDbLine
10
91.5
20
-21.875
30
0
11
107.25
21
-21.875
31
0
39
0
210
0
220
0
230
1
0
LINE
5
30D
100
AcDbEntity
8
2
62
256
6
ByLayer
370
-1
48
1
60
0
100
AcDbLine
10
104.25
20
0
30
0
11
104.25
21
-21.875
31
0
39
0
210
0
220
0
230
1
0
LINE
5
30E
100
AcDbEntity
8
2
62
256
6
ByLayer
370
-1
48
1
60
0
100
AcDbLine
10
104.25
20
0
30
0
11
104.644957
21
-2.999999
31
0
39
0
210
0
220
0
230
1
0
LINE
5
30F
100
AcDbEntity
8
2
62
256
6
ByLayer
370
-1
48
1
60
0
100
AcDbLine
10
104.25
20
0
30
0
11
103.855043
21
-3.000001
31
0
39
0
210
0
220
0
230
1
0
LINE
5
310
100
AcDbEntity
8
2
62
256
6
ByLayer
370
-1
48
1
60
0
100
AcDbLine
10
104.644957
20
-2.999999
30
0
11
103.855043
21
-3.000001
31
0
39
0
210
0
220
0
230
1
0
LINE
5
311
100
AcDbEntity
8
2
62
256
6
ByLayer
370
-1
48
1
60
0
100
AcDbLine
10
104.25
20
-21.875
30
0
11
103.855043
21
-18.875001
31
0
39
0
210
0
220
0
230
1
0
LINE
5
312
100
AcDbEntity
8
2
62
256
6
ByLayer
370
-1
48
1
60
0
100
AcDbLine
10
104.25
20
-21.875
30
0
11
104.644957
21
-18.874999
31
0
39
0
210
0
220
0
230
1
0
LINE
5
313
100
AcDbEntity
8
2
62
256
6
ByLayer
370
-1
48
1
60
0
100
AcDbLine
10
103.855043
20
-18.875001
30
0
11
104.644957
21
-18.874999
31
0
39
0
210
0
220
0
230
1
0
ENDBLK
5
315
100
AcDbEntity
8
0
100
AcDbBlockEnd
0
ENDSEC
0
SECTION
2
ENTITIES
0
ARC
5
16F
100
AcDbEntity
8
1
62
256
6
ByLayer
370
-1
48
1
60
0
100
AcDbCircle
39
0
10
-26.574005
20
-17.2
30
0
40
1.2
210
0
220
0
230
-1
100
AcDbArc
50
15
51
90
0
ARC
5
170
100
AcDbEntity
8
1
62
256
6
ByLayer
370
-1
48
1
60
0
100
AcDbCircle
39
0
10
-26.574005
20
17.2
30
0
40
1.2
210
0
220
0
230
-1
100
AcDbArc
50
270
51
345
0
ARC
5
171
100
AcDbEntity
8
1
62
256
6
ByLayer
370
-1
48
1
60
0
100
AcDbCircle
39
0
10
-71.341219
20
-16.8
30
0
40
0.8
210
0
220
0
230
-1
100
AcDbArc
50
90
51
140
0
ARC
5
172
100
AcDbEntity
8
1
62
256
6
ByLayer
370
-1
48
1
60
0
100
AcDbCircle
39
0
10
-71.341219
20
16.8
30
0
40
0.8
210
0
220
0
230
-1
100
AcDbArc
50
260.931278
51
270
0
ELLIPSE
5
173
100
AcDbEntity
8
1
62
256
6
ByLayer
370
-1
48
1
60
0
100
AcDbEllipse
10
87.590711
20
0
30
0
11
-19.1365554240615
21
-13.7210836170221
31
0
210
0
220
0
230
1
40
0.430064
41
-0.923307027294393
42
0.325090339141846
0
ELLIPSE
5
174
100
AcDbEntity
8
1
62
256
6
ByLayer
370
-1
48
1
60
0
100
AcDbEllipse
10
-2.347154
20
0
30
0
11
-14.7536831606569
21
-31.0932549155818
31
0
210
0
220
0
230
1
40
0.341999
41
2.05035306783698
42
2.98378646694437
0
ELLIPSE
5
175
100
AcDbEntity
8
1
62
256
6
ByLayer
370
-1
48
1
60
0
100
AcDbEllipse
10
88.094833
20
-7.17362
30
0
11
-2.65443259117893
21
-1.29855551945454
31
0
210
0
220
0
230
1
40
0.133258
41
-1.16354352656262
42
-0.880930524353771
0
ELLIPSE
5
176
100
AcDbEntity
8
1
62
256
6
ByLayer
370
-1
48
1
60
0
100
AcDbEllipse
10
74.17398
20
-10.468905
30
0
11
-1.54305676589203
21
-1.35040345545429
31
0
210
0
220
0
230
1
40
0.694577
41
-3.13074481302511
42
0.864762688453613
0
ELLIPSE
5
177
100
AcDbEntity
8
1
62
256
6
ByLayer
370
-1
48
1
60
0
100
AcDbEllipse
10
26.347154
20
0
30
0
11
-14.7536831606566
21
-31.0932549155815
31
0
210
0
220
0
230
1
40
0.341999
41
-1.09123958575282
42
-0.157806186645427
0
ELLIPSE
5
178
100
AcDbEntity
8
1
62
256
6
ByLayer
370
-1
48
1
60
0
100
AcDbEllipse
10
87.590711
20
0
30
0
11
-19.1485157712373
21
-13.7296592942944
31
0
210
0
220
0
230
1
40
0.430064
41
-1.49321476352657
42
-0.934848983945526
0
ELLIPSE
5
179
100
AcDbEntity
8
1
62
256
6
ByLayer
370
-1
48
1
60
0
100
AcDbEllipse
10
26.347154
20
0
30
0
11
-14.7536831606551
21
31.0932549155795
31
0
210
0
220
0
230
1
40
0.341999
41
0.157806186645435
42
1.09123958575287
0
ELLIPSE
5
17A
100
AcDbEntity
8
1
62
256
6
ByLayer
370
-1
48
1
60
0
100
AcDbEllipse
10
77.744664
20
-13.286369
30
0
11
-1.65306217752395
21
-0.107682693209302
31
0
210
0
220
0
230
1
40
0.965788
41
-2.19115544793743
42
-1.05525226572023
0
ELLIPSE
5
17B
100
AcDbEntity
8
1
62
256
6
ByLayer
370
-1
48
1
60
0
100
AcDbEllipse
10
78.163952
20
-11.916499
30
0
11
-2.11145701959825
21
-0.149191788241913
31
0
210
0
220
0
230
1
40
0.965764
41
0.627728021228768
42
1.11762307732672
0
ELLIPSE
5
17C
100
AcDbEntity
8
1
62
256
6
ByLayer
370
-1
48
1
60
0
100
AcDbEllipse
10
-2.347154
20
0
30
0
11
-14.7536831606568
21
31.0932549155818
31
0
210
0
220
0
230
1
40
0.341999
41
-2.98378646694437
42
-2.05035306783698
0
ELLIPSE
5
17D
100
AcDbEntity
8
1
62
256
6
ByLayer
370
-1
48
1
60
0
100
AcDbEllipse
10
76.958593
20
-12.309758
30
0
11
1.64589647751504
21
0.116296110440484
31
0
210
0
220
0
230
1
40
0.965764
41
-2.07470006325473
42
-1.75362471590289
0
ELLIPSE
5
17E
100
AcDbEntity
8
1
62
256
6
ByLayer
370
-1
48
1
60
0
100
AcDbEllipse
10
77.044877
20
-13.530904
30
0
11
-1.64651197074779
21
-0.107256010922379
31
0
210
0
220
0
230
1
40
0.965788
41
-1.50863681175301
42
1.49804507945724
0
ELLIPSE
5
17F
100
AcDbEntity
8
1
62
256
6
ByLayer
370
-1
48
1
60
0
100
AcDbEllipse
10
77.591913
20
-21.272908
30
0
11
-1.63784993064945
21
7.5419509841719
31
0
210
0
220
0
230
1
40
0.160744
41
-0.653463957999453
42
-0.242557715255714
0
ELLIPSE
5
180
100
AcDbEntity
8
1
62
256
6
ByLayer
370
-1
48
1
60
0
100
AcDbEllipse
10
76.914161
20
-11.680933
30
0
11
1.64589647751504
21
0.116296110440484
31
0
210
0
220
0
230
1
40
0.965764
41
-1.86794914054496
42
-1.3838608899812
0
ELLIPSE
5
181
100
AcDbEntity
8
1
62
256
6
ByLayer
370
-1
48
1
60
0
100
AcDbEllipse
10
76.912332
20
-11.655055
30
0
11
-1.64589647751505
21
-0.116296110440484
31
0
210
0
220
0
230
1
40
0.965764
41
0.630870826953492
42
1.50266288298155
0
ELLIPSE
5
182
100
AcDbEntity
8
1
62
256
6
ByLayer
370
-1
48
1
60
0
100
AcDbEllipse
10
76.912332
20
-11.655055
30
0
11
-1.64589647751505
21
-0.116296110440484
31
0
210
0
220
0
230
1
40
0.965764
41
1.50266288298155
42
1.75781931569008
0
ELLIPSE
5
183
100
AcDbEntity
8
1
62
256
6
ByLayer
370
-1
48
1
60
0
100
AcDbEllipse
10
82.033669
20
-10.583049
30
0
11
-2.65443259074294
21
-1.29855551925117
31
0
210
0
220
0
230
1
40
0.133258
41
-1.44615652875567
42
-1.16354352649302
0
ELLIPSE
5
184
100
AcDbEntity
8
1
62
256
6
ByLayer
370
-1
48
1
60
0
100
AcDbEllipse
10
78.208384
20
-12.545324
30
0
11
-1.99502603335156
21
-0.1409649823521
31
0
210
0
220
0
230
1
40
0.965764
41
0.699701739960708
42
1.26020625214147
0
ELLIPSE
5
185
100
AcDbEntity
8
1
62
256
6
ByLayer
370
-1
48
1
60
0
100
AcDbEllipse
10
77.223821
20
-16.062222
30
0
11
-2.24623231134596
21
9.02331703286764
31
0
210
0
220
0
230
1
40
0.041993
41
1.30212125165609
42
1.31706301691923
0
ELLIPSE
5
186
100
AcDbEntity
8
1
62
256
6
ByLayer
370
-1
48
1
60
0
100
AcDbEllipse
10
87.941358
20
-7.825287
30
0
11
0.329092877421673
21
0.0244515445386072
31
0
210
0
220
0
230
1
40
0.673036
41
1.32836245256549
42
2.14481203860289
0
ELLIPSE
5
187
100
AcDbEntity
8
1
62
256
6
ByLayer
370
-1
48
1
60
0
100
AcDbEllipse
10
88.996539
20
-18.966991
30
0
11
-0.174886668864488
21
0.279847553238336
31
0
210
0
220
0
230
1
40
0.013828
41
0.681175433582229
42
1.56219675959262
0
ELLIPSE
5
188
100
AcDbEntity
8
1
62
256
6
ByLayer
370
-1
48
1
60
0
100
AcDbEllipse
10
89.189814
20
-6.44743
30
0
11
-0.0878138722405289
21
-0.00572047569036589
31
0
210
0
220
0
230
1
40
0.965789
41
3.14157919444837
42
-2.68082561138866
0
ELLIPSE
5
189
100
AcDbEntity
8
1
62
256
6
ByLayer
370
-1
48
1
60
0
100
AcDbEllipse
10
86.810296
20
-19.601735
30
0
11
-0.704940313679708
21
-0.0225354790906941
31
0
210
0
220
0
230
1
40
0.11846
41
-1.49267477964319
42
-0.629741133709826
0
ELLIPSE
5
18A
100
AcDbEntity
8
1
62
256
6
ByLayer
370
-1
48
1
60
0
100
AcDbEllipse
10
89.533273
20
-9.775482
30
0
11
-0.352978025616443
21
0.614491680001549
31
0
210
0
220
0
230
1
40
0.052277
41
-2.40183947120476
42
-1.5389058252734
0
ELLIPSE
5
18B
100
AcDbEntity
8
1
62
256
6
ByLayer
370
-1
48
1
60
0
100
AcDbEllipse
10
88.686926
20
-19.158409
30
0
11
1.55866942272947E-17
21
0.254558441227155
31
0
210
0
220
0
230
1
40
0.999867
41
0.558493593836855
42
0.863312072454433
0
ELLIPSE
5
18C
100
AcDbEntity
8
1
62
256
6
ByLayer
370
-1
48
1
60
0
100
AcDbEllipse
10
88.830764
20
-13.083706
30
0
11
-0.143814300897886
21
0.0426315242192006
31
0
210
0
220
0
230
1
40
0.244304
41
1.66062836463021
42
1.83516128982973
0
ELLIPSE
5
18D
100
AcDbEntity
8
1
62
256
6
ByLayer
370
-1
48
1
60
0
100
AcDbEllipse
10
86.742971
20
-7.932986
30
0
11
-0.125543597399466
21
-0.294344704644063
31
0
210
0
220
0
230
1
40
0.19293
41
-1.85493786330971
42
-0.864332537322697
0
ELLIPSE
5
18E
100
AcDbEntity
8
1
62
256
6
ByLayer
370
-1
48
1
60
0
100
AcDbEllipse
10
89.994457
20
-18.107527
30
0
11
-0.00147399305993087
21
0.337784661028563
31
0
210
0
220
0
230
1
40
0.015426
41
1.29511890947001
42
1.57076270487853
0
ELLIPSE
5
18F
100
AcDbEntity
8
1
62
256
6
ByLayer
370
-1
48
1
60
0
100
AcDbEllipse
10
83.96874
20
-17.963365
30
0
11
0.125722164389597
21
-0.0818164859988206
31
0
210
0
220
0
230
1
40
0.210253
41
-2.12740956439765
42
-1.41488498587113
0
ELLIPSE
5
190
100
AcDbEntity
8
1
62
256
6
ByLayer
370
-1
48
1
60
0
100
AcDbEllipse
10
78.772069
20
-14.492875
30
0
11
-0.166646788342777
21
0.284831262215084
31
0
210
0
220
0
230
1
40
0.020796
41
1.11052133152952
42
1.99154265753827
0
ELLIPSE
5
191
100
AcDbEntity
8
1
62
256
6
ByLayer
370
-1
48
1
60
0
100
AcDbEllipse
10
89.999831
20
-12.969559
30
0
11
-0.000654095716064406
21
0.150104692414024
31
0
210
0
220
0
230
1
40
0.016273
41
-2.54496627473374
42
-1.83244169600113
0
ELLIPSE
5
192
100
AcDbEntity
8
1
62
256
6
ByLayer
370
-1
48
1
60
0
100
AcDbEllipse
10
82.701173
20
-11.343613
30
0
11
0.0357259918071444
21
-0.145683401626252
31
0
210
0
220
0
230
1
40
0.046814
41
-1.487119247918
42
-1.31258632271837
0
ELLIPSE
5
193
100
AcDbEntity
8
1
62
256
6
ByLayer
370
-1
48
1
60
0
100
AcDbEllipse
10
87.516326
20
-7.495358
30
0
11
-0.239377603620175
21
0.0826540724374987
31
0
210
0
220
0
230
1
40
0.911082
41
-1.28340322761036
42
-0.744664108391405
0
ELLIPSE
5
194
100
AcDbEntity
8
1
62
256
6
ByLayer
370
-1
48
1
60
0
100
AcDbEllipse
10
78.460449
20
-14.675195
30
0
11
0.166646788342777
21
-0.284831262215084
31
0
210
0
220
0
230
1
40
0.020796
41
-2.03107132206024
42
-1.15004999605153
0
ELLIPSE
5
195
100
AcDbEntity
8
1
62
256
6
ByLayer
370
-1
48
1
60
0
100
AcDbEllipse
10
89.999831
20
-14.465493
30
0
11
-0.000592402743824918
21
0.165729210858118
31
0
210
0
220
0
230
1
40
0.014833
41
-1.80726703619933
42
-1.1016808470864
0
ELLIPSE
5
196
100
AcDbEntity
8
1
62
256
6
ByLayer
370
-1
48
1
60
0
100
AcDbEllipse
10
79.01006
20
-15.711229
30
0
11
-0.289259152992842
21
0.16906948717168
31
0
210
0
220
0
230
1
40
0.207991
41
-1.45829793206045
42
-1.18265417033822
0
ELLIPSE
5
197
100
AcDbEntity
8
1
62
256
6
ByLayer
370
-1
48
1
60
0
100
AcDbEllipse
10
85.223552
20
-13.703454
30
0
11
-3.00359442768437
21
-0.19566371996698
31
0
210
0
220
0
230
1
40
0.965789
41
-0.220303902658781
42
0
0
ELLIPSE
5
198
100
AcDbEntity
8
1
62
256
6
ByLayer
370
-1
48
1
60
0
100
AcDbEllipse
10
85.223552
20
-13.703454
30
0
11
-3.00359442768437
21
-0.19566371996698
31
0
210
0
220
0
230
1
40
0.965789
41
0
42
0.371395246320572
0
ELLIPSE
5
199
100
AcDbEntity
8
1
62
256
6
ByLayer
370
-1
48
1
60
0
100
AcDbEllipse
10
85.223552
20
-13.703454
30
0
11
-3.00359442768437
21
-0.19566371996698
31
0
210
0
220
0
230
1
40
0.965789
41
2.07963614906329
42
-2.92128857577828
0
ELLIPSE
5
19A
100
AcDbEntity
8
1
62
256
6
ByLayer
370
-1
48
1
60
0
100
AcDbEllipse
10
78.308316
20
-13.541619
30
0
11
-0.120148037018191
21
-0.0531314302280153
31
0
210
0
220
0
230
1
40
0.908072
41
1.2018148059321
42
2.23387201348544
0
ELLIPSE
5
19B
100
AcDbEntity
8
1
62
256
6
ByLayer
370
-1
48
1
60
0
100
AcDbEllipse
10
87.985002
20
-7.746339
30
0
11
0.222782340523559
21
-0.12315855126967
31
0
210
0
220
0
230
1
40
0.903036
41
-3.00107000587245
42
-2.69625135559554
0
ELLIPSE
5
19C
100
AcDbEntity
8
1
62
256
6
ByLayer
370
-1
48
1
60
0
100
AcDbEllipse
10
89.185064
20
-8.750084
30
0
11
-0.172351874606673
21
0.0595109321317919
31
0
210
0
220
0
230
1
40
0.911082
41
-2.31546043530403
42
-1.37191211668785
0
ELLIPSE
5
19D
100
AcDbEntity
8
1
62
256
6
ByLayer
370
-1
48
1
60
0
100
AcDbEllipse
10
89.994457
20
-17.879656
30
0
11
-0.000910734198432342
21
0.382239909495857
31
0
210
0
220
0
230
1
40
0.013965
41
0.411204772692676
42
1.40181009826126
0
ELLIPSE
5
19E
100
AcDbEntity
8
1
62
256
6
ByLayer
370
-1
48
1
60
0
100
AcDbEllipse
10
83.359913
20
-9.669211
30
0
11
-0.143360189768826
21
-0.0848352941019057
31
0
210
0
220
0
230
1
40
0.209444
41
0.759403634587984
42
1.46498982432067
0
ELLIPSE
5
19F
100
AcDbEntity
8
1
62
256
6
ByLayer
370
-1
48
1
60
0
100
AcDbEllipse
10
89.304402
20
-19.155669
30
0
11
0.286515006649981
21
-0.163735002257799
31
0
210
0
220
0
230
1
40
0.008111
41
-1.58491693353026
42
-1.23585108313236
0
ELLIPSE
5
1A0
100
AcDbEntity
8
1
62
256
6
ByLayer
370
-1
48
1
60
0
100
AcDbEllipse
10
88.996539
20
-18.966991
30
0
11
-0.172437766515787
21
-0.281363140228152
31
0
210
0
220
0
230
1
40
0.013865
41
-2.44327850907677
42
-1.56225718306743
0
ELLIPSE
5
1A1
100
AcDbEntity
8
1
62
256
6
ByLayer
370
-1
48
1
60
0
100
AcDbEllipse
10
83.745755
20
-16.914205
30
0
11
0.105854520827012
21
0.106277092642223
31
0
210
0
220
0
230
1
40
0.19749
41
-1.91763486850097
42
-1.74310194330153
0
ELLIPSE
5
1A2
100
AcDbEntity
8
1
62
256
6
ByLayer
370
-1
48
1
60
0
100
AcDbEllipse
10
86.742971
20
-7.932986
30
0
11
0.176329317764098
21
0.267035525158822
31
0
210
0
220
0
230
1
40
0.03732
41
1.12825396992079
42
2.29821777815365
0
ELLIPSE
5
1A3
100
AcDbEntity
8
1
62
256
6
ByLayer
370
-1
48
1
60
0
100
AcDbEllipse
10
88.369017
20
-19.843767
30
0
11
-0.000586137710793542
21
0.134584627012021
31
0
210
0
220
0
230
1
40
0.965798
41
-1.03204889675121
42
8.31081338109483E-06
0
ELLIPSE
5
1A4
100
AcDbEntity
8
1
62
256
6
ByLayer
370
-1
48
1
60
0
100
AcDbEllipse
10
89.68311
20
-9.580301
30
0
11
0.249471227956048
21
0.0162513513930855
31
0
210
0
220
0
230
1
40
0.965789
41
1.31917329532637E-06
42
0.460767042201286
0
ELLIPSE
5
1A5
100
AcDbEntity
8
1
62
256
6
ByLayer
370
-1
48
1
60
0
100
AcDbEllipse
10
77.390722
20
-12.793703
30
0
11
-0.0878138722405259
21
-0.00572047569036569
31
0
210
0
220
0
230
1
40
0.965789
41
-0.58643050899541
42
-1.16283422731301E-05
0
ELLIPSE
5
1A6
100
AcDbEntity
8
1
62
256
6
ByLayer
370
-1
48
1
60
0
100
AcDbEllipse
10
78.721586
20
-14.414338
30
0
11
0.214135434812113
21
0.137644526072875
31
0
210
0
220
0
230
1
40
0.895737
41
-1.61758975637603
42
-0.509329721976623
0
ELLIPSE
5
1A7
100
AcDbEntity
8
1
62
256
6
ByLayer
370
-1
48
1
60
0
100
AcDbEllipse
10
78.433217
20
-15.084554
30
0
11
-0.231053917343285
21
-0.102175827351271
31
0
210
0
220
0
230
1
40
0.908072
41
0.124336567497364
42
0.66307568673364
0
ELLIPSE
5
1A8
100
AcDbEntity
8
1
62
256
6
ByLayer
370
-1
48
1
60
0
100
AcDbEllipse
10
87.978758
20
-8.079157
30
0
11
0.222782340523559
21
-0.12315855126967
31
0
210
0
220
0
230
1
40
0.903036
41
-2.69625135559555
42
-1.58799132119608
0
ELLIPSE
5
1A9
100
AcDbEntity
8
1
62
256
6
ByLayer
370
-1
48
1
60
0
100
AcDbEllipse
10
79.876591
20
-11.586741
30
0
11
-0.140264069721094
21
-0.24030257450637
31
0
210
0
220
0
230
1
40
0.078706
41
0.512153286567
42
0.938728401984972
0
ELLIPSE
5
1AA
100
AcDbEntity
8
1
62
256
6
ByLayer
370
-1
48
1
60
0
100
AcDbEllipse
10
79.189619
20
-15.549209
30
0
11
0.3187160302586
21
0.0286372494523998
31
0
210
0
220
0
230
1
40
0.189541
41
0.623798962615147
42
1.61440428860234
0
ELLIPSE
5
1AB
100
AcDbEntity
8
1
62
256
6
ByLayer
370
-1
48
1
60
0
100
AcDbEllipse
10
89.300994
20
-19.155729
30
0
11
1.55866942272947E-17
21
0.254558441227155
31
0
210
0
220
0
230
1
40
0.999867
41
-0.854585258752984
42
-0.549766437173623
0
ELLIPSE
5
1AC
100
AcDbEntity
8
1
62
256
6
ByLayer
370
-1
48
1
60
0
100
AcDbEllipse
10
85.66482
20
-8.373575
30
0
11
-0.152152475728725
21
-0.0895179785054412
31
0
210
0
220
0
230
1
40
0.197758
41
1.47147641476655
42
2.41395421090195
0
ELLIPSE
5
1AD
100
AcDbEntity
8
1
62
256
6
ByLayer
370
-1
48
1
60
0
100
AcDbEllipse
10
89.121918
20
-7.780744
30
0
11
-0.179619284128355
21
-0.0117009730030212
31
0
210
0
220
0
230
1
40
0.965789
41
-2.68082561138854
42
-2.39034587768744
0
ELLIPSE
5
1AE
100
AcDbEntity
8
1
62
256
6
ByLayer
370
-1
48
1
60
0
100
AcDbEllipse
10
79.189619
20
-15.549209
30
0
11
-0.214373568568198
21
0.237579403777635
31
0
210
0
220
0
230
1
40
0.080191
41
-1.39228185157714
42
-1.11663809063036
0
ELLIPSE
5
1AF
100
AcDbEntity
8
1
62
256
6
ByLayer
370
-1
48
1
60
0
100
AcDbEllipse
10
78.767483
20
-14.160105
30
0
11
-0.0259338634078615
21
0.328979383440273
31
0
210
0
220
0
230
1
40
0.228524
41
0.819228148582117
42
1.16829399898105
0
ELLIPSE
5
1B0
100
AcDbEntity
8
1
62
256
6
ByLayer
370
-1
48
1
60
0
100
AcDbEllipse
10
79.009267
20
-12.600279
30
0
11
-0.166358820482324
21
-0.0735665957014244
31
0
210
0
220
0
230
1
40
0.908072
41
-1.85126895872965
42
-0.907720640106612
0
ELLIPSE
5
1B1
100
AcDbEntity
8
1
62
256
6
ByLayer
370
-1
48
1
60
0
100
AcDbEllipse
10
78.171429
20
-14.207093
30
0
11
-0.280790684040503
21
-0.173368370114235
31
0
210
0
220
0
230
1
40
0.444526
41
-1.56272537110598
42
-1.21365952070713
0
ELLIPSE
5
1B2
100
AcDbEntity
8
1
62
256
6
ByLayer
370
-1
48
1
60
0
100
AcDbEllipse
10
78.460449
20
-14.675195
30
0
11
-0.280790684040503
21
-0.173368370114235
31
0
210
0
220
0
230
1
40
0.444526
41
-1.56272537110594
42
-1.21365952070708
0
ELLIPSE
5
1B3
100
AcDbEntity
8
1
62
256
6
ByLayer
370
-1
48
1
60
0
100
AcDbEllipse
10
88.248392
20
-8.337698
30
0
11
0.164123276904415
21
0.286292769692419
31
0
210
0
220
0
230
1
40
0.007386
41
1.12684352003355
42
2.00786484604107
0
ELLIPSE
5
1B4
100
AcDbEntity
8
1
62
256
6
ByLayer
370
-1
48
1
60
0
100
AcDbEllipse
10
89.001783
20
-20.485321
30
0
11
-0.000396770149685368
21
0.0911034398251141
31
0
210
0
220
0
230
1
40
0.965798
41
-3.14158434285014
42
-2.10952713529675
0
ELLIPSE
5
1B5
100
AcDbEntity
8
1
62
256
6
ByLayer
370
-1
48
1
60
0
100
AcDbEllipse
10
77.392761
20
-12.790283
30
0
11
-0.0878138722405289
21
-0.00572047569036589
31
0
210
0
220
0
230
1
40
0.965789
41
-1.61848771655667
42
-0.586430508995427
0
ELLIPSE
5
1B6
100
AcDbEntity
8
1
62
256
6
ByLayer
370
-1
48
1
60
0
100
AcDbEllipse
10
87.184428
20
-19.717999
30
0
11
-0.000811575263424455
21
0.186347945098087
31
0
210
0
220
0
230
1
40
0.965798
41
2.19805264594956
42
-3.14158434262944
0
ELLIPSE
5
1B7
100
AcDbEntity
8
1
62
256
6
ByLayer
370
-1
48
1
60
0
100
AcDbEllipse
10
77.459289
20
-13.811547
30
0
11
-0.0813309789091265
21
-0.0359658912274626
31
0
210
0
220
0
230
1
40
0.908072
41
-1.93977784758062
42
-0.907720640059168
0
ELLIPSE
5
1B8
100
AcDbEntity
8
1
62
256
6
ByLayer
370
-1
48
1
60
0
100
AcDbEllipse
10
78.908088
20
-14.305221
30
0
11
-0.832437249541949
21
-0.48822979459135
31
0
210
0
220
0
230
1
40
0.306363
41
0.00695489505249612
42
0.823404481093261
0
ELLIPSE
5
1B9
100
AcDbEntity
8
1
62
256
6
ByLayer
370
-1
48
1
60
0
100
AcDbEllipse
10
78.244599
20
-12.56351
30
0
11
0.129725038537145
21
0.00845070272440443
31
0
210
0
220
0
230
1
40
0.965789
41
-1.61848771655667
42
-0.586430508995435
0
ELLIPSE
5
1BA
100
AcDbEntity
8
1
62
256
6
ByLayer
370
-1
48
1
60
0
100
AcDbEllipse
10
88.999689
20
-19.688877
30
0
11
0.286515006649981
21
-0.163735002257799
31
0
210
0
220
0
230
1
40
0.008111
41
-1.58491693353031
42
-1.23585108313126
0
ELLIPSE
5
1BB
100
AcDbEntity
8
1
62
256
6
ByLayer
370
-1
48
1
60
0
100
AcDbEllipse
10
88.657629
20
-13.667764
30
0
11
-0.143814300897886
21
0.0426315242192006
31
0
210
0
220
0
230
1
40
0.244304
41
1.66062836463021
42
1.83516128982962
0
ELLIPSE
5
1BC
100
AcDbEntity
8
1
62
256
6
ByLayer
370
-1
48
1
60
0
100
AcDbEllipse
10
90.036153
20
-10.5999
30
0
11
-0.140714193138282
21
0.239169976965256
31
0
210
0
220
0
230
1
40
0.063581
41
0.753835096669761
42
1.18041021194632
0
ELLIPSE
5
1BD
100
AcDbEntity
8
1
62
256
6
ByLayer
370
-1
48
1
60
0
100
AcDbEllipse
10
78.772069
20
-14.492875
30
0
11
0.329968661514939
21
0.00454779265573912
31
0
210
0
220
0
230
1
40
0.388155
41
0.92721856683529
42
1.80823989284473
0
ELLIPSE
5
1BE
100
AcDbEntity
8
1
62
256
6
ByLayer
370
-1
48
1
60
0
100
AcDbEllipse
10
88.690335
20
-19.158349
30
0
11
0.174886668864488
21
-0.279847553238335
31
0
210
0
220
0
230
1
40
0.013828
41
-2.46041722000754
42
-1.57939589399718
0
ELLIPSE
5
1BF
100
AcDbEntity
8
1
62
256
6
ByLayer
370
-1
48
1
60
0
100
AcDbEllipse
10
87.83329
20
-19.715167
30
0
11
-0.000811575295394573
21
0.186347945096237
31
0
210
0
220
0
230
1
40
0.965798
41
-3.14158434279488
42
-2.19803602418944
0
ELLIPSE
5
1C0
100
AcDbEntity
8
1
62
256
6
ByLayer
370
-1
48
1
60
0
100
AcDbEllipse
10
83.426218
20
-10.570999
30
0
11
-0.149596176921153
21
-0.0109992659107361
31
0
210
0
220
0
230
1
40
0.259322
41
0.86304655373875
42
1.56863274343706
0
ELLIPSE
5
1C1
100
AcDbEntity
8
1
62
256
6
ByLayer
370
-1
48
1
60
0
100
AcDbEllipse
10
88.993131
20
-18.967051
30
0
11
1.55866942272947E-17
21
0.254558441227155
31
0
210
0
220
0
230
1
40
0.999867
41
-0.549766437173623
42
0.558493593836956
0
ELLIPSE
5
1C2
100
AcDbEntity
8
1
62
256
6
ByLayer
370
-1
48
1
60
0
100
AcDbEllipse
10
87.97502
20
-8.278345
30
0
11
-0.00595811942130369
21
-0.890176669410281
31
0
210
0
220
0
230
1
40
0.362985
41
3.11879900341393
42
-2.34793671773498
0
ELLIPSE
5
1C3
100
AcDbEntity
8
1
62
256
6
ByLayer
370
-1
48
1
60
0
100
AcDbEllipse
10
89.254304
20
-7.465291
30
0
11
-0.084260916474121
21
0.029094233486715
31
0
210
0
220
0
230
1
40
0.911082
41
-2.31546043530436
42
-1.28340322773339
0
ELLIPSE
5
1C4
100
AcDbEntity
8
1
62
256
6
ByLayer
370
-1
48
1
60
0
100
AcDbEllipse
10
89.027571
20
-8.250731
30
0
11
-0.124476353884444
21
0.0429801176489684
31
0
210
0
220
0
230
1
40
0.911082
41
-0.205924989289463
42
0.82613221827086
0
ELLIPSE
5
1C5
100
AcDbEntity
8
1
62
256
6
ByLayer
370
-1
48
1
60
0
100
AcDbEllipse
10
88.999689
20
-19.688877
30
0
11
-0.329991143274648
21
-0.00241771799247096
31
0
210
0
220
0
230
1
40
0.178986
41
1.25353512295924
42
1.85495451927009
0
ELLIPSE
5
1C6
100
AcDbEntity
8
1
62
256
6
ByLayer
370
-1
48
1
60
0
100
AcDbEllipse
10
83.310641
20
-11.194153
30
0
11
0.0357259918071444
21
-0.145683401626252
31
0
210
0
220
0
230
1
40
0.046814
41
-1.48711924791818
42
-1.31258632271892
0
ELLIPSE
5
1C7
100
AcDbEntity
8
1
62
256
6
ByLayer
370
-1
48
1
60
0
100
AcDbEllipse
10
85.219312
20
-13.638373
30
0
11
-2.91486949082833
21
-0.189883894622026
31
0
210
0
220
0
230
1
40
0.965789
41
-0.440509960029921
42
0
0
ELLIPSE
5
1C8
100
AcDbEntity
8
1
62
256
6
ByLayer
370
-1
48
1
60
0
100
AcDbEllipse
10
85.219312
20
-13.638373
30
0
11
-2.91486949082833
21
-0.189883894622026
31
0
210
0
220
0
230
1
40
0.965789
41
0
42
0.591306881925021
0
ELLIPSE
5
1C9
100
AcDbEntity
8
1
62
256
6
ByLayer
370
-1
48
1
60
0
100
AcDbEllipse
10
85.219312
20
-13.638373
30
0
11
-2.91486949082833
21
-0.189883894622026
31
0
210
0
220
0
230
1
40
0.965789
41
2.57777504098303
42
-2.70108219353849
0
ELLIPSE
5
1CA
100
AcDbEntity
8
1
62
256
6
ByLayer
370
-1
48
1
60
0
100
AcDbEllipse
10
89.446349
20
-8.322189
30
0
11
-0.179619284128355
21
-0.0117009730030212
31
0
210
0
220
0
230
1
40
0.965789
41
3.14158154768325
42
-2.68082561138853
0
ELLIPSE
5
1CB
100
AcDbEntity
8
1
62
256
6
ByLayer
370
-1
48
1
60
0
100
AcDbEllipse
10
78.684837
20
-13.144555
30
0
11
-0.166358820471316
21
-0.0735665957130232
31
0
210
0
220
0
230
1
40
0.908072
41
-0.907720640207939
42
0.0358276784246385
0
ELLIPSE
5
1CC
100
AcDbEntity
8
1
62
256
6
ByLayer
370
-1
48
1
60
0
100
AcDbEllipse
10
78.724331
20
-14.613498
30
0
11
-0.000207326154573749
21
-0.890157524689566
31
0
210
0
220
0
230
1
40
0.360082
41
2.35360549926086
42
-3.11313022187946
0
ELLIPSE
5
1CD
100
AcDbEntity
8
1
62
256
6
ByLayer
370
-1
48
1
60
0
100
AcDbEllipse
10
79.189619
20
-15.549209
30
0
11
-0.319437373112233
21
0.0189674631713366
31
0
210
0
220
0
230
1
40
0.372092
41
-2.47552078441323
42
-1.30555697618065
0
ELLIPSE
5
1CE
100
AcDbEntity
8
1
62
256
6
ByLayer
370
-1
48
1
60
0
100
AcDbEllipse
10
83.129793
20
-17.131521
30
0
11
0.0824075344049267
21
-0.125335542737489
31
0
210
0
220
0
230
1
40
0.131471
41
-1.34334808187606
42
-0.637761892177395
0
ELLIPSE
5
1CF
100
AcDbEntity
8
1
62
256
6
ByLayer
370
-1
48
1
60
0
100
AcDbEllipse
10
89.256343
20
-7.468693
30
0
11
-0.0842609164736821
21
0.0290942334877555
31
0
210
0
220
0
230
1
40
0.911082
41
2.93566766432756
42
-2.31546043528495
0
ELLIPSE
5
1D0
100
AcDbEntity
8
1
62
256
6
ByLayer
370
-1
48
1
60
0
100
AcDbEllipse
10
78.171429
20
-14.207093
30
0
11
0.12671433357778
21
0.304702277093459
31
0
210
0
220
0
230
1
40
0.542683
41
1.00999969353905
42
1.6114190898499
0
ELLIPSE
5
1D1
100
AcDbEntity
8
1
62
256
6
ByLayer
370
-1
48
1
60
0
100
AcDbEllipse
10
88.542053
20
-7.867053
30
0
11
0.279970847001597
21
-0.17468922356347
31
0
210
0
220
0
230
1
40
0.429075
41
1.24442079787166
42
1.59348664827052
0
ELLIPSE
5
1D2
100
AcDbEntity
8
1
62
256
6
ByLayer
370
-1
48
1
60
0
100
AcDbEllipse
10
89.176381
20
-18.852472
30
0
11
-0.818470076651426
21
-0.511508916888369
31
0
210
0
220
0
230
1
40
0.341899
41
-0.826936493212452
42
-0.0104869071737688
0
ELLIPSE
5
1D3
100
AcDbEntity
8
1
62
256
6
ByLayer
370
-1
48
1
60
0
100
AcDbEllipse
10
88.999689
20
-19.688877
30
0
11
-0.285075263893942
21
-0.166229040530827
31
0
210
0
220
0
230
1
40
0.008173
41
-1.55671124383619
42
-1.20764539343792
0
ELLIPSE
5
1D4
100
AcDbEntity
8
1
62
256
6
ByLayer
370
-1
48
1
60
0
100
AcDbEllipse
10
89.764296
20
-18.030832
30
0
11
0.150248298124002
21
-0.282533978329759
31
0
210
0
220
0
230
1
40
0.014394
41
-2.74837435944359
42
-1.57841055121133
0
ELLIPSE
5
1D5
100
AcDbEntity
8
1
62
256
6
ByLayer
370
-1
48
1
60
0
100
AcDbEllipse
10
86.489111
20
-7.82471
30
0
11
-0.33580485893146
21
-0.201414936972916
31
0
210
0
220
0
230
1
40
0.189826
41
-1.7181554722202
42
-0.727550146212729
0
ELLIPSE
5
1D6
100
AcDbEntity
8
1
62
256
6
ByLayer
370
-1
48
1
60
0
100
AcDbEllipse
10
89.764296
20
-18.030832
30
0
11
-0.175677408214765
21
0.267464854220032
31
0
210
0
220
0
230
1
40
0.203761
41
-1.39268532020124
42
-0.402079994214023
0
ELLIPSE
5
1D7
100
AcDbEntity
8
1
62
256
6
ByLayer
370
-1
48
1
60
0
100
AcDbEllipse
10
78.717
20
-14.081568
30
0
11
0.214135434812113
21
0.137644526072875
31
0
210
0
220
0
230
1
40
0.895737
41
-0.509329721976609
42
-0.204511071699704
0
ELLIPSE
5
1D8
100
AcDbEntity
8
1
62
256
6
ByLayer
370
-1
48
1
60
0
100
AcDbEllipse
10
89.149569
20
-8.454334
30
0
11
-0.124476353883074
21
0.0429801176513418
31
0
210
0
220
0
230
1
40
0.911082
41
0.826132218294221
42
1.76968053690463
0
ELLIPSE
5
1D9
100
AcDbEntity
8
1
62
256
6
ByLayer
370
-1
48
1
60
0
100
AcDbEllipse
10
88.248392
20
-8.337698
30
0
11
0.279970847001597
21
-0.17468922356347
31
0
210
0
220
0
230
1
40
0.429075
41
1.24442079787157
42
1.59348664827039
0
ELLIPSE
5
1DA
100
AcDbEntity
8
1
62
256
6
ByLayer
370
-1
48
1
60
0
100
AcDbEllipse
10
82.35428
20
-17.641417
30
0
11
-0.143517613692228
21
0.0843322544309913
31
0
210
0
220
0
230
1
40
0.195042
41
1.70241255336509
42
2.40799874310558
0
ELLIPSE
5
1DB
100
AcDbEntity
8
1
62
256
6
ByLayer
370
-1
48
1
60
0
100
AcDbEllipse
10
79.214334
20
-15.824273
30
0
11
-0.336670865993372
21
0.199900719034771
31
0
210
0
220
0
230
1
40
0.176549
41
-2.39098586531665
42
-1.400380539347
0
ELLIPSE
5
1DC
100
AcDbEntity
8
1
62
256
6
ByLayer
370
-1
48
1
60
0
100
AcDbEllipse
10
87.941358
20
-7.825287
30
0
11
0.02288910204625
21
0.329205238426603
31
0
210
0
220
0
230
1
40
0.196789
41
-1.1707595500269
42
-0.821693699627987
0
ELLIPSE
5
1DD
100
AcDbEntity
8
1
62
256
6
ByLayer
370
-1
48
1
60
0
100
AcDbEllipse
10
89.752396
20
-10.643896
30
0
11
0.249471227956048
21
0.0162513513930855
31
0
210
0
220
0
230
1
40
0.965789
41
-0.0628317333970432
42
0.0333040443272604
0
ELLIPSE
5
1DE
100
AcDbEntity
8
1
62
256
6
ByLayer
370
-1
48
1
60
0
100
AcDbEllipse
10
87.941358
20
-7.825287
30
0
11
-0.329941928492634
21
0.00619062376193207
31
0
210
0
220
0
230
1
40
0.387666
41
-1.7729090356274
42
-0.891887709618062
0
ELLIPSE
5
1DF
100
AcDbEntity
8
1
62
256
6
ByLayer
370
-1
48
1
60
0
100
AcDbEllipse
10
89.999831
20
-17.036648
30
0
11
-0.000560354040795123
21
0.175204025599733
31
0
210
0
220
0
230
1
40
0.014074
41
-2.73672801781786
42
-1.79425022181316
0
ELLIPSE
5
1E0
100
AcDbEntity
8
1
62
256
6
ByLayer
370
-1
48
1
60
0
100
AcDbEllipse
10
88.690335
20
-19.158349
30
0
11
-0.285075263893942
21
-0.166229040530827
31
0
210
0
220
0
230
1
40
0.008173
41
-1.55671124383614
42
-1.20764539343708
0
ELLIPSE
5
1E1
100
AcDbEntity
8
1
62
256
6
ByLayer
370
-1
48
1
60
0
100
AcDbEllipse
10
79.373711
20
-12.448863
30
0
11
-0.352030382732464
21
-0.578101923530843
31
0
210
0
220
0
230
1
40
0.071322
41
-2.60919099825775
42
-1.74625735231058
0
ELLIPSE
5
1E2
100
AcDbEntity
8
1
62
256
6
ByLayer
370
-1
48
1
60
0
100
AcDbEllipse
10
83.695307
20
-18.383532
30
0
11
-0.128945792939867
21
0.0768529686690275
31
0
210
0
220
0
230
1
40
0.215846
41
1.00566648800325
42
1.71819106659005
0
ELLIPSE
5
1E3
100
AcDbEntity
8
1
62
256
6
ByLayer
370
-1
48
1
60
0
100
AcDbEllipse
10
85.94343
20
-19.386207
30
0
11
0.249471227956048
21
0.0162513513930855
31
0
210
0
220
0
230
1
40
0.965789
41
-2.15722683579026
42
-2.06109105806605
0
ELLIPSE
5
1E4
100
AcDbEntity
8
1
62
256
6
ByLayer
370
-1
48
1
60
0
100
AcDbEllipse
10
89.742559
20
-18.859672
30
0
11
-0.00112718821124672
21
0.258816590448844
31
0
210
0
220
0
230
1
40
0.965798
41
-2.10952713636272
42
-1.57078801720979
0
ELLIPSE
5
1E5
100
AcDbEntity
8
1
62
256
6
ByLayer
370
-1
48
1
60
0
100
AcDbEllipse
10
87.791263
20
-7.971672
30
0
11
-0.837564038346889
21
0.479739159378452
31
0
210
0
220
0
230
1
40
0.308746
41
2.31350331953672
42
3.1299529055791
0
ELLIPSE
5
1E6
100
AcDbEntity
8
1
62
256
6
ByLayer
370
-1
48
1
60
0
100
AcDbEllipse
10
79.081064
20
-14.585376
30
0
11
-1.53630689168931
21
0.724448865230887
31
0
210
0
220
0
230
1
40
0.188839
41
-0.319063412219119
42
0.282355984097054
0
ELLIPSE
5
1E7
100
AcDbEntity
8
1
62
256
6
ByLayer
370
-1
48
1
60
0
100
AcDbEllipse
10
80.049373
20
-16.365898
30
0
11
-0.152300321261016
21
0.0888973533521152
31
0
210
0
220
0
230
1
40
0.184283
41
0.751981040693924
42
1.69445883669999
0
ELLIPSE
5
1E8
100
AcDbEntity
8
1
62
256
6
ByLayer
370
-1
48
1
60
0
100
AcDbEllipse
10
89.509494
20
-9.291528
30
0
11
-0.172351874601484
21
0.0595109321350974
31
0
210
0
220
0
230
1
40
0.911082
41
3.02417655328999
42
-2.31546043526612
0
ELLIPSE
5
1E9
100
AcDbEntity
8
1
62
256
6
ByLayer
370
-1
48
1
60
0
100
AcDbEllipse
10
78.767483
20
-14.160105
30
0
11
0.328515456278559
21
-0.0312665154133018
31
0
210
0
220
0
230
1
40
0.671
41
1.04060477834368
42
1.85705436438112
0
ELLIPSE
5
1EA
100
AcDbEntity
8
1
62
256
6
ByLayer
370
-1
48
1
60
0
100
AcDbEllipse
10
88.542053
20
-7.867053
30
0
11
0.02288910204625
21
0.329205238426603
31
0
210
0
220
0
230
1
40
0.196789
41
-1.17075955002676
42
-0.821693699627937
0
ELLIPSE
5
1EB
100
AcDbEntity
8
1
62
256
6
ByLayer
370
-1
48
1
60
0
100
AcDbEllipse
10
82.257758
20
-10.860238
30
0
11
-0.131634364356025
21
-0.0719193584550448
31
0
210
0
220
0
230
1
40
0.236597
41
1.46129512665364
42
2.17381970518001
0
ELLIPSE
5
1EC
100
AcDbEntity
8
1
62
256
6
ByLayer
370
-1
48
1
60
0
100
AcDbEllipse
10
78.621691
20
-12.175216
30
0
11
-0.179619284128355
21
-0.0117009730030212
31
0
210
0
220
0
230
1
40
0.965789
41
-0.586430508995321
42
-9.08050261281722E-07
0
ELLIPSE
5
1ED
100
AcDbEntity
8
1
62
256
6
ByLayer
370
-1
48
1
60
0
100
AcDbEllipse
10
89.764296
20
-18.030832
30
0
11
-0.101161855390478
21
-0.303588996859168
31
0
210
0
220
0
230
1
40
0.015437
41
-1.84125864988403
42
-1.56561488893599
0
ELLIPSE
5
1EE
100
AcDbEntity
8
1
62
256
6
ByLayer
370
-1
48
1
60
0
100
AcDbEllipse
10
78.171429
20
-14.207093
30
0
11
-0.0259338634078615
21
0.328979383440273
31
0
210
0
220
0
230
1
40
0.228524
41
0.819228148582355
42
1.16829399898114
0
ELLIPSE
5
1EF
100
AcDbEntity
8
1
62
256
6
ByLayer
370
-1
48
1
60
0
100
AcDbEllipse
10
87.935114
20
-8.158105
30
0
11
-0.164123276904415
21
-0.286292769692419
31
0
210
0
220
0
230
1
40
0.007386
41
-2.01474913355628
42
-1.13372780755153
0
ELLIPSE
5
1F0
100
AcDbEntity
8
1
62
256
6
ByLayer
370
-1
48
1
60
0
100
AcDbEllipse
10
77.45725
20
-13.814967
30
0
11
-0.0813309789078896
21
-0.0359658912276622
31
0
210
0
220
0
230
1
40
0.908072
41
-0.907720640039183
42
0.124336567508478
0
ELLIPSE
5
1F1
100
AcDbEntity
8
1
62
256
6
ByLayer
370
-1
48
1
60
0
100
AcDbEllipse
10
88.991235
20
-18.534955
30
0
11
-0.00804175809604783
21
1.84310051249051
31
0
210
0
220
0
230
1
40
0.179021
41
2.84088306243609
42
-2.84088284842693
0
ELLIPSE
5
1F2
100
AcDbEntity
8
1
62
256
6
ByLayer
370
-1
48
1
60
0
100
AcDbEllipse
10
85.801281
20
-19.58948
30
0
11
-0.283033031805331
21
-0.000905222934057256
31
0
210
0
220
0
230
1
40
0.13718
41
2.0951946252149
42
2.52176974035559
0
ELLIPSE
5
1F3
100
AcDbEntity
8
1
62
256
6
ByLayer
370
-1
48
1
60
0
100
AcDbEllipse
10
88.808867
20
-18.854076
30
0
11
-0.822902478275347
21
0.504346294683754
31
0
210
0
220
0
230
1
40
0.3419
41
-3.13110594625809
42
-2.31465636021946
0
ELLIPSE
5
1F4
100
AcDbEntity
8
1
62
256
6
ByLayer
370
-1
48
1
60
0
100
AcDbEllipse
10
88.125021
20
-19.844831
30
0
11
-0.000586137719755163
21
0.134584627015127
31
0
210
0
220
0
230
1
40
0.965798
41
8.31074909560462E-06
42
0.943556629349815
0
ELLIPSE
5
1F5
100
AcDbEntity
8
1
62
256
6
ByLayer
370
-1
48
1
60
0
100
AcDbEllipse
10
88.292036
20
-8.25875
30
0
11
0.222782340523559
21
-0.12315855126967
31
0
210
0
220
0
230
1
40
0.903036
41
-1.58799132119597
42
-1.28317267091914
0
ELLIPSE
5
1F6
100
AcDbEntity
8
1
62
256
6
ByLayer
370
-1
48
1
60
0
100
AcDbEllipse
10
86.742971
20
-7.932986
30
0
11
0.312377620717914
21
0.0694278191693728
31
0
210
0
220
0
230
1
40
0.335766
41
1.2823706648683
42
1.55801442581498
0
ELLIPSE
5
1F7
100
AcDbEntity
8
1
62
256
6
ByLayer
370
-1
48
1
60
0
100
AcDbEllipse
10
87.935114
20
-8.158105
30
0
11
0.329941928492634
21
-0.00619062376193211
31
0
210
0
220
0
230
1
40
0.387666
41
1.36868361796239
42
2.24970494397173
0
ELLIPSE
5
1F8
100
AcDbEntity
8
1
62
256
6
ByLayer
370
-1
48
1
60
0
100
AcDbEllipse
10
86.693385
20
-7.709883
30
0
11
-0.289207306724409
21
-0.16986217313028
31
0
210
0
220
0
230
1
40
0.223196
41
-1.93117354630908
42
-1.655529785474
0
ELLIPSE
5
1F9
100
AcDbEntity
8
1
62
256
6
ByLayer
370
-1
48
1
60
0
100
AcDbEllipse
10
89.304402
20
-19.155669
30
0
11
-0.171567193481959
21
-0.281894835214702
31
0
210
0
220
0
230
1
40
0.328804
41
1.57219616046271
42
2.3886457465001
0
ELLIPSE
5
1FA
100
AcDbEntity
8
1
62
256
6
ByLayer
370
-1
48
1
60
0
100
AcDbEllipse
10
89.187776
20
-6.444027
30
0
11
-0.0878138722405259
21
-0.00572047569036569
31
0
210
0
220
0
230
1
40
0.965789
41
-2.68082561138845
42
-1.64876840382699
0
ELLIPSE
5
1FB
100
AcDbEntity
8
1
62
256
6
ByLayer
370
-1
48
1
60
0
100
AcDbEllipse
10
78.460449
20
-14.675195
30
0
11
-0.21023359508877
21
0.25436555485374
31
0
210
0
220
0
230
1
40
0.325777
41
1.09225975093539
42
1.90870933697283
0
ELLIPSE
5
1FC
100
AcDbEntity
8
1
62
256
6
ByLayer
370
-1
48
1
60
0
100
AcDbEllipse
10
89.304402
20
-19.155669
30
0
11
0.172437766515787
21
0.281363140228152
31
0
210
0
220
0
230
1
40
0.013865
41
0.698314144513023
42
1.5793354705224
0
ELLIPSE
5
1FD
100
AcDbEntity
8
1
62
256
6
ByLayer
370
-1
48
1
60
0
100
AcDbEllipse
10
88.542053
20
-7.867053
30
0
11
0.126989212138566
21
-0.304587819849098
31
0
210
0
220
0
230
1
40
0.517188
41
1.54493633139591
42
2.14635572770675
0
ELLIPSE
5
1FE
100
AcDbEntity
8
1
62
256
6
ByLayer
370
-1
48
1
60
0
100
AcDbEllipse
10
84.182088
20
-17.348803
30
0
11
0.105854520827012
21
0.106277092642223
31
0
210
0
220
0
230
1
40
0.19749
41
-1.91763486850097
42
-1.74310194330163
0
ELLIPSE
5
1FF
100
AcDbEntity
8
1
62
256
6
ByLayer
370
-1
48
1
60
0
100
AcDbEllipse
10
85.240537
20
-13.964191
30
0
11
3.07390048262853
21
0.20024368060341
31
0
210
0
220
0
230
1
40
0.965789
41
0
42
6.28318530717959
0
ELLIPSE
5
200
100
AcDbEntity
8
1
62
256
6
ByLayer
370
-1
48
1
60
0
100
AcDbEllipse
10
89.158013
20
-14.073601
30
0
11
0.0633059060388732
21
0.135986625300422
31
0
210
0
220
0
230
1
40
0.127852
41
-1.80029716860966
42
-1.09471097891162
0
ELLIPSE
5
201
100
AcDbEntity
8
1
62
256
6
ByLayer
370
-1
48
1
60
0
100
AcDbEllipse
10
80.025785
20
-11.862471
30
0
11
0.249471227956048
21
0.0162513513930855
31
0
210
0
220
0
230
1
40
0.965789
41
2.03156336899611
42
2.12769914672041
0
ELLIPSE
5
202
100
AcDbEntity
8
1
62
256
6
ByLayer
370
-1
48
1
60
0
100
AcDbEllipse
10
89.487527
20
-12.952518
30
0
11
0.00498680642490538
21
0.149917082954814
31
0
210
0
220
0
230
1
40
0.026344
41
-2.54435398120649
42
-1.83182940267763
0
ELLIPSE
5
203
100
AcDbEntity
8
1
62
256
6
ByLayer
370
-1
48
1
60
0
100
AcDbEllipse
10
87.615509
20
-8.253349
30
0
11
-1.55232594748266
21
-0.738057643125259
31
0
210
0
220
0
230
1
40
0.185907
41
2.85878495008748
42
-2.82298096078266
0
ELLIPSE
5
204
100
AcDbEntity
8
1
62
256
6
ByLayer
370
-1
48
1
60
0
100
AcDbEllipse
10
82.018886
20
-10.42303
30
0
11
-0.128769199360112
21
-0.0771501606276955
31
0
210
0
220
0
230
1
40
0.232115
41
1.45206597494337
42
2.16459055344871
0
ELLIPSE
5
205
100
AcDbEntity
8
1
62
256
6
ByLayer
370
-1
48
1
60
0
100
AcDbEllipse
10
88.690335
20
-19.158349
30
0
11
-0.175765810909959
21
0.279296222164147
31
0
210
0
220
0
230
1
40
0.354829
41
0.734708662349428
42
1.5511582483868
0
ELLIPSE
5
206
100
AcDbEntity
8
1
62
256
6
ByLayer
370
-1
48
1
60
0
100
AcDbEllipse
10
78.409966
20
-14.596658
30
0
11
0.214135434812113
21
0.137644526072875
31
0
210
0
220
0
230
1
40
0.895737
41
-1.92240840665296
42
-1.61758975637603
0
ELLIPSE
5
207
100
AcDbEntity
8
1
62
256
6
ByLayer
370
-1
48
1
60
0
100
AcDbEllipse
10
78.767483
20
-14.160105
30
0
11
-0.329968661514939
21
-0.00454779265573889
31
0
210
0
220
0
230
1
40
0.388155
41
-2.21437408675445
42
-1.33335276074507
0
ELLIPSE
5
208
100
AcDbEntity
8
1
62
256
6
ByLayer
370
-1
48
1
60
0
100
AcDbEllipse
10
88.997706
20
-20.485339
30
0
11
-0.000396770126324762
21
0.0911034398258932
31
0
210
0
220
0
230
1
40
0.965798
41
2.10954375702648
42
-3.14158434260368
0
ELLIPSE
5
209
100
AcDbEntity
8
1
62
256
6
ByLayer
370
-1
48
1
60
0
100
AcDbEllipse
10
78.430314
20
-13.336951
30
0
11
-0.120148037016757
21
-0.0531314302285903
31
0
210
0
220
0
230
1
40
0.908072
41
2.23387201348321
42
-3.10576497508484
0
ELLIPSE
5
20A
100
AcDbEntity
8
1
62
256
6
ByLayer
370
-1
48
1
60
0
100
AcDbEllipse
10
88.248392
20
-8.337698
30
0
11
-0.206260449892316
21
-0.257597800476284
31
0
210
0
220
0
230
1
40
0.301789
41
1.21123745370851
42
2.02768703974594
0
ELLIPSE
5
20B
100
AcDbEntity
8
1
62
256
6
ByLayer
370
-1
48
1
60
0
100
AcDbEllipse
10
85.251202
20
-14.035684
30
0
11
1.67223082115528
21
0.118156848207532
31
0
210
0
220
0
230
1
40
0.965764
41
0.979063990169332
42
2.02626154136589
0
ELLIPSE
5
20C
100
AcDbEntity
8
1
62
256
6
ByLayer
370
-1
48
1
60
0
100
AcDbEllipse
10
85.222404
20
-13.628113
30
0
11
1.28709104541676
21
0.0909435583644589
31
0
210
0
220
0
230
1
40
0.965764
41
-2.68612743901873
42
-1.63892988782217
0
ELLIPSE
5
20D
100
AcDbEntity
8
1
62
256
6
ByLayer
370
-1
48
1
60
0
100
AcDbEllipse
10
85.250079
20
-14.019799
30
0
11
-2.7182229704415
21
-0.192064788454739
31
0
210
0
220
0
230
1
40
0.965764
41
0
42
6.28318530717959
0
ELLIPSE
5
20E
100
AcDbEntity
8
1
62
256
6
ByLayer
370
-1
48
1
60
0
100
AcDbEllipse
10
85.222404
20
-13.628113
30
0
11
-1.28709104541676
21
-0.0909435583644586
31
0
210
0
220
0
230
1
40
0.965764
41
-0.1249275865838
42
0.455465214571045
0
ELLIPSE
5
20F
100
AcDbEntity
8
1
62
256
6
ByLayer
370
-1
48
1
60
0
100
AcDbEllipse
10
85.222404
20
-13.628113
30
0
11
-1.28709104541676
21
-0.0909435583644586
31
0
210
0
220
0
230
1
40
0.965764
41
-0.963568993454421
42
-0.732792704623286
0
ELLIPSE
5
210
100
AcDbEntity
8
1
62
256
6
ByLayer
370
-1
48
1
60
0
100
AcDbEllipse
10
83.739252
20
-13.635133
30
0
11
-0.000623103068506023
21
-0.380672332819595
31
0
210
0
220
0
230
1
40
0.50691
41
-0.903672283967448
42
0.0603741684580893
0
ELLIPSE
5
211
100
AcDbEntity
8
1
62
256
6
ByLayer
370
-1
48
1
60
0
100
AcDbEllipse
10
85.222404
20
-15.06087
30
0
11
-0.394032475315832
21
-0.00240287603032128
31
0
210
0
220
0
230
1
40
0.473102
41
-1.5736813736494
42
-0.163407912190376
0
ELLIPSE
5
212
100
AcDbEntity
8
1
62
256
6
ByLayer
370
-1
48
1
60
0
100
AcDbEllipse
10
85.251202
20
-14.035684
30
0
11
1.67223082115528
21
0.118156848207532
31
0
210
0
220
0
230
1
40
0.965764
41
3.07345909256252
42
-2.16252866342044
0
ELLIPSE
5
213
100
AcDbEntity
8
1
62
256
6
ByLayer
370
-1
48
1
60
0
100
AcDbEllipse
10
85.222404
20
-13.628113
30
0
11
-1.28709104541676
21
-0.0909435583644586
31
0
210
0
220
0
230
1
40
0.965764
41
-2.57250658392434
42
-2.12648206047491
0
ELLIPSE
5
214
100
AcDbEntity
8
1
62
256
6
ByLayer
370
-1
48
1
60
0
100
AcDbEllipse
10
85.251202
20
-14.035684
30
0
11
1.67223082115528
21
0.118156848207532
31
0
210
0
220
0
230
1
40
0.965764
41
-2.16252866342044
42
-1.11533111222386
0
ELLIPSE
5
215
100
AcDbEntity
8
1
62
256
6
ByLayer
370
-1
48
1
60
0
100
AcDbEllipse
10
85.222404
20
-13.628113
30
0
11
-1.28709104541676
21
-0.0909435583644586
31
0
210
0
220
0
230
1
40
0.965764
41
1.50266276576768
42
2.54986031696423
0
ELLIPSE
5
216
100
AcDbEntity
8
1
62
256
6
ByLayer
370
-1
48
1
60
0
100
AcDbEllipse
10
85.222404
20
-13.628113
30
0
11
-1.28709104541676
21
-0.0909435583644586
31
0
210
0
220
0
230
1
40
0.965764
41
2.54986031696427
42
-3.12691571093327
0
ELLIPSE
5
217
100
AcDbEntity
8
1
62
256
6
ByLayer
370
-1
48
1
60
0
100
AcDbEllipse
10
85.222404
20
-15.06087
30
0
11
-0.394032475315052
21
-0.00240287603025353
31
0
210
0
220
0
230
1
40
0.473102
41
-2.98395483510993
42
-1.57368137364905
0
ELLIPSE
5
218
100
AcDbEntity
8
1
62
256
6
ByLayer
370
-1
48
1
60
0
100
AcDbEllipse
10
83.938043
20
-14.350571
30
0
11
-0.200051044279698
21
0.326957883009706
31
0
210
0
220
0
230
1
40
0.499975
41
-2.37462779238716
42
-1.58915102710972
0
ELLIPSE
5
219
100
AcDbEntity
8
1
62
256
6
ByLayer
370
-1
48
1
60
0
100
AcDbEllipse
10
86.705556
20
-13.621093
30
0
11
-0.00062310306850603
21
-0.380672332819599
31
0
210
0
220
0
230
1
40
0.50691
41
-0.0539160509659424
42
1.20422847250874
0
ELLIPSE
5
21A
100
AcDbEntity
8
1
62
256
6
ByLayer
370
-1
48
1
60
0
100
AcDbEllipse
10
86.506764
20
-14.338412
30
0
11
-0.200517583763086
21
-0.328568772578828
31
0
210
0
220
0
230
1
40
0.495781
41
-2.95985612092189
42
-1.54958265946042
0
ELLIPSE
5
21B
100
AcDbEntity
8
1
62
256
6
ByLayer
370
-1
48
1
60
0
100
AcDbEllipse
10
84.480828
20
-14.872511
30
0
11
-0.343133849056972
21
0.185391276329971
31
0
210
0
220
0
230
1
40
0.48292
41
0.966396763246788
42
-3.10477118287756
0
ELLIPSE
5
21C
100
AcDbEntity
8
1
62
256
6
ByLayer
370
-1
48
1
60
0
100
AcDbEllipse
10
85.227432
20
-13.699276
30
0
11
-2.7182229704415
21
-0.192064788454738
31
0
210
0
220
0
230
1
40
0.965764
41
-3.14149459685376
42
0
0
ELLIPSE
5
21D
100
AcDbEntity
8
1
62
256
6
ByLayer
370
-1
48
1
60
0
100
AcDbEllipse
10
85.251202
20
-14.035684
30
0
11
1.67223082115528
21
0.118156848207532
31
0
210
0
220
0
230
1
40
0.965764
41
2.02626154136589
42
3.07345909256252
0
ELLIPSE
5
21E
100
AcDbEntity
8
1
62
256
6
ByLayer
370
-1
48
1
60
0
100
AcDbEllipse
10
85.96398
20
-14.865491
30
0
11
-0.342845330156824
21
-0.189166589712728
31
0
210
0
220
0
230
1
40
0.479089
41
-0.0400244433159204
42
2.35411703748983
0
ELLIPSE
5
21F
100
AcDbEntity
8
1
62
256
6
ByLayer
370
-1
48
1
60
0
100
AcDbEllipse
10
85.251202
20
-14.035684
30
0
11
1.67223082115528
21
0.118156848207532
31
0
210
0
220
0
230
1
40
0.965764
41
-1.11533111222386
42
-0.0681335610272691
0
ELLIPSE
5
220
100
AcDbEntity
8
1
62
256
6
ByLayer
370
-1
48
1
60
0
100
AcDbEllipse
10
86.506764
20
-14.338412
30
0
11
-0.200517583763976
21
-0.328568772580047
31
0
210
0
220
0
230
1
40
0.495781
41
-1.54958265945962
42
-0.608513246081504
0
ELLIPSE
5
221
100
AcDbEntity
8
1
62
256
6
ByLayer
370
-1
48
1
60
0
100
AcDbEllipse
10
85.251202
20
-14.035684
30
0
11
1.67223082115528
21
0.118156848207532
31
0
210
0
220
0
230
1
40
0.965764
41
-0.0681335610272691
42
0.979063990169332
0
ELLIPSE
5
222
100
AcDbEntity
8
1
62
256
6
ByLayer
370
-1
48
1
60
0
100
AcDbEllipse
10
85.251202
20
-14.035684
30
0
11
-1.79552343001641
21
-0.126868484116891
31
0
210
0
220
0
230
1
40
0.965764
41
0
42
6.28318530717959
0
ELLIPSE
5
223
100
AcDbEntity
8
1
62
256
6
ByLayer
370
-1
48
1
60
0
100
AcDbEllipse
10
83.938043
20
-14.350571
30
0
11
-0.200051044280434
21
0.326957883010523
31
0
210
0
220
0
230
1
40
0.499975
41
-1.58915102711115
42
-0.178877565652205
0
ELLIPSE
5
224
100
AcDbEntity
8
1
62
256
6
ByLayer
370
-1
48
1
60
0
100
AcDbEllipse
10
81.724367
20
-17.58508
30
0
11
-0.25
21
3.06151588455594E-17
31
0
210
0
220
0
230
1
40
0.258819
41
0.755396374706295
42
1.5844277694036
0
ELLIPSE
5
225
100
AcDbEntity
8
1
62
256
6
ByLayer
370
-1
48
1
60
0
100
AcDbEllipse
10
82.021815
20
-17.58403
30
0
11
-0.25
21
3.06151588455594E-17
31
0
210
0
220
0
230
1
40
0.258819
41
1.58442776940349
42
2.41345916410076
0
ELLIPSE
5
226
100
AcDbEntity
8
1
62
256
6
ByLayer
370
-1
48
1
60
0
100
AcDbEllipse
10
80.864868
20
-17.317061
30
0
11
-1.8
21
2.20429143688028E-16
31
0
210
0
220
0
230
1
40
0.258819
41
2.41345916410081
42
2.44231040400173
0
ELLIPSE
5
227
100
AcDbEntity
8
1
62
256
6
ByLayer
370
-1
48
1
60
0
100
AcDbEllipse
10
81.082464
20
-17.577587
30
0
11
-0.25
21
3.06151588455594E-17
31
0
210
0
220
0
230
1
40
0.258819
41
-2.61308908164283
42
-2.02965358241138
0
ELLIPSE
5
228
100
AcDbEntity
8
1
62
256
6
ByLayer
370
-1
48
1
60
0
100
AcDbEllipse
10
82.852767
20
-17.310047
30
0
11
-1.8
21
2.20429143688028E-16
31
0
210
0
220
0
230
1
40
0.258819
41
0.528503571946937
42
0.755396374706206
0
ELLIPSE
5
229
100
AcDbEntity
8
1
62
256
6
ByLayer
370
-1
48
1
60
0
100
AcDbEllipse
10
90.12537
20
-6.267706
30
0
11
-0.00836201365888592
21
-1.69997943420724
31
0
210
0
220
0
230
1
40
0.052006
41
0
42
6.28318530717959
0
ELLIPSE
5
22A
100
AcDbEntity
8
1
62
256
6
ByLayer
370
-1
48
1
60
0
100
AcDbEllipse
10
90.12537
20
-6.267706
30
0
11
0.00693407685584077
21
1.40968294611882
31
0
210
0
220
0
230
1
40
0.052006
41
0.785682085735154
42
1.83287963693164
0
ELLIPSE
5
22B
100
AcDbEntity
8
1
62
256
6
ByLayer
370
-1
48
1
60
0
100
AcDbEllipse
10
90.12537
20
-6.267706
30
0
11
0.00693407685584077
21
1.40968294611882
31
0
210
0
220
0
230
1
40
0.052006
41
-1.30871301665815
42
-0.26151546546136
0
ELLIPSE
5
22C
100
AcDbEntity
8
1
62
256
6
ByLayer
370
-1
48
1
60
0
100
AcDbEllipse
10
90.12537
20
-6.267706
30
0
11
0.00693407685584077
21
1.40968294611882
31
0
210
0
220
0
230
1
40
0.052006
41
-0.26151546546136
42
0.785682085735154
0
ELLIPSE
5
22D
100
AcDbEntity
8
1
62
256
6
ByLayer
370
-1
48
1
60
0
100
AcDbEllipse
10
89.026871
20
-6.262303
30
0
11
-0.0152483778485567
21
-3.09996249767203
31
0
210
0
220
0
230
1
40
0.052006
41
-1.57486025232774
42
-1.54049916725784
0
ELLIPSE
5
22E
100
AcDbEntity
8
1
62
256
6
ByLayer
370
-1
48
1
60
0
100
AcDbEllipse
10
90.12537
20
-6.267706
30
0
11
0.00693407685584077
21
1.40968294611882
31
0
210
0
220
0
230
1
40
0.052006
41
2.88007718812807
42
-2.35591056785493
0
ELLIPSE
5
22F
100
AcDbEntity
8
1
62
256
6
ByLayer
370
-1
48
1
60
0
100
AcDbEllipse
10
90.12537
20
-6.267706
30
0
11
0.00693407685584077
21
1.40968294611882
31
0
210
0
220
0
230
1
40
0.052006
41
-2.35591056785493
42
-1.30871301665815
0
ELLIPSE
5
230
100
AcDbEntity
8
1
62
256
6
ByLayer
370
-1
48
1
60
0
100
AcDbEllipse
10
90.12537
20
-6.267706
30
0
11
0.00693407685584077
21
1.40968294611882
31
0
210
0
220
0
230
1
40
0.052006
41
1.83287963693164
42
2.88007718812807
0
POINT
5
41
100
AcDbEntity
8
1
62
256
6
ByLayer
370
-1
48
1
60
0
100
AcDbPoint
10
89.000142
20
20.576468
30
0
39
0
210
0
220
0
230
1
50
360
0
POINT
5
43
100
AcDbEntity
8
80
62
256
6
ByLayer
370
-1
48
1
60
0
100
AcDbPoint
10
0
20
0
30
0
39
0
210
0
220
0
230
1
50
360
0
POINT
5
45
100
AcDbEntity
8
81
62
256
6
ByLayer
370
-1
48
1
60
0
100
AcDbPoint
10
90
20
-21.875
30
0
39
0
210
0
220
0
230
1
50
360
0
POINT
5
47
100
AcDbEntity
8
2
62
256
6
ByLayer
370
-1
48
1
60
0
100
AcDbPoint
10
90
20
21.875
30
0
39
0
210
0
220
0
230
1
50
360
0
SPLINE
5
231
100
AcDbEntity
8
1
62
256
6
ByLayer
370
-1
48
1
60
0
100
AcDbSpline
70
4
71
1
72
4
73
2
40
0
40
0
40
1
40
1
41
1
10
80.6106558379374
20
-16.7139269797371
30
0
41
1
10
80.7193348472747
20
-17.202101014846
30
0
0
SPLINE
5
232
100
AcDbEntity
8
SK1
62
256
6
ByLayer
370
-1
48
1
60
0
100
AcDbSpline
70
4
71
3
72
13
73
9
40
0
40
0
40
0
40
0
40
0.23945803604342
40
0.368362246063118
40
0.500001724232826
40
0.63164091286342
40
0.760544326641159
40
1
40
1
40
1
40
1
41
1
10
-2
20
21.8251283250689
30
0
41
1
10
-2.02607218225586
20
21.8253815693237
30
0
41
1
10
-2.06363558177699
20
21.8324994546095
30
0
41
1
10
-2.11047835033028
20
21.8567272514908
30
0
41
1
10
-2.14242263580763
20
21.8827049776713
30
0
41
1
10
-2.16840067169747
20
21.9146488976998
30
0
41
1
10
-2.192628756261
20
21.9614911120955
30
0
41
1
10
-2.19974671959665
20
21.9990541369823
30
0
41
1
10
-2.20000000000002
20
22.0251260775077
30
0
0
SPLINE
5
233
100
AcDbEntity
8
SK1
62
256
6
ByLayer
370
-1
48
1
60
0
100
AcDbSpline
70
4
71
3
72
13
73
9
40
0
40
0
40
0
40
0
40
0.239455678458285
40
0.368359092600264
40
0.499998280591706
40
0.631637757476701
40
0.760541965960288
40
1
40
1
40
1
40
1
41
1
10
-2.20000000000002
20
-22.0251260837646
30
0
41
1
10
-2.19974671976326
20
-21.9990541435572
30
0
41
1
10
-2.19262875645049
20
-21.9614911190379
30
0
41
1
10
-2.16840067179331
20
-21.9146489043199
30
0
41
1
10
-2.14242263587786
20
-21.8827049843059
30
0
41
1
10
-2.11047835037542
20
-21.8567272581279
30
0
41
1
10
-2.06363558166035
20
-21.832499461233
30
0
41
1
10
-2.02607218220658
20
-21.8253815759776
30
0
41
1
10
-2
20
-21.8251283317571
30
0
0
SPLINE
5
234
100
AcDbEntity
8
SK1
62
256
6
ByLayer
370
-1
48
1
60
0
100
AcDbSpline
70
4
71
2
72
6
73
3
40
0
40
0
40
0
40
1
40
1
40
1
41
1
10
-2.19492488857412
20
22.0202267184689
30
0
41
1
10
-2.59746244428706
20
22.0101135737565
30
0
41
1
10
-3
20
22.0000004290441
30
0
0
SPLINE
5
235
100
AcDbEntity
8
SK1
62
256
6
ByLayer
370
-1
48
1
60
0
100
AcDbSpline
70
4
71
2
72
6
73
3
40
0
40
0
40
0
40
1
40
1
40
1
41
1
10
-3
20
-22.0000004375346
30
0
41
1
10
-2.59746244428706
20
-22.0101135822509
30
0
41
1
10
-2.19492488857412
20
-22.0202267269672
30
0
0
SPLINE
5
236
100
AcDbEntity
8
SK1
62
256
6
ByLayer
370
-1
48
1
60
0
100
AcDbSpline
70
4
71
2
72
6
73
3
40
0
40
0
40
0
40
1
40
1
40
1
41
1
10
-3
20
22.0000004290441
30
0
41
1
10
-19.7502365839533
20
21.5791761751669
30
0
41
1
10
-36.5004731679067
20
21.1583519212896
30
0
0
SPLINE
5
237
100
AcDbEntity
8
SK1
62
256
6
ByLayer
370
-1
48
1
60
0
100
AcDbSpline
70
4
71
2
72
6
73
3
40
0
40
0
40
0
40
1
40
1
40
1
41
1
10
-36.5004731679067
20
-21.1583519294552
30
0
41
1
10
-19.7502365839533
20
-21.5791761834948
30
0
41
1
10
-3
20
-22.0000004375346
30
0
0
SPLINE
5
238
100
AcDbEntity
8
SK1
62
256
6
ByLayer
370
-1
48
1
60
0
100
AcDbSpline
70
4
71
2
72
6
73
3
40
0
40
0
40
0
40
1
40
1
40
1
41
1
10
-2
20
-21.8251283317571
30
0
41
1
10
-1.20000000000002
20
-21.8251283317571
30
0
41
1
10
-0.400000000000006
20
-21.8251283317571
30
0
0
SPLINE
5
239
100
AcDbEntity
8
SK1
62
256
6
ByLayer
370
-1
48
1
60
0
100
AcDbSpline
70
4
71
2
72
6
73
3
40
0
40
0
40
0
40
1
40
1
40
1
41
1
10
-0.400000000000006
20
21.8251283250689
30
0
41
1
10
-1.20000000000002
20
21.8251283250689
30
0
41
1
10
-2
20
21.8251283250689
30
0
0
SPLINE
5
23A
100
AcDbEntity
8
SK1
62
256
6
ByLayer
370
-1
48
1
60
0
100
AcDbSpline
70
4
71
2
72
6
73
3
40
0
40
0
40
0
40
1
40
1
40
1
41
1
10
-38
20
-20.2413583528791
30
0
41
1
10
-37.250216097561
20
-20.6997323883077
30
0
41
1
10
-36.5004321682704
20
-21.1581061531923
30
0
0
SPLINE
5
23B
100
AcDbEntity
8
SK1
62
256
6
ByLayer
370
-1
48
1
60
0
100
AcDbSpline
70
4
71
2
72
6
73
3
40
0
40
0
40
0
40
1
40
1
40
1
41
1
10
-36.500413873027
20
21.1568446673342
30
0
41
1
10
-37.2502068935606
20
20.6982812567361
30
0
41
1
10
-38
20
20.2397162883162
30
0
0
SPLINE
5
23C
100
AcDbEntity
8
SK1
62
256
6
ByLayer
370
-1
48
1
60
0
100
AcDbSpline
70
4
71
2
72
6
73
3
40
0
40
0
40
0
40
1
40
1
40
1
41
1
10
-0.236364239553211
20
21.9101116399906
30
0
41
1
10
-0.263846985495974
20
21.8242676829203
30
0
41
1
10
-0.400000000000006
20
21.8251283250689
30
0
0
SPLINE
5
23D
100
AcDbEntity
8
SK1
62
256
6
ByLayer
370
-1
48
1
60
0
100
AcDbSpline
70
4
71
2
72
6
73
3
40
0
40
0
40
0
40
1
40
1
40
1
41
1
10
-0.400000000000006
20
-21.8251283317571
30
0
41
1
10
-0.26569362178526
20
-21.8236723966925
30
0
41
1
10
-0.237972420189863
20
-21.9072633449935
30
0
0
SPLINE
5
23E
100
AcDbEntity
8
1
62
256
6
ByLayer
370
-1
48
1
60
0
100
AcDbSpline
70
4
71
3
72
12
73
8
40
0
40
0
40
0
40
0
40
0.0872628089572371
40
0.400415072221934
40
0.69827066309172
40
0.979152116074942
40
1
40
1
40
1
40
1
41
1
10
89.4367983514577
20
-3.51367981153879
30
0
41
1
10
89.4626736134842
20
-3.5410488865794
30
0
41
1
10
89.5794257530974
20
-3.66858093108107
30
0
41
1
10
89.7696823546085
20
-3.90223047455657
30
0
41
1
10
89.9735882705717
20
-4.22822865182459
30
0
41
1
10
90.09619421948
20
-4.45684074875956
30
0
41
1
10
90.1426649874475
20
-4.57817744077576
30
0
41
1
10
90.1458294784421
20
-4.58658242415873
30
0
0
SPLINE
5
23F
100
AcDbEntity
8
1
62
256
6
ByLayer
370
-1
48
1
60
0
100
AcDbSpline
70
4
71
3
72
10
73
6
40
0
40
0
40
0
40
0
40
0.192317600867895
40
0.659510602097581
40
1
40
1
40
1
40
1
41
1
10
90.1329019600502
20
-7.92553705604851
30
0
41
1
10
90.1117235997115
20
-7.98214023791442
30
0
41
1
10
90.0329179246983
20
-8.17304767762164
30
0
41
1
10
89.8713593275678
20
-8.44363602042165
30
0
41
1
10
89.7229657673826
20
-8.64884807502804
30
0
41
1
10
89.6569026443792
20
-8.73267325805725
30
0
0
SPLINE
5
240
100
AcDbEntity
8
1
62
256
6
ByLayer
370
-1
48
1
60
0
100
AcDbSpline
70
4
71
3
72
8
73
4
40
0
40
0
40
0
40
0
40
1
40
1
40
1
40
1
41
1
10
75.7067712745375
20
-9.10695520994139
30
0
41
1
10
75.6916731793455
20
-9.11436306951583
30
0
41
1
10
75.6790585847545
20
-9.12764606473854
30
0
41
1
10
75.6684742467931
20
-9.1460211794936
30
0
0
SPLINE
5
241
100
AcDbEntity
8
1
62
256
6
ByLayer
370
-1
48
1
60
0
100
AcDbSpline
70
4
71
3
72
22
73
18
40
0
40
0
40
0
40
0
40
0.131486252073829
40
0.131486252073829
40
0.309825857174982
40
0.309825857174982
40
0.410937871512986
40
0.410937871512986
40
0.513821813718257
40
0.513821813718257
40
0.642912482481349
40
0.642912482481349
40
0.81764960450599
40
0.81764960450599
40
0.928315152442368
40
0.928315152442368
40
1
40
1
40
1
40
1
41
1
10
75.6385152898672
20
-9.23209105477136
30
0
41
1
10
75.6210197236876
20
-9.312598532973
30
0
41
1
10
75.6138293163756
20
-9.42587286948748
30
0
41
1
10
75.5986904662133
20
-9.73151984780131
30
0
41
1
10
75.5933632477061
20
-9.94361463769721
30
0
41
1
10
75.5357336212531
20
-10.2919323210178
30
0
41
1
10
75.502951791416
20
-10.4244277482617
30
0
41
1
10
75.3911753170374
20
-10.6790287548314
30
0
41
1
10
75.3079546051086
20
-10.8026597356129
30
0
41
1
10
75.0864301382707
20
-11.046232628664
30
0
41
1
10
74.9398807623112
20
-11.1643925695386
30
0
41
1
10
74.6030952566819
20
-11.4239458224847
30
0
41
1
10
74.406990092231
20
-11.5650173252173
30
0
41
1
10
74.1414398549578
20
-11.7968533690784
30
0
41
1
10
74.0496878953142
20
-11.888856243173
30
0
41
1
10
73.9395199173575
20
-12.0403229918943
30
0
41
1
10
73.9061381506499
20
-12.1008270152863
30
0
41
1
10
73.8865443007461
20
-12.1606301473976
30
0
0
SPLINE
5
242
100
AcDbEntity
8
1
62
256
6
ByLayer
370
-1
48
1
60
0
100
AcDbSpline
70
4
71
3
72
16
73
12
40
0
40
0
40
0
40
0
40
0.270525378058744
40
0.270525378058744
40
0.599384185955696
40
0.599384185955696
40
0.762140188652004
40
0.762140188652004
40
0.896616864840327
40
0.896616864840327
40
1
40
1
40
1
40
1
41
1
10
10.1056624327026
20
29.9139548464691
30
0
41
1
10
10.1223634077914
20
29.9340973114522
30
0
41
1
10
10.1427637790421
20
29.9538166638149
30
0
41
1
10
10.1990606898967
20
29.9958084253268
30
0
41
1
10
10.2376786518698
20
30.0181074912897
30
0
41
1
10
10.3135455046785
20
30.0467588108259
30
0
41
1
10
10.3421747269917
20
30.0555916882576
30
0
41
1
10
10.4012015538043
20
30.0688029947856
30
0
41
1
10
10.4310551857851
20
30.0737774310785
30
0
41
1
10
10.4870716086067
20
30.0792804002415
30
0
41
1
10
10.5130127501305
20
30.0805927603169
30
0
41
1
10
10.5386751345948
20
30.0805927603169
30
0
0
SPLINE
5
243
100
AcDbEntity
8
1
62
256
6
ByLayer
370
-1
48
1
60
0
100
AcDbSpline
70
4
71
3
72
8
73
4
40
0
40
0
40
0
40
0
40
1
40
1
40
1
40
1
41
1
10
71.4673143016258
20
-1.52939299030771
30
0
41
1
10
71.4272225526646
20
-1.5911138717737
30
0
41
1
10
71.3852796349464
20
-1.65227116392012
30
0
41
1
10
71.3412190994963
20
-1.71215859817988
30
0
0
SPLINE
5
244
100
AcDbEntity
8
1
62
256
6
ByLayer
370
-1
48
1
60
0
100
AcDbSpline
70
4
71
3
72
18
73
14
40
0
40
0
40
0
40
0
40
0.0048641047854146
40
0.0048641047854146
40
0.113203312756797
40
0.113203312756797
40
0.252307002956716
40
0.252307002956716
40
0.472239664393974
40
0.472239664393974
40
0.894682818087995
40
0.894682818087995
40
1
40
1
40
1
40
1
41
1
10
10.5386751345948
20
9.34922131452504
30
0
41
1
10
10.5374517449547
20
9.34922131452504
30
0
41
1
10
10.5362283172892
20
9.34923052903073
30
0
41
1
10
10.5081150012137
20
9.34965397724795
30
0
41
1
10
10.4809957906555
20
9.354712145283
30
0
41
1
10
10.4232970512377
20
9.37464954573258
30
0
41
1
10
10.3929559316024
20
9.39202437584845
30
0
41
1
10
10.3234057971774
20
9.44473147370712
30
0
41
1
10
10.2875093950934
20
9.48529706929932
30
0
41
1
10
10.1989273616436
20
9.61035706938748
30
0
41
1
10
10.1580217765465
20
9.70372859127181
30
0
41
1
10
10.1193258147041
20
9.82167814889502
30
0
41
1
10
10.1122083227876
20
9.84548375806278
30
0
41
1
10
10.1056624327026
20
9.86941261896612
30
0
0
SPLINE
5
245
100
AcDbEntity
8
1
62
256
6
ByLayer
370
-1
48
1
60
0
100
AcDbSpline
70
4
71
3
72
10
73
6
40
0
40
0
40
0
40
0
40
0.65763498631969
40
0.65763498631969
40
1
40
1
40
1
40
1
41
1
10
71.9540546539912
20
-16.1969971807626
30
0
41
1
10
72.0251517132458
20
-16.2934168865765
30
0
41
1
10
72.1104766164767
20
-16.4036763257056
30
0
41
1
10
72.2510740951717
20
-16.5800950902476
30
0
41
1
10
72.3017073937177
20
-16.642771923573
30
0
41
1
10
72.3535345733807
20
-16.7062052163669
30
0
0
SPLINE
5
246
100
AcDbEntity
8
1
62
256
6
ByLayer
370
-1
48
1
60
0
100
AcDbSpline
70
4
71
3
72
10
73
6
40
0
40
0
40
0
40
0
40
0.372348056889788
40
0.372348056889788
40
1
40
1
40
1
40
1
41
1
10
71.6995509716647
20
-15.8296048486611
30
0
41
1
10
71.6947398687565
20
-15.8313425896043
30
0
41
1
10
71.6904531721195
20
-15.8333743916228
30
0
41
1
10
71.6804802343238
20
-15.8394927181687
30
0
41
1
10
71.6758296393247
20
-15.8440022678954
30
0
41
1
10
71.6727969206969
20
-15.8491682962884
30
0
0
SPLINE
5
247
100
AcDbEntity
8
1
62
256
6
ByLayer
370
-1
48
1
60
0
100
AcDbSpline
70
4
71
3
72
12
73
8
40
0
40
0
40
0
40
0
40
0.0003272306775676
40
0.0003272306775676
40
0.5884431444727
40
0.5884431444727
40
1
40
1
40
1
40
1
41
1
10
71.6847734769035
20
-15.9055891704838
30
0
41
1
10
71.6847861712697
20
-15.9056071426572
30
0
41
1
10
71.6847988731748
20
-15.905625117406
30
0
41
1
10
71.7076426269302
20
-15.9379372747399
30
0
41
1
10
71.7557065010376
20
-15.9800089839834
30
0
41
1
10
71.8584403351155
20
-16.0817383945238
30
0
41
1
10
71.9073229936033
20
-16.1336211003166
30
0
41
1
10
71.9540546539912
20
-16.1969971807626
30
0
0
SPLINE
5
248
100
AcDbEntity
8
1
62
256
6
ByLayer
370
-1
48
1
60
0
100
AcDbSpline
70
4
71
3
72
8
73
4
40
0
40
0
40
0
40
0
40
1
40
1
40
1
40
1
41
1
10
73.5928989174029
20
-18.2381268689274
30
0
41
1
10
73.6580010376141
20
-18.3161768033892
30
0
41
1
10
73.7287653453384
20
-18.393918941594
30
0
41
1
10
73.8049427528215
20
-18.4712638749495
30
0
0
SPLINE
5
249
100
AcDbEntity
8
1
62
256
6
ByLayer
370
-1
48
1
60
0
100
AcDbSpline
70
4
71
3
72
8
73
4
40
0
40
0
40
0
40
0
40
1
40
1
40
1
40
1
41
1
10
71.341219099496
20
-15.6309947754705
30
0
41
1
10
71.4782382121242
20
-15.670991157992
30
0
41
1
10
71.5961346225564
20
-15.7429234784396
30
0
41
1
10
71.6995509716657
20
-15.8296048486618
30
0
0
SPLINE
5
24A
100
AcDbEntity
8
1
62
256
6
ByLayer
370
-1
48
1
60
0
100
AcDbSpline
70
4
71
3
72
16
73
12
40
0
40
0
40
0
40
0
40
0.270525378058593
40
0.270525378058593
40
0.599384185955625
40
0.599384185955625
40
0.762140188651944
40
0.762140188651944
40
0.896616864840276
40
0.896616864840276
40
1
40
1
40
1
40
1
41
1
10
13.8943375672974
20
-29.9139548464691
30
0
41
1
10
13.8776365922086
20
-29.9340973114522
30
0
41
1
10
13.8572362209579
20
-29.9538166638149
30
0
41
1
10
13.8009393101033
20
-29.9958084253268
30
0
41
1
10
13.7623213481302
20
-30.0181074912897
30
0
41
1
10
13.6864544953215
20
-30.0467588108259
30
0
41
1
10
13.6578252730083
20
-30.0555916882576
30
0
41
1
10
13.5987984461957
20
-30.0688029947856
30
0
41
1
10
13.5689448142149
20
-30.0737774310785
30
0
41
1
10
13.5129283913933
20
-30.0792804002415
30
0
41
1
10
13.4869872498695
20
-30.0805927603169
30
0
41
1
10
13.4613248654052
20
-30.0805927603169
30
0
0
SPLINE
5
24B
100
AcDbEntity
8
1
62
256
6
ByLayer
370
-1
48
1
60
0
100
AcDbSpline
70
4
71
3
72
16
73
12
40
0
40
0
40
0
40
0
40
0.270525378058462
40
0.270525378058462
40
0.599384185955601
40
0.599384185955601
40
0.762140188651907
40
0.762140188651907
40
0.896616864840264
40
0.896616864840264
40
1
40
1
40
1
40
1
41
1
10
10.1056624327026
20
-9.86941261896612
30
0
41
1
10
10.1223634077914
20
-9.80836128680866
30
0
41
1
10
10.1427637790421
20
-9.74795557584926
30
0
41
1
10
10.1990606898966
20
-9.61806206841857
30
0
41
1
10
10.2376786518697
20
-9.54815463560527
30
0
41
1
10
10.3135455046785
20
-9.45744596321495
30
0
41
1
10
10.3421747269917
20
-9.42931579222244
30
0
41
1
10
10.4012015538043
20
-9.38709146615406
30
0
41
1
10
10.4310551857851
20
-9.37112695979135
30
0
41
1
10
10.4870716086066
20
-9.35344618198363
30
0
41
1
10
10.5130127501305
20
-9.34922131452504
30
0
41
1
10
10.5386751345948
20
-9.34922131452504
30
0
0
SPLINE
5
24C
100
AcDbEntity
8
1
62
256
6
ByLayer
370
-1
48
1
60
0
100
AcDbSpline
70
4
71
3
72
8
73
4
40
0
40
0
40
0
40
0
40
1
40
1
40
1
40
1
41
1
10
73.8049427528215
20
-18.4712638749495
30
0
41
1
10
73.3194245218667
20
-17.8842340966337
30
0
41
1
10
72.8354322933321
20
-17.2960185028545
30
0
41
1
10
72.3535345733807
20
-16.7062052163669
30
0
0
SPLINE
5
24D
100
AcDbEntity
8
1
62
256
6
ByLayer
370
-1
48
1
60
0
100
AcDbSpline
70
4
71
3
72
18
73
14
40
0
40
0
40
0
40
0
40
0.0048641047853628
40
0.0048641047853628
40
0.113203312756749
40
0.113203312756749
40
0.252307002956659
40
0.252307002956659
40
0.472239664393867
40
0.472239664393867
40
0.894682818087803
40
0.894682818087803
40
1
40
1
40
1
40
1
41
1
10
10.5386751345948
20
-30.0805927603169
30
0
41
1
10
10.5374517449547
20
-30.0805927603169
30
0
41
1
10
10.5362283172892
20
-30.0805898964002
30
0
41
1
10
10.5081150012138
20
-30.0804582858311
30
0
41
1
10
10.4809957906556
20
-30.0788870212281
30
0
41
1
10
10.4232970512377
20
-30.0726800181318
30
0
41
1
10
10.3929559316025
20
-30.0672635530197
30
0
41
1
10
10.3234057971774
20
-30.0507602157503
30
0
41
1
10
10.2875093950935
20
-30.0379954087022
30
0
41
1
10
10.1989273616437
20
-29.9983076443639
30
0
41
1
10
10.1580217765466
20
-29.968274932258
30
0
41
1
10
10.1193258147041
20
-29.9296718333698
30
0
41
1
10
10.1122083227877
20
-29.9218496167517
30
0
41
1
10
10.1056624327026
20
-29.9139548464691
30
0
0
SPLINE
5
24E
100
AcDbEntity
8
1
62
256
6
ByLayer
370
-1
48
1
60
0
100
AcDbSpline
70
4
71
3
72
16
73
12
40
0
40
0
40
0
40
0
40
0.270525378058565
40
0.270525378058565
40
0.599384185955612
40
0.599384185955612
40
0.76214018865193
40
0.76214018865193
40
0.896616864840277
40
0.896616864840277
40
1
40
1
40
1
40
1
41
1
10
13.8943375672974
20
9.86941261896609
30
0
41
1
10
13.8776365922086
20
9.80836128680863
30
0
41
1
10
13.8572362209579
20
9.7479555758492
30
0
41
1
10
13.8009393101034
20
9.61806206841851
30
0
41
1
10
13.7623213481302
20
9.54815463560524
30
0
41
1
10
13.6864544953215
20
9.45744596321492
30
0
41
1
10
13.6578252730083
20
9.42931579222241
30
0
41
1
10
13.5987984461957
20
9.38709146615406
30
0
41
1
10
13.5689448142149
20
9.37112695979135
30
0
41
1
10
13.5129283913933
20
9.35344618198363
30
0
41
1
10
13.4869872498695
20
9.34922131452504
30
0
41
1
10
13.4613248654052
20
9.34922131452504
30
0
0
SPLINE
5
24F
100
AcDbEntity
8
1
62
256
6
ByLayer
370
-1
48
1
60
0
100
AcDbSpline
70
4
71
3
72
8
73
4
40
0
40
0
40
0
40
0
40
1
40
1
40
1
40
1
41
1
10
76.5396364608437
20
-13.234868791676
30
0
41
1
10
76.6173725817542
20
-13.4583146833963
30
0
41
1
10
76.6941312865124
20
-13.6778338688838
30
0
41
1
10
76.7697923643457
20
-13.8939576553307
30
0
0
SPLINE
5
250
100
AcDbEntity
8
1
62
256
6
ByLayer
370
-1
48
1
60
0
100
AcDbSpline
70
4
71
3
72
18
73
14
40
0
40
0
40
0
40
0
40
0.0048641047853794
40
0.0048641047853794
40
0.113203312756778
40
0.113203312756778
40
0.252307002956694
40
0.252307002956694
40
0.472239664393917
40
0.472239664393917
40
0.894682818087876
40
0.894682818087876
40
1
40
1
40
1
40
1
41
1
10
13.4613248654052
20
-9.34922131452504
30
0
41
1
10
13.4625482550453
20
-9.34922131452504
30
0
41
1
10
13.4637716827108
20
-9.34923052903076
30
0
41
1
10
13.4918849987862
20
-9.34965397724795
30
0
41
1
10
13.5190042093444
20
-9.354712145283
30
0
41
1
10
13.5767029487623
20
-9.37464954573258
30
0
41
1
10
13.6070440683975
20
-9.39202437584845
30
0
41
1
10
13.6765942028226
20
-9.44473147370712
30
0
41
1
10
13.7124906049065
20
-9.48529706929929
30
0
41
1
10
13.8010726383563
20
-9.61035706938739
30
0
41
1
10
13.8419782234534
20
-9.70372859127173
30
0
41
1
10
13.8806741852959
20
-9.82167814889493
30
0
41
1
10
13.8877916772123
20
-9.84548375806273
30
0
41
1
10
13.8943375672974
20
-9.86941261896609
30
0
0
SPLINE
5
251
100
AcDbEntity
8
1
62
256
6
ByLayer
370
-1
48
1
60
0
100
AcDbSpline
70
4
71
3
72
18
73
14
40
0
40
0
40
0
40
0
40
0.0048641047853987
40
0.0048641047853987
40
0.113203312756789
40
0.113203312756789
40
0.252307002956709
40
0.252307002956709
40
0.472239664393952
40
0.472239664393952
40
0.894682818087943
40
0.894682818087943
40
1
40
1
40
1
40
1
41
1
10
13.4613248654052
20
30.0805927603169
30
0
41
1
10
13.4625482550453
20
30.0805927603169
30
0
41
1
10
13.4637716827108
20
30.0805898964002
30
0
41
1
10
13.4918849987862
20
30.0804582858311
30
0
41
1
10
13.5190042093444
20
30.0788870212281
30
0
41
1
10
13.5767029487623
20
30.0726800181318
30
0
41
1
10
13.6070440683976
20
30.0672635530197
30
0
41
1
10
13.6765942028226
20
30.0507602157503
30
0
41
1
10
13.7124906049065
20
30.0379954087022
30
0
41
1
10
13.8010726383563
20
29.9983076443639
30
0
41
1
10
13.8419782234534
20
29.968274932258
30
0
41
1
10
13.8806741852959
20
29.9296718333698
30
0
41
1
10
13.8877916772123
20
29.9218496167517
30
0
41
1
10
13.8943375672974
20
29.9139548464691
30
0
0
SPLINE
5
252
100
AcDbEntity
8
1
62
256
6
ByLayer
370
-1
48
1
60
0
100
AcDbSpline
70
4
71
3
72
10
73
6
40
0
40
0
40
0
40
0
40
0.70949562281672
40
0.70949562281672
40
1
40
1
40
1
40
1
41
1
10
85.8398038349676
20
-19.6064123582383
30
0
41
1
10
85.8630546515993
20
-19.6165434392561
30
0
41
1
10
85.888166127392
20
-19.6219874249782
30
0
41
1
10
85.9228031113537
20
-19.6236746442518
30
0
41
1
10
85.9329839697444
20
-19.6234717072203
30
0
41
1
10
85.9431008469153
20
-19.6226363932798
30
0
0
SPLINE
5
253
100
AcDbEntity
8
1
62
256
6
ByLayer
370
-1
48
1
60
0
100
AcDbSpline
70
4
71
3
72
12
73
8
40
0
40
0
40
0
40
0
40
0.347623173836834
40
0.347623173836834
40
0.69650337129484
40
0.69650337129484
40
1
40
1
40
1
40
1
41
1
10
89.5541252467711
20
-9.73744596379476
30
0
41
1
10
89.5470503978908
20
-9.72517693413729
30
0
41
1
10
89.5419007205696
20
-9.71161639884744
30
0
41
1
10
89.5363304274205
20
-9.6841472374995
30
0
41
1
10
89.535863542846
20
-9.66983960752347
30
0
41
1
10
89.5394551123435
20
-9.64466621444791
30
0
41
1
10
89.5429802934248
20
-9.63330453599437
30
0
41
1
10
89.5479866932225
20
-9.62320682869435
30
0
0
SPLINE
5
254
100
AcDbEntity
8
1
62
256
6
ByLayer
370
-1
48
1
60
0
100
AcDbSpline
70
4
71
3
72
24
73
20
40
0
40
0
40
0
40
0
40
0.0154450745970632
40
0.0154450745970632
40
0.0417985895668768
40
0.0417985895668768
40
0.0483972597877292
40
0.0483972597877292
40
0.102103855500575
40
0.102103855500575
40
0.185330321122069
40
0.185330321122069
40
0.354377449491648
40
0.354377449491648
40
0.535348727399446
40
0.535348727399446
40
0.666091500997342
40
0.666091500997342
40
1
40
1
40
1
40
1
41
1
10
88.6851538154918
20
-13.7128168472421
30
0
41
1
10
88.6841944096306
20
-13.7158641974977
30
0
41
1
10
88.6836752576174
20
-13.7190606953896
30
0
41
1
10
88.6834606556868
20
-13.7275802633051
30
0
41
1
10
88.684571180002
20
-13.7329798414603
30
0
41
1
10
88.6868579523849
20
-13.7392705592943
30
0
41
1
10
88.6873676630204
20
-13.740527697066
30
0
41
1
10
88.6923162607559
20
-13.7516964152693
30
0
41
1
10
88.6991111068649
20
-13.7605933429263
30
0
41
1
10
88.717918098235
20
-13.7812625990753
30
0
41
1
10
88.7311714111494
20
-13.7922972891917
30
0
41
1
10
88.7726959197032
20
-13.8234089180133
30
0
41
1
10
88.8028806679834
20
-13.8413328259436
30
0
41
1
10
88.8664245003498
20
-13.8761066997543
30
0
41
1
10
88.9001500789516
20
-13.8926876339007
30
0
41
1
10
88.9588717218141
20
-13.9199110577943
30
0
41
1
10
88.9837238482399
20
-13.9309117127504
30
0
41
1
10
89.0725376834062
20
-13.968899489545
30
0
41
1
10
89.1372933387234
20
-13.994244836211
30
0
41
1
10
89.2024794711793
20
-14.0184717662535
30
0
0
SPLINE
5
255
100
AcDbEntity
8
1
62
256
6
ByLayer
370
-1
48
1
60
0
100
AcDbSpline
70
4
71
3
72
16
73
12
40
0
40
0
40
0
40
0
40
0.0426292751499154
40
0.0426292751499154
40
0.0996436166287495
40
0.0996436166287495
40
0.207156078099348
40
0.207156078099348
40
0.58080689029927
40
0.58080689029927
40
1
40
1
40
1
40
1
41
1
10
88.8332924993804
20
-13.1225230205594
30
0
41
1
10
88.8360411984967
20
-13.1132504869349
30
0
41
1
10
88.8407316707448
20
-13.1043929469536
30
0
41
1
10
88.8544671885374
20
-13.0861482704698
30
0
41
1
10
88.8645603828548
20
-13.0771999454482
30
0
41
1
10
88.895687646951
20
-13.0553548821654
30
0
41
1
10
88.9190365732361
20
-13.0451281086248
30
0
41
1
10
89.0240019155125
20
-13.0084880381523
30
0
41
1
10
89.111956822972
20
-12.9996264929021
30
0
41
1
10
89.2952818347612
20
-12.9877924053425
30
0
41
1
10
89.392834630849
20
-12.9881015381836
30
0
41
1
10
89.4900555765012
20
-12.9913354727483
30
0
0
SPLINE
5
256
100
AcDbEntity
8
1
62
256
6
ByLayer
370
-1
48
1
60
0
100
AcDbSpline
70
4
71
3
72
16
73
12
40
0
40
0
40
0
40
0
40
0.0426292751499093
40
0.0426292751499093
40
0.0996436166287459
40
0.0996436166287459
40
0.207156078099349
40
0.207156078099349
40
0.580806890299258
40
0.580806890299258
40
1
40
1
40
1
40
1
41
1
10
84.184616422264
20
-17.3876199113404
30
0
41
1
10
84.1915436649207
20
-17.3945196103615
30
0
41
1
10
84.1971204047606
20
-17.4028380248573
30
0
41
1
10
84.206554318958
20
-17.4233808439934
30
0
41
1
10
84.2094899469838
20
-17.4362644955191
30
0
41
1
10
84.2133875132128
20
-17.4731442676573
30
0
41
1
10
84.2107894829927
20
-17.4977525804541
30
0
41
1
10
84.1907421192702
20
-17.6037487750255
30
0
41
1
10
84.1543645107257
20
-17.6817325547145
30
0
41
1
10
84.0725935024792
20
-17.8409825910019
30
0
41
1
10
84.0231583671109
20
-17.9224470015774
30
0
41
1
10
83.9712685222777
20
-18.0021828093749
30
0
0
SPLINE
5
257
100
AcDbEntity
8
1
62
256
6
ByLayer
370
-1
48
1
60
0
100
AcDbSpline
70
4
71
3
72
18
73
14
40
0
40
0
40
0
40
0
40
0.439677344605702
40
0.439677344605702
40
0.819840138515269
40
0.819840138515269
40
0.920758376963025
40
0.920758376963025
40
0.968467673881563
40
0.968467673881563
40
0.990240013274128
40
0.990240013274128
40
1
40
1
40
1
40
1
41
1
10
82.3464270749264
20
-10.8451012531877
30
0
41
1
10
82.3850398882892
20
-10.9299115288795
30
0
41
1
10
82.4255300286196
20
-11.0140127776306
30
0
41
1
10
82.5087406253859
20
-11.1665902141964
30
0
41
1
10
82.5491358125622
20
-11.2375311720448
30
0
41
1
10
82.6161105968758
20
-11.3149709989136
30
0
41
1
10
82.6313269517236
20
-11.3307966184966
30
0
41
1
10
82.6575573198841
20
-11.3489630054744
30
0
41
1
10
82.666819430522
20
-11.3541305344955
30
0
41
1
10
82.6813803253505
20
-11.3579453634003
30
0
41
1
10
82.6862120796345
20
-11.3585813792005
30
0
41
1
10
82.6931136453418
20
-11.3582242758911
30
0
41
1
10
82.6952642265428
20
-11.35793335293
30
0
41
1
10
82.6973628002793
20
-11.3574561232627
30
0
0
SPLINE
5
258
100
AcDbEntity
8
1
62
256
6
ByLayer
370
-1
48
1
60
0
100
AcDbSpline
70
4
71
3
72
18
73
14
40
0
40
0
40
0
40
0
40
0.439677344605714
40
0.439677344605714
40
0.81984013851527
40
0.81984013851527
40
0.920758376963035
40
0.920758376963035
40
0.968467673881574
40
0.968467673881574
40
0.990240013274135
40
0.990240013274135
40
1
40
1
40
1
40
1
41
1
10
89.4856243699837
20
-13.076557193586
30
0
41
1
10
89.3915234179367
20
-13.0687964180292
30
0
41
1
10
89.2971062263633
20
-13.062949588978
30
0
41
1
10
89.1209332270556
20
-13.0605518141131
30
0
41
1
10
89.0381662521438
20
-13.0608713033028
30
0
41
1
10
88.936379454369
20
-13.0804943802452
30
0
41
1
10
88.9148137405959
20
-13.0857929932835
30
0
41
1
10
88.8856777661561
20
-13.0992586550723
30
0
41
1
10
88.8764897602854
20
-13.1046062049178
30
0
41
1
10
88.865846279341
20
-13.1150609811731
30
0
41
1
10
88.8628700360824
20
-13.1188295511779
30
0
41
1
10
88.8597351689593
20
-13.1248139536508
30
0
41
1
10
88.8589167817798
20
-13.1267641167022
30
0
41
1
10
88.8582887261909
20
-13.1287590027423
30
0
0
SPLINE
5
259
100
AcDbEntity
8
1
62
256
6
ByLayer
370
-1
48
1
60
0
100
AcDbSpline
70
4
71
3
72
12
73
8
40
0
40
0
40
0
40
0
40
0.474376698371065
40
0.474376698371065
40
0.706219783413771
40
0.706219783413771
40
1
40
1
40
1
40
1
41
1
10
82.611521341396
20
-17.7760408293623
30
0
41
1
10
82.6340272513862
20
-17.7834533540439
30
0
41
1
10
82.6600562996099
20
-17.7939292726391
30
0
41
1
10
82.7007315433508
20
-17.8126399652501
30
0
41
1
10
82.7146083744865
20
-17.8193802989646
30
0
41
1
10
82.7463681539067
20
-17.8355693298915
30
0
41
1
10
82.7644977191443
20
-17.8453450375598
30
0
41
1
10
82.7824852161581
20
-17.8555508083198
30
0
0
SPLINE
5
25A
100
AcDbEntity
8
1
62
256
6
ByLayer
370
-1
48
1
60
0
100
AcDbSpline
70
4
71
3
72
12
73
8
40
0
40
0
40
0
40
0
40
0.347623173836898
40
0.347623173836898
40
0.696503371294913
40
0.696503371294913
40
1
40
1
40
1
40
1
41
1
10
86.7526194007186
20
-19.5202413776193
30
0
41
1
10
86.7666678476777
20
-19.5196618326364
30
0
41
1
10
86.7809381549005
20
-19.5213832799838
30
0
41
1
10
86.8077731599583
20
-19.5294851155642
30
0
41
1
10
86.8207179949088
20
-19.5360234807311
30
0
41
1
10
86.8418344427972
20
-19.5520379631345
30
0
41
1
10
86.8506519843863
20
-19.5612162890356
30
0
41
1
10
86.8578399044045
20
-19.5713690651681
30
0
0
SPLINE
5
25B
100
AcDbEntity
8
1
62
256
6
ByLayer
370
-1
48
1
60
0
100
AcDbSpline
70
4
71
3
72
20
73
16
40
0
40
0
40
0
40
0
40
0.51136520436743
40
0.51136520436743
40
0.617167309555437
40
0.617167309555437
40
0.785488434327101
40
0.785488434327101
40
0.873398812153854
40
0.873398812153854
40
0.935684402254225
40
0.935684402254225
40
0.978722765374123
40
0.978722765374123
40
1
40
1
40
1
40
1
41
1
10
83.1323215128037
20
-17.1703386782686
30
0
41
1
10
83.2288419751794
20
-17.1068769247207
30
0
41
1
10
83.3280997158312
20
-17.0463216852593
30
0
41
1
10
83.4546693756342
20
-16.9864233537817
30
0
41
1
10
83.4767019160876
20
-16.9766479559551
30
0
41
1
10
83.5345529821068
20
-16.9534094047997
30
0
41
1
10
83.5710680851527
20
-16.9408311440281
30
0
41
1
10
83.6282470269165
20
-16.9289392305923
30
0
41
1
10
83.6483508642
20
-16.9261449966171
30
0
41
1
10
83.6826045468015
20
-16.9261542319456
30
0
41
1
10
83.697023505916
20
-16.9276026312924
30
0
41
1
10
83.7199808064597
20
-16.9342999489616
30
0
41
1
10
83.7291200837171
20
-16.938351584792
30
0
41
1
10
83.7411233336505
20
-16.9465359828104
30
0
41
1
10
83.7448775092763
20
-16.9496294585906
30
0
41
1
10
83.7482836379094
20
-16.9530220440045
30
0
0
SPLINE
5
25C
100
AcDbEntity
8
1
62
256
6
ByLayer
370
-1
48
1
60
0
100
AcDbSpline
70
4
71
3
72
14
73
10
40
0
40
0
40
0
40
0
40
0.249606055014989
40
0.249606055014989
40
0.499158243446871
40
0.499158243446871
40
0.746144217743601
40
0.746144217743601
40
1
40
1
40
1
40
1
41
1
10
89.9988185797055
20
-13.3455504838605
30
0
41
1
10
89.9988334068592
20
-13.3282981019065
30
0
41
1
10
89.9988744089185
20
-13.3114600655876
30
0
41
1
10
89.9990059405457
20
-13.2793013371837
30
0
41
1
10
89.9990969086179
20
-13.263868357939
30
0
41
1
10
89.9993237552176
20
-13.2350491912626
30
0
41
1
10
89.9994599123583
20
-13.2215478140882
30
0
41
1
10
89.9997776667996
20
-13.1963948758896
30
0
41
1
10
89.9999615286451
20
-13.1847175851101
30
0
41
1
10
90.0001645144408
20
-13.1743607887026
30
0
0
SPLINE
5
25D
100
AcDbEntity
8
1
62
256
6
ByLayer
370
-1
48
1
60
0
100
AcDbSpline
70
4
71
2
72
6
73
3
40
0
40
0
40
0
40
1
40
1
40
1
41
0.500001284082712
10
86.8578399044045
20
-19.5713690651681
30
0
41
0.499998715917288
10
86.858437331905
20
-19.5722129181398
30
0
41
0.500001284082712
10
86.859033979457
20
-19.573057266447
30
0
0
SPLINE
5
25E
100
AcDbEntity
8
1
62
256
6
ByLayer
370
-1
48
1
60
0
100
AcDbSpline
70
4
71
3
72
24
73
20
40
0
40
0
40
0
40
0
40
0.0154450745970606
40
0.0154450745970606
40
0.0417985895668927
40
0.0417985895668927
40
0.0483972597877391
40
0.0483972597877391
40
0.102103855500583
40
0.102103855500583
40
0.185330321122067
40
0.185330321122067
40
0.354377449491647
40
0.354377449491647
40
0.535348727399449
40
0.535348727399449
40
0.666091500997334
40
0.666091500997334
40
1
40
1
40
1
40
1
41
1
10
83.7295110772649
20
-16.9699914613254
30
0
41
1
10
83.7272652305627
20
-16.9676806255588
30
0
41
1
10
83.7246569782995
20
-16.9656542037167
30
0
41
1
10
83.7170993833281
20
-16.9612070506699
30
0
41
1
10
83.7116634817384
20
-16.9594055303532
30
0
41
1
10
83.7048158199375
20
-16.9581167904758
30
0
41
1
10
83.7034200583772
20
-16.957902261072
30
0
41
1
10
83.6908019908416
20
-16.9563391443538
30
0
41
1
10
83.679271954699
20
-16.9574213713445
30
0
41
1
10
83.6509193985499
20
-16.962400088838
30
0
41
1
10
83.6341174680789
20
-16.9676788661506
30
0
41
1
10
83.5845899095937
20
-16.9859528473913
30
0
41
1
10
83.5528098480983
20
-17.0015877638019
30
0
41
1
10
83.4885693836333
20
-17.0359831363987
30
0
41
1
10
83.4561610745211
20
-17.0551773085544
30
0
41
1
10
83.4012138517763
20
-17.0894211538427
30
0
41
1
10
83.3784275358792
20
-17.104174375464
30
0
41
1
10
83.2981877602043
20
-17.1575603767459
30
0
41
1
10
83.2417984242115
20
-17.1976609144383
30
0
41
1
10
83.1861905812906
20
-17.2386703754825
30
0
0
SPLINE
5
25F
100
AcDbEntity
8
1
62
256
6
ByLayer
370
-1
48
1
60
0
100
AcDbSpline
70
4
71
3
72
16
73
12
40
0
40
0
40
0
40
0
40
0.0426292751498773
40
0.0426292751498773
40
0.0996436166287372
40
0.0996436166287372
40
0.207156078099323
40
0.207156078099323
40
0.580806890299251
40
0.580806890299251
40
1
40
1
40
1
40
1
41
1
10
82.7037017156807
20
-11.3824306906103
30
0
41
1
10
82.6940257739078
20
-11.3848035252136
30
0
41
1
10
82.6837585618197
20
-11.3853426506991
30
0
41
1
10
82.6605891298297
20
-11.3830445080469
30
0
41
1
10
82.6475603074866
20
-11.3791091815428
30
0
41
1
10
82.6125354771614
20
-11.3640744726873
30
0
41
1
10
82.5917845810963
20
-11.3496929334312
30
0
41
1
10
82.5068666025425
20
-11.2803368093322
30
0
41
1
10
82.4552893036275
20
-11.2112145748934
30
0
41
1
10
82.3537353000847
20
-11.0637986261657
30
0
41
1
10
82.3056176393653
20
-10.982025082749
30
0
41
1
10
82.2602865385463
20
-10.8990553403868
30
0
0
SPLINE
5
260
100
AcDbEntity
8
1
62
256
6
ByLayer
370
-1
48
1
60
0
100
AcDbSpline
70
4
71
3
72
20
73
16
40
0
40
0
40
0
40
0
40
0.511365204366867
40
0.511365204366867
40
0.617167309555265
40
0.617167309555265
40
0.785488434327002
40
0.785488434327002
40
0.873398812153786
40
0.873398812153786
40
0.935684402254179
40
0.935684402254179
40
0.978722765374107
40
0.978722765374107
40
1
40
1
40
1
40
1
41
1
10
83.4287469730172
20
-10.6098164085547
30
0
41
1
10
83.4369993305704
20
-10.7220530933078
30
0
41
1
10
83.4412668021278
20
-10.8351380410471
30
0
41
1
10
83.4311825890001
20
-10.9707476835372
30
0
41
1
10
83.4288432663654
20
-10.9940307170226
30
0
41
1
10
83.4205235805715
20
-11.0539603113067
30
0
41
1
10
83.413398943516
20
-11.0907506805546
30
0
41
1
10
83.3952462777009
20
-11.1444890084953
30
0
41
1
10
83.3876206007028
20
-11.1626951157251
30
0
41
1
10
83.3703514837783
20
-11.1913489552859
30
0
41
1
10
83.3617871840506
20
-11.2026940763782
30
0
41
1
10
83.3442149298857
20
-11.2185788941865
30
0
41
1
10
83.3359774583124
20
-11.2242153228326
30
0
41
1
10
83.3225919901901
20
-11.2301976865181
30
0
41
1
10
83.3179270760795
20
-11.231803989501
30
0
41
1
10
83.3131694107344
20
-11.2329707134465
30
0
0
SPLINE
5
261
100
AcDbEntity
8
1
62
256
6
ByLayer
370
-1
48
1
60
0
100
AcDbSpline
70
4
71
3
72
12
73
8
40
0
40
0
40
0
40
0
40
0.474376698371071
40
0.474376698371071
40
0.706219783413753
40
0.706219783413753
40
1
40
1
40
1
40
1
41
1
10
83.1016267640547
20
-9.80608433076608
30
0
41
1
10
83.0784393712354
20
-9.81369625033955
30
0
41
1
10
83.0518793684276
20
-9.82440165525961
30
0
41
1
10
83.0106906963518
20
-9.84346958286199
30
0
41
1
10
82.9966869500109
20
-9.85033158089928
30
0
41
1
10
82.9647397580637
20
-9.86679861415655
30
0
41
1
10
82.9465754479039
20
-9.87673269981281
30
0
41
1
10
82.928621958918
20
-9.8870953086338
30
0
0
SPLINE
5
262
100
AcDbEntity
8
1
62
256
6
ByLayer
370
-1
48
1
60
0
100
AcDbSpline
70
4
71
2
72
6
73
3
40
0
40
0
40
0
40
1
40
1
40
1
41
0.500001284519642
10
79.2954260720382
20
-12.3854866600008
30
0
41
0.499998715480359
10
79.2944232935619
20
-12.3856472329708
30
0
41
0.500001284519642
10
79.2934221311149
20
-12.3858093243472
30
0
0
SPLINE
5
263
100
AcDbEntity
8
1
62
256
6
ByLayer
370
-1
48
1
60
0
100
AcDbSpline
70
4
71
3
72
12
73
8
40
0
40
0
40
0
40
0
40
0.347623173836869
40
0.347623173836869
40
0.696503371294806
40
0.696503371294806
40
1
40
1
40
1
40
1
41
1
10
79.394563489464
20
-12.3232266796432
30
0
41
1
10
79.3874886405837
20
-12.3345209735852
30
0
41
1
10
79.3782734829346
20
-12.3449089850807
30
0
41
1
10
79.3568915215767
20
-12.3624764381258
30
0
41
1
10
79.3443906795926
20
-12.3698942984611
30
0
41
1
10
79.3197533416291
20
-12.380138194736
30
0
41
1
10
79.3074909526799
20
-12.3835547340939
30
0
41
1
10
79.2954260720382
20
-12.3854866600008
30
0
0
SPLINE
5
264
100
AcDbEntity
8
1
62
256
6
ByLayer
370
-1
48
1
60
0
100
AcDbSpline
70
4
71
3
72
14
73
10
40
0
40
0
40
0
40
0
40
0.249606055014991
40
0.249606055014991
40
0.499158243446861
40
0.499158243446861
40
0.746144217743578
40
0.746144217743578
40
1
40
1
40
1
40
1
41
1
10
83.3432996562534
20
-18.1737464755703
30
0
41
1
10
83.3589843871608
20
-18.1826456997342
30
0
41
1
10
83.374684051586
20
-18.1919405087066
30
0
41
1
10
83.4054542452958
20
-18.2109148462967
30
0
41
1
10
83.4206319070349
20
-18.220660149995
30
0
41
1
10
83.4498153198994
20
-18.240166788466
30
0
41
1
10
83.4639284453082
20
-18.2499916661694
30
0
41
1
10
83.4911671830363
20
-18.2697673352095
30
0
41
1
10
83.504349288129
20
-18.2797828986409
30
0
41
1
10
83.5166299309381
20
-18.2895825839837
30
0
0
SPLINE
5
265
100
AcDbEntity
8
1
62
256
6
ByLayer
370
-1
48
1
60
0
100
AcDbSpline
70
4
71
3
72
10
73
6
40
0
40
0
40
0
40
0
40
0.709495622816726
40
0.709495622816726
40
1
40
1
40
1
40
1
41
1
10
90.0012058988419
20
-10.6196308294668
30
0
41
1
10
89.9987534331304
20
-10.5950728089116
30
0
41
1
10
89.992130941094
20
-10.5694576979036
30
0
41
1
10
89.9783043093756
20
-10.5360319567916
30
0
41
1
10
89.9736778280507
20
-10.5264343014397
30
0
41
1
10
89.9685421027961
20
-10.5171583036374
30
0
0
SPLINE
5
266
100
AcDbEntity
8
1
62
256
6
ByLayer
370
-1
48
1
60
0
100
AcDbSpline
70
4
71
3
72
10
73
6
40
0
40
0
40
0
40
0
40
0.709495622816768
40
0.709495622816768
40
1
40
1
40
1
40
1
41
1
10
79.8806009035156
20
-11.666530434805
30
0
41
1
10
79.8598025525954
20
-11.6809573743424
30
0
41
1
10
79.8410800375326
20
-11.6975436074916
30
0
41
1
10
79.819818683946
20
-11.7223588983821
30
0
41
1
10
79.8141160707407
20
-11.7298839475895
30
0
41
1
10
79.8089803454861
20
-11.7376224350938
30
0
0
SPLINE
5
267
100
AcDbEntity
8
1
62
256
6
ByLayer
370
-1
48
1
60
0
100
AcDbSpline
70
4
71
3
72
18
73
14
40
0
40
0
40
0
40
0
40
0.439677344605707
40
0.439677344605707
40
0.819840138515276
40
0.819840138515276
40
0.920758376963036
40
0.920758376963036
40
0.96846767388158
40
0.96846767388158
40
0.990240013274129
40
0.990240013274129
40
1
40
1
40
1
40
1
41
1
10
83.8877136101134
20
-17.9425840128711
30
0
41
1
10
83.9434738421378
20
-17.8697113628993
30
0
41
1
10
83.9976718394034
20
-17.7956161811196
30
0
41
1
10
84.0911325465436
20
-17.6530858931328
30
0
41
1
10
84.1337369283884
20
-17.5853959515042
30
0
41
1
10
84.1688208119491
20
-17.4925064709321
30
0
41
1
10
84.1752269345296
20
-17.4722536057685
30
0
41
1
10
84.178204674419
20
-17.4417288655493
30
0
41
1
10
84.1781525223055
20
-17.4315507774569
30
0
41
1
10
84.1742574580355
20
-17.4176242567272
30
0
41
1
10
84.1724075854198
20
-17.4133062250155
30
0
41
1
10
84.168645365545
20
-17.4077476776194
30
0
41
1
10
84.167314059614
20
-17.4061020704288
30
0
41
1
10
84.1658438616195
20
-17.4045893286613
30
0
0
SPLINE
5
268
100
AcDbEntity
8
1
62
256
6
ByLayer
370
-1
48
1
60
0
100
AcDbSpline
70
4
71
3
72
24
73
20
40
0
40
0
40
0
40
0
40
0.0154450745970608
40
0.0154450745970608
40
0.0417985895668279
40
0.0417985895668279
40
0.0483972597876709
40
0.0483972597876709
40
0.102103855500456
40
0.102103855500456
40
0.185330321121822
40
0.185330321121822
40
0.354377449491157
40
0.354377449491157
40
0.535348727398707
40
0.535348727398707
40
0.666091501001309
40
0.666091501001309
40
1
40
1
40
1
40
1
41
1
10
83.3068304953329
20
-11.2079961460988
30
0
41
1
10
83.3100362369561
20
-11.2072671390681
30
0
41
1
10
83.3131627834358
20
-11.2060838951529
30
0
41
1
10
83.3209294018768
20
-11.2019258464519
30
0
41
1
10
83.3252477329253
20
-11.1982196234134
30
0
41
1
10
83.3297976113133
20
-11.1930486173486
30
0
41
1
10
83.3306813130395
20
-11.1919699469062
30
0
41
1
10
83.3383287257741
20
-11.1820257518443
30
0
41
1
10
83.3430382889658
20
-11.1716532046978
30
0
41
1
10
83.3525157425412
20
-11.1449596696619
30
0
41
1
10
83.3560188834566
20
-11.1279480994575
30
0
41
1
10
83.3638818284722
20
-11.0764117669997
30
0
41
1
10
83.3653785333895
20
-11.041339226503
30
0
41
1
10
83.3658694021076
20
-10.9690113478091
30
0
41
1
10
83.3644441131766
20
-10.9315780567789
30
0
41
1
10
83.3604825401377
20
-10.8672378407317
30
0
41
1
10
83.3583378205896
20
-10.8402726480246
30
0
41
1
10
83.3494824608918
20
-10.7445806869792
30
0
41
1
10
83.3409122639889
20
-10.6760051185943
30
0
41
1
10
83.3311292740381
20
-10.607626412579
30
0
0
SPLINE
5
269
100
AcDbEntity
8
1
62
256
6
ByLayer
370
-1
48
1
60
0
100
AcDbSpline
70
4
71
3
72
12
73
8
40
0
40
0
40
0
40
0
40
0.47437669837105
40
0.47437669837105
40
0.706219783413742
40
0.706219783413742
40
1
40
1
40
1
40
1
41
1
10
89.9993088935016
20
-14.1699328000278
30
0
41
1
10
89.998968152087
20
-14.1392163969228
30
0
41
1
10
89.9987026747952
20
-14.1058092078007
30
0
41
1
10
89.9984459606277
20
-14.0562082848665
30
0
41
1
10
89.9983825030249
20
-14.0396835784135
30
0
41
1
10
89.9982887967614
20
-14.0027121161956
30
0
41
1
10
89.9982714243003
20
-13.982202279396
30
0
41
1
10
89.9982884283142
20
-13.9624169754141
30
0
0
SPLINE
5
26A
100
AcDbEntity
8
1
62
256
6
ByLayer
370
-1
48
1
60
0
100
AcDbSpline
70
4
71
3
72
20
73
16
40
0
40
0
40
0
40
0
40
0.511365204367439
40
0.511365204367439
40
0.617167309555449
40
0.617167309555449
40
0.785488434327114
40
0.785488434327114
40
0.873398812153863
40
0.873398812153863
40
0.935684402254222
40
0.935684402254222
40
0.97872276537413
40
0.97872276537413
40
1
40
1
40
1
40
1
41
1
10
89.1605421515043
20
-14.1124185356867
30
0
41
1
10
89.0557693315754
20
-14.0636436044815
30
0
41
1
10
88.9522441193675
20
-14.0111138962036
30
0
41
1
10
88.8357586726924
20
-13.9354025851911
30
0
41
1
10
88.8160654548722
20
-13.9218949495323
30
0
41
1
10
88.7665340746469
20
-13.8852039064036
30
0
41
1
10
88.7371436086565
20
-13.8609917979273
30
0
41
1
10
88.6981173327077
20
-13.8191453834224
30
0
41
1
10
88.6856391724224
20
-13.8037335101679
30
0
41
1
10
88.6686546067453
20
-13.7750704352785
30
0
41
1
10
88.6627999473585
20
-13.7622769148394
30
0
41
1
10
88.6574149009798
20
-13.7396947793619
30
0
41
1
10
88.6565130952957
20
-13.7300067148855
30
0
41
1
10
88.6578953134845
20
-13.7158399531816
30
0
41
1
10
88.6588060519693
20
-13.7111401744185
30
0
41
1
10
88.6601575886813
20
-13.7065808650591
30
0
0
SPLINE
5
26B
100
AcDbEntity
8
1
62
256
6
ByLayer
370
-1
48
1
60
0
100
AcDbSpline
70
4
71
2
72
6
73
3
40
0
40
0
40
0
40
1
40
1
40
1
41
0.500001284069257
10
89.5479866932225
20
-9.62320682869434
30
0
41
0.499998715930743
10
89.5484028025992
20
-9.62236755279536
30
0
41
0.500001284069257
10
89.5488184035136
20
-9.62153129237073
30
0
0
SPLINE
5
26C
100
AcDbEntity
8
1
62
256
6
ByLayer
370
-1
48
1
60
0
100
AcDbSpline
70
4
71
3
72
14
73
10
40
0
40
0
40
0
40
0
40
0.249606055015006
40
0.249606055015006
40
0.499158243446877
40
0.499158243446877
40
0.746144217743591
40
0.746144217743591
40
1
40
1
40
1
40
1
41
1
10
82.3688678216052
20
-10.2101808752032
30
0
41
1
10
82.3532127450052
20
-10.2192168589608
30
0
41
1
10
82.3375950846987
20
-10.2286483294172
30
0
41
1
10
82.3070879542433
20
-10.2478900669254
30
0
41
1
10
82.2920922286485
20
-10.2577670402324
30
0
41
1
10
82.2633625089836
20
-10.2775263980755
30
0
41
1
10
82.249521697856
20
-10.2874732602233
30
0
41
1
10
82.2229184690107
20
-10.307483883019
30
0
41
1
10
82.2101040876088
20
-10.3176128890403
30
0
41
1
10
82.1982294163911
20
-10.3275179825268
30
0
0
SPLINE
5
26D
100
AcDbEntity
8
1
62
256
6
ByLayer
370
-1
48
1
60
0
100
AcDbSpline
70
4
71
3
72
22
73
18
40
0
40
0
40
0
40
0
40
0.0973712659846798
40
0.0973712659846798
40
0.180296832630734
40
0.180296832630734
40
0.307445080803105
40
0.307445080803105
40
0.411978418515017
40
0.411978418515017
40
0.516185210011274
40
0.516185210011274
40
0.620250145292144
40
0.620250145292144
40
0.829289859626443
40
0.829289859626443
40
1
40
1
40
1
40
1
41
1
10
86.3263453836786
20
-15.0494673108263
30
0
41
1
10
86.3348169497029
20
-15.0622955299347
30
0
41
1
10
86.3409086494182
20
-15.0772826878415
30
0
41
1
10
86.3465178047887
20
-15.1060407660418
30
0
41
1
10
86.3469889971334
20
-15.1199798759908
30
0
41
1
10
86.3437930098433
20
-15.154476149444
30
0
41
1
10
86.3378694724084
20
-15.1752076033343
30
0
41
1
10
86.3230421231695
20
-15.2106763536005
30
0
41
1
10
86.3147414281803
20
-15.2261211391038
30
0
41
1
10
86.2961957394357
20
-15.2555074664639
30
0
41
1
10
86.2858950930477
20
-15.2695458209609
30
0
41
1
10
86.2639211097014
20
-15.2963291302287
30
0
41
1
10
86.2522088771892
20
-15.3091212227413
30
0
41
1
10
86.2154552203464
20
-15.3458272611972
30
0
41
1
10
86.1887260074053
20
-15.3681620211223
30
0
41
1
10
86.1377762947992
20
-15.4049738358879
30
0
41
1
10
86.1138767734089
20
-15.4202075967533
30
0
41
1
10
86.0892616975281
20
-15.4340536750477
30
0
0
SPLINE
5
26E
100
AcDbEntity
8
1
62
256
6
ByLayer
370
-1
48
1
60
0
100
AcDbSpline
70
4
71
3
72
24
73
20
40
0
40
0
40
0
40
0
40
0.0974021566270034
40
0.0974021566270034
40
0.180354031075328
40
0.180354031075328
40
0.307542616517285
40
0.307542616517285
40
0.412109117009766
40
0.412109117009766
40
0.516348967691105
40
0.516348967691105
40
0.620446917153758
40
0.620446917153758
40
0.724476829460425
40
0.724476829460425
40
0.933310901386785
40
0.933310901386785
40
1
40
1
40
1
40
1
41
1
10
83.7774625847393
20
-13.6398393366724
30
0
41
1
10
83.7637586940945
20
-13.640403694895
30
0
41
1
10
83.7493045673201
20
-13.6440282386463
30
0
41
1
10
83.7240757795608
20
-13.6557317754142
30
0
41
1
10
83.7127749478255
20
-13.6631605136573
30
0
41
1
10
83.6866346395021
20
-13.6849677153375
30
0
41
1
10
83.6726035401663
20
-13.7012153828164
30
0
41
1
10
83.6506235566252
20
-13.7327284575193
30
0
41
1
10
83.6418476138928
20
-13.747910413161
30
0
41
1
10
83.626364429099
20
-13.7789904202939
30
0
41
1
10
83.6196034362221
20
-13.7949863362017
30
0
41
1
10
83.6077490448384
20
-13.8273661601164
30
0
41
1
10
83.6026346635043
20
-13.843807112276
30
0
41
1
10
83.5938237970248
20
-13.8768949031111
30
0
41
1
10
83.5901177823477
20
-13.8935790287984
30
0
41
1
10
83.5808799312721
20
-13.9438334504058
30
0
41
1
10
83.5772060123785
20
-13.9776877335304
30
0
41
1
10
83.575310906217
20
-14.022121903116
30
0
41
1
10
83.5750820831053
20
-14.032880629218
30
0
41
1
10
83.5750820831053
20
-14.0436178660679
30
0
0
SPLINE
5
26F
100
AcDbEntity
8
1
62
256
6
ByLayer
370
-1
48
1
60
0
100
AcDbSpline
70
4
71
3
72
8
73
4
40
0
40
0
40
0
40
0
40
1
40
1
40
1
40
1
41
1
10
84.1862123299376
20
-12.9879938563826
30
0
41
1
10
84.1817553532875
20
-12.9841210408639
30
0
41
1
10
84.1772984033188
20
-12.9802482700227
30
0
41
1
10
84.1728414789748
20
-12.9763755420891
30
0
0
SPLINE
5
270
100
AcDbEntity
8
1
62
256
6
ByLayer
370
-1
48
1
60
0
100
AcDbSpline
70
4
71
3
72
8
73
4
40
0
40
0
40
0
40
0
40
1
40
1
40
1
40
1
41
1
10
84.8542145370912
20
-12.593100481065
30
0
41
1
10
84.8562796171392
20
-12.5983186309486
30
0
41
1
10
84.8583447098941
20
-12.603536831006
30
0
41
1
10
84.86040981588
20
-12.608755083307
30
0
0
SPLINE
5
271
100
AcDbEntity
8
1
62
256
6
ByLayer
370
-1
48
1
60
0
100
AcDbSpline
70
4
71
3
72
34
73
30
40
0
40
0
40
0
40
0
40
0.0514465755209221
40
0.0514465755209221
40
0.135786144735397
40
0.135786144735397
40
0.203131635218838
40
0.203131635218838
40
0.270315608875047
40
0.270315608875047
40
0.337431278535878
40
0.337431278535878
40
0.404515897625475
40
0.404515897625475
40
0.499929883690873
40
0.499929883690873
40
0.599210771748122
40
0.599210771748122
40
0.697083019894208
40
0.697083019894208
40
0.780957226922736
40
0.780957226922736
40
0.847546414393247
40
0.847546414393247
40
0.898875235580348
40
0.898875235580348
40
0.980803570703546
40
0.980803570703546
40
1
40
1
40
1
40
1
41
1
10
84.86040981588
20
-12.608755083307
30
0
41
1
10
84.864599060139
20
-12.6193407547657
30
0
41
1
10
84.871429302425
20
-12.6292099478744
30
0
41
1
10
84.8935161862327
20
-12.6524354992356
30
0
41
1
10
84.9116295163334
20
-12.6645414931707
30
0
41
1
10
84.9473449453899
20
-12.6827577294194
30
0
41
1
10
84.9646173990439
20
-12.6897184662248
30
0
41
1
10
85.0005561582314
20
-12.7017225738261
30
0
41
1
10
85.0193408283864
20
-12.7068057417
30
0
41
1
10
85.0578109315651
20
-12.7154158253306
30
0
41
1
10
85.0775813680365
20
-12.7189608637751
30
0
41
1
10
85.1176899418912
20
-12.724704259735
30
0
41
1
10
85.1380978093972
20
-12.7269120104047
30
0
41
1
10
85.1878611628518
20
-12.7307685374184
30
0
41
1
10
85.2175233189763
20
-12.7318054860337
30
0
41
1
10
85.2779208130224
20
-12.731519612431
30
0
41
1
10
85.3088452635758
20
-12.7300995626384
30
0
41
1
10
85.3693430508269
20
-12.7246463070942
30
0
41
1
10
85.399133034007
20
-12.7206355394389
30
0
41
1
10
85.4527769118035
20
-12.7104389539915
30
0
41
1
10
85.4770347933771
20
-12.7046165303578
30
0
41
1
10
85.5185391274958
20
-12.6917691627505
30
0
41
1
10
85.5363137443426
20
-12.6852028961874
30
0
41
1
10
85.5657749901302
20
-12.6717041404775
30
0
41
1
10
85.5779971139547
20
-12.6651630303901
30
0
41
1
10
85.6068135593615
20
-12.6463472775706
30
0
41
1
10
85.6223167523331
20
-12.6325718096957
30
0
41
1
10
85.6345987164564
20
-12.6129856180026
30
0
41
1
10
85.6366572243676
20
-12.6090796940881
30
0
41
1
10
85.6383465200832
20
-12.60507295093
30
0
0
SPLINE
5
272
100
AcDbEntity
8
1
62
256
6
ByLayer
370
-1
48
1
60
0
100
AcDbSpline
70
4
71
3
72
8
73
4
40
0
40
0
40
0
40
0
40
1
40
1
40
1
40
1
41
1
10
85.6449723255622
20
-15.4327423718504
30
0
41
1
10
85.6427637342526
20
-15.4254931593719
30
0
41
1
10
85.6405551325689
20
-15.4182439297337
30
0
41
1
10
85.6383465200832
20
-15.4109946822295
30
0
0
SPLINE
5
273
100
AcDbEntity
8
1
62
256
6
ByLayer
370
-1
48
1
60
0
100
AcDbSpline
70
4
71
3
72
34
73
30
40
0
40
0
40
0
40
0
40
0.0514465755209094
40
0.0514465755209094
40
0.135786144735375
40
0.135786144735375
40
0.203131635218827
40
0.203131635218827
40
0.270315608875067
40
0.270315608875067
40
0.33743127853592
40
0.33743127853592
40
0.404515897625511
40
0.404515897625511
40
0.499929883690868
40
0.499929883690868
40
0.599210771748116
40
0.599210771748116
40
0.697083019894196
40
0.697083019894196
40
0.780957226922741
40
0.780957226922741
40
0.847546414393246
40
0.847546414393246
40
0.898875235580344
40
0.898875235580344
40
0.980803570703572
40
0.980803570703572
40
1
40
1
40
1
40
1
41
1
10
85.6383465200833
20
-15.4109946822295
30
0
41
1
10
85.6338661606058
20
-15.3962889631541
30
0
41
1
10
85.6267452249736
20
-15.3823056930335
30
0
41
1
10
85.6039373337912
20
-15.3488759870029
30
0
41
1
10
85.5854080230136
20
-15.3308827701159
30
0
41
1
10
85.5490293761322
20
-15.3032802536406
30
0
41
1
10
85.5314874508688
20
-15.2925057833319
30
0
41
1
10
85.4950660369406
20
-15.273670839045
30
0
41
1
10
85.4760665351142
20
-15.2655472368001
30
0
41
1
10
85.4372216115947
20
-15.2516324574562
30
0
41
1
10
85.417290354282
20
-15.2458113802425
30
0
41
1
10
85.3769150366134
20
-15.2362928562732
30
0
41
1
10
85.3564007868231
20
-15.2325795158959
30
0
41
1
10
85.3064469715201
20
-15.2260274517387
30
0
41
1
10
85.2767284965646
20
-15.2241934432284
30
0
41
1
10
85.2163310025185
20
-15.2244793168312
30
0
41
1
10
85.1854675255138
20
-15.2267623030426
30
0
41
1
10
85.1252098675275
20
-15.2356140205778
30
0
41
1
10
85.0955980518439
20
-15.2421463278941
30
0
41
1
10
85.0423901413921
20
-15.2585130003228
30
0
41
1
10
85.0183762815554
20
-15.2677889746873
30
0
41
1
10
84.9773831668538
20
-15.2878714444373
30
0
41
1
10
84.959862019376
20
-15.2980249706248
30
0
41
1
10
84.930895186376
20
-15.3185209703753
30
0
41
1
10
84.9189048805374
20
-15.3283429159508
30
0
41
1
10
84.8907240518169
20
-15.356154320139
30
0
41
1
10
84.8756585545664
20
-15.3761243360766
30
0
41
1
10
84.8639382657969
20
-15.4036597144
30
0
41
1
10
84.8619893481506
20
-15.4091166294039
30
0
41
1
10
84.8604098158801
20
-15.4146768146065
30
0
0
SPLINE
5
274
100
AcDbEntity
8
1
62
256
6
ByLayer
370
-1
48
1
60
0
100
AcDbSpline
70
4
71
3
72
8
73
4
40
0
40
0
40
0
40
0
40
1
40
1
40
1
40
1
41
1
10
86.3125440060256
20
-15.0317559091539
30
0
41
1
10
86.3171444891755
20
-15.0376597198759
30
0
41
1
10
86.321744948073
20
-15.0435635202978
30
0
41
1
10
86.3263453836786
20
-15.0494673108263
30
0
0
SPLINE
5
275
100
AcDbEntity
8
1
62
256
6
ByLayer
370
-1
48
1
60
0
100
AcDbSpline
70
4
71
3
72
24
73
20
40
0
40
0
40
0
40
0
40
0.0380198325525188
40
0.0380198325525188
40
0.246834654675785
40
0.246834654675785
40
0.404726505664065
40
0.404726505664065
40
0.526150637963476
40
0.526150637963476
40
0.6215319955042
40
0.6215319955042
40
0.776890538332489
40
0.776890538332489
40
0.873684213898337
40
0.873684213898337
40
0.97174617225531
40
0.97174617225531
40
1
40
1
40
1
40
1
41
1
10
86.9273215690023
20
-14.0277510359262
30
0
41
1
10
86.9273215690023
20
-14.0338734841174
30
0
41
1
10
86.927246305988
20
-14.0399909413054
30
0
41
1
10
86.9262693760962
20
-14.0796007404391
30
0
41
1
10
86.9231936052086
20
-14.1129782257168
30
0
41
1
10
86.9134701698804
20
-14.1703994862509
30
0
41
1
10
86.9078547730731
20
-14.1948401057072
30
0
41
1
10
86.8949649545601
20
-14.2368104303549
30
0
41
1
10
86.8883504643624
20
-14.2547004673848
30
0
41
1
10
86.8744011622694
20
-14.285358782226
30
0
41
1
10
86.8675002383959
20
-14.2984527614514
30
0
41
1
10
86.8471367357279
20
-14.3308332651096
30
0
41
1
10
86.8319789092368
20
-14.3493974824605
30
0
41
1
10
86.8027368170626
20
-14.3724422245103
30
0
41
1
10
86.7901253331104
20
-14.3796932461578
30
0
41
1
10
86.7632419114001
20
-14.3885657982875
30
0
41
1
10
86.7485448774719
20
-14.390141161892
30
0
41
1
10
86.7300531367366
20
-14.3878513461183
30
0
41
1
10
86.7258651065917
20
-14.3870565951915
30
0
41
1
10
86.7217242779141
20
-14.386003516243
30
0
0
SPLINE
5
276
100
AcDbEntity
8
1
62
256
6
ByLayer
370
-1
48
1
60
0
100
AcDbSpline
70
4
71
3
72
8
73
4
40
0
40
0
40
0
40
0
40
1
40
1
40
1
40
1
41
1
10
83.7774625847393
20
-14.3999393046539
30
0
41
1
10
83.784056344762
20
-14.3975581232522
30
0
41
1
10
83.7906501419502
20
-14.395176950982
30
0
41
1
10
83.797243977836
20
-14.3927957882209
30
0
0
SPLINE
5
277
100
AcDbEntity
8
1
62
256
6
ByLayer
370
-1
48
1
60
0
100
AcDbSpline
70
4
71
3
72
34
73
30
40
0
40
0
40
0
40
0
40
0.0514465755209241
40
0.0514465755209241
40
0.135786144735386
40
0.135786144735386
40
0.203131635218838
40
0.203131635218838
40
0.270315608875065
40
0.270315608875065
40
0.337431278535901
40
0.337431278535901
40
0.404515897625482
40
0.404515897625482
40
0.499929883690892
40
0.499929883690892
40
0.599210771748104
40
0.599210771748104
40
0.697083019894182
40
0.697083019894182
40
0.780957226922726
40
0.780957226922726
40
0.847546414393241
40
0.847546414393241
40
0.898875235580359
40
0.898875235580359
40
0.980803570703552
40
0.980803570703552
40
1
40
1
40
1
40
1
41
1
10
86.3125440060256
20
-12.977929496819
30
0
41
1
10
86.303211532169
20
-12.9858728016797
30
0
41
1
10
86.2958334036538
20
-12.9956657912167
30
0
41
1
10
86.2812077391373
20
-13.0236289174958
30
0
41
1
10
86.276591820982
20
-13.0436029774718
30
0
41
1
10
86.2735942336615
20
-13.0806214300089
30
0
41
1
10
86.2741400878004
20
-13.097750172082
30
0
41
1
10
86.2780128353352
20
-13.132380960608
30
0
41
1
10
86.2813518607363
20
-13.1499970136725
30
0
41
1
10
86.2902332530617
20
-13.1853674912274
30
0
41
1
10
86.2957960268004
20
-13.2031996030802
30
0
41
1
10
86.3087722948878
20
-13.238829377502
30
0
41
1
10
86.3162089087767
20
-13.2566886988626
30
0
41
1
10
86.3361661581357
20
-13.2996806534804
30
0
41
1
10
86.3495703818313
20
-13.3248471355733
30
0
41
1
10
86.3797691288544
20
-13.37523613507
30
0
41
1
10
86.3967752636399
20
-13.4005822343315
30
0
41
1
10
86.433239680987
20
-13.4491914812778
30
0
41
1
10
86.4527787356672
20
-13.4726441527856
30
0
41
1
10
86.4913889742245
20
-13.5137322054515
30
0
41
1
10
86.5102438079333
20
-13.531846260296
30
0
41
1
10
86.5457083373327
20
-13.5616733203105
30
0
41
1
10
86.5620781587592
20
-13.5740170951843
30
0
41
1
10
86.5920453149913
20
-13.5933876022038
30
0
41
1
10
86.6054970960314
20
-13.6010315246131
30
0
41
1
10
86.6408421924449
20
-13.6176177753515
30
0
41
1
10
86.6637635194565
20
-13.624995136646
30
0
41
1
10
86.691114490479
20
-13.6271304274419
30
0
41
1
10
86.6963591844943
20
-13.6272218090692
30
0
41
1
10
86.7015123581272
20
-13.6269539773156
30
0
0
SPLINE
5
278
100
AcDbEntity
8
1
62
256
6
ByLayer
370
-1
48
1
60
0
100
AcDbSpline
70
4
71
3
72
22
73
18
40
0
40
0
40
0
40
0
40
0.0973712659846818
40
0.0973712659846818
40
0.180296832630694
40
0.180296832630694
40
0.307445080803051
40
0.307445080803051
40
0.411978418514942
40
0.411978418514942
40
0.516185210011185
40
0.516185210011185
40
0.620250145292057
40
0.620250145292057
40
0.829289859626302
40
0.829289859626302
40
1
40
1
40
1
40
1
41
1
10
84.1728414789748
20
-12.9763755420891
30
0
41
1
10
84.1646612774358
20
-12.9676708983804
30
0
41
1
10
84.1588588367914
20
-12.9567775187094
30
0
41
1
10
84.1537259071769
20
-12.9347592901161
30
0
41
1
10
84.1534565520084
20
-12.9236767081812
30
0
41
1
10
84.1570995089961
20
-12.8955062340003
30
0
41
1
10
84.163243778051
20
-12.8778987143036
30
0
41
1
10
84.1784007052706
20
-12.8470943611125
30
0
41
1
10
84.1868259283935
20
-12.833411976912
30
0
41
1
10
84.2055841370285
20
-12.8070333661285
30
0
41
1
10
84.2159734759069
20
-12.794250244132
30
0
41
1
10
84.2380989106928
20
-12.7696103719062
30
0
41
1
10
84.2498741360824
20
-12.7577097946362
30
0
41
1
10
84.2867876046085
20
-12.7232655127039
30
0
41
1
10
84.3135852798972
20
-12.7018996754393
30
0
41
1
10
84.3646110715836
20
-12.6661645801776
30
0
41
1
10
84.3885268786986
20
-12.6511613052408
30
0
41
1
10
84.4131419545795
20
-12.6373152269464
30
0
0
SPLINE
5
279
100
AcDbEntity
8
1
62
256
6
ByLayer
370
-1
48
1
60
0
100
AcDbSpline
70
4
71
3
72
24
73
20
40
0
40
0
40
0
40
0
40
0.038019832552356
40
0.038019832552356
40
0.246834654675626
40
0.246834654675626
40
0.404726505663945
40
0.404726505663945
40
0.526150637963367
40
0.526150637963367
40
0.621531995504139
40
0.621531995504139
40
0.776890538332495
40
0.776890538332495
40
0.873684213898353
40
0.873684213898353
40
0.971746172255347
40
0.971746172255347
40
1
40
1
40
1
40
1
41
1
10
84.4131419545795
20
-12.6373152269464
30
0
41
1
10
84.4186302737782
20
-12.6342280255217
30
0
41
1
10
84.4241560278189
20
-12.6311972233873
30
0
41
1
10
84.4602073306913
20
-12.611923512296
30
0
41
1
10
84.4918388400254
20
-12.597298356251
30
0
41
1
10
84.5487498252267
20
-12.5752603103231
30
0
41
1
10
84.5738041336137
20
-12.5669203661138
30
0
41
1
10
84.6186884805227
20
-12.5548199690645
30
0
41
1
10
84.6384623653713
20
-12.5504284784916
30
0
41
1
10
84.6738721530974
20
-12.5446406091115
30
0
41
1
10
84.6895450702675
20
-12.5427957604269
30
0
41
1
10
84.7302506024773
20
-12.5403751132209
30
0
41
1
10
84.7556411946572
20
-12.5412556059659
30
0
41
1
10
84.7934207062444
20
-12.5489124647766
30
0
41
1
10
84.8073572868913
20
-12.5534663547995
30
0
41
1
10
84.8313291770157
20
-12.5661654702459
30
0
41
1
10
84.841582450884
20
-12.5745935460778
30
0
41
1
10
84.8507797406463
20
-12.5871024215959
30
0
41
1
10
84.85262332601
20
-12.5900586357258
30
0
41
1
10
84.8542145370912
20
-12.593100481065
30
0
0
SPLINE
5
27A
100
AcDbEntity
8
1
62
256
6
ByLayer
370
-1
48
1
60
0
100
AcDbSpline
70
4
71
3
72
8
73
4
40
0
40
0
40
0
40
0
40
1
40
1
40
1
40
1
41
1
10
84.1728414789748
20
-15.0596602820651
30
0
41
1
10
84.1772984033188
20
-15.0537136212129
30
0
41
1
10
84.1817553532875
20
-15.0477669502357
30
0
41
1
10
84.1862123299376
20
-15.0418202687175
30
0
0
SPLINE
5
27B
100
AcDbEntity
8
1
62
256
6
ByLayer
370
-1
48
1
60
0
100
AcDbSpline
70
4
71
3
72
22
73
18
40
0
40
0
40
0
40
0
40
0.0973712659846721
40
0.0973712659846721
40
0.180296832630733
40
0.180296832630733
40
0.307445080803099
40
0.307445080803099
40
0.411978418515029
40
0.411978418515029
40
0.516185210011276
40
0.516185210011276
40
0.620250145292169
40
0.620250145292169
40
0.829289859626443
40
0.829289859626443
40
1
40
1
40
1
40
1
41
1
10
86.7217242779141
20
-13.6259035482615
30
0
41
1
10
86.7357195330442
20
-13.6263368008029
30
0
41
1
10
86.7504629188895
20
-13.6298231467986
30
0
41
1
10
86.7761679324047
20
-13.6412856035432
30
0
41
1
10
86.7876706013163
20
-13.6486064081876
30
0
41
1
10
86.8142578793373
20
-13.6701640394957
30
0
41
1
10
86.8285097102933
20
-13.6862778381229
30
0
41
1
10
86.850819271815
20
-13.7175812814163
30
0
41
1
10
86.8597197426811
20
-13.7326795710033
30
0
41
1
10
86.8754154473654
20
-13.7636120021217
30
0
41
1
10
86.8822651327315
20
-13.7795434959265
30
0
41
1
10
86.8942709755548
20
-13.811810384508
30
0
41
1
10
86.8994483497673
20
-13.8282026236984
30
0
41
1
10
86.9128456745475
20
-13.8777879052805
30
0
41
1
10
86.9189717940163
20
-13.9114971441172
30
0
41
1
10
86.9258160713853
20
-13.9726785660186
30
0
41
1
10
86.9273215690023
20
-14.0002918956417
30
0
41
1
10
86.9273215690023
20
-14.0277510359262
30
0
0
SPLINE
5
27C
100
AcDbEntity
8
1
62
256
6
ByLayer
370
-1
48
1
60
0
100
AcDbSpline
70
4
71
3
72
8
73
4
40
0
40
0
40
0
40
0
40
1
40
1
40
1
40
1
41
1
10
86.7015123581272
20
-13.6269539773156
30
0
41
1
10
86.7082497005128
20
-13.6266038097577
30
0
41
1
10
86.7149870066298
20
-13.6262536670683
30
0
41
1
10
86.7217242779141
20
-13.6259035482615
30
0
0
SPLINE
5
27D
100
AcDbEntity
8
1
62
256
6
ByLayer
370
-1
48
1
60
0
100
AcDbSpline
70
4
71
3
72
30
73
26
40
0
40
0
40
0
40
0
40
0.0511772287528855
40
0.0511772287528855
40
0.135075241067774
40
0.135075241067774
40
0.271834780652366
40
0.271834780652366
40
0.46906126691078
40
0.46906126691078
40
0.500636061959795
40
0.500636061959795
40
0.599800502489182
40
0.599800502489182
40
0.697557955314516
40
0.697557955314516
40
0.781333785463091
40
0.781333785463091
40
0.847844869822075
40
0.847844869822075
40
0.899113486931141
40
0.899113486931141
40
0.939077913069152
40
0.939077913069152
40
1
40
1
40
1
40
1
41
1
10
84.1862123299376
20
-12.9879938563827
30
0
41
1
10
84.1952536885757
20
-12.9958501941635
30
0
41
1
10
84.2023411237447
20
-13.0055747152503
30
0
41
1
10
84.2162457808864
20
-13.033402801724
30
0
41
1
10
84.2204457183651
20
-13.0533351344654
30
0
41
1
10
84.2238416383998
20
-13.1071509512143
30
0
41
1
10
84.2185236676094
20
-13.1431211488407
30
0
41
1
10
84.1953915565415
20
-13.2305980434015
30
0
41
1
10
84.1725602247578
20
-13.2839044854099
30
0
41
1
10
84.1395617190859
20
-13.3435751558255
30
0
41
1
10
84.1347966449233
20
-13.3518704485053
30
0
41
1
10
84.1144826866865
20
-13.3859581957555
30
0
41
1
10
84.0975375254497
20
-13.4114649933948
30
0
41
1
10
84.0613132373675
20
-13.4604182907427
30
0
41
1
10
84.0419523501853
20
-13.484055083575
30
0
41
1
10
84.0037780789728
20
-13.5255065729164
30
0
41
1
10
83.9851672669993
20
-13.543797960268
30
0
41
1
10
83.9502139570169
20
-13.5739583222143
30
0
41
1
10
83.9340976049593
20
-13.5864558607434
30
0
41
1
10
83.9046248615149
20
-13.606107708877
30
0
41
1
10
83.8914048984607
20
-13.6138778740666
30
0
41
1
10
83.8674432564296
20
-13.6255570772117
30
0
41
1
10
83.8567353506503
20
-13.6299658826717
30
0
41
1
10
83.8297335810227
20
-13.6385017624286
30
0
41
1
10
83.8130109972661
20
-13.6413869001701
30
0
41
1
10
83.797243977836
20
-13.6407004692562
30
0
0
SPLINE
5
27E
100
AcDbEntity
8
1
62
256
6
ByLayer
370
-1
48
1
60
0
100
AcDbSpline
70
4
71
3
72
34
73
30
40
0
40
0
40
0
40
0
40
0.0514465755209235
40
0.0514465755209235
40
0.135786144735395
40
0.135786144735395
40
0.20313163521886
40
0.20313163521886
40
0.270315608875081
40
0.270315608875081
40
0.337431278535922
40
0.337431278535922
40
0.404515897625506
40
0.404515897625506
40
0.499929883690858
40
0.499929883690858
40
0.599210771748099
40
0.599210771748099
40
0.697083019894194
40
0.697083019894194
40
0.780957226922725
40
0.780957226922725
40
0.84754641439324
40
0.84754641439324
40
0.898875235580343
40
0.898875235580343
40
0.980803570703547
40
0.980803570703547
40
1
40
1
40
1
40
1
41
1
10
86.7015123581272
20
-14.3790492962803
30
0
41
1
10
86.6878450824024
20
-14.3743469058739
30
0
41
1
10
86.6734913649281
20
-14.3722136637963
30
0
41
1
10
86.6364183129165
20
-14.3718491613794
30
0
41
1
10
86.6134810743221
20
-14.3767736159444
30
0
41
1
10
86.5744364490326
20
-14.3908826921195
30
0
41
1
10
86.5575751137128
20
-14.3991438306356
30
0
41
1
10
86.5252677746898
20
-14.4183550932174
30
0
41
1
10
86.5097147141002
20
-14.4293677612226
30
0
41
1
10
86.4799385930765
20
-14.4534758072903
30
0
41
1
10
86.4656505199231
20
-14.4666248613139
30
0
41
1
10
86.4383848422489
20
-14.4946236757712
30
0
41
1
10
86.4253603974897
20
-14.5095224516082
30
0
41
1
10
86.3954590624698
20
-14.5473101106406
30
0
41
1
10
86.3791729706255
20
-14.5710411141706
30
0
41
1
10
86.3489742236024
20
-14.6217159872701
30
0
41
1
10
86.3350863946089
20
-14.6489136045337
30
0
41
1
10
86.3111730893374
20
-14.7046753380196
30
0
41
1
10
86.3010112445857
20
-14.7333995470132
30
0
41
1
10
86.2861955890188
20
-14.7877692286171
30
0
41
1
10
86.2809145520225
20
-14.8134324824608
30
0
41
1
10
86.2751303570117
20
-14.8597244611539
30
0
41
1
10
86.2738522962759
20
-14.880428132403
30
0
41
1
10
86.2746054131142
20
-14.9167960171527
30
0
41
1
10
86.2759509793227
20
-14.9326214673934
30
0
41
1
10
86.2827974386726
20
-14.9725212966357
30
0
41
1
10
86.2904344205732
20
-14.9967713998364
30
0
41
1
10
86.3057842651493
20
-15.0224674756406
30
0
41
1
10
86.3090252463858
20
-15.0272402767271
30
0
41
1
10
86.3125440060256
20
-15.0317559091538
30
0
0
SPLINE
5
27F
100
AcDbEntity
8
1
62
256
6
ByLayer
370
-1
48
1
60
0
100
AcDbSpline
70
4
71
3
72
8
73
4
40
0
40
0
40
0
40
0
40
1
40
1
40
1
40
1
41
1
10
84.86040981588
20
-15.4146768146066
30
0
41
1
10
84.8583447098941
20
-15.421946290488
30
0
41
1
10
84.8562796171392
20
-15.4292157483897
30
0
41
1
10
84.8542145370912
20
-15.4364851890225
30
0
0
SPLINE
5
280
100
AcDbEntity
8
1
62
256
6
ByLayer
370
-1
48
1
60
0
100
AcDbSpline
70
4
71
3
72
22
73
18
40
0
40
0
40
0
40
0
40
0.142057608740083
40
0.142057608740083
40
0.351004812993906
40
0.351004812993906
40
0.48776334294285
40
0.48776334294285
40
0.591529353510214
40
0.591529353510214
40
0.758694969227626
40
0.758694969227626
40
0.858776631809353
40
0.858776631809353
40
0.960359919517768
40
0.960359919517768
40
1
40
1
40
1
40
1
41
1
10
83.5750820831053
20
-14.0436178660679
30
0
41
1
10
83.5750820831053
20
-14.0664642613775
30
0
41
1
10
83.5761148661618
20
-14.0892513568995
30
0
41
1
10
83.581293100101
20
-14.1450001583188
30
0
41
1
10
83.5866709352442
20
-14.1778865888976
30
0
41
1
10
83.6000078335766
20
-14.2305937984336
30
0
41
1
10
83.6064645200376
20
-14.2510949627366
30
0
41
1
10
83.6202814496133
20
-14.285783513552
30
0
41
1
10
83.6270727835832
20
-14.3003568472095
30
0
41
1
10
83.6472398695059
20
-14.3363187478413
30
0
41
1
10
83.6623759654942
20
-14.3570491378518
30
0
41
1
10
83.6917096856831
20
-14.382902670566
30
0
41
1
10
83.7041161680425
20
-14.3910628329014
30
0
41
1
10
83.7308785291215
20
-14.4017118602691
30
0
41
1
10
83.7456877303863
20
-14.4041574274973
30
0
41
1
10
83.7659942179379
20
-14.4024925891908
30
0
41
1
10
83.7717783262652
20
-14.4014700195088
30
0
41
1
10
83.7774625847393
20
-14.3999393046539
30
0
0
SPLINE
5
281
100
AcDbEntity
8
1
62
256
6
ByLayer
370
-1
48
1
60
0
100
AcDbSpline
70
4
71
3
72
8
73
4
40
0
40
0
40
0
40
0
40
1
40
1
40
1
40
1
41
1
10
86.3263453836786
20
-12.9661825708503
30
0
41
1
10
86.321744948073
20
-12.9700981691076
30
0
41
1
10
86.3171444891754
20
-12.974013810504
30
0
41
1
10
86.3125440060256
20
-12.9779294968191
30
0
0
SPLINE
5
282
100
AcDbEntity
8
1
62
256
6
ByLayer
370
-1
48
1
60
0
100
AcDbSpline
70
4
71
3
72
8
73
4
40
0
40
0
40
0
40
0
40
1
40
1
40
1
40
1
41
1
10
86.7217242779141
20
-14.386003516243
30
0
41
1
10
86.7149870066298
20
-14.3836854333193
30
0
41
1
10
86.7082497005128
20
-14.3813673598678
30
0
41
1
10
86.7015123581272
20
-14.3790492962803
30
0
0
SPLINE
5
283
100
AcDbEntity
8
1
62
256
6
ByLayer
370
-1
48
1
60
0
100
AcDbSpline
70
4
71
3
72
24
73
20
40
0
40
0
40
0
40
0
40
0.038019832552741
40
0.038019832552741
40
0.246834654676023
40
0.246834654676023
40
0.404726505664284
40
0.404726505664284
40
0.526150637963676
40
0.526150637963676
40
0.621531995504366
40
0.621531995504366
40
0.77689053833261
40
0.77689053833261
40
0.873684213898438
40
0.873684213898438
40
0.971746172255394
40
0.971746172255394
40
1
40
1
40
1
40
1
41
1
10
84.4131419545795
20
-15.4419870901185
30
0
41
1
10
84.4076536353809
20
-15.4389518433521
30
0
41
1
10
84.4022019120987
20
-15.4358477486317
30
0
41
1
10
84.3671115229849
20
-15.4152849900932
30
0
41
1
10
84.3385058581515
20
-15.3958260708973
30
0
41
1
10
84.2911530053127
20
-15.3581033836469
30
0
41
1
10
84.2716172556211
20
-15.3406321938871
30
0
41
1
10
84.2393892752364
20
-15.307458305353
30
0
41
1
10
84.2261072060892
20
-15.2922235914463
30
0
41
1
10
84.2043755857668
20
-15.2635158755178
30
0
41
1
10
84.195465814875
20
-15.2503168288718
30
0
41
1
10
84.1746993013746
20
-15.2143494056197
30
0
41
1
10
84.1641355865451
20
-15.1902208929198
30
0
41
1
10
84.1548945742966
20
-15.1495615990174
30
0
41
1
10
84.1532519873412
20
-15.133263363367
30
0
41
1
10
84.1554422280792
20
-15.1014835292299
30
0
41
1
10
84.1594691578788
20
-15.0855808429971
30
0
41
1
10
84.1682053414522
20
-15.0674608281542
30
0
41
1
10
84.1704211720346
20
-15.0634791350576
30
0
41
1
10
84.1728414789748
20
-15.0596602820651
30
0
0
SPLINE
5
284
100
AcDbEntity
8
1
62
256
6
ByLayer
370
-1
48
1
60
0
100
AcDbSpline
70
4
71
3
72
30
73
26
40
0
40
0
40
0
40
0
40
0.05151948893097
40
0.05151948893097
40
0.0928771460763069
40
0.0928771460763069
40
0.148185150442151
40
0.148185150442151
40
0.203338923043198
40
0.203338923043198
40
0.287955708682572
40
0.287955708682572
40
0.372427214532482
40
0.372427214532482
40
0.435367147735092
40
0.435367147735092
40
0.498971020782856
40
0.498971020782856
40
0.701334348038901
40
0.701334348038901
40
0.838887327921265
40
0.838887327921265
40
0.925006664597027
40
0.925006664597027
40
1
40
1
40
1
40
1
41
1
10
83.797243977836
20
-14.3927957882209
30
0
41
1
10
83.8106201383424
20
-14.3879653957399
30
0
41
1
10
83.8246831624704
20
-14.3856976514543
30
0
41
1
10
83.8496501657883
20
-14.3852086153362
30
0
41
1
10
83.8607962310385
20
-14.3862616319623
30
0
41
1
10
83.8863266055463
20
-14.39096912813
30
0
41
1
10
83.9006744147181
20
-14.395393821382
30
0
41
1
10
83.928431558419
20
-14.4066580816878
30
0
41
1
10
83.9419368983613
20
-14.4135319036118
30
0
41
1
10
83.9750168406033
20
-14.4332698675803
30
0
41
1
10
83.9941492436003
20
-14.4474568442823
30
0
41
1
10
84.030363196083
20
-14.4789154513648
30
0
41
1
10
84.0475649083273
20
-14.4962945696617
30
0
41
1
10
84.0758329180788
20
-14.5287759161054
30
0
41
1
10
84.0873882551282
20
-14.5433847897708
30
0
41
1
10
84.1094553402458
20
-14.5739411914083
30
0
41
1
10
84.1199839342166
20
-14.589942061094
30
0
41
1
10
84.1609899074376
20
-14.658363772843
30
0
41
1
10
84.1865032113725
20
-14.7163306502158
30
0
41
1
10
84.2142129999312
20
-14.8172578556832
30
0
41
1
10
84.2215231419923
20
-14.8600513562989
30
0
41
1
10
84.2225357180563
20
-14.9288829504614
30
0
41
1
10
84.2202602491482
20
-14.9557149173565
30
0
41
1
10
84.2083078994519
20
-15.0029073918022
30
0
41
1
10
84.1993367564663
20
-15.024309119164
30
0
41
1
10
84.1862123299377
20
-15.0418202687175
30
0
0
SPLINE
5
285
100
AcDbEntity
8
1
62
256
6
ByLayer
370
-1
48
1
60
0
100
AcDbSpline
70
4
71
3
72
24
73
20
40
0
40
0
40
0
40
0
40
0.0380198325525954
40
0.0380198325525954
40
0.24683465467587
40
0.24683465467587
40
0.404726505664137
40
0.404726505664137
40
0.526150637963527
40
0.526150637963527
40
0.621531995504261
40
0.621531995504261
40
0.776890538332548
40
0.776890538332548
40
0.873684213898388
40
0.873684213898388
40
0.971746172255348
40
0.971746172255348
40
1
40
1
40
1
40
1
41
1
10
86.0892616975281
20
-12.6293818118756
30
0
41
1
10
86.0947500167267
20
-12.6324170586421
30
0
41
1
10
86.100200918505
20
-12.635509526918
30
0
41
1
10
86.1352806301967
20
-12.6559211717923
30
0
41
1
10
86.1638530107722
20
-12.6749090310128
30
0
41
1
10
86.2110956616339
20
-12.7110720698337
30
0
41
1
10
86.2305668525842
20
-12.7276295832516
30
0
41
1
10
86.2626391983098
20
-12.7586008311619
30
0
41
1
10
86.2758394844594
20
-12.7726781001022
30
0
41
1
10
86.2973903483223
20
-12.7988276357191
30
0
41
1
10
86.3062082674839
20
-12.810726738295
30
0
41
1
10
86.3266917916786
20
-12.8426891170137
30
0
41
1
10
86.3370348737477
20
-12.8636950946443
30
0
41
1
10
86.3458068241058
20
-12.8977159265188
30
0
41
1
10
86.3472377508874
20
-12.9110186128492
30
0
41
1
10
86.3445666495842
20
-12.9359930026123
30
0
41
1
10
86.3402618329444
20
-12.9479628576475
30
0
41
1
10
86.3311534711045
20
-12.9608155690914
30
0
41
1
10
86.3288518977229
20
-12.9635837755923
30
0
41
1
10
86.3263453836786
20
-12.9661825708503
30
0
0
SPLINE
5
286
100
AcDbEntity
8
1
62
256
6
ByLayer
370
-1
48
1
60
0
100
AcDbSpline
70
4
71
3
72
24
73
20
40
0
40
0
40
0
40
0
40
0.03801983255251
40
0.03801983255251
40
0.246834654675781
40
0.246834654675781
40
0.404726505664062
40
0.404726505664062
40
0.526150637963502
40
0.526150637963502
40
0.621531995504227
40
0.621531995504227
40
0.776890538332537
40
0.776890538332537
40
0.873684213898331
40
0.873684213898331
40
0.971746172255261
40
0.971746172255261
40
1
40
1
40
1
40
1
41
1
10
86.0892616975281
20
-15.4340536750477
30
0
41
1
10
86.0837733783294
20
-15.4371408764724
30
0
41
1
10
86.0782468027848
20
-15.4401600521623
30
0
41
1
10
86.0421848224904
20
-15.4592826495895
30
0
41
1
10
86.0105200288983
20
-15.4734367456591
30
0
41
1
10
85.9534988417199
20
-15.4939151431575
30
0
41
1
10
85.9283799745916
20
-15.501341411025
30
0
41
1
10
85.8833399930234
20
-15.5112391674505
30
0
41
1
10
85.8634843251773
20
-15.5144732130569
30
0
41
1
10
85.8278937809916
20
-15.5177029021253
30
0
41
1
10
85.8121290120914
20
-15.5182478067399
30
0
41
1
10
85.7711404905759
20
-15.5166634094126
30
0
41
1
10
85.7455292656355
20
-15.5126603815983
30
0
41
1
10
85.707280692158
20
-15.4983650607596
30
0
41
1
10
85.6931324513373
20
-15.4908156214167
30
0
41
1
10
85.6686797006476
20
-15.4713110615964
30
0
41
1
10
85.6581485399392
20
-15.4589501545669
30
0
41
1
10
85.6485790719104
20
-15.4411739756498
30
0
41
1
10
85.6466497437475
20
-15.4370042749242
30
0
41
1
10
85.6449723255622
20
-15.4327423718504
30
0
0
SPLINE
5
287
100
AcDbEntity
8
1
62
256
6
ByLayer
370
-1
48
1
60
0
100
AcDbSpline
70
4
71
3
72
22
73
18
40
0
40
0
40
0
40
0
40
0.097371265984703
40
0.097371265984703
40
0.180296832630733
40
0.180296832630733
40
0.307445080803118
40
0.307445080803118
40
0.411978418515052
40
0.411978418515052
40
0.516185210011299
40
0.516185210011299
40
0.620250145292209
40
0.620250145292209
40
0.829289859626509
40
0.829289859626509
40
1
40
1
40
1
40
1
41
1
10
85.6449723255622
20
-12.5893576638929
30
0
41
1
10
85.6506416969107
20
-12.5790244850258
30
0
41
1
10
85.6594380125761
20
-12.5695705622325
30
0
41
1
10
85.6797719835988
20
-12.5556448655803
30
0
41
1
10
85.6909043787537
20
-12.5504548242828
30
0
41
1
10
85.7209111289137
20
-12.5406790817738
30
0
41
1
10
85.7411968631146
20
-12.5376233936075
30
0
41
1
10
85.7784985628655
20
-12.5357902851723
30
0
41
1
10
85.7957619927877
20
-12.5363249899074
30
0
41
1
10
85.8301096461618
20
-12.539374951954
30
0
41
1
10
85.8473043241612
20
-12.541895707512
30
0
41
1
10
85.8813598760505
20
-12.5484510053467
30
0
41
1
10
85.898280979214
20
-12.5524969096458
30
0
41
1
10
85.9485118666786
20
-12.5665070310338
30
0
41
1
10
85.9814014302623
20
-12.5783659712757
30
0
41
1
10
86.0392334597776
20
-12.6032739381635
30
0
41
1
10
86.0646466216472
20
-12.6157687498855
30
0
41
1
10
86.0892616975281
20
-12.6293818118756
30
0
0
SPLINE
5
288
100
AcDbEntity
8
1
62
256
6
ByLayer
370
-1
48
1
60
0
100
AcDbSpline
70
4
71
3
72
8
73
4
40
0
40
0
40
0
40
0
40
1
40
1
40
1
40
1
41
1
10
83.797243977836
20
-13.6407004692562
30
0
41
1
10
83.7906501419502
20
-13.6404134008719
30
0
41
1
10
83.7840563447621
20
-13.6401263570012
30
0
41
1
10
83.7774625847393
20
-13.6398393366724
30
0
0
SPLINE
5
289
100
AcDbEntity
8
1
62
256
6
ByLayer
370
-1
48
1
60
0
100
AcDbSpline
70
4
71
3
72
8
73
4
40
0
40
0
40
0
40
0
40
1
40
1
40
1
40
1
41
1
10
85.6383465200832
20
-12.6050729509299
30
0
41
1
10
85.6405551325689
20
-12.5998344702517
30
0
41
1
10
85.6427637342526
20
-12.5945960419307
30
0
41
1
10
85.6449723255622
20
-12.5893576638929
30
0
0
SPLINE
5
28A
100
AcDbEntity
8
1
62
256
6
ByLayer
370
-1
48
1
60
0
100
AcDbSpline
70
4
71
3
72
22
73
18
40
0
40
0
40
0
40
0
40
0.0973712659846982
40
0.0973712659846982
40
0.180296832630719
40
0.180296832630719
40
0.307445080803098
40
0.307445080803098
40
0.411978418515072
40
0.411978418515072
40
0.516185210011337
40
0.516185210011337
40
0.620250145292267
40
0.620250145292267
40
0.829289859626592
40
0.829289859626592
40
1
40
1
40
1
40
1
41
1
10
84.8542145370912
20
-15.4364851890225
30
0
41
1
10
84.848836530228
20
-15.4509419432893
30
0
41
1
10
84.8403294736335
20
-15.4644896443184
30
0
41
1
10
84.8204717283667
20
-15.4851551905776
30
0
41
1
10
84.8095411703881
20
-15.4932017598892
30
0
41
1
10
84.7799813899256
20
-15.5093033016705
30
0
41
1
10
84.7599163873449
20
-15.5154829240303
30
0
41
1
10
84.7229442655745
20
-15.5219804295406
30
0
41
1
10
84.7058053637861
20
-15.5232081261084
30
0
41
1
10
84.6716702303025
20
-15.5231658806384
30
0
41
1
10
84.6545642447934
20
-15.5219003575808
30
0
41
1
10
84.6206601443437
20
-15.5174884967882
30
0
41
1
10
84.6038020340577
20
-15.5143341077317
30
0
41
1
10
84.5537309582763
20
-15.5025857428673
30
0
41
1
10
84.5209098570402
20
-15.491695725286
30
0
41
1
10
84.4631539066053
20
-15.4678644779021
30
0
41
1
10
84.4377570304604
20
-15.4556001521087
30
0
41
1
10
84.4131419545795
20
-15.4419870901185
30
0
0
SPLINE
5
28B
100
AcDbEntity
8
SK1
62
256
6
ByLayer
370
-1
48
1
60
0
100
AcDbSpline
70
4
71
3
72
10
73
6
40
0
40
0
40
0
40
0
40
0.5
40
0.5
40
1
40
1
40
1
40
1
41
1
10
-1.30710678118655
20
4.69591747913023
30
0
41
1
10
-1.57554674537735
20
3.20453676372955
30
0
41
1
10
-1.78936151312067
20
1.60679765765514
30
0
41
1
10
-1.7893657244158
20
-1.60676394111792
30
0
41
1
10
-1.57555073250512
20
-3.20452084810844
30
0
41
1
10
-1.30710678118655
20
-4.69591515673878
30
0
0
SPLINE
5
28C
100
AcDbEntity
8
SK1
62
256
6
ByLayer
370
-1
48
1
60
0
100
AcDbSpline
70
4
71
3
72
41
73
37
40
0
40
0
40
0
40
0
40
0.007391494237509
40
0.0381795271858079
40
0.0689675601341068
40
0.0997555930824056
40
0.130543626030704
40
0.161331658979003
40
0.192119691927302
40
0.222907724875601
40
0.2536957578239
40
0.284483790772199
40
0.315271823720498
40
0.346059856668797
40
0.376847889617095
40
0.407635922565394
40
0.438423955513693
40
0.469211988461992
40
0.500000021410291
40
0.53078805435859
40
0.561576087306889
40
0.592364120255187
40
0.623152153203486
40
0.653940186151785
40
0.684728219100084
40
0.715516252048383
40
0.746304284996682
40
0.777092317944981
40
0.80788035089328
40
0.838668383841578
40
0.869456416789877
40
0.900244449738176
40
0.931032482686475
40
0.961820515634774
40
0.992608548583073
40
1
40
1
40
1
40
1
41
1
10
-2.20000000000002
20
-13.0172213663963
30
0
41
1
10
-2.20000000000002
20
-12.9342686300227
30
0
41
1
10
-2.20000000000002
20
-12.5051206457301
30
0
41
1
10
-2.20000000000002
20
-11.7250496651539
30
0
41
1
10
-2.20000000000005
20
-10.6821841203163
30
0
41
1
10
-2.20000000000005
20
-9.65290702831456
30
0
41
1
10
-2.20000000000005
20
-8.64799550189099
30
0
41
1
10
-2.20000000000005
20
-7.67690008468335
30
0
41
1
10
-2.20000000000005
20
-6.74742564249959
30
0
41
1
10
-2.20000000000005
20
-5.86548459766766
30
0
41
1
10
-2.20000000000005
20
-5.03490606621628
30
0
41
1
10
-2.20000000000005
20
-4.25733224556416
30
0
41
1
10
-2.20000000000005
20
-3.53218547491991
30
0
41
1
10
-2.20000000000005
20
-2.85672457058874
30
0
41
1
10
-2.20000000000005
20
-2.22617587980838
30
0
41
1
10
-2.20000000000005
20
-1.63394237813659
30
0
41
1
10
-2.20000000000005
20
-1.07188018667165
30
0
41
1
10
-2.20000000000005
20
-0.530630287446883
30
0
41
1
10
-2.20000000000005
20
-1.106293723E-07
30
0
41
1
10
-2.20000000000005
20
0.530630729964514
30
0
41
1
10
-2.20000000000005
20
1.071879983012
30
0
41
1
10
-2.20000000000005
20
1.63394275025792
30
0
41
1
10
-2.20000000000005
20
2.22617572634954
30
0
41
1
10
-2.20000000000005
20
2.85672481230316
30
0
41
1
10
-2.20000000000005
20
3.53218539687694
30
0
41
1
10
-2.20000000000005
20
4.25733231602189
30
0
41
1
10
-2.20000000000005
20
5.03490607772241
30
0
41
1
10
-2.20000000000005
20
5.86548448118575
30
0
41
1
10
-2.20000000000005
20
6.74742574458529
30
0
41
1
10
-2.20000000000005
20
7.67689979282272
30
0
41
1
10
-2.20000000000005
20
8.64799568243498
30
0
41
1
10
-2.20000000000005
20
9.65290659799953
30
0
41
1
10
-2.20000000000005
20
10.682184355967
30
0
41
1
10
-2.20000000000002
20
11.7250491528666
30
0
41
1
10
-2.20000000000002
20
12.5051202255836
30
0
41
1
10
-2.20000000000002
20
12.9342676512693
30
0
41
1
10
-2.20000000000002
20
13.0172198852614
30
0
0
SPLINE
5
28D
100
AcDbEntity
8
SK1
62
256
6
ByLayer
370
-1
48
1
60
0
100
AcDbSpline
70
4
71
3
72
10
73
6
40
0
40
0
40
0
40
0
40
0.931951483854432
40
0.931951483854432
40
1
40
1
40
1
40
1
41
1
10
-2.84E-14
20
-6.53762644691741
30
0
41
1
10
-0.04849145953483
20
-6.70686335370419
30
0
41
1
10
-0.104961398284928
20
-6.8740004138196
30
0
41
1
10
-0.188237156292189
20
-7.04340072103489
30
0
41
1
10
-0.194048735538786
20
-7.05491037332897
30
0
41
1
10
-0.200000000000273
20
-7.06635659049311
30
0
0
SPLINE
5
28E
100
AcDbEntity
8
SK1
62
256
6
ByLayer
370
-1
48
1
60
0
100
AcDbSpline
70
4
71
3
72
24
73
20
40
0
40
0
40
0
40
0
40
0.360879502691496
40
0.360879502691496
40
0.679522527249465
40
0.679522527249465
40
0.773125538541259
40
0.773125538541259
40
0.824378815352241
40
0.824378815352241
40
0.862175757855351
40
0.862175757855351
40
0.892530262599779
40
0.892530262599779
40
0.922882097305825
40
0.922882097305825
40
0.965340403806628
40
0.965340403806628
40
1
40
1
40
1
40
1
41
1
10
-1.30710678118655
20
4.69591747913023
30
0
41
1
10
-1.26533314969214
20
4.9280006140346
30
0
41
1
10
-1.21563689128735
20
5.15732729985041
30
0
41
1
10
-1.09208849439545
20
5.57726964614551
30
0
41
1
10
-1.02458712063205
20
5.77316566660494
30
0
41
1
10
-0.886361634688797
20
6.00127451080465
30
0
41
1
10
-0.850777002090695
20
6.05190263088906
30
0
41
1
10
-0.783955064248175
20
6.12096806939894
30
0
41
1
10
-0.757647970575704
20
6.14385724295292
30
0
41
1
10
-0.706249370394545
20
6.17602680222078
30
0
41
1
10
-0.682168850057224
20
6.18745435634116
30
0
41
1
10
-0.636302078399041
20
6.20006250680512
30
0
41
1
10
-0.614540165939815
20
6.20282738019478
30
0
41
1
10
-0.571796256965456
20
6.20141682079489
30
0
41
1
10
-0.550342277966621
20
6.19724496298289
30
0
41
1
10
-0.502408394194077
20
6.18104812749763
30
0
41
1
10
-0.476466316815021
20
6.16651733970684
30
0
41
1
10
-0.434092524691693
20
6.13600824129722
30
0
41
1
10
-0.416431789013416
20
6.12055641171887
30
0
41
1
10
-0.400000000000063
20
6.10423156158009
30
0
0
SPLINE
5
28F
100
AcDbEntity
8
SK1
62
256
6
ByLayer
370
-1
48
1
60
0
100
AcDbSpline
70
4
71
3
72
14
73
10
40
0
40
0
40
0
40
0
40
0.0892778036656113
40
0.247391405879012
40
0.405505008092413
40
0.563618610305814
40
0.721732212519214
40
0.879845814732615
40
1
40
1
40
1
40
1
41
1
10
-2.20000000000005
20
-18.8057993596818
30
0
41
1
10
-2.20000000000005
20
-18.6693910739181
30
0
41
1
10
-2.20000000000005
20
-18.2799599309246
30
0
41
1
10
-2.20000000000005
20
-17.5918777596154
30
0
41
1
10
-2.20000000000005
20
-16.7202497496933
30
0
41
1
10
-2.20000000000005
20
-15.7911485945393
30
0
41
1
10
-2.20000000000005
20
-14.815180008725
30
0
41
1
10
-2.20000000000005
20
-13.8848855782656
30
0
41
1
10
-2.20000000000005
20
-13.2797943787494
30
0
41
1
10
-2.20000000000005
20
-13.0172213663963
30
0
0
SPLINE
5
290
100
AcDbEntity
8
SK1
62
256
6
ByLayer
370
-1
48
1
60
0
100
AcDbSpline
70
4
71
3
72
35
73
31
40
0
40
0
40
0
40
0
40
0.0142712161925807
40
0.025163723104738
40
0.0360562300168953
40
0.0469487369290526
40
0.0578412438412099
40
0.0796262576655245
40
0.101411271489839
40
0.144981299138468
40
0.188551326787097
40
0.232121354435727
40
0.275691382084356
40
0.319261409732985
40
0.362831437381614
40
0.406401465030243
40
0.449971492678873
40
0.493541520327502
40
0.537111547976131
40
0.58068157562476
40
0.624251603273389
40
0.667821630922019
40
0.711391658570648
40
0.754961686219277
40
0.798531713867906
40
0.842101741516536
40
0.885671769165165
40
0.929241796813794
40
0.972811824462423
40
1
40
1
40
1
40
1
41
1
10
-0.400000000000006
20
-21.8223596902879
30
0
41
1
10
-0.400000000000006
20
-21.8241924484905
30
0
41
1
10
-0.400000000000006
20
-21.8258461075813
30
0
41
1
10
-0.400000000000006
20
-21.8240288460024
30
0
41
1
10
-0.400000000000006
20
-21.8189793414588
30
0
41
1
10
-0.400000000000006
20
-21.8103813172626
30
0
41
1
10
-0.400000000000034
20
-21.7940462079955
30
0
41
1
10
-0.400000000000034
20
-21.7642160490035
30
0
41
1
10
-0.400000000000034
20
-21.6949779936854
30
0
41
1
10
-0.400000000000034
20
-21.5661676526815
30
0
41
1
10
-0.400000000000034
20
-21.3371910810194
30
0
41
1
10
-0.400000000000034
20
-21.0285622078674
30
0
41
1
10
-0.400000000000034
20
-20.6365187777369
30
0
41
1
10
-0.400000000000034
20
-20.1589996983693
30
0
41
1
10
-0.400000000000034
20
-19.5958617698656
30
0
41
1
10
-0.400000000000034
20
-18.9489598758679
30
0
41
1
10
-0.400000000000034
20
-18.2221705966385
30
0
41
1
10
-0.400000000000034
20
-17.4213307857328
30
0
41
1
10
-0.400000000000034
20
-16.5541009338831
30
0
41
1
10
-0.400000000000034
20
-15.6297568996197
30
0
41
1
10
-0.400000000000034
20
-14.6589138549468
30
0
41
1
10
-0.400000000000034
20
-13.6532009067709
30
0
41
1
10
-0.400000000000034
20
-12.6248857298215
30
0
41
1
10
-0.400000000000034
20
-11.5864803035381
30
0
41
1
10
-0.400000000000034
20
-10.5503219390466
30
0
41
1
10
-0.400000000000034
20
-9.5281693138144
30
0
41
1
10
-0.400000000000034
20
-8.53080274713156
30
0
41
1
10
-0.400000000000063
20
-7.56767168233324
30
0
41
1
10
-0.400000000000063
20
-6.76201544986952
30
0
41
1
10
-0.400000000000063
20
-6.28446221538795
30
0
41
1
10
-0.400000000000063
20
-6.10423197315535
30
0
0
SPLINE
5
291
100
AcDbEntity
8
SK1
62
256
6
ByLayer
370
-1
48
1
60
0
100
AcDbSpline
70
4
71
3
72
87
73
83
40
0
40
0
40
0
40
0
40
0.0064304546078801
40
0.0205324394764587
40
0.0346344243450373
40
0.0416854167793266
40
0.0487364092136159
40
0.0522619054307606
40
0.0557874016479052
40
0.0628383940821945
40
0.0698893865164838
40
0.0769403789507731
40
0.0910423638193518
40
0.10514434868793
40
0.119246333556509
40
0.133348318425088
40
0.147450303293666
40
0.161552288162245
40
0.175654273030823
40
0.189756257899402
40
0.203858242767981
40
0.217960227636559
40
0.232062212505138
40
0.246164197373716
40
0.260266182242295
40
0.274368167110874
40
0.288470151979452
40
0.302572136848031
40
0.31667412171661
40
0.330776106585188
40
0.344878091453767
40
0.358980076322345
40
0.373082061190924
40
0.387184046059503
40
0.401286030928081
40
0.41538801579666
40
0.429490000665238
40
0.443591985533817
40
0.457693970402396
40
0.471795955270974
40
0.485897940139553
40
0.499999925008131
40
0.51410190987671
40
0.528203894745289
40
0.542305879613867
40
0.556407864482446
40
0.570509849351024
40
0.584611834219603
40
0.598713819088182
40
0.61281580395676
40
0.626917788825339
40
0.641019773693917
40
0.655121758562496
40
0.669223743431075
40
0.683325728299653
40
0.697427713168232
40
0.711529698036811
40
0.725631682905389
40
0.739733667773968
40
0.753835652642546
40
0.767937637511125
40
0.782039622379704
40
0.796141607248282
40
0.810243592116861
40
0.824345576985439
40
0.838447561854018
40
0.852549546722597
40
0.866651531591175
40
0.880753516459754
40
0.894855501328332
40
0.908957486196911
40
0.92305947106549
40
0.930110463499779
40
0.937161455934068
40
0.944212448368358
40
0.947737944585502
40
0.951263440802647
40
0.958314433236936
40
0.965365425671226
40
0.979467410539804
40
0.993569395408383
40
1
40
1
40
1
40
1
41
1
10
-2.99999999999997
20
21.7373117326757
30
0
41
1
10
-2.99999999999997
20
21.7581505763298
30
0
41
1
10
-2.99999999999997
20
21.8216572695551
30
0
41
1
10
-3
20
21.9107797633372
30
0
41
1
10
-3
20
21.9704004421262
30
0
41
1
10
-3
20
21.9955838514163
30
0
41
1
10
-3
20
22.0011048464384
30
0
41
1
10
-3
20
21.9988957932114
30
0
41
1
10
-3
20
21.9921074341117
30
0
41
1
10
-3
20
21.9747088550401
30
0
41
1
10
-3
20
21.9386456245555
30
0
41
1
10
-3
20
21.868993702256
30
0
41
1
10
-3
20
21.7393283758615
30
0
41
1
10
-3
20
21.5090390087807
30
0
41
1
10
-3
20
21.1987879004756
30
0
41
1
10
-3
20
20.8048153118584
30
0
41
1
10
-3
20
20.3250833271079
30
0
41
1
10
-3
20
19.7594566764181
30
0
41
1
10
-3
20
19.1097943347758
30
0
41
1
10
-3
20
18.3799726709714
30
0
41
1
10
-3
20
17.5758204617336
30
0
41
1
10
-3
20
16.7049885958267
30
0
41
1
10
-3
20
15.7767347946731
30
0
41
1
10
-3
20
14.8016577436089
30
0
41
1
10
-3
20
13.7913621958654
30
0
41
1
10
-3
20
12.7580964435599
30
0
41
1
10
-3
20
11.7143471465197
30
0
41
1
10
-3.00000000000003
20
10.6724342215934
30
0
41
1
10
-3.00000000000003
20
9.64409593406697
30
0
41
1
10
-3.00000000000003
20
8.64010224817511
30
0
41
1
10
-3.00000000000003
20
7.66989272366362
30
0
41
1
10
-3.00000000000003
20
6.74126705030582
30
0
41
1
10
-3.00000000000003
20
5.86013077636733
30
0
41
1
10
-3.00000000000003
20
5.03031048105601
30
0
41
1
10
-3.00000000000003
20
4.25344644766659
30
0
41
1
10
-3.00000000000003
20
3.5289614043765
30
0
41
1
10
-3.00000000000003
20
2.85411734459242
30
0
41
1
10
-3.00000000000003
20
2.22414379058173
30
0
41
1
10
-3.00000000000003
20
1.63245137350921
30
0
41
1
10
-3.00000000000003
20
1.07090162750731
30
0
41
1
10
-3.00000000000003
20
0.530146398226009
30
0
41
1
10
-3.00000000000003
20
-1.1052839E-07
30
0
41
1
10
-3.00000000000003
20
-0.530145956112307
30
0
41
1
10
-3.00000000000003
20
-1.07090183098106
30
0
41
1
10
-3.00000000000003
20
-1.63245100172756
30
0
41
1
10
-3.00000000000003
20
-2.22414394390051
30
0
41
1
10
-3.00000000000003
20
-2.85411710309862
30
0
41
1
10
-3.00000000000003
20
-3.52896148234822
30
0
41
1
10
-3.00000000000003
20
-4.25344637727321
30
0
41
1
10
-3.00000000000003
20
-5.03031046956039
30
0
41
1
10
-3.00000000000003
20
-5.86013089274292
30
0
41
1
10
-3.00000000000003
20
-6.7412669483133
30
0
41
1
10
-3.00000000000003
20
-7.66989301525788
30
0
41
1
10
-3.00000000000003
20
-8.64010206779591
30
0
41
1
10
-3.00000000000003
20
-9.64409636398926
30
0
41
1
10
-3.00000000000003
20
-10.6724339861579
30
0
41
1
10
-3.00000000000003
20
-11.7143476583394
30
0
41
1
10
-3
20
-12.7580961840504
30
0
41
1
10
-3
20
-13.7913627220832
30
0
41
1
10
-3
20
-14.8016574939434
30
0
41
1
10
-3
20
-15.7767352671169
30
0
41
1
10
-3
20
-16.7049883877483
30
0
41
1
10
-3
20
-17.5758208216031
30
0
41
1
10
-3
20
-18.3799725293323
30
0
41
1
10
-3
20
-19.1097945414623
30
0
41
1
10
-3
20
-19.759456615498
30
0
41
1
10
-3
20
-20.3250833641014
30
0
41
1
10
-3
20
-20.804815632754
30
0
41
1
10
-3
20
-21.1987865798995
30
0
41
1
10
-3
20
-21.5090429333437
30
0
41
1
10
-3
20
-21.7393270779667
30
0
41
1
10
-3
20
-21.868994103416
30
0
41
1
10
-3
20
-21.9386456157424
30
0
41
1
10
-3
20
-21.9747080149673
30
0
41
1
10
-3
20
-21.9921069826245
30
0
41
1
10
-3
20
-21.9988955684255
30
0
41
1
10
-3
20
-22.0011049359544
30
0
41
1
10
-3
20
-21.9955842966017
30
0
41
1
10
-3
20
-21.9704009616837
30
0
41
1
10
-3
20
-21.9107795104958
30
0
41
1
10
-3
20
-21.8216567024971
30
0
41
1
10
-2.99999999999997
20
-21.758149394043
30
0
41
1
10
-2.99999999999997
20
-21.7373100008043
30
0
0
SPLINE
5
292
100
AcDbEntity
8
SK1
62
256
6
ByLayer
370
-1
48
1
60
0
100
AcDbSpline
70
4
71
3
72
8
73
4
40
0
40
0
40
0
40
0
40
1
40
1
40
1
40
1
41
1
10
-0.199999999999989
20
-7.45410255809307
30
0
41
1
10
-0.13333351319929
20
-7.46205653145404
30
0
41
1
10
-0.06666684419136
20
-7.47000756994314
30
0
41
1
10
-2.84E-14
20
-7.47795571927756
30
0
0
SPLINE
5
293
100
AcDbEntity
8
SK1
62
256
6
ByLayer
370
-1
48
1
60
0
100
AcDbSpline
70
4
71
3
72
14
73
10
40
0
40
0
40
0
40
0
40
0.120154373856292
40
0.278267934857049
40
0.436381495857807
40
0.594495056858564
40
0.752608617859322
40
0.910722178860079
40
1
40
1
40
1
40
1
41
1
10
-2.20000000000005
20
13.0172198852615
30
0
41
1
10
-2.20000000000005
20
13.2797933091173
30
0
41
1
10
-2.20000000000005
20
13.8848846449069
30
0
41
1
10
-2.20000000000005
20
14.8151802586186
30
0
41
1
10
-2.20000000000005
20
15.7911481216639
30
0
41
1
10
-2.20000000000005
20
16.7202499579617
30
0
41
1
10
-2.20000000000005
20
17.5918773994171
30
0
41
1
10
-2.20000000000005
20
18.2799600689861
30
0
41
1
10
-2.20000000000005
20
18.6693911858535
30
0
41
1
10
-2.20000000000005
20
18.8057994981524
30
0
0
SPLINE
5
294
100
AcDbEntity
8
SK1
62
256
6
ByLayer
370
-1
48
1
60
0
100
AcDbSpline
70
4
71
3
72
30
73
26
40
0
40
0
40
0
40
0
40
0.0542476541983964
40
0.0542476541983964
40
0.165455831414167
40
0.165455831414167
40
0.276664008629937
40
0.276664008629937
40
0.387872185845708
40
0.387872185845708
40
0.443476274453593
40
0.443476274453593
40
0.499080363061478
40
0.499080363061478
40
0.554684451669363
40
0.554684451669363
40
0.610288540277248
40
0.610288540277248
40
0.721496717493019
40
0.721496717493019
40
0.832704894708789
40
0.832704894708789
40
0.94391307192456
40
0.94391307192456
40
1
40
1
40
1
40
1
41
1
10
-36.5005632538022
20
-21.1559417487338
30
0
41
1
10
-36.5001793330628
20
-21.1775059185051
30
0
41
1
10
-36.4998534187777
20
-21.0651308030462
30
0
41
1
10
-36.4990234278431
20
-20.4359824847083
30
0
41
1
10
-36.4986513003428
20
-19.5809467365899
30
0
41
1
10
-36.4982289992221
20
-17.3073839665174
30
0
41
1
10
-36.4981680301126
20
-15.8226883694876
30
0
41
1
10
-36.4983497010421
20
-12.3657594161816
30
0
41
1
10
-36.4986235554555
20
-10.3317895107231
30
0
41
1
10
-36.4992226044754
20
-6.86901382935184
30
0
41
1
10
-36.4995063752797
20
-5.6480080347103
30
0
41
1
10
-36.5000888678234
20
-2.99378711493711
30
0
41
1
10
-36.5004483212166
20
-1.60517711662916
30
0
41
1
10
-36.5004962021382
20
1.34546150294656
30
0
41
1
10
-36.5001371439227
20
2.77915130117415
30
0
41
1
10
-36.4995516267145
20
5.44330349430788
30
0
41
1
10
-36.4992583435906
20
6.68532501177498
30
0
41
1
10
-36.4986445388472
20
10.2043262286463
30
0
41
1
10
-36.4983633305393
20
12.2168021926579
30
0
41
1
10
-36.4981658319002
20
15.7604142418405
30
0
41
1
10
-36.4982196339561
20
17.2128923729824
30
0
41
1
10
-36.4986381979556
20
19.5521593073096
30
0
41
1
10
-36.4990008651294
20
20.4015221807459
30
0
41
1
10
-36.499834264307
20
21.0587626908506
30
0
41
1
10
-36.5001556591165
20
21.1797089831777
30
0
41
1
10
-36.500543691353
20
21.1535601479809
30
0
0
SPLINE
5
295
100
AcDbEntity
8
SK1
62
256
6
ByLayer
370
-1
48
1
60
0
100
AcDbSpline
70
4
71
3
72
10
73
6
40
0
40
0
40
0
40
0
40
0.81551453148278
40
0.81551453148278
40
1
40
1
40
1
40
1
41
1
10
-2.20000000000002
20
18.8057994981526
30
0
41
1
10
-2.20000000000002
20
20.4449035848964
30
0
41
1
10
-2.20000226725097
20
21.5642089788153
30
0
41
1
10
-2.19995739448837
20
21.9906899251285
30
0
41
1
10
-2.19994661020638
20
22.0298045182029
30
0
41
1
10
-2.19993248457607
20
22.0200963651333
30
0
0
SPLINE
5
296
100
AcDbEntity
8
SK1
62
256
6
ByLayer
370
-1
48
1
60
0
100
AcDbSpline
70
4
71
3
72
10
73
6
40
0
40
0
40
0
40
0
40
0.184725496321331
40
0.184725496321331
40
1
40
1
40
1
40
1
41
1
10
-2.1999325179803
20
-22.0200988353354
30
0
41
1
10
-2.19994665828992
20
-22.0297499328419
30
0
41
1
10
-2.19995744746959
20
-21.9904534001163
30
0
41
1
10
-2.20000225739005
20
-21.563120800415
30
0
41
1
10
-2.20000000000002
20
-20.4409087780279
30
0
41
1
10
-2.20000000000002
20
-18.8057993596817
30
0
0
SPLINE
5
297
100
AcDbEntity
8
SK1
62
256
6
ByLayer
370
-1
48
1
60
0
100
AcDbSpline
70
4
71
3
72
10
73
6
40
0
40
0
40
0
40
0
40
0.368997675668995
40
0.368997675668995
40
1
40
1
40
1
40
1
41
1
10
-0.200000000000074
20
7.06635637915039
30
0
41
1
10
-0.167862826598508
20
7.0045462175766
30
0
41
1
10
-0.139671627572113
20
6.94091959541143
30
0
41
1
10
-0.0698615112816867
20
6.76585631953489
30
0
41
1
10
-0.0328909637924539
20
6.65241705190053
30
0
41
1
10
-2.84E-14
20
6.53762631735268
30
0
0
SPLINE
5
298
100
AcDbEntity
8
SK1
62
256
6
ByLayer
370
-1
48
1
60
0
100
AcDbSpline
70
4
71
3
72
35
73
31
40
0
40
0
40
0
40
0
40
0.0271881725131368
40
0.0707581687391349
40
0.114328164965133
40
0.157898161191131
40
0.20146815741713
40
0.245038153643128
40
0.288608149869126
40
0.332178146095124
40
0.375748142321122
40
0.41931813854712
40
0.462888134773119
40
0.506458130999117
40
0.550028127225115
40
0.593598123451113
40
0.637168119677111
40
0.680738115903109
40
0.724308112129108
40
0.767878108355106
40
0.811448104581104
40
0.855018100807102
40
0.8985880970331
40
0.920373095146099
40
0.942158093259099
40
0.953050592315598
40
0.963943091372097
40
0.974835590428597
40
0.985728089485097
40
1
40
1
40
1
40
1
41
1
10
-0.400000000000063
20
6.10423156158009
30
0
41
1
10
-0.400000000000063
20
6.28446194326722
30
0
41
1
10
-0.400000000000063
20
6.76201538726676
30
0
41
1
10
-0.400000000000063
20
7.56767138772486
30
0
41
1
10
-0.400000000000034
20
8.53080293175961
30
0
41
1
10
-0.400000000000034
20
9.52816888083231
30
0
41
1
10
-0.400000000000034
20
10.5503221797328
30
0
41
1
10
-0.400000000000034
20
11.5864797887658
30
0
41
1
10
-0.400000000000034
20
12.6248859949608
30
0
41
1
10
-0.400000000000034
20
13.6532003777634
30
0
41
1
10
-0.400000000000034
20
14.6589141102143
30
0
41
1
10
-0.400000000000034
20
15.6297564245795
30
0
41
1
10
-0.400000000000034
20
16.5541011472568
30
0
41
1
10
-0.400000000000034
20
17.4213304234775
30
0
41
1
10
-0.400000000000034
20
18.2221707430851
30
0
41
1
10
-0.400000000000034
20
18.9489596670075
30
0
41
1
10
-0.400000000000034
20
19.5958618349948
30
0
41
1
10
-0.400000000000034
20
20.1589996510313
30
0
41
1
10
-0.400000000000034
20
20.6365184914532
30
0
41
1
10
-0.400000000000034
20
21.0285634421464
30
0
41
1
10
-0.400000000000034
20
21.337187169909
30
0
41
1
10
-0.400000000000034
20
21.5661689793568
30
0
41
1
10
-0.400000000000034
20
21.694977581428
30
0
41
1
10
-0.400000000000034
20
21.7642160759136
30
0
41
1
10
-0.400000000000034
20
21.7940468728384
30
0
41
1
10
-0.400000000000006
20
21.810382005051
30
0
41
1
10
-0.400000000000006
20
21.8189797158788
30
0
41
1
10
-0.400000000000006
20
21.8240291114512
30
0
41
1
10
-0.399999999999977
20
21.8258461079548
30
0
41
1
10
-0.400000000000006
20
21.8241921143658
30
0
41
1
10
-0.400000000000006
20
21.8223590884058
30
0
0
SPLINE
5
299
100
AcDbEntity
8
SK1
62
256
6
ByLayer
370
-1
48
1
60
0
100
AcDbSpline
70
4
71
3
72
89
73
85
40
0
40
0
40
0
40
0
40
0.0069866520584861
40
0.0210727456941142
40
0.0351588393297422
40
0.0422018861475563
40
0.0492449329653703
40
0.0527664563742773
40
0.0562879797831843
40
0.0598095031920913
40
0.0633310266009984
40
0.0703740734188124
40
0.0774171202366264
40
0.0915032138722545
40
0.105589307507882
40
0.119675401143511
40
0.133761494779139
40
0.147847588414767
40
0.161933682050395
40
0.176019775686023
40
0.190105869321651
40
0.204191962957279
40
0.218278056592907
40
0.232364150228535
40
0.246450243864163
40
0.260536337499791
40
0.274622431135419
40
0.288708524771047
40
0.302794618406675
40
0.316880712042303
40
0.330966805677932
40
0.345052899313559
40
0.359138992949188
40
0.373225086584816
40
0.387311180220444
40
0.401397273856072
40
0.4154833674917
40
0.429569461127328
40
0.443655554762956
40
0.457741648398584
40
0.471827742034212
40
0.48591383566984
40
0.499999929305468
40
0.514086022941096
40
0.528172116576724
40
0.542258210212352
40
0.556344303847981
40
0.570430397483608
40
0.584516491119237
40
0.598602584754865
40
0.612688678390493
40
0.626774772026121
40
0.640860865661749
40
0.654946959297377
40
0.669033052933005
40
0.683119146568633
40
0.697205240204261
40
0.711291333839889
40
0.725377427475517
40
0.739463521111145
40
0.753549614746773
40
0.767635708382401
40
0.781721802018029
40
0.795807895653657
40
0.809893989289285
40
0.823980082924914
40
0.838066176560542
40
0.85215227019617
40
0.866238363831798
40
0.880324457467426
40
0.894410551103054
40
0.908496644738682
40
0.92258273837431
40
0.929625785192124
40
0.936668832009938
40
0.940190355418845
40
0.943711878827752
40
0.947233402236659
40
0.950754925645566
40
0.95779797246338
40
0.964841019281194
40
0.978927112916822
40
0.99301320655245
40
1
40
1
40
1
40
1
41
1
10
-2
20
-21.5597582028572
30
0
41
1
10
-2
20
-21.5823348020329
30
0
41
1
10
-2
20
-21.6471330995642
30
0
41
1
10
-2
20
-21.7367552760374
30
0
41
1
10
-2
20
-21.795767724447
30
0
41
1
10
-2
20
-21.8207574214533
30
0
41
1
10
-2
20
-21.8262248087307
30
0
41
1
10
-2
20
-21.8240288460024
30
0
41
1
10
-2
20
-21.8189793414588
30
0
41
1
10
-2
20
-21.8103813172626
30
0
41
1
10
-2
20
-21.7940462079955
30
0
41
1
10
-2
20
-21.7642160490035
30
0
41
1
10
-2
20
-21.6949779936854
30
0
41
1
10
-2
20
-21.5661676526815
30
0
41
1
10
-2
20
-21.3371910810194
30
0
41
1
10
-2
20
-21.0285622078674
30
0
41
1
10
-2
20
-20.6365187777369
30
0
41
1
10
-2
20
-20.1589996983693
30
0
41
1
10
-2.00000000000003
20
-19.5958617698656
30
0
41
1
10
-2.00000000000003
20
-18.9489598758679
30
0
41
1
10
-2.00000000000003
20
-18.2221705966385
30
0
41
1
10
-2.00000000000003
20
-17.4213307857328
30
0
41
1
10
-2.00000000000003
20
-16.5541009338831
30
0
41
1
10
-2.00000000000003
20
-15.6297568996197
30
0
41
1
10
-2.00000000000003
20
-14.6589138549468
30
0
41
1
10
-2.00000000000003
20
-13.6532009067709
30
0
41
1
10
-2.00000000000003
20
-12.6248857298215
30
0
41
1
10
-2.00000000000003
20
-11.5864803035381
30
0
41
1
10
-2.00000000000003
20
-10.5503219390466
30
0
41
1
10
-2.00000000000003
20
-9.5281693138144
30
0
41
1
10
-2.00000000000003
20
-8.53080274713156
30
0
41
1
10
-2.00000000000003
20
-7.56767168233321
30
0
41
1
10
-2.00000000000003
20
-6.64657466016962
30
0
41
1
10
-2.00000000000003
20
-5.77341249237057
30
0
41
1
10
-2.00000000000003
20
-4.95199325849538
30
0
41
1
10
-2.00000000000003
20
-4.18393961035022
30
0
41
1
10
-2.00000000000003
20
-3.46864023496266
30
0
41
1
10
-2.00000000000003
20
-2.80331262467871
30
0
41
1
10
-2.00000000000003
20
-2.18314518734891
30
0
41
1
10
-2.00000000000003
20
-1.60149397612398
30
0
41
1
10
-2.00000000000003
20
-1.05016386127724
30
0
41
1
10
-2.00000000000003
20
-0.519747329370034
30
0
41
1
10
-2.00000000000003
20
-2.174625422E-07
30
0
41
1
10
-2.00000000000003
20
0.519747796859832
30
0
41
1
10
-2.00000000000003
20
1.05016384629153
30
0
41
1
10
-2.00000000000003
20
1.60149393775734
30
0
41
1
10
-2.00000000000003
20
2.18314499792092
30
0
41
1
10
-2.00000000000003
20
2.80331286928887
30
0
41
1
10
-2.00000000000003
20
3.46863999985663
30
0
41
1
10
-2.00000000000003
20
4.18394012013403
30
0
41
1
10
-2.00000000000003
20
4.95199329354998
30
0
41
1
10
-2.00000000000003
20
5.77341227102076
30
0
41
1
10
-2.00000000000003
20
6.64657476441815
30
0
41
1
10
-2.00000000000003
20
7.56767138772486
30
0
41
1
10
-2.00000000000003
20
8.53080293175961
30
0
41
1
10
-2.00000000000003
20
9.52816888083231
30
0
41
1
10
-2.00000000000003
20
10.5503221797328
30
0
41
1
10
-2.00000000000003
20
11.5864797887658
30
0
41
1
10
-2.00000000000003
20
12.6248859949608
30
0
41
1
10
-2.00000000000003
20
13.6532003777634
30
0
41
1
10
-2.00000000000003
20
14.6589141102143
30
0
41
1
10
-2.00000000000003
20
15.6297564245795
30
0
41
1
10
-2.00000000000003
20
16.5541011472568
30
0
41
1
10
-2.00000000000003
20
17.4213304234775
30
0
41
1
10
-2.00000000000003
20
18.2221707430851
30
0
41
1
10
-2.00000000000003
20
18.9489596670075
30
0
41
1
10
-2.00000000000003
20
19.5958618349948
30
0
41
1
10
-2
20
20.1589996510313
30
0
41
1
10
-2
20
20.6365184914532
30
0
41
1
10
-2
20
21.0285634421464
30
0
41
1
10
-2
20
21.337187169909
30
0
41
1
10
-2
20
21.5661689793568
30
0
41
1
10
-2
20
21.694977581428
30
0
41
1
10
-2
20
21.7642160759136
30
0
41
1
10
-2
20
21.7940468728384
30
0
41
1
10
-2
20
21.810382005051
30
0
41
1
10
-2
20
21.8189797158788
30
0
41
1
10
-2
20
21.8240291114512
30
0
41
1
10
-2
20
21.8262247109582
30
0
41
1
10
-2
20
21.8207568792357
30
0
41
1
10
-2
20
21.7957672612685
30
0
41
1
10
-2
20
21.7367554969224
30
0
41
1
10
-2
20
21.6471329120757
30
0
41
1
10
-2
20
21.5823341897782
30
0
41
1
10
-2
20
21.5597571111887
30
0
0
SPLINE
5
29A
100
AcDbEntity
8
SK1
62
256
6
ByLayer
370
-1
48
1
60
0
100
AcDbSpline
70
4
71
3
72
30
73
26
40
0
40
0
40
0
40
0
40
0.0494254089686436
40
0.0494254089686436
40
0.162151699007994
40
0.162151699007994
40
0.274877989047344
40
0.274877989047344
40
0.387604279086693
40
0.387604279086693
40
0.443967424106368
40
0.443967424106368
40
0.500330569126043
40
0.500330569126043
40
0.556693714145718
40
0.556693714145718
40
0.613056859165393
40
0.613056859165393
40
0.725783149204743
40
0.725783149204743
40
0.838509439244093
40
0.838509439244093
40
0.951235729283442
40
0.951235729283442
40
1
40
1
40
1
40
1
41
1
10
-38
20
20.2392632085377
30
0
41
1
10
-38
20
20.2297766347658
30
0
41
1
10
-38
20
20.1189253556048
30
0
41
1
10
-38
20
19.5109775832533
30
0
41
1
10
-38
20
18.6889979072776
30
0
41
1
10
-38
20
16.4175846149627
30
0
41
1
10
-38
20
15.00539897115
30
0
41
1
10
-38
20
11.5689429816358
30
0
41
1
10
-38
20
9.61803198977765
30
0
41
1
10
-38
20
6.24193582485267
30
0
41
1
10
-38
20
5.05699985536288
30
0
41
1
10
-38
20
2.5463534500615
30
0
41
1
10
-38
20
1.22336920362281
30
0
41
1
10
-38
20
-1.46022125994642
30
0
41
1
10
-38.0000000000001
20
-2.7469681303283
30
0
41
1
10
-38
20
-5.25145536838906
30
0
41
1
10
-38
20
-6.41785776757257
30
0
41
1
10
-38
20
-9.7409919139817
30
0
41
1
10
-38
20
-11.7132395268024
30
0
41
1
10
-38
20
-15.0659846264138
30
0
41
1
10
-38
20
-16.5093616755975
30
0
41
1
10
-38
20
-18.7169170461929
30
0
41
1
10
-38
20
-19.5446051221466
30
0
41
1
10
-38
20
-20.1301478160972
30
0
41
1
10
-38
20
-20.234372853453
30
0
41
1
10
-38
20
-20.241419791772
30
0
0
SPLINE
5
29B
100
AcDbEntity
8
SK1
62
256
6
ByLayer
370
-1
48
1
60
0
100
AcDbSpline
70
4
71
3
72
8
73
4
40
0
40
0
40
0
40
0
40
1
40
1
40
1
40
1
41
1
10
-2.84E-14
20
7.47795498707188
30
0
41
1
10
-0.0666668441596983
20
7.47000684507091
30
0
41
1
10
-0.133333513168509
20
7.46205581415995
30
0
41
1
10
-0.199999999999989
20
7.45410184860194
30
0
0
SPLINE
5
29C
100
AcDbEntity
8
SK1
62
256
6
ByLayer
370
-1
48
1
60
0
100
AcDbSpline
70
4
71
3
72
22
73
18
40
0
40
0
40
0
40
0
40
0.0423762482151073
40
0.0423762482151073
40
0.0854249042403576
40
0.0854249042403576
40
0.115510710892585
40
0.115510710892585
40
0.145562977863389
40
0.145562977863389
40
0.188866560319605
40
0.188866560319605
40
0.269464421829291
40
0.269464421829291
40
0.539576062841086
40
0.539576062841086
40
1
40
1
40
1
40
1
41
1
10
-0.400000000000063
20
-6.10423197315535
30
0
41
1
10
-0.420133409127487
20
-6.12423434429553
30
0
41
1
10
-0.442149896508255
20
-6.14298369126584
30
0
41
1
10
-0.490914524716317
20
-6.17485278184395
30
0
41
1
10
-0.518425990074348
20
-6.18818802917735
30
0
41
1
10
-0.568088809269341
20
-6.2007917866726
30
0
41
1
10
-0.589839550198434
20
-6.20307835596932
30
0
41
1
10
-0.632358101077472
20
-6.20079662668147
30
0
41
1
10
-0.65359418173702
20
-6.19624019805292
30
0
41
1
10
-0.701806923597019
20
-6.17907520886138
30
0
41
1
10
-0.728087274871882
20
-6.16375377211619
30
0
41
1
10
-0.795263795653284
20
-6.11374953177531
30
0
41
1
10
-0.831450402468533
20
-6.07313839594474
30
0
41
1
10
-0.968479126013762
20
-5.89027783727639
30
0
41
1
10
-1.03459250955694
20
-5.72638662078546
30
0
41
1
10
-1.18908100646803
20
-5.28349358994365
30
0
41
1
10
-1.25390182158543
20
-4.99150600000522
30
0
41
1
10
-1.30710678118655
20
-4.69591515673878
30
0
0
SPLINE
5
29D
100
AcDbEntity
8
SK1
62
256
6
ByLayer
370
-1
48
1
60
0
100
AcDbSpline
70
4
71
3
72
8
73
4
40
0
40
0
40
0
40
0
40
1
40
1
40
1
40
1
41
1
10
-0.200000000000074
20
-7.45410255809307
30
0
41
1
10
-0.200000000000074
20
-7.3235826688034
30
0
41
1
10
-0.200000000000074
20
-7.19431032038869
30
0
41
1
10
-0.200000000000074
20
-7.06635659049329
30
0
0
SPLINE
5
29E
100
AcDbEntity
8
SK1
62
256
6
ByLayer
370
-1
48
1
60
0
100
AcDbSpline
70
4
71
3
72
26
73
22
40
0
40
0
40
0
40
0
40
0.457923600856098
40
0.457923600856098
40
0.670531455381554
40
0.670531455381554
40
0.777312304321617
40
0.777312304321617
40
0.855624581606838
40
0.855624581606838
40
0.882245097500181
40
0.882245097500181
40
0.909233674833623
40
0.909233674833623
40
0.927145375687156
40
0.927145375687156
40
0.945135954238661
40
0.945135954238661
40
0.967293802310234
40
0.967293802310234
40
1
40
1
40
1
40
1
41
1
10
-0.200000000000046
20
-6.83438539664965
30
0
41
1
10
-0.200000000000046
20
-6.70719073091024
30
0
41
1
10
-0.203979144864121
20
-6.57870929193157
30
0
41
1
10
-0.223627541461042
20
-6.39017150226596
30
0
41
1
10
-0.231853472691626
20
-6.33010102013236
30
0
41
1
10
-0.251444012213824
20
-6.24081591520616
30
0
41
1
10
-0.259216096655962
20
-6.21099031479625
30
0
41
1
10
-0.277247637353241
20
-6.16071699918314
30
0
41
1
10
-0.286250660556362
20
-6.13953740203621
30
0
41
1
10
-0.302932806634829
20
-6.11392996324469
30
0
41
1
10
-0.307645108303149
20
-6.10762540709976
30
0
41
1
10
-0.318350610916298
20
-6.09617933549782
30
0
41
1
10
-0.324493078466162
20
-6.09093379280867
30
0
41
1
10
-0.335880535666092
20
-6.08462414761271
30
0
41
1
10
-0.340842620996938
20
-6.08272810789862
30
0
41
1
10
-0.350925208731582
20
-6.08080706244004
30
0
41
1
10
-0.356163682835501
20
-6.08077671184125
30
0
41
1
10
-0.367263062380886
20
-6.08257928125934
30
0
41
1
10
-0.373161858956763
20
-6.08482424567788
30
0
41
1
10
-0.386495243089513
20
-6.09205228504601
30
0
41
1
10
-0.393601922598037
20
-6.09787553754282
30
0
41
1
10
-0.400000000000063
20
-6.10423197315532
30
0
0
SPLINE
5
29F
100
AcDbEntity
8
SK1
62
256
6
ByLayer
370
-1
48
1
60
0
100
AcDbSpline
70
4
71
3
72
8
73
4
40
0
40
0
40
0
40
0
40
1
40
1
40
1
40
1
41
1
10
-0.200000000000074
20
7.06635637915059
30
0
41
1
10
-0.200000000000074
20
7.19430994365547
30
0
41
1
10
-0.200000000000074
20
7.32358212001932
30
0
41
1
10
-0.200000000000074
20
7.45410184860194
30
0
0
SPLINE
5
2A0
100
AcDbEntity
8
SK1
62
256
6
ByLayer
370
-1
48
1
60
0
100
AcDbSpline
70
4
71
3
72
24
73
20
40
0
40
0
40
0
40
0
40
0.0294153399389211
40
0.0294153399389211
40
0.0518467100213715
40
0.0518467100213715
40
0.0692787757243901
40
0.0692787757243901
40
0.0867341179257953
40
0.0867341179257953
40
0.110052112814912
40
0.110052112814912
40
0.151327143358807
40
0.151327143358807
40
0.280433151236764
40
0.280433151236764
40
0.826010984226231
40
0.826010984226231
40
1
40
1
40
1
40
1
41
1
10
-0.400000000000063
20
6.10423156158009
30
0
41
1
10
-0.39416832201357
20
6.0984378364349
30
0
41
1
10
-0.387759070234381
20
6.09310363146565
30
0
41
1
10
-0.375252799010866
20
6.08576185737678
30
0
41
1
10
-0.369325414442443
20
6.08323164407952
30
0
41
1
10
-0.358286953254265
20
6.08095158529639
30
0
41
1
10
-0.35318139109782
20
6.08071718931328
30
0
41
1
10
-0.343215930012207
20
6.08206381901587
30
0
41
1
10
-0.338244421136807
20
6.08366165110795
30
0
41
1
10
-0.327535291974414
20
6.08894854878486
30
0
41
1
10
-0.321910546955053
20
6.09319179328202
30
0
41
1
10
-0.308125841787699
20
6.1063104020192
30
0
41
1
10
-0.300919930144914
20
6.11641452751712
30
0
41
1
10
-0.27546743580686
20
6.15911632586153
30
0
41
1
10
-0.263960841290896
20
6.19549277148192
30
0
41
1
10
-0.214259344319259
20
6.38188374133711
30
0
41
1
10
-0.20677942828101
20
6.5373918542702
30
0
41
1
10
-0.2006609556407
20
6.7376412219165
30
0
41
1
10
-0.200000000000216
20
6.78608759881158
30
0
41
1
10
-0.200000000000074
20
6.83438537300094
30
0
0
SPLINE
5
2A1
100
AcDbEntity
8
1
62
256
6
ByLayer
370
-1
48
1
60
0
100
AcDbSpline
70
4
71
3
72
10
73
6
40
0
40
0
40
0
40
0
40
0.638091248905445
40
0.638091248905445
40
1
40
1
40
1
40
1
41
1
10
80.9666334467428
20
-17.4678449382479
30
0
41
1
10
80.9385978312876
20
-17.4574756514364
30
0
41
1
10
80.9138312326531
20
-17.446361552474
30
0
41
1
10
80.8820950107051
20
-17.4309769815108
30
0
41
1
10
80.8718623344525
20
-17.4257459290082
30
0
41
1
10
80.863217013951
20
-17.4214773545037
30
0
0
SPLINE
5
2A2
100
AcDbEntity
8
1
62
256
6
ByLayer
370
-1
48
1
60
0
100
AcDbSpline
70
4
71
3
72
10
73
6
40
0
40
0
40
0
40
0
40
0.72225461725884
40
0.72225461725884
40
1
40
1
40
1
40
1
41
1
10
80.9666334467428
20
-17.4678449382479
30
0
41
1
10
81.0165381236386
20
-17.4921615696966
30
0
41
1
10
81.0715087255541
20
-17.5084741975072
30
0
41
1
10
81.1485901637137
20
-17.5181415458612
30
0
41
1
10
81.1704228019471
20
-17.5194861163459
30
0
41
1
10
81.1922117941136
20
-17.5194494029737
30
0
0
SPLINE
5
2A3
100
AcDbEntity
8
1
62
256
6
ByLayer
370
-1
48
1
60
0
100
AcDbSpline
70
4
71
1
72
4
73
2
40
0
40
0
40
1
40
1
41
1.08358774580744
10
77.5696640803817
20
-11.7364322602658
30
0
41
1.08358774580744
10
77.5985611960972
20
-11.8772335187805
30
0
0
SPLINE
5
2A4
100
AcDbEntity
8
1
62
256
6
ByLayer
370
-1
48
1
60
0
100
AcDbSpline
70
4
71
3
72
12
73
8
40
0
40
0
40
0
40
0
40
0.404644073901354
40
0.404644073901354
40
0.809285947755716
40
0.809285947755716
40
1
40
1
40
1
40
1
41
1
10
80.6988736992669
20
-17.0641123213662
30
0
41
1
10
80.6988736992669
20
-17.1181595628661
30
0
41
1
10
80.7085338946952
20
-17.1729180566476
30
0
41
1
10
80.7455734564293
20
-17.274787942225
30
0
41
1
10
80.7734633761763
20
-17.3233040845859
30
0
41
1
10
80.8250688745125
20
-17.3854398474739
30
0
41
1
10
80.8434540015144
20
-17.4042569846192
30
0
41
1
10
80.8632170139529
20
-17.421477354506
30
0
0
SPLINE
5
2A5
100
AcDbEntity
8
1
62
256
6
ByLayer
370
-1
48
1
60
0
100
AcDbSpline
70
4
71
3
72
8
73
4
40
0
40
0
40
0
40
0
40
1
40
1
40
1
40
1
41
1
10
81.1931947459698
20
-17.5195752736869
30
0
41
1
10
81.1928674486193
20
-17.5195334243282
30
0
41
1
10
81.1925397962008
20
-17.5194914679193
30
0
41
1
10
81.1922117941147
20
-17.5194494029736
30
0
0
SPLINE
5
2A6
100
AcDbEntity
8
1
62
256
6
ByLayer
370
-1
48
1
60
0
100
AcDbSpline
70
4
71
3
72
24
73
20
40
0
40
0
40
0
40
0
40
0.104000448201671
40
0.104000448201671
40
0.192499055460797
40
0.192499055460797
40
0.328500518746419
40
0.328500518746419
40
0.438682575665022
40
0.438682575665022
40
0.548533158171441
40
0.548533158171441
40
0.658237202769472
40
0.658237202769472
40
0.767870673660582
40
0.767870673660582
40
0.98808833163391
40
0.98808833163391
40
1
40
1
40
1
40
1
41
1
10
90.1094708826672
20
-5.62984269386263
30
0
41
1
10
90.1172606490928
20
-5.62544306241119
30
0
41
1
10
90.1250321279212
20
-5.62367095624796
30
0
41
1
10
90.1379000772805
20
-5.6255973847793
30
0
41
1
10
90.1433861225741
20
-5.62849644231596
30
0
41
1
10
90.1556303635548
20
-5.63950335474559
30
0
41
1
10
90.1617583409071
20
-5.64964586641631
30
0
41
1
10
90.1709196027537
20
-5.67101222671238
30
0
41
1
10
90.1743949547577
20
-5.68183409641887
30
0
41
1
10
90.1803689918492
20
-5.70482174046876
30
0
41
1
10
90.1828876771352
20
-5.71705876172183
30
0
41
1
10
90.1872109351901
20
-5.74243142569085
30
0
41
1
10
90.1890227554445
20
-5.7556135272485
30
0
41
1
10
90.1920885542557
20
-5.78261694685298
30
0
41
1
10
90.1933456869409
20
-5.79647110150961
30
0
41
1
10
90.1964239626847
20
-5.83880861704611
30
0
41
1
10
90.1975663486083
20
-5.86814224360685
30
0
41
1
10
90.1979425464667
20
-5.89957591387946
30
0
41
1
10
90.1979595398581
20
-5.90119468617479
30
0
41
1
10
90.1979741742682
20
-5.90281511890799
30
0
0
SPLINE
5
2A7
100
AcDbEntity
8
1
62
256
6
ByLayer
370
-1
48
1
60
0
100
AcDbSpline
70
4
71
3
72
22
73
18
40
0
40
0
40
0
40
0
40
0.208266363442898
40
0.208266363442898
40
0.317899168105652
40
0.317899168105652
40
0.427584739862039
40
0.427584739862039
40
0.537377253733211
40
0.537377253733211
40
0.64740222873122
40
0.64740222873122
40
0.811583680502425
40
0.811583680502425
40
0.906636022131631
40
0.906636022131631
40
1
40
1
40
1
40
1
41
1
10
90.1723215795345
20
-7.26447458437138
30
0
41
1
10
90.1711443840491
20
-7.2851599734245
30
0
41
1
10
90.1692962053805
20
-7.30451439501894
30
0
41
1
10
90.1653384580202
20
-7.33139392657719
30
0
41
1
10
90.1637592713554
20
-7.34020644600696
30
0
41
1
10
90.1601073349776
20
-7.35668206377011
30
0
41
1
10
90.1580310055169
20
-7.36436402305267
30
0
41
1
10
90.1532620868333
20
-7.37829752735325
30
0
41
1
10
90.1505623989054
20
-7.38457235065155
30
0
41
1
10
90.1443504654911
20
-7.39523191745192
30
0
41
1
10
90.1408210755319
20
-7.39964482243244
30
0
41
1
10
90.1307188679146
20
-7.40726266207557
30
0
41
1
10
90.123308517068
20
-7.4089609673818
30
0
41
1
10
90.1089403208748
20
-7.4037466006717
30
0
41
1
10
90.1029482830561
20
-7.40002976041683
30
0
41
1
10
90.090269851277
20
-7.38889154742452
30
0
41
1
10
90.0834332768992
20
-7.3813726572775
30
0
41
1
10
90.076639479046
20
-7.37255885853403
30
0
0
SPLINE
5
2A8
100
AcDbEntity
8
1
62
256
6
ByLayer
370
-1
48
1
60
0
100
AcDbSpline
70
4
71
3
72
10
73
6
40
0
40
0
40
0
40
0
40
0.425586067180524
40
0.425586067180524
40
1
40
1
40
1
40
1
41
1
10
90.102411353721
20
-6.26737305535994
30
0
41
1
10
90.0945990655104
20
-6.26811780847117
30
0
41
1
10
90.0867910806479
20
-6.27133125445931
30
0
41
1
10
90.0695423170444
20
-6.28271082674272
30
0
41
1
10
90.060214207995
20
-6.29226898552773
30
0
41
1
10
90.0517283160239
20
-6.30350688193613
30
0
0
SPLINE
5
2A9
100
AcDbEntity
8
1
62
256
6
ByLayer
370
-1
48
1
60
0
100
AcDbSpline
70
4
71
3
72
10
73
6
40
0
40
0
40
0
40
0
40
0.747052175316597
40
0.747052175316597
40
1
40
1
40
1
40
1
41
1
10
90.0568932564665
20
-6.85152610305707
30
0
41
1
10
90.0645785809977
20
-6.8645861054043
30
0
41
1
10
90.0728916857416
20
-6.87654835986768
30
0
41
1
10
90.0845041047393
20
-6.88955711635478
30
0
41
1
10
90.0875333851048
20
-6.89263576521267
30
0
41
1
10
90.090580085623
20
-6.89538586892979
30
0
0
SPLINE
5
2AA
100
AcDbEntity
8
1
62
256
6
ByLayer
370
-1
48
1
60
0
100
AcDbSpline
70
4
71
3
72
22
73
18
40
0
40
0
40
0
40
0
40
0.208266363442683
40
0.208266363442683
40
0.317899168105413
40
0.317899168105413
40
0.427584739861791
40
0.427584739861791
40
0.537377253732945
40
0.537377253732945
40
0.647402228730948
40
0.647402228730948
40
0.811583680502284
40
0.811583680502284
40
0.906636022131525
40
0.906636022131525
40
1
40
1
40
1
40
1
41
1
10
90.1979741742682
20
-5.90281511890799
30
0
41
1
10
90.198229356954
20
-5.93107087865235
30
0
41
1
10
90.1977819576906
20
-5.95991246728988
30
0
41
1
10
90.195876459711
20
-6.00420751337461
30
0
41
1
10
90.1949916311289
20
-6.01958383706321
30
0
41
1
10
90.1926883530761
20
-6.05033474033615
30
0
41
1
10
90.1912678533106
20
-6.06574395381568
30
0
41
1
10
90.1877565368566
20
-6.09639261238868
30
0
41
1
10
90.185660711685
20
-6.11168284061915
30
0
41
1
10
90.1805788350014
20
-6.14179040529632
30
0
41
1
10
90.177578745315
20
-6.15669208660447
30
0
41
1
10
90.1686368528944
20
-6.19219286234596
30
0
41
1
10
90.1618032198159
20
-6.21271610389644
30
0
41
1
10
90.1479185904757
20
-6.23906805568419
30
0
41
1
10
90.1420127345699
20
-6.24760396230909
30
0
41
1
10
90.1292635927506
20
-6.26014060794276
30
0
41
1
10
90.1222716951121
20
-6.26433779940703
30
0
41
1
10
90.1152175052312
20
-6.26615226944662
30
0
0
SPLINE
5
2AB
100
AcDbEntity
8
1
62
256
6
ByLayer
370
-1
48
1
60
0
100
AcDbSpline
70
4
71
3
72
8
73
4
40
0
40
0
40
0
40
0
40
1
40
1
40
1
40
1
41
1
10
90.1152175052289
20
-6.26615226944682
30
0
41
1
10
90.1109486996911
20
-6.2665591943418
30
0
41
1
10
90.1066799810874
20
-6.26696612291886
30
0
41
1
10
90.102411353721
20
-6.26737305535994
30
0
0
SPLINE
5
2AC
100
AcDbEntity
8
1
62
256
6
ByLayer
370
-1
48
1
60
0
100
AcDbSpline
70
4
71
3
72
22
73
18
40
0
40
0
40
0
40
0
40
0.208266363442977
40
0.208266363442977
40
0.3178991681057
40
0.3178991681057
40
0.427584739862066
40
0.427584739862066
40
0.537377253733212
40
0.537377253733212
40
0.647402228731199
40
0.647402228731199
40
0.811583680502408
40
0.811583680502408
40
0.906636022131589
40
0.906636022131589
40
1
40
1
40
1
40
1
41
1
10
90.1510222070448
20
-4.90604673857328
30
0
41
1
10
90.1524545852159
20
-4.91361710926455
30
0
41
1
10
90.153253099998
20
-4.9231013138336
30
0
41
1
10
90.1533327326731
20
-4.9405071252734
30
0
41
1
10
90.1531500633946
20
-4.94706661553016
30
0
41
1
10
90.1522799531898
20
-4.96133098715927
30
0
41
1
10
90.1515920683562
20
-4.96905163177084
30
0
41
1
10
90.149571821067
20
-4.98575066265855
30
0
41
1
10
90.1482369158066
20
-4.99475653100205
30
0
41
1
10
90.1446960969101
20
-5.0141815533504
30
0
41
1
10
90.1424805049699
20
-5.02465682785226
30
0
41
1
10
90.1354805548146
20
-5.05249962449423
30
0
41
1
10
90.1298377966859
20
-5.071293967814
30
0
41
1
10
90.1176688257102
20
-5.10279804985649
30
0
41
1
10
90.1123698654825
20
-5.11502430780865
30
0
41
1
10
90.100655377692
20
-5.13864189196022
30
0
41
1
10
90.0941055088808
20
-5.15032651949852
30
0
41
1
10
90.0873828003315
20
-5.16092300085049
30
0
0
SPLINE
5
2AD
100
AcDbEntity
8
1
62
256
6
ByLayer
370
-1
48
1
60
0
100
AcDbSpline
70
4
71
3
72
8
73
4
40
0
40
0
40
0
40
0
40
1
40
1
40
1
40
1
41
1
10
90.0967351440364
20
-5.63886012685461
30
0
41
1
10
90.1009803002594
20
-5.635854291638
30
0
41
1
10
90.1052255479069
20
-5.63284848102674
30
0
41
1
10
90.1094708826672
20
-5.62984269386263
30
0
0
SPLINE
5
2AE
100
AcDbEntity
8
1
62
256
6
ByLayer
370
-1
48
1
60
0
100
AcDbSpline
70
4
71
3
72
8
73
4
40
0
40
0
40
0
40
0
40
1
40
1
40
1
40
1
41
1
10
90.090580085623
20
-6.89538586892985
30
0
41
1
10
90.0947697997178
20
-6.89916771366222
30
0
41
1
10
90.0989596056796
20
-6.90294952882883
30
0
41
1
10
90.1031494991758
20
-6.90673131582122
30
0
0
SPLINE
5
2AF
100
AcDbEntity
8
1
62
256
6
ByLayer
370
-1
48
1
60
0
100
AcDbSpline
70
4
71
3
72
16
73
12
40
0
40
0
40
0
40
0
40
0.0023448809053599
40
0.0023448809053599
40
0.244769775799963
40
0.244769775799963
40
0.487038716339863
40
0.487038716339863
40
0.973677497833604
40
0.973677497833604
40
1
40
1
40
1
40
1
41
1
10
90.1314810547483
20
-4.88618122469438
30
0
41
1
10
90.1315060050833
20
-4.88617006859795
30
0
41
1
10
90.1315309254937
20
-4.8861589883598
30
0
41
1
10
90.1341303835551
20
-4.88500972316081
30
0
41
1
10
90.136393917598
20
-4.88467817164684
30
0
41
1
10
90.1404198218609
20
-4.88537664417603
30
0
41
1
10
90.1421865200235
20
-4.88640776218185
30
0
41
1
10
90.1468661470128
20
-4.89130849850989
30
0
41
1
10
90.1491756946846
20
-4.89698938276865
30
0
41
1
10
90.1508557739443
20
-4.905184705598
30
0
41
1
10
90.1509400619355
20
-4.90561258721507
30
0
41
1
10
90.1510222070448
20
-4.90604673857328
30
0
0
SPLINE
5
2B0
100
AcDbEntity
8
1
62
256
6
ByLayer
370
-1
48
1
60
0
100
AcDbSpline
70
4
71
3
72
24
73
20
40
0
40
0
40
0
40
0
40
0.104000448201684
40
0.104000448201684
40
0.192499055460834
40
0.192499055460834
40
0.328500518746464
40
0.328500518746464
40
0.438682575665091
40
0.438682575665091
40
0.548533158171535
40
0.548533158171535
40
0.658237202769587
40
0.658237202769587
40
0.767870673660713
40
0.767870673660713
40
0.98808833163409
40
0.98808833163409
40
1
40
1
40
1
40
1
41
1
10
90.1031494991758
20
-6.90673131582122
30
0
41
1
10
90.1107721018049
20
-6.91474118781605
30
0
41
1
10
90.1182232728752
20
-6.92524496412898
30
0
41
1
10
90.1302805574533
20
-6.94716496931605
30
0
41
1
10
90.1353014040292
20
-6.95843904644917
30
0
41
1
10
90.1462523120469
20
-6.98764014533933
30
0
41
1
10
90.1514729874097
20
-7.00636519834305
30
0
41
1
10
90.1589428158417
20
-7.03948798973755
30
0
41
1
10
90.1616296393536
20
-7.05430408784318
30
0
41
1
10
90.1660175041134
20
-7.08322328423714
30
0
41
1
10
90.1677334565741
20
-7.09742097231191
30
0
41
1
10
90.1704539087458
20
-7.12508857385848
30
0
41
1
10
90.171462711731
20
-7.13860941105301
30
0
41
1
10
90.1729315909846
20
-7.16492630603949
30
0
41
1
10
90.173392887976
20
-7.17775411825701
30
0
41
1
10
90.1741001733909
20
-7.21520225339776
30
0
41
1
10
90.1736795418803
20
-7.23885866780066
30
0
41
1
10
90.1724543610015
20
-7.26209740236317
30
0
41
1
10
90.1723890902337
20
-7.26328830299641
30
0
41
1
10
90.1723215795345
20
-7.26447458437138
30
0
0
LINE
5
49
100
AcDbEntity
8
80
62
256
6
ByLayer
370
-1
48
1
60
0
100
AcDbLine
10
0
20
0
30
0
11
-5
21
0
31
0
39
0
210
0
220
0
230
1
0
LINE
5
4A
100
AcDbEntity
8
4
62
256
6
ByLayer
370
-1
48
0.05
60
0
100
AcDbLine
10
0
20
0
30
0
11
90
21
0
31
0
39
0
210
0
220
0
230
1
0
LINE
5
4C
100
AcDbEntity
8
81
62
256
6
ByLayer
370
-1
48
1
60
0
100
AcDbLine
10
90
20
-21.875
30
0
11
95
21
-21.875
31
0
39
0
210
0
220
0
230
1
0
LINE
5
4D
100
AcDbEntity
8
SK4
62
256
6
ByLayer
370
-1
48
0.05
60
0
100
AcDbLine
10
-43
20
0
30
0
11
95
21
0
31
0
39
0
210
0
220
0
230
1
0
LINE
5
4F
100
AcDbEntity
8
SK1
62
256
6
ByLayer
370
-1
48
1
60
0
100
AcDbLine
10
0
20
22.45
30
0
11
-0.2
21
22.45
31
0
39
0
210
0
220
0
230
1
0
LINE
5
51
100
AcDbEntity
8
SK1
62
256
6
ByLayer
370
-1
48
1
60
0
100
AcDbLine
10
-0.2
20
-22.45
30
0
11
0
21
-22.45
31
0
39
0
210
0
220
0
230
1
0
LINE
5
52
100
AcDbEntity
8
1
62
256
6
ByLayer
370
-1
48
1
60
0
100
AcDbLine
10
87.968302
20
-13.827735
30
0
11
87.945655
21
-13.507211
31
0
39
0
210
0
220
0
230
1
0
LINE
5
53
100
AcDbEntity
8
1
62
256
6
ByLayer
370
-1
48
1
60
0
100
AcDbLine
10
82.509209
20
-13.891341
30
0
11
82.531856
21
-14.211864
31
0
39
0
210
0
220
0
230
1
0
LINE
5
54
100
AcDbEntity
8
1
62
256
6
ByLayer
370
-1
48
1
60
0
100
AcDbLine
10
84.221635
20
-13.072275
30
0
11
84.203211
21
-12.811522
31
0
39
0
210
0
220
0
230
1
0
LINE
5
55
100
AcDbEntity
8
1
62
256
6
ByLayer
370
-1
48
1
60
0
100
AcDbLine
10
86.249282
20
-12.739644
30
0
11
86.274911
21
-13.102362
31
0
39
0
210
0
220
0
230
1
0
LINE
5
56
100
AcDbEntity
8
1
62
256
6
ByLayer
370
-1
48
1
60
0
100
AcDbLine
10
84.221173
20
-14.879573
30
0
11
84.195525
21
-14.516581
31
0
39
0
210
0
220
0
230
1
0
LINE
5
57
100
AcDbEntity
8
1
62
256
6
ByLayer
370
-1
48
1
60
0
100
AcDbLine
10
86.24912
20
-14.551176
30
0
11
86.275072
21
-14.918468
31
0
39
0
210
0
220
0
230
1
0
LINE
5
58
100
AcDbEntity
8
1
62
256
6
ByLayer
370
-1
48
1
60
0
100
AcDbLine
10
21.5
20
-31.5
30
0
11
25.414894
21
-16.889417
31
0
39
0
210
0
220
0
230
1
0
LINE
5
59
100
AcDbEntity
8
1
62
256
6
ByLayer
370
-1
48
1
60
0
100
AcDbLine
10
25.414894
20
16.889417
30
0
11
21.5
21
31.5
31
0
39
0
210
0
220
0
230
1
0
LINE
5
5A
100
AcDbEntity
8
1
62
256
6
ByLayer
370
-1
48
1
60
0
100
AcDbLine
10
21.5
20
31.5
30
0
11
0.3
21
31.5
31
0
39
0
210
0
220
0
230
1
0
LINE
5
5B
100
AcDbEntity
8
1
62
256
6
ByLayer
370
-1
48
1
60
0
100
AcDbLine
10
0.3
20
-31.5
30
0
11
21.5
21
-31.5
31
0
39
0
210
0
220
0
230
1
0
LINE
5
5C
100
AcDbEntity
8
1
62
256
6
ByLayer
370
-1
48
1
60
0
100
AcDbLine
10
0.3
20
31.5
30
0
11
0
21
31.2
31
0
39
0
210
0
220
0
230
1
0
LINE
5
5D
100
AcDbEntity
8
1
62
256
6
ByLayer
370
-1
48
1
60
0
100
AcDbLine
10
0
20
-31.2
30
0
11
0.3
21
-31.5
31
0
39
0
210
0
220
0
230
1
0
LINE
5
5E
100
AcDbEntity
8
1
62
256
6
ByLayer
370
-1
48
1
60
0
100
AcDbLine
10
71.71853
20
16.01
30
0
11
71.467314
21
16.01
31
0
39
0
210
0
220
0
230
1
0
LINE
5
5F
100
AcDbEntity
8
1
62
256
6
ByLayer
370
-1
48
1
60
0
100
AcDbLine
10
26.574005
20
-16
30
0
11
71.341219
21
-16
31
0
39
0
210
0
220
0
230
1
0
LINE
5
60
100
AcDbEntity
8
1
62
256
6
ByLayer
370
-1
48
1
60
0
100
AcDbLine
10
71.341219
20
16
30
0
11
26.574005
21
16
31
0
39
0
210
0
220
0
230
1
0
LINE
5
61
100
AcDbEntity
8
1
62
256
6
ByLayer
370
-1
48
1
60
0
100
AcDbLine
10
71.954055
20
-16.28577
30
0
11
73.600126
21
-18.247481
31
0
39
0
210
0
220
0
230
1
0
LINE
5
62
100
AcDbEntity
8
1
62
256
6
ByLayer
370
-1
48
1
60
0
100
AcDbLine
10
90.062475
20
-5.650459
30
0
11
90.063281
21
-5.650463
31
0
39
0
210
0
220
0
230
1
0
LINE
5
63
100
AcDbEntity
8
1
62
256
6
ByLayer
370
-1
48
1
60
0
100
AcDbLine
10
89.344513
20
-7.468439
30
0
11
89.277628
21
-6.441709
31
0
39
0
210
0
220
0
230
1
0
LINE
5
64
100
AcDbEntity
8
1
62
256
6
ByLayer
370
-1
48
1
60
0
100
AcDbLine
10
89.689842
20
-9.291007
30
0
11
89.625968
21
-8.310488
31
0
39
0
210
0
220
0
230
1
0
LINE
5
65
100
AcDbEntity
8
1
62
256
6
ByLayer
370
-1
48
1
60
0
100
AcDbLine
10
90.001867
20
-10.627644
30
0
11
89.932581
21
-9.564049
31
0
39
0
210
0
220
0
230
1
0
LINE
5
66
100
AcDbEntity
8
1
62
256
6
ByLayer
370
-1
48
1
60
0
100
AcDbLine
10
77.302908
20
-12.799424
30
0
11
77.369768
21
-13.82577
31
0
39
0
210
0
220
0
230
1
0
LINE
5
67
100
AcDbEntity
8
1
62
256
6
ByLayer
370
-1
48
1
60
0
100
AcDbLine
10
78.442072
20
-12.186917
30
0
11
78.505895
21
-13.166652
31
0
39
0
210
0
220
0
230
1
0
LINE
5
68
100
AcDbEntity
8
1
62
256
6
ByLayer
370
-1
48
1
60
0
100
AcDbLine
10
13.894338
20
-9.869413
30
0
11
13.894338
21
-29.913955
31
0
39
0
210
0
220
0
230
1
0
LINE
5
69
100
AcDbEntity
8
1
62
256
6
ByLayer
370
-1
48
1
60
0
100
AcDbLine
10
10.538675
20
-9.349221
30
0
11
10.538675
21
-30.080593
31
0
39
0
210
0
220
0
230
1
0
LINE
5
6A
100
AcDbEntity
8
1
62
256
6
ByLayer
370
-1
48
1
60
0
100
AcDbLine
10
86.884554
20
-7.363169
30
0
11
89.419707
21
-5.937135
31
0
39
0
210
0
220
0
230
1
0
LINE
5
6B
100
AcDbEntity
8
1
62
256
6
ByLayer
370
-1
48
1
60
0
100
AcDbLine
10
13.461325
20
30.080593
30
0
11
13.461325
21
9.349221
31
0
39
0
210
0
220
0
230
1
0
LINE
5
6C
100
AcDbEntity
8
1
62
256
6
ByLayer
370
-1
48
1
60
0
100
AcDbLine
10
89.432902
20
-5.889981
30
0
11
89.419707
21
-5.937135
31
0
39
0
210
0
220
0
230
1
0
LINE
5
6D
100
AcDbEntity
8
1
62
256
6
ByLayer
370
-1
48
1
60
0
100
AcDbLine
10
21.5
20
31.5
30
0
11
21.5
21
-31.5
31
0
39
0
210
0
220
0
230
1
0
LINE
5
6E
100
AcDbEntity
8
1
62
256
6
ByLayer
370
-1
48
1
60
0
100
AcDbLine
10
80.408016
20
-16.908401
30
0
11
80.408016
21
-16.601765
31
0
39
0
210
0
220
0
230
1
0
LINE
5
6F
100
AcDbEntity
8
1
62
256
6
ByLayer
370
-1
48
1
60
0
100
AcDbLine
10
81.531977
20
-10.393502
30
0
11
86.27199
21
-7.727226
31
0
39
0
210
0
220
0
230
1
0
LINE
5
70
100
AcDbEntity
8
1
62
256
6
ByLayer
370
-1
48
1
60
0
100
AcDbLine
10
84.136916
20
3.061998
30
0
11
83.411351
21
3.818507
31
0
39
0
210
0
220
0
230
1
0
LINE
5
71
100
AcDbEntity
8
1
62
256
6
ByLayer
370
-1
48
1
60
0
100
AcDbLine
10
78.653741
20
-11.954083
30
0
11
78.621014
21
-11.92474
31
0
39
0
210
0
220
0
230
1
0
LINE
5
72
100
AcDbEntity
8
1
62
256
6
ByLayer
370
-1
48
1
60
0
100
AcDbLine
10
89.432902
20
-5.889981
30
0
11
89.432902
21
-2.45985
31
0
39
0
210
0
220
0
230
1
0
LINE
5
73
100
AcDbEntity
8
1
62
256
6
ByLayer
370
-1
48
1
60
0
100
AcDbLine
10
26.574005
20
16
30
0
11
26.574005
21
-16
31
0
39
0
210
0
220
0
230
1
0
LINE
5
74
100
AcDbEntity
8
1
62
256
6
ByLayer
370
-1
48
1
60
0
100
AcDbLine
10
78.841327
20
-11.887517
30
0
11
80.82339
21
-10.772598
31
0
39
0
210
0
220
0
230
1
0
LINE
5
75
100
AcDbEntity
8
1
62
256
6
ByLayer
370
-1
48
1
60
0
100
AcDbLine
10
73.886544
20
-12.16063
30
0
11
71.699551
21
-15.829605
31
0
39
0
210
0
220
0
230
1
0
LINE
5
76
100
AcDbEntity
8
1
62
256
6
ByLayer
370
-1
48
1
60
0
100
AcDbLine
10
13.461325
20
-9.349221
30
0
11
13.461325
21
-30.080593
31
0
39
0
210
0
220
0
230
1
0
LINE
5
77
100
AcDbEntity
8
1
62
256
6
ByLayer
370
-1
48
1
60
0
100
AcDbLine
10
80.437318
20
-18.442322
30
0
11
73.804943
21
-18.471264
31
0
39
0
210
0
220
0
230
1
0
LINE
5
78
100
AcDbEntity
8
1
62
256
6
ByLayer
370
-1
48
1
60
0
100
AcDbLine
10
10.105662
20
29.913955
30
0
11
10.105662
21
9.869413
31
0
39
0
210
0
220
0
230
1
0
LINE
5
79
100
AcDbEntity
8
1
62
256
6
ByLayer
370
-1
48
1
60
0
100
AcDbLine
10
89.432902
20
-5.889981
30
0
11
78.653741
21
-11.954083
31
0
39
0
210
0
220
0
230
1
0
LINE
5
7A
100
AcDbEntity
8
1
62
256
6
ByLayer
370
-1
48
1
60
0
100
AcDbLine
10
13.461325
20
-9.349221
30
0
11
10.538675
21
-9.349221
31
0
39
0
210
0
220
0
230
1
0
LINE
5
7B
100
AcDbEntity
8
1
62
256
6
ByLayer
370
-1
48
1
60
0
100
AcDbLine
10
83.411349
20
3.818508
30
0
11
75.706771
21
-9.106955
31
0
39
0
210
0
220
0
230
1
0
LINE
5
7C
100
AcDbEntity
8
1
62
256
6
ByLayer
370
-1
48
1
60
0
100
AcDbLine
10
25.414894
20
0
30
0
11
25.414894
21
-16.889417
31
0
39
0
210
0
220
0
230
1
0
LINE
5
7D
100
AcDbEntity
8
1
62
256
6
ByLayer
370
-1
48
1
60
0
100
AcDbLine
10
25.414894
20
16.889417
30
0
11
25.414894
21
0
31
0
39
0
210
0
220
0
230
1
0
LINE
5
7E
100
AcDbEntity
8
1
62
256
6
ByLayer
370
-1
48
1
60
0
100
AcDbLine
10
0.3
20
31.5
30
0
11
0.3
21
-31.5
31
0
39
0
210
0
220
0
230
1
0
LINE
5
7F
100
AcDbEntity
8
1
62
256
6
ByLayer
370
-1
48
1
60
0
100
AcDbLine
10
80.437318
20
-17.010823
30
0
11
77.028509
21
-15.124674
31
0
39
0
210
0
220
0
230
1
0
LINE
5
80
100
AcDbEntity
8
1
62
256
6
ByLayer
370
-1
48
1
60
0
100
AcDbLine
10
80.437318
20
-18.442322
30
0
11
80.437318
21
-17.010823
31
0
39
0
210
0
220
0
230
1
0
LINE
5
81
100
AcDbEntity
8
1
62
256
6
ByLayer
370
-1
48
1
60
0
100
AcDbLine
10
10.538675
20
-30.080593
30
0
11
13.461325
21
-30.080593
31
0
39
0
210
0
220
0
230
1
0
LINE
5
82
100
AcDbEntity
8
1
62
256
6
ByLayer
370
-1
48
1
60
0
100
AcDbLine
10
10.105662
20
-9.869413
30
0
11
10.105662
21
-29.913955
31
0
39
0
210
0
220
0
230
1
0
LINE
5
83
100
AcDbEntity
8
1
62
256
6
ByLayer
370
-1
48
1
60
0
100
AcDbLine
10
13.894338
20
29.913955
30
0
11
13.894338
21
9.869413
31
0
39
0
210
0
220
0
230
1
0
LINE
5
84
100
AcDbEntity
8
1
62
256
6
ByLayer
370
-1
48
1
60
0
100
AcDbLine
10
84.136916
20
3.061998
30
0
11
89.432902
21
-2.45985
31
0
39
0
210
0
220
0
230
1
0
LINE
5
85
100
AcDbEntity
8
1
62
256
6
ByLayer
370
-1
48
1
60
0
100
AcDbLine
10
10.538675
20
30.080593
30
0
11
10.538675
21
9.349221
31
0
39
0
210
0
220
0
230
1
0
LINE
5
86
100
AcDbEntity
8
1
62
256
6
ByLayer
370
-1
48
1
60
0
100
AcDbLine
10
71.341219
20
-16
30
0
11
71.341219
21
-15.630995
31
0
39
0
210
0
220
0
230
1
0
LINE
5
87
100
AcDbEntity
8
1
62
256
6
ByLayer
370
-1
48
1
60
0
100
AcDbLine
10
71.341219
20
-1.712159
30
0
11
71.341219
21
16
31
0
39
0
210
0
220
0
230
1
0
LINE
5
88
100
AcDbEntity
8
1
62
256
6
ByLayer
370
-1
48
1
60
0
100
AcDbLine
10
80.219762
20
7.14621
30
0
11
71.71853
21
16.01
31
0
39
0
210
0
220
0
230
1
0
LINE
5
89
100
AcDbEntity
8
1
62
256
6
ByLayer
370
-1
48
1
60
0
100
AcDbLine
10
83.411349
20
3.818508
30
0
11
80.219762
21
7.14621
31
0
39
0
210
0
220
0
230
1
0
LINE
5
8A
100
AcDbEntity
8
1
62
256
6
ByLayer
370
-1
48
1
60
0
100
AcDbLine
10
0
20
0
30
0
11
0
21
-31.2
31
0
39
0
210
0
220
0
230
1
0
LINE
5
8B
100
AcDbEntity
8
1
62
256
6
ByLayer
370
-1
48
1
60
0
100
AcDbLine
10
0
20
31.2
30
0
11
0
21
0
31
0
39
0
210
0
220
0
230
1
0
LINE
5
8C
100
AcDbEntity
8
1
62
256
6
ByLayer
370
-1
48
1
60
0
100
AcDbLine
10
84.136916
20
3.061998
30
0
11
72.353535
21
-16.706205
31
0
39
0
210
0
220
0
230
1
0
LINE
5
8D
100
AcDbEntity
8
1
62
256
6
ByLayer
370
-1
48
1
60
0
100
AcDbLine
10
78.841327
20
-11.887517
30
0
11
78.653741
21
-11.954083
31
0
39
0
210
0
220
0
230
1
0
LINE
5
8E
100
AcDbEntity
8
1
62
256
6
ByLayer
370
-1
48
1
60
0
100
AcDbLine
10
13.461325
20
30.080593
30
0
11
10.538675
21
30.080593
31
0
39
0
210
0
220
0
230
1
0
LINE
5
8F
100
AcDbEntity
8
1
62
256
6
ByLayer
370
-1
48
1
60
0
100
AcDbLine
10
77.885958
20
-14.678267
30
0
11
76.268384
21
-13.783688
31
0
39
0
210
0
220
0
230
1
0
LINE
5
90
100
AcDbEntity
8
1
62
256
6
ByLayer
370
-1
48
1
60
0
100
AcDbLine
10
80.303782
20
-16.544101
30
0
11
80.437318
21
-17.010823
31
0
39
0
210
0
220
0
230
1
0
LINE
5
91
100
AcDbEntity
8
1
62
256
6
ByLayer
370
-1
48
1
60
0
100
AcDbLine
10
10.538675
20
9.349221
30
0
11
13.461325
21
9.349221
31
0
39
0
210
0
220
0
230
1
0
LINE
5
92
100
AcDbEntity
8
1
62
256
6
ByLayer
370
-1
48
1
60
0
100
AcDbLine
10
71.467314
20
16.01
30
0
11
71.467314
21
-1.529393
31
0
39
0
210
0
220
0
230
1
0
LINE
5
93
100
AcDbEntity
8
1
62
256
6
ByLayer
370
-1
48
1
60
0
100
AcDbLine
10
71.954055
20
-16.28577
30
0
11
71.954055
21
-16.196997
31
0
39
0
210
0
220
0
230
1
0
LINE
5
94
100
AcDbEntity
8
1
62
256
6
ByLayer
370
-1
48
1
60
0
100
AcDbLine
10
79.484606
20
-15.929913
30
0
11
79.926952
21
-16.320144
31
0
39
0
210
0
220
0
230
1
0
LINE
5
95
100
AcDbEntity
8
1
62
256
6
ByLayer
370
-1
48
1
60
0
100
AcDbLine
10
79.900803
20
-11.653887
30
0
11
82.021415
21
-10.461847
31
0
39
0
210
0
220
0
230
1
0
LINE
5
96
100
AcDbEntity
8
1
62
256
6
ByLayer
370
-1
48
1
60
0
100
AcDbLine
10
82.697363
20
-11.357456
30
0
11
83.30683
21
-11.207996
31
0
39
0
210
0
220
0
230
1
0
LINE
5
97
100
AcDbEntity
8
1
62
256
6
ByLayer
370
-1
48
1
60
0
100
AcDbLine
10
89.433969
20
-18.938628
30
0
11
89.126106
21
-18.74995
31
0
39
0
210
0
220
0
230
1
0
LINE
5
98
100
AcDbEntity
8
1
62
256
6
ByLayer
370
-1
48
1
60
0
100
AcDbLine
10
83.331129
20
-10.607626
30
0
11
83.268175
21
-9.75141
31
0
39
0
210
0
220
0
230
1
0
LINE
5
99
100
AcDbEntity
8
1
62
256
6
ByLayer
370
-1
48
1
60
0
100
AcDbLine
10
90.001318
20
-17.197685
30
0
11
86.031737
21
-19.611298
31
0
39
0
210
0
220
0
230
1
0
LINE
5
9A
100
AcDbEntity
8
1
62
256
6
ByLayer
370
-1
48
1
60
0
100
AcDbLine
10
89.135776
20
-8.573998
30
0
11
89.091869
21
-7.899987
31
0
39
0
210
0
220
0
230
1
0
LINE
5
9B
100
AcDbEntity
8
1
62
256
6
ByLayer
370
-1
48
1
60
0
100
AcDbLine
10
82.198229
20
-10.327518
30
0
11
82.346427
21
-10.845101
31
0
39
0
210
0
220
0
230
1
0
LINE
5
9C
100
AcDbEntity
8
1
62
256
6
ByLayer
370
-1
48
1
60
0
100
AcDbLine
10
86.618278
20
-8.105635
30
0
11
86.212903
21
-7.932735
31
0
39
0
210
0
220
0
230
1
0
LINE
5
9D
100
AcDbEntity
8
1
62
256
6
ByLayer
370
-1
48
1
60
0
100
AcDbLine
10
82.928622
20
-9.887095
30
0
11
83.30683
21
-11.207996
31
0
39
0
210
0
220
0
230
1
0
LINE
5
9E
100
AcDbEntity
8
1
62
256
6
ByLayer
370
-1
48
1
60
0
100
AcDbLine
10
86.500596
20
-7.732083
30
0
11
86.723654
21
-7.827221
31
0
39
0
210
0
220
0
230
1
0
LINE
5
9F
100
AcDbEntity
8
1
62
256
6
ByLayer
370
-1
48
1
60
0
100
AcDbLine
10
89.554125
20
-9.737446
30
0
11
89.546911
21
-9.626705
31
0
39
0
210
0
220
0
230
1
0
LINE
5
A0
100
AcDbEntity
8
1
62
256
6
ByLayer
370
-1
48
1
60
0
100
AcDbLine
10
78.092099
20
-14.083677
30
0
11
78.381119
21
-14.55178
31
0
39
0
210
0
220
0
230
1
0
LINE
5
A1
100
AcDbEntity
8
1
62
256
6
ByLayer
370
-1
48
1
60
0
100
AcDbLine
10
89.998288
20
-13.962417
30
0
11
89.998819
21
-13.34555
31
0
39
0
210
0
220
0
230
1
0
LINE
5
A2
100
AcDbEntity
8
1
62
256
6
ByLayer
370
-1
48
1
60
0
100
AcDbLine
10
89.39733
20
-19.211686
30
0
11
89.092617
21
-19.744895
31
0
39
0
210
0
220
0
230
1
0
LINE
5
A3
100
AcDbEntity
8
1
62
256
6
ByLayer
370
-1
48
1
60
0
100
AcDbLine
10
88.627047
20
-8.454388
30
0
11
89.144459
21
-7.625141
31
0
39
0
210
0
220
0
230
1
0
LINE
5
A4
100
AcDbEntity
8
1
62
256
6
ByLayer
370
-1
48
1
60
0
100
AcDbLine
10
90.001756
20
-14.390559
30
0
11
89.999309
21
-14.169933
31
0
39
0
210
0
220
0
230
1
0
LINE
5
A5
100
AcDbEntity
8
1
62
256
6
ByLayer
370
-1
48
1
60
0
100
AcDbLine
10
89.633532
20
-19.355444
30
0
11
89.39733
21
-19.211686
31
0
39
0
210
0
220
0
230
1
0
LINE
5
A6
100
AcDbEntity
8
1
62
256
6
ByLayer
370
-1
48
1
60
0
100
AcDbLine
10
77.380598
20
-13.859814
30
0
11
78.215453
21
-15.211962
31
0
39
0
210
0
220
0
230
1
0
LINE
5
A7
100
AcDbEntity
8
1
62
256
6
ByLayer
370
-1
48
1
60
0
100
AcDbLine
10
82.356809
20
-17.680235
30
0
11
80.051901
21
-16.404715
31
0
39
0
210
0
220
0
230
1
0
LINE
5
A8
100
AcDbEntity
8
1
62
256
6
ByLayer
370
-1
48
1
60
0
100
AcDbLine
10
79.445139
20
-15.490678
30
0
11
79.484606
21
-15.929913
31
0
39
0
210
0
220
0
230
1
0
LINE
5
A9
100
AcDbEntity
8
1
62
256
6
ByLayer
370
-1
48
1
60
0
100
AcDbLine
10
82.782485
20
-17.855551
30
0
11
83.3433
21
-18.173746
31
0
39
0
210
0
220
0
230
1
0
LINE
5
AA
100
AcDbEntity
8
1
62
256
6
ByLayer
370
-1
48
1
60
0
100
AcDbLine
10
83.362442
20
-9.708029
30
0
11
85.667349
21
-8.412393
31
0
39
0
210
0
220
0
230
1
0
LINE
5
AB
100
AcDbEntity
8
1
62
256
6
ByLayer
370
-1
48
1
60
0
100
AcDbLine
10
78.523108
20
-14.794696
30
0
11
78.834728
21
-14.612375
31
0
39
0
210
0
220
0
230
1
0
LINE
5
AC
100
AcDbEntity
8
1
62
256
6
ByLayer
370
-1
48
1
60
0
100
AcDbLine
10
89.998288
20
-13.962417
30
0
11
88.685154
21
-13.712817
31
0
39
0
210
0
220
0
230
1
0
LINE
5
AD
100
AcDbEntity
8
1
62
256
6
ByLayer
370
-1
48
1
60
0
100
AcDbLine
10
87.979483
20
-19.823903
30
0
11
88.019438
21
-19.7663
31
0
39
0
210
0
220
0
230
1
0
LINE
5
AE
100
AcDbEntity
8
1
62
256
6
ByLayer
370
-1
48
1
60
0
100
AcDbLine
10
78.529787
20
-13.070784
30
0
11
78.465828
21
-12.088963
31
0
39
0
210
0
220
0
230
1
0
LINE
5
AF
100
AcDbEntity
8
1
62
256
6
ByLayer
370
-1
48
1
60
0
100
AcDbLine
10
78.542294
20
-13.39023
30
0
11
78.533033
21
-13.248076
31
0
39
0
210
0
220
0
230
1
0
LINE
5
B0
100
AcDbEntity
8
1
62
256
6
ByLayer
370
-1
48
1
60
0
100
AcDbLine
10
89.490056
20
-12.991335
30
0
11
90.00236
21
-13.008377
31
0
39
0
210
0
220
0
230
1
0
LINE
5
B1
100
AcDbEntity
8
1
62
256
6
ByLayer
370
-1
48
1
60
0
100
AcDbLine
10
89.299028
20
-19.155681
30
0
11
88.991166
21
-18.967002
31
0
39
0
210
0
220
0
230
1
0
LINE
5
B2
100
AcDbEntity
8
1
62
256
6
ByLayer
370
-1
48
1
60
0
100
AcDbLine
10
89.33294
20
-7.431962
30
0
11
89.266014
21
-6.404597
31
0
39
0
210
0
220
0
230
1
0
LINE
5
B3
100
AcDbEntity
8
1
62
256
6
ByLayer
370
-1
48
1
60
0
100
AcDbLine
10
90.00236
20
-14.50431
30
0
11
90.00236
21
-17.075466
31
0
39
0
210
0
220
0
230
1
0
LINE
5
B4
100
AcDbEntity
8
1
62
256
6
ByLayer
370
-1
48
1
60
0
100
AcDbLine
10
82.782485
20
-17.855551
30
0
11
83.729511
21
-16.969991
31
0
39
0
210
0
220
0
230
1
0
LINE
5
B5
100
AcDbEntity
8
1
62
256
6
ByLayer
370
-1
48
1
60
0
100
AcDbLine
10
82.449868
20
-17.722799
30
0
11
82.611521
21
-17.776041
31
0
39
0
210
0
220
0
230
1
0
LINE
5
B6
100
AcDbEntity
8
1
62
256
6
ByLayer
370
-1
48
1
60
0
100
AcDbLine
10
89.25584
20
-7.383424
30
0
11
87.520689
21
-7.262782
31
0
39
0
210
0
220
0
230
1
0
LINE
5
B7
100
AcDbEntity
8
1
62
256
6
ByLayer
370
-1
48
1
60
0
100
AcDbLine
10
79.763593
20
-11.801621
30
0
11
79.656088
21
-11.938032
31
0
39
0
210
0
220
0
230
1
0
LINE
5
B8
100
AcDbEntity
8
1
62
256
6
ByLayer
370
-1
48
1
60
0
100
AcDbLine
10
77.314523
20
-12.751535
30
0
11
77.316562
21
-12.748115
31
0
39
0
210
0
220
0
230
1
0
LINE
5
B9
100
AcDbEntity
8
1
62
256
6
ByLayer
370
-1
48
1
60
0
100
AcDbLine
10
89.66617
20
-9.216396
30
0
11
89.602211
21
-8.234576
31
0
39
0
210
0
220
0
230
1
0
LINE
5
BA
100
AcDbEntity
8
1
62
256
6
ByLayer
370
-1
48
1
60
0
100
AcDbLine
10
78.465828
20
-12.088963
30
0
11
78.578401
21
-11.900107
31
0
39
0
210
0
220
0
230
1
0
LINE
5
BB
100
AcDbEntity
8
1
62
256
6
ByLayer
370
-1
48
1
60
0
100
AcDbLine
10
89.899585
20
-9.458615
30
0
11
89.968542
21
-10.517158
31
0
39
0
210
0
220
0
230
1
0
LINE
5
BC
100
AcDbEntity
8
1
62
256
6
ByLayer
370
-1
48
1
60
0
100
AcDbLine
10
78.688152
20
-14.03669
30
0
11
78.692739
21
-14.36946
31
0
39
0
210
0
220
0
230
1
0
LINE
5
BD
100
AcDbEntity
8
1
62
256
6
ByLayer
370
-1
48
1
60
0
100
AcDbLine
10
89.330901
20
-7.42856
30
0
11
89.263975
21
-6.401194
31
0
39
0
210
0
220
0
230
1
0
LINE
5
BE
100
AcDbEntity
8
1
62
256
6
ByLayer
370
-1
48
1
60
0
100
AcDbLine
10
88.660158
20
-13.706581
30
0
11
88.833292
21
-13.122523
31
0
39
0
210
0
220
0
230
1
0
LINE
5
BF
100
AcDbEntity
8
1
62
256
6
ByLayer
370
-1
48
1
60
0
100
AcDbLine
10
88.009942
20
-7.701226
30
0
11
88.003697
21
-8.034044
31
0
39
0
210
0
220
0
230
1
0
LINE
5
C0
100
AcDbEntity
8
1
62
256
6
ByLayer
370
-1
48
1
60
0
100
AcDbLine
10
79.192019
20
-15.731794
30
0
11
79.01253
21
-15.632466
31
0
39
0
210
0
220
0
230
1
0
LINE
5
C1
100
AcDbEntity
8
1
62
256
6
ByLayer
370
-1
48
1
60
0
100
AcDbLine
10
89.815649
20
-10.216928
30
0
11
86.618278
21
-8.105635
31
0
39
0
210
0
220
0
230
1
0
LINE
5
C2
100
AcDbEntity
8
1
62
256
6
ByLayer
370
-1
48
1
60
0
100
AcDbLine
10
89.077512
20
-20.531733
30
0
11
89.957697
21
-18.991523
31
0
39
0
210
0
220
0
230
1
0
LINE
5
C3
100
AcDbEntity
8
1
62
256
6
ByLayer
370
-1
48
1
60
0
100
AcDbLine
10
78.854218
20
-12.526507
30
0
11
78.813242
21
-11.897498
31
0
39
0
210
0
220
0
230
1
0
LINE
5
C4
100
AcDbEntity
8
1
62
256
6
ByLayer
370
-1
48
1
60
0
100
AcDbLine
10
89.25584
20
-7.383424
30
0
11
89.189108
21
-6.35903
31
0
39
0
210
0
220
0
230
1
0
LINE
5
C5
100
AcDbEntity
8
1
62
256
6
ByLayer
370
-1
48
1
60
0
100
AcDbLine
10
89.923154
20
-10.431652
30
0
11
89.815649
21
-10.216928
31
0
39
0
210
0
220
0
230
1
0
LINE
5
C6
100
AcDbEntity
8
1
62
256
6
ByLayer
370
-1
48
1
60
0
100
AcDbLine
10
87.391343
20
-7.286775
30
0
11
86.75989
21
-7.589582
31
0
39
0
210
0
220
0
230
1
0
LINE
5
C7
100
AcDbEntity
8
1
62
256
6
ByLayer
370
-1
48
1
60
0
100
AcDbLine
10
90.00236
20
-10.642805
30
0
11
90.00236
21
-13.008377
31
0
39
0
210
0
220
0
230
1
0
LINE
5
C8
100
AcDbEntity
8
1
62
256
6
ByLayer
370
-1
48
1
60
0
100
AcDbLine
10
87.378229
20
-7.085461
30
0
11
87.391343
21
-7.286775
31
0
39
0
210
0
220
0
230
1
0
LINE
5
C9
100
AcDbEntity
8
1
62
256
6
ByLayer
370
-1
48
1
60
0
100
AcDbLine
10
89.202479
20
-14.018472
30
0
11
90.001756
21
-14.390559
31
0
39
0
210
0
220
0
230
1
0
LINE
5
CA
100
AcDbEntity
8
1
62
256
6
ByLayer
370
-1
48
1
60
0
100
AcDbLine
10
83.268175
20
-9.75141
30
0
11
83.101627
21
-9.806084
31
0
39
0
210
0
220
0
230
1
0
LINE
5
CB
100
AcDbEntity
8
1
62
256
6
ByLayer
370
-1
48
1
60
0
100
AcDbLine
10
86.500596
20
-7.732083
30
0
11
86.680085
21
-7.631189
31
0
39
0
210
0
220
0
230
1
0
LINE
5
CC
100
AcDbEntity
8
1
62
256
6
ByLayer
370
-1
48
1
60
0
100
AcDbLine
10
89.991489
20
-17.529285
30
0
11
90.001318
21
-17.197685
31
0
39
0
210
0
220
0
230
1
0
LINE
5
CD
100
AcDbEntity
8
1
62
256
6
ByLayer
370
-1
48
1
60
0
100
AcDbLine
10
88.605082
20
-7.646168
30
0
11
89.046728
21
-7.462037
31
0
39
0
210
0
220
0
230
1
0
LINE
5
CE
100
AcDbEntity
8
1
62
256
6
ByLayer
370
-1
48
1
60
0
100
AcDbLine
10
78.381119
20
-14.55178
30
0
11
78.692739
21
-14.36946
31
0
39
0
210
0
220
0
230
1
0
LINE
5
CF
100
AcDbEntity
8
1
62
256
6
ByLayer
370
-1
48
1
60
0
100
AcDbLine
10
79.295426
20
-12.385487
30
0
11
79.248082
21
-11.658722
31
0
39
0
210
0
220
0
230
1
0
LINE
5
D0
100
AcDbEntity
8
1
62
256
6
ByLayer
370
-1
48
1
60
0
100
AcDbLine
10
86.212903
20
-7.932735
30
0
11
85.790214
21
-8.326741
31
0
39
0
210
0
220
0
230
1
0
LINE
5
D1
100
AcDbEntity
8
1
62
256
6
ByLayer
370
-1
48
1
60
0
100
AcDbLine
10
89.144459
20
-7.625141
30
0
11
88.702813
21
-7.809273
31
0
39
0
210
0
220
0
230
1
0
LINE
5
D2
100
AcDbEntity
8
1
62
256
6
ByLayer
370
-1
48
1
60
0
100
AcDbLine
10
78.357166
20
-12.625804
30
0
11
78.45948
21
-12.454157
31
0
39
0
210
0
220
0
230
1
0
LINE
5
D3
100
AcDbEntity
8
1
62
256
6
ByLayer
370
-1
48
1
60
0
100
AcDbLine
10
85.818448
20
-19.595882
30
0
11
83.697836
21
-18.42235
31
0
39
0
210
0
220
0
230
1
0
LINE
5
D4
100
AcDbEntity
8
1
62
256
6
ByLayer
370
-1
48
1
60
0
100
AcDbLine
10
89.096647
20
-20.294923
30
0
11
89.633532
21
-19.355444
31
0
39
0
210
0
220
0
230
1
0
LINE
5
D5
100
AcDbEntity
8
1
62
256
6
ByLayer
370
-1
48
1
60
0
100
AcDbLine
10
88.897154
20
-19.745747
30
0
11
88.5878
21
-19.215219
31
0
39
0
210
0
220
0
230
1
0
LINE
5
D6
100
AcDbEntity
8
1
62
256
6
ByLayer
370
-1
48
1
60
0
100
AcDbLine
10
82.105776
20
-10.404637
30
0
11
82.346427
21
-10.845101
31
0
39
0
210
0
220
0
230
1
0
LINE
5
D7
100
AcDbEntity
8
1
62
256
6
ByLayer
370
-1
48
1
60
0
100
AcDbLine
10
89.204162
20
-8.584394
30
0
11
89.153176
21
-7.80172
31
0
39
0
210
0
220
0
230
1
0
LINE
5
D8
100
AcDbEntity
8
1
62
256
6
ByLayer
370
-1
48
1
60
0
100
AcDbLine
10
88.702813
20
-7.809273
30
0
11
88.409152
21
-8.279918
31
0
39
0
210
0
220
0
230
1
0
LINE
5
D9
100
AcDbEntity
8
1
62
256
6
ByLayer
370
-1
48
1
60
0
100
AcDbLine
10
86.75989
20
-7.589582
30
0
11
86.809476
21
-7.812684
31
0
39
0
210
0
220
0
230
1
0
LINE
5
DA
100
AcDbEntity
8
1
62
256
6
ByLayer
370
-1
48
1
60
0
100
AcDbLine
10
88.998103
20
-20.576442
30
0
11
89.002181
21
-20.576425
31
0
39
0
210
0
220
0
230
1
0
LINE
5
DB
100
AcDbEntity
8
1
62
256
6
ByLayer
370
-1
48
1
60
0
100
AcDbLine
10
89.092617
20
-19.744895
30
0
11
89.096647
21
-20.294923
31
0
39
0
210
0
220
0
230
1
0
LINE
5
DC
100
AcDbEntity
8
1
62
256
6
ByLayer
370
-1
48
1
60
0
100
AcDbLine
10
78.991124
20
-12.434752
30
0
11
78.951441
21
-11.825588
31
0
39
0
210
0
220
0
230
1
0
LINE
5
DD
100
AcDbEntity
8
1
62
256
6
ByLayer
370
-1
48
1
60
0
100
AcDbLine
10
88.316975
20
-8.213637
30
0
11
88.003697
21
-8.034044
31
0
39
0
210
0
220
0
230
1
0
LINE
5
DE
100
AcDbEntity
8
1
62
256
6
ByLayer
370
-1
48
1
60
0
100
AcDbLine
10
89.992524
20
-18.858581
30
0
11
89.989247
21
-18.107538
31
0
39
0
210
0
220
0
230
1
0
LINE
5
DF
100
AcDbEntity
8
1
62
256
6
ByLayer
370
-1
48
1
60
0
100
AcDbLine
10
78.715416
20
-13.723699
30
0
11
77.665208
21
-13.806488
31
0
39
0
210
0
220
0
230
1
0
LINE
5
E0
100
AcDbEntity
8
1
62
256
6
ByLayer
370
-1
48
1
60
0
100
AcDbLine
10
88.678973
20
-6.353794
30
0
11
89.189108
21
-6.35903
31
0
39
0
210
0
220
0
230
1
0
LINE
5
E1
100
AcDbEntity
8
1
62
256
6
ByLayer
370
-1
48
1
60
0
100
AcDbLine
10
86.723654
20
-7.827221
30
0
11
86.680085
21
-7.631189
31
0
39
0
210
0
220
0
230
1
0
LINE
5
E2
100
AcDbEntity
8
1
62
256
6
ByLayer
370
-1
48
1
60
0
100
AcDbLine
10
79.880601
20
-11.66653
30
0
11
80.051901
21
-16.404715
31
0
39
0
210
0
220
0
230
1
0
LINE
5
E3
100
AcDbEntity
8
1
62
256
6
ByLayer
370
-1
48
1
60
0
100
AcDbLine
10
78.308234
20
-15.294229
30
0
11
78.933134
21
-15.591554
31
0
39
0
210
0
220
0
230
1
0
LINE
5
E4
100
AcDbEntity
8
1
62
256
6
ByLayer
370
-1
48
1
60
0
100
AcDbLine
10
89.046728
20
-7.462037
30
0
11
87.988341
21
-7.388449
31
0
39
0
210
0
220
0
230
1
0
LINE
5
E5
100
AcDbEntity
8
1
62
256
6
ByLayer
370
-1
48
1
60
0
100
AcDbLine
10
82.356809
20
-17.680235
30
0
11
83.132322
21
-17.170339
31
0
39
0
210
0
220
0
230
1
0
LINE
5
E6
100
AcDbEntity
8
1
62
256
6
ByLayer
370
-1
48
1
60
0
100
AcDbLine
10
77.381449
20
-13.778901
30
0
11
77.314523
21
-12.751535
31
0
39
0
210
0
220
0
230
1
0
LINE
5
E7
100
AcDbEntity
8
1
62
256
6
ByLayer
370
-1
48
1
60
0
100
AcDbLine
10
78.715416
20
-13.723699
30
0
11
78.694848
21
-13.939813
31
0
39
0
210
0
220
0
230
1
0
LINE
5
E8
100
AcDbEntity
8
1
62
256
6
ByLayer
370
-1
48
1
60
0
100
AcDbLine
10
86.809476
20
-7.812684
30
0
11
89.548818
21
-9.621531
31
0
39
0
210
0
220
0
230
1
0
LINE
5
E9
100
AcDbEntity
8
1
62
256
6
ByLayer
370
-1
48
1
60
0
100
AcDbLine
10
89.036415
20
-8.508596
30
0
11
88.914417
21
-8.304993
31
0
39
0
210
0
220
0
230
1
0
LINE
5
EA
100
AcDbEntity
8
1
62
256
6
ByLayer
370
-1
48
1
60
0
100
AcDbLine
10
82.368868
20
-10.210181
30
0
11
82.697363
21
-11.357456
31
0
39
0
210
0
220
0
230
1
0
LINE
5
EB
100
AcDbEntity
8
1
62
256
6
ByLayer
370
-1
48
1
60
0
100
AcDbLine
10
77.383487
20
-13.77548
30
0
11
77.381449
21
-13.778901
31
0
39
0
210
0
220
0
230
1
0
LINE
5
EC
100
AcDbEntity
8
1
62
256
6
ByLayer
370
-1
48
1
60
0
100
AcDbLine
10
89.548818
20
-9.621531
30
0
11
89.674308
21
-9.369025
31
0
39
0
210
0
220
0
230
1
0
LINE
5
ED
100
AcDbEntity
8
1
62
256
6
ByLayer
370
-1
48
1
60
0
100
AcDbLine
10
78.520978
20
-13.223486
30
0
11
78.548656
21
-13.279945
31
0
39
0
210
0
220
0
230
1
0
LINE
5
EE
100
AcDbEntity
8
1
62
256
6
ByLayer
370
-1
48
1
60
0
100
AcDbLine
10
83.51663
20
-18.289583
30
0
11
83.612244
21
-18.365881
31
0
39
0
210
0
220
0
230
1
0
LINE
5
EF
100
AcDbEntity
8
1
62
256
6
ByLayer
370
-1
48
1
60
0
100
AcDbLine
10
83.101627
20
-9.806084
30
0
11
83.331129
21
-10.607626
31
0
39
0
210
0
220
0
230
1
0
LINE
5
F0
100
AcDbEntity
8
1
62
256
6
ByLayer
370
-1
48
1
60
0
100
AcDbLine
10
88.627047
20
-8.454388
30
0
11
88.409152
21
-8.279918
31
0
39
0
210
0
220
0
230
1
0
LINE
5
F1
100
AcDbEntity
8
1
62
256
6
ByLayer
370
-1
48
1
60
0
100
AcDbLine
10
78.076711
20
-14.795213
30
0
11
78.290083
21
-14.618861
31
0
39
0
210
0
220
0
230
1
0
LINE
5
F2
100
AcDbEntity
8
1
62
256
6
ByLayer
370
-1
48
1
60
0
100
AcDbLine
10
89.66617
20
-9.216396
30
0
11
89.341739
21
-8.674951
31
0
39
0
210
0
220
0
230
1
0
LINE
5
F3
100
AcDbEntity
8
1
62
256
6
ByLayer
370
-1
48
1
60
0
100
AcDbLine
10
86.031737
20
-19.611298
30
0
11
86.239005
21
-19.570768
31
0
39
0
210
0
220
0
230
1
0
LINE
5
F4
100
AcDbEntity
8
1
62
256
6
ByLayer
370
-1
48
1
60
0
100
AcDbLine
10
78.098794
20
-13.986801
30
0
11
78.694848
21
-13.939813
31
0
39
0
210
0
220
0
230
1
0
LINE
5
F5
100
AcDbEntity
8
1
62
256
6
ByLayer
370
-1
48
1
60
0
100
AcDbLine
10
87.736041
20
-7.721855
30
0
11
87.729796
21
-8.054672
31
0
39
0
210
0
220
0
230
1
0
LINE
5
F6
100
AcDbEntity
8
1
62
256
6
ByLayer
370
-1
48
1
60
0
100
AcDbLine
10
88.004387
20
-7.604403
30
0
11
88.605082
21
-7.646168
31
0
39
0
210
0
220
0
230
1
0
LINE
5
F7
100
AcDbEntity
8
1
62
256
6
ByLayer
370
-1
48
1
60
0
100
AcDbLine
10
87.988341
20
-7.388449
30
0
11
88.004387
21
-7.604403
31
0
39
0
210
0
220
0
230
1
0
LINE
5
F8
100
AcDbEntity
8
1
62
256
6
ByLayer
370
-1
48
1
60
0
100
AcDbLine
10
85.790214
20
-8.326741
30
0
11
89.923154
21
-10.431652
31
0
39
0
210
0
220
0
230
1
0
LINE
5
F9
100
AcDbEntity
8
1
62
256
6
ByLayer
370
-1
48
1
60
0
100
AcDbLine
10
88.901184
20
-20.295776
30
0
11
88.897154
21
-19.745747
31
0
39
0
210
0
220
0
230
1
0
LINE
5
FA
100
AcDbEntity
8
1
62
256
6
ByLayer
370
-1
48
1
60
0
100
AcDbLine
10
88.316975
20
-8.213637
30
0
11
88.610636
21
-7.742992
31
0
39
0
210
0
220
0
230
1
0
LINE
5
FB
100
AcDbEntity
8
1
62
256
6
ByLayer
370
-1
48
1
60
0
100
AcDbLine
10
85.839804
20
-19.606412
30
0
11
90.00236
21
-17.075466
31
0
39
0
210
0
220
0
230
1
0
LINE
5
FC
100
AcDbEntity
8
1
62
256
6
ByLayer
370
-1
48
1
60
0
100
AcDbLine
10
90.001206
20
-10.619631
30
0
11
85.667349
21
-8.412393
31
0
39
0
210
0
220
0
230
1
0
LINE
5
FD
100
AcDbEntity
8
1
62
256
6
ByLayer
370
-1
48
1
60
0
100
AcDbLine
10
82.260287
20
-10.899055
30
0
11
82.021415
21
-10.461847
31
0
39
0
210
0
220
0
230
1
0
LINE
5
FE
100
AcDbEntity
8
1
62
256
6
ByLayer
370
-1
48
1
60
0
100
AcDbLine
10
89.999309
20
-14.169933
30
0
11
89.202479
21
-14.018472
31
0
39
0
210
0
220
0
230
1
0
LINE
5
FF
100
AcDbEntity
8
1
62
256
6
ByLayer
370
-1
48
1
60
0
100
AcDbLine
10
89.27778
20
-7.693131
30
0
11
89.602211
21
-8.234576
31
0
39
0
210
0
220
0
230
1
0
LINE
5
100
100
AcDbEntity
8
1
62
256
6
ByLayer
370
-1
48
1
60
0
100
AcDbLine
10
79.192019
20
-15.731794
30
0
11
79.170302
21
-15.490105
31
0
39
0
210
0
220
0
230
1
0
LINE
5
101
100
AcDbEntity
8
1
62
256
6
ByLayer
370
-1
48
1
60
0
100
AcDbLine
10
77.391429
20
-12.705297
30
0
11
78.246566
21
-12.689057
31
0
39
0
210
0
220
0
230
1
0
LINE
5
102
100
AcDbEntity
8
1
62
256
6
ByLayer
370
-1
48
1
60
0
100
AcDbLine
10
88.480286
20
-19.77423
30
0
11
88.922385
21
-20.53241
31
0
39
0
210
0
220
0
230
1
0
LINE
5
103
100
AcDbEntity
8
1
62
256
6
ByLayer
370
-1
48
1
60
0
100
AcDbLine
10
90.001745
20
-13.093725
30
0
11
89.485624
21
-13.076557
31
0
39
0
210
0
220
0
230
1
0
LINE
5
104
100
AcDbEntity
8
1
62
256
6
ByLayer
370
-1
48
1
60
0
100
AcDbLine
10
89.759085
20
-18.030844
30
0
11
86.859034
21
-19.573057
31
0
39
0
210
0
220
0
230
1
0
LINE
5
105
100
AcDbEntity
8
1
62
256
6
ByLayer
370
-1
48
1
60
0
100
AcDbLine
10
77.567476
20
-13.970446
30
0
11
78.076711
21
-14.795213
31
0
39
0
210
0
220
0
230
1
0
LINE
5
106
100
AcDbEntity
8
1
62
256
6
ByLayer
370
-1
48
1
60
0
100
AcDbLine
10
78.933134
20
-15.591554
30
0
11
79.112693
21
-15.429533
31
0
39
0
210
0
220
0
230
1
0
LINE
5
107
100
AcDbEntity
8
1
62
256
6
ByLayer
370
-1
48
1
60
0
100
AcDbLine
10
79.926952
20
-16.320144
30
0
11
79.763593
21
-11.801621
31
0
39
0
210
0
220
0
230
1
0
LINE
5
108
100
AcDbEntity
8
1
62
256
6
ByLayer
370
-1
48
1
60
0
100
AcDbLine
10
88.913731
20
-8.18547
30
0
11
89.333403
21
-7.51287
31
0
39
0
210
0
220
0
230
1
0
LINE
5
109
100
AcDbEntity
8
1
62
256
6
ByLayer
370
-1
48
1
60
0
100
AcDbLine
10
88.610636
20
-7.742992
30
0
11
88.009942
21
-7.701226
31
0
39
0
210
0
220
0
230
1
0
LINE
5
10A
100
AcDbEntity
8
1
62
256
6
ByLayer
370
-1
48
1
60
0
100
AcDbLine
10
77.383487
20
-13.77548
30
0
11
77.316562
21
-12.748115
31
0
39
0
210
0
220
0
230
1
0
LINE
5
10B
100
AcDbEntity
8
1
62
256
6
ByLayer
370
-1
48
1
60
0
100
AcDbLine
10
82.198229
20
-10.327518
30
0
11
82.105776
21
-10.404637
31
0
39
0
210
0
220
0
230
1
0
LINE
5
10C
100
AcDbEntity
8
1
62
256
6
ByLayer
370
-1
48
1
60
0
100
AcDbLine
10
89.341739
20
-8.674951
30
0
11
89.27778
21
-7.693131
31
0
39
0
210
0
220
0
230
1
0
LINE
5
10D
100
AcDbEntity
8
1
62
256
6
ByLayer
370
-1
48
1
60
0
100
AcDbLine
10
78.968658
20
-14.387689
30
0
11
78.964072
21
-14.054919
31
0
39
0
210
0
220
0
230
1
0
LINE
5
10E
100
AcDbEntity
8
1
62
256
6
ByLayer
370
-1
48
1
60
0
100
AcDbLine
10
83.3433
20
-18.173746
30
0
11
84.165844
21
-17.404589
31
0
39
0
210
0
220
0
230
1
0
LINE
5
10F
100
AcDbEntity
8
1
62
256
6
ByLayer
370
-1
48
1
60
0
100
AcDbLine
10
83.971269
20
-18.002183
30
0
11
83.697836
21
-18.42235
31
0
39
0
210
0
220
0
230
1
0
LINE
5
110
100
AcDbEntity
8
1
62
256
6
ByLayer
370
-1
48
1
60
0
100
AcDbLine
10
88.858289
20
-13.128759
30
0
11
88.685154
21
-13.712817
31
0
39
0
210
0
220
0
230
1
0
LINE
5
111
100
AcDbEntity
8
1
62
256
6
ByLayer
370
-1
48
1
60
0
100
AcDbLine
10
86.239005
20
-19.570768
30
0
11
89.623956
21
-17.77069
31
0
39
0
210
0
220
0
230
1
0
LINE
5
112
100
AcDbEntity
8
1
62
256
6
ByLayer
370
-1
48
1
60
0
100
AcDbLine
10
89.989042
20
-17.815383
30
0
11
89.989042
21
-18.015604
31
0
39
0
210
0
220
0
230
1
0
LINE
5
113
100
AcDbEntity
8
1
62
256
6
ByLayer
370
-1
48
1
60
0
100
AcDbLine
10
83.362442
20
-9.708029
30
0
11
83.428747
21
-10.609816
31
0
39
0
210
0
220
0
230
1
0
LINE
5
114
100
AcDbEntity
8
1
62
256
6
ByLayer
370
-1
48
1
60
0
100
AcDbLine
10
86.859034
20
-19.573057
30
0
11
87.03919
21
-19.828006
31
0
39
0
210
0
220
0
230
1
0
LINE
5
115
100
AcDbEntity
8
1
62
256
6
ByLayer
370
-1
48
1
60
0
100
AcDbLine
10
82.928622
20
-9.887095
30
0
11
82.368868
21
-10.210181
31
0
39
0
210
0
220
0
230
1
0
LINE
5
116
100
AcDbEntity
8
1
62
256
6
ByLayer
370
-1
48
1
60
0
100
AcDbLine
10
79.784195
20
-11.357142
30
0
11
79.80898
21
-11.737622
31
0
39
0
210
0
220
0
230
1
0
LINE
5
117
100
AcDbEntity
8
1
62
256
6
ByLayer
370
-1
48
1
60
0
100
AcDbLine
10
88.356122
20
-19.361018
30
0
11
88.5878
21
-19.215219
31
0
39
0
210
0
220
0
230
1
0
LINE
5
118
100
AcDbEntity
8
1
62
256
6
ByLayer
370
-1
48
1
60
0
100
AcDbLine
10
77.665208
20
-13.806488
30
0
11
78.098794
21
-13.986801
31
0
39
0
210
0
220
0
230
1
0
LINE
5
119
100
AcDbEntity
8
1
62
256
6
ByLayer
370
-1
48
1
60
0
100
AcDbLine
10
78.420296
20
-13.594898
30
0
11
78.357166
21
-12.625804
31
0
39
0
210
0
220
0
230
1
0
LINE
5
11A
100
AcDbEntity
8
1
62
256
6
ByLayer
370
-1
48
1
60
0
100
AcDbLine
10
90.000165
20
-13.174361
30
0
11
89.485624
21
-13.076557
31
0
39
0
210
0
220
0
230
1
0
LINE
5
11B
100
AcDbEntity
8
1
62
256
6
ByLayer
370
-1
48
1
60
0
100
AcDbLine
10
89.263975
20
-6.401194
30
0
11
89.266014
21
-6.404597
31
0
39
0
210
0
220
0
230
1
0
LINE
5
11C
100
AcDbEntity
8
1
62
256
6
ByLayer
370
-1
48
1
60
0
100
AcDbLine
10
87.863727
20
-8.27819
30
0
11
88.177005
21
-8.457783
31
0
39
0
210
0
220
0
230
1
0
LINE
5
11D
100
AcDbEntity
8
1
62
256
6
ByLayer
370
-1
48
1
60
0
100
AcDbLine
10
83.186191
20
-17.23867
30
0
11
82.449868
21
-17.722799
31
0
39
0
210
0
220
0
230
1
0
LINE
5
11E
100
AcDbEntity
8
1
62
256
6
ByLayer
370
-1
48
1
60
0
100
AcDbLine
10
88.124434
20
-19.710247
30
0
11
88.36843
21
-19.709182
31
0
39
0
210
0
220
0
230
1
0
LINE
5
11F
100
AcDbEntity
8
1
62
256
6
ByLayer
370
-1
48
1
60
0
100
AcDbLine
10
89.786807
20
-17.948216
30
0
11
89.989042
21
-18.015604
31
0
39
0
210
0
220
0
230
1
0
LINE
5
120
100
AcDbEntity
8
1
62
256
6
ByLayer
370
-1
48
1
60
0
100
AcDbLine
10
87.520689
20
-7.262782
30
0
11
87.504512
21
-7.01444
31
0
39
0
210
0
220
0
230
1
0
LINE
5
121
100
AcDbEntity
8
1
62
256
6
ByLayer
370
-1
48
1
60
0
100
AcDbLine
10
78.001063
20
-14.150758
30
0
11
77.567476
21
-13.970446
31
0
39
0
210
0
220
0
230
1
0
LINE
5
122
100
AcDbEntity
8
1
62
256
6
ByLayer
370
-1
48
1
60
0
100
AcDbLine
10
83.51663
20
-18.289583
30
0
11
83.887714
21
-17.942584
31
0
39
0
210
0
220
0
230
1
0
LINE
5
123
100
AcDbEntity
8
1
62
256
6
ByLayer
370
-1
48
1
60
0
100
AcDbLine
10
83.313169
20
-11.232971
30
0
11
82.703702
21
-11.382431
31
0
39
0
210
0
220
0
230
1
0
LINE
5
124
100
AcDbEntity
8
1
62
256
6
ByLayer
370
-1
48
1
60
0
100
AcDbLine
10
79.112693
20
-15.429533
30
0
11
79.293422
21
-12.385809
31
0
39
0
210
0
220
0
230
1
0
LINE
5
125
100
AcDbEntity
8
1
62
256
6
ByLayer
370
-1
48
1
60
0
100
AcDbLine
10
89.989247
20
-18.107538
30
0
11
89.759085
21
-18.030844
31
0
39
0
210
0
220
0
230
1
0
LINE
5
126
100
AcDbEntity
8
1
62
256
6
ByLayer
370
-1
48
1
60
0
100
AcDbLine
10
88.914417
20
-8.304993
30
0
11
88.90739
21
-8.197135
31
0
39
0
210
0
220
0
230
1
0
LINE
5
127
100
AcDbEntity
8
1
62
256
6
ByLayer
370
-1
48
1
60
0
100
AcDbLine
10
84.165844
20
-17.404589
30
0
11
83.729511
21
-16.969991
31
0
39
0
210
0
220
0
230
1
0
LINE
5
128
100
AcDbEntity
8
1
62
256
6
ByLayer
370
-1
48
1
60
0
100
AcDbLine
10
78.688152
20
-14.03669
30
0
11
78.092099
21
-14.083677
31
0
39
0
210
0
220
0
230
1
0
LINE
5
129
100
AcDbEntity
8
1
62
256
6
ByLayer
370
-1
48
1
60
0
100
AcDbLine
10
79.900803
20
-11.653887
30
0
11
79.878034
21
-11.304363
31
0
39
0
210
0
220
0
230
1
0
LINE
5
12A
100
AcDbEntity
8
1
62
256
6
ByLayer
370
-1
48
1
60
0
100
AcDbLine
10
89.998819
20
-13.34555
30
0
11
88.858289
21
-13.128759
31
0
39
0
210
0
220
0
230
1
0
LINE
5
12B
100
AcDbEntity
8
1
62
256
6
ByLayer
370
-1
48
1
60
0
100
AcDbLine
10
77.458161
20
-13.729691
30
0
11
77.391429
21
-12.705297
31
0
39
0
210
0
220
0
230
1
0
LINE
5
12C
100
AcDbEntity
8
1
62
256
6
ByLayer
370
-1
48
1
60
0
100
AcDbLine
10
79.394563
20
-12.323227
30
0
11
79.347628
21
-11.602725
31
0
39
0
210
0
220
0
230
1
0
LINE
5
12D
100
AcDbEntity
8
1
62
256
6
ByLayer
370
-1
48
1
60
0
100
AcDbLine
10
89.036415
20
-8.508596
30
0
11
89.005757
21
-8.037979
31
0
39
0
210
0
220
0
230
1
0
LINE
5
12E
100
AcDbEntity
8
1
62
256
6
ByLayer
370
-1
48
1
60
0
100
AcDbLine
10
79.656088
20
-11.938032
30
0
11
79.445139
21
-15.490678
31
0
39
0
210
0
220
0
230
1
0
LINE
5
12F
100
AcDbEntity
8
1
62
256
6
ByLayer
370
-1
48
1
60
0
100
AcDbLine
10
78.309982
20
-13.662541
30
0
11
78.246566
21
-12.689057
31
0
39
0
210
0
220
0
230
1
0
LINE
5
130
100
AcDbEntity
8
1
62
256
6
ByLayer
370
-1
48
1
60
0
100
AcDbLine
10
78.290083
20
-14.618861
30
0
11
78.001063
21
-14.150758
31
0
39
0
210
0
220
0
230
1
0
LINE
5
131
100
AcDbEntity
8
1
62
256
6
ByLayer
370
-1
48
1
60
0
100
AcDbLine
10
82.611521
20
-17.776041
30
0
11
83.186191
21
-17.23867
31
0
39
0
210
0
220
0
230
1
0
LINE
5
132
100
AcDbEntity
8
1
62
256
6
ByLayer
370
-1
48
1
60
0
100
AcDbLine
10
88.994316
20
-19.688889
30
0
11
89.299028
21
-19.155681
31
0
39
0
210
0
220
0
230
1
0
LINE
5
133
100
AcDbEntity
8
1
62
256
6
ByLayer
370
-1
48
1
60
0
100
AcDbLine
10
79.170302
20
-15.490105
30
0
11
79.01253
21
-15.632466
31
0
39
0
210
0
220
0
230
1
0
LINE
5
134
100
AcDbEntity
8
1
62
256
6
ByLayer
370
-1
48
1
60
0
100
AcDbLine
10
90.000165
20
-13.174361
30
0
11
90.001745
21
-13.093725
31
0
39
0
210
0
220
0
230
1
0
LINE
5
135
100
AcDbEntity
8
1
62
256
6
ByLayer
370
-1
48
1
60
0
100
AcDbLine
10
89.204162
20
-8.584394
30
0
11
89.135776
21
-8.573998
31
0
39
0
210
0
220
0
230
1
0
LINE
5
136
100
AcDbEntity
8
1
62
256
6
ByLayer
370
-1
48
1
60
0
100
AcDbLine
10
83.612244
20
-18.365881
30
0
11
83.887714
21
-17.942584
31
0
39
0
210
0
220
0
230
1
0
LINE
5
137
100
AcDbEntity
8
1
62
256
6
ByLayer
370
-1
48
1
60
0
100
AcDbLine
10
88.684961
20
-19.158361
30
0
11
88.994316
21
-19.688889
31
0
39
0
210
0
220
0
230
1
0
LINE
5
138
100
AcDbEntity
8
1
62
256
6
ByLayer
370
-1
48
1
60
0
100
AcDbLine
10
79.293422
20
-12.385809
30
0
11
78.991124
21
-12.434752
31
0
39
0
210
0
220
0
230
1
0
LINE
5
139
100
AcDbEntity
8
1
62
256
6
ByLayer
370
-1
48
1
60
0
100
AcDbLine
10
87.185241
20
-19.904347
30
0
11
87.834103
21
-19.901515
31
0
39
0
210
0
220
0
230
1
0
LINE
5
13A
100
AcDbEntity
8
1
62
256
6
ByLayer
370
-1
48
1
60
0
100
AcDbLine
10
78.542294
20
-13.39023
30
0
11
78.420296
21
-13.594898
31
0
39
0
210
0
220
0
230
1
0
LINE
5
13B
100
AcDbEntity
8
1
62
256
6
ByLayer
370
-1
48
1
60
0
100
AcDbLine
10
83.748284
20
-16.953022
30
0
11
84.184616
21
-17.38762
31
0
39
0
210
0
220
0
230
1
0
LINE
5
13C
100
AcDbEntity
8
1
62
256
6
ByLayer
370
-1
48
1
60
0
100
AcDbLine
10
78.854218
20
-12.526507
30
0
11
78.529787
21
-13.070784
31
0
39
0
210
0
220
0
230
1
0
LINE
5
13D
100
AcDbEntity
8
1
62
256
6
ByLayer
370
-1
48
1
60
0
100
AcDbLine
10
88.356122
20
-19.361018
30
0
11
88.901184
21
-20.295776
31
0
39
0
210
0
220
0
230
1
0
LINE
5
13E
100
AcDbEntity
8
1
62
256
6
ByLayer
370
-1
48
1
60
0
100
AcDbLine
10
89.989042
20
-17.815383
30
0
11
89.786807
21
-17.948216
31
0
39
0
210
0
220
0
230
1
0
LINE
5
13F
100
AcDbEntity
8
1
62
256
6
ByLayer
370
-1
48
1
60
0
100
AcDbLine
10
89.623956
20
-17.77069
30
0
11
89.991489
21
-17.529285
31
0
39
0
210
0
220
0
230
1
0
LINE
5
140
100
AcDbEntity
8
1
62
256
6
ByLayer
370
-1
48
1
60
0
100
AcDbLine
10
88.684961
20
-19.158361
30
0
11
88.991166
21
-18.967002
31
0
39
0
210
0
220
0
230
1
0
LINE
5
141
100
AcDbEntity
8
1
62
256
6
ByLayer
370
-1
48
1
60
0
100
AcDbLine
10
78.309982
20
-13.662541
30
0
11
77.458161
21
-13.729691
31
0
39
0
210
0
220
0
230
1
0
LINE
5
142
100
AcDbEntity
8
1
62
256
6
ByLayer
370
-1
48
1
60
0
100
AcDbLine
10
89.67651
20
-9.086324
30
0
11
89.899585
21
-9.458615
31
0
39
0
210
0
220
0
230
1
0
LINE
5
143
100
AcDbEntity
8
1
62
256
6
ByLayer
370
-1
48
1
60
0
100
AcDbLine
10
90.00236
20
-14.50431
30
0
11
89.160542
21
-14.112419
31
0
39
0
210
0
220
0
230
1
0
LINE
5
144
100
AcDbEntity
8
1
62
256
6
ByLayer
370
-1
48
1
60
0
100
AcDbLine
10
88.858245
20
-18.751119
30
0
11
88.55204
21
-18.942477
31
0
39
0
210
0
220
0
230
1
0
LINE
5
145
100
AcDbEntity
8
1
62
256
6
ByLayer
370
-1
48
1
60
0
100
AcDbLine
10
89.33294
20
-7.431962
30
0
11
89.330901
21
-7.42856
31
0
39
0
210
0
220
0
230
1
0
LINE
5
146
100
AcDbEntity
8
1
62
256
6
ByLayer
370
-1
48
1
60
0
100
AcDbLine
10
83.750273
20
-14.01513
30
0
11
83.770269
21
-14.011034
31
0
39
0
210
0
220
0
230
1
0
LINE
5
147
100
AcDbEntity
8
1
62
256
6
ByLayer
370
-1
48
1
60
0
100
AcDbLine
10
83.750273
20
-14.01513
30
0
11
83.777463
21
-14.399939
31
0
39
0
210
0
220
0
230
1
0
LINE
5
148
100
AcDbEntity
8
1
62
256
6
ByLayer
370
-1
48
1
60
0
100
AcDbLine
10
84.176645
20
-12.852588
30
0
11
84.186212
21
-12.987994
31
0
39
0
210
0
220
0
230
1
0
LINE
5
149
100
AcDbEntity
8
1
62
256
6
ByLayer
370
-1
48
1
60
0
100
AcDbLine
10
84.827025
20
-15.051676
30
0
11
84.854215
21
-15.436485
31
0
39
0
210
0
220
0
230
1
0
LINE
5
14A
100
AcDbEntity
8
1
62
256
6
ByLayer
370
-1
48
1
60
0
100
AcDbLine
10
86.674538
20
-13.997287
30
0
11
86.694534
21
-14.001195
31
0
39
0
210
0
220
0
230
1
0
LINE
5
14B
100
AcDbEntity
8
1
62
256
6
ByLayer
370
-1
48
1
60
0
100
AcDbLine
10
86.300266
20
-12.804168
30
0
11
86.312544
21
-12.977929
31
0
39
0
210
0
220
0
230
1
0
LINE
5
14C
100
AcDbEntity
8
1
62
256
6
ByLayer
370
-1
48
1
60
0
100
AcDbLine
10
84.827025
20
-15.051676
30
0
11
84.833435
21
-15.032915
31
0
39
0
210
0
220
0
230
1
0
LINE
5
14D
100
AcDbEntity
8
1
62
256
6
ByLayer
370
-1
48
1
60
0
100
AcDbLine
10
86.674538
20
-13.997287
30
0
11
86.701512
21
-14.379049
31
0
39
0
210
0
220
0
230
1
0
LINE
5
14E
100
AcDbEntity
8
1
62
256
6
ByLayer
370
-1
48
1
60
0
100
AcDbLine
10
85.617782
20
-15.047934
30
0
11
85.644972
21
-15.432742
31
0
39
0
210
0
220
0
230
1
0
LINE
5
14F
100
AcDbEntity
8
1
62
256
6
ByLayer
370
-1
48
1
60
0
100
AcDbLine
10
85.611372
20
-15.029232
30
0
11
85.617782
21
-15.047934
31
0
39
0
210
0
220
0
230
1
0
LINE
5
150
100
AcDbEntity
8
1
62
256
6
ByLayer
370
-1
48
1
60
0
100
AcDbLine
10
85.611372
20
-15.029232
30
0
11
85.638347
21
-15.410995
31
0
39
0
210
0
220
0
230
1
0
LINE
5
151
100
AcDbEntity
8
1
62
256
6
ByLayer
370
-1
48
1
60
0
100
AcDbLine
10
83.770269
20
-14.011034
30
0
11
83.797244
21
-14.392796
31
0
39
0
210
0
220
0
230
1
0
LINE
5
152
100
AcDbEntity
8
1
62
256
6
ByLayer
370
-1
48
1
60
0
100
AcDbLine
10
84.833435
20
-15.032915
30
0
11
84.86041
21
-15.414677
31
0
39
0
210
0
220
0
230
1
0
LINE
5
153
100
AcDbEntity
8
1
62
256
6
ByLayer
370
-1
48
1
60
0
100
AcDbLine
10
84.16592
20
-12.878418
30
0
11
84.172841
21
-12.976376
31
0
39
0
210
0
220
0
230
1
0
LINE
5
154
100
AcDbEntity
8
1
62
256
6
ByLayer
370
-1
48
1
60
0
100
AcDbLine
10
86.316621
20
-12.828553
30
0
11
86.326345
21
-12.966183
31
0
39
0
210
0
220
0
230
1
0
LINE
5
155
100
AcDbEntity
8
1
62
256
6
ByLayer
370
-1
48
1
60
0
100
AcDbLine
10
86.694534
20
-14.001195
30
0
11
86.721724
21
-14.386004
31
0
39
0
210
0
220
0
230
1
0
LINE
5
156
100
AcDbEntity
8
SK1
62
256
6
ByLayer
370
-1
48
1
60
0
100
AcDbLine
10
-1.307107
20
-4.695915
30
0
11
-1.307107
21
4.695917
31
0
39
0
210
0
220
0
230
1
0
LINE
5
157
100
AcDbEntity
8
SK1
62
256
6
ByLayer
370
-1
48
1
60
0
100
AcDbLine
10
-0.2
20
-6.834385
30
0
11
-0.2
21
-7.066357
31
0
39
0
210
0
220
0
230
1
0
LINE
5
158
100
AcDbEntity
8
SK1
62
256
6
ByLayer
370
-1
48
1
60
0
100
AcDbLine
10
-0.2
20
7.066356
30
0
11
-0.2
21
6.834385
31
0
39
0
210
0
220
0
230
1
0
LINE
5
159
100
AcDbEntity
8
SK1
62
256
6
ByLayer
370
-1
48
1
60
0
100
AcDbLine
10
-0.2
20
-7.454103
30
0
11
-0.2
21
-22.45
31
0
39
0
210
0
220
0
230
1
0
LINE
5
15A
100
AcDbEntity
8
SK1
62
256
6
ByLayer
370
-1
48
1
60
0
100
AcDbLine
10
-0.2
20
22.45
30
0
11
-0.2
21
7.454102
31
0
39
0
210
0
220
0
230
1
0
LINE
5
15B
100
AcDbEntity
8
1
62
256
6
ByLayer
370
-1
48
1
60
0
100
AcDbLine
10
82.20842
20
-17.62709
30
0
11
82.20842
21
-17.598079
31
0
39
0
210
0
220
0
230
1
0
LINE
5
15C
100
AcDbEntity
8
1
62
256
6
ByLayer
370
-1
48
1
60
0
100
AcDbLine
10
77.431842
20
-12.704519
30
0
11
77.431842
21
-11.71643
31
0
39
0
210
0
220
0
230
1
0
LINE
5
15D
100
AcDbEntity
8
1
62
256
6
ByLayer
370
-1
48
1
60
0
100
AcDbLine
10
77.598561
20
-11.877234
30
0
11
77.598561
21
-12.701386
31
0
39
0
210
0
220
0
230
1
0
LINE
5
15E
100
AcDbEntity
8
1
62
256
6
ByLayer
370
-1
48
1
60
0
100
AcDbLine
10
81.192212
20
-17.51945
30
0
11
81.192212
21
-17.035719
31
0
39
0
210
0
220
0
230
1
0
LINE
5
15F
100
AcDbEntity
8
1
62
256
6
ByLayer
370
-1
48
1
60
0
100
AcDbLine
10
80.622353
20
-16.720391
30
0
11
80.698874
21
-17.064112
31
0
39
0
210
0
220
0
230
1
0
LINE
5
160
100
AcDbEntity
8
1
62
256
6
ByLayer
370
-1
48
1
60
0
100
AcDbLine
10
82.025223
20
-17.648729
30
0
11
81.727775
21
-17.649778
31
0
39
0
210
0
220
0
230
1
0
LINE
5
161
100
AcDbEntity
8
1
62
256
6
ByLayer
370
-1
48
1
60
0
100
AcDbLine
10
80.966633
20
-17.467845
30
0
11
80.966633
21
-16.910817
31
0
39
0
210
0
220
0
230
1
0
LINE
5
162
100
AcDbEntity
8
1
62
256
6
ByLayer
370
-1
48
1
60
0
100
AcDbLine
10
81.542367
20
-17.62944
30
0
11
81.542367
21
-17.229475
31
0
39
0
210
0
220
0
230
1
0
LINE
5
163
100
AcDbEntity
8
1
62
256
6
ByLayer
370
-1
48
1
60
0
100
AcDbLine
10
81.298354
20
-17.54496
30
0
11
81.298354
21
-17.094386
31
0
39
0
210
0
220
0
230
1
0
LINE
5
164
100
AcDbEntity
8
1
62
256
6
ByLayer
370
-1
48
1
60
0
100
AcDbLine
10
81.727775
20
-17.649778
30
0
11
81.727775
21
-17.332096
31
0
39
0
210
0
220
0
230
1
0
LINE
5
165
100
AcDbEntity
8
1
62
256
6
ByLayer
370
-1
48
1
60
0
100
AcDbLine
10
80.863217
20
-17.421477
30
0
11
80.863217
21
-16.853651
31
0
39
0
210
0
220
0
230
1
0
LINE
5
166
100
AcDbEntity
8
1
62
256
6
ByLayer
370
-1
48
1
60
0
100
AcDbLine
10
77.923701
20
-11.694815
30
0
11
77.598561
21
-11.877234
31
0
39
0
210
0
220
0
230
1
0
LINE
5
167
100
AcDbEntity
8
1
62
256
6
ByLayer
370
-1
48
1
60
0
100
AcDbLine
10
82.025223
20
-17.648729
30
0
11
82.025223
21
-17.496736
31
0
39
0
210
0
220
0
230
1
0
LINE
5
168
100
AcDbEntity
8
1
62
256
6
ByLayer
370
-1
48
1
60
0
100
AcDbLine
10
80.698874
20
-16.76273
30
0
11
80.698874
21
-17.064112
31
0
39
0
210
0
220
0
230
1
0
LINE
5
169
100
AcDbEntity
8
1
62
256
6
ByLayer
370
-1
48
1
60
0
100
AcDbLine
10
90.085376
20
-5.160913
30
0
11
90.087383
21
-5.160923
31
0
39
0
210
0
220
0
230
1
0
LINE
5
16A
100
AcDbEntity
8
1
62
256
6
ByLayer
370
-1
48
1
60
0
100
AcDbLine
10
90.056875
20
-6.906504
30
0
11
90.103149
21
-6.906731
31
0
39
0
210
0
220
0
230
1
0
LINE
5
16B
100
AcDbEntity
8
1
62
256
6
ByLayer
370
-1
48
1
60
0
100
AcDbLine
10
90.052057
20
-6.267125
30
0
11
90.102411
21
-6.267373
31
0
39
0
210
0
220
0
230
1
0
LINE
5
16C
100
AcDbEntity
8
1
62
256
6
ByLayer
370
-1
48
1
60
0
100
AcDbLine
10
90.056623
20
-6.895219
30
0
11
90.09058
21
-6.895386
31
0
39
0
210
0
220
0
230
1
0
LINE
5
16D
100
AcDbEntity
8
1
62
256
6
ByLayer
370
-1
48
1
60
0
100
AcDbLine
10
90.052055
20
-6.265842
30
0
11
90.115218
21
-6.266152
31
0
39
0
210
0
220
0
230
1
0
LINE
5
16E
100
AcDbEntity
8
2
62
256
6
ByLayer
370
-1
48
1
60
1
100
AcDbLine
10
0
20
0
30
0
11
0
21
-0.001
31
0
39
0
210
0
220
0
230
1
0
MTEXT
5
2B1
100
AcDbEntity
8
SK6
62
256
6
ByLayer
370
-1
48
1
60
0
100
AcDbMText
10
-18.125
20
40.625
30
0
210
0
220
0
230
1
1
\W00.721;\fsimplex.shx,bigfont.shx;C6-266LKF-22090-16 
40
3.5
41
0
44
1.084337
50
0
71
7
72
5
7
DEFAULT
0
DIMENSION
5
2E4
100
AcDbEntity
8
2
62
256
6
ByLayer
370
-3
48
1
60
0
100
AcDbDimension
2
DimnDraft3D1
10
25.653212
20
-36.125
30
0
11
54.960817
21
-36.125
31
0
70
32
71
5
72
1
41
1
210
0
220
0
230
1
3
Standard
100
AcDbAlignedDimension
13
90
23
-23.375
33
0
14
25.653212
24
-23.375
34
0
50
0
100
AcDbRotatedDimension
1001
ACAD
1000
DSTYLE
1002
{
1070
   279
1070
     0
1070
   172
1070
     1
1070
   173
1070
     1
1070
   340
1005
2B2
1070
   271
1070
     3
1070
   272
1070
     3
1070
    77
1070
     1
1070
    73
1070
     0
1070
   171
1070
     4
1070
   274
1070
     4
1070
   177
1070
     2
1070
   176
1070
     2
1070
   178
1070
     7
1070
    78
1070
     8
1070
    41
1041
3.0
1070
   147
1041
2.25
1070
    42
1041
1.5
1070
    44
1041
3.0
1070
   140
1041
4.5
1070
   343
1005
2E5
1070
   344
1005
2E5
1002
}
0
DIMENSION
5
2F9
100
AcDbEntity
8
2
62
256
6
ByLayer
370
-3
48
1
60
0
100
AcDbDimension
2
DimnDraft3D2
10
0
20
-46.125
30
0
11
42.371053
21
-46.125
31
0
70
32
71
5
72
1
41
1
210
0
220
0
230
1
3
Standard
100
AcDbAlignedDimension
13
90
23
-23.375
33
0
14
0
24
-1.501
34
0
50
0
100
AcDbRotatedDimension
1001
ACAD
1000
DSTYLE
1002
{
1070
   279
1070
     0
1070
   172
1070
     1
1070
   173
1070
     1
1070
   340
1005
2B2
1070
   271
1070
     3
1070
   272
1070
     3
1070
    77
1070
     1
1070
    73
1070
     0
1070
   171
1070
     4
1070
   274
1070
     4
1070
   177
1070
     2
1070
   176
1070
     2
1070
   178
1070
     7
1070
    78
1070
     8
1070
    41
1041
3.0
1070
   147
1041
2.25
1070
    42
1041
1.5
1070
    44
1041
3.0
1070
   140
1041
4.5
1070
   343
1005
2E5
1070
   344
1005
2E5
1002
}
0
DIMENSION
5
308
100
AcDbEntity
8
SK2
62
256
6
ByLayer
370
-3
48
1
60
0
100
AcDbDimension
2
DimnDraft3D3
10
-47.75
20
-31.5
30
0
11
-47.75
21
-4.784211
31
0
70
32
71
5
72
1
41
1
210
0
220
0
230
1
3
Standard
100
AcDbAlignedDimension
13
-1.5
23
31.5
33
0
14
-1.5
24
-31.5
34
0
50
90
100
AcDbRotatedDimension
1001
ACAD
1000
DSTYLE
1002
{
1070
    74
1070
     0
1070
   279
1070
     0
1070
   172
1070
     1
1070
   173
1070
     1
1070
   340
1005
2B2
1070
   271
1070
     3
1070
   272
1070
     3
1070
    77
1070
     1
1070
    73
1070
     0
1070
   171
1070
     4
1070
   274
1070
     4
1070
   177
1070
     2
1070
   176
1070
     2
1070
   178
1070
     7
1070
    78
1070
     8
1070
    41
1041
3.0
1070
   147
1041
2.25
1070
    42
1041
1.5
1070
    44
1041
3.0
1070
   140
1041
4.5
1070
   343
1005
2E5
1070
   344
1005
2E5
1002
}
0
DIMENSION
5
316
100
AcDbEntity
8
2
62
256
6
ByLayer
370
-3
48
1
60
0
100
AcDbDimension
2
DimnDraft3D4
10
104.25
20
-21.875
30
0
11
104.25
21
-13.566447
31
0
70
32
71
5
72
1
41
1
210
0
220
0
230
1
3
Standard
100
AcDbAlignedDimension
13
96.5
23
0
33
0
14
91.5
24
-21.875
34
0
50
90
100
AcDbRotatedDimension
1001
ACAD
1000
DSTYLE
1002
{
1070
    74
1070
     0
1070
   279
1070
     0
1070
   172
1070
     1
1070
   173
1070
     1
1070
   340
1005
2B2
1070
   271
1070
     3
1070
   272
1070
     3
1070
    77
1070
     1
1070
    73
1070
     0
1070
   171
1070
     4
1070
   274
1070
     4
1070
   177
1070
     2
1070
   176
1070
     2
1070
   178
1070
     7
1070
    78
1070
     8
1070
    41
1041
3.0
1070
   147
1041
2.25
1070
    42
1041
1.5
1070
    44
1041
3.0
1070
   140
1041
4.5
1070
   343
1005
2E5
1070
   344
1005
2E5
1002
}
0
ENDSEC
0
SECTION
2
OBJECTS
0
DICTIONARY
5
347
330
0
100
AcDbDictionary
280
0
281
1
3
ACAD_GROUP
350
348
3
ACAD_MLINESTYLE
350
349
0
DICTIONARY
5
348
330
0
100
AcDbDictionary
280
0
281
1
0
DICTIONARY
5
349
330
0
100
AcDbDictionary
280
0
281
1
3
Standard
350
18
0
MLINESTYLE
5
18
330
349
100
AcDbMlineStyle
2
Standard
70
0
3

62
256
51
90
52
90
71
2
49
-0.5
62
256
6
ByLayer
49
0.5
62
256
6
ByLayer
0
RASTERVARIABLES
5
335
330

100
AcDbRasterVariables
90
0
70
1
71
1
72
1
0
ENDSEC
0
EOF
