0
SECTION
2
HEADER
9
$ACADVER
1
AC1015
9
$DWGCODEPAGE
3
ANSI_1252
9
$HANDSEED
5
1c3
9
$ANGBASE
50
0
9
$ANGDIR
70
0
9
$ATTMODE
70
1
9
$AUNITS
70
0
9
$AUPREC
70
0
9
$CECOLOR
62
256
9
$CELTSCALE
40
1
9
$CELTYPE
6
ByLayer
9
$CELWEIGHT
370
-1
9
$CLAYER
8
0
9
$CMLJUST
70
0
9
$CMLSCALE
40
1
9
$CMLSTYLE
2
Standard
9
$DIMSTYLE
2
Standard
9
$TEXTSIZE
40
0.2
9
$TEXTSTYLE
7
Standard
9
$LUNITS
70
2
9
$LUPREC
70
4
9
$EXTNAMES
290
1
9
$INSUNITS
70
4
9
$LTSCALE
40
1
9
$LWDISPLAY
290
0
9
$PDMODE
70
0
9
$PDSIZE
40
0
9
$PLINEGEN
70
0
0
ENDSEC
0
SECTION
2
CLASSES
0
CLASS
1
RASTERVARIABLES
2
AcDbRasterVariables
3
ISM
90
0
280
0
281
0
0
ENDSEC
0
SECTION
2
TABLES
0
TABLE
2
VPORT
5
1b9
100
AcDbSymbolTable
0
VPORT
5
1
100
AcDbSymbolTableRecord
100
AcDbViewportTableRecord
2
*Active
70
0
10
0
20
0
11
1
21
1
12
-1
22
1
13
0
23
0
14
0.5
24
0.5
15
10
25
10
16
0
26
0
36
1
17
0
27
0
37
0
0
ENDTAB
0
TABLE
2
LTYPE
5
1ba
100
AcDbSymbolTable
0
LTYPE
5
14
100
AcDbSymbolTableRecord
100
AcDbLinetypeTableRecord
70
0
2
ByBlock
3

72
65
73
0
40
0
0
LTYPE
5
15
100
AcDbSymbolTableRecord
100
AcDbLinetypeTableRecord
70
0
2
ByLayer
3

72
65
73
0
40
0
0
LTYPE
5
16
100
AcDbSymbolTableRecord
100
AcDbLinetypeTableRecord
70
0
2
CONTINUOUS
3
Solid line
72
65
73
0
40
0
0
LTYPE
5
3B
100
AcDbSymbolTableRecord
100
AcDbLinetypeTableRecord
70
0
2
DASHED
3
__ __ __ __ __ __ __ __ __
72
65
73
2
40
25.72
49
12.86
74
0
49
-12.86
74
0
0
LTYPE
5
3C
100
AcDbSymbolTableRecord
100
AcDbLinetypeTableRecord
70
0
2
HIDDEN
3
_ _ _ _ _ _ _ _ _ _ _ _ _ _ _
72
65
73
2
40
0.5
49
0.25
74
0
49
-0.25
74
0
0
LTYPE
5
3D
100
AcDbSymbolTableRecord
100
AcDbLinetypeTableRecord
70
0
2
PHANTOM
3
____ _ _ ____ _ _ _____ _ _ ____
72
65
73
6
40
50.5
49
18
74
0
49
-6.5
74
0
49
6.5
74
0
49
-6.5
74
0
49
6.5
74
0
49
-6.5
74
0
0
LTYPE
5
3E
100
AcDbSymbolTableRecord
100
AcDbLinetypeTableRecord
70
0
2
CENTER
3
____ _ ____ _ ____ _ ____
72
65
73
4
40
47.5
49
22
74
0
49
-8.5
74
0
49
8.5
74
0
49
-8.5
74
0
0
LTYPE
5
3F
100
AcDbSymbolTableRecord
100
AcDbLinetypeTableRecord
70
0
2
DOT
3
.........................
72
65
73
2
40
10
49
0
74
0
49
-10
74
0
0
LTYPE
5
40
100
AcDbSymbolTableRecord
100
AcDbLinetypeTableRecord
70
0
2
DASHDOT
3
_._._._._._._._._._._._._._._._.
72
65
73
4
40
70
49
31
74
0
49
-13
74
0
49
13
74
0
49
-13
74
0
0
ENDTAB
0
TABLE
2
LAYER
5
1bb
100
AcDbSymbolTable
0
LAYER
5
10
100
AcDbSymbolTableRecord
100
AcDbLayerTableRecord
2
0
70
0
62
7
6
CONTINUOUS
290
1
370
-3
390
0
0
LAYER
5
42
100
AcDbSymbolTableRecord
100
AcDbLayerTableRecord
2
80
70
0
62
-6
6
CONTINUOUS
290
1
370
-3
390
0
0
LAYER
5
44
100
AcDbSymbolTableRecord
100
AcDbLayerTableRecord
2
81
70
0
62
-3
6
CONTINUOUS
290
1
370
-3
390
0
0
LAYER
5
46
100
AcDbSymbolTableRecord
100
AcDbLayerTableRecord
2
1
70
0
62
4
6
CONTINUOUS
290
1
370
-3
390
0
0
LAYER
5
48
100
AcDbSymbolTableRecord
100
AcDbLayerTableRecord
2
2
70
0
62
7
6
CONTINUOUS
290
1
370
-3
390
0
0
LAYER
5
4F
100
AcDbSymbolTableRecord
100
AcDbLayerTableRecord
2
4
70
0
62
-2
6
CENTER
290
1
370
-3
390
0
0
LAYER
5
1a5
100
AcDbSymbolTableRecord
100
AcDbLayerTableRecord
2
SK4
70
0
62
2
6
CENTER
290
1
370
-3
390
0
0
LAYER
5
1a6
100
AcDbSymbolTableRecord
100
AcDbLayerTableRecord
2
SK1
70
0
62
4
6
CONTINUOUS
290
1
370
-3
390
0
0
LAYER
5
1a7
100
AcDbSymbolTableRecord
100
AcDbLayerTableRecord
2
SK6
70
0
62
5
6
CONTINUOUS
290
1
370
-3
390
0
0
LAYER
5
1a8
100
AcDbSymbolTableRecord
100
AcDbLayerTableRecord
2
SK2
70
0
62
7
6
CONTINUOUS
290
1
370
-3
390
0
0
ENDTAB
0
TABLE
2
STYLE
5
1bc
100
AcDbSymbolTable
0
STYLE
5
11
100
AcDbSymbolTableRecord
100
AcDbTextStyleTableRecord
2
Standard
3
txt
70
0
71
0
40
0
41
1
42
0
50
0
0
STYLE
5
107
100
AcDbSymbolTableRecord
100
AcDbTextStyleTableRecord
2
DEFAULT
3
simplex.shx
70
0
71
0
40
0
41
1
42
0
50
0
0
STYLE
5
12A
100
AcDbSymbolTableRecord
100
AcDbTextStyleTableRecord
2
DWGDirectTextStyle
3
SIMPLEX
70
0
71
0
40
0
41
1
42
0
50
0
0
ENDTAB
0
TABLE
2
DIMSTYLE
5
1bd
100
AcDbSymbolTable
100
AcDbDimStyleTable
0
DIMSTYLE
105
27
100
AcDbSymbolTableRecord
100
AcDbDimStyleTableRecord
2
Standard
70
0
3
<>
41
0.18
42
0.0625
44
0.18
140
0.18
147
0.09
73
0
74
0
77
1
271
2
275
0
278
52
280
0
340
11
0
ENDTAB
0
TABLE
2
VIEW
5
1be
100
AcDbSymbolTable
0
ENDTAB
0
TABLE
2
UCS
5
1bf
100
AcDbSymbolTable
0
ENDTAB
0
TABLE
2
APPID
5
1c0
100
AcDbSymbolTable
0
APPID
5
12
100
AcDbSymbolTableRecord
100
AcDbRegAppTableRecord
2
ACAD
70
0
0
ENDTAB
0
TABLE
2
BLOCK_RECORD
5
1c1
100
AcDbSymbolTable
0
BLOCK_RECORD
5
1F
100
AcDbSymbolTableRecord
100
AcDbBlockTableRecord
2
*Model_Space
340
0
70
0
0
BLOCK_RECORD
5
1B
100
AcDbSymbolTableRecord
100
AcDbBlockTableRecord
2
*Paper_Space
340
0
70
0
0
BLOCK_RECORD
5
23
100
AcDbSymbolTableRecord
100
AcDbBlockTableRecord
2
*Paper_Space0
340
0
70
0
0
BLOCK_RECORD
5
12C
100
AcDbSymbolTableRecord
100
AcDbBlockTableRecord
2
DimnDraft3D1
340
0
70
0
0
BLOCK_RECORD
5
13B
100
AcDbSymbolTableRecord
100
AcDbBlockTableRecord
2
_CLOSED
340
0
70
0
0
BLOCK_RECORD
5
142
100
AcDbSymbolTableRecord
100
AcDbBlockTableRecord
2
DimnDraft3D2
340
0
70
0
0
BLOCK_RECORD
5
14E
100
AcDbSymbolTableRecord
100
AcDbBlockTableRecord
2
DimnDraft3D3
340
0
70
0
0
BLOCK_RECORD
5
15C
100
AcDbSymbolTableRecord
100
AcDbBlockTableRecord
2
DimnDraft3D4
340
0
70
0
0
BLOCK_RECORD
5
16A
100
AcDbSymbolTableRecord
100
AcDbBlockTableRecord
2
DimnDraft3D5
340
0
70
0
0
BLOCK_RECORD
5
178
100
AcDbSymbolTableRecord
100
AcDbBlockTableRecord
2
DimnDraft3D6
340
0
70
0
0
ENDTAB
0
ENDSEC
0
SECTION
2
BLOCKS
0
BLOCK
5
20
100
AcDbEntity
8
0
100
AcDbBlockBegin
2
*Model_Space
70
0
10
0
20
0
30
0
3
*Model_Space
0
ENDBLK
5
21
100
AcDbEntity
8
0
100
AcDbBlockEnd
0
BLOCK
5
1C
100
AcDbEntity
8
0
100
AcDbBlockBegin
2
*Paper_Space
70
0
10
0
20
0
30
0
3
*Paper_Space
0
ENDBLK
5
1D
100
AcDbEntity
8
0
100
AcDbBlockEnd
0
BLOCK
5
24
100
AcDbEntity
8
0
100
AcDbBlockBegin
2
*Paper_Space0
70
0
10
0
20
0
30
0
3
*Paper_Space0
0
ENDBLK
5
25
100
AcDbEntity
8
0
100
AcDbBlockEnd
0
BLOCK
5
138
100
AcDbEntity
8
0
100
AcDbBlockBegin
2
DimnDraft3D1
70
0
10
0
20
0
30
0
3
DimnDraft3D1
0
MTEXT
5
12D
100
AcDbEntity
8
SK2
62
256
6
ByLayer
370
-1
48
1
60
0
100
AcDbMText
10
-43.875
20
-3.659211
30
0
210
0
220
0
230
1
1
\W01.000;\fsimplex.shx,bigfont.shx;%%c50 
40
4.5
41
0
44
1.084337
50
90
71
7
72
5
7
DEFAULT
0
LINE
5
12F
100
AcDbEntity
8
SK2
62
256
6
ByLayer
370
-1
48
1
60
0
100
AcDbLine
10
-2
20
-25
30
0
11
-44.75
21
-25
31
0
39
0
210
0
220
0
230
1
0
LINE
5
130
100
AcDbEntity
8
SK2
62
256
6
ByLayer
370
-1
48
1
60
0
100
AcDbLine
10
-2
20
25
30
0
11
-44.75
21
25
31
0
39
0
210
0
220
0
230
1
0
LINE
5
131
100
AcDbEntity
8
SK2
62
256
6
ByLayer
370
-1
48
1
60
0
100
AcDbLine
10
-42.75
20
-25
30
0
11
-42.75
21
25
31
0
39
0
210
0
220
0
230
1
0
LINE
5
132
100
AcDbEntity
8
SK2
62
256
6
ByLayer
370
-1
48
1
60
0
100
AcDbLine
10
-42.75
20
-25
30
0
11
-43.167997
21
-21.825002
31
0
39
0
210
0
220
0
230
1
0
LINE
5
133
100
AcDbEntity
8
SK2
62
256
6
ByLayer
370
-1
48
1
60
0
100
AcDbLine
10
-42.75
20
-25
30
0
11
-42.332003
21
-21.824998
31
0
39
0
210
0
220
0
230
1
0
LINE
5
134
100
AcDbEntity
8
SK2
62
256
6
ByLayer
370
-1
48
1
60
0
100
AcDbLine
10
-43.167997
20
-21.825002
30
0
11
-42.332003
21
-21.824998
31
0
39
0
210
0
220
0
230
1
0
LINE
5
135
100
AcDbEntity
8
SK2
62
256
6
ByLayer
370
-1
48
1
60
0
100
AcDbLine
10
-42.75
20
25
30
0
11
-42.332003
21
21.825002
31
0
39
0
210
0
220
0
230
1
0
LINE
5
136
100
AcDbEntity
8
SK2
62
256
6
ByLayer
370
-1
48
1
60
0
100
AcDbLine
10
-42.75
20
25
30
0
11
-43.167997
21
21.824998
31
0
39
0
210
0
220
0
230
1
0
LINE
5
137
100
AcDbEntity
8
SK2
62
256
6
ByLayer
370
-1
48
1
60
0
100
AcDbLine
10
-42.332003
20
21.825002
30
0
11
-43.167997
21
21.824998
31
0
39
0
210
0
220
0
230
1
0
ENDBLK
5
139
100
AcDbEntity
8
0
100
AcDbBlockEnd
0
BLOCK
5
13C
100
AcDbEntity
8
0
100
AcDbBlockBegin
2
_CLOSED
70
0
10
0
20
0
30
0
3
_CLOSED
0
LINE
5
13E
100
AcDbEntity
8
0
62
256
6
ByLayer
370
-2
48
1
60
0
100
AcDbLine
10
-1
20
0.166667
30
0
11
0
21
0
31
0
39
0
210
0
220
0
230
1
0
LINE
5
13F
100
AcDbEntity
8
0
62
256
6
ByLayer
370
-2
48
1
60
0
100
AcDbLine
10
0
20
0
30
0
11
-1
21
-0.166667
31
0
39
0
210
0
220
0
230
1
0
LINE
5
140
100
AcDbEntity
8
0
62
256
6
ByLayer
370
-2
48
1
60
0
100
AcDbLine
10
-1
20
0.166667
30
0
11
-1
21
-0.166667
31
0
39
0
210
0
220
0
230
1
0
LINE
5
141
100
AcDbEntity
8
0
62
256
6
ByLayer
370
-2
48
1
60
0
100
AcDbLine
10
0
20
0
30
0
11
-1
21
0
31
0
39
0
210
0
220
0
230
1
0
ENDBLK
5
13D
100
AcDbEntity
8
0
100
AcDbBlockEnd
0
BLOCK
5
14B
100
AcDbEntity
8
0
100
AcDbBlockBegin
2
DimnDraft3D2
70
0
10
0
20
0
30
0
3
DimnDraft3D2
0
MTEXT
5
143
100
AcDbEntity
8
2
62
256
6
ByLayer
370
-1
48
1
60
0
100
AcDbMText
10
36.925
20
-6.193421
30
0
210
0
220
0
230
1
1
\W01.000;\fsimplex.shx,bigfont.shx;%%c25.0 
40
4.5
41
0
44
1.084337
50
90
71
7
72
5
7
DEFAULT
0
LINE
5
144
100
AcDbEntity
8
2
62
256
6
ByLayer
370
-1
48
1
60
0
100
AcDbLine
10
38.05
20
-12.5
30
0
11
38.05
21
12.5
31
0
39
0
210
0
220
0
230
1
0
LINE
5
145
100
AcDbEntity
8
2
62
256
6
ByLayer
370
-1
48
1
60
0
100
AcDbLine
10
38.05
20
-12.5
30
0
11
37.632003
21
-9.325002
31
0
39
0
210
0
220
0
230
1
0
LINE
5
146
100
AcDbEntity
8
2
62
256
6
ByLayer
370
-1
48
1
60
0
100
AcDbLine
10
38.05
20
-12.5
30
0
11
38.467997
21
-9.324998
31
0
39
0
210
0
220
0
230
1
0
LINE
5
147
100
AcDbEntity
8
2
62
256
6
ByLayer
370
-1
48
1
60
0
100
AcDbLine
10
37.632003
20
-9.325002
30
0
11
38.467997
21
-9.324998
31
0
39
0
210
0
220
0
230
1
0
LINE
5
148
100
AcDbEntity
8
2
62
256
6
ByLayer
370
-1
48
1
60
0
100
AcDbLine
10
38.05
20
12.5
30
0
11
38.467997
21
9.325002
31
0
39
0
210
0
220
0
230
1
0
LINE
5
149
100
AcDbEntity
8
2
62
256
6
ByLayer
370
-1
48
1
60
0
100
AcDbLine
10
38.05
20
12.5
30
0
11
37.632003
21
9.324998
31
0
39
0
210
0
220
0
230
1
0
LINE
5
14A
100
AcDbEntity
8
2
62
256
6
ByLayer
370
-1
48
1
60
0
100
AcDbLine
10
38.467997
20
9.325002
30
0
11
37.632003
21
9.324998
31
0
39
0
210
0
220
0
230
1
0
ENDBLK
5
14C
100
AcDbEntity
8
0
100
AcDbBlockEnd
0
BLOCK
5
159
100
AcDbEntity
8
0
100
AcDbBlockBegin
2
DimnDraft3D3
70
0
10
0
20
0
30
0
3
DimnDraft3D3
0
MTEXT
5
14F
100
AcDbEntity
8
2
62
256
6
ByLayer
370
-1
48
1
60
0
100
AcDbMText
10
101.125
20
5.474342
30
0
210
0
220
0
230
1
1
\W01.000;\fsimplex.shx,bigfont.shx;18.0 
40
4.5
41
0
44
1.084337
50
90
71
7
72
5
7
DEFAULT
0
LINE
5
150
100
AcDbEntity
8
2
62
256
6
ByLayer
370
-1
48
1
60
0
100
AcDbLine
10
92
20
17.9
30
0
11
104.25
21
17.9
31
0
39
0
210
0
220
0
230
1
0
LINE
5
151
100
AcDbEntity
8
2
62
256
6
ByLayer
370
-1
48
1
60
0
100
AcDbLine
10
92
20
0
30
0
11
104.25
21
0
31
0
39
0
210
0
220
0
230
1
0
LINE
5
152
100
AcDbEntity
8
2
62
256
6
ByLayer
370
-1
48
1
60
0
100
AcDbLine
10
102.25
20
29.15
30
0
11
102.25
21
-11.25
31
0
39
0
210
0
220
0
230
1
0
LINE
5
153
100
AcDbEntity
8
2
62
256
6
ByLayer
370
-1
48
1
60
0
100
AcDbLine
10
102.25
20
17.9
30
0
11
101.832003
21
21.074998
31
0
39
0
210
0
220
0
230
1
0
LINE
5
154
100
AcDbEntity
8
2
62
256
6
ByLayer
370
-1
48
1
60
0
100
AcDbLine
10
102.25
20
17.9
30
0
11
102.667997
21
21.075002
31
0
39
0
210
0
220
0
230
1
0
LINE
5
155
100
AcDbEntity
8
2
62
256
6
ByLayer
370
-1
48
1
60
0
100
AcDbLine
10
101.832003
20
21.074998
30
0
11
102.667997
21
21.075002
31
0
39
0
210
0
220
0
230
1
0
LINE
5
156
100
AcDbEntity
8
2
62
256
6
ByLayer
370
-1
48
1
60
0
100
AcDbLine
10
102.25
20
0
30
0
11
102.667997
21
-3.174998
31
0
39
0
210
0
220
0
230
1
0
LINE
5
157
100
AcDbEntity
8
2
62
256
6
ByLayer
370
-1
48
1
60
0
100
AcDbLine
10
102.25
20
0
30
0
11
101.832003
21
-3.175002
31
0
39
0
210
0
220
0
230
1
0
LINE
5
158
100
AcDbEntity
8
2
62
256
6
ByLayer
370
-1
48
1
60
0
100
AcDbLine
10
102.667997
20
-3.174998
30
0
11
101.832003
21
-3.175002
31
0
39
0
210
0
220
0
230
1
0
ENDBLK
5
15A
100
AcDbEntity
8
0
100
AcDbBlockEnd
0
BLOCK
5
167
100
AcDbEntity
8
0
100
AcDbBlockBegin
2
DimnDraft3D4
70
0
10
0
20
0
30
0
3
DimnDraft3D4
0
MTEXT
5
15D
100
AcDbEntity
8
2
62
256
6
ByLayer
370
-1
48
1
60
0
100
AcDbMText
10
40.961842
20
46.775
30
0
210
0
220
0
230
1
1
\W01.000;\fsimplex.shx,bigfont.shx;90.0 
40
4.5
41
0
44
1.084337
50
0
71
7
72
5
7
DEFAULT
0
LINE
5
15E
100
AcDbEntity
8
2
62
256
6
ByLayer
370
-1
48
1
60
0
100
AcDbLine
10
0
20
27
30
0
11
0
21
47.65
31
0
39
0
210
0
220
0
230
1
0
LINE
5
15F
100
AcDbEntity
8
2
62
256
6
ByLayer
370
-1
48
1
60
0
100
AcDbLine
10
90
20
19.9
30
0
11
90
21
47.65
31
0
39
0
210
0
220
0
230
1
0
LINE
5
160
100
AcDbEntity
8
2
62
256
6
ByLayer
370
-1
48
1
60
0
100
AcDbLine
10
0
20
45.65
30
0
11
90
21
45.65
31
0
39
0
210
0
220
0
230
1
0
LINE
5
161
100
AcDbEntity
8
2
62
256
6
ByLayer
370
-1
48
1
60
0
100
AcDbLine
10
0
20
45.65
30
0
11
3.174998
21
46.067997
31
0
39
0
210
0
220
0
230
1
0
LINE
5
162
100
AcDbEntity
8
2
62
256
6
ByLayer
370
-1
48
1
60
0
100
AcDbLine
10
0
20
45.65
30
0
11
3.175002
21
45.232003
31
0
39
0
210
0
220
0
230
1
0
LINE
5
163
100
AcDbEntity
8
2
62
256
6
ByLayer
370
-1
48
1
60
0
100
AcDbLine
10
3.174998
20
46.067997
30
0
11
3.175002
21
45.232003
31
0
39
0
210
0
220
0
230
1
0
LINE
5
164
100
AcDbEntity
8
2
62
256
6
ByLayer
370
-1
48
1
60
0
100
AcDbLine
10
90
20
45.65
30
0
11
86.825002
21
45.232003
31
0
39
0
210
0
220
0
230
1
0
LINE
5
165
100
AcDbEntity
8
2
62
256
6
ByLayer
370
-1
48
1
60
0
100
AcDbLine
10
90
20
45.65
30
0
11
86.824998
21
46.067997
31
0
39
0
210
0
220
0
230
1
0
LINE
5
166
100
AcDbEntity
8
2
62
256
6
ByLayer
370
-1
48
1
60
0
100
AcDbLine
10
86.825002
20
45.232003
30
0
11
86.824998
21
46.067997
31
0
39
0
210
0
220
0
230
1
0
ENDBLK
5
168
100
AcDbEntity
8
0
100
AcDbBlockEnd
0
BLOCK
5
175
100
AcDbEntity
8
0
100
AcDbBlockBegin
2
DimnDraft3D5
70
0
10
0
20
0
30
0
3
DimnDraft3D5
0
MTEXT
5
16B
100
AcDbEntity
8
2
62
256
6
ByLayer
370
-1
48
1
60
0
100
AcDbMText
10
52.361842
20
31.775
30
0
210
0
220
0
230
1
1
\W01.000;\fsimplex.shx,bigfont.shx;67.2 
40
4.5
41
0
44
1.084337
50
0
71
7
72
5
7
DEFAULT
0
LINE
5
16C
100
AcDbEntity
8
2
62
256
6
ByLayer
370
-1
48
1
60
0
100
AcDbLine
10
22.8
20
14.5
30
0
11
22.8
21
32.65
31
0
39
0
210
0
220
0
230
1
0
LINE
5
16D
100
AcDbEntity
8
2
62
256
6
ByLayer
370
-1
48
1
60
0
100
AcDbLine
10
90
20
19.9
30
0
11
90
21
32.65
31
0
39
0
210
0
220
0
230
1
0
LINE
5
16E
100
AcDbEntity
8
2
62
256
6
ByLayer
370
-1
48
1
60
0
100
AcDbLine
10
22.8
20
30.65
30
0
11
90
21
30.65
31
0
39
0
210
0
220
0
230
1
0
LINE
5
16F
100
AcDbEntity
8
2
62
256
6
ByLayer
370
-1
48
1
60
0
100
AcDbLine
10
22.8
20
30.65
30
0
11
25.974998
21
31.067997
31
0
39
0
210
0
220
0
230
1
0
LINE
5
170
100
AcDbEntity
8
2
62
256
6
ByLayer
370
-1
48
1
60
0
100
AcDbLine
10
22.8
20
30.65
30
0
11
25.975002
21
30.232003
31
0
39
0
210
0
220
0
230
1
0
LINE
5
171
100
AcDbEntity
8
2
62
256
6
ByLayer
370
-1
48
1
60
0
100
AcDbLine
10
25.974998
20
31.067997
30
0
11
25.975002
21
30.232003
31
0
39
0
210
0
220
0
230
1
0
LINE
5
172
100
AcDbEntity
8
2
62
256
6
ByLayer
370
-1
48
1
60
0
100
AcDbLine
10
90
20
30.65
30
0
11
86.825002
21
30.232003
31
0
39
0
210
0
220
0
230
1
0
LINE
5
173
100
AcDbEntity
8
2
62
256
6
ByLayer
370
-1
48
1
60
0
100
AcDbLine
10
90
20
30.65
30
0
11
86.824998
21
31.067997
31
0
39
0
210
0
220
0
230
1
0
LINE
5
174
100
AcDbEntity
8
2
62
256
6
ByLayer
370
-1
48
1
60
0
100
AcDbLine
10
86.825002
20
30.232003
30
0
11
86.824998
21
31.067997
31
0
39
0
210
0
220
0
230
1
0
ENDBLK
5
176
100
AcDbEntity
8
0
100
AcDbBlockEnd
0
BLOCK
5
183
100
AcDbEntity
8
0
100
AcDbBlockBegin
2
DimnDraft3D6
70
0
10
0
20
0
30
0
3
DimnDraft3D6
0
MTEXT
5
179
100
AcDbEntity
8
2
62
256
6
ByLayer
370
-1
48
1
60
0
100
AcDbMText
10
104.997489
20
-41.659383
30
0
210
0
220
0
230
1
1
\W01.000;\fsimplex.shx,bigfont.shx;107%%d30' 
40
4.5
41
0
44
1.084337
50
36.2499999999999
71
7
72
5
7
DEFAULT
0
LINE
5
17A
100
AcDbEntity
8
2
62
256
6
ByLayer
370
-1
48
1
60
0
100
AcDbLine
10
84.587296
20
0.733095
30
0
11
69.643697
21
-46.661944
31
0
39
0
210
0
220
0
230
1
0
LINE
5
17B
100
AcDbEntity
8
2
62
256
6
ByLayer
370
-1
48
1
60
0
100
AcDbLine
10
92
20
0
30
0
11
133.282559
21
0
31
0
39
0
210
0
220
0
230
1
0
ARC
5
17C
100
AcDbEntity
8
2
62
256
6
ByLayer
370
-1
48
1
60
0
100
AcDbCircle
39
0
10
84.356152
20
0
30
0
40
46.9264068782929
210
0
220
0
230
1
100
AcDbArc
50
252.5
51
0
0
LINE
5
17D
100
AcDbEntity
8
2
62
256
6
ByLayer
370
-1
48
1
60
0
100
AcDbLine
10
70.245109
20
-44.75451
30
0
11
73.407804
21
-45.257198
31
0
39
0
210
0
220
0
230
1
0
LINE
5
17E
100
AcDbEntity
8
2
62
256
6
ByLayer
370
-1
48
1
60
0
100
AcDbLine
10
70.245109
20
-44.75451
30
0
11
73.169935
21
-46.058636
31
0
39
0
210
0
220
0
230
1
0
LINE
5
17F
100
AcDbEntity
8
2
62
256
6
ByLayer
370
-1
48
1
60
0
100
AcDbLine
10
73.407804
20
-45.257198
30
0
11
73.169935
21
-46.058636
31
0
39
0
210
0
220
0
230
1
0
LINE
5
180
100
AcDbEntity
8
2
62
256
6
ByLayer
370
-1
48
1
60
0
100
AcDbLine
10
131.282559
20
0
30
0
11
131.646814
21
-3.181612
31
0
39
0
210
0
220
0
230
1
0
LINE
5
181
100
AcDbEntity
8
2
62
256
6
ByLayer
370
-1
48
1
60
0
100
AcDbLine
10
131.282559
20
0
30
0
11
130.81094
21
-3.16748
31
0
39
0
210
0
220
0
230
1
0
LINE
5
182
100
AcDbEntity
8
2
62
256
6
ByLayer
370
-1
48
1
60
0
100
AcDbLine
10
131.646814
20
-3.181612
30
0
11
130.81094
21
-3.16748
31
0
39
0
210
0
220
0
230
1
0
ENDBLK
5
184
100
AcDbEntity
8
0
100
AcDbBlockEnd
0
ENDSEC
0
SECTION
2
ENTITIES
0
ARC
5
8E
100
AcDbEntity
8
SK1
62
256
6
ByLayer
370
-1
48
1
60
0
100
AcDbCircle
39
0
10
0.6
20
18.75
30
0
40
1
210
0
220
0
230
-1
100
AcDbArc
50
233.130102
51
246.421822
0
ARC
5
8F
100
AcDbEntity
8
SK1
62
256
6
ByLayer
370
-1
48
1
60
0
100
AcDbCircle
39
0
10
0.6
20
-18.75
30
0
40
1
210
0
220
0
230
-1
100
AcDbArc
50
113.578178
51
126.869898
0
ARC
5
90
100
AcDbEntity
8
1
62
256
6
ByLayer
370
-1
48
1
60
0
100
AcDbCircle
39
0
10
-27.421567
20
-18.5
30
0
40
6
210
0
220
0
230
-1
100
AcDbArc
50
14.788678
51
90
0
ARC
5
91
100
AcDbEntity
8
1
62
256
6
ByLayer
370
-1
48
1
60
0
100
AcDbCircle
39
0
10
-27.421567
20
18.5
30
0
40
6
210
0
220
0
230
-1
100
AcDbArc
50
270
51
345.211322
0
ELLIPSE
5
92
100
AcDbEntity
8
1
62
256
6
ByLayer
370
-1
48
1
60
0
100
AcDbEllipse
10
73.207281
20
-3.969603
30
0
11
1.54908836733464
21
-0.48842568608717
31
0
210
0
220
0
230
1
40
0.992065
41
2.53072741539187
42
-2.13825191429324
0
ELLIPSE
5
93
100
AcDbEntity
8
1
62
256
6
ByLayer
370
-1
48
1
60
0
100
AcDbEllipse
10
81.524905
20
0
30
0
11
12.5362446230257
21
-12.460590906718
31
0
210
0
220
0
230
-1
40
0.079115
41
-3.06216578480358
42
-2.98751648994085
0
ELLIPSE
5
94
100
AcDbEntity
8
1
62
256
6
ByLayer
370
-1
48
1
60
0
100
AcDbEllipse
10
72.995511
20
-6.285603
30
0
11
1.33520373104751
21
-0.42098811930601
31
0
210
0
220
0
230
1
40
0.992065
41
0.223645624051539
42
0.307725608393309
0
ELLIPSE
5
95
100
AcDbEntity
8
1
62
256
6
ByLayer
370
-1
48
1
60
0
100
AcDbEllipse
10
72.995511
20
-6.285603
30
0
11
1.33520373104751
21
-0.42098811930601
31
0
210
0
220
0
230
1
40
0.992065
41
1.49834627466546
42
2.91795325977524
0
ELLIPSE
5
96
100
AcDbEntity
8
1
62
256
6
ByLayer
370
-1
48
1
60
0
100
AcDbEllipse
10
72.995511
20
-6.285603
30
0
11
1.33520373104751
21
-0.42098811930601
31
0
210
0
220
0
230
1
40
0.992065
41
0.307724888924002
42
1.06971545386111
0
ELLIPSE
5
97
100
AcDbEntity
8
1
62
256
6
ByLayer
370
-1
48
1
60
0
100
AcDbEllipse
10
-1.056258
20
0
30
0
11
11.709272349728
21
-24.6771864409383
31
0
210
0
220
0
230
-1
40
0.341999
41
-1.08183270048925
42
-0.167213071908975
0
ELLIPSE
5
98
100
AcDbEntity
8
1
62
256
6
ByLayer
370
-1
48
1
60
0
100
AcDbEllipse
10
21.056258
20
0
30
0
11
11.7092723497262
21
-24.6771864409363
31
0
210
0
220
0
230
-1
40
0.341999
41
2.05975995310048
42
2.97437958168081
0
ELLIPSE
5
99
100
AcDbEntity
8
1
62
256
6
ByLayer
370
-1
48
1
60
0
100
AcDbEllipse
10
75.603289
20
12.074738
30
0
11
-4.00561119314255
21
1.26296435791795
31
0
210
0
220
0
230
1
40
0.992065
41
1.09083078249649
42
2.01041306982522
0
ELLIPSE
5
9A
100
AcDbEntity
8
1
62
256
6
ByLayer
370
-1
48
1
60
0
100
AcDbEllipse
10
88.973984
20
2.136186
30
0
11
4.00561119314252
21
-1.26296435791802
31
0
210
0
220
0
230
1
40
0.992065
41
-3.00275320241281
42
-2.78750464943651
0
ELLIPSE
5
9B
100
AcDbEntity
8
1
62
256
6
ByLayer
370
-1
48
1
60
0
100
AcDbEllipse
10
-1.056258
20
0
30
0
11
11.7092723497275
21
24.6771864409378
31
0
210
0
220
0
230
-1
40
0.341999
41
0.167213071908977
42
1.08183270048927
0
ELLIPSE
5
9C
100
AcDbEntity
8
1
62
256
6
ByLayer
370
-1
48
1
60
0
100
AcDbEllipse
10
73.148675
20
-4.155475
30
0
11
-1.43057542612234
21
0.451058699256411
31
0
210
0
220
0
230
1
40
0.992065
41
-0.610865238198014
42
0.635095730764383
0
ELLIPSE
5
9D
100
AcDbEntity
8
1
62
256
6
ByLayer
370
-1
48
1
60
0
100
AcDbEllipse
10
75.442604
20
11.565108
30
0
11
4.00561119314252
21
-1.26296435791803
31
0
210
0
220
0
230
1
40
0.992065
41
-0.964953419066102
42
-0.863855690040618
0
ELLIPSE
5
9E
100
AcDbEntity
8
1
62
256
6
ByLayer
370
-1
48
1
60
0
100
AcDbEllipse
10
73.180771
20
-5.698031
30
0
11
-1.33520373104752
21
0.420988119305983
31
0
210
0
220
0
230
1
40
0.992065
41
-0.215929115882873
42
-2.36958576837969
0
ELLIPSE
5
9F
100
AcDbEntity
8
1
62
256
6
ByLayer
370
-1
48
1
60
0
100
AcDbEllipse
10
73.046595
20
-4.479233
30
0
11
-1.43057542612234
21
0.451058699256411
31
0
210
0
220
0
230
1
40
0.992065
41
-0.610865238198032
42
-0.114306859801412
0
ELLIPSE
5
A0
100
AcDbEntity
8
1
62
256
6
ByLayer
370
-1
48
1
60
0
100
AcDbEllipse
10
73.020086
20
-6.207661
30
0
11
-1.33520373104752
21
0.420988119305983
31
0
210
0
220
0
230
1
40
0.992065
41
-2.27987925708071
42
-2.11559008429362
0
ELLIPSE
5
A1
100
AcDbEntity
8
1
62
256
6
ByLayer
370
-1
48
1
60
0
100
AcDbEllipse
10
73.020086
20
-6.207661
30
0
11
-1.33520373104752
21
0.420988119305983
31
0
210
0
220
0
230
1
40
0.992065
41
-1.58851706911966
42
-0.309396706415709
0
ELLIPSE
5
A2
100
AcDbEntity
8
1
62
256
6
ByLayer
370
-1
48
1
60
0
100
AcDbEllipse
10
133.284458
20
6.7E-05
30
0
11
330.38476980863
21
-1.50205088255167
31
0
210
0
220
0
230
-1
40
0.03756
41
-1.77627755344433
42
-1.7659007150813
0
ELLIPSE
5
A3
100
AcDbEntity
8
1
62
256
6
ByLayer
370
-1
48
1
60
0
100
AcDbEllipse
10
21.056258
20
0
30
0
11
11.7092723497262
21
24.6771864409362
31
0
210
0
220
0
230
-1
40
0.341999
41
-2.97437958168081
42
-2.05975995310048
0
ELLIPSE
5
A4
100
AcDbEntity
8
1
62
256
6
ByLayer
370
-1
48
1
60
0
100
AcDbEllipse
10
89.217152
20
17.126664
30
0
11
0.790997538733644
21
-0.0740997602136301
31
0
210
0
220
0
230
-1
40
0.994699
41
-2.19497585738667
42
0.088309838966569
0
ELLIPSE
5
A5
100
AcDbEntity
8
1
62
256
6
ByLayer
370
-1
48
1
60
0
100
AcDbEllipse
10
74.273171
20
-4.96447
30
0
11
0.702569245855291
21
0.455387896800756
31
0
210
0
220
0
230
-1
40
0.216609
41
1.35678704944573
42
2.12874435412205
0
ELLIPSE
5
A6
100
AcDbEntity
8
1
62
256
6
ByLayer
370
-1
48
1
60
0
100
AcDbEllipse
10
74.116299
20
-4.334713
30
0
11
0.790997538733805
21
-0.0740997602119354
31
0
210
0
220
0
230
-1
40
0.994699
41
0.946616796205062
42
-3.0532828146214
0
ELLIPSE
5
A7
100
AcDbEntity
8
1
62
256
6
ByLayer
370
-1
48
1
60
0
100
AcDbEllipse
10
74.174251
20
-4.567359
30
0
11
0.790997538717039
21
-0.0740997603665334
31
0
210
0
220
0
230
-1
40
0.994699
41
1.71857410068912
42
2.45794518768646
0
ELLIPSE
5
A8
100
AcDbEntity
8
1
62
256
6
ByLayer
370
-1
48
1
60
0
100
AcDbEllipse
10
74.273171
20
-4.96447
30
0
11
0.769831110444002
21
-1.08414062211256
31
0
210
0
220
0
230
-1
40
0.507802
41
1.88006282967225
42
2.22782982296027
0
ELLIPSE
5
A9
100
AcDbEntity
8
1
62
256
6
ByLayer
370
-1
48
1
60
0
100
AcDbEllipse
10
81.666725
20
6.395976
30
0
11
2.90362383720891
21
-0.915509079232181
31
0
210
0
220
0
230
1
40
0.992065
41
0
42
6.28318530717959
0
ELLIPSE
5
AA
100
AcDbEntity
8
1
62
256
6
ByLayer
370
-1
48
1
60
0
100
AcDbEllipse
10
81.622066
20
6.254335
30
0
11
2.80817345793611
21
-0.885413690249425
31
0
210
0
220
0
230
1
40
0.992065
41
-0.713435156117775
42
-3.04057457850743E-16
0
ELLIPSE
5
AB
100
AcDbEntity
8
1
62
256
6
ByLayer
370
-1
48
1
60
0
100
AcDbEllipse
10
81.622066
20
6.254335
30
0
11
2.80817345793611
21
-0.885413690249425
31
0
210
0
220
0
230
1
40
0.992065
41
0
42
0.30772506927178
0
ELLIPSE
5
AC
100
AcDbEntity
8
1
62
256
6
ByLayer
370
-1
48
1
60
0
100
AcDbEllipse
10
81.622066
20
6.254335
30
0
11
2.80817345793611
21
-0.885413690249425
31
0
210
0
220
0
230
1
40
0.992065
41
-2.42815581729114
42
-1.2585016006288
0
ELLIPSE
5
AD
100
AcDbEntity
8
1
62
256
6
ByLayer
370
-1
48
1
60
0
100
AcDbEllipse
10
81.622066
20
6.254335
30
0
11
2.80817345793611
21
-0.885413690249425
31
0
210
0
220
0
230
1
40
0.992065
41
0.307725017825568
42
-2.42815581729113
0
ELLIPSE
5
AE
100
AcDbEntity
8
1
62
256
6
ByLayer
370
-1
48
1
60
0
100
AcDbEllipse
10
81.628162
20
6.273667
30
0
11
2.86115085224468
21
-0.902117398512886
31
0
210
0
220
0
230
1
40
0.992065
41
-0.331535556165453
42
-2.98427495409448E-16
0
ELLIPSE
5
AF
100
AcDbEntity
8
1
62
256
6
ByLayer
370
-1
48
1
60
0
100
AcDbEllipse
10
81.628162
20
6.273667
30
0
11
2.86115085224468
21
-0.902117398512886
31
0
210
0
220
0
230
1
40
0.992065
41
0
42
0.307725005701545
0
ELLIPSE
5
B0
100
AcDbEntity
8
1
62
256
6
ByLayer
370
-1
48
1
60
0
100
AcDbEllipse
10
81.628162
20
6.273667
30
0
11
2.86115085224468
21
-0.902117398512886
31
0
210
0
220
0
230
1
40
0.992065
41
-2.8100555971338
42
-1.25850153709663
0
ELLIPSE
5
B1
100
AcDbEntity
8
1
62
256
6
ByLayer
370
-1
48
1
60
0
100
AcDbEllipse
10
81.628162
20
6.273667
30
0
11
2.86115085224468
21
-0.902117398512886
31
0
210
0
220
0
230
1
40
0.992065
41
0.307724984853292
42
-2.8100555971338
0
ELLIPSE
5
B2
100
AcDbEntity
8
1
62
256
6
ByLayer
370
-1
48
1
60
0
100
AcDbEllipse
10
77.917784
20
9.008309
30
0
11
0.368403586371433
21
-0.159823095273287
31
0
210
0
220
0
230
-1
40
0.988418
41
3.03889743823663
42
-2.63582179175896
0
ELLIPSE
5
B3
100
AcDbEntity
8
1
62
256
6
ByLayer
370
-1
48
1
60
0
100
AcDbEllipse
10
85.415666
20
3.783643
30
0
11
0.368403586276462
21
-0.159823095596445
31
0
210
0
220
0
230
-1
40
0.988418
41
-0.102695216170418
42
0.505770860981257
0
ELLIPSE
5
B4
100
AcDbEntity
8
1
62
256
6
ByLayer
370
-1
48
1
60
0
100
AcDbEllipse
10
81.601606
20
6.189443
30
0
11
-1.15065950107773
21
0.362801547101906
31
0
210
0
220
0
230
1
40
0.992065
41
2.08714459507766
42
2.7417513613131
0
ELLIPSE
5
B5
100
AcDbEntity
8
1
62
256
6
ByLayer
370
-1
48
1
60
0
100
AcDbEllipse
10
81.645222
20
6.327777
30
0
11
1.15065950107773
21
-0.362801547101927
31
0
210
0
220
0
230
1
40
0.992065
41
2.76712740107903
42
2.90519266790258
0
ELLIPSE
5
B6
100
AcDbEntity
8
1
62
256
6
ByLayer
370
-1
48
1
60
0
100
AcDbEllipse
10
81.655481
20
6.360315
30
0
11
1.59890646792939
21
-0.504133272868946
31
0
210
0
220
0
230
1
40
0.992065
41
-1.87622894589392
42
-0.831821942378672
0
ELLIPSE
5
B7
100
AcDbEntity
8
1
62
256
6
ByLayer
370
-1
48
1
60
0
100
AcDbEllipse
10
83.146699
20
5.112793
30
0
11
-0.654249828213284
21
0.206284178459932
31
0
210
0
220
0
230
1
40
0.992065
41
1.02226541184817E-05
42
0.485828715822231
0
ELLIPSE
5
B8
100
AcDbEntity
8
1
62
256
6
ByLayer
370
-1
48
1
60
0
100
AcDbEllipse
10
81.655481
20
6.360315
30
0
11
1.59890646792939
21
-0.504133272868946
31
0
210
0
220
0
230
1
40
0.992065
41
-2.92063594940915
42
-1.87622894589392
0
ELLIPSE
5
B9
100
AcDbEntity
8
1
62
256
6
ByLayer
370
-1
48
1
60
0
100
AcDbEllipse
10
81.601606
20
6.189443
30
0
11
-1.15065950107773
21
0.362801547101906
31
0
210
0
220
0
230
1
40
0.992065
41
0.8896215641166
42
1.51970935423665
0
ELLIPSE
5
BA
100
AcDbEntity
8
1
62
256
6
ByLayer
370
-1
48
1
60
0
100
AcDbEllipse
10
81.645222
20
6.327777
30
0
11
1.15065950107773
21
-0.362801547101927
31
0
210
0
220
0
230
1
40
0.992065
41
-0.374465252511148
42
-0.236399985686914
0
ELLIPSE
5
BB
100
AcDbEntity
8
1
62
256
6
ByLayer
370
-1
48
1
60
0
100
AcDbEllipse
10
81.601606
20
6.189443
30
0
11
1.15065950107773
21
-0.362801547101929
31
0
210
0
220
0
230
1
40
0.992065
41
0.743160205938276
42
1.78756720945354
0
ELLIPSE
5
BC
100
AcDbEntity
8
1
62
256
6
ByLayer
370
-1
48
1
60
0
100
AcDbEllipse
10
81.601606
20
6.189443
30
0
11
-1.15065950107773
21
0.362801547101906
31
0
210
0
220
0
230
1
40
0.992065
41
-1.35402544413624
42
-0.374465252510822
0
ELLIPSE
5
BD
100
AcDbEntity
8
1
62
256
6
ByLayer
370
-1
48
1
60
0
100
AcDbEllipse
10
81.655481
20
6.360315
30
0
11
1.59890646792939
21
-0.504133272868946
31
0
210
0
220
0
230
1
40
0.992065
41
-0.831821942378672
42
0.220956704180625
0
ELLIPSE
5
BE
100
AcDbEntity
8
1
62
256
6
ByLayer
370
-1
48
1
60
0
100
AcDbEllipse
10
81.764768
20
8.060522
30
0
11
-0.654249828213284
21
0.206284178459932
31
0
210
0
220
0
230
1
40
0.992065
41
1.78756720945355
42
2.57155785307434
0
ELLIPSE
5
BF
100
AcDbEntity
8
1
62
256
6
ByLayer
370
-1
48
1
60
0
100
AcDbEllipse
10
81.655481
20
6.360315
30
0
11
1.59890646792939
21
-0.504133272868946
31
0
210
0
220
0
230
1
40
0.992065
41
2.30977071121117
42
-2.92063594940915
0
ELLIPSE
5
C0
100
AcDbEntity
8
1
62
256
6
ByLayer
370
-1
48
1
60
0
100
AcDbEllipse
10
81.655481
20
6.360315
30
0
11
1.59890646792939
21
-0.504133272868946
31
0
210
0
220
0
230
1
40
0.992065
41
0.220956704180625
42
1.26536370769592
0
ELLIPSE
5
C1
100
AcDbEntity
8
1
62
256
6
ByLayer
370
-1
48
1
60
0
100
AcDbEllipse
10
81.601606
20
6.189443
30
0
11
-1.15065950107773
21
0.362801547101906
31
0
210
0
220
0
230
1
40
0.992065
41
-0.236399985687154
42
0.466418810026532
0
ELLIPSE
5
C2
100
AcDbEntity
8
1
62
256
6
ByLayer
370
-1
48
1
60
0
100
AcDbEllipse
10
81.655481
20
6.360315
30
0
11
1.59890646792939
21
-0.504133272868946
31
0
210
0
220
0
230
1
40
0.992065
41
1.26536370769592
42
2.30977071121117
0
ELLIPSE
5
C3
100
AcDbEntity
8
1
62
256
6
ByLayer
370
-1
48
1
60
0
100
AcDbEllipse
10
81.601606
20
6.189443
30
0
11
-1.15065950107773
21
0.362801547101906
31
0
210
0
220
0
230
1
40
0.992065
41
3.03695901341703
42
-2.39843244765152
0
ELLIPSE
5
C4
100
AcDbEntity
8
1
62
256
6
ByLayer
370
-1
48
1
60
0
100
AcDbEllipse
10
83.31262
20
6.981949
30
0
11
-0.654249828213284
21
0.206284178459932
31
0
210
0
220
0
230
1
40
0.992065
41
0.743160205938291
42
1.52715084955909
0
ELLIPSE
5
C5
100
AcDbEntity
8
1
62
256
6
ByLayer
370
-1
48
1
60
0
100
AcDbEllipse
10
80.222767
20
6.308557
30
0
11
-0.278485349618482
21
0.0878060934552479
31
0
210
0
220
0
230
1
40
0.992065
41
-1.09669395402029
42
-0.426835276981428
0
ELLIPSE
5
C6
100
AcDbEntity
8
1
62
256
6
ByLayer
370
-1
48
1
60
0
100
AcDbEllipse
10
81.017553
20
7.438109
30
0
11
-0.278485349618482
21
0.0878060934552479
31
0
210
0
220
0
230
1
40
0.992065
41
-2.13801608775709
42
-0.290704731165866
0
ELLIPSE
5
C7
100
AcDbEntity
8
1
62
256
6
ByLayer
370
-1
48
1
60
0
100
AcDbEllipse
10
81.764768
20
8.060522
30
0
11
-0.654249828213284
21
0.206284178459932
31
0
210
0
220
0
230
1
40
0.992065
41
1.00357656583274
42
1.78756720945355
0
ELLIPSE
5
C8
100
AcDbEntity
8
1
62
256
6
ByLayer
370
-1
48
1
60
0
100
AcDbEllipse
10
82.392572
20
7.313566
30
0
11
-0.278485349618482
21
0.0878060934552479
31
0
210
0
220
0
230
1
40
0.992065
41
-3.06682537332219
42
-0.570034800515499
0
ELLIPSE
5
C9
100
AcDbEntity
8
1
62
256
6
ByLayer
370
-1
48
1
60
0
100
AcDbEllipse
10
83.31262
20
6.981949
30
0
11
-0.654249828213284
21
0.206284178459932
31
0
210
0
220
0
230
1
40
0.992065
41
1.02397318785668E-05
42
0.743160205938291
0
ELLIPSE
5
CA
100
AcDbEntity
8
1
62
256
6
ByLayer
370
-1
48
1
60
0
100
AcDbEllipse
10
82.980445
20
6.070329
30
0
11
-0.278485349618482
21
0.0878060934552479
31
0
210
0
220
0
230
1
40
0.992065
41
-2.83211109740905
42
-1.61444180403071
0
ELLIPSE
5
CB
100
AcDbEntity
8
1
62
256
6
ByLayer
370
-1
48
1
60
0
100
AcDbEllipse
10
81.645068
20
6.327287
30
0
11
2.50350699571408
21
-0.78935272369877
31
0
210
0
220
0
230
1
40
0.992065
41
0
42
6.28318530717959
0
ELLIPSE
5
CC
100
AcDbEntity
8
1
62
256
6
ByLayer
370
-1
48
1
60
0
100
AcDbEllipse
10
81.602551
20
6.192441
30
0
11
2.50350699571408
21
-0.789352723698768
31
0
210
0
220
0
230
1
40
0.992065
41
3.14149508326607
42
-3.41059994753656E-16
0
ELLIPSE
5
CD
100
AcDbEntity
8
1
62
256
6
ByLayer
370
-1
48
1
60
0
100
AcDbEllipse
10
81.655481
20
6.360315
30
0
11
1.71669051134677
21
-0.541270439107719
31
0
210
0
220
0
230
1
40
0.992065
41
0
42
6.28318530717959
0
POINT
5
41
100
AcDbEntity
8
80
62
256
6
ByLayer
370
-1
48
1
60
0
100
AcDbPoint
10
0
20
0
30
0
39
0
210
0
220
0
230
1
50
360
0
POINT
5
43
100
AcDbEntity
8
81
62
256
6
ByLayer
370
-1
48
1
60
0
100
AcDbPoint
10
90
20
17.9
30
0
39
0
210
0
220
0
230
1
50
360
0
POINT
5
45
100
AcDbEntity
8
1
62
256
6
ByLayer
370
-1
48
1
60
0
100
AcDbPoint
10
0
20
0
30
0
39
0
210
0
220
0
230
1
50
360
0
POINT
5
47
100
AcDbEntity
8
2
62
256
6
ByLayer
370
-1
48
1
60
0
100
AcDbPoint
10
90
20
17.9
30
0
39
0
210
0
220
0
230
1
50
360
0
POINT
5
49
100
AcDbEntity
8
2
62
256
6
ByLayer
370
-1
48
1
60
0
100
AcDbPoint
10
89.6734
20
16.758353
30
0
39
0
210
0
220
0
230
1
50
360
0
SPLINE
5
CE
100
AcDbEntity
8
SK1
62
256
6
ByLayer
370
-1
48
1
60
0
100
AcDbSpline
70
4
71
2
72
6
73
3
40
0
40
0
40
0
40
1
40
1
40
1
41
1
10
-2.19492113517947
20
17.5202263833814
30
0
41
1
10
-2.59746056758974
20
17.510113191717
30
0
41
1
10
-3
20
17.5000000000527
30
0
0
SPLINE
5
CF
100
AcDbEntity
8
SK1
62
256
6
ByLayer
370
-1
48
1
60
0
100
AcDbSpline
70
4
71
2
72
6
73
3
40
0
40
0
40
0
40
1
40
1
40
1
41
1
10
-3
20
-17.5000000000204
30
0
41
1
10
-2.59746056758974
20
-17.5101131916847
30
0
41
1
10
-2.19492113517947
20
-17.5202263833491
30
0
0
SPLINE
5
D0
100
AcDbEntity
8
SK1
62
256
6
ByLayer
370
-1
48
1
60
0
100
AcDbSpline
70
4
71
2
72
6
73
3
40
0
40
0
40
0
40
1
40
1
40
1
41
1
10
-3
20
17.5000000000527
30
0
41
1
10
-15.7502365839532
20
17.1796696772131
30
0
41
1
10
-28.5004731679065
20
16.8593393543735
30
0
0
SPLINE
5
D1
100
AcDbEntity
8
SK1
62
256
6
ByLayer
370
-1
48
1
60
0
100
AcDbSpline
70
4
71
2
72
6
73
3
40
0
40
0
40
0
40
1
40
1
40
1
41
1
10
-28.5004731679065
20
-16.8593393543424
30
0
41
1
10
-15.7502365839532
20
-17.1796696771814
30
0
41
1
10
-3
20
-17.5000000000204
30
0
0
SPLINE
5
D2
100
AcDbEntity
8
SK1
62
256
6
ByLayer
370
-1
48
1
60
0
100
AcDbSpline
70
4
71
2
72
6
73
3
40
0
40
0
40
0
40
1
40
1
40
1
41
1
10
-0.400000000000034
20
17.3251501409626
30
0
41
1
10
-1.19999999999999
20
17.3251501409626
30
0
41
1
10
-2
20
17.3251501409626
30
0
0
SPLINE
5
D3
100
AcDbEntity
8
SK1
62
256
6
ByLayer
370
-1
48
1
60
0
100
AcDbSpline
70
4
71
2
72
6
73
3
40
0
40
0
40
0
40
1
40
1
40
1
41
1
10
-2
20
-17.3251501414068
30
0
41
1
10
-1.19999999999999
20
-17.3251501414068
30
0
41
1
10
-0.400000000000034
20
-17.3251501414068
30
0
0
SPLINE
5
D4
100
AcDbEntity
8
SK1
62
256
6
ByLayer
370
-1
48
1
60
0
100
AcDbSpline
70
4
71
2
72
6
73
3
40
0
40
0
40
0
40
1
40
1
40
1
41
1
10
-28.5003904504266
20
16.8597456617469
30
0
41
1
10
-29.2501952787077
20
16.4010253845871
30
0
41
1
10
-30
20
15.9423013487186
30
0
0
SPLINE
5
D5
100
AcDbEntity
8
SK1
62
256
6
ByLayer
370
-1
48
1
60
0
100
AcDbSpline
70
4
71
2
72
6
73
3
40
0
40
0
40
0
40
1
40
1
40
1
41
1
10
-30
20
-15.9408160639395
30
0
41
1
10
-29.250201613525
20
-16.3993636736336
30
0
41
1
10
-28.5004032853135
20
-16.8579102610954
30
0
0
SPLINE
5
D6
100
AcDbEntity
8
SK1
62
256
6
ByLayer
370
-1
48
1
60
0
100
AcDbSpline
70
4
71
3
72
11
73
7
40
0
40
0
40
0
40
0
40
0.245755007744093
40
0.50179419821101
40
0.756953870258399
40
1
40
1
40
1
40
1
41
1
10
-0.199999999999989
20
17.5191731511753
30
0
41
1
10
-0.199994647676419
20
17.493844966999
30
0
41
1
10
-0.20935024226452
20
17.445622853432
30
0
41
1
10
-0.254178184246655
20
17.3766360753193
30
0
41
1
10
-0.324420736760771
20
17.33275982811
30
0
41
1
10
-0.373991067023667
20
17.3239685556464
30
0
41
1
10
-0.400000000000034
20
17.3241476526065
30
0
0
SPLINE
5
D7
100
AcDbEntity
8
SK1
62
256
6
ByLayer
370
-1
48
1
60
0
100
AcDbSpline
70
4
71
3
72
11
73
7
40
0
40
0
40
0
40
0
40
0.243046950855206
40
0.49820466819262
40
0.754242469704742
40
1
40
1
40
1
40
1
41
1
10
-0.400000000000034
20
-17.3241468641747
30
0
41
1
10
-0.373991174653781
20
-17.323967489369
30
0
41
1
10
-0.324421202647557
20
-17.332758304075
30
0
41
1
10
-0.254178044541106
20
-17.3766339294131
30
0
41
1
10
-0.209350044376038
20
-17.4456203921356
30
0
41
1
10
-0.199994500672233
20
-17.4938412312525
30
0
41
1
10
-0.199999999999989
20
-17.5191688355708
30
0
0
SPLINE
5
D8
100
AcDbEntity
8
1
62
256
6
ByLayer
370
-1
48
1
60
0
100
AcDbSpline
70
4
71
3
72
18
73
14
40
0
40
0
40
0
40
0
40
0.0809805960320615
40
0.0809805960320615
40
0.544227292213941
40
0.544227292213941
40
0.699318265621571
40
0.699318265621571
40
0.856346274356429
40
0.856346274356429
40
0.966571999538782
40
0.966571999538782
40
1
40
1
40
1
40
1
41
1
10
11.8943375672974
20
-8.05584836782771
30
0
41
1
10
11.8893471011257
20
-8.03731605051115
30
0
41
1
10
11.8840209914239
20
-8.01885383673363
30
0
41
1
10
11.845998279105
20
-7.89611164850155
30
0
41
1
10
11.8022255638175
20
-7.79219397274093
30
0
41
1
10
11.7151274219928
20
-7.67169814060131
30
0
41
1
10
11.6903249195398
20
-7.64266520230271
30
0
41
1
10
11.6339533178058
20
-7.59122859579532
30
0
41
1
10
11.6016224931834
20
-7.56839473241365
30
0
41
1
10
11.5411042357638
20
-7.54154007085771
30
0
41
1
10
11.5139568123411
20
-7.53384342094336
30
0
41
1
10
11.4781693033538
20
-7.53010833377257
30
0
41
1
10
11.4697409388397
20
-7.52966679426501
30
0
41
1
10
11.4613248654052
20
-7.52966679426501
30
0
0
SPLINE
5
D9
100
AcDbEntity
8
1
62
256
6
ByLayer
370
-1
48
1
60
0
100
AcDbSpline
70
4
71
3
72
8
73
4
40
0
40
0
40
0
40
0
40
1
40
1
40
1
40
1
41
1
10
71.9775281823432
20
-5.07958329235146
30
0
41
1
10
71.9722696530973
20
-5.05256302332288
30
0
41
1
10
71.9683932534993
20
-5.02703927347457
30
0
41
1
10
71.9660572555032
20
-5.00301536823761
30
0
0
SPLINE
5
DA
100
AcDbEntity
8
1
62
256
6
ByLayer
370
-1
48
1
60
0
100
AcDbSpline
70
4
71
2
72
6
73
3
40
0
40
0
40
0
40
1
40
1
40
1
41
0.499999957606509
10
72.4950497627593
20
-11.9218233143142
30
0
41
0.500000042393491
10
72.627024973937
20
-11.9233504204614
30
0
41
0.499999957606509
10
72.7590202213651
20
-11.9248735881343
30
0
0
SPLINE
5
DB
100
AcDbEntity
8
1
62
256
6
ByLayer
370
-1
48
1
60
0
100
AcDbSpline
70
4
71
3
72
16
73
12
40
0
40
0
40
0
40
0
40
0.0773436766578767
40
0.0773436766578767
40
0.181588290672618
40
0.181588290672618
40
0.353924998170011
40
0.353924998170011
40
0.659870482236094
40
0.659870482236094
40
1
40
1
40
1
40
1
41
1
10
11.4613248654052
20
-23.8391299750503
30
0
41
1
10
11.4806912734381
20
-23.8391299750503
30
0
41
1
10
11.5001920479834
20
-23.8383766644784
30
0
41
1
10
11.5443643455559
20
-23.8350242537625
30
0
41
1
10
11.5688999660418
20
-23.8318379431383
30
0
41
1
10
11.6286300521075
20
-23.8212426939765
30
0
41
1
10
11.66158714279
20
-23.812328084785
30
0
41
1
10
11.7407360052433
20
-23.7850663392819
30
0
41
1
10
11.7798892743244
20
-23.7642694363116
30
0
41
1
10
11.8468244213921
20
-23.7185457490814
30
0
41
1
10
11.8734747805012
20
-23.692873493267
30
0
41
1
10
11.8943375672974
20
-23.6665017920809
30
0
0
SPLINE
5
DC
100
AcDbEntity
8
1
62
256
6
ByLayer
370
-1
48
1
60
0
100
AcDbSpline
70
4
71
3
72
22
73
18
40
0
40
0
40
0
40
0
40
0.125
40
0.125
40
0.25
40
0.25
40
0.375
40
0.375
40
0.5
40
0.5
40
0.625
40
0.625
40
0.75
40
0.75
40
0.875
40
0.875
40
1
40
1
40
1
40
1
41
1
10
65.9285466373428
20
12.4548441821437
30
0
41
1
10
63.8470543510721
20
12.4480128372232
30
0
41
1
10
61.7979864924819
20
12.4282084817309
30
0
41
1
10
58.1814334049665
20
12.0128212204672
30
0
41
1
10
56.6091894789728
20
11.566874962119
30
0
41
1
10
54.870266763361
20
9.57510676892488
30
0
41
1
10
54.6988276391677
20
8.00951012706034
30
0
41
1
10
55.0671605240431
20
4.42551761078826
30
0
41
1
10
55.5510261095791
20
2.39977942009432
30
0
41
1
10
56.7009177526264
20
-1.55944694521642
30
0
41
1
10
57.384257217417
20
-3.51960082176345
30
0
41
1
10
59.14794889312
20
-6.94338616097659
30
0
41
1
10
60.2356678394273
20
-8.35738381907044
30
0
41
1
10
62.9877356388107
20
-10.3893268566414
30
0
41
1
10
64.6609689254349
20
-11.0165849524348
30
0
41
1
10
68.3717776906474
20
-11.7572940839628
30
0
41
1
10
70.4117984028737
20
-11.8977176816774
30
0
41
1
10
72.4950497627599
20
-11.9218233143143
30
0
0
SPLINE
5
DD
100
AcDbEntity
8
1
62
256
6
ByLayer
370
-1
48
1
60
0
100
AcDbSpline
70
4
71
3
72
28
73
24
40
-0.124999999999999
40
-0.124999999999999
40
0
40
0
40
0.125000000000001
40
0.125000000000001
40
0.187500000000001
40
0.187500000000001
40
0.250000000000002
40
0.250000000000002
40
0.375000000000002
40
0.375000000000002
40
0.500000000000003
40
0.500000000000003
40
0.625000000000002
40
0.625000000000002
40
0.687500000000002
40
0.687500000000002
40
0.718750000000002
40
0.718750000000002
40
0.750000000000002
40
0.750000000000002
40
0.875000000000001
40
0.875000000000001
40
1
40
1
40
1.125
40
1.125
41
1
10
63.0676204367683
20
2.86072282017588
30
0
41
1
10
61.7958076210516
20
2.23318274926819
30
0
41
1
10
61.1228599056791
20
2.03289169355372
30
0
41
1
10
60.1307487717153
20
2.31118412238078
30
0
41
1
10
59.8076297149005
20
2.51981648463763
30
0
41
1
10
59.3413055651324
20
3.16677539847527
30
0
41
1
10
59.2137938762962
20
3.59067772035309
30
0
41
1
10
59.1900742074002
20
4.7589941746665
30
0
41
1
10
59.5861069953103
20
5.36498699610001
30
0
41
1
10
60.6156476738552
20
6.1828323535633
30
0
41
1
10
61.2723979842112
20
6.43532664222687
30
0
41
1
10
62.6835657971263
20
6.75908099236352
30
0
41
1
10
63.4508645760774
20
6.84013520490993
30
0
41
1
10
64.6270401795226
20
6.79699596270459
30
0
41
1
10
65.0435635358807
20
6.76747633960557
30
0
41
1
10
65.6012175125344
20
6.52984896930303
30
0
41
1
10
65.7868967642331
20
6.39020095798571
30
0
41
1
10
65.8843590900829
20
5.98769567599672
30
0
41
1
10
65.8143659339466
20
5.7808371104561
30
0
41
1
10
65.3918432765656
20
4.87436317772833
30
0
41
1
10
64.8038377199404
20
4.31950237703984
30
0
41
1
10
63.6724250118705
20
3.3039888335835
30
0
41
1
10
63.0676204367683
20
2.86072282017588
30
0
41
1
10
61.7958076210516
20
2.23318274926819
30
0
0
SPLINE
5
DE
100
AcDbEntity
8
1
62
256
6
ByLayer
370
-1
48
1
60
0
100
AcDbSpline
70
4
71
3
72
16
73
12
40
0
40
0
40
0
40
0
40
0.0773436766578803
40
0.0773436766578803
40
0.181588290672623
40
0.181588290672623
40
0.353924998170025
40
0.353924998170025
40
0.659870482236126
40
0.659870482236126
40
1
40
1
40
1
40
1
41
1
10
11.4613248654052
20
7.52966679426498
30
0
41
1
10
11.4806912734381
20
7.52966679426498
30
0
41
1
10
11.5001920479834
20
7.53205286469702
30
0
41
1
10
11.5443643455559
20
7.54265601007381
30
0
41
1
10
11.5688999660418
20
7.55272636772358
30
0
41
1
10
11.6286300521075
20
7.58609718460602
30
0
41
1
10
11.66158714279
20
7.61407037421822
30
0
41
1
10
11.7407360052433
20
7.69895209889256
30
0
41
1
10
11.7798892743244
20
7.76300791758413
30
0
41
1
10
11.8468244213921
20
7.90167589305847
30
0
41
1
10
11.8734747805012
20
7.97837348437852
30
0
41
1
10
11.8943375672974
20
8.05584836782771
30
0
0
SPLINE
5
DF
100
AcDbEntity
8
1
62
256
6
ByLayer
370
-1
48
1
60
0
100
AcDbSpline
70
4
71
3
72
18
73
14
40
0
40
0
40
0
40
0
40
0.0809805960320801
40
0.0809805960320801
40
0.544227292214068
40
0.544227292214068
40
0.699318265621658
40
0.699318265621658
40
0.856346274356475
40
0.856346274356475
40
0.966571999538822
40
0.966571999538822
40
1
40
1
40
1
40
1
41
1
10
8.10566243270262
20
-23.6665017920809
30
0
41
1
10
8.11065289887432
20
-23.672810013698
30
0
41
1
10
8.11597900857612
20
-23.6790700603507
30
0
41
1
10
8.15400172089505
20
-23.7205303134149
30
0
41
1
10
8.1977744361825
20
-23.7548029562659
30
0
41
1
10
8.28487257800725
20
-23.7938243006291
30
0
41
1
10
8.30967508046024
20
-23.8031592998669
30
0
41
1
10
8.36604668219428
20
-23.8196134016841
30
0
41
1
10
8.3983775068167
20
-23.8268687494612
30
0
41
1
10
8.45889576423616
20
-23.8353793525422
30
0
41
1
10
8.48604318765894
20
-23.8378105604685
30
0
41
1
10
8.52183069664625
20
-23.8389905264494
30
0
41
1
10
8.53025906116034
20
-23.8391299750503
30
0
41
1
10
8.53867513459483
20
-23.8391299750503
30
0
0
SPLINE
5
E0
100
AcDbEntity
8
1
62
256
6
ByLayer
370
-1
48
1
60
0
100
AcDbSpline
70
4
71
3
72
16
73
12
40
0
40
0
40
0
40
0
40
0.077343676657827
40
0.077343676657827
40
0.181588290672556
40
0.181588290672556
40
0.353924998169922
40
0.353924998169922
40
0.659870482235914
40
0.659870482235914
40
1
40
1
40
1
40
1
41
1
10
8.53867513459483
20
23.8391299750503
30
0
41
1
10
8.51930872656192
20
23.8391299750503
30
0
41
1
10
8.49980795201657
20
23.8383766644784
30
0
41
1
10
8.45563565444411
20
23.8350242537625
30
0
41
1
10
8.43110003395827
20
23.8318379431383
30
0
41
1
10
8.37136994789256
20
23.8212426939765
30
0
41
1
10
8.33841285720996
20
23.812328084785
30
0
41
1
10
8.25926399475679
20
23.7850663392819
30
0
41
1
10
8.22011072567562
20
23.7642694363116
30
0
41
1
10
8.15317557860794
20
23.7185457490814
30
0
41
1
10
8.12652521949877
20
23.692873493267
30
0
41
1
10
8.10566243270262
20
23.6665017920809
30
0
0
SPLINE
5
E1
100
AcDbEntity
8
1
62
256
6
ByLayer
370
-1
48
1
60
0
100
AcDbSpline
70
4
71
3
72
18
73
14
40
0
40
0
40
0
40
0
40
0.0809805960320918
40
0.0809805960320918
40
0.544227292214085
40
0.544227292214085
40
0.699318265621671
40
0.699318265621671
40
0.856346274356483
40
0.856346274356483
40
0.966571999538831
40
0.966571999538831
40
1
40
1
40
1
40
1
41
1
10
8.10566243270262
20
8.05584836782774
30
0
41
1
10
8.11065289887432
20
8.03731605051118
30
0
41
1
10
8.11597900857612
20
8.01885383673363
30
0
41
1
10
8.15400172089505
20
7.89611164850155
30
0
41
1
10
8.1977744361825
20
7.7921939727409
30
0
41
1
10
8.28487257800725
20
7.67169814060125
30
0
41
1
10
8.30967508046024
20
7.64266520230268
30
0
41
1
10
8.36604668219428
20
7.59122859579529
30
0
41
1
10
8.3983775068167
20
7.56839473241365
30
0
41
1
10
8.45889576423616
20
7.54154007085771
30
0
41
1
10
8.48604318765894
20
7.53384342094336
30
0
41
1
10
8.52183069664625
20
7.53010833377257
30
0
41
1
10
8.53025906116034
20
7.52966679426501
30
0
41
1
10
8.53867513459483
20
7.52966679426501
30
0
0
SPLINE
5
E2
100
AcDbEntity
8
1
62
256
6
ByLayer
370
-1
48
1
60
0
100
AcDbSpline
70
4
71
3
72
16
73
12
40
0
40
0
40
0
40
0
40
0.0773436766578125
40
0.0773436766578125
40
0.181588290672542
40
0.181588290672542
40
0.353924998169895
40
0.353924998169895
40
0.659870482235859
40
0.659870482235859
40
1
40
1
40
1
40
1
41
1
10
8.53867513459483
20
-7.52966679426501
30
0
41
1
10
8.51930872656197
20
-7.52966679426501
30
0
41
1
10
8.49980795201662
20
-7.53205286469702
30
0
41
1
10
8.45563565444411
20
-7.54265601007379
30
0
41
1
10
8.43110003395827
20
-7.55272636772355
30
0
41
1
10
8.37136994789256
20
-7.58609718460599
30
0
41
1
10
8.33841285721002
20
-7.61407037421819
30
0
41
1
10
8.25926399475679
20
-7.69895209889248
30
0
41
1
10
8.22011072567562
20
-7.76300791758402
30
0
41
1
10
8.15317557860794
20
-7.90167589305835
30
0
41
1
10
8.12652521949877
20
-7.97837348437849
30
0
41
1
10
8.10566243270262
20
-8.05584836782774
30
0
0
SPLINE
5
E3
100
AcDbEntity
8
1
62
256
6
ByLayer
370
-1
48
1
60
0
100
AcDbSpline
70
4
71
3
72
18
73
14
40
0
40
0
40
0
40
0
40
0.0809805960321051
40
0.0809805960321051
40
0.544227292214096
40
0.544227292214096
40
0.69931826562168
40
0.69931826562168
40
0.856346274356486
40
0.856346274356486
40
0.966571999538835
40
0.966571999538835
40
1
40
1
40
1
40
1
41
1
10
11.8943375672974
20
23.6665017920809
30
0
41
1
10
11.8893471011256
20
23.672810013698
30
0
41
1
10
11.8840209914239
20
23.6790700603507
30
0
41
1
10
11.845998279105
20
23.7205303134149
30
0
41
1
10
11.8022255638174
20
23.7548029562659
30
0
41
1
10
11.7151274219928
20
23.7938243006291
30
0
41
1
10
11.6903249195398
20
23.8031592998669
30
0
41
1
10
11.6339533178057
20
23.8196134016841
30
0
41
1
10
11.6016224931833
20
23.8268687494612
30
0
41
1
10
11.5411042357638
20
23.8353793525422
30
0
41
1
10
11.5139568123411
20
23.8378105604685
30
0
41
1
10
11.4781693033538
20
23.8389905264494
30
0
41
1
10
11.4697409388397
20
23.8391299750503
30
0
41
1
10
11.4613248654052
20
23.8391299750503
30
0
0
SPLINE
5
E4
100
AcDbEntity
8
SK1
62
256
6
ByLayer
370
-1
48
1
60
0
100
AcDbSpline
70
4
71
3
72
26
73
22
40
0
40
0
40
0
40
0
40
0.466011607458034
40
0.466011607458034
40
0.67024046630168
40
0.67024046630168
40
0.77456727018221
40
0.77456727018221
40
0.857070717706419
40
0.857070717706419
40
0.898538406950324
40
0.898538406950324
40
0.918045307993239
40
0.918045307993239
40
0.937772855809251
40
0.937772855809251
40
0.955553297254221
40
0.955553297254221
40
0.984230712729842
40
0.984230712729842
40
1
40
1
40
1
40
1
41
1
10
-0.200000000000046
20
-5.88142397393347
30
0
41
1
10
-0.200000000000046
20
-5.75538988127934
30
0
41
1
10
-0.204053336884726
20
-5.62782146467677
30
0
41
1
10
-0.224291300237951
20
-5.44372978251536
30
0
41
1
10
-0.232375898168357
20
-5.3873284499669
30
0
41
1
10
-0.251389677244674
20
-5.30297629006839
30
0
41
1
10
-0.259003952916999
20
-5.27447755328694
30
0
41
1
10
-0.277073232762461
20
-5.22483382882945
30
0
41
1
10
-0.286541211569727
20
-5.20296176881411
30
0
41
1
10
-0.306529791401147
20
-5.17375294403038
30
0
41
1
10
-0.314426911926432
20
-5.1643717298173
30
0
41
1
10
-0.328481919155991
20
-5.15398148698225
30
0
41
1
10
-0.333472930985636
20
-5.15114386616668
30
0
41
1
10
-0.343977733072507
20
-5.14732547572157
30
0
41
1
10
-0.349636276202261
20
-5.14634920679938
30
0
41
1
10
-0.360093315739675
20
-5.1465317925306
30
0
41
1
10
-0.365036235354125
20
-5.14747094480913
30
0
41
1
10
-0.377122372198698
20
-5.15149960910935
30
0
41
1
10
-0.384002450469666
20
-5.1555505154767
30
0
41
1
10
-0.393629001799525
20
-5.16285427826699
30
0
41
1
10
-0.39689046960973
20
-5.16568716298278
30
0
41
1
10
-0.400000000000034
20
-5.16866679574503
30
0
0
SPLINE
5
E5
100
AcDbEntity
8
SK1
62
256
6
ByLayer
370
-1
48
1
60
0
100
AcDbSpline
70
4
71
3
72
79
73
75
40
0
40
0
40
0
40
0
40
0.0067087497327157
40
0.0208027855950757
40
0.0348968214574358
40
0.0489908573197958
40
0.0630848931821558
40
0.0771789290445158
40
0.0912729649068758
40
0.105367000769236
40
0.119461036631596
40
0.133555072493956
40
0.147649108356316
40
0.161743144218676
40
0.175837180081036
40
0.189931215943396
40
0.204025251805756
40
0.218119287668116
40
0.232213323530476
40
0.246307359392836
40
0.260401395255196
40
0.274495431117556
40
0.288589466979916
40
0.302683502842276
40
0.316777538704636
40
0.330871574566996
40
0.344965610429356
40
0.359059646291716
40
0.373153682154076
40
0.387247718016436
40
0.401341753878796
40
0.415435789741156
40
0.429529825603516
40
0.443623861465876
40
0.457717897328236
40
0.471811933190596
40
0.485905969052956
40
0.500000004915316
40
0.514094040777676
40
0.528188076640036
40
0.542282112502396
40
0.556376148364756
40
0.570470184227116
40
0.584564220089477
40
0.598658255951837
40
0.612752291814197
40
0.626846327676556
40
0.640940363538917
40
0.655034399401277
40
0.669128435263637
40
0.683222471125997
40
0.697316506988357
40
0.711410542850717
40
0.725504578713077
40
0.739598614575437
40
0.753692650437797
40
0.767786686300157
40
0.781880722162517
40
0.795974758024877
40
0.810068793887237
40
0.824162829749597
40
0.838256865611957
40
0.852350901474317
40
0.866444937336677
40
0.880538973199037
40
0.894633009061397
40
0.908727044923757
40
0.922821080786117
40
0.936915116648477
40
0.951009152510837
40
0.965103188373197
40
0.979197224235557
40
0.993291260097917
40
1
40
1
40
1
40
1
41
1
10
-3
20
-17.2891029998204
30
0
41
1
10
-3
20
-17.3064425230017
30
0
41
1
10
-3
20
-17.3576824669623
30
0
41
1
10
-3
20
-17.4290648746259
30
0
41
1
10
-3
20
-17.4859427971309
30
0
41
1
10
-3
20
-17.5070292572437
30
0
41
1
10
-3
20
-17.4859401738945
30
0
41
1
10
-3
20
-17.4163913620312
30
0
41
1
10
-3
20
-17.2925088911448
30
0
41
1
10
-3
20
-17.1091123896189
30
0
41
1
10
-3
20
-16.8619882313057
30
0
41
1
10
-3
20
-16.5481197778907
30
0
41
1
10
-3
20
-16.1658744357057
30
0
41
1
10
-3
20
-15.7151402778227
30
0
41
1
10
-3
20
-15.1974002275414
30
0
41
1
10
-3
20
-14.6157505856349
30
0
41
1
10
-3
20
-13.9748490556261
30
0
41
1
10
-3
20
-13.2808105172309
30
0
41
1
10
-3
20
-12.5410348198394
30
0
41
1
10
-3
20
-11.763994099502
30
0
41
1
10
-3
20
-10.9589648821141
30
0
41
1
10
-3
20
-10.1357380738661
30
0
41
1
10
-3
20
-9.30429484700929
30
0
41
1
10
-3
20
-8.47448256671282
30
0
41
1
10
-3
20
-7.6556828892094
30
0
41
1
10
-3
20
-6.85650245921596
30
0
41
1
10
-3
20
-6.08448325445985
30
0
41
1
10
-3
20
-5.34585503158101
30
0
41
1
10
-3
20
-4.64533193812392
30
0
41
1
10
-3
20
-3.9859646700211
30
0
41
1
10
-3
20
-3.36905464097902
30
0
41
1
10
-3
20
-2.79412899561987
30
0
41
1
10
-3
20
-2.25898609800083
30
0
41
1
10
-3
20
-1.75979816383233
30
0
41
1
10
-3
20
-1.29128215780307
30
0
41
1
10
-3
20
-0.846915650735156
30
0
41
1
10
-3
20
-0.41920838047011
30
0
41
1
10
-3
20
8.85488021E-08
30
0
41
1
10
-3
20
0.419208026274788
30
0
41
1
10
-3
20
0.84691581376515
30
0
41
1
10
-3
20
1.29128185987813
30
0
41
1
10
-3
20
1.75979828673439
30
0
41
1
10
-3
20
2.25898590431717
30
0
41
1
10
-3
20
2.79412905823773
30
0
41
1
10
-3
20
3.36905458419105
30
0
41
1
10
-3
20
3.98596466105747
30
0
41
1
10
-3
20
4.64533203076618
30
0
41
1
10
-3
20
5.34585495020943
30
0
41
1
10
-3
20
6.08448348730366
30
0
41
1
10
-3
20
6.85650231512167
30
0
41
1
10
-3
20
7.65568323274246
30
0
41
1
10
-3
20
8.47448237855718
30
0
41
1
10
-3
20
9.30429525609867
30
0
41
1
10
-3
20
10.1357378664365
30
0
41
1
10
-3
20
10.9589653027428
30
0
41
1
10
-3
20
11.7639938999324
30
0
41
1
10
-3
20
12.5410351974886
30
0
41
1
10
-3
20
13.2808103509102
30
0
41
1
10
-3
20
13.9748493432595
30
0
41
1
10
-3
20
14.6157504724401
30
0
41
1
10
-3
20
15.197400392687
30
0
41
1
10
-3
20
15.7151402291805
30
0
41
1
10
-3
20
16.1658744651289
30
0
41
1
10
-3
20
16.5481197951877
30
0
41
1
10
-3
20
16.8619881326948
30
0
41
1
10
-3
20
17.1091124641426
30
0
41
1
10
-3
20
17.2925086916609
30
0
41
1
10
-3
20
17.4163918494222
30
0
41
1
10
-3
20
17.4859391868839
30
0
41
1
10
-3
20
17.5070293524766
30
0
41
1
10
-3
20
17.4859434032096
30
0
41
1
10
-3
20
17.4290646714908
30
0
41
1
10
-3
20
17.3576822655576
30
0
41
1
10
-3
20
17.3064424621938
30
0
41
1
10
-3
20
17.2891029998414
30
0
0
SPLINE
5
E6
100
AcDbEntity
8
SK1
62
256
6
ByLayer
370
-1
48
1
60
0
100
AcDbSpline
70
4
71
3
72
14
73
10
40
0
40
0
40
0
40
0
40
0.134730002443746
40
0.287068852257179
40
0.439407702070613
40
0.591746551884047
40
0.744085401697481
40
0.896424251510915
40
1
40
1
40
1
40
1
41
1
10
-2.20000000000005
20
10.2416919827174
30
0
41
1
10
-2.20000000000005
20
10.4855732775987
30
0
41
1
10
-2.20000000000005
20
11.0026050713442
30
0
41
1
10
-2.20000000000005
20
11.777504870163
30
0
41
1
10
-2.20000000000005
20
12.5554386011843
30
0
41
1
10
-2.20000000000005
20
13.2960633878308
30
0
41
1
10
-2.20000000000005
20
13.9908994853336
30
0
41
1
10
-2.20000000000005
20
14.5640747934535
30
0
41
1
10
-2.20000000000005
20
14.8954704523378
30
0
41
1
10
-2.20000000000005
20
15.0247809138972
30
0
0
SPLINE
5
E7
100
AcDbEntity
8
SK1
62
256
6
ByLayer
370
-1
48
1
60
0
100
AcDbSpline
70
4
71
3
72
24
73
20
40
0
40
0
40
0
40
0
40
0.0299003298961631
40
0.0299003298961631
40
0.0528622635029669
40
0.0528622635029669
40
0.0709275158044995
40
0.0709275158044995
40
0.0890039000876294
40
0.0890039000876294
40
0.11362248491787
40
0.11362248491787
40
0.157577258657195
40
0.157577258657195
40
0.29602514002948
40
0.29602514002948
40
0.878150828056824
40
0.878150828056824
40
1
40
1
40
1
40
1
41
1
10
-0.400000000000034
20
5.16866682996297
30
0
41
1
10
-0.394094307655564
20
5.16300784544387
30
0
41
1
10
-0.38760623850834
20
5.15782429554133
30
0
41
1
10
-0.374945775641891
20
5.1507540726119
30
0
41
1
10
-0.368929355824321
20
5.14835070696066
30
0
41
1
10
-0.35770867701234
20
5.14629827954846
30
0
41
1
10
-0.352495529695602
20
5.14618209741417
30
0
41
1
10
-0.342356257615734
20
5.14777530545462
30
0
41
1
10
-0.337316914191888
20
5.1495007928761
30
0
41
1
10
-0.32635373840418
20
5.15512166080455
30
0
41
1
10
-0.320571087776045
20
5.15961290941803
30
0
41
1
10
-0.306345382412019
20
5.17348963231112
30
0
41
1
10
-0.298929389281341
20
5.1841444040335
30
0
41
1
10
-0.27264918279883
20
5.22929437458617
30
0
41
1
10
-0.260939846150848
20
5.26761390191822
30
0
41
1
10
-0.210796530798689
20
5.46289223314824
30
0
41
1
10
-0.204366482898251
20
5.62478131775705
30
0
41
1
10
-0.200325121553306
20
5.8154278903541
30
0
41
1
10
-0.200000000000046
20
5.8484679854401
30
0
41
1
10
-0.200000000000046
20
5.88142452370542
30
0
0
SPLINE
5
E8
100
AcDbEntity
8
SK1
62
256
6
ByLayer
370
-1
48
1
60
0
100
AcDbSpline
70
4
71
3
72
30
73
26
40
0
40
0
40
0
40
0
40
0.0056618333773669
40
0.0508667583908923
40
0.0960716834044178
40
0.141276608417943
40
0.186481533431469
40
0.231686458444994
40
0.276891383458519
40
0.322096308472045
40
0.36730123348557
40
0.412506158499096
40
0.457711083512621
40
0.502916008526146
40
0.548120933539672
40
0.593325858553197
40
0.638530783566723
40
0.683735708580248
40
0.728940633593774
40
0.774145558607299
40
0.819350483620824
40
0.86455540863435
40
0.909760333647875
40
0.954965258661401
40
1
40
1
40
1
40
1
41
1
10
-0.400000000000034
20
-5.16866679574528
30
0
41
1
10
-0.400000000000034
20
-5.1981823917107
30
0
41
1
10
-0.400000000000034
20
-5.46426938707833
30
0
41
1
10
-0.400000000000034
20
-5.98219146197602
30
0
41
1
10
-0.400000000000034
20
-6.74713361247495
30
0
41
1
10
-0.400000000000034
20
-7.53968849279406
30
0
41
1
10
-0.400000000000034
20
-8.35230648563555
30
0
41
1
10
-0.400000000000034
20
-9.17636769820604
30
0
41
1
10
-0.400000000000034
20
-10.0024728331477
30
0
41
1
10
-0.400000000000034
20
-10.8207538150476
30
0
41
1
10
-0.400000000000034
20
-11.6212070931939
30
0
41
1
10
-0.400000000000034
20
-12.3940190774915
30
0
41
1
10
-0.400000000000034
20
-13.1298916243886
30
0
41
1
10
-0.400000000000034
20
-13.8203332490725
30
0
41
1
10
-0.400000000000034
20
-14.4579281585871
30
0
41
1
10
-0.400000000000034
20
-15.0365497976464
30
0
41
1
10
-0.400000000000034
20
-15.5515337877379
30
0
41
1
10
-0.400000000000034
20
-15.9997825456108
30
0
41
1
10
-0.400000000000034
20
-16.379817481596
30
0
41
1
10
-0.400000000000034
20
-16.6917603323907
30
0
41
1
10
-0.400000000000034
20
-16.9372586651848
30
0
41
1
10
-0.400000000000034
20
-17.1193485969266
30
0
41
1
10
-0.400000000000034
20
-17.2422669751987
30
0
41
1
10
-0.400000000000034
20
-17.311133444229
30
0
41
1
10
-0.400000000000034
20
-17.3250933704586
30
0
41
1
10
-0.400000000000034
20
-17.3251497957884
30
0
0
SPLINE
5
E9
100
AcDbEntity
8
SK1
62
256
6
ByLayer
370
-1
48
1
60
0
100
AcDbSpline
70
4
71
3
72
20
73
16
40
0
40
0
40
0
40
0
40
0.0482625705630821
40
0.0482625705630821
40
0.325220898600871
40
0.325220898600871
40
0.463381471375242
40
0.463381471375242
40
0.601551524429024
40
0.601551524429024
40
0.739735425197376
40
0.739735425197376
40
0.87793960350904
40
0.87793960350904
40
1
40
1
40
1
40
1
41
1
10
-2.19999999999999
20
15.024780913897
30
0
41
1
10
-2.19999999999999
20
15.0987632316058
30
0
41
1
10
-2.19999999163144
20
15.1713153633957
30
0
41
1
10
-2.19999985652709
20
15.6498272161843
30
0
41
1
10
-2.19999939887509
20
16.0101821224506
30
0
41
1
10
-2.19999683011554
20
16.4712024133173
30
0
41
1
10
-2.19999564996834
20
16.6117543332689
30
0
41
1
10
-2.19999230715831
20
16.8650200442632
30
0
41
1
10
-2.19999013861343
20
16.9778482087754
30
0
41
1
10
-2.19998437020206
20
17.1737303581388
30
0
41
1
10
-2.19998076728285
20
17.2568757984567
30
0
41
1
10
-2.19997155592222
20
17.390896629152
30
0
41
1
10
-2.19996594630391
20
17.4418577268988
30
0
41
1
10
-2.19995283284743
20
17.5043876537375
30
0
41
1
10
-2.19994561248376
20
17.5199107584762
30
0
41
1
10
-2.19993704319944
20
17.5200998959624
30
0
0
SPLINE
5
EA
100
AcDbEntity
8
SK1
62
256
6
ByLayer
370
-1
48
1
60
0
100
AcDbSpline
70
4
71
3
72
20
73
16
40
0
40
0
40
0
40
0
40
0.107709859730122
40
0.107709859730122
40
0.254805889945515
40
0.254805889945515
40
0.401872722914623
40
0.401872722914623
40
0.548920274148804
40
0.548920274148804
40
0.6959550767156
40
0.6959550767156
40
0.842981467919629
40
0.842981467919629
40
1
40
1
40
1
40
1
41
1
10
-2.19993655780456
20
-17.5200998571235
30
0
41
1
10
-2.19994418187719
20
-17.5204461970879
30
0
41
1
10
-2.19995074650438
20
-17.5087568436285
30
0
41
1
10
-2.19996422500265
20
-17.4552443316022
30
0
41
1
10
-2.19997041029711
20
-17.4038992989506
30
0
41
1
10
-2.19998045819511
20
-17.2645372816575
30
0
41
1
10
-2.19998432672412
20
-17.1764163911093
30
0
41
1
10
-2.19999043378135
20
-16.9665639550929
30
0
41
1
10
-2.19999267824221
20
-16.8447172876608
30
0
41
1
10
-2.19999607391787
20
-16.569798663462
30
0
41
1
10
-2.1999972302832
20
-16.4165791409565
30
0
41
1
10
-2.19999885859687
20
-16.0808080953317
30
0
41
1
10
-2.19999933084273
20
-15.8980848535623
30
0
41
1
10
-2.19999991533382
20
-15.4916218225697
30
0
41
1
10
-2.19999999999999
20
-15.2657541717873
30
0
41
1
10
-2.19999999999999
20
-15.0247808645654
30
0
0
SPLINE
5
EB
100
AcDbEntity
8
SK1
62
256
6
ByLayer
370
-1
48
1
60
0
100
AcDbSpline
70
4
71
3
72
73
73
69
40
0
40
0
40
0
40
0
40
0.0018466561169312
40
0.0173088925234934
40
0.0327711289300555
40
0.0482333653366177
40
0.0636956017431799
40
0.0791578381497421
40
0.0946200745563043
40
0.110082310962866
40
0.125544547369429
40
0.141006783775991
40
0.156469020182553
40
0.171931256589115
40
0.187393492995678
40
0.20285572940224
40
0.218317965808802
40
0.233780202215364
40
0.249242438621926
40
0.264704675028488
40
0.280166911435051
40
0.295629147841613
40
0.311091384248175
40
0.326553620654737
40
0.3420158570613
40
0.357478093467862
40
0.372940329874424
40
0.388402566280986
40
0.403864802687548
40
0.41932703909411
40
0.434789275500673
40
0.450251511907235
40
0.465713748313797
40
0.481175984720359
40
0.496638221126921
40
0.512100457533484
40
0.527562693940046
40
0.543024930346608
40
0.55848716675317
40
0.573949403159732
40
0.589411639566295
40
0.604873875972857
40
0.620336112379419
40
0.635798348785981
40
0.651260585192543
40
0.666722821599105
40
0.682185058005668
40
0.69764729441223
40
0.713109530818792
40
0.728571767225354
40
0.744034003631916
40
0.759496240038479
40
0.774958476445041
40
0.790420712851603
40
0.805882949258165
40
0.821345185664727
40
0.83680742207129
40
0.852269658477852
40
0.867731894884414
40
0.883194131290976
40
0.898656367697538
40
0.9141186041041
40
0.929580840510663
40
0.945043076917225
40
0.960505313323787
40
0.975967549730349
40
0.991429786136912
40
1
40
1
40
1
40
1
41
1
10
-28.5004731679065
20
16.5843275748057
30
0
41
1
10
-28.5004731679065
20
16.5890126478705
30
0
41
1
10
-28.5004731679065
20
16.6325284262555
30
0
41
1
10
-28.5004731679065
20
16.7076779742402
30
0
41
1
10
-28.5004731679065
20
16.7910009100058
30
0
41
1
10
-28.5004731679065
20
16.845797358011
30
0
41
1
10
-28.5004731679065
20
16.866111367971
30
0
41
1
10
-28.5004731679065
20
16.8457932960415
30
0
41
1
10
-28.5004731679065
20
16.7787920295583
30
0
41
1
10
-28.5004731679065
20
16.6594441325878
30
0
41
1
10
-28.5004731679065
20
16.4827618905288
30
0
41
1
10
-28.5004731679065
20
16.2446845781523
30
0
41
1
10
-28.5004731679065
20
15.9423067030317
30
0
41
1
10
-28.5004731679065
20
15.5740550609708
30
0
41
1
10
-28.5004731679065
20
15.1398218356871
30
0
41
1
10
-28.5004731679065
20
14.6410360299331
30
0
41
1
10
-28.5004731679065
20
14.0806798361698
30
0
41
1
10
-28.5004731679065
20
13.4632415716312
30
0
41
1
10
-28.5004731679065
20
12.7946107775085
30
0
41
1
10
-28.5004731679065
20
12.0819181856553
30
0
41
1
10
-28.5004731679065
20
11.3333237326368
30
0
41
1
10
-28.5004731679065
20
10.557766572068
30
0
41
1
10
-28.5004731679065
20
9.76467681695499
30
0
41
1
10
-28.5004731679065
20
8.96367263859332
30
0
41
1
10
-28.5004731679065
20
8.1642385298471
30
0
41
1
10
-28.5004731679065
20
7.37541494914308
30
0
41
1
10
-28.5004731679065
20
6.60549138939064
30
0
41
1
10
-28.5004731679065
20
5.86173553761287
30
0
41
1
10
-28.5004731679065
20
5.15014758540383
30
0
41
1
10
-28.5004731679065
20
4.47527023543958
30
0
41
1
10
-28.5004731679065
20
3.84004176429178
30
0
41
1
10
-28.5004731679065
20
3.2457162593208
30
0
41
1
10
-28.5004731679065
20
2.69183828529165
30
0
41
1
10
-28.5004731679065
20
2.17628628328657
30
0
41
1
10
-28.5004731679065
20
1.69537351492636
30
0
41
1
10
-28.5004731679065
20
1.2440090901581
30
0
41
1
10
-28.5004731679065
20
0.815910920503399
30
0
41
1
10
-28.5004731679065
20
0.403861164287008
30
0
41
1
10
-28.5004731679065
20
8.53071072E-08
30
0
41
1
10
-28.5004731679065
20
-0.403861505515522
30
0
41
1
10
-28.5004731679065
20
-0.815910763441792
30
0
41
1
10
-28.5004731679065
20
-1.24400937717621
30
0
41
1
10
-28.5004731679065
20
-1.69537339652362
30
0
41
1
10
-28.5004731679065
20
-2.17628646987961
30
0
41
1
10
-28.5004731679065
20
-2.69183822496621
30
0
41
1
10
-28.5004731679065
20
-3.24571631402981
30
0
41
1
10
-28.5004731679065
20
-3.84004177292727
30
0
41
1
10
-28.5004731679065
20
-4.47527014618885
30
0
41
1
10
-28.5004731679065
20
-5.15014766379647
30
0
41
1
10
-28.5004731679065
20
-5.86173531329331
30
0
41
1
10
-28.5004731679065
20
-6.60549152820974
30
0
41
1
10
-28.5004731679065
20
-7.37541461818648
30
0
41
1
10
-28.5004731679065
20
-8.16423871111451
30
0
41
1
10
-28.5004731679065
20
-8.96367224448036
30
0
41
1
10
-28.5004731679065
20
-9.76467701679073
30
0
41
1
10
-28.5004731679065
20
-10.5577661668381
30
0
41
1
10
-28.5004731679065
20
-11.3333239249003
30
0
41
1
10
-28.5004731679065
20
-12.0819178218315
30
0
41
1
10
-28.5004731679065
20
-12.7946109377403
30
0
41
1
10
-28.5004731679065
20
-13.4632412945279
30
0
41
1
10
-28.5004731679065
20
-14.0806799452206
30
0
41
1
10
-28.5004731679065
20
-14.6410358708333
30
0
41
1
10
-28.5004731679065
20
-15.1398218825485
30
0
41
1
10
-28.5004731679065
20
-15.5740550326248
30
0
41
1
10
-28.5004731679065
20
-15.942306686368
30
0
41
1
10
-28.5004731679065
20
-16.2446846731531
30
0
41
1
10
-28.5004731679065
20
-16.4473889051978
30
0
41
1
10
-28.5004731679065
20
-16.546015100524
30
0
41
1
10
-28.5004731679065
20
-16.5781578665788
30
0
0
SPLINE
5
EC
100
AcDbEntity
8
SK1
62
256
6
ByLayer
370
-1
48
1
60
0
100
AcDbSpline
70
4
71
3
72
79
73
75
40
0
40
0
40
0
40
0
40
0.0074030719680451
40
0.0214772709933054
40
0.0355514700185658
40
0.0496256690438261
40
0.0636998680690865
40
0.0777740670943468
40
0.0918482661196071
40
0.105922465144868
40
0.119996664170128
40
0.134070863195388
40
0.148145062220648
40
0.162219261245909
40
0.176293460271169
40
0.190367659296429
40
0.20444185832169
40
0.21851605734695
40
0.232590256372211
40
0.246664455397471
40
0.260738654422731
40
0.274812853447992
40
0.288887052473252
40
0.302961251498512
40
0.317035450523773
40
0.331109649549033
40
0.345183848574293
40
0.359258047599553
40
0.373332246624814
40
0.387406445650074
40
0.401480644675335
40
0.415554843700595
40
0.429629042725855
40
0.443703241751115
40
0.457777440776376
40
0.471851639801636
40
0.485925838826897
40
0.500000037852157
40
0.514074236877417
40
0.528148435902678
40
0.542222634927938
40
0.556296833953198
40
0.570371032978459
40
0.584445232003719
40
0.598519431028979
40
0.61259363005424
40
0.6266678290795
40
0.64074202810476
40
0.654816227130021
40
0.668890426155281
40
0.682964625180541
40
0.697038824205802
40
0.711113023231062
40
0.725187222256322
40
0.739261421281583
40
0.753335620306843
40
0.767409819332103
40
0.781484018357364
40
0.795558217382624
40
0.809632416407884
40
0.823706615433145
40
0.837780814458405
40
0.851855013483665
40
0.865929212508926
40
0.880003411534186
40
0.894077610559446
40
0.908151809584707
40
0.922226008609967
40
0.936300207635227
40
0.950374406660488
40
0.964448605685748
40
0.978522804711008
40
0.992597003736269
40
1
40
1
40
1
40
1
41
1
10
-2
20
17.1116144542389
30
0
41
1
10
-2
20
17.1306737735355
30
0
41
1
10
-2
20
17.1831798973923
30
0
41
1
10
-2
20
17.2550395308993
30
0
41
1
10
-2
20
17.3112459497451
30
0
41
1
10
-2
20
17.3321089735132
30
0
41
1
10
-2
20
17.3112189889209
30
0
41
1
10
-2
20
17.2422674474922
30
0
41
1
10
-2
20
17.1193484069474
30
0
41
1
10
-2
20
16.9372587367204
30
0
41
1
10
-2
20
16.6917602356259
30
0
41
1
10
-2
20
16.3798174953022
30
0
41
1
10
-2
20
15.9997825770269
30
0
41
1
10
-2
20
15.5515337348698
30
0
41
1
10
-2
20
15.0365499649754
30
0
41
1
10
-2
20
14.4579280405673
30
0
41
1
10
-2
20
13.8203335391023
30
0
41
1
10
-2
20
13.1298914527523
30
0
41
1
10
-2
20
12.39401945775
30
0
41
1
10
-2
20
11.6212068879994
30
0
41
1
10
-2
20
10.8207542384819
30
0
41
1
10
-2
20
10.00247262006
30
0
41
1
10
-2
20
9.17636811026827
30
0
41
1
10
-2
20
8.35230629219913
30
0
41
1
10
-2
20
7.53968883941312
30
0
41
1
10
-2
20
6.74713346409783
30
0
41
1
10
-2
20
5.98219169787032
30
0
41
1
10
-2
20
5.25109264883253
30
0
41
1
10
-2
20
4.55854550233684
30
0
41
1
10
-2
20
3.90758262960779
30
0
41
1
10
-2
20
3.29948777527221
30
0
41
1
10
-2
20
2.73375387844547
30
0
41
1
10
-2
20
2.20813463136872
30
0
41
1
10
-2
20
1.71876156390923
30
0
41
1
10
-2
20
1.26029526086333
30
0
41
1
10
-2
20
0.826158476850765
30
0
41
1
10
-2
20
0.408799134273892
30
0
41
1
10
-2
20
2.402494488E-07
30
0
41
1
10
-2
20
-0.408799553455736
30
0
41
1
10
-2
20
-0.82615842677356
30
0
41
1
10
-2
20
-1.26029551010325
30
0
41
1
10
-2
20
-1.71876142586774
30
0
41
1
10
-2
20
-2.20813448047156
30
0
41
1
10
-2
20
-2.7337537633878
30
0
41
1
10
-2
20
-3.29948825001514
30
0
41
1
10
-2
20
-3.90758266192117
30
0
41
1
10
-2
20
-4.55854530449344
30
0
41
1
10
-2
20
-5.25109273249788
30
0
41
1
10
-2
20
-5.98219146197602
30
0
41
1
10
-2
20
-6.74713361247495
30
0
41
1
10
-2
20
-7.53968849279406
30
0
41
1
10
-2
20
-8.35230648563552
30
0
41
1
10
-2
20
-9.17636769820604
30
0
41
1
10
-2
20
-10.0024728331477
30
0
41
1
10
-2
20
-10.8207538150476
30
0
41
1
10
-2
20
-11.6212070931939
30
0
41
1
10
-2
20
-12.3940190774915
30
0
41
1
10
-2
20
-13.1298916243886
30
0
41
1
10
-2
20
-13.8203332490725
30
0
41
1
10
-2
20
-14.4579281585871
30
0
41
1
10
-2
20
-15.0365497976464
30
0
41
1
10
-2
20
-15.5515337877379
30
0
41
1
10
-2
20
-15.9997825456108
30
0
41
1
10
-2
20
-16.379817481596
30
0
41
1
10
-2
20
-16.6917603323907
30
0
41
1
10
-2
20
-16.9372586651848
30
0
41
1
10
-2
20
-17.1193485969266
30
0
41
1
10
-2
20
-17.2422669751987
30
0
41
1
10
-2
20
-17.3112199736996
30
0
41
1
10
-2
20
-17.3321088799281
30
0
41
1
10
-2
20
-17.3112453434672
30
0
41
1
10
-2
20
-17.2550397180126
30
0
41
1
10
-2
20
-17.1831802766266
30
0
41
1
10
-2
20
-17.1306742506466
30
0
41
1
10
-2
20
-17.1116151100673
30
0
0
SPLINE
5
ED
100
AcDbEntity
8
SK1
62
256
6
ByLayer
370
-1
48
1
60
0
100
AcDbSpline
70
4
71
3
72
22
73
18
40
0
40
0
40
0
40
0
40
0.352684316750051
40
0.352684316750051
40
0.750046292484899
40
0.750046292484899
40
0.835479263400861
40
0.835479263400861
40
0.86935277413835
40
0.86935277413835
40
0.903637365464604
40
0.903637365464604
40
0.934112944215775
40
0.934112944215775
40
0.983611230456553
40
0.983611230456553
40
1
40
1
40
1
40
1
41
1
10
-1.30710678118658
20
3.80474436172742
30
0
41
1
10
-1.26637440296071
20
4.02584957204775
30
0
41
1
10
-1.21786346361694
20
4.24386265362048
30
0
41
1
10
-1.08311917044625
20
4.69265802851214
30
0
41
1
10
-1.00360006874376
20
4.93633956823067
30
0
41
1
10
-0.8033447497628
20
5.16879396055813
30
0
41
1
10
-0.761021311877812
20
5.20853400127967
30
0
41
1
10
-0.689167148695731
20
5.24561851051851
30
0
41
1
10
-0.666676206231386
20
5.25408214518689
30
0
41
1
10
-0.619919785859736
20
5.26355270960357
30
0
41
1
10
-0.595012690956537
20
5.26445496143654
30
0
41
1
10
-0.549926195162811
20
5.25839930645884
30
0
41
1
10
-0.529028206588009
20
5.25231844804927
30
0
41
1
10
-0.478237300450644
20
5.2307965704984
30
0
41
1
10
-0.449806665426422
20
5.21177878736736
30
0
41
1
10
-0.416050679082105
20
5.18357602352128
30
0
41
1
10
-0.407890864165267
20
5.17622805658175
30
0
41
1
10
-0.400000000000034
20
5.16866682996363
30
0
0
SPLINE
5
EE
100
AcDbEntity
8
SK1
62
256
6
ByLayer
370
-1
48
1
60
0
100
AcDbSpline
70
4
71
3
72
10
73
6
40
0
40
0
40
0
40
0
40
0.5
40
0.5
40
1
40
1
40
1
40
1
41
1
10
-1.30710678118658
20
3.80474436172742
30
0
41
1
10
-1.52921682270318
20
2.59907728352434
30
0
41
1
10
-1.70909405340865
20
1.31281235086666
30
0
41
1
10
-1.70963179300867
20
-1.30649832374493
30
0
41
1
10
-1.52966155970608
20
-2.5966617696443
30
0
41
1
10
-1.30710678118663
20
-3.80474664113297
30
0
0
SPLINE
5
EF
100
AcDbEntity
8
SK1
62
256
6
ByLayer
370
-1
48
1
60
0
100
AcDbSpline
70
4
71
3
72
22
73
18
40
0
40
0
40
0
40
0
40
0.0434921783994969
40
0.0434921783994969
40
0.0876860403067026
40
0.0876860403067026
40
0.118952127699588
40
0.118952127699588
40
0.1501558424283
40
0.1501558424283
40
0.196307791916001
40
0.196307791916001
40
0.283435745194102
40
0.283435745194102
40
0.579041181948967
40
0.579041181948967
40
1
40
1
40
1
40
1
41
1
10
-0.400000000000034
20
-5.16866679574528
30
0
41
1
10
-0.420550053748514
20
-5.18835839085108
30
0
41
1
10
-0.443027188827387
20
-5.20675192843447
30
0
41
1
10
-0.492732016073376
20
-5.23775963373393
30
0
41
1
10
-0.520750465867991
20
-5.25056923469424
30
0
41
1
10
-0.57132317141145
20
-5.26230651341535
30
0
41
1
10
-0.593569294960218
20
-5.26418855716773
30
0
41
1
10
-0.636876257397887
20
-5.26111275520464
30
0
41
1
10
-0.658413974519078
20
-5.25617334660447
30
0
41
1
10
-0.708019059178241
20
-5.23795018495881
30
0
41
1
10
-0.73522293133459
20
-5.22174262348992
30
0
41
1
10
-0.805307091704549
20
-5.16870577827882
30
0
41
1
10
-0.843008552736933
20
-5.12565182749091
30
0
41
1
10
-0.98697835479976
20
-4.93030734845306
30
0
41
1
10
-1.05565821402411
20
-4.75512394253201
30
0
41
1
10
-1.19912511806342
20
-4.32976589005261
30
0
41
1
10
-1.25838015422249
20
-4.06924736884375
30
0
41
1
10
-1.30710678118658
20
-3.80474664113271
30
0
0
SPLINE
5
F0
100
AcDbEntity
8
SK1
62
256
6
ByLayer
370
-1
48
1
60
0
100
AcDbSpline
70
4
71
3
72
14
73
10
40
0
40
0
40
0
40
0
40
0.10357574079845
40
0.255914577449822
40
0.408253414101195
40
0.560592250752568
40
0.712931087403941
40
0.865269924055314
40
1
40
1
40
1
40
1
41
1
10
-2.20000000000005
20
-15.0247808645648
30
0
41
1
10
-2.20000000000005
20
-14.8954704310019
30
0
41
1
10
-2.20000000000005
20
-14.5640748657279
30
0
41
1
10
-2.20000000000005
20
-13.9908991973699
30
0
41
1
10
-2.20000000000005
20
-13.2960635543425
30
0
41
1
10
-2.20000000000005
20
-12.5554382231013
30
0
41
1
10
-2.20000000000005
20
-11.7775050699617
30
0
41
1
10
-2.20000000000005
20
-11.0026045240078
30
0
41
1
10
-2.20000000000005
20
-10.4855729233102
30
0
41
1
10
-2.20000000000005
20
-10.2416915120114
30
0
0
SPLINE
5
F1
100
AcDbEntity
8
SK1
62
256
6
ByLayer
370
-1
48
1
60
0
100
AcDbSpline
70
4
71
3
72
41
73
37
40
0
40
0
40
0
40
0
40
0.003586261541826
40
0.0346121196535795
40
0.065637977765333
40
0.0966638358770865
40
0.12768969398884
40
0.158715552100593
40
0.189741410212347
40
0.220767268324101
40
0.251793126435854
40
0.282818984547608
40
0.313844842659361
40
0.344870700771115
40
0.375896558882868
40
0.406922416994622
40
0.437948275106375
40
0.468974133218129
40
0.499999991329882
40
0.531025849441636
40
0.562051707553389
40
0.593077565665143
40
0.624103423776896
40
0.65512928188865
40
0.686155140000403
40
0.717180998112157
40
0.74820685622391
40
0.779232714335664
40
0.810258572447417
40
0.841284430559171
40
0.872310288670924
40
0.903336146782678
40
0.934362004894431
40
0.965387863006185
40
0.996413721117938
40
1
40
1
40
1
40
1
41
1
10
-2.20000000000005
20
-10.2416915120114
30
0
41
1
10
-2.20000000000005
20
-10.2098170446198
30
0
41
1
10
-2.20000000000005
20
-9.90198508683847
30
0
41
1
10
-2.20000000000005
20
-9.3149808480191
30
0
41
1
10
-2.20000000000005
20
-8.48421552667966
30
0
41
1
10
-2.20000000000005
20
-7.66447545612931
30
0
41
1
10
-2.20000000000005
20
-6.86437716583347
30
0
41
1
10
-2.20000000000005
20
-6.09147129549578
30
0
41
1
10
-2.20000000000005
20
-5.35199475664402
30
0
41
1
10
-2.20000000000005
20
-4.6506671110304
30
0
41
1
10
-2.20000000000005
20
-3.99054255831777
30
0
41
1
10
-2.20000000000005
20
-3.37292400688881
30
0
41
1
10
-2.20000000000005
20
-2.79733805829036
30
0
41
1
10
-2.20000000000005
20
-2.26158054799637
30
0
41
1
10
-2.20000000000005
20
-1.76181929549949
30
0
41
1
10
-2.20000000000005
20
-1.29276519791185
30
0
41
1
10
-2.20000000000005
20
-0.847888335032877
30
0
41
1
10
-2.20000000000005
20
-0.419689842123091
30
0
41
1
10
-2.20000000000005
20
8.86504949E-08
30
0
41
1
10
-2.20000000000005
20
0.419689487520998
30
0
41
1
10
-2.20000000000005
20
0.847888498250114
30
0
41
1
10
-2.20000000000005
20
1.29276489964477
30
0
41
1
10
-2.20000000000005
20
1.7618194185427
30
0
41
1
10
-2.20000000000005
20
2.26158035409029
30
0
41
1
10
-2.20000000000005
20
2.79733812098013
30
0
41
1
10
-2.20000000000005
20
3.37292395003561
30
0
41
1
10
-2.20000000000005
20
3.99054254934384
30
0
41
1
10
-2.20000000000005
20
4.65066720377908
30
0
41
1
10
-2.20000000000005
20
5.35199467517899
30
0
41
1
10
-2.20000000000005
20
6.091471528607
30
0
41
1
10
-2.20000000000005
20
6.86437702157369
30
0
41
1
10
-2.20000000000005
20
7.66447580005692
30
0
41
1
10
-2.20000000000005
20
8.48421533830793
30
0
41
1
10
-2.20000000000005
20
9.31498125757835
30
0
41
1
10
-2.20000000000005
20
9.90198521620599
30
0
41
1
10
-2.20000000000005
20
10.2098173562794
30
0
41
1
10
-2.20000000000005
20
10.2416919827174
30
0
0
SPLINE
5
F2
100
AcDbEntity
8
1
62
256
6
ByLayer
370
-1
48
1
60
0
100
AcDbSpline
70
4
71
3
72
18
73
14
40
0
40
0
40
0
40
0
40
0.20078939044305
40
0.20078939044305
40
0.377000709014297
40
0.377000709014297
40
0.555030195767415
40
0.555030195767415
40
0.708449031094656
40
0.708449031094656
40
0.909268628826859
40
0.909268628826859
40
1
40
1
40
1
40
1
41
1
10
81.2904044292248
20
7.78175040056357
30
0
41
1
10
81.3322837806456
20
7.72647995651769
30
0
41
1
10
81.3831789889434
20
7.67619982409826
30
0
41
1
10
81.4928093767894
20
7.59871134817806
30
0
41
1
10
81.5511873063306
20
7.56870121418424
30
0
41
1
10
81.6758192880278
20
7.52819921598396
30
0
41
1
10
81.7441074959302
20
7.5175355249971
30
0
41
1
10
81.8686772936821
20
7.51859976263012
30
0
41
1
10
81.9267981744406
20
7.52735066218025
30
0
41
1
10
82.0523103235747
20
7.56307973350917
30
0
41
1
10
82.1192232456704
20
7.59519295579
30
0
41
1
10
82.2052381286454
20
7.6531614615399
30
0
41
1
10
82.2308358748301
20
7.67306670244321
30
0
41
1
10
82.2548859997204
20
7.69439189374467
30
0
0
SPLINE
5
F3
100
AcDbEntity
8
1
62
256
6
ByLayer
370
-1
48
1
60
0
100
AcDbSpline
70
4
71
3
72
16
73
12
40
0
40
0
40
0
40
0
40
0.195603494421475
40
0.195603494421475
40
0.418482091203847
40
0.418482091203847
40
0.651349075928094
40
0.651349075928094
40
0.904406691854185
40
0.904406691854185
40
1
40
1
40
1
40
1
41
1
10
83.3251263559262
20
6.21607868307086
30
0
41
1
10
83.3272593937418
20
6.24179167595858
30
0
41
1
10
83.3258049742496
20
6.26787493061442
30
0
41
1
10
83.3153844414535
20
6.32095389039077
30
0
41
1
10
83.3052485237846
20
6.34824098255586
30
0
41
1
10
83.2773302834536
20
6.39803031701925
30
0
41
1
10
83.2589006508803
20
6.4209037120205
30
0
41
1
10
83.2152362356592
20
6.46051181107339
30
0
41
1
10
83.1890278816617
20
6.47706347805266
30
0
41
1
10
83.1509772051203
20
6.49332314950644
30
0
41
1
10
83.1402549977486
20
6.49714956723926
30
0
41
1
10
83.1293785594075
20
6.50031841408088
30
0
0
SPLINE
5
F4
100
AcDbEntity
8
1
62
256
6
ByLayer
370
-1
48
1
60
0
100
AcDbSpline
70
4
71
3
72
12
73
8
40
0
40
0
40
0
40
0
40
0.271374515794625
40
0.271374515794625
40
0.726089128481895
40
0.726089128481895
40
1
40
1
40
1
40
1
41
1
10
80.7059502038543
20
7.08297983711401
30
0
41
1
10
80.7266536231928
20
7.12196647151396
30
0
41
1
10
80.7436511503601
20
7.16329258858096
30
0
41
1
10
80.7781142149818
20
7.27491563574603
30
0
41
1
10
80.7887515737687
20
7.34768459516246
30
0
41
1
10
80.7898900983348
20
7.4606993806841
30
0
41
1
10
80.7867341812183
20
7.50306396456861
30
0
41
1
10
80.7803073821796
20
7.54435042494703
30
0
0
SPLINE
5
F5
100
AcDbEntity
8
1
62
256
6
ByLayer
370
-1
48
1
60
0
100
AcDbSpline
70
4
71
3
72
18
73
14
40
0
40
0
40
0
40
0
40
0.202713902482866
40
0.202713902482866
40
0.378577798250507
40
0.378577798250507
40
0.556237511706098
40
0.556237511706098
40
0.709574277437496
40
0.709574277437496
40
0.91072372268996
40
0.91072372268996
40
1
40
1
40
1
40
1
41
1
10
82.717025849885
20
7.37236409764321
30
0
41
1
10
82.6928814672352
20
7.30497859708291
30
0
41
1
10
82.677652766445
20
7.23239810767001
30
0
41
1
10
82.67044944851
20
7.09425085725576
30
0
41
1
10
82.6757547533983
20
7.02745353630064
30
0
41
1
10
82.7059186557214
20
6.89835264123758
30
0
41
1
10
82.7316425213782
20
6.83424038313416
30
0
41
1
10
82.7949146986264
20
6.72900360508839
30
0
41
1
10
82.8310418850115
20
6.68461675362812
30
0
41
1
10
82.9227351807554
20
6.5981762804231
30
0
41
1
10
82.9822423966674
20
6.55946717818463
30
0
41
1
10
83.0719639016006
20
6.51917615978272
30
0
41
1
10
83.1004707269289
20
6.50874070185156
30
0
41
1
10
83.1293785594072
20
6.50031841407918
30
0
0
SPLINE
5
F6
100
AcDbEntity
8
1
62
256
6
ByLayer
370
-1
48
1
60
0
100
AcDbSpline
70
4
71
3
72
14
73
10
40
0
40
0
40
0
40
0
40
0.246085720309775
40
0.246085720309775
40
0.537159167814934
40
0.537159167814934
40
0.800232814130308
40
0.800232814130308
40
1
40
1
40
1
40
1
41
1
10
80.5856992899423
20
5.32213878521006
30
0
41
1
10
80.5764731545914
20
5.2968230765932
30
0
41
1
10
80.5711331034476
20
5.26924571996469
30
0
41
1
10
80.5696186202868
20
5.20764271128238
30
0
41
1
10
80.5753665000018
20
5.17234095613287
30
0
41
1
10
80.5993940533811
20
5.1084076053931
30
0
41
1
10
80.6168416818903
20
5.07850661604084
30
0
41
1
10
80.6558968073195
20
5.03249122533754
30
0
41
1
10
80.6758818828661
20
5.01430767779516
30
0
41
1
10
80.6976959180349
20
4.99910724514041
30
0
0
SPLINE
5
F7
100
AcDbEntity
8
1
62
256
6
ByLayer
370
-1
48
1
60
0
100
AcDbSpline
70
4
71
3
72
18
73
14
40
0
40
0
40
0
40
0
40
0.0493781911341434
40
0.0493781911341434
40
0.272471415471566
40
0.272471415471566
40
0.497583831765184
40
0.497583831765184
40
0.73652087454219
40
0.73652087454219
40
0.9985682669572
40
0.9985682669572
40
1
40
1
40
1
40
1
41
1
10
79.9858365751346
20
6.5045511356401
30
0
41
1
10
79.9852937500953
20
6.49800757777527
30
0
41
1
10
79.984970792124
20
6.49142714497185
30
0
41
1
10
79.9844112832573
20
6.45530694024444
30
0
41
1
10
79.9885168776929
20
6.42511314332609
30
0
41
1
10
80.0048976700986
20
6.36795964423618
30
0
41
1
10
80.0174334918363
20
6.34029734929516
30
0
41
1
10
80.0495601274524
20
6.28929363305241
30
0
41
1
10
80.0699134188894
20
6.26566641722505
30
0
41
1
10
80.1168567941767
20
6.22436198401914
30
0
41
1
10
80.1444276012097
20
6.20693487611248
30
0
41
1
10
80.1730321484445
20
6.19432263465308
30
0
41
1
10
80.1731893461842
20
6.19425348101441
30
0
41
1
10
80.1733465804204
20
6.19418446877398
30
0
0
SPLINE
5
F8
100
AcDbEntity
8
1
62
256
6
ByLayer
370
-1
48
1
60
0
100
AcDbSpline
70
4
71
3
72
18
73
14
40
0
40
0
40
0
40
0
40
0.207744657655249
40
0.207744657655249
40
0.382657913394371
40
0.382657913394371
40
0.559307324058577
40
0.559307324058577
40
0.712403642674613
40
0.712403642674613
40
0.914386309307786
40
0.914386309307786
40
1
40
1
40
1
40
1
41
1
10
82.0123207106028
20
4.91275248228956
30
0
41
1
10
81.9662589534869
20
4.96132000254084
30
0
41
1
10
81.9106522657776
20
5.00504562019455
30
0
41
1
10
81.7944520769768
20
5.07037295313231
30
0
41
1
10
81.7346314459898
20
5.09500786734151
30
0
41
1
10
81.6086676773399
20
5.12862396076582
30
0
41
1
10
81.5405422872101
20
5.13780017150563
30
0
41
1
10
81.4174337741603
20
5.13833449644326
30
0
41
1
10
81.3604332130746
20
5.13197771823513
30
0
41
1
10
81.2377964562652
20
5.10430781359585
30
0
41
1
10
81.1730191051562
20
5.07858386785557
30
0
41
1
10
81.0922597971554
20
5.03192962926039
30
0
41
1
10
81.0693499679895
20
5.01660195926382
30
0
41
1
10
81.0478391401033
20
5.00011098910736
30
0
0
SPLINE
5
F9
100
AcDbEntity
8
1
62
256
6
ByLayer
370
-1
48
1
60
0
100
AcDbSpline
70
4
71
3
72
20
73
16
40
0
40
0
40
0
40
0
40
0.0844273074194141
40
0.0844273074194141
40
0.28474128000146
40
0.28474128000146
40
0.446846736253891
40
0.446846736253891
40
0.609776684948135
40
0.609776684948135
40
0.762158550834714
40
0.762158550834714
40
0.978451835224895
40
0.978451835224895
40
1
40
1
40
1
40
1
41
1
10
80.5856992899425
20
5.32213878520997
30
0
41
1
10
80.5946850047857
20
5.34679480097762
30
0
41
1
10
80.6021249156184
20
5.37234508673959
30
0
41
1
10
80.6214419226153
20
5.46070061098672
30
0
41
1
10
80.6256263365702
20
5.52809309335896
30
0
41
1
10
80.6125621346148
20
5.6528896132707
30
0
41
1
10
80.5989493442165
20
5.71114133754699
30
0
41
1
10
80.5565640004867
20
5.82385047564236
30
0
41
1
10
80.5270938704338
20
5.87974147442301
30
0
41
1
10
80.4596168478197
20
5.97709307862027
30
0
41
1
10
80.4215774606513
20
6.02044002940829
30
0
41
1
10
80.3235015603551
20
6.11086775252781
30
0
41
1
10
80.2592921594991
20
6.15369661838153
30
0
41
1
10
80.1867223329738
20
6.18819315504868
30
0
41
1
10
80.1800464536526
20
6.19124380347603
30
0
41
1
10
80.1733465804204
20
6.19418446877401
30
0
0
SPLINE
5
FA
100
AcDbEntity
8
1
62
256
6
ByLayer
370
-1
48
1
60
0
100
AcDbSpline
70
4
71
3
72
12
73
8
40
0
40
0
40
0
40
0
40
0.317341143486295
40
0.317341143486295
40
0.784687649078605
40
0.784687649078605
40
1
40
1
40
1
40
1
41
1
10
82.5844942376531
20
5.57257364677767
30
0
41
1
10
82.5606767280501
20
5.52827062199265
30
0
41
1
10
82.5423451246293
20
5.48196471464726
30
0
41
1
10
82.5116342301425
20
5.36901593789716
30
0
41
1
10
82.5054796163291
20
5.30121201962825
30
0
41
1
10
82.511812806083
20
5.2073503068188
30
0
41
1
10
82.516029838934
20
5.17816992422766
30
0
41
1
10
82.5222862503493
20
5.14973537004113
30
0
0
SPLINE
5
FB
100
AcDbEntity
8
1
62
256
6
ByLayer
370
-1
48
1
60
0
100
AcDbSpline
70
4
71
3
72
14
73
10
40
0
40
0
40
0
40
0
40
0.267035486542284
40
0.267035486542284
40
0.555484264705537
40
0.555484264705537
40
0.816374332332866
40
0.816374332332866
40
1
40
1
40
1
40
1
41
1
10
81.2904044292249
20
7.78175040056365
30
0
41
1
10
81.2707123379298
20
7.80773911798994
30
0
41
1
10
81.2464218626718
20
7.83100393250817
30
0
41
1
10
81.1892193054757
20
7.86936674909407
30
0
41
1
10
81.1548224307936
20
7.88420145870103
30
0
41
1
10
81.0863171792979
20
7.89841769787051
30
0
41
1
10
81.0514459627159
20
7.89929273365283
30
0
41
1
10
80.9940478124897
20
7.88971746058792
30
0
41
1
10
80.9704103455304
20
7.88248561114227
30
0
41
1
10
80.9482477196926
20
7.87233271213611
30
0
0
SPLINE
5
FC
100
AcDbEntity
8
1
62
256
6
ByLayer
370
-1
48
1
60
0
100
AcDbSpline
70
4
71
3
72
14
73
10
40
0
40
0
40
0
40
0
40
0.27169883016216
40
0.27169883016216
40
0.557742147760777
40
0.557742147760777
40
0.816434430899631
40
0.816434430899631
40
1
40
1
40
1
40
1
41
1
10
80.2228196606364
20
6.75204721964732
30
0
41
1
10
80.1916024767561
20
6.7487502359098
30
0
41
1
10
80.1603529948987
20
6.73982102595124
30
0
41
1
10
80.1014175484829
20
6.71016560904434
30
0
41
1
10
80.0731131311538
20
6.68830915889566
30
0
41
1
10
80.0292896109959
20
6.63689573276247
30
0
41
1
10
80.0121901630357
20
6.60745369501663
30
0
41
1
10
79.9930377377298
20
6.553152558611
30
0
41
1
10
79.9878619289513
20
6.52896603719705
30
0
41
1
10
79.9858365751346
20
6.5045511356401
30
0
0
SPLINE
5
FD
100
AcDbEntity
8
1
62
256
6
ByLayer
370
-1
48
1
60
0
100
AcDbSpline
70
4
71
3
72
16
73
12
40
0
40
0
40
0
40
0
40
0.122141596630512
40
0.122141596630512
40
0.342358925435403
40
0.342358925435403
40
0.568673129368734
40
0.568673129368734
40
0.811987355758743
40
0.811987355758743
40
1
40
1
40
1
40
1
41
1
10
82.3627152113681
20
4.84829710657485
30
0
41
1
10
82.3775915897337
20
4.85511210982529
30
0
41
1
10
82.3919159723955
20
4.86313859428401
30
0
41
1
10
82.4294562893645
20
4.88839013393439
30
0
41
1
10
82.4510527344581
20
4.9082296654293
30
0
41
1
10
82.4866633967971
20
4.95227638867104
30
0
41
1
10
82.5009225985219
20
4.97713090157635
30
0
41
1
10
82.5213048543418
20
5.02984174658772
30
0
41
1
10
82.5270227658681
20
5.05843167891061
30
0
41
1
10
82.5288053243669
20
5.10779492456777
30
0
41
1
10
82.5268033237331
20
5.12920587487713
30
0
41
1
10
82.5222862503494
20
5.14973537004113
30
0
0
SPLINE
5
FE
100
AcDbEntity
8
1
62
256
6
ByLayer
370
-1
48
1
60
0
100
AcDbSpline
70
4
71
3
72
16
73
12
40
0
40
0
40
0
40
0
40
0.154304539116748
40
0.154304539116748
40
0.461953267004439
40
0.461953267004439
40
0.734692213169811
40
0.734692213169811
40
0.976335124283547
40
0.976335124283547
40
1
40
1
40
1
40
1
41
1
10
82.7170258498931
20
7.37236409763955
30
0
41
1
10
82.7235337000686
20
7.39052711087552
30
0
41
1
10
82.7284906283649
20
7.40946145998723
30
0
41
1
10
82.7380113960721
20
7.46703223695809
30
0
41
1
10
82.7373546459513
20
7.50781545584067
30
0
41
1
10
82.7211457367855
20
7.58135327904762
30
0
41
1
10
82.7069659056456
20
7.61561403632678
30
0
41
1
10
82.6694401325838
20
7.67241304351552
30
0
41
1
10
82.6467505271714
20
7.69664009328193
30
0
41
1
10
82.618471963902
20
7.71782862202946
30
0
41
1
10
82.6158847092156
20
7.71969851331133
30
0
41
1
10
82.6132670130257
20
7.72152257357055
30
0
0
SPLINE
5
FF
100
AcDbEntity
8
1
62
256
6
ByLayer
370
-1
48
1
60
0
100
AcDbSpline
70
4
71
3
72
12
73
8
40
0
40
0
40
0
40
0
40
0.488393557422307
40
0.488393557422307
40
0.89455178822608
40
0.89455178822608
40
1
40
1
40
1
40
1
41
1
10
83.0797739718925
20
5.94203857534083
30
0
41
1
10
83.0091498134085
20
5.92608366299905
30
0
41
1
10
82.9382038712906
20
5.89924497744144
30
0
41
1
10
82.8162907704384
20
5.83046245792929
30
0
41
1
10
82.7626706526501
20
5.79092141472754
30
0
41
1
10
82.7030550311655
20
5.73303194360506
30
0
41
1
10
82.6910826066989
20
5.72056957952464
30
0
41
1
10
82.6795835027577
20
5.70771479270903
30
0
0
SPLINE
5
100
100
AcDbEntity
8
1
62
256
6
ByLayer
370
-1
48
1
60
0
100
AcDbSpline
70
4
71
3
72
16
73
12
40
0
40
0
40
0
40
0
40
0.0440264941906631
40
0.0440264941906631
40
0.357486397051015
40
0.357486397051015
40
0.642750825362187
40
0.642750825362187
40
0.894043321613556
40
0.894043321613556
40
1
40
1
40
1
40
1
41
1
10
82.0123207106025
20
4.91275248228942
30
0
41
1
10
82.0158034932689
20
4.90908023597763
30
0
41
1
10
82.0194031429289
20
4.90548360893496
30
0
41
1
10
82.0492038110214
20
4.87727873024875
30
0
41
1
10
82.0815540366168
20
4.85634119464828
30
0
41
1
10
82.1501666004471
20
4.8290914806212
30
0
41
1
10
82.1869315374069
20
4.82127477164781
30
0
41
1
10
82.2568511900859
20
4.81933887574635
30
0
41
1
10
82.2909527360262
20
4.82372113896366
30
0
41
1
10
82.336527338588
20
4.83738904114543
30
0
41
1
10
82.3498707415382
20
4.84241293897102
30
0
41
1
10
82.3627152113681
20
4.84829710657485
30
0
0
SPLINE
5
101
100
AcDbEntity
8
1
62
256
6
ByLayer
370
-1
48
1
60
0
100
AcDbSpline
70
4
71
3
72
18
73
14
40
0
40
0
40
0
40
0
40
0.0504375316472826
40
0.0504375316472826
40
0.271428479072001
40
0.271428479072001
40
0.494507169092857
40
0.494507169092857
40
0.731352989647418
40
0.731352989647418
40
0.991146730116653
40
0.991146730116653
40
1
40
1
40
1
40
1
41
1
10
80.9482477196926
20
7.87233271213611
30
0
41
1
10
80.942069491689
20
7.86950241010351
30
0
41
1
10
80.9359832914969
20
7.86644041440951
30
0
41
1
10
80.9040790519721
20
7.8489052639992
30
0
41
1
10
80.88004070347
20
7.8301843646295
30
0
41
1
10
80.8392071118247
20
7.78692522167472
30
0
41
1
10
80.8219454736365
20
7.76179891800871
30
0
41
1
10
80.7950346236393
20
7.70725277925717
30
0
41
1
10
80.7855557556728
20
7.67699529633435
30
0
41
1
10
80.775223333021
20
7.61370462551952
30
0
41
1
10
80.7751292440877
20
7.57989706324881
30
0
41
1
10
80.7799684040548
20
7.54656535610724
30
0
41
1
10
80.7801351024114
20
7.54545716903246
30
0
41
1
10
80.7803073821796
20
7.54435042494703
30
0
0
SPLINE
5
102
100
AcDbEntity
8
1
62
256
6
ByLayer
370
-1
48
1
60
0
100
AcDbSpline
70
4
71
3
72
16
73
12
40
0
40
0
40
0
40
0
40
0.159806510802984
40
0.159806510802984
40
0.459469039614311
40
0.459469039614311
40
0.730299812587381
40
0.730299812587381
40
0.970418388029454
40
0.970418388029454
40
1
40
1
40
1
40
1
41
1
10
83.0797739718929
20
5.9420385753364
30
0
41
1
10
83.0989284322146
20
5.94636581607023
30
0
41
1
10
83.1180069017817
20
5.95254267247674
30
0
41
1
10
83.1709838579416
20
5.97542305415533
30
0
41
1
10
83.2042874161365
20
5.9971854396756
30
0
41
1
10
83.258031950742
20
6.04904623843569
30
0
41
1
10
83.2801847411938
20
6.07899840076868
30
0
41
1
10
83.3102486874238
20
6.14047112647194
30
0
41
1
10
83.3198896507928
20
6.17233328565962
30
0
41
1
10
83.3243814900549
20
6.20811949510122
30
0
41
1
10
83.3247961697292
20
6.21209840889384
30
0
41
1
10
83.3251263559262
20
6.21607868307086
30
0
0
SPLINE
5
103
100
AcDbEntity
8
1
62
256
6
ByLayer
370
-1
48
1
60
0
100
AcDbSpline
70
4
71
3
72
18
73
14
40
0
40
0
40
0
40
0
40
0.0360205456319615
40
0.0360205456319615
40
0.259442933375088
40
0.259442933375088
40
0.484111583055717
40
0.484111583055717
40
0.721978445241594
40
0.721978445241594
40
0.982493110639858
40
0.982493110639858
40
1
40
1
40
1
40
1
41
1
10
80.6976959180349
20
4.99910724514041
30
0
41
1
10
80.7016581876595
20
4.99634626065856
30
0
41
1
10
80.7056883944165
20
4.99367487146716
30
0
41
1
10
80.7348960518208
20
4.97527562749252
30
0
41
1
10
80.7626900692385
20
4.96292752221015
30
0
41
1
10
80.8191466215204
20
4.94682800581276
30
0
41
1
10
80.8485287023878
20
4.9428986252982
30
0
41
1
10
80.9066953420503
20
4.94319748841477
30
0
41
1
10
80.9360741537691
20
4.94789210898588
30
0
41
1
10
80.9924608674423
20
4.96554535299342
30
0
41
1
10
81.0196974541962
20
4.97943720312213
30
0
41
1
10
81.044705017641
20
4.99773594404411
30
0
41
1
10
81.0462802036844
20
4.99891585267955
30
0
41
1
10
81.0478391401045
20
5.00011098910642
30
0
0
SPLINE
5
104
100
AcDbEntity
8
1
62
256
6
ByLayer
370
-1
48
1
60
0
100
AcDbSpline
70
4
71
3
72
12
73
8
40
0
40
0
40
0
40
0
40
0.405648976813025
40
0.405648976813025
40
0.827005177841086
40
0.827005177841086
40
1
40
1
40
1
40
1
41
1
10
80.2228196606364
20
6.7520472196473
30
0
41
1
10
80.279234193197
20
6.75800540591823
30
0
41
1
10
80.3358332487589
20
6.77175513363196
30
0
41
1
10
80.4467460732174
20
6.81684407302942
30
0
41
1
10
80.5021575183879
20
6.84956761638867
30
0
41
1
10
80.5725473460789
20
6.90867239055098
30
0
41
1
10
80.5922913152118
20
6.92755608362117
30
0
41
1
10
80.6108609387501
20
6.94783869118331
30
0
0
SPLINE
5
105
100
AcDbEntity
8
1
62
256
6
ByLayer
370
-1
48
1
60
0
100
AcDbSpline
70
4
71
3
72
16
73
12
40
0
40
0
40
0
40
0
40
0.201555109581222
40
0.201555109581222
40
0.424552979255454
40
0.424552979255454
40
0.657846163824795
40
0.657846163824795
40
0.911569053939877
40
0.911569053939877
40
1
40
1
40
1
40
1
41
1
10
82.6132670130257
20
7.72152257357055
30
0
41
1
10
82.5913054082541
20
7.73682583551809
30
0
41
1
10
82.5668719428762
20
7.74900809935329
30
0
41
1
10
82.513732539493
20
7.76654411309087
30
0
41
1
10
82.4841674622568
20
7.77124602697091
30
0
41
1
10
82.4249786313928
20
7.77157012357563
30
0
41
1
10
82.3946723744021
20
7.76679721049015
30
0
41
1
10
82.3356275843085
20
7.74819843971645
30
0
41
1
10
82.3065100547214
20
7.73341760751779
30
0
41
1
10
82.2717732156067
20
7.70859957442613
30
0
41
1
10
82.2631240404349
20
7.70169654580135
30
0
41
1
10
82.2548859997191
20
7.69439189374586
30
0
0
LINE
5
4A
100
AcDbEntity
8
80
62
256
6
ByLayer
370
-1
48
1
60
0
100
AcDbLine
10
0
20
0
30
0
11
-10
21
0
31
0
39
0
210
0
220
0
230
1
0
LINE
5
4B
100
AcDbEntity
8
81
62
256
6
ByLayer
370
-1
48
1
60
0
100
AcDbLine
10
90
20
17.9
30
0
11
100
21
17.9
31
0
39
0
210
0
220
0
230
1
0
LINE
5
4C
100
AcDbEntity
8
SK4
62
256
6
ByLayer
370
-1
48
0.05
60
0
100
AcDbLine
10
-35
20
0
30
0
11
94.6734
21
0
31
0
39
0
210
0
220
0
230
1
0
LINE
5
4E
100
AcDbEntity
8
4
62
256
6
ByLayer
370
-1
48
0.05
60
0
100
AcDbLine
10
0
20
0
30
0
11
124.6734
21
0
31
0
39
0
210
0
220
0
230
1
0
LINE
5
50
100
AcDbEntity
8
1
62
256
6
ByLayer
370
-1
48
1
60
0
100
AcDbLine
10
80.584813
20
5.317428
30
0
11
80.594072
21
5.346792
31
0
39
0
210
0
220
0
230
1
0
LINE
5
51
100
AcDbEntity
8
1
62
256
6
ByLayer
370
-1
48
1
60
0
100
AcDbLine
10
84.106058
20
5.403088
30
0
11
84.148575
21
5.537934
31
0
39
0
210
0
220
0
230
1
0
LINE
5
52
100
AcDbEntity
8
1
62
256
6
ByLayer
370
-1
48
1
60
0
100
AcDbLine
10
79.141561
20
7.11664
30
0
11
79.099044
21
6.981793
31
0
39
0
210
0
220
0
230
1
0
LINE
5
53
100
AcDbEntity
8
1
62
256
6
ByLayer
370
-1
48
1
60
0
100
AcDbLine
10
82.537034
20
5.460481
30
0
11
82.492449
21
5.319077
31
0
39
0
210
0
220
0
230
1
0
LINE
5
54
100
AcDbEntity
8
1
62
256
6
ByLayer
370
-1
48
1
60
0
100
AcDbLine
10
82.707645
20
7.344513
30
0
11
82.65837
21
7.188234
31
0
39
0
210
0
220
0
230
1
0
LINE
5
55
100
AcDbEntity
8
1
62
256
6
ByLayer
370
-1
48
1
60
0
100
AcDbLine
10
80.710762
20
7.059809
30
0
11
80.755285
21
7.201018
31
0
39
0
210
0
220
0
230
1
0
LINE
5
56
100
AcDbEntity
8
1
62
256
6
ByLayer
370
-1
48
1
60
0
100
AcDbLine
10
73.345208
20
-4.524086
30
0
11
73.367068
21
-4.611845
31
0
39
0
210
0
220
0
230
1
0
LINE
5
57
100
AcDbEntity
8
1
62
256
6
ByLayer
370
-1
48
1
60
0
100
AcDbLine
10
19.5
20
25
30
0
11
0.3
21
25
31
0
39
0
210
0
220
0
230
1
0
LINE
5
58
100
AcDbEntity
8
1
62
256
6
ByLayer
370
-1
48
1
60
0
100
AcDbLine
10
0.3
20
-25
30
0
11
19.5
21
-25
31
0
39
0
210
0
220
0
230
1
0
LINE
5
59
100
AcDbEntity
8
1
62
256
6
ByLayer
370
-1
48
1
60
0
100
AcDbLine
10
0.3
20
25
30
0
11
0
21
24.7
31
0
39
0
210
0
220
0
230
1
0
LINE
5
5A
100
AcDbEntity
8
1
62
256
6
ByLayer
370
-1
48
1
60
0
100
AcDbLine
10
0
20
-24.7
30
0
11
0.3
21
-25
31
0
39
0
210
0
220
0
230
1
0
LINE
5
5B
100
AcDbEntity
8
1
62
256
6
ByLayer
370
-1
48
1
60
0
100
AcDbLine
10
19.5
20
-25
30
0
11
21.620323
21
-16.968472
31
0
39
0
210
0
220
0
230
1
0
LINE
5
5C
100
AcDbEntity
8
1
62
256
6
ByLayer
370
-1
48
1
60
0
100
AcDbLine
10
21.620323
20
16.968472
30
0
11
19.5
21
25
31
0
39
0
210
0
220
0
230
1
0
LINE
5
5D
100
AcDbEntity
8
1
62
256
6
ByLayer
370
-1
48
1
60
0
100
AcDbLine
10
69.106403
20
12.5
30
0
11
27.421567
21
12.5
31
0
39
0
210
0
220
0
230
1
0
LINE
5
5E
100
AcDbEntity
8
1
62
256
6
ByLayer
370
-1
48
1
60
0
100
AcDbLine
10
27.421567
20
-12.5
30
0
11
71.896736
21
-12.5
31
0
39
0
210
0
220
0
230
1
0
LINE
5
5F
100
AcDbEntity
8
1
62
256
6
ByLayer
370
-1
48
1
60
0
100
AcDbLine
10
72.1314
20
-3.295714
30
0
11
74.086721
21
-1.806955
31
0
39
0
210
0
220
0
230
1
0
LINE
5
60
100
AcDbEntity
8
1
62
256
6
ByLayer
370
-1
48
1
60
0
100
AcDbLine
10
11.894338
20
8.055848
30
0
11
11.894338
21
23.666502
31
0
39
0
210
0
220
0
230
1
0
LINE
5
61
100
AcDbEntity
8
1
62
256
6
ByLayer
370
-1
48
1
60
0
100
AcDbLine
10
19.5
20
-25
30
0
11
19.5
21
25
31
0
39
0
210
0
220
0
230
1
0
LINE
5
62
100
AcDbEntity
8
1
62
256
6
ByLayer
370
-1
48
1
60
0
100
AcDbLine
10
8.538675
20
23.83913
30
0
11
11.461325
21
23.83913
31
0
39
0
210
0
220
0
230
1
0
LINE
5
63
100
AcDbEntity
8
1
62
256
6
ByLayer
370
-1
48
1
60
0
100
AcDbLine
10
74.312047
20
-1.092336
30
0
11
72.216268
21
-2.688038
31
0
39
0
210
0
220
0
230
1
0
LINE
5
64
100
AcDbEntity
8
1
62
256
6
ByLayer
370
-1
48
1
60
0
100
AcDbLine
10
21.620323
20
-16.968472
30
0
11
21.620323
21
16.968472
31
0
39
0
210
0
220
0
230
1
0
LINE
5
65
100
AcDbEntity
8
1
62
256
6
ByLayer
370
-1
48
1
60
0
100
AcDbLine
10
74.206465
20
-5.476459
30
0
11
74.306941
21
-5.15779
31
0
39
0
210
0
220
0
230
1
0
LINE
5
66
100
AcDbEntity
8
1
62
256
6
ByLayer
370
-1
48
1
60
0
100
AcDbLine
10
84.962537
20
1.817406
30
0
11
82.725555
21
-5.277396
31
0
39
0
210
0
220
0
230
1
0
LINE
5
67
100
AcDbEntity
8
1
62
256
6
ByLayer
370
-1
48
1
60
0
100
AcDbLine
10
76.174242
20
7.941257
30
0
11
76.982694
21
7.377912
31
0
39
0
210
0
220
0
230
1
0
LINE
5
68
100
AcDbEntity
8
1
62
256
6
ByLayer
370
-1
48
1
60
0
100
AcDbLine
10
72.1314
20
-3.295714
30
0
11
72.23348
21
-2.971957
31
0
39
0
210
0
220
0
230
1
0
LINE
5
69
100
AcDbEntity
8
1
62
256
6
ByLayer
370
-1
48
1
60
0
100
AcDbLine
10
72.23348
20
-2.971957
30
0
11
74.188801
21
-1.483197
31
0
39
0
210
0
220
0
230
1
0
LINE
5
6A
100
AcDbEntity
8
1
62
256
6
ByLayer
370
-1
48
1
60
0
100
AcDbLine
10
0
20
-24.7
30
0
11
0
21
24.7
31
0
39
0
210
0
220
0
230
1
0
LINE
5
6B
100
AcDbEntity
8
1
62
256
6
ByLayer
370
-1
48
1
60
0
100
AcDbLine
10
8.538675
20
-7.529667
30
0
11
11.461325
21
-7.529667
31
0
39
0
210
0
220
0
230
1
0
LINE
5
6C
100
AcDbEntity
8
1
62
256
6
ByLayer
370
-1
48
1
60
0
100
AcDbLine
10
72.642331
20
9.133085
30
0
11
69.288459
21
12.465189
31
0
39
0
210
0
220
0
230
1
0
LINE
5
6D
100
AcDbEntity
8
1
62
256
6
ByLayer
370
-1
48
1
60
0
100
AcDbLine
10
8.538675
20
-23.83913
30
0
11
8.538675
21
-7.529667
31
0
39
0
210
0
220
0
230
1
0
LINE
5
6E
100
AcDbEntity
8
1
62
256
6
ByLayer
370
-1
48
1
60
0
100
AcDbLine
10
8.105662
20
-23.666502
30
0
11
8.105662
21
-8.055848
31
0
39
0
210
0
220
0
230
1
0
LINE
5
6F
100
AcDbEntity
8
1
62
256
6
ByLayer
370
-1
48
1
60
0
100
AcDbLine
10
0.3
20
-25
30
0
11
0.3
21
25
31
0
39
0
210
0
220
0
230
1
0
LINE
5
70
100
AcDbEntity
8
1
62
256
6
ByLayer
370
-1
48
1
60
0
100
AcDbLine
10
11.461325
20
7.529667
30
0
11
8.538675
21
7.529667
31
0
39
0
210
0
220
0
230
1
0
LINE
5
71
100
AcDbEntity
8
1
62
256
6
ByLayer
370
-1
48
1
60
0
100
AcDbLine
10
27.421567
20
12.5
30
0
11
27.421567
21
-12.5
31
0
39
0
210
0
220
0
230
1
0
LINE
5
72
100
AcDbEntity
8
1
62
256
6
ByLayer
370
-1
48
1
60
0
100
AcDbLine
10
71.896736
20
-12.5
30
0
11
72.75902
21
-11.924874
31
0
39
0
210
0
220
0
230
1
0
LINE
5
73
100
AcDbEntity
8
1
62
256
6
ByLayer
370
-1
48
1
60
0
100
AcDbLine
10
11.461325
20
-23.83913
30
0
11
11.461325
21
-7.529667
31
0
39
0
210
0
220
0
230
1
0
LINE
5
74
100
AcDbEntity
8
1
62
256
6
ByLayer
370
-1
48
1
60
0
100
AcDbLine
10
65.928547
20
12.454844
30
0
11
72.49505
21
-11.921823
31
0
39
0
210
0
220
0
230
1
0
LINE
5
75
100
AcDbEntity
8
1
62
256
6
ByLayer
370
-1
48
1
60
0
100
AcDbLine
10
11.894338
20
-23.666502
30
0
11
11.894338
21
-8.055848
31
0
39
0
210
0
220
0
230
1
0
LINE
5
76
100
AcDbEntity
8
1
62
256
6
ByLayer
370
-1
48
1
60
0
100
AcDbLine
10
8.538675
20
7.529667
30
0
11
8.538675
21
23.83913
31
0
39
0
210
0
220
0
230
1
0
LINE
5
77
100
AcDbEntity
8
1
62
256
6
ByLayer
370
-1
48
1
60
0
100
AcDbLine
10
71.977528
20
-5.079583
30
0
11
71.875448
21
-5.403341
31
0
39
0
210
0
220
0
230
1
0
LINE
5
78
100
AcDbEntity
8
1
62
256
6
ByLayer
370
-1
48
1
60
0
100
AcDbLine
10
11.461325
20
7.529667
30
0
11
11.461325
21
23.83913
31
0
39
0
210
0
220
0
230
1
0
LINE
5
79
100
AcDbEntity
8
1
62
256
6
ByLayer
370
-1
48
1
60
0
100
AcDbLine
10
11.461325
20
-23.83913
30
0
11
8.538675
21
-23.83913
31
0
39
0
210
0
220
0
230
1
0
LINE
5
7A
100
AcDbEntity
8
1
62
256
6
ByLayer
370
-1
48
1
60
0
100
AcDbLine
10
8.105662
20
8.055848
30
0
11
8.105662
21
23.666502
31
0
39
0
210
0
220
0
230
1
0
LINE
5
7B
100
AcDbEntity
8
1
62
256
6
ByLayer
370
-1
48
1
60
0
100
AcDbLine
10
72.216268
20
-2.688038
30
0
11
72.23348
21
-2.971957
31
0
39
0
210
0
220
0
230
1
0
LINE
5
7C
100
AcDbEntity
8
1
62
256
6
ByLayer
370
-1
48
1
60
0
100
AcDbLine
10
84.962537
20
1.817406
30
0
11
84.195923
21
2.351598
31
0
39
0
210
0
220
0
230
1
0
LINE
5
7D
100
AcDbEntity
8
1
62
256
6
ByLayer
370
-1
48
1
60
0
100
AcDbLine
10
72.75902
20
-11.924874
30
0
11
82.725555
21
-5.277396
31
0
39
0
210
0
220
0
230
1
0
LINE
5
7E
100
AcDbEntity
8
SK1
62
256
6
ByLayer
370
-1
48
1
60
0
100
AcDbLine
10
-1.307107
20
3.804744
30
0
11
-1.307107
21
-3.804747
31
0
39
0
210
0
220
0
230
1
0
LINE
5
80
100
AcDbEntity
8
SK1
62
256
6
ByLayer
370
-1
48
1
60
0
100
AcDbLine
10
-0.4
20
17.32515
30
0
11
-0.4
21
5.168667
31
0
39
0
210
0
220
0
230
1
0
LINE
5
81
100
AcDbEntity
8
SK1
62
256
6
ByLayer
370
-1
48
1
60
0
100
AcDbLine
10
-0.2
20
-5.881424
30
0
11
-0.2
21
-17.833485
31
0
39
0
210
0
220
0
230
1
0
LINE
5
82
100
AcDbEntity
8
SK1
62
256
6
ByLayer
370
-1
48
1
60
0
100
AcDbLine
10
-0.2
20
17.833485
30
0
11
-0.2
21
5.881425
31
0
39
0
210
0
220
0
230
1
0
LINE
5
83
100
AcDbEntity
8
SK1
62
256
6
ByLayer
370
-1
48
1
60
0
100
AcDbLine
10
-30
20
-15.939791
30
0
11
-30
21
15.941288
31
0
39
0
210
0
220
0
230
1
0
LINE
5
84
100
AcDbEntity
8
1
62
256
6
ByLayer
370
-1
48
1
60
0
100
AcDbLine
10
73.334884
20
-4.19151
30
0
11
77.535127
21
9.12996
31
0
39
0
210
0
220
0
230
1
0
LINE
5
85
100
AcDbEntity
8
1
62
256
6
ByLayer
370
-1
48
1
60
0
100
AcDbLine
10
85.661411
20
3.467412
30
0
11
74.518774
21
-5.016467
31
0
39
0
210
0
220
0
230
1
0
LINE
5
86
100
AcDbEntity
8
1
62
256
6
ByLayer
370
-1
48
1
60
0
100
AcDbLine
10
89.998567
20
16.983461
30
0
11
85.798323
21
3.661991
31
0
39
0
210
0
220
0
230
1
0
LINE
5
87
100
AcDbEntity
8
1
62
256
6
ByLayer
370
-1
48
1
60
0
100
AcDbLine
10
77.672039
20
9.32454
30
0
11
88.814677
21
17.808418
31
0
39
0
210
0
220
0
230
1
0
LINE
5
88
100
AcDbEntity
8
1
62
256
6
ByLayer
370
-1
48
1
60
0
100
AcDbLine
10
82.472595
20
4.992135
30
0
11
82.522286
21
5.149735
31
0
39
0
210
0
220
0
230
1
0
LINE
5
89
100
AcDbEntity
8
1
62
256
6
ByLayer
370
-1
48
1
60
0
100
AcDbLine
10
83.079622
20
6.34251
30
0
11
83.129379
21
6.500318
31
0
39
0
210
0
220
0
230
1
0
LINE
5
8A
100
AcDbEntity
8
1
62
256
6
ByLayer
370
-1
48
1
60
0
100
AcDbLine
10
82.205129
20
7.536583
30
0
11
82.254886
21
7.694392
31
0
39
0
210
0
220
0
230
1
0
LINE
5
8B
100
AcDbEntity
8
1
62
256
6
ByLayer
370
-1
48
1
60
0
100
AcDbLine
10
81.240648
20
7.623942
30
0
11
81.290404
21
7.78175
31
0
39
0
210
0
220
0
230
1
0
LINE
5
8C
100
AcDbEntity
8
1
62
256
6
ByLayer
370
-1
48
1
60
0
100
AcDbLine
10
80.173129
20
6.594447
30
0
11
80.22282
21
6.752047
31
0
39
0
210
0
220
0
230
1
0
LINE
5
8D
100
AcDbEntity
8
2
62
256
6
ByLayer
370
-1
48
1
60
1
100
AcDbLine
10
90
20
0
30
0
11
90.001
21
0.001
31
0
39
0
210
0
220
0
230
1
0
MTEXT
5
106
100
AcDbEntity
8
SK6
62
256
6
ByLayer
370
-1
48
1
60
0
100
AcDbMText
10
-2.2883
20
-35.875
30
0
210
0
220
0
230
1
1
\W00.729;\fsimplex.shx,bigfont.shx;C5-SVQBR-18090-16 
40
3.5
41
0
44
1.084337
50
0
71
7
72
5
7
DEFAULT
0
DIMENSION
5
13A
100
AcDbEntity
8
SK2
62
256
6
ByLayer
370
-3
48
1
60
0
100
AcDbDimension
2
DimnDraft3D1
10
-42.75
20
25
30
0
11
-42.75
21
-4.784211
31
0
70
32
71
5
72
1
41
1
210
0
220
0
230
1
3
Standard
100
AcDbAlignedDimension
13
-2
23
-25
33
0
14
-2
24
25
34
0
50
90
100
AcDbRotatedDimension
1001
ACAD
1000
DSTYLE
1002
{
1070
    74
1070
     0
1070
   279
1070
     0
1070
   172
1070
     1
1070
   173
1070
     1
1070
   340
1005
107
1070
    77
1070
     1
1070
    73
1070
     0
1070
   171
1070
     4
1070
   274
1070
     4
1070
   177
1070
     2
1070
   176
1070
     2
1070
   178
1070
     7
1070
    78
1070
     8
1070
    41
1041
3.175
1070
   147
1041
2.25
1070
    42
1041
2.0
1070
    44
1041
2.0
1070
   140
1041
4.5
1070
   343
1005
13B
1070
   344
1005
13B
1002
}
0
DIMENSION
5
14D
100
AcDbEntity
8
2
62
256
6
ByLayer
370
-3
48
1
60
0
100
AcDbDimension
2
DimnDraft3D2
10
38.05
20
12.5
30
0
11
38.05
21
0
31
0
70
32
71
5
72
1
41
1
210
0
220
0
230
1
3
Standard
100
AcDbAlignedDimension
13
22.8
23
12.5
33
0
14
0
24
0
34
0
50
90
100
AcDbRotatedDimension
1001
ACAD
1000
DSTYLE
1002
{
1070
    74
1070
     0
1070
   279
1070
     0
1070
   172
1070
     1
1070
   173
1070
     1
1070
   340
1005
107
1070
    75
1070
     1
1070
    76
1070
     1
1070
    77
1070
     1
1070
    73
1070
     0
1070
   171
1070
     4
1070
   274
1070
     4
1070
   177
1070
     2
1070
   176
1070
     2
1070
   178
1070
     7
1070
    78
1070
     8
1070
    41
1041
3.175
1070
   147
1041
2.25
1070
    42
1041
2.0
1070
    44
1041
2.0
1070
   140
1041
4.5
1070
   343
1005
13B
1070
   344
1005
13B
1002
}
0
DIMENSION
5
15B
100
AcDbEntity
8
2
62
256
6
ByLayer
370
-3
48
1
60
0
100
AcDbDimension
2
DimnDraft3D3
10
102.25
20
0
30
0
11
102.25
21
4.349342
31
0
70
32
71
5
72
1
41
1
210
0
220
0
230
1
3
Standard
100
AcDbAlignedDimension
13
92
23
17.9
33
0
14
92
24
0
34
0
50
90
100
AcDbRotatedDimension
1001
ACAD
1000
DSTYLE
1002
{
1070
    74
1070
     0
1070
   279
1070
     0
1070
   172
1070
     1
1070
   173
1070
     1
1070
   340
1005
107
1070
    77
1070
     1
1070
    73
1070
     0
1070
   171
1070
     4
1070
   274
1070
     4
1070
   177
1070
     2
1070
   176
1070
     2
1070
   178
1070
     7
1070
    78
1070
     8
1070
    41
1041
3.175
1070
   147
1041
2.25
1070
    42
1041
2.0
1070
    44
1041
2.0
1070
   140
1041
4.5
1070
   343
1005
13B
1070
   344
1005
13B
1002
}
0
DIMENSION
5
169
100
AcDbEntity
8
2
62
256
6
ByLayer
370
-3
48
1
60
0
100
AcDbDimension
2
DimnDraft3D4
10
90
20
45.65
30
0
11
39.836842
21
45.65
31
0
70
32
71
5
72
1
41
1
210
0
220
0
230
1
3
Standard
100
AcDbAlignedDimension
13
0
23
27
33
0
14
90
24
19.9
34
0
50
0
100
AcDbRotatedDimension
1001
ACAD
1000
DSTYLE
1002
{
1070
   279
1070
     0
1070
   172
1070
     1
1070
   173
1070
     1
1070
   340
1005
107
1070
    77
1070
     1
1070
    73
1070
     0
1070
   171
1070
     4
1070
   274
1070
     4
1070
   177
1070
     2
1070
   176
1070
     2
1070
   178
1070
     7
1070
    78
1070
     8
1070
    41
1041
3.175
1070
   147
1041
2.25
1070
    42
1041
2.0
1070
    44
1041
2.0
1070
   140
1041
4.5
1070
   343
1005
13B
1070
   344
1005
13B
1002
}
0
DIMENSION
5
177
100
AcDbEntity
8
2
62
256
6
ByLayer
370
-3
48
1
60
0
100
AcDbDimension
2
DimnDraft3D5
10
90
20
30.65
30
0
11
51.236842
21
30.65
31
0
70
32
71
5
72
1
41
1
210
0
220
0
230
1
3
Standard
100
AcDbAlignedDimension
13
22.8
23
14.5
33
0
14
90
24
19.9
34
0
50
0
100
AcDbRotatedDimension
1001
ACAD
1000
DSTYLE
1002
{
1070
   279
1070
     0
1070
   172
1070
     1
1070
   173
1070
     1
1070
   340
1005
107
1070
    77
1070
     1
1070
    73
1070
     0
1070
   171
1070
     4
1070
   274
1070
     4
1070
   177
1070
     2
1070
   176
1070
     2
1070
   178
1070
     7
1070
    78
1070
     8
1070
    41
1041
3.175
1070
   147
1041
2.25
1070
    42
1041
2.0
1070
    44
1041
2.0
1070
   140
1041
4.5
1070
   343
1005
13B
1070
   344
1005
13B
1002
}
0
DIMENSION
5
185
100
AcDbEntity
8
2
62
256
6
ByLayer
370
-3
48
1
60
0
100
AcDbDimension
2
DimnDraft3D6
10
133.282559
20
0
30
0
11
103.425016
21
-41.417356
31
0
70
34
71
5
72
1
41
1
210
0
220
0
230
1
3
Standard
100
AcDb2LineAngularDimension
13
84.587296
23
0.733095
33
0
14
69.643697
24
-46.661944
34
0
15
92
25
0
35
0
16
109.443295
26
-34.214547
36
0
40
0
0
ENDSEC
0
SECTION
2
OBJECTS
0
DICTIONARY
5
1b6
330
0
100
AcDbDictionary
280
0
281
1
3
ACAD_GROUP
350
1b7
3
ACAD_MLINESTYLE
350
1b8
0
DICTIONARY
5
1b7
330
0
100
AcDbDictionary
280
0
281
1
0
DICTIONARY
5
1b8
330
0
100
AcDbDictionary
280
0
281
1
3
Standard
350
18
0
MLINESTYLE
5
18
330
1b8
100
AcDbMlineStyle
2
Standard
70
0
3

62
256
51
90
52
90
71
2
49
-0.5
62
256
6
ByLayer
49
0.5
62
256
6
ByLayer
0
RASTERVARIABLES
5
1a4
330

100
AcDbRasterVariables
90
0
70
1
71
1
72
1
0
ENDSEC
0
EOF
