0
SECTION
2
HEADER
9
$ACADVER
1
AC1015
9
$DWGCODEPAGE
3
ANSI_1252
9
$HANDSEED
5
1cd
9
$ANGBASE
50
0
9
$ANGDIR
70
0
9
$ATTMODE
70
1
9
$AUNITS
70
0
9
$AUPREC
70
0
9
$CECOLOR
62
256
9
$CELTSCALE
40
1
9
$CELTYPE
6
ByLayer
9
$CELWEIGHT
370
-1
9
$CLAYER
8
0
9
$CMLJUST
70
0
9
$CMLSCALE
40
1
9
$CMLSTYLE
2
Standard
9
$DIMSTYLE
2
Standard
9
$TEXTSIZE
40
0.2
9
$TEXTSTYLE
7
Standard
9
$LUNITS
70
2
9
$LUPREC
70
4
9
$EXTNAMES
290
1
9
$INSUNITS
70
4
9
$LTSCALE
40
1
9
$LWDISPLAY
290
0
9
$PDMODE
70
0
9
$PDSIZE
40
0
9
$PLINEGEN
70
0
0
ENDSEC
0
SECTION
2
CLASSES
0
CLASS
1
RASTERVARIABLES
2
AcDbRasterVariables
3
ISM
90
0
280
0
281
0
0
ENDSEC
0
SECTION
2
TABLES
0
TABLE
2
VPORT
5
1c3
100
AcDbSymbolTable
0
VPORT
5
1
100
AcDbSymbolTableRecord
100
AcDbViewportTableRecord
2
*Active
70
0
10
0
20
0
11
1
21
1
12
-1
22
1
13
0
23
0
14
0.5
24
0.5
15
10
25
10
16
0
26
0
36
1
17
0
27
0
37
0
0
ENDTAB
0
TABLE
2
LTYPE
5
1c4
100
AcDbSymbolTable
0
LTYPE
5
14
100
AcDbSymbolTableRecord
100
AcDbLinetypeTableRecord
70
0
2
ByBlock
3

72
65
73
0
40
0
0
LTYPE
5
15
100
AcDbSymbolTableRecord
100
AcDbLinetypeTableRecord
70
0
2
ByLayer
3

72
65
73
0
40
0
0
LTYPE
5
16
100
AcDbSymbolTableRecord
100
AcDbLinetypeTableRecord
70
0
2
CONTINUOUS
3
Solid line
72
65
73
0
40
0
0
LTYPE
5
3B
100
AcDbSymbolTableRecord
100
AcDbLinetypeTableRecord
70
0
2
DASHED
3
__ __ __ __ __ __ __ __ __
72
65
73
2
40
25.72
49
12.86
74
0
49
-12.86
74
0
0
LTYPE
5
3C
100
AcDbSymbolTableRecord
100
AcDbLinetypeTableRecord
70
0
2
HIDDEN
3
_ _ _ _ _ _ _ _ _ _ _ _ _ _ _
72
65
73
2
40
0.5
49
0.25
74
0
49
-0.25
74
0
0
LTYPE
5
3D
100
AcDbSymbolTableRecord
100
AcDbLinetypeTableRecord
70
0
2
PHANTOM
3
____ _ _ ____ _ _ _____ _ _ ____
72
65
73
6
40
50.5
49
18
74
0
49
-6.5
74
0
49
6.5
74
0
49
-6.5
74
0
49
6.5
74
0
49
-6.5
74
0
0
LTYPE
5
3E
100
AcDbSymbolTableRecord
100
AcDbLinetypeTableRecord
70
0
2
CENTER
3
____ _ ____ _ ____ _ ____
72
65
73
4
40
47.5
49
22
74
0
49
-8.5
74
0
49
8.5
74
0
49
-8.5
74
0
0
LTYPE
5
3F
100
AcDbSymbolTableRecord
100
AcDbLinetypeTableRecord
70
0
2
DOT
3
.........................
72
65
73
2
40
10
49
0
74
0
49
-10
74
0
0
LTYPE
5
40
100
AcDbSymbolTableRecord
100
AcDbLinetypeTableRecord
70
0
2
DASHDOT
3
_._._._._._._._._._._._._._._._.
72
65
73
4
40
70
49
31
74
0
49
-13
74
0
49
13
74
0
49
-13
74
0
0
ENDTAB
0
TABLE
2
LAYER
5
1c5
100
AcDbSymbolTable
0
LAYER
5
10
100
AcDbSymbolTableRecord
100
AcDbLayerTableRecord
2
0
70
0
62
7
6
CONTINUOUS
290
1
370
-3
390
0
0
LAYER
5
42
100
AcDbSymbolTableRecord
100
AcDbLayerTableRecord
2
80
70
0
62
-6
6
CONTINUOUS
290
1
370
-3
390
0
0
LAYER
5
44
100
AcDbSymbolTableRecord
100
AcDbLayerTableRecord
2
81
70
0
62
-3
6
CONTINUOUS
290
1
370
-3
390
0
0
LAYER
5
46
100
AcDbSymbolTableRecord
100
AcDbLayerTableRecord
2
1
70
0
62
4
6
CONTINUOUS
290
1
370
-3
390
0
0
LAYER
5
48
100
AcDbSymbolTableRecord
100
AcDbLayerTableRecord
2
2
70
0
62
7
6
CONTINUOUS
290
1
370
-3
390
0
0
LAYER
5
4F
100
AcDbSymbolTableRecord
100
AcDbLayerTableRecord
2
4
70
0
62
-2
6
CENTER
290
1
370
-3
390
0
0
LAYER
5
1af
100
AcDbSymbolTableRecord
100
AcDbLayerTableRecord
2
SK4
70
0
62
2
6
CENTER
290
1
370
-3
390
0
0
LAYER
5
1b0
100
AcDbSymbolTableRecord
100
AcDbLayerTableRecord
2
SK1
70
0
62
4
6
CONTINUOUS
290
1
370
-3
390
0
0
LAYER
5
1b1
100
AcDbSymbolTableRecord
100
AcDbLayerTableRecord
2
SK6
70
0
62
5
6
CONTINUOUS
290
1
370
-3
390
0
0
LAYER
5
1b2
100
AcDbSymbolTableRecord
100
AcDbLayerTableRecord
2
SK2
70
0
62
7
6
CONTINUOUS
290
1
370
-3
390
0
0
ENDTAB
0
TABLE
2
STYLE
5
1c6
100
AcDbSymbolTable
0
STYLE
5
11
100
AcDbSymbolTableRecord
100
AcDbTextStyleTableRecord
2
Standard
3
txt
70
0
71
0
40
0
41
1
42
0
50
0
0
STYLE
5
111
100
AcDbSymbolTableRecord
100
AcDbTextStyleTableRecord
2
DEFAULT
3
simplex.shx
70
0
71
0
40
0
41
1
42
0
50
0
0
STYLE
5
134
100
AcDbSymbolTableRecord
100
AcDbTextStyleTableRecord
2
DWGDirectTextStyle
3
SIMPLEX
70
0
71
0
40
0
41
1
42
0
50
0
0
ENDTAB
0
TABLE
2
DIMSTYLE
5
1c7
100
AcDbSymbolTable
100
AcDbDimStyleTable
0
DIMSTYLE
105
27
100
AcDbSymbolTableRecord
100
AcDbDimStyleTableRecord
2
Standard
70
0
3
<>
41
0.18
42
0.0625
44
0.18
140
0.18
147
0.09
73
0
74
0
77
1
271
2
275
0
278
52
280
0
340
11
0
ENDTAB
0
TABLE
2
VIEW
5
1c8
100
AcDbSymbolTable
0
ENDTAB
0
TABLE
2
UCS
5
1c9
100
AcDbSymbolTable
0
ENDTAB
0
TABLE
2
APPID
5
1ca
100
AcDbSymbolTable
0
APPID
5
12
100
AcDbSymbolTableRecord
100
AcDbRegAppTableRecord
2
ACAD
70
0
0
ENDTAB
0
TABLE
2
BLOCK_RECORD
5
1cb
100
AcDbSymbolTable
0
BLOCK_RECORD
5
1F
100
AcDbSymbolTableRecord
100
AcDbBlockTableRecord
2
*Model_Space
340
0
70
0
0
BLOCK_RECORD
5
1B
100
AcDbSymbolTableRecord
100
AcDbBlockTableRecord
2
*Paper_Space
340
0
70
0
0
BLOCK_RECORD
5
23
100
AcDbSymbolTableRecord
100
AcDbBlockTableRecord
2
*Paper_Space0
340
0
70
0
0
BLOCK_RECORD
5
136
100
AcDbSymbolTableRecord
100
AcDbBlockTableRecord
2
DimnDraft3D1
340
0
70
0
0
BLOCK_RECORD
5
145
100
AcDbSymbolTableRecord
100
AcDbBlockTableRecord
2
_CLOSED
340
0
70
0
0
BLOCK_RECORD
5
14C
100
AcDbSymbolTableRecord
100
AcDbBlockTableRecord
2
DimnDraft3D2
340
0
70
0
0
BLOCK_RECORD
5
158
100
AcDbSymbolTableRecord
100
AcDbBlockTableRecord
2
DimnDraft3D3
340
0
70
0
0
BLOCK_RECORD
5
166
100
AcDbSymbolTableRecord
100
AcDbBlockTableRecord
2
DimnDraft3D4
340
0
70
0
0
BLOCK_RECORD
5
174
100
AcDbSymbolTableRecord
100
AcDbBlockTableRecord
2
DimnDraft3D5
340
0
70
0
0
BLOCK_RECORD
5
182
100
AcDbSymbolTableRecord
100
AcDbBlockTableRecord
2
DimnDraft3D6
340
0
70
0
0
ENDTAB
0
ENDSEC
0
SECTION
2
BLOCKS
0
BLOCK
5
20
100
AcDbEntity
8
0
100
AcDbBlockBegin
2
*Model_Space
70
0
10
0
20
0
30
0
3
*Model_Space
0
ENDBLK
5
21
100
AcDbEntity
8
0
100
AcDbBlockEnd
0
BLOCK
5
1C
100
AcDbEntity
8
0
100
AcDbBlockBegin
2
*Paper_Space
70
0
10
0
20
0
30
0
3
*Paper_Space
0
ENDBLK
5
1D
100
AcDbEntity
8
0
100
AcDbBlockEnd
0
BLOCK
5
24
100
AcDbEntity
8
0
100
AcDbBlockBegin
2
*Paper_Space0
70
0
10
0
20
0
30
0
3
*Paper_Space0
0
ENDBLK
5
25
100
AcDbEntity
8
0
100
AcDbBlockEnd
0
BLOCK
5
142
100
AcDbEntity
8
0
100
AcDbBlockBegin
2
DimnDraft3D1
70
0
10
0
20
0
30
0
3
DimnDraft3D1
0
MTEXT
5
137
100
AcDbEntity
8
SK2
62
256
6
ByLayer
370
-1
48
1
60
0
100
AcDbMText
10
-43.875
20
-3.659211
30
0
210
0
220
0
230
1
1
\W01.000;\fsimplex.shx,bigfont.shx;%%c50 
40
4.5
41
0
44
1.084337
50
90
71
7
72
5
7
DEFAULT
0
LINE
5
139
100
AcDbEntity
8
SK2
62
256
6
ByLayer
370
-1
48
1
60
0
100
AcDbLine
10
-2
20
25
30
0
11
-44.75
21
25
31
0
39
0
210
0
220
0
230
1
0
LINE
5
13A
100
AcDbEntity
8
SK2
62
256
6
ByLayer
370
-1
48
1
60
0
100
AcDbLine
10
-2
20
-25
30
0
11
-44.75
21
-25
31
0
39
0
210
0
220
0
230
1
0
LINE
5
13B
100
AcDbEntity
8
SK2
62
256
6
ByLayer
370
-1
48
1
60
0
100
AcDbLine
10
-42.75
20
25
30
0
11
-42.75
21
-25
31
0
39
0
210
0
220
0
230
1
0
LINE
5
13C
100
AcDbEntity
8
SK2
62
256
6
ByLayer
370
-1
48
1
60
0
100
AcDbLine
10
-42.75
20
25
30
0
11
-42.332003
21
21.825002
31
0
39
0
210
0
220
0
230
1
0
LINE
5
13D
100
AcDbEntity
8
SK2
62
256
6
ByLayer
370
-1
48
1
60
0
100
AcDbLine
10
-42.75
20
25
30
0
11
-43.167997
21
21.824998
31
0
39
0
210
0
220
0
230
1
0
LINE
5
13E
100
AcDbEntity
8
SK2
62
256
6
ByLayer
370
-1
48
1
60
0
100
AcDbLine
10
-42.332003
20
21.825002
30
0
11
-43.167997
21
21.824998
31
0
39
0
210
0
220
0
230
1
0
LINE
5
13F
100
AcDbEntity
8
SK2
62
256
6
ByLayer
370
-1
48
1
60
0
100
AcDbLine
10
-42.75
20
-25
30
0
11
-43.167997
21
-21.825002
31
0
39
0
210
0
220
0
230
1
0
LINE
5
140
100
AcDbEntity
8
SK2
62
256
6
ByLayer
370
-1
48
1
60
0
100
AcDbLine
10
-42.75
20
-25
30
0
11
-42.332003
21
-21.824998
31
0
39
0
210
0
220
0
230
1
0
LINE
5
141
100
AcDbEntity
8
SK2
62
256
6
ByLayer
370
-1
48
1
60
0
100
AcDbLine
10
-43.167997
20
-21.825002
30
0
11
-42.332003
21
-21.824998
31
0
39
0
210
0
220
0
230
1
0
ENDBLK
5
143
100
AcDbEntity
8
0
100
AcDbBlockEnd
0
BLOCK
5
146
100
AcDbEntity
8
0
100
AcDbBlockBegin
2
_CLOSED
70
0
10
0
20
0
30
0
3
_CLOSED
0
LINE
5
148
100
AcDbEntity
8
0
62
256
6
ByLayer
370
-2
48
1
60
0
100
AcDbLine
10
-1
20
0.166667
30
0
11
0
21
0
31
0
39
0
210
0
220
0
230
1
0
LINE
5
149
100
AcDbEntity
8
0
62
256
6
ByLayer
370
-2
48
1
60
0
100
AcDbLine
10
0
20
0
30
0
11
-1
21
-0.166667
31
0
39
0
210
0
220
0
230
1
0
LINE
5
14A
100
AcDbEntity
8
0
62
256
6
ByLayer
370
-2
48
1
60
0
100
AcDbLine
10
-1
20
0.166667
30
0
11
-1
21
-0.166667
31
0
39
0
210
0
220
0
230
1
0
LINE
5
14B
100
AcDbEntity
8
0
62
256
6
ByLayer
370
-2
48
1
60
0
100
AcDbLine
10
0
20
0
30
0
11
-1
21
0
31
0
39
0
210
0
220
0
230
1
0
ENDBLK
5
147
100
AcDbEntity
8
0
100
AcDbBlockEnd
0
BLOCK
5
155
100
AcDbEntity
8
0
100
AcDbBlockBegin
2
DimnDraft3D2
70
0
10
0
20
0
30
0
3
DimnDraft3D2
0
MTEXT
5
14D
100
AcDbEntity
8
2
62
256
6
ByLayer
370
-1
48
1
60
0
100
AcDbMText
10
36.025
20
-6.193421
30
0
210
0
220
0
230
1
1
\W01.000;\fsimplex.shx,bigfont.shx;%%c32.0 
40
4.5
41
0
44
1.084337
50
90
71
7
72
5
7
DEFAULT
0
LINE
5
14E
100
AcDbEntity
8
2
62
256
6
ByLayer
370
-1
48
1
60
0
100
AcDbLine
10
37.15
20
-16
30
0
11
37.15
21
16
31
0
39
0
210
0
220
0
230
1
0
LINE
5
14F
100
AcDbEntity
8
2
62
256
6
ByLayer
370
-1
48
1
60
0
100
AcDbLine
10
37.15
20
-16
30
0
11
36.732003
21
-12.825002
31
0
39
0
210
0
220
0
230
1
0
LINE
5
150
100
AcDbEntity
8
2
62
256
6
ByLayer
370
-1
48
1
60
0
100
AcDbLine
10
37.15
20
-16
30
0
11
37.567997
21
-12.824998
31
0
39
0
210
0
220
0
230
1
0
LINE
5
151
100
AcDbEntity
8
2
62
256
6
ByLayer
370
-1
48
1
60
0
100
AcDbLine
10
36.732003
20
-12.825002
30
0
11
37.567997
21
-12.824998
31
0
39
0
210
0
220
0
230
1
0
LINE
5
152
100
AcDbEntity
8
2
62
256
6
ByLayer
370
-1
48
1
60
0
100
AcDbLine
10
37.15
20
16
30
0
11
37.567997
21
12.825002
31
0
39
0
210
0
220
0
230
1
0
LINE
5
153
100
AcDbEntity
8
2
62
256
6
ByLayer
370
-1
48
1
60
0
100
AcDbLine
10
37.15
20
16
30
0
11
36.732003
21
12.824998
31
0
39
0
210
0
220
0
230
1
0
LINE
5
154
100
AcDbEntity
8
2
62
256
6
ByLayer
370
-1
48
1
60
0
100
AcDbLine
10
37.567997
20
12.825002
30
0
11
36.732003
21
12.824998
31
0
39
0
210
0
220
0
230
1
0
ENDBLK
5
156
100
AcDbEntity
8
0
100
AcDbBlockEnd
0
BLOCK
5
163
100
AcDbEntity
8
0
100
AcDbBlockBegin
2
DimnDraft3D3
70
0
10
0
20
0
30
0
3
DimnDraft3D3
0
MTEXT
5
159
100
AcDbEntity
8
2
62
256
6
ByLayer
370
-1
48
1
60
0
100
AcDbMText
10
121.125
20
-14.988158
30
0
210
0
220
0
230
1
1
\W01.000;\fsimplex.shx,bigfont.shx;22.0 
40
4.5
41
0
44
1.084337
50
90
71
7
72
5
7
DEFAULT
0
LINE
5
15A
100
AcDbEntity
8
2
62
256
6
ByLayer
370
-1
48
1
60
0
100
AcDbLine
10
112
20
0
30
0
11
124.25
21
0
31
0
39
0
210
0
220
0
230
1
0
LINE
5
15B
100
AcDbEntity
8
2
62
256
6
ByLayer
370
-1
48
1
60
0
100
AcDbLine
10
112
20
-21.9
30
0
11
124.25
21
-21.9
31
0
39
0
210
0
220
0
230
1
0
LINE
5
15C
100
AcDbEntity
8
2
62
256
6
ByLayer
370
-1
48
1
60
0
100
AcDbLine
10
122.25
20
0
30
0
11
122.25
21
-21.9
31
0
39
0
210
0
220
0
230
1
0
LINE
5
15D
100
AcDbEntity
8
2
62
256
6
ByLayer
370
-1
48
1
60
0
100
AcDbLine
10
122.25
20
0
30
0
11
122.667997
21
-3.174998
31
0
39
0
210
0
220
0
230
1
0
LINE
5
15E
100
AcDbEntity
8
2
62
256
6
ByLayer
370
-1
48
1
60
0
100
AcDbLine
10
122.25
20
0
30
0
11
121.832003
21
-3.175002
31
0
39
0
210
0
220
0
230
1
0
LINE
5
15F
100
AcDbEntity
8
2
62
256
6
ByLayer
370
-1
48
1
60
0
100
AcDbLine
10
122.667997
20
-3.174998
30
0
11
121.832003
21
-3.175002
31
0
39
0
210
0
220
0
230
1
0
LINE
5
160
100
AcDbEntity
8
2
62
256
6
ByLayer
370
-1
48
1
60
0
100
AcDbLine
10
122.25
20
-21.9
30
0
11
121.832003
21
-18.725002
31
0
39
0
210
0
220
0
230
1
0
LINE
5
161
100
AcDbEntity
8
2
62
256
6
ByLayer
370
-1
48
1
60
0
100
AcDbLine
10
122.25
20
-21.9
30
0
11
122.667997
21
-18.724998
31
0
39
0
210
0
220
0
230
1
0
LINE
5
162
100
AcDbEntity
8
2
62
256
6
ByLayer
370
-1
48
1
60
0
100
AcDbLine
10
121.832003
20
-18.725002
30
0
11
122.667997
21
-18.724998
31
0
39
0
210
0
220
0
230
1
0
ENDBLK
5
164
100
AcDbEntity
8
0
100
AcDbBlockEnd
0
BLOCK
5
171
100
AcDbEntity
8
0
100
AcDbBlockBegin
2
DimnDraft3D4
70
0
10
0
20
0
30
0
3
DimnDraft3D4
0
MTEXT
5
167
100
AcDbEntity
8
2
62
256
6
ByLayer
370
-1
48
1
60
0
100
AcDbMText
10
50.434868
20
-53.025
30
0
210
0
220
0
230
1
1
\W01.000;\fsimplex.shx,bigfont.shx;110.0 
40
4.5
41
0
44
1.084337
50
0
71
7
72
5
7
DEFAULT
0
LINE
5
168
100
AcDbEntity
8
2
62
256
6
ByLayer
370
-1
48
1
60
0
100
AcDbLine
10
0
20
-27
30
0
11
0
21
-56.15
31
0
39
0
210
0
220
0
230
1
0
LINE
5
169
100
AcDbEntity
8
2
62
256
6
ByLayer
370
-1
48
1
60
0
100
AcDbLine
10
110
20
-23.9
30
0
11
110
21
-56.15
31
0
39
0
210
0
220
0
230
1
0
LINE
5
16A
100
AcDbEntity
8
2
62
256
6
ByLayer
370
-1
48
1
60
0
100
AcDbLine
10
0
20
-54.15
30
0
11
110
21
-54.15
31
0
39
0
210
0
220
0
230
1
0
LINE
5
16B
100
AcDbEntity
8
2
62
256
6
ByLayer
370
-1
48
1
60
0
100
AcDbLine
10
0
20
-54.15
30
0
11
3.174998
21
-53.732003
31
0
39
0
210
0
220
0
230
1
0
LINE
5
16C
100
AcDbEntity
8
2
62
256
6
ByLayer
370
-1
48
1
60
0
100
AcDbLine
10
0
20
-54.15
30
0
11
3.175002
21
-54.567997
31
0
39
0
210
0
220
0
230
1
0
LINE
5
16D
100
AcDbEntity
8
2
62
256
6
ByLayer
370
-1
48
1
60
0
100
AcDbLine
10
3.174998
20
-53.732003
30
0
11
3.175002
21
-54.567997
31
0
39
0
210
0
220
0
230
1
0
LINE
5
16E
100
AcDbEntity
8
2
62
256
6
ByLayer
370
-1
48
1
60
0
100
AcDbLine
10
110
20
-54.15
30
0
11
106.825002
21
-54.567997
31
0
39
0
210
0
220
0
230
1
0
LINE
5
16F
100
AcDbEntity
8
2
62
256
6
ByLayer
370
-1
48
1
60
0
100
AcDbLine
10
110
20
-54.15
30
0
11
106.824998
21
-53.732003
31
0
39
0
210
0
220
0
230
1
0
LINE
5
170
100
AcDbEntity
8
2
62
256
6
ByLayer
370
-1
48
1
60
0
100
AcDbLine
10
106.825002
20
-54.567997
30
0
11
106.824998
21
-53.732003
31
0
39
0
210
0
220
0
230
1
0
ENDBLK
5
172
100
AcDbEntity
8
0
100
AcDbBlockEnd
0
BLOCK
5
17F
100
AcDbEntity
8
0
100
AcDbBlockBegin
2
DimnDraft3D5
70
0
10
0
20
0
30
0
3
DimnDraft3D5
0
MTEXT
5
175
100
AcDbEntity
8
2
62
256
6
ByLayer
370
-1
48
1
60
0
100
AcDbMText
10
62.474342
20
-38.025
30
0
210
0
220
0
230
1
1
\W01.000;\fsimplex.shx,bigfont.shx;88.1 
40
4.5
41
0
44
1.084337
50
0
71
7
72
5
7
DEFAULT
0
LINE
5
176
100
AcDbEntity
8
2
62
256
6
ByLayer
370
-1
48
1
60
0
100
AcDbLine
10
21.9
20
-18
30
0
11
21.9
21
-41.15
31
0
39
0
210
0
220
0
230
1
0
LINE
5
177
100
AcDbEntity
8
2
62
256
6
ByLayer
370
-1
48
1
60
0
100
AcDbLine
10
110
20
-23.9
30
0
11
110
21
-41.15
31
0
39
0
210
0
220
0
230
1
0
LINE
5
178
100
AcDbEntity
8
2
62
256
6
ByLayer
370
-1
48
1
60
0
100
AcDbLine
10
21.9
20
-39.15
30
0
11
110
21
-39.15
31
0
39
0
210
0
220
0
230
1
0
LINE
5
179
100
AcDbEntity
8
2
62
256
6
ByLayer
370
-1
48
1
60
0
100
AcDbLine
10
21.9
20
-39.15
30
0
11
25.074998
21
-38.732003
31
0
39
0
210
0
220
0
230
1
0
LINE
5
17A
100
AcDbEntity
8
2
62
256
6
ByLayer
370
-1
48
1
60
0
100
AcDbLine
10
21.9
20
-39.15
30
0
11
25.075002
21
-39.567997
31
0
39
0
210
0
220
0
230
1
0
LINE
5
17B
100
AcDbEntity
8
2
62
256
6
ByLayer
370
-1
48
1
60
0
100
AcDbLine
10
25.074998
20
-38.732003
30
0
11
25.075002
21
-39.567997
31
0
39
0
210
0
220
0
230
1
0
LINE
5
17C
100
AcDbEntity
8
2
62
256
6
ByLayer
370
-1
48
1
60
0
100
AcDbLine
10
110
20
-39.15
30
0
11
106.825002
21
-39.567997
31
0
39
0
210
0
220
0
230
1
0
LINE
5
17D
100
AcDbEntity
8
2
62
256
6
ByLayer
370
-1
48
1
60
0
100
AcDbLine
10
110
20
-39.15
30
0
11
106.824998
21
-38.732003
31
0
39
0
210
0
220
0
230
1
0
LINE
5
17E
100
AcDbEntity
8
2
62
256
6
ByLayer
370
-1
48
1
60
0
100
AcDbLine
10
106.825002
20
-39.567997
30
0
11
106.824998
21
-38.732003
31
0
39
0
210
0
220
0
230
1
0
ENDBLK
5
180
100
AcDbEntity
8
0
100
AcDbBlockEnd
0
BLOCK
5
18D
100
AcDbEntity
8
0
100
AcDbBlockBegin
2
DimnDraft3D6
70
0
10
0
20
0
30
0
3
DimnDraft3D6
0
MTEXT
5
183
100
AcDbEntity
8
2
62
256
6
ByLayer
370
-1
48
1
60
0
100
AcDbMText
10
119.744954
20
36.215882
30
0
210
0
220
0
230
1
1
\W01.000;\fsimplex.shx,bigfont.shx;107%%d30' 
40
4.5
41
0
44
1.084337
50
323.75
71
7
72
5
7
DEFAULT
0
LINE
5
184
100
AcDbEntity
8
2
62
256
6
ByLayer
370
-1
48
1
60
0
100
AcDbLine
10
104.587296
20
-4.733095
30
0
11
91.088854
21
38.078491
31
0
39
0
210
0
220
0
230
1
0
LINE
5
185
100
AcDbEntity
8
2
62
256
6
ByLayer
370
-1
48
1
60
0
100
AcDbLine
10
112
20
0
30
0
11
143.021363
21
0
31
0
39
0
210
0
220
0
230
1
0
ARC
5
186
100
AcDbEntity
8
2
62
256
6
ByLayer
370
-1
48
1
60
0
100
AcDbCircle
39
0
10
103.094957
20
0
30
0
40
37.9264068640929
210
0
220
0
230
1
100
AcDbArc
50
0
51
107.5
0
LINE
5
187
100
AcDbEntity
8
2
62
256
6
ByLayer
370
-1
48
1
60
0
100
AcDbLine
10
91.690266
20
36.171057
30
0
11
94.620293
21
37.463449
31
0
39
0
210
0
220
0
230
1
0
LINE
5
188
100
AcDbEntity
8
2
62
256
6
ByLayer
370
-1
48
1
60
0
100
AcDbLine
10
91.690266
20
36.171057
30
0
11
94.854954
21
36.661066
31
0
39
0
210
0
220
0
230
1
0
LINE
5
189
100
AcDbEntity
8
2
62
256
6
ByLayer
370
-1
48
1
60
0
100
AcDbLine
10
94.620293
20
37.463449
30
0
11
94.854954
21
36.661066
31
0
39
0
210
0
220
0
230
1
0
LINE
5
18A
100
AcDbEntity
8
2
62
256
6
ByLayer
370
-1
48
1
60
0
100
AcDbLine
10
141.021363
20
0
30
0
11
140.537053
21
3.165562
31
0
39
0
210
0
220
0
230
1
0
LINE
5
18B
100
AcDbEntity
8
2
62
256
6
ByLayer
370
-1
48
1
60
0
100
AcDbLine
10
141.021363
20
0
30
0
11
141.372864
21
3.183049
31
0
39
0
210
0
220
0
230
1
0
LINE
5
18C
100
AcDbEntity
8
2
62
256
6
ByLayer
370
-1
48
1
60
0
100
AcDbLine
10
140.537053
20
3.165562
30
0
11
141.372864
21
3.183049
31
0
39
0
210
0
220
0
230
1
0
ENDBLK
5
18E
100
AcDbEntity
8
0
100
AcDbBlockEnd
0
ENDSEC
0
SECTION
2
ENTITIES
0
ARC
5
98
100
AcDbEntity
8
SK1
62
256
6
ByLayer
370
-1
48
1
60
0
100
AcDbCircle
39
0
10
0.6
20
18.75
30
0
40
1
210
0
220
0
230
-1
100
AcDbArc
50
233.130102
51
246.421822
0
ARC
5
99
100
AcDbEntity
8
SK1
62
256
6
ByLayer
370
-1
48
1
60
0
100
AcDbCircle
39
0
10
0.6
20
-18.75
30
0
40
1
210
0
220
0
230
-1
100
AcDbArc
50
113.578178
51
126.869898
0
ARC
5
9A
100
AcDbEntity
8
1
62
256
6
ByLayer
370
-1
48
1
60
0
100
AcDbCircle
39
0
10
-26.50967
20
-22
30
0
40
6
210
0
220
0
230
-1
100
AcDbArc
50
14.931417
51
90
0
ARC
5
9B
100
AcDbEntity
8
1
62
256
6
ByLayer
370
-1
48
1
60
0
100
AcDbCircle
39
0
10
-26.50967
20
22
30
0
40
6
210
0
220
0
230
-1
100
AcDbArc
50
270
51
345.068583
0
ELLIPSE
5
9C
100
AcDbEntity
8
1
62
256
6
ByLayer
370
-1
48
1
60
0
100
AcDbEllipse
10
112.895774
20
-6.707382
30
0
11
7.62973560598582
21
2.40564639603417
31
0
210
0
220
0
230
1
40
0.982115
41
2.8239506045593
42
2.8524227173931
0
ELLIPSE
5
9D
100
AcDbEntity
8
1
62
256
6
ByLayer
370
-1
48
1
60
0
100
AcDbEllipse
10
170.805411
20
5.5E-05
30
0
11
282.145429869664
21
2.88670154631522
31
0
210
0
220
0
230
-1
40
0.055778
41
1.86628209543587
42
1.87799289731695
0
ELLIPSE
5
9E
100
AcDbEntity
8
1
62
256
6
ByLayer
370
-1
48
1
60
0
100
AcDbEllipse
10
21.056258
20
0
30
0
11
11.7092723497262
21
-24.6771864409362
31
0
210
0
220
0
230
-1
40
0.341999
41
2.05975995310048
42
2.9743795816808
0
ELLIPSE
5
9F
100
AcDbEntity
8
1
62
256
6
ByLayer
370
-1
48
1
60
0
100
AcDbEllipse
10
92.908717
20
0.208175
30
0
11
-1.54979004496587
21
-0.488646924194442
31
0
210
0
220
0
230
1
40
0.982115
41
-0.180786712889246
42
0.610865238198014
0
ELLIPSE
5
A0
100
AcDbEntity
8
1
62
256
6
ByLayer
370
-1
48
1
60
0
100
AcDbEllipse
10
93.15795
20
-0.582292
30
0
11
1.87406117457964
21
0.590889218630083
31
0
210
0
220
0
230
1
40
0.982115
41
1.98218070164045
42
-2.53072741539181
0
ELLIPSE
5
A1
100
AcDbEntity
8
1
62
256
6
ByLayer
370
-1
48
1
60
0
100
AcDbEllipse
10
92.83116
20
2.801921
30
0
11
-1.43057542612234
21
-0.451058699256408
31
0
210
0
220
0
230
1
40
0.982115
41
0.496214400522305
42
2.13066616624783
0
ELLIPSE
5
A2
100
AcDbEntity
8
1
62
256
6
ByLayer
370
-1
48
1
60
0
100
AcDbEllipse
10
95.426526
20
-20.43614
30
0
11
-7.62973560598584
21
-2.40564639603418
31
0
210
0
220
0
230
1
40
0.982115
41
-1.98232187549901
42
-1.09083078249647
0
ELLIPSE
5
A3
100
AcDbEntity
8
1
62
256
6
ByLayer
370
-1
48
1
60
0
100
AcDbEllipse
10
93.059779
20
2.076832
30
0
11
2.33018940869585
21
-2.47086981207237
31
0
210
0
220
0
230
-1
40
0.081159
41
-1.1771045400407
42
-0.949493862869053
0
ELLIPSE
5
A4
100
AcDbEntity
8
1
62
256
6
ByLayer
370
-1
48
1
60
0
100
AcDbEllipse
10
104.025873
20
0
30
0
11
16.1061578295654
21
15.8848750364461
31
0
210
0
220
0
230
-1
40
0.118956
41
2.90748536919958
42
3.02156464312715
0
ELLIPSE
5
A5
100
AcDbEntity
8
1
62
256
6
ByLayer
370
-1
48
1
60
0
100
AcDbEllipse
10
92.794359
20
2.91864
30
0
11
1.43057542612234
21
0.451058699256408
31
0
210
0
220
0
230
1
40
0.982115
41
-2.59743149239748
42
-0.54400813693385
0
ELLIPSE
5
A6
100
AcDbEntity
8
1
62
256
6
ByLayer
370
-1
48
1
60
0
100
AcDbEllipse
10
-1.056258
20
0
30
0
11
11.7092723497276
21
-24.6771864409378
31
0
210
0
220
0
230
-1
40
0.341999
41
-1.08183270048927
42
-0.167213071908978
0
ELLIPSE
5
A7
100
AcDbEntity
8
1
62
256
6
ByLayer
370
-1
48
1
60
0
100
AcDbEllipse
10
93.252966
20
1.464123
30
0
11
-1.43057542612234
21
-0.451058699256408
31
0
210
0
220
0
230
1
40
0.982115
41
2.35827684290269
42
0.104917041938719
0
ELLIPSE
5
A8
100
AcDbEntity
8
1
62
256
6
ByLayer
370
-1
48
1
60
0
100
AcDbEllipse
10
-1.056258
20
0
30
0
11
11.709272349728
21
24.6771864409383
31
0
210
0
220
0
230
-1
40
0.341999
41
0.167213071908973
42
1.08183270048925
0
ELLIPSE
5
A9
100
AcDbEntity
8
1
62
256
6
ByLayer
370
-1
48
1
60
0
100
AcDbEllipse
10
21.056258
20
0
30
0
11
11.7092723497262
21
24.6771864409363
31
0
210
0
220
0
230
-1
40
0.341999
41
-2.97437958168081
42
-2.05975995310048
0
ELLIPSE
5
AA
100
AcDbEntity
8
1
62
256
6
ByLayer
370
-1
48
1
60
0
100
AcDbEllipse
10
92.736144
20
0.755506
30
0
11
-1.54979004496587
21
-0.488646924194442
31
0
210
0
220
0
230
1
40
0.982115
41
0.180767847001627
42
0.610865238198025
0
ELLIPSE
5
AB
100
AcDbEntity
8
1
62
256
6
ByLayer
370
-1
48
1
60
0
100
AcDbEllipse
10
94.192375
20
0.088492
30
0
11
0.772929822859528
21
0.183168988776328
31
0
210
0
220
0
230
-1
40
0.98503
41
-3.09062667375171
42
-0.807340977398415
0
ELLIPSE
5
AC
100
AcDbEntity
8
1
62
256
6
ByLayer
370
-1
48
1
60
0
100
AcDbEllipse
10
97.952036
20
-13.121877
30
0
11
0.375651667346242
21
0.141886066796137
31
0
210
0
220
0
230
-1
40
0.978619
41
2.58764657490995
42
-3.08707265505746
0
ELLIPSE
5
AD
100
AcDbEntity
8
1
62
256
6
ByLayer
370
-1
48
1
60
0
100
AcDbEllipse
10
104.830253
20
-7.31678
30
0
11
0.375651667264377
21
0.141886067222768
31
0
210
0
220
0
230
-1
40
0.978619
41
-0.553946077584065
42
-0.433270365187329
0
ELLIPSE
5
AE
100
AcDbEntity
8
1
62
256
6
ByLayer
370
-1
48
1
60
0
100
AcDbEllipse
10
94.103665
20
1.497141
30
0
11
0.548153714875531
21
1.81177019714728
31
0
210
0
220
0
230
-1
40
0.248059
41
-2.55425582341229
42
-1.89863534132789
0
ELLIPSE
5
AF
100
AcDbEntity
8
1
62
256
6
ByLayer
370
-1
48
1
60
0
100
AcDbEllipse
10
94.159604
20
0.608876
30
0
11
0.772929822847646
21
0.183168988818727
31
0
210
0
220
0
230
-1
40
0.98503
41
-2.31866936901975
42
-1.57929828202267
0
ELLIPSE
5
B0
100
AcDbEntity
8
1
62
256
6
ByLayer
370
-1
48
1
60
0
100
AcDbEllipse
10
94.103665
20
1.497141
30
0
11
0.840409330122216
21
-0.917986901740379
31
0
210
0
220
0
230
-1
40
0.147381
41
0.793794015983633
42
1.56575132064744
0
ELLIPSE
5
B1
100
AcDbEntity
8
1
62
256
6
ByLayer
370
-1
48
1
60
0
100
AcDbEllipse
10
101.647341
20
-10.339433
30
0
11
2.86115085224469
21
0.902117398512817
31
0
210
0
220
0
230
1
40
0.982115
41
2.94355241743361
42
0
0
ELLIPSE
5
B2
100
AcDbEntity
8
1
62
256
6
ByLayer
370
-1
48
1
60
0
100
AcDbEllipse
10
101.647341
20
-10.339433
30
0
11
2.86115085224469
21
0.902117398512817
31
0
210
0
220
0
230
1
40
0.982115
41
0
42
0.198095206510295
0
ELLIPSE
5
B3
100
AcDbEntity
8
1
62
256
6
ByLayer
370
-1
48
1
60
0
100
AcDbEllipse
10
101.705091
20
-10.522592
30
0
11
2.90362383720894
21
0.915509079232121
31
0
210
0
220
0
230
1
40
0.982115
41
0
42
6.28318530717959
0
ELLIPSE
5
B4
100
AcDbEntity
8
1
62
256
6
ByLayer
370
-1
48
1
60
0
100
AcDbEllipse
10
101.638213
20
-10.310483
30
0
11
2.80817345793617
21
0.885413690249378
31
0
210
0
220
0
230
1
40
0.982115
41
2.83094613457972
42
0
0
ELLIPSE
5
B5
100
AcDbEntity
8
1
62
256
6
ByLayer
370
-1
48
1
60
0
100
AcDbEllipse
10
101.638213
20
-10.310483
30
0
11
2.80817345793617
21
0.885413690249378
31
0
210
0
220
0
230
1
40
0.982115
41
0
42
0.42350450499361
0
ELLIPSE
5
B6
100
AcDbEntity
8
1
62
256
6
ByLayer
370
-1
48
1
60
0
100
AcDbEllipse
10
101.638213
20
-10.310483
30
0
11
2.80817345793617
21
0.885413690249378
31
0
210
0
220
0
230
1
40
0.982115
41
2.71794675552027
42
2.83094578936541
0
ELLIPSE
5
B7
100
AcDbEntity
8
1
62
256
6
ByLayer
370
-1
48
1
60
0
100
AcDbEllipse
10
105.458145
20
-7.923307
30
0
11
0.375651667242724
21
0.141886067340842
31
0
210
0
220
0
230
-1
40
0.978619
41
-0.553946077281036
42
0.0545199998562674
0
ELLIPSE
5
B8
100
AcDbEntity
8
1
62
256
6
ByLayer
370
-1
48
1
60
0
100
AcDbEllipse
10
109.217806
20
-21.133676
30
0
11
0.772929822859557
21
0.183168988776297
31
0
210
0
220
0
230
-1
40
0.98503
41
0.0509659798380695
42
2.33425167619118
0
ELLIPSE
5
B9
100
AcDbEntity
8
1
62
256
6
ByLayer
370
-1
48
1
60
0
100
AcDbEllipse
10
101.67289
20
-10.420463
30
0
11
1.15065950107774
21
0.362801547101905
31
0
210
0
220
0
230
1
40
0.982115
41
-2.90519266790278
42
-2.76712740107875
0
ELLIPSE
5
BA
100
AcDbEntity
8
1
62
256
6
ByLayer
370
-1
48
1
60
0
100
AcDbEllipse
10
101.020458
20
-11.452261
30
0
11
-0.278485349618482
21
-0.0878060934552474
31
0
210
0
220
0
230
1
40
0.982115
41
0.434076427275121
42
2.13801608775703
0
ELLIPSE
5
BB
100
AcDbEntity
8
1
62
256
6
ByLayer
370
-1
48
1
60
0
100
AcDbEllipse
10
101.765206
20
-12.066847
30
0
11
-0.654249828213284
21
-0.206284178459931
31
0
210
0
220
0
230
1
40
0.982115
41
-2.57155785307439
42
-1.78756720945353
0
ELLIPSE
5
BC
100
AcDbEntity
8
1
62
256
6
ByLayer
370
-1
48
1
60
0
100
AcDbEllipse
10
101.607573
20
-10.213305
30
0
11
-1.15065950107774
21
-0.362801547101905
31
0
210
0
220
0
230
1
40
0.982115
41
0.374465252511045
42
1.3540254441363
0
ELLIPSE
5
BD
100
AcDbEntity
8
1
62
256
6
ByLayer
370
-1
48
1
60
0
100
AcDbEllipse
10
101.672658
20
-10.419729
30
0
11
2.5035069957141
21
0.789352723698715
31
0
210
0
220
0
230
1
40
0.982115
41
0
42
6.28318530717959
0
ELLIPSE
5
BE
100
AcDbEntity
8
1
62
256
6
ByLayer
370
-1
48
1
60
0
100
AcDbEllipse
10
102.985504
20
-10.091312
30
0
11
-0.278485349618482
21
-0.0878060934552474
31
0
210
0
220
0
230
1
40
0.982115
41
1.61444180403085
42
2.65184608374797
0
ELLIPSE
5
BF
100
AcDbEntity
8
1
62
256
6
ByLayer
370
-1
48
1
60
0
100
AcDbEllipse
10
101.688253
20
-10.469189
30
0
11
1.59890646792941
21
0.504133272868914
31
0
210
0
220
0
230
1
40
0.982115
41
-0.220956704180632
42
0.831821942378631
0
ELLIPSE
5
C0
100
AcDbEntity
8
1
62
256
6
ByLayer
370
-1
48
1
60
0
100
AcDbEllipse
10
101.688253
20
-10.469189
30
0
11
1.59890646792941
21
0.504133272868914
31
0
210
0
220
0
230
1
40
0.982115
41
2.92063594940918
42
-2.30977071121113
0
ELLIPSE
5
C1
100
AcDbEntity
8
1
62
256
6
ByLayer
370
-1
48
1
60
0
100
AcDbEllipse
10
103.314756
20
-10.993661
30
0
11
-0.654249828213284
21
-0.206284178459931
31
0
210
0
220
0
230
1
40
0.982115
41
-1.52715084955909
42
-0.743160205938288
0
ELLIPSE
5
C2
100
AcDbEntity
8
1
62
256
6
ByLayer
370
-1
48
1
60
0
100
AcDbEllipse
10
101.765206
20
-12.066847
30
0
11
-0.654249828213284
21
-0.206284178459931
31
0
210
0
220
0
230
1
40
0.982115
41
-1.78756720945353
42
-1.00357656583274
0
ELLIPSE
5
C3
100
AcDbEntity
8
1
62
256
6
ByLayer
370
-1
48
1
60
0
100
AcDbEllipse
10
101.607573
20
-10.213305
30
0
11
-1.15065950107774
21
-0.362801547101905
31
0
210
0
220
0
230
1
40
0.982115
41
2.39843244765156
42
-3.10462475078988
0
ELLIPSE
5
C4
100
AcDbEntity
8
1
62
256
6
ByLayer
370
-1
48
1
60
0
100
AcDbEllipse
10
102.394588
20
-11.324899
30
0
11
-0.278485349618482
21
-0.0878060934552474
31
0
210
0
220
0
230
1
40
0.982115
41
0.57003480051552
42
3.06682428310393
0
ELLIPSE
5
C5
100
AcDbEntity
8
1
62
256
6
ByLayer
370
-1
48
1
60
0
100
AcDbEllipse
10
101.607573
20
-10.213305
30
0
11
-1.15065950107774
21
-0.362801547101905
31
0
210
0
220
0
230
1
40
0.982115
41
-2.74175074133576
42
-2.22351735227911
0
ELLIPSE
5
C6
100
AcDbEntity
8
1
62
256
6
ByLayer
370
-1
48
1
60
0
100
AcDbEllipse
10
101.688253
20
-10.469189
30
0
11
1.59890646792941
21
0.504133272868914
31
0
210
0
220
0
230
1
40
0.982115
41
-2.30977071121113
42
-1.26536370769585
0
ELLIPSE
5
C7
100
AcDbEntity
8
1
62
256
6
ByLayer
370
-1
48
1
60
0
100
AcDbEllipse
10
100.060784
20
-11.284578
30
0
11
-0.654249828213284
21
-0.206284178459931
31
0
210
0
220
0
230
1
40
0.982115
41
3.1415833196341
42
-2.95777407570788
0
ELLIPSE
5
C8
100
AcDbEntity
8
1
62
256
6
ByLayer
370
-1
48
1
60
0
100
AcDbEllipse
10
101.608989
20
-10.217795
30
0
11
2.5035069957141
21
0.789352723698716
31
0
210
0
220
0
230
1
40
0.982115
41
2.83094619520399
42
-3.14151577684904
0
ELLIPSE
5
C9
100
AcDbEntity
8
1
62
256
6
ByLayer
370
-1
48
1
60
0
100
AcDbEllipse
10
101.608989
20
-10.217795
30
0
11
2.5035069957141
21
0.789352723698716
31
0
210
0
220
0
230
1
40
0.982115
41
0
42
2.83094604633229
0
ELLIPSE
5
CA
100
AcDbEntity
8
1
62
256
6
ByLayer
370
-1
48
1
60
0
100
AcDbEllipse
10
103.314756
20
-10.993661
30
0
11
-0.654249828213284
21
-0.206284178459931
31
0
210
0
220
0
230
1
40
0.982115
41
-0.743160205938288
42
-1.09160391361755E-05
0
ELLIPSE
5
CB
100
AcDbEntity
8
1
62
256
6
ByLayer
370
-1
48
1
60
0
100
AcDbEllipse
10
101.688253
20
-10.469189
30
0
11
1.59890646792941
21
0.504133272868914
31
0
210
0
220
0
230
1
40
0.982115
41
0.831821942378631
42
1.87622894589389
0
ELLIPSE
5
CC
100
AcDbEntity
8
1
62
256
6
ByLayer
370
-1
48
1
60
0
100
AcDbEllipse
10
101.688253
20
-10.469189
30
0
11
1.59890646792941
21
0.504133272868914
31
0
210
0
220
0
230
1
40
0.982115
41
1.87622894589389
42
2.92063594940918
0
ELLIPSE
5
CD
100
AcDbEntity
8
1
62
256
6
ByLayer
370
-1
48
1
60
0
100
AcDbEllipse
10
101.607573
20
-10.213305
30
0
11
-1.15065950107774
21
-0.362801547101905
31
0
210
0
220
0
230
1
40
0.982115
41
-0.376039018102104
42
0.236399985687018
0
ELLIPSE
5
CE
100
AcDbEntity
8
1
62
256
6
ByLayer
370
-1
48
1
60
0
100
AcDbEllipse
10
101.688253
20
-10.469189
30
0
11
1.59890646792941
21
0.504133272868914
31
0
210
0
220
0
230
1
40
0.982115
41
-1.26536370769585
42
-0.220956704180632
0
ELLIPSE
5
CF
100
AcDbEntity
8
1
62
256
6
ByLayer
370
-1
48
1
60
0
100
AcDbEllipse
10
103.154362
20
-9.142033
30
0
11
-0.654249828213284
21
-0.206284178459931
31
0
210
0
220
0
230
1
40
0.982115
41
-0.485828715822246
42
-9.88714289561138E-06
0
ELLIPSE
5
D0
100
AcDbEntity
8
1
62
256
6
ByLayer
370
-1
48
1
60
0
100
AcDbEllipse
10
101.688253
20
-10.469189
30
0
11
1.71669051134681
21
0.541270439107691
31
0
210
0
220
0
230
1
40
0.982115
41
0
42
6.28318530717959
0
ELLIPSE
5
D1
100
AcDbEntity
8
1
62
256
6
ByLayer
370
-1
48
1
60
0
100
AcDbEllipse
10
101.67289
20
-10.420463
30
0
11
1.15065950107774
21
0.362801547101905
31
0
210
0
220
0
230
1
40
0.982115
41
0.236399985687246
42
0.374465252510748
0
ELLIPSE
5
D2
100
AcDbEntity
8
1
62
256
6
ByLayer
370
-1
48
1
60
0
100
AcDbEllipse
10
101.607573
20
-10.213305
30
0
11
1.15065950107774
21
0.362801547101905
31
0
210
0
220
0
230
1
40
0.982115
41
-2.90519266790278
42
-2.76712740107876
0
ELLIPSE
5
D3
100
AcDbEntity
8
1
62
256
6
ByLayer
370
-1
48
1
60
0
100
AcDbEllipse
10
101.607573
20
-10.213305
30
0
11
-1.15065950107774
21
-0.362801547101905
31
0
210
0
220
0
230
1
40
0.982115
41
-1.42953155292089
42
-0.91757653563078
0
ELLIPSE
5
D4
100
AcDbEntity
8
1
62
256
6
ByLayer
370
-1
48
1
60
0
100
AcDbEllipse
10
100.229642
20
-10.335299
30
0
11
-0.278485349618482
21
-0.0878060934552474
31
0
210
0
220
0
230
1
40
0.982115
41
0.482263379362296
42
1.09669395402018
0
ELLIPSE
5
D5
100
AcDbEntity
8
1
62
256
6
ByLayer
370
-1
48
1
60
0
100
AcDbEllipse
10
101.607573
20
-10.213305
30
0
11
1.15065950107774
21
0.362801547101905
31
0
210
0
220
0
230
1
40
0.982115
41
-1.7875672094535
42
-0.743160205938247
0
ELLIPSE
5
D6
100
AcDbEntity
8
1
62
256
6
ByLayer
370
-1
48
1
60
0
100
AcDbEllipse
10
100.060784
20
-11.284578
30
0
11
-0.654249828213284
21
-0.206284178459931
31
0
210
0
220
0
230
1
40
0.982115
41
-2.71454599327368
42
-2.04489869956956
0
ELLIPSE
5
D7
100
AcDbEntity
8
1
62
256
6
ByLayer
370
-1
48
1
60
0
100
AcDbEllipse
10
93.905818
20
1.16779
30
0
11
-0.410098288821738
21
-0.129303493786837
31
0
210
0
220
0
230
1
40
0.982115
41
-2.22913601157335
42
9.98994337819229E-14
0
POINT
5
41
100
AcDbEntity
8
80
62
256
6
ByLayer
370
-1
48
1
60
0
100
AcDbPoint
10
0
20
0
30
0
39
0
210
0
220
0
230
1
50
360
0
POINT
5
43
100
AcDbEntity
8
81
62
256
6
ByLayer
370
-1
48
1
60
0
100
AcDbPoint
10
110
20
-21.9
30
0
39
0
210
0
220
0
230
1
50
360
0
POINT
5
45
100
AcDbEntity
8
1
62
256
6
ByLayer
370
-1
48
1
60
0
100
AcDbPoint
10
0
20
0
30
0
39
0
210
0
220
0
230
1
50
360
0
POINT
5
47
100
AcDbEntity
8
2
62
256
6
ByLayer
370
-1
48
1
60
0
100
AcDbPoint
10
110
20
21.9
30
0
39
0
210
0
220
0
230
1
50
360
0
POINT
5
49
100
AcDbEntity
8
2
62
256
6
ByLayer
370
-1
48
1
60
0
100
AcDbPoint
10
109.448793
20
19.286308
30
0
39
0
210
0
220
0
230
1
50
360
0
SPLINE
5
D8
100
AcDbEntity
8
SK1
62
256
6
ByLayer
370
-1
48
1
60
0
100
AcDbSpline
70
4
71
2
72
6
73
3
40
0
40
0
40
0
40
1
40
1
40
1
41
1
10
-2.19492113517947
20
17.5202263833491
30
0
41
1
10
-2.59746056758974
20
17.5101131916847
30
0
41
1
10
-3
20
17.5000000000204
30
0
0
SPLINE
5
D9
100
AcDbEntity
8
SK1
62
256
6
ByLayer
370
-1
48
1
60
0
100
AcDbSpline
70
4
71
2
72
6
73
3
40
0
40
0
40
0
40
1
40
1
40
1
41
1
10
-3
20
-17.5000000000527
30
0
41
1
10
-2.59746056758974
20
-17.510113191717
30
0
41
1
10
-2.19492113517947
20
-17.5202263833814
30
0
0
SPLINE
5
DA
100
AcDbEntity
8
SK1
62
256
6
ByLayer
370
-1
48
1
60
0
100
AcDbSpline
70
4
71
2
72
6
73
3
40
0
40
0
40
0
40
1
40
1
40
1
41
1
10
-3
20
17.5000000000204
30
0
41
1
10
-15.7502365839532
20
17.1796696771814
30
0
41
1
10
-28.5004731679065
20
16.8593393543424
30
0
0
SPLINE
5
DB
100
AcDbEntity
8
SK1
62
256
6
ByLayer
370
-1
48
1
60
0
100
AcDbSpline
70
4
71
2
72
6
73
3
40
0
40
0
40
0
40
1
40
1
40
1
41
1
10
-28.5004731679065
20
-16.8593393543735
30
0
41
1
10
-15.7502365839533
20
-17.1796696772131
30
0
41
1
10
-3
20
-17.5000000000527
30
0
0
SPLINE
5
DC
100
AcDbEntity
8
SK1
62
256
6
ByLayer
370
-1
48
1
60
0
100
AcDbSpline
70
4
71
2
72
6
73
3
40
0
40
0
40
0
40
1
40
1
40
1
41
1
10
-30
20
-15.9423013487186
30
0
41
1
10
-29.2501952787077
20
-16.4010253845871
30
0
41
1
10
-28.5003904504266
20
-16.8597456617469
30
0
0
SPLINE
5
DD
100
AcDbEntity
8
SK1
62
256
6
ByLayer
370
-1
48
1
60
0
100
AcDbSpline
70
4
71
2
72
6
73
3
40
0
40
0
40
0
40
1
40
1
40
1
41
1
10
-28.5004032853135
20
16.8579102610954
30
0
41
1
10
-29.250201613525
20
16.3993636736336
30
0
41
1
10
-30
20
15.9408160639395
30
0
0
SPLINE
5
DE
100
AcDbEntity
8
SK1
62
256
6
ByLayer
370
-1
48
1
60
0
100
AcDbSpline
70
4
71
2
72
6
73
3
40
0
40
0
40
0
40
1
40
1
40
1
41
1
10
-0.400000000000006
20
17.3251501414068
30
0
41
1
10
-1.20000000000002
20
17.3251501414068
30
0
41
1
10
-2
20
17.3251501414068
30
0
0
SPLINE
5
DF
100
AcDbEntity
8
SK1
62
256
6
ByLayer
370
-1
48
1
60
0
100
AcDbSpline
70
4
71
2
72
6
73
3
40
0
40
0
40
0
40
1
40
1
40
1
41
1
10
-2
20
-17.3251501409626
30
0
41
1
10
-1.20000000000002
20
-17.3251501409626
30
0
41
1
10
-0.400000000000006
20
-17.3251501409626
30
0
0
SPLINE
5
E0
100
AcDbEntity
8
SK1
62
256
6
ByLayer
370
-1
48
1
60
0
100
AcDbSpline
70
4
71
3
72
11
73
7
40
0
40
0
40
0
40
0
40
0.243046129741601
40
0.498205801788989
40
0.754244992255907
40
1
40
1
40
1
40
1
41
1
10
-0.400000000000006
20
-17.3241476526065
30
0
41
1
10
-0.373991067023667
20
-17.3239685556465
30
0
41
1
10
-0.3244207367608
20
-17.33275982811
30
0
41
1
10
-0.254178184246655
20
-17.3766360753193
30
0
41
1
10
-0.20935024226452
20
-17.445622853432
30
0
41
1
10
-0.199994647676391
20
-17.493844966999
30
0
41
1
10
-0.200000000000017
20
-17.5191731511753
30
0
0
SPLINE
5
E1
100
AcDbEntity
8
SK1
62
256
6
ByLayer
370
-1
48
1
60
0
100
AcDbSpline
70
4
71
3
72
11
73
7
40
0
40
0
40
0
40
0
40
0.245757530295202
40
0.501795331807361
40
0.756953049144814
40
1
40
1
40
1
40
1
41
1
10
-0.200000000000017
20
17.5191688355708
30
0
41
1
10
-0.199994500672233
20
17.4938412312526
30
0
41
1
10
-0.209350044376066
20
17.4456203921356
30
0
41
1
10
-0.254178044541106
20
17.3766339294131
30
0
41
1
10
-0.324421202647557
20
17.332758304075
30
0
41
1
10
-0.373991174653753
20
17.323967489369
30
0
41
1
10
-0.400000000000006
20
17.3241468641747
30
0
0
SPLINE
5
E2
100
AcDbEntity
8
1
62
256
6
ByLayer
370
-1
48
1
60
0
100
AcDbSpline
70
4
71
3
72
24
73
20
40
0
40
0
40
0
40
0
40
0.125
40
0.125
40
0.25
40
0.25
40
0.3125
40
0.3125
40
0.375
40
0.375
40
0.5
40
0.5
40
0.625
40
0.625
40
0.75
40
0.75
40
0.875
40
0.875
40
1
40
1
40
1
40
1
41
1
10
85.6415963883077
20
-15.8735915726761
30
0
41
1
10
82.7805627913517
20
-15.8522415484888
30
0
41
1
10
80.000341992353
20
-15.7989299794171
30
0
41
1
10
74.6315251436047
20
-15.375006193171
30
0
41
1
10
72.0350922106726
20
-15.0081531624515
30
0
41
1
10
68.8473226420081
20
-13.6519867440523
30
0
41
1
10
67.9058285744755
20
-13.056514785458
30
0
41
1
10
66.4202756556001
20
-11.4848432949915
30
0
41
1
10
65.8815149101775
20
-10.4997178297115
30
0
41
1
10
64.9873701481108
20
-7.10972372631772
30
0
41
1
10
65.3340397133238
20
-4.24417950732996
30
0
41
1
10
67.126630300288
20
1.17874102951691
30
0
41
1
10
68.5587625148219
20
3.74591010391006
30
0
41
1
10
72.0801962488819
20
7.93541671273783
30
0
41
1
10
74.1765080889874
20
9.57202235928779
30
0
41
1
10
78.848679278724
20
12.0080602773735
30
0
41
1
10
81.3856238120857
20
12.8043043351454
30
0
41
1
10
86.7194610964921
20
13.8852718914635
30
0
41
1
10
89.5323650240793
20
14.1746206806493
30
0
41
1
10
92.3739027573944
20
14.3046771503647
30
0
0
SPLINE
5
E3
100
AcDbEntity
8
1
62
256
6
ByLayer
370
-1
48
1
60
0
100
AcDbSpline
70
4
71
3
72
18
73
14
40
0
40
0
40
0
40
0
40
0.0809805960320918
40
0.0809805960320918
40
0.544227292214085
40
0.544227292214085
40
0.699318265621671
40
0.699318265621671
40
0.856346274356483
40
0.856346274356483
40
0.966571999538831
40
0.966571999538831
40
1
40
1
40
1
40
1
41
1
10
8.10566243270262
20
-8.05584836782774
30
0
41
1
10
8.11065289887432
20
-8.03731605051118
30
0
41
1
10
8.11597900857612
20
-8.01885383673363
30
0
41
1
10
8.15400172089505
20
-7.89611164850155
30
0
41
1
10
8.1977744361825
20
-7.7921939727409
30
0
41
1
10
8.28487257800725
20
-7.67169814060125
30
0
41
1
10
8.30967508046024
20
-7.64266520230268
30
0
41
1
10
8.36604668219428
20
-7.59122859579529
30
0
41
1
10
8.3983775068167
20
-7.56839473241365
30
0
41
1
10
8.45889576423616
20
-7.54154007085771
30
0
41
1
10
8.48604318765894
20
-7.53384342094336
30
0
41
1
10
8.52183069664625
20
-7.53010833377257
30
0
41
1
10
8.53025906116034
20
-7.52966679426501
30
0
41
1
10
8.53867513459483
20
-7.52966679426501
30
0
0
SPLINE
5
E4
100
AcDbEntity
8
1
62
256
6
ByLayer
370
-1
48
1
60
0
100
AcDbSpline
70
4
71
3
72
18
73
14
40
0
40
0
40
0
40
0
40
0.0809805960320801
40
0.0809805960320801
40
0.544227292214068
40
0.544227292214068
40
0.699318265621658
40
0.699318265621658
40
0.856346274356475
40
0.856346274356475
40
0.966571999538822
40
0.966571999538822
40
1
40
1
40
1
40
1
41
1
10
8.10566243270262
20
23.6665017920809
30
0
41
1
10
8.11065289887432
20
23.672810013698
30
0
41
1
10
8.11597900857612
20
23.6790700603507
30
0
41
1
10
8.15400172089505
20
23.7205303134149
30
0
41
1
10
8.1977744361825
20
23.7548029562659
30
0
41
1
10
8.28487257800725
20
23.7938243006291
30
0
41
1
10
8.30967508046024
20
23.8031592998669
30
0
41
1
10
8.36604668219428
20
23.8196134016841
30
0
41
1
10
8.3983775068167
20
23.8268687494612
30
0
41
1
10
8.45889576423616
20
23.8353793525422
30
0
41
1
10
8.48604318765894
20
23.8378105604685
30
0
41
1
10
8.52183069664625
20
23.8389905264494
30
0
41
1
10
8.53025906116034
20
23.8391299750503
30
0
41
1
10
8.53867513459483
20
23.8391299750503
30
0
0
SPLINE
5
E5
100
AcDbEntity
8
1
62
256
6
ByLayer
370
-1
48
1
60
0
100
AcDbSpline
70
4
71
3
72
32
73
28
40
-0.124999999999999
40
-0.124999999999999
40
0
40
0
40
0.125
40
0.125
40
0.187500000000001
40
0.187500000000001
40
0.250000000000001
40
0.250000000000001
40
0.312500000000001
40
0.312500000000001
40
0.375000000000001
40
0.375000000000001
40
0.500000000000002
40
0.500000000000002
40
0.625000000000002
40
0.625000000000002
40
0.687500000000003
40
0.687500000000003
40
0.718750000000003
40
0.718750000000003
40
0.750000000000003
40
0.750000000000003
40
0.812500000000002
40
0.812500000000002
40
0.875000000000001
40
0.875000000000001
40
1
40
1
40
1.125
40
1.125
41
1
10
82.1902398102947
20
-7.04560488133663
30
0
41
1
10
80.4810509099351
20
-6.20652852433571
30
0
41
1
10
79.5946688305985
20
-5.87528670159566
30
0
41
1
10
78.1977383224195
20
-5.73143542024764
30
0
41
1
10
77.7169199026173
20
-5.74035905420325
30
0
41
1
10
76.8021816524075
20
-6.07367138571223
30
0
41
1
10
76.3840028951366
20
-6.48492314281177
30
0
41
1
10
76.2705076808766
20
-7.46697460563828
30
0
41
1
10
76.4876593447178
20
-7.91642467186313
30
0
41
1
10
77.0321085247525
20
-8.65012594706127
30
0
41
1
10
77.3757735139522
20
-8.95286178879132
30
0
41
1
10
78.493611700133
20
-9.7481045091221
30
0
41
1
10
79.3540044088568
20
-10.127700224015
30
0
41
1
10
81.1553611790463
20
-10.7233877748093
30
0
41
1
10
82.1091142590682
20
-10.9427119494212
30
0
41
1
10
83.5758234625497
20
-11.1130049455366
30
0
41
1
10
84.0774757285171
20
-11.1479580018993
30
0
41
1
10
84.8238341013387
20
-11.0832781545566
30
0
41
1
10
85.0787153901305
20
-11.0452084269275
30
0
41
1
10
85.5296731286986
20
-10.82655434478
30
0
41
1
10
85.6856017742838
20
-10.5733151612403
30
0
41
1
10
85.561501462767
20
-9.83988586355213
30
0
41
1
10
85.1871401456989
20
-9.46018861053207
30
0
41
1
10
84.511003546274
20
-8.76181411369134
30
0
41
1
10
84.144002121799
20
-8.44690359453935
30
0
41
1
10
83.0015258775559
20
-7.55795832702648
30
0
41
1
10
82.1902398102947
20
-7.04560488133663
30
0
41
1
10
80.4810509099351
20
-6.20652852433571
30
0
0
SPLINE
5
E6
100
AcDbEntity
8
1
62
256
6
ByLayer
370
-1
48
1
60
0
100
AcDbSpline
70
4
71
3
72
16
73
12
40
0
40
0
40
0
40
0
40
0.0773436766578803
40
0.0773436766578803
40
0.181588290672623
40
0.181588290672623
40
0.353924998170025
40
0.353924998170025
40
0.659870482236126
40
0.659870482236126
40
1
40
1
40
1
40
1
41
1
10
11.4613248654052
20
-7.52966679426498
30
0
41
1
10
11.4806912734381
20
-7.52966679426498
30
0
41
1
10
11.5001920479834
20
-7.53205286469702
30
0
41
1
10
11.5443643455559
20
-7.54265601007381
30
0
41
1
10
11.5688999660418
20
-7.55272636772358
30
0
41
1
10
11.6286300521075
20
-7.58609718460602
30
0
41
1
10
11.66158714279
20
-7.61407037421822
30
0
41
1
10
11.7407360052433
20
-7.69895209889256
30
0
41
1
10
11.7798892743244
20
-7.76300791758413
30
0
41
1
10
11.8468244213921
20
-7.90167589305847
30
0
41
1
10
11.8734747805012
20
-7.97837348437852
30
0
41
1
10
11.8943375672974
20
-8.05584836782771
30
0
0
SPLINE
5
E7
100
AcDbEntity
8
1
62
256
6
ByLayer
370
-1
48
1
60
0
100
AcDbSpline
70
4
71
3
72
16
73
12
40
0
40
0
40
0
40
0
40
0.077343676657827
40
0.077343676657827
40
0.181588290672556
40
0.181588290672556
40
0.353924998169922
40
0.353924998169922
40
0.659870482235914
40
0.659870482235914
40
1
40
1
40
1
40
1
41
1
10
8.53867513459483
20
-23.8391299750503
30
0
41
1
10
8.51930872656192
20
-23.8391299750503
30
0
41
1
10
8.49980795201657
20
-23.8383766644784
30
0
41
1
10
8.45563565444411
20
-23.8350242537625
30
0
41
1
10
8.43110003395827
20
-23.8318379431383
30
0
41
1
10
8.37136994789256
20
-23.8212426939765
30
0
41
1
10
8.33841285720996
20
-23.812328084785
30
0
41
1
10
8.25926399475679
20
-23.7850663392819
30
0
41
1
10
8.22011072567562
20
-23.7642694363116
30
0
41
1
10
8.15317557860794
20
-23.7185457490814
30
0
41
1
10
8.12652521949877
20
-23.692873493267
30
0
41
1
10
8.10566243270262
20
-23.6665017920809
30
0
0
SPLINE
5
E8
100
AcDbEntity
8
1
62
256
6
ByLayer
370
-1
48
1
60
0
100
AcDbSpline
70
4
71
3
72
16
73
12
40
0
40
0
40
0
40
0
40
0.0773436766578767
40
0.0773436766578767
40
0.181588290672618
40
0.181588290672618
40
0.353924998170011
40
0.353924998170011
40
0.659870482236094
40
0.659870482236094
40
1
40
1
40
1
40
1
41
1
10
11.4613248654052
20
23.8391299750503
30
0
41
1
10
11.4806912734381
20
23.8391299750503
30
0
41
1
10
11.5001920479834
20
23.8383766644784
30
0
41
1
10
11.5443643455559
20
23.8350242537625
30
0
41
1
10
11.5688999660418
20
23.8318379431383
30
0
41
1
10
11.6286300521075
20
23.8212426939765
30
0
41
1
10
11.66158714279
20
23.812328084785
30
0
41
1
10
11.7407360052433
20
23.7850663392819
30
0
41
1
10
11.7798892743244
20
23.7642694363116
30
0
41
1
10
11.8468244213921
20
23.7185457490814
30
0
41
1
10
11.8734747805012
20
23.692873493267
30
0
41
1
10
11.8943375672974
20
23.6665017920809
30
0
0
SPLINE
5
E9
100
AcDbEntity
8
1
62
256
6
ByLayer
370
-1
48
1
60
0
100
AcDbSpline
70
4
71
3
72
16
73
12
40
0
40
0
40
0
40
0
40
0.0773436766578125
40
0.0773436766578125
40
0.181588290672542
40
0.181588290672542
40
0.353924998169895
40
0.353924998169895
40
0.659870482235859
40
0.659870482235859
40
1
40
1
40
1
40
1
41
1
10
8.53867513459483
20
7.52966679426501
30
0
41
1
10
8.51930872656197
20
7.52966679426501
30
0
41
1
10
8.49980795201662
20
7.53205286469702
30
0
41
1
10
8.45563565444411
20
7.54265601007379
30
0
41
1
10
8.43110003395827
20
7.55272636772355
30
0
41
1
10
8.37136994789256
20
7.58609718460599
30
0
41
1
10
8.33841285721002
20
7.61407037421819
30
0
41
1
10
8.25926399475679
20
7.69895209889248
30
0
41
1
10
8.22011072567562
20
7.76300791758402
30
0
41
1
10
8.15317557860794
20
7.90167589305835
30
0
41
1
10
8.12652521949877
20
7.97837348437849
30
0
41
1
10
8.10566243270262
20
8.05584836782774
30
0
0
SPLINE
5
EA
100
AcDbEntity
8
1
62
256
6
ByLayer
370
-1
48
1
60
0
100
AcDbSpline
70
4
71
3
72
18
73
14
40
0
40
0
40
0
40
0
40
0.0809805960321051
40
0.0809805960321051
40
0.544227292214096
40
0.544227292214096
40
0.69931826562168
40
0.69931826562168
40
0.856346274356486
40
0.856346274356486
40
0.966571999538835
40
0.966571999538835
40
1
40
1
40
1
40
1
41
1
10
11.8943375672974
20
-23.6665017920809
30
0
41
1
10
11.8893471011256
20
-23.672810013698
30
0
41
1
10
11.8840209914239
20
-23.6790700603507
30
0
41
1
10
11.845998279105
20
-23.7205303134149
30
0
41
1
10
11.8022255638174
20
-23.7548029562659
30
0
41
1
10
11.7151274219928
20
-23.7938243006291
30
0
41
1
10
11.6903249195398
20
-23.8031592998669
30
0
41
1
10
11.6339533178057
20
-23.8196134016841
30
0
41
1
10
11.6016224931833
20
-23.8268687494612
30
0
41
1
10
11.5411042357638
20
-23.8353793525422
30
0
41
1
10
11.5139568123411
20
-23.8378105604685
30
0
41
1
10
11.4781693033538
20
-23.8389905264494
30
0
41
1
10
11.4697409388397
20
-23.8391299750503
30
0
41
1
10
11.4613248654052
20
-23.8391299750503
30
0
0
SPLINE
5
EB
100
AcDbEntity
8
1
62
256
6
ByLayer
370
-1
48
1
60
0
100
AcDbSpline
70
4
71
3
72
10
73
6
40
0
40
0
40
0
40
0
40
0.679347771445056
40
0.679347771445056
40
1
40
1
40
1
40
1
41
1
10
91.8002674727305
20
1.36411743421638
30
0
41
1
10
91.8106533006653
20
1.2459012739323
30
0
41
1
10
91.8254637735751
20
1.13174192915108
30
0
41
1
10
91.8545703395146
20
0.969655475289898
30
0
41
1
10
91.8650139120247
20
0.91858240166988
30
0
41
1
10
91.8766489209166
20
0.868407922407215
30
0
0
SPLINE
5
EC
100
AcDbEntity
8
1
62
256
6
ByLayer
370
-1
48
1
60
0
100
AcDbSpline
70
4
71
3
72
18
73
14
40
0
40
0
40
0
40
0
40
0.0809805960320615
40
0.0809805960320615
40
0.544227292213941
40
0.544227292213941
40
0.699318265621571
40
0.699318265621571
40
0.856346274356429
40
0.856346274356429
40
0.966571999538782
40
0.966571999538782
40
1
40
1
40
1
40
1
41
1
10
11.8943375672974
20
8.05584836782771
30
0
41
1
10
11.8893471011257
20
8.03731605051115
30
0
41
1
10
11.8840209914239
20
8.01885383673363
30
0
41
1
10
11.845998279105
20
7.89611164850155
30
0
41
1
10
11.8022255638175
20
7.79219397274093
30
0
41
1
10
11.7151274219928
20
7.67169814060131
30
0
41
1
10
11.6903249195398
20
7.64266520230271
30
0
41
1
10
11.6339533178058
20
7.59122859579532
30
0
41
1
10
11.6016224931834
20
7.56839473241365
30
0
41
1
10
11.5411042357638
20
7.54154007085771
30
0
41
1
10
11.5139568123411
20
7.53384342094336
30
0
41
1
10
11.4781693033538
20
7.53010833377257
30
0
41
1
10
11.4697409388397
20
7.52966679426501
30
0
41
1
10
11.4613248654052
20
7.52966679426501
30
0
0
SPLINE
5
ED
100
AcDbEntity
8
SK1
62
256
6
ByLayer
370
-1
48
1
60
0
100
AcDbSpline
70
4
71
3
72
24
73
20
40
0
40
0
40
0
40
0
40
0.0299003298961631
40
0.0299003298961631
40
0.0528622635029669
40
0.0528622635029669
40
0.0709275158044995
40
0.0709275158044995
40
0.0890039000876294
40
0.0890039000876294
40
0.11362248491787
40
0.11362248491787
40
0.157577258657195
40
0.157577258657195
40
0.29602514002948
40
0.29602514002948
40
0.878150828056824
40
0.878150828056824
40
1
40
1
40
1
40
1
41
1
10
-0.400000000000034
20
-5.16866682996297
30
0
41
1
10
-0.394094307655593
20
-5.16300784544387
30
0
41
1
10
-0.38760623850834
20
-5.15782429554133
30
0
41
1
10
-0.374945775641891
20
-5.1507540726119
30
0
41
1
10
-0.368929355824321
20
-5.14835070696066
30
0
41
1
10
-0.35770867701234
20
-5.14629827954846
30
0
41
1
10
-0.352495529695631
20
-5.14618209741417
30
0
41
1
10
-0.342356257615734
20
-5.14777530545462
30
0
41
1
10
-0.337316914191916
20
-5.1495007928761
30
0
41
1
10
-0.326353738404208
20
-5.15512166080455
30
0
41
1
10
-0.320571087776045
20
-5.15961290941803
30
0
41
1
10
-0.306345382412019
20
-5.17348963231112
30
0
41
1
10
-0.298929389281341
20
-5.1841444040335
30
0
41
1
10
-0.272649182798801
20
-5.22929437458617
30
0
41
1
10
-0.260939846150848
20
-5.26761390191822
30
0
41
1
10
-0.21079653079866
20
-5.46289223314824
30
0
41
1
10
-0.20436648289828
20
-5.62478131775705
30
0
41
1
10
-0.200325121553277
20
-5.8154278903541
30
0
41
1
10
-0.200000000000046
20
-5.8484679854401
30
0
41
1
10
-0.200000000000046
20
-5.88142452370542
30
0
0
SPLINE
5
EE
100
AcDbEntity
8
SK1
62
256
6
ByLayer
370
-1
48
1
60
0
100
AcDbSpline
70
4
71
3
72
26
73
22
40
0
40
0
40
0
40
0
40
0.466011607458034
40
0.466011607458034
40
0.67024046630168
40
0.67024046630168
40
0.77456727018221
40
0.77456727018221
40
0.857070717706419
40
0.857070717706419
40
0.898538406950324
40
0.898538406950324
40
0.918045307993239
40
0.918045307993239
40
0.937772855809251
40
0.937772855809251
40
0.955553297254221
40
0.955553297254221
40
0.984230712729842
40
0.984230712729842
40
1
40
1
40
1
40
1
41
1
10
-0.200000000000046
20
5.88142397393347
30
0
41
1
10
-0.200000000000046
20
5.75538988127934
30
0
41
1
10
-0.204053336884698
20
5.62782146467677
30
0
41
1
10
-0.224291300237979
20
5.44372978251536
30
0
41
1
10
-0.232375898168357
20
5.3873284499669
30
0
41
1
10
-0.251389677244674
20
5.30297629006839
30
0
41
1
10
-0.25900395291697
20
5.27447755328694
30
0
41
1
10
-0.277073232762461
20
5.22483382882945
30
0
41
1
10
-0.286541211569755
20
5.20296176881411
30
0
41
1
10
-0.306529791401147
20
5.17375294403038
30
0
41
1
10
-0.314426911926432
20
5.1643717298173
30
0
41
1
10
-0.328481919155991
20
5.15398148698225
30
0
41
1
10
-0.333472930985607
20
5.15114386616668
30
0
41
1
10
-0.343977733072507
20
5.14732547572157
30
0
41
1
10
-0.349636276202261
20
5.14634920679938
30
0
41
1
10
-0.360093315739704
20
5.1465317925306
30
0
41
1
10
-0.365036235354097
20
5.14747094480913
30
0
41
1
10
-0.377122372198727
20
5.15149960910935
30
0
41
1
10
-0.384002450469694
20
5.1555505154767
30
0
41
1
10
-0.393629001799496
20
5.16285427826699
30
0
41
1
10
-0.396890469609758
20
5.16568716298278
30
0
41
1
10
-0.400000000000063
20
5.16866679574503
30
0
0
SPLINE
5
EF
100
AcDbEntity
8
SK1
62
256
6
ByLayer
370
-1
48
1
60
0
100
AcDbSpline
70
4
71
3
72
10
73
6
40
0
40
0
40
0
40
0
40
0.5
40
0.5
40
1
40
1
40
1
40
1
41
1
10
-1.30710678118655
20
-3.80474436172742
30
0
41
1
10
-1.52921682270321
20
-2.59907728352434
30
0
41
1
10
-1.70909405340865
20
-1.31281235086666
30
0
41
1
10
-1.7096317930087
20
1.30649832374493
30
0
41
1
10
-1.52966155970611
20
2.5966617696443
30
0
41
1
10
-1.30710678118663
20
3.80474664113297
30
0
0
SPLINE
5
F0
100
AcDbEntity
8
SK1
62
256
6
ByLayer
370
-1
48
1
60
0
100
AcDbSpline
70
4
71
3
72
14
73
10
40
0
40
0
40
0
40
0
40
0.103084720937158
40
0.255613416256898
40
0.408142111576637
40
0.560670806896377
40
0.713199502216117
40
0.865728197535857
40
1
40
1
40
1
40
1
41
1
10
-2.20000000000002
20
15.0247808648858
30
0
41
1
10
-2.20000000000002
20
14.8960266306386
30
0
41
1
10
-2.20000000000002
20
14.564952857959
30
0
41
1
10
-2.20000000000002
20
13.9919277482646
30
0
41
1
10
-2.20000000000002
20
13.2962224496515
30
0
41
1
10
-2.20000000000002
20
12.5546840468425
30
0
41
1
10
-2.20000000000002
20
11.7758177229786
30
0
41
1
10
-2.20000000000002
20
11.0011294486509
30
0
41
1
10
-2.20000000000002
20
10.4846854347648
30
0
41
1
10
-2.20000000000002
20
10.2416915117918
30
0
0
SPLINE
5
F1
100
AcDbEntity
8
SK1
62
256
6
ByLayer
370
-1
48
1
60
0
100
AcDbSpline
70
4
71
3
72
17
73
13
40
0
40
0
40
0
40
0
40
0.110194179073642
40
0.207159350519493
40
0.289521354065322
40
0.357566577979378
40
0.413195246897405
40
0.459692315386429
40
0.501341811377897
40
0.74942055556068
40
0.882505839912813
40
1
40
1
40
1
40
1
41
1
10
-2.20000000000002
20
10.2416915117918
30
0
41
1
10
-2.19999987208661
20
9.61581012386935
30
0
41
1
10
-2.19999963161601
20
8.43918552432854
30
0
41
1
10
-2.19999709569768
20
6.58740471337407
30
0
41
1
10
-2.19999227726785
20
4.89775372844778
30
0
41
1
10
-2.1999848960788
20
3.4082650609613
30
0
41
1
10
-2.19997337349054
20
2.12754037920914
30
0
41
1
10
-2.19995947696654
20
1.01624689806425
30
0
41
1
10
-2.19989354341638
20
-1.61912962424546
30
0
41
1
10
-2.20000234091825
20
-4.9046933627387
30
0
41
1
10
-2.19999748284147
20
-8.14219717433133
30
0
41
1
10
-2.19999919648836
20
-9.5715043461004
30
0
41
1
10
-2.20000000000002
20
-10.2416919827174
30
0
0
SPLINE
5
F2
100
AcDbEntity
8
SK1
62
256
6
ByLayer
370
-1
48
1
60
0
100
AcDbSpline
70
4
71
3
72
20
73
16
40
0
40
0
40
0
40
0
40
0.0482625705635243
40
0.0482625705635243
40
0.325220898603851
40
0.325220898603851
40
0.463381471379487
40
0.463381471379487
40
0.601551524434535
40
0.601551524434535
40
0.739735425204153
40
0.739735425204153
40
0.877939603517083
40
0.877939603517083
40
1
40
1
40
1
40
1
41
1
10
-2.20000000000002
20
-15.024780913897
30
0
41
1
10
-2.20000000000002
20
-15.0987632316058
30
0
41
1
10
-2.19999999163144
20
-15.1713153633957
30
0
41
1
10
-2.19999985652709
20
-15.6498272161843
30
0
41
1
10
-2.19999939887509
20
-16.0101821224506
30
0
41
1
10
-2.19999683011551
20
-16.4712024133173
30
0
41
1
10
-2.19999564996832
20
-16.6117543332689
30
0
41
1
10
-2.19999230715834
20
-16.8650200442632
30
0
41
1
10
-2.19999013861343
20
-16.9778482087754
30
0
41
1
10
-2.19998437020209
20
-17.1737303581388
30
0
41
1
10
-2.19998076728288
20
-17.2568757984567
30
0
41
1
10
-2.19997155592219
20
-17.390896629152
30
0
41
1
10
-2.19996594630393
20
-17.4418577268988
30
0
41
1
10
-2.19995283284749
20
-17.5043876537353
30
0
41
1
10
-2.19994561248376
20
-17.5199107584738
30
0
41
1
10
-2.19993704319941
20
-17.5200998959623
30
0
0
SPLINE
5
F3
100
AcDbEntity
8
SK1
62
256
6
ByLayer
370
-1
48
1
60
0
100
AcDbSpline
70
4
71
3
72
20
73
16
40
0
40
0
40
0
40
0
40
0.107709859712448
40
0.107709859712448
40
0.254805889930755
40
0.254805889930755
40
0.401872722902776
40
0.401872722902776
40
0.548920274139869
40
0.548920274139869
40
0.695955076709578
40
0.695955076709578
40
0.842981467916519
40
0.842981467916519
40
1
40
1
40
1
40
1
41
1
10
-2.19993655780453
20
17.5200998571237
30
0
41
1
10
-2.19994418187713
20
17.5204461970836
30
0
41
1
10
-2.19995074650436
20
17.5087568436244
30
0
41
1
10
-2.19996422500265
20
17.4552443316022
30
0
41
1
10
-2.19997041029708
20
17.4038992989506
30
0
41
1
10
-2.19998045819511
20
17.2645372816575
30
0
41
1
10
-2.19998432672412
20
17.1764163911093
30
0
41
1
10
-2.19999043378135
20
16.9665639550929
30
0
41
1
10
-2.19999267824221
20
16.8447172876608
30
0
41
1
10
-2.19999607391784
20
16.569798663462
30
0
41
1
10
-2.1999972302832
20
16.4165791409565
30
0
41
1
10
-2.1999988585969
20
16.0808080953317
30
0
41
1
10
-2.1999993308427
20
15.8980848535623
30
0
41
1
10
-2.19999991533382
20
15.4916218225697
30
0
41
1
10
-2.20000000000002
20
15.2657541717873
30
0
41
1
10
-2.20000000000002
20
15.0247808645654
30
0
0
SPLINE
5
F4
100
AcDbEntity
8
SK1
62
256
6
ByLayer
370
-1
48
1
60
0
100
AcDbSpline
70
4
71
3
72
14
73
10
40
0
40
0
40
0
40
0
40
0.134271728867906
40
0.286800437365241
40
0.439329145862575
40
0.591857854359909
40
0.744386562857243
40
0.896915271354578
40
1
40
1
40
1
40
1
41
1
10
-2.20000000000002
20
-10.2416919827174
30
0
41
1
10
-2.20000000000002
20
-10.4846857903794
30
0
41
1
10
-2.20000000000002
20
-11.0011299966239
30
0
41
1
10
-2.20000000000002
20
-11.7758175215927
30
0
41
1
10
-2.20000000000002
20
-12.5546844263156
30
0
41
1
10
-2.20000000000002
20
-13.296222281691
30
0
41
1
10
-2.20000000000002
20
-13.9919280373692
30
0
41
1
10
-2.20000000000002
20
-14.5649527853411
30
0
41
1
10
-2.20000000000002
20
-14.896026651443
30
0
41
1
10
-2.20000000000002
20
-15.0247809138965
30
0
0
SPLINE
5
F5
100
AcDbEntity
8
SK1
62
256
6
ByLayer
370
-1
48
1
60
0
100
AcDbSpline
70
4
71
3
72
30
73
26
40
0
40
0
40
0
40
0
40
0.0497716373189241
40
0.0497716373189241
40
0.162165060350991
40
0.162165060350991
40
0.274558483383058
40
0.274558483383058
40
0.386951906415125
40
0.386951906415125
40
0.443148617931158
40
0.443148617931158
40
0.499345329447191
40
0.499345329447191
40
0.555542040963225
40
0.555542040963225
40
0.611738752479258
40
0.611738752479258
40
0.724132175511325
40
0.724132175511325
40
0.836525598543391
40
0.836525598543391
40
0.948919021575458
40
0.948919021575458
40
1
40
1
40
1
40
1
41
1
10
-30
20
15.9403409240788
30
0
41
1
10
-30
20
15.9313679672385
30
0
41
1
10
-30
20
15.841212574255
30
0
41
1
10
-30
20
15.3551226444405
30
0
41
1
10
-30
20
14.7035612713569
30
0
41
1
10
-30
20
12.913904143316
30
0
41
1
10
-30
20
11.8006404644985
30
0
41
1
10
-30
20
9.09737074779505
30
0
41
1
10
-30
20
7.56524038449703
30
0
41
1
10
-30
20
4.91120745530117
30
0
41
1
10
-30
20
3.98120598160401
30
0
41
1
10
-30
20
2.00408086722498
30
0
41
1
10
-30
20
0.965918145527041
30
0
41
1
10
-30
20
-1.14866982454436
30
0
41
1
10
-30
20
-2.16166354374221
30
0
41
1
10
-30
20
-4.13146551345224
30
0
41
1
10
-30
20
-5.04792648915179
30
0
41
1
10
-30
20
-7.66128536670072
30
0
41
1
10
-30
20
-9.21076433484396
30
0
41
1
10
-30
20
-11.849267368353
30
0
41
1
10
-30
20
-12.9852614660311
30
0
41
1
10
-30
20
-14.7262518878428
30
0
41
1
10
-30
20
-15.3817060642258
30
0
41
1
10
-30
20
-15.855784689269
30
0
41
1
10
-29.9999999999999
20
-15.9426612636439
30
0
41
1
10
-29.9999999999999
20
-15.9428910476841
30
0
0
SPLINE
5
F6
100
AcDbEntity
8
SK1
62
256
6
ByLayer
370
-1
48
1
60
0
100
AcDbSpline
70
4
71
3
72
30
73
26
40
0
40
0
40
0
40
0
40
0.0455741138255229
40
0.0455741138255229
40
0.159049671854131
40
0.159049671854131
40
0.272525229882738
40
0.272525229882738
40
0.386000787911346
40
0.386000787911346
40
0.44273856692565
40
0.44273856692565
40
0.499476345939954
40
0.499476345939954
40
0.556214124954258
40
0.556214124954258
40
0.612951903968562
40
0.612951903968562
40
0.72642746199717
40
0.72642746199717
40
0.839903020025778
40
0.839903020025778
40
0.953378578054385
40
0.953378578054385
40
1
40
1
40
1
40
1
41
1
10
-28.5003225413339
20
-16.8565967863167
30
0
41
1
10
-28.5000340669831
20
-16.8376459225045
30
0
41
1
10
-28.4997859155402
20
-16.7493118007676
30
0
41
1
10
-28.4990096724341
20
-16.2729938374631
30
0
41
1
10
-28.4986372996478
20
-15.5898791582816
30
0
41
1
10
-28.4982166150499
20
-13.7831948847497
30
0
41
1
10
-28.4981553816128
20
-12.6061661210532
30
0
41
1
10
-28.4983351299001
20
-9.86418151693283
30
0
41
1
10
-28.4986074380835
20
-8.25375111866762
30
0
41
1
10
-28.4992036819074
20
-5.50138802951523
30
0
41
1
10
-28.4994883437258
20
-4.53085409634477
30
0
41
1
10
-28.5000751939889
20
-2.41173377014363
30
0
41
1
10
-28.5004477674112
20
-1.29663162177331
30
0
41
1
10
-28.5004967455741
20
1.09102073027188
30
0
41
1
10
-28.5001241479799
20
2.2401723307652
30
0
41
1
10
-28.4995330545162
20
4.37057072068765
30
0
41
1
10
-28.4992388617691
20
5.35704789398332
30
0
41
1
10
-28.4986284127516
20
8.15325541572716
30
0
41
1
10
-28.4983486589648
20
9.7461643015493
30
0
41
1
10
-28.4981532155241
20
12.5558253675992
30
0
41
1
10
-28.4982075437695
20
13.7091738077836
30
0
41
1
10
-28.4986240668147
20
15.5662992382396
30
0
41
1
10
-28.4989853639464
20
16.2452515155336
30
0
41
1
10
-28.4997641660737
20
16.7407877223766
30
0
41
1
10
-28.5000170119377
20
16.8337365671911
30
0
41
1
10
-28.5003124431537
20
16.8540125122711
30
0
0
SPLINE
5
F7
100
AcDbEntity
8
1
62
256
6
ByLayer
370
-1
48
1
60
0
100
AcDbSpline
70
4
71
3
72
18
73
14
40
0
40
0
40
0
40
0
40
0.0454196319138015
40
0.0454196319138015
40
0.268605656968602
40
0.268605656968602
40
0.49358266552409
40
0.49358266552409
40
0.732199488886164
40
0.732199488886164
40
0.993790830220833
40
0.993790830220833
40
1
40
1
40
1
40
1
41
1
10
100.019707393674
20
-10.6169122010993
30
0
41
1
10
100.019225664553
20
-10.6109472653023
30
0
41
1
10
100.018928260551
20
-10.6049456377634
30
0
41
1
10
100.018269065259
20
-10.5696151571743
30
0
41
1
10
100.022242579789
20
-10.5394641570057
30
0
41
1
10
100.038293648061
20
-10.4820863471316
30
0
41
1
10
100.050619203291
20
-10.4541480369483
30
0
41
1
10
100.082252374921
20
-10.4022924067982
30
0
41
1
10
100.102308559429
20
-10.3780561793262
30
0
41
1
10
100.148584378125
20
-10.3352135926586
30
0
41
1
10
100.175770942373
20
-10.316809135433
30
0
41
1
10
100.204501000858
20
-10.3028533753302
30
0
41
1
10
100.205174919563
20
-10.3025289480838
30
0
41
1
10
100.205849503083
20
-10.3022071227806
30
0
0
SPLINE
5
F8
100
AcDbEntity
8
1
62
256
6
ByLayer
370
-1
48
1
60
0
100
AcDbSpline
70
4
71
3
72
18
73
14
40
0
40
0
40
0
40
0
40
0.198114377192954
40
0.198114377192954
40
0.374811943626193
40
0.374811943626193
40
0.553358666814056
40
0.553358666814056
40
0.706896298281608
40
0.706896298281608
40
0.90726148694082
40
0.90726148694082
40
1
40
1
40
1
40
1
41
1
10
102.743833235351
20
-11.4623228154798
30
0
41
1
10
102.719788756525
20
-11.3950457479995
30
0
41
1
10
102.704304085903
20
-11.3229676692211
30
0
41
1
10
102.695648168365
20
-11.1845436459047
30
0
41
1
10
102.700326919944
20
-11.1168367896838
30
0
41
1
10
102.729683738332
20
-10.986605234577
30
0
41
1
10
102.755241772447
20
-10.922267428789
30
0
41
1
10
102.818639153543
20
-10.8176735703602
30
0
41
1
10
102.854938932056
20
-10.7739899630985
30
0
41
1
10
102.947024554044
20
-10.6899391681022
30
0
41
1
10
103.006764396458
20
-10.6529780226632
30
0
41
1
10
103.098086492684
20
-10.6147593792658
30
0
41
1
10
103.12798719567
20
-10.6048124575327
30
0
41
1
10
103.158320209206
20
-10.5970461535796
30
0
0
SPLINE
5
F9
100
AcDbEntity
8
1
62
256
6
ByLayer
370
-1
48
1
60
0
100
AcDbSpline
70
4
71
3
72
18
73
14
40
0
40
0
40
0
40
0
40
0.0441834409734402
40
0.0441834409734402
40
0.265317468229212
40
0.265317468229212
40
0.488178804862779
40
0.488178804862779
40
0.72451523513399
40
0.72451523513399
40
0.983584852974429
40
0.983584852974429
40
1
40
1
40
1
40
1
41
1
10
100.977311674514
20
-11.9694483536101
30
0
41
1
10
100.971908173149
20
-11.9670056500597
30
0
41
1
10
100.966574552461
20
-11.9643812809676
30
0
41
1
10
100.935302552756
20
-11.947707653768
30
0
41
1
10
100.911100564792
20
-11.9292372589686
30
0
41
1
10
100.869871956203
20
-11.8862207088126
30
0
41
1
10
100.852360896929
20
-11.8610962810456
30
0
41
1
10
100.824869079732
20
-11.8063154542071
30
0
41
1
10
100.81503549772
20
-11.7758059603341
30
0
41
1
10
100.803890849704
20
-11.711748872367
30
0
41
1
10
100.803315410732
20
-11.6773932074435
30
0
41
1
10
100.807751945155
20
-11.6424004990216
30
0
41
1
10
100.808037985992
20
-11.6403003429048
30
0
41
1
10
100.808343084456
20
-11.6382048659932
30
0
0
SPLINE
5
FA
100
AcDbEntity
8
1
62
256
6
ByLayer
370
-1
48
1
60
0
100
AcDbSpline
70
4
71
3
72
16
73
12
40
0
40
0
40
0
40
0
40
0.214802864943318
40
0.214802864943318
40
0.438120377168343
40
0.438120377168343
40
0.67241185107574
40
0.67241185107574
40
0.927660019506388
40
0.927660019506388
40
1
40
1
40
1
40
1
41
1
10
102.641254767623
20
-11.8152249440084
30
0
41
1
10
102.61782827311
20
-11.8314496327094
30
0
41
1
10
102.591544270654
20
-11.8440446961162
30
0
41
1
10
102.536273196505
20
-11.8605945455029
30
0
41
1
10
102.506515134021
20
-11.8644047279493
30
0
41
1
10
102.446983527745
20
-11.8628251920701
30
0
41
1
10
102.416534082342
20
-11.8569849962635
30
0
41
1
10
102.35727755715
20
-11.8361045042162
30
0
41
1
10
102.328108635348
20
-11.8200605849169
30
0
41
1
10
102.295076806774
20
-11.7948277816177
30
0
41
1
10
102.287994793802
20
-11.7889213218465
30
0
41
1
10
102.281186258075
20
-11.7827422098731
30
0
0
SPLINE
5
FB
100
AcDbEntity
8
1
62
256
6
ByLayer
370
-1
48
1
60
0
100
AcDbSpline
70
4
71
3
72
16
73
12
40
0
40
0
40
0
40
0
40
0.0991908256190398
40
0.0991908256190398
40
0.405370754593146
40
0.405370754593146
40
0.682916974092053
40
0.682916974092053
40
0.927912724718702
40
0.927912724718702
40
1
40
1
40
1
40
1
41
1
10
103.110332983612
20
-10.0438959314988
30
0
41
1
10
103.122358058768
20
-10.0469076382006
30
0
41
1
10
103.13433654891
20
-10.0506164225625
30
0
41
1
10
103.182285587499
20
-10.068467820748
30
0
41
1
10
103.217668207412
20
-10.0888910641215
30
0
41
1
10
103.275969560712
20
-10.1388275642795
30
0
41
1
10
103.300607889596
20
-10.168153243411
30
0
41
1
10
103.335217722992
20
-10.2290212394614
30
0
41
1
10
103.347036776371
20
-10.2608134942053
30
0
41
1
10
103.354750091985
20
-10.302322710382
30
0
41
1
10
103.356026075425
20
-10.311901391131
30
0
41
1
10
103.356798567956
20
-10.3214666595505
30
0
0
SPLINE
5
FC
100
AcDbEntity
8
1
62
256
6
ByLayer
370
-1
48
1
60
0
100
AcDbSpline
70
4
71
3
72
16
73
12
40
0
40
0
40
0
40
0
40
0.17362781491274
40
0.17362781491274
40
0.4793571184949
40
0.4793571184949
40
0.749911611192984
40
0.749911611192984
40
0.990045137410741
40
0.990045137410741
40
1
40
1
40
1
40
1
41
1
10
102.743833235359
20
-11.4623228154764
30
0
41
1
10
102.751288618888
20
-11.4831831695039
30
0
41
1
10
102.756776805583
20
-11.5050085563407
30
0
41
1
10
102.765630975989
20
-11.5661120552893
30
0
41
1
10
102.764235021886
20
-11.6072717558509
30
0
41
1
10
102.746720744329
20
-11.6808349378508
30
0
41
1
10
102.73197102699
20
-11.7148156266375
30
0
41
1
10
102.693567970823
20
-11.7707162773791
30
0
41
1
10
102.670521413178
20
-11.7943443383724
30
0
41
1
10
102.643458130161
20
-11.8136868413915
30
0
41
1
10
102.642359202102
20
-11.8144600363264
30
0
41
1
10
102.641254767623
20
-11.8152249440084
30
0
0
SPLINE
5
FD
100
AcDbEntity
8
1
62
256
6
ByLayer
370
-1
48
1
60
0
100
AcDbSpline
70
4
71
3
72
18
73
14
40
0
40
0
40
0
40
0
40
0.205510270209252
40
0.205510270209252
40
0.380789309279239
40
0.380789309279239
40
0.557829967726612
40
0.557829967726612
40
0.71098895074444
40
0.71098895074444
40
0.912556624672923
40
0.912556624672923
40
1
40
1
40
1
40
1
41
1
10
102.046841623355
20
-9.02717538317435
30
0
41
1
10
102.000488333138
20
-9.07275329843858
30
0
41
1
10
101.944863501689
20
-9.11377268872883
30
0
41
1
10
101.82846837211
20
-9.17574509017322
30
0
41
1
10
101.768249099226
20
-9.19936753688862
30
0
41
1
10
101.64172630913
20
-9.23204899244746
30
0
41
1
10
101.573431582642
20
-9.24131874167196
30
0
41
1
10
101.450416138866
20
-9.24310036344073
30
0
41
1
10
101.39362828337
20
-9.23778068805089
30
0
41
1
10
101.271869954163
20
-9.21323053902935
30
0
41
1
10
101.207803183672
20
-9.18988376127274
30
0
41
1
10
101.127598472956
20
-9.14667884273419
30
0
41
1
10
101.104557941646
20
-9.13218322150672
30
0
41
1
10
101.082983454214
20
-9.1165110664877
30
0
0
SPLINE
5
FE
100
AcDbEntity
8
1
62
256
6
ByLayer
370
-1
48
1
60
0
100
AcDbSpline
70
4
71
3
72
14
73
10
40
0
40
0
40
0
40
0
40
0.223765969413531
40
0.223765969413531
40
0.51761923281087
40
0.51761923281087
40
0.783074939747129
40
0.783074939747129
40
1
40
1
40
1
40
1
41
1
10
100.620336476937
20
-9.43693046088089
30
0
41
1
10
100.612281007184
20
-9.41497106818363
30
0
41
1
10
100.607430307389
20
-9.39114379547371
30
0
41
1
10
100.604936218147
20
-9.33438905072029
30
0
41
1
10
100.610088299309
20
-9.29996492556316
30
0
41
1
10
100.633128793852
20
-9.23697185027123
30
0
41
1
10
100.650154077259
20
-9.2072116826173
30
0
41
1
10
100.689933705403
20
-9.15936746525782
30
0
41
1
10
100.711546081795
20
-9.13957156999732
30
0
41
1
10
100.735251194007
20
-9.1231539166414
30
0
0
SPLINE
5
FF
100
AcDbEntity
8
1
62
256
6
ByLayer
370
-1
48
1
60
0
100
AcDbSpline
70
4
71
3
72
14
73
10
40
0
40
0
40
0
40
0
40
0.266197651678064
40
0.266197651678064
40
0.552929210515729
40
0.552929210515729
40
0.81218960359644
40
0.81218960359644
40
1
40
1
40
1
40
1
41
1
10
100.253639793992
20
-10.8547327478329
30
0
41
1
10
100.223406819874
20
-10.8526251594146
30
0
41
1
10
100.193153643687
20
-10.8451215658983
30
0
41
1
10
100.135241833648
20
-10.8183845087437
30
0
41
1
10
100.107079796647
20
-10.79779585707
30
0
41
1
10
100.063409943803
20
-10.7484101786507
30
0
41
1
10
100.046333181564
20
-10.7197957605358
30
0
41
1
10
100.026972098739
20
-10.6660603244133
30
0
41
1
10
100.021705686906
20
-10.6416557557289
30
0
41
1
10
100.019707393674
20
-10.6169122010993
30
0
0
SPLINE
5
100
100
AcDbEntity
8
1
62
256
6
ByLayer
370
-1
48
1
60
0
100
AcDbSpline
70
4
71
3
72
12
73
8
40
0
40
0
40
0
40
0
40
0.358452553756292
40
0.358452553756292
40
0.789477838141231
40
0.789477838141231
40
1
40
1
40
1
40
1
41
1
10
100.253639793992
20
-10.8547327478328
30
0
41
1
10
100.302921735474
20
-10.8581682698788
30
0
41
1
10
100.352296353352
20
-10.8676857603122
30
0
41
1
10
100.457768784183
20
-10.9031559493704
30
0
41
1
10
100.514461409175
20
-10.9326696938999
30
0
41
1
10
100.591053847672
20
-10.9916650124723
30
0
41
1
10
100.615228997089
20
-11.0136578241328
30
0
41
1
10
100.637682872076
20
-11.0378435489349
30
0
0
SPLINE
5
101
100
AcDbEntity
8
1
62
256
6
ByLayer
370
-1
48
1
60
0
100
AcDbSpline
70
4
71
3
72
18
73
14
40
0
40
0
40
0
40
0
40
0.0202738378500816
40
0.0202738378500816
40
0.244136096663746
40
0.244136096663746
40
0.468322852784358
40
0.468322852784358
40
0.704958742090814
40
0.704958742090814
40
0.963681437568367
40
0.963681437568367
40
1
40
1
40
1
40
1
41
1
10
100.735251194007
20
-9.1231539166414
30
0
41
1
10
100.737487818978
20
-9.12160487805701
30
0
41
1
10
100.739745373085
20
-9.12008302231888
30
0
41
1
10
100.766872007128
20
-9.10228830800563
30
0
41
1
10
100.79445749556
20
-9.08922725760453
30
0
41
1
10
100.850508049963
20
-9.07143414602359
30
0
41
1
10
100.879686138592
20
-9.06646724388779
30
0
41
1
10
100.937454824854
20
-9.06440722202714
30
0
41
1
10
100.966648613696
20
-9.06771179485065
30
0
41
1
10
101.022724405677
20
-9.08228742430504
30
0
41
1
10
101.04985192906
20
-9.09442395127721
30
0
41
1
10
101.076553437588
20
-9.11195532426817
30
0
41
1
10
101.079803798161
20
-9.11420129840084
30
0
41
1
10
101.082983454214
20
-9.1165110664877
30
0
0
SPLINE
5
102
100
AcDbEntity
8
1
62
256
6
ByLayer
370
-1
48
1
60
0
100
AcDbSpline
70
4
71
3
72
16
73
12
40
0
40
0
40
0
40
0
40
0.203316514892127
40
0.203316514892127
40
0.424385571795108
40
0.424385571795108
40
0.655841056480943
40
0.655841056480943
40
0.907685270297264
40
0.907685270297264
40
1
40
1
40
1
40
1
41
1
10
102.399194287116
20
-8.96893050703969
30
0
41
1
10
102.423838061214
20
-8.98007095661387
30
0
41
1
10
102.446991636294
20
-8.99451532152514
30
0
41
1
10
102.488969402942
20
-9.02931250032339
30
0
41
1
10
102.507770131987
20
-9.05051879006683
30
0
41
1
10
102.537591295777
20
-9.09654609311639
30
0
41
1
10
102.548605009439
20
-9.12205437739598
30
0
41
1
10
102.562054888008
20
-9.17532031629131
30
0
41
1
10
102.563852685773
20
-9.20373773728596
30
0
41
1
10
102.559750880668
20
-9.24084105697764
30
0
41
1
10
102.557996246352
20
-9.2507320669624
30
0
41
1
10
102.555629693148
20
-9.26042381334165
30
0
0
SPLINE
5
103
100
AcDbEntity
8
1
62
256
6
ByLayer
370
-1
48
1
60
0
100
AcDbSpline
70
4
71
3
72
16
73
12
40
0
40
0
40
0
40
0
40
0.154615881544213
40
0.154615881544213
40
0.376918220526877
40
0.376918220526877
40
0.607060142260874
40
0.607060142260874
40
0.855700038099857
40
0.855700038099857
40
1
40
1
40
1
40
1
41
1
10
103.356798567956
20
-10.3214666595505
30
0
41
1
10
103.358426514301
20
-10.3416244515514
30
0
41
1
10
103.357807004037
20
-10.3619217574026
30
0
41
1
10
103.350958684489
20
-10.4097443791705
30
0
41
1
10
103.34224838789
20
-10.4371484704689
30
0
41
1
10
103.316933401893
20
-10.4871956141305
30
0
41
1
10
103.299767358062
20
-10.5102803691657
30
0
41
1
10
103.25843865842
20
-10.5504730731532
30
0
41
1
10
103.233332986845
20
-10.5674777987076
30
0
41
1
10
103.191094365676
20
-10.5870668601725
30
0
41
1
10
103.174872713186
20
-10.5928081382281
30
0
41
1
10
103.158320209207
20
-10.5970461535818
30
0
0
SPLINE
5
104
100
AcDbEntity
8
1
62
256
6
ByLayer
370
-1
48
1
60
0
100
AcDbSpline
70
4
71
3
72
12
73
8
40
0
40
0
40
0
40
0
40
0.174034041267153
40
0.174034041267153
40
0.532961644678283
40
0.532961644678283
40
1
40
1
40
1
40
1
41
1
10
100.732297203841
20
-11.1714783987564
30
0
41
1
10
100.745584346534
20
-11.1964673067677
30
0
41
1
10
100.757367720804
20
-11.2224774828873
30
0
41
1
10
100.788398369892
20
-11.3036105843776
30
0
41
1
10
100.80254318969
20
-11.3611657044023
30
0
41
1
10
100.819793055258
20
-11.4920605521796
30
0
41
1
10
100.818737178749
20
-11.5668161597374
30
0
41
1
10
100.808343084456
20
-11.6382048659932
30
0
0
SPLINE
5
105
100
AcDbEntity
8
1
62
256
6
ByLayer
370
-1
48
1
60
0
100
AcDbSpline
70
4
71
3
72
14
73
10
40
0
40
0
40
0
40
0
40
0.258173010349305
40
0.258173010349305
40
0.547733357626627
40
0.547733357626627
40
0.809540687773602
40
0.809540687773602
40
1
40
1
40
1
40
1
41
1
10
101.317328088934
20
-11.8720778931858
30
0
41
1
10
101.298535774402
20
-11.8979947701401
30
0
41
1
10
101.27545756203
20
-11.9213499298038
30
0
41
1
10
101.220015747204
20
-11.9613411820631
30
0
41
1
10
101.185925741093
20
-11.9773847712513
30
0
41
1
10
101.117778996565
20
-11.9936506912946
30
0
41
1
10
101.082985434257
20
-11.9954248563478
30
0
41
1
10
101.024749854083
20
-11.9869649517744
30
0
41
1
10
101.000244532723
20
-11.9798153675852
30
0
41
1
10
100.977311674514
20
-11.9694483536101
30
0
0
SPLINE
5
106
100
AcDbEntity
8
1
62
256
6
ByLayer
370
-1
48
1
60
0
100
AcDbSpline
70
4
71
3
72
18
73
14
40
0
40
0
40
0
40
0
40
0.195541640010903
40
0.195541640010903
40
0.372709681596732
40
0.372709681596732
40
0.551756580125988
40
0.551756580125988
40
0.705412952916385
40
0.705412952916385
40
0.905344893638985
40
0.905344893638985
40
1
40
1
40
1
40
1
41
1
10
101.317328088934
20
-11.8720778931856
30
0
41
1
10
101.357581778663
20
-11.8165631814734
30
0
41
1
10
101.406375042115
20
-11.7658416941154
30
0
41
1
10
101.513135337569
20
-11.6857038527119
30
0
41
1
10
101.571158897041
20
-11.6539728664659
30
0
41
1
10
101.695593465436
20
-11.6108562032474
30
0
41
1
10
101.764071330243
20
-11.5992942812418
30
0
41
1
10
101.889196887168
20
-11.5998290046938
30
0
41
1
10
101.947635770622
20
-11.6087072984539
30
0
41
1
10
102.073664592884
20
-11.6452811016227
30
0
41
1
10
102.140908259949
20
-11.6781717650978
30
0
41
1
10
102.228874444169
20
-11.7383547021157
30
0
41
1
10
102.255870420937
20
-11.7597667275273
30
0
41
1
10
102.281186258076
20
-11.7827422098725
30
0
0
SPLINE
5
107
100
AcDbEntity
8
1
62
256
6
ByLayer
370
-1
48
1
60
0
100
AcDbSpline
70
4
71
3
72
12
73
8
40
0
40
0
40
0
40
0
40
0.484902853316152
40
0.484902853316152
40
0.891670785464202
40
0.891670785464202
40
1
40
1
40
1
40
1
41
1
10
103.110332983612
20
-10.0438959315019
30
0
41
1
10
103.039622357389
20
-10.0261862985788
30
0
41
1
10
102.968671981919
20
-9.99796829656967
30
0
41
1
10
102.846367049592
20
-9.92752997676908
30
0
41
1
10
102.792392196093
20
-9.88738695619705
30
0
41
1
10
102.73220782177
20
-9.8290408982057
30
0
41
1
10
102.719896045275
20
-9.81624911355465
30
0
41
1
10
102.708096260474
20
-9.80308226030917
30
0
0
SPLINE
5
108
100
AcDbEntity
8
1
62
256
6
ByLayer
370
-1
48
1
60
0
100
AcDbSpline
70
4
71
3
72
20
73
16
40
0
40
0
40
0
40
0
40
0.0960672522170714
40
0.0960672522170714
40
0.293747236242418
40
0.293747236242418
40
0.454712432603264
40
0.454712432603264
40
0.616400515245798
40
0.616400515245798
40
0.769025603661648
40
0.769025603661648
40
0.987230811190112
40
0.987230811190112
40
1
40
1
40
1
40
1
41
1
10
100.620336476938
20
-9.43693046088049
30
0
41
1
10
100.630143479412
20
-9.46366457138058
30
0
41
1
10
100.637962084895
20
-9.4915899549604
30
0
41
1
10
100.655099249571
20
-9.57972790029848
30
0
41
1
10
100.657404083705
20
-9.64427543587064
30
0
41
1
10
100.641591715727
20
-9.76478870314068
30
0
41
1
10
100.626864245225
20
-9.821480955971
30
0
41
1
10
100.582887011192
20
-9.93171928756576
30
0
41
1
10
100.552951869121
20
-9.98666197069878
30
0
41
1
10
100.484947332771
20
-10.0835056778386
30
0
41
1
10
100.446710851882
20
-10.1271344642803
30
0
41
1
10
100.348116451974
20
-10.2192351997035
30
0
41
1
10
100.28364565232
20
-10.2635615067726
30
0
41
1
10
100.213700039846
20
-10.2984203038488
30
0
41
1
10
100.209778886178
20
-10.3003325218345
30
0
41
1
10
100.205849503083
20
-10.3022071227805
30
0
0
SPLINE
5
109
100
AcDbEntity
8
1
62
256
6
ByLayer
370
-1
48
1
60
0
100
AcDbSpline
70
4
71
3
72
16
73
12
40
0
40
0
40
0
40
0
40
0.159572874136245
40
0.159572874136245
40
0.466707389788639
40
0.466707389788639
40
0.738850838236687
40
0.738850838236687
40
0.980078396090785
40
0.980078396090785
40
1
40
1
40
1
40
1
41
1
10
102.046841623348
20
-9.02717538316978
30
0
41
1
10
102.05957825977
20
-9.01465179891278
30
0
41
1
10
102.073865862703
20
-9.00303891739085
30
0
41
1
10
102.119249233991
20
-8.97291948323283
30
0
41
1
10
102.154718296676
20
-8.95743235985316
30
0
41
1
10
102.226137717817
20
-8.94107484886777
30
0
41
1
10
102.262698847005
20
-8.93855588904913
30
0
41
1
10
102.330291464427
20
-8.94526988142701
30
0
41
1
10
102.362450138182
20
-8.95333129994921
30
0
41
1
10
102.394316058684
20
-8.9667629050245
30
0
41
1
10
102.396763695265
20
-8.96783173516113
30
0
41
1
10
102.399194287116
20
-8.96893050703969
30
0
0
SPLINE
5
10A
100
AcDbEntity
8
1
62
256
6
ByLayer
370
-1
48
1
60
0
100
AcDbSpline
70
4
71
3
72
12
73
8
40
0
40
0
40
0
40
0
40
0.315312240516335
40
0.315312240516335
40
0.782102488351171
40
0.782102488351171
40
1
40
1
40
1
40
1
41
1
10
102.613481928709
20
-9.66944741048817
30
0
41
1
10
102.590073949931
20
-9.62624090652159
30
0
41
1
10
102.572180067514
20
-9.58137515869197
30
0
41
1
10
102.54242323721
20
-9.47207639516742
30
0
41
1
10
102.536919674448
20
-9.40675362726486
30
0
41
1
10
102.54427353412
20
-9.31629037206429
30
0
41
1
10
102.548904195497
20
-9.28796674683792
30
0
41
1
10
102.555629693148
20
-9.26042381334162
30
0
0
SPLINE
5
10B
100
AcDbEntity
8
SK1
62
256
6
ByLayer
370
-1
48
1
60
0
100
AcDbSpline
70
4
71
3
72
79
73
75
40
0
40
0
40
0
40
0
40
0.0067087492537887
40
0.0208027851155881
40
0.0348968209773875
40
0.0489908568391869
40
0.0630848927009864
40
0.0771789285627858
40
0.0912729644245852
40
0.105367000286385
40
0.119461036148184
40
0.133555072009984
40
0.147649107871783
40
0.161743143733582
40
0.175837179595382
40
0.189931215457181
40
0.204025251318981
40
0.21811928718078
40
0.232213323042579
40
0.246307358904379
40
0.260401394766178
40
0.274495430627978
40
0.288589466489777
40
0.302683502351576
40
0.316777538213376
40
0.330871574075175
40
0.344965609936975
40
0.359059645798774
40
0.373153681660574
40
0.387247717522373
40
0.401341753384172
40
0.415435789245972
40
0.429529825107771
40
0.443623860969571
40
0.45771789683137
40
0.47181193269317
40
0.485905968554969
40
0.500000004416768
40
0.514094040278568
40
0.528188076140367
40
0.542282112002167
40
0.556376147863966
40
0.570470183725766
40
0.584564219587565
40
0.598658255449364
40
0.612752291311164
40
0.626846327172963
40
0.640940363034763
40
0.655034398896562
40
0.669128434758361
40
0.683222470620161
40
0.69731650648196
40
0.71141054234376
40
0.725504578205559
40
0.739598614067359
40
0.753692649929158
40
0.767786685790957
40
0.781880721652757
40
0.795974757514556
40
0.810068793376356
40
0.824162829238155
40
0.838256865099955
40
0.852350900961754
40
0.866444936823553
40
0.880538972685353
40
0.894633008547152
40
0.908727044408952
40
0.922821080270751
40
0.936915116132551
40
0.95100915199435
40
0.965103187856149
40
0.979197223717949
40
0.993291259579748
40
1
40
1
40
1
40
1
41
1
10
-2.99999999999994
20
17.2891030035319
30
0
41
1
10
-2.99999999999994
20
17.3064425253598
30
0
41
1
10
-2.99999999999994
20
17.3576824679414
30
0
41
1
10
-2.99999999999997
20
17.4290648746259
30
0
41
1
10
-2.99999999999997
20
17.4859427971309
30
0
41
1
10
-3
20
17.5070292572437
30
0
41
1
10
-3
20
17.4859401738945
30
0
41
1
10
-3
20
17.4163913620312
30
0
41
1
10
-3
20
17.2925088911448
30
0
41
1
10
-3
20
17.1091123896189
30
0
41
1
10
-3
20
16.8619882313057
30
0
41
1
10
-3
20
16.5481197778907
30
0
41
1
10
-3
20
16.1658744357057
30
0
41
1
10
-3
20
15.7151402778227
30
0
41
1
10
-3
20
15.1974002275414
30
0
41
1
10
-3
20
14.6157505856349
30
0
41
1
10
-3
20
13.9748490556261
30
0
41
1
10
-3
20
13.2808105172309
30
0
41
1
10
-3
20
12.5410348198394
30
0
41
1
10
-3
20
11.763994099502
30
0
41
1
10
-3
20
10.9589648821141
30
0
41
1
10
-3
20
10.1357380738661
30
0
41
1
10
-3
20
9.30429484700929
30
0
41
1
10
-3
20
8.47448256671282
30
0
41
1
10
-3
20
7.6556828892094
30
0
41
1
10
-3
20
6.85650245921596
30
0
41
1
10
-3
20
6.08448325445985
30
0
41
1
10
-3
20
5.34585503158101
30
0
41
1
10
-3
20
4.64533193812392
30
0
41
1
10
-3
20
3.9859646700211
30
0
41
1
10
-3
20
3.36905464097902
30
0
41
1
10
-3
20
2.79412899561987
30
0
41
1
10
-3
20
2.25898609800083
30
0
41
1
10
-3
20
1.75979816383233
30
0
41
1
10
-3
20
1.29128215780307
30
0
41
1
10
-3
20
0.846915650735156
30
0
41
1
10
-3
20
0.41920838047011
30
0
41
1
10
-3
20
-8.85488021E-08
30
0
41
1
10
-3
20
-0.419208026274788
30
0
41
1
10
-3
20
-0.84691581376515
30
0
41
1
10
-3
20
-1.29128185987813
30
0
41
1
10
-3
20
-1.75979828673439
30
0
41
1
10
-3
20
-2.25898590431717
30
0
41
1
10
-3
20
-2.79412905823773
30
0
41
1
10
-3
20
-3.36905458419105
30
0
41
1
10
-3
20
-3.98596466105747
30
0
41
1
10
-3
20
-4.64533203076618
30
0
41
1
10
-3
20
-5.34585495020943
30
0
41
1
10
-3
20
-6.08448348730366
30
0
41
1
10
-3
20
-6.85650231512167
30
0
41
1
10
-3
20
-7.65568323274246
30
0
41
1
10
-3
20
-8.47448237855718
30
0
41
1
10
-3
20
-9.30429525609867
30
0
41
1
10
-3
20
-10.1357378664365
30
0
41
1
10
-3
20
-10.9589653027428
30
0
41
1
10
-3
20
-11.7639938999324
30
0
41
1
10
-3
20
-12.5410351974886
30
0
41
1
10
-3
20
-13.2808103509102
30
0
41
1
10
-3
20
-13.9748493432595
30
0
41
1
10
-3
20
-14.6157504724401
30
0
41
1
10
-3
20
-15.197400392687
30
0
41
1
10
-3
20
-15.7151402291805
30
0
41
1
10
-3
20
-16.1658744651289
30
0
41
1
10
-3
20
-16.5481197951877
30
0
41
1
10
-3
20
-16.8619881326948
30
0
41
1
10
-3
20
-17.1091124641426
30
0
41
1
10
-3
20
-17.2925086916609
30
0
41
1
10
-3
20
-17.4163918494222
30
0
41
1
10
-3
20
-17.4859391868839
30
0
41
1
10
-3
20
-17.5070293524766
30
0
41
1
10
-2.99999999999997
20
-17.4859434032096
30
0
41
1
10
-2.99999999999997
20
-17.4290646714908
30
0
41
1
10
-2.99999999999997
20
-17.3576822644971
30
0
41
1
10
-3
20
-17.3064424596398
30
0
41
1
10
-2.99999999999997
20
-17.2891029958214
30
0
0
SPLINE
5
10C
100
AcDbEntity
8
SK1
62
256
6
ByLayer
370
-1
48
1
60
0
100
AcDbSpline
70
4
71
3
72
22
73
18
40
0
40
0
40
0
40
0
40
0.352684316750051
40
0.352684316750051
40
0.750046292484899
40
0.750046292484899
40
0.835479263400861
40
0.835479263400861
40
0.86935277413835
40
0.86935277413835
40
0.903637365464604
40
0.903637365464604
40
0.934112944215775
40
0.934112944215775
40
0.983611230456553
40
0.983611230456553
40
1
40
1
40
1
40
1
41
1
10
-1.30710678118655
20
-3.80474436172742
30
0
41
1
10
-1.26637440296074
20
-4.02584957204775
30
0
41
1
10
-1.21786346361694
20
-4.24386265362048
30
0
41
1
10
-1.08311917044625
20
-4.69265802851214
30
0
41
1
10
-1.00360006874376
20
-4.93633956823067
30
0
41
1
10
-0.8033447497628
20
-5.16879396055813
30
0
41
1
10
-0.76102131187784
20
-5.20853400127967
30
0
41
1
10
-0.689167148695731
20
-5.24561851051851
30
0
41
1
10
-0.666676206231415
20
-5.25408214518689
30
0
41
1
10
-0.619919785859764
20
-5.26355270960357
30
0
41
1
10
-0.595012690956537
20
-5.26445496143654
30
0
41
1
10
-0.54992619516284
20
-5.25839930645884
30
0
41
1
10
-0.529028206588009
20
-5.25231844804927
30
0
41
1
10
-0.478237300450644
20
-5.2307965704984
30
0
41
1
10
-0.449806665426394
20
-5.21177878736736
30
0
41
1
10
-0.416050679082105
20
-5.18357602352128
30
0
41
1
10
-0.407890864165267
20
-5.17622805658175
30
0
41
1
10
-0.400000000000006
20
-5.16866682996363
30
0
0
SPLINE
5
10D
100
AcDbEntity
8
SK1
62
256
6
ByLayer
370
-1
48
1
60
0
100
AcDbSpline
70
4
71
3
72
22
73
18
40
0
40
0
40
0
40
0
40
0.0434921783994969
40
0.0434921783994969
40
0.0876860403067026
40
0.0876860403067026
40
0.118952127699588
40
0.118952127699588
40
0.1501558424283
40
0.1501558424283
40
0.196307791916001
40
0.196307791916001
40
0.283435745194102
40
0.283435745194102
40
0.579041181948967
40
0.579041181948967
40
1
40
1
40
1
40
1
41
1
10
-0.400000000000034
20
5.16866679574528
30
0
41
1
10
-0.420550053748514
20
5.18835839085108
30
0
41
1
10
-0.443027188827415
20
5.20675192843447
30
0
41
1
10
-0.492732016073376
20
5.23775963373393
30
0
41
1
10
-0.520750465867962
20
5.25056923469424
30
0
41
1
10
-0.571323171411422
20
5.26230651341535
30
0
41
1
10
-0.593569294960218
20
5.26418855716773
30
0
41
1
10
-0.636876257397915
20
5.26111275520464
30
0
41
1
10
-0.658413974519078
20
5.25617334660447
30
0
41
1
10
-0.70801905917827
20
5.23795018495881
30
0
41
1
10
-0.735222931334562
20
5.22174262348992
30
0
41
1
10
-0.805307091704577
20
5.16870577827882
30
0
41
1
10
-0.843008552736933
20
5.12565182749091
30
0
41
1
10
-0.98697835479976
20
4.93030734845306
30
0
41
1
10
-1.05565821402414
20
4.75512394253201
30
0
41
1
10
-1.19912511806339
20
4.32976589005261
30
0
41
1
10
-1.25838015422249
20
4.06924736884375
30
0
41
1
10
-1.30710678118655
20
3.80474664113271
30
0
0
SPLINE
5
10E
100
AcDbEntity
8
SK1
62
256
6
ByLayer
370
-1
48
1
60
0
100
AcDbSpline
70
4
71
3
72
30
73
26
40
0
40
0
40
0
40
0
40
0.0056618333711474
40
0.0508667583350147
40
0.0960716832988821
40
0.141276608262749
40
0.186481533226617
40
0.231686458190484
40
0.276891383154352
40
0.322096308118219
40
0.367301233082087
40
0.412506158045954
40
0.457711083009821
40
0.502916007973689
40
0.548120932937556
40
0.593325857901423
40
0.638530782865291
40
0.683735707829158
40
0.728940632793026
40
0.774145557756893
40
0.81935048272076
40
0.864555407684628
40
0.909760332648495
40
0.954965257612362
40
1
40
1
40
1
40
1
41
1
10
-0.400000000000034
20
5.16866679574528
30
0
41
1
10
-0.400000000000034
20
5.1981823917107
30
0
41
1
10
-0.400000000000034
20
5.46426938707833
30
0
41
1
10
-0.400000000000034
20
5.98219146197602
30
0
41
1
10
-0.400000000000034
20
6.74713361247495
30
0
41
1
10
-0.400000000000034
20
7.53968849279406
30
0
41
1
10
-0.400000000000034
20
8.35230648563555
30
0
41
1
10
-0.400000000000034
20
9.17636769820604
30
0
41
1
10
-0.400000000000034
20
10.0024728331477
30
0
41
1
10
-0.400000000000034
20
10.8207538150476
30
0
41
1
10
-0.400000000000034
20
11.6212070931939
30
0
41
1
10
-0.400000000000034
20
12.3940190774915
30
0
41
1
10
-0.400000000000034
20
13.1298916243886
30
0
41
1
10
-0.400000000000034
20
13.8203332490725
30
0
41
1
10
-0.400000000000034
20
14.4579281585871
30
0
41
1
10
-0.400000000000034
20
15.0365497976464
30
0
41
1
10
-0.400000000000034
20
15.5515337877379
30
0
41
1
10
-0.400000000000034
20
15.9997825456108
30
0
41
1
10
-0.400000000000034
20
16.379817481596
30
0
41
1
10
-0.400000000000034
20
16.6917603323907
30
0
41
1
10
-0.400000000000034
20
16.9372586651848
30
0
41
1
10
-0.400000000000034
20
17.1193485969266
30
0
41
1
10
-0.400000000000006
20
17.2422669751987
30
0
41
1
10
-0.400000000000034
20
17.3111334447875
30
0
41
1
10
-0.400000000000006
20
17.3250933707986
30
0
41
1
10
-0.399999999999977
20
17.3251497957926
30
0
0
SPLINE
5
10F
100
AcDbEntity
8
SK1
62
256
6
ByLayer
370
-1
48
1
60
0
100
AcDbSpline
70
4
71
3
72
79
73
75
40
0
40
0
40
0
40
0
40
0.0074030720038205
40
0.0214772710298318
40
0.0355514700558431
40
0.0496256690818545
40
0.0636998681078658
40
0.0777740671338771
40
0.0918482661598885
40
0.1059224651859
40
0.119996664211911
40
0.134070863237923
40
0.148145062263934
40
0.162219261289945
40
0.176293460315956
40
0.190367659341968
40
0.204441858367979
40
0.21851605739399
40
0.232590256420002
40
0.246664455446013
40
0.260738654472024
40
0.274812853498036
40
0.288887052524047
40
0.302961251550058
40
0.31703545057607
40
0.331109649602081
40
0.345183848628092
40
0.359258047654104
40
0.373332246680115
40
0.387406445706126
40
0.401480644732138
40
0.415554843758149
40
0.42962904278416
40
0.443703241810172
40
0.457777440836183
40
0.471851639862195
40
0.485925838888206
40
0.500000037914217
40
0.514074236940228
40
0.52814843596624
40
0.542222634992251
40
0.556296834018262
40
0.570371033044274
40
0.584445232070285
40
0.598519431096296
40
0.612593630122308
40
0.626667829148319
40
0.64074202817433
40
0.654816227200342
40
0.668890426226353
40
0.682964625252364
40
0.697038824278376
40
0.711113023304387
40
0.725187222330398
40
0.73926142135641
40
0.753335620382421
40
0.767409819408432
40
0.781484018434444
40
0.795558217460455
40
0.809632416486467
40
0.823706615512478
40
0.837780814538489
40
0.851855013564501
40
0.865929212590512
40
0.880003411616523
40
0.894077610642535
40
0.908151809668546
40
0.922226008694557
40
0.936300207720569
40
0.95037440674658
40
0.964448605772591
40
0.978522804798603
40
0.992597003824614
40
1
40
1
40
1
40
1
41
1
10
-2.00000000000003
20
-17.1116144539657
30
0
41
1
10
-2.00000000000003
20
-17.1306737733626
30
0
41
1
10
-1.99999999999997
20
-17.1831798973208
30
0
41
1
10
-2
20
-17.2550395308993
30
0
41
1
10
-2
20
-17.3112459497451
30
0
41
1
10
-2
20
-17.3321089735132
30
0
41
1
10
-2
20
-17.3112189889209
30
0
41
1
10
-2
20
-17.2422674474922
30
0
41
1
10
-2
20
-17.1193484069474
30
0
41
1
10
-2
20
-16.9372587367204
30
0
41
1
10
-2
20
-16.6917602356259
30
0
41
1
10
-2
20
-16.3798174953022
30
0
41
1
10
-2
20
-15.9997825770269
30
0
41
1
10
-2
20
-15.5515337348698
30
0
41
1
10
-2
20
-15.0365499649754
30
0
41
1
10
-2
20
-14.4579280405673
30
0
41
1
10
-2
20
-13.8203335391023
30
0
41
1
10
-2.00000000000003
20
-13.1298914527523
30
0
41
1
10
-2.00000000000003
20
-12.39401945775
30
0
41
1
10
-2.00000000000003
20
-11.6212068879994
30
0
41
1
10
-2.00000000000003
20
-10.8207542384819
30
0
41
1
10
-2.00000000000003
20
-10.00247262006
30
0
41
1
10
-2.00000000000003
20
-9.17636811026827
30
0
41
1
10
-2.00000000000003
20
-8.35230629219913
30
0
41
1
10
-2.00000000000003
20
-7.53968883941312
30
0
41
1
10
-2.00000000000003
20
-6.74713346409783
30
0
41
1
10
-2.00000000000003
20
-5.98219169787032
30
0
41
1
10
-2.00000000000003
20
-5.25109264883253
30
0
41
1
10
-2.00000000000003
20
-4.55854550233684
30
0
41
1
10
-2.00000000000003
20
-3.90758262960779
30
0
41
1
10
-2.00000000000003
20
-3.29948777527221
30
0
41
1
10
-2.00000000000003
20
-2.73375387844547
30
0
41
1
10
-2.00000000000003
20
-2.20813463136872
30
0
41
1
10
-2.00000000000003
20
-1.71876156390923
30
0
41
1
10
-2.00000000000003
20
-1.26029526086333
30
0
41
1
10
-2.00000000000003
20
-0.826158476850765
30
0
41
1
10
-2.00000000000003
20
-0.408799134273892
30
0
41
1
10
-2.00000000000003
20
-2.402494488E-07
30
0
41
1
10
-2.00000000000003
20
0.408799553455736
30
0
41
1
10
-2.00000000000003
20
0.82615842677356
30
0
41
1
10
-2.00000000000003
20
1.26029551010325
30
0
41
1
10
-2.00000000000003
20
1.71876142586774
30
0
41
1
10
-2.00000000000003
20
2.20813448047156
30
0
41
1
10
-2.00000000000003
20
2.7337537633878
30
0
41
1
10
-2.00000000000003
20
3.29948825001514
30
0
41
1
10
-2.00000000000003
20
3.90758266192117
30
0
41
1
10
-2.00000000000003
20
4.55854530449344
30
0
41
1
10
-2.00000000000003
20
5.25109273249788
30
0
41
1
10
-2.00000000000003
20
5.98219146197602
30
0
41
1
10
-2.00000000000003
20
6.74713361247495
30
0
41
1
10
-2.00000000000003
20
7.53968849279406
30
0
41
1
10
-2.00000000000003
20
8.35230648563552
30
0
41
1
10
-2.00000000000003
20
9.17636769820604
30
0
41
1
10
-2.00000000000003
20
10.0024728331477
30
0
41
1
10
-2.00000000000003
20
10.8207538150476
30
0
41
1
10
-2.00000000000003
20
11.6212070931939
30
0
41
1
10
-2.00000000000003
20
12.3940190774915
30
0
41
1
10
-2.00000000000003
20
13.1298916243886
30
0
41
1
10
-2
20
13.8203332490725
30
0
41
1
10
-2
20
14.4579281585871
30
0
41
1
10
-2
20
15.0365497976464
30
0
41
1
10
-2
20
15.5515337877379
30
0
41
1
10
-2
20
15.9997825456108
30
0
41
1
10
-2
20
16.379817481596
30
0
41
1
10
-2
20
16.6917603323907
30
0
41
1
10
-2
20
16.9372586651848
30
0
41
1
10
-2
20
17.1193485969266
30
0
41
1
10
-2
20
17.2422669751987
30
0
41
1
10
-2
20
17.3112199736996
30
0
41
1
10
-2
20
17.3321088799281
30
0
41
1
10
-2
20
17.3112453434672
30
0
41
1
10
-2
20
17.2550397180126
30
0
41
1
10
-2
20
17.1831802768059
30
0
41
1
10
-1.99999999999997
20
17.1306742510805
30
0
41
1
10
-1.99999999999997
20
17.1116151107528
30
0
0
LINE
5
4A
100
AcDbEntity
8
80
62
256
6
ByLayer
370
-1
48
1
60
0
100
AcDbLine
10
0
20
0
30
0
11
-10
21
0
31
0
39
0
210
0
220
0
230
1
0
LINE
5
4B
100
AcDbEntity
8
81
62
256
6
ByLayer
370
-1
48
1
60
0
100
AcDbLine
10
110
20
-21.9
30
0
11
120
21
-21.9
31
0
39
0
210
0
220
0
230
1
0
LINE
5
4C
100
AcDbEntity
8
SK4
62
256
6
ByLayer
370
-1
48
0.05
60
0
100
AcDbLine
10
-35
20
0
30
0
11
114.448793
21
0
31
0
39
0
210
0
220
0
230
1
0
LINE
5
4E
100
AcDbEntity
8
4
62
256
6
ByLayer
370
-1
48
0.05
60
0
100
AcDbLine
10
0
20
0
30
0
11
144.448793
21
0
31
0
39
0
210
0
220
0
230
1
0
LINE
5
50
100
AcDbEntity
8
1
62
256
6
ByLayer
370
-1
48
1
60
0
100
AcDbLine
10
99.105482
20
-11.007147
30
0
11
99.169151
21
-11.209082
31
0
39
0
210
0
220
0
230
1
0
LINE
5
51
100
AcDbEntity
8
1
62
256
6
ByLayer
370
-1
48
1
60
0
100
AcDbLine
10
104.176165
20
-9.630377
30
0
11
104.112496
21
-9.428442
31
0
39
0
210
0
220
0
230
1
0
LINE
5
52
100
AcDbEntity
8
1
62
256
6
ByLayer
370
-1
48
1
60
0
100
AcDbLine
10
100.628369
20
-9.460505
30
0
11
100.619313
21
-9.431783
31
0
39
0
210
0
220
0
230
1
0
LINE
5
53
100
AcDbEntity
8
1
62
256
6
ByLayer
370
-1
48
1
60
0
100
AcDbLine
10
102.500112
20
-9.348317
30
0
11
102.566874
21
-9.560059
31
0
39
0
210
0
220
0
230
1
0
LINE
5
54
100
AcDbEntity
8
1
62
256
6
ByLayer
370
-1
48
1
60
0
100
AcDbLine
10
102.660506
20
-11.199945
30
0
11
102.734293
21
-11.433967
31
0
39
0
210
0
220
0
230
1
0
LINE
5
55
100
AcDbEntity
8
1
62
256
6
ByLayer
370
-1
48
1
60
0
100
AcDbLine
10
100.781849
20
-11.290202
30
0
11
100.715034
21
-11.078294
31
0
39
0
210
0
220
0
230
1
0
LINE
5
56
100
AcDbEntity
8
1
62
256
6
ByLayer
370
-1
48
1
60
0
100
AcDbLine
10
93.398324
20
0.064335
30
0
11
93.400192
21
0.034663
31
0
39
0
210
0
220
0
230
1
0
LINE
5
57
100
AcDbEntity
8
1
62
256
6
ByLayer
370
-1
48
1
60
0
100
AcDbLine
10
105.74079
20
-7.640189
30
0
11
105.112897
21
-7.033663
31
0
39
0
210
0
220
0
230
1
0
LINE
5
58
100
AcDbEntity
8
1
62
256
6
ByLayer
370
-1
48
1
60
0
100
AcDbLine
10
0.3
20
25
30
0
11
0
21
24.7
31
0
39
0
210
0
220
0
230
1
0
LINE
5
59
100
AcDbEntity
8
1
62
256
6
ByLayer
370
-1
48
1
60
0
100
AcDbLine
10
0
20
-24.7
30
0
11
0.3
21
-25
31
0
39
0
210
0
220
0
230
1
0
LINE
5
5A
100
AcDbEntity
8
1
62
256
6
ByLayer
370
-1
48
1
60
0
100
AcDbLine
10
19.5
20
25
30
0
11
0.3
21
25
31
0
39
0
210
0
220
0
230
1
0
LINE
5
5B
100
AcDbEntity
8
1
62
256
6
ByLayer
370
-1
48
1
60
0
100
AcDbLine
10
0.3
20
-25
30
0
11
19.5
21
-25
31
0
39
0
210
0
220
0
230
1
0
LINE
5
5C
100
AcDbEntity
8
1
62
256
6
ByLayer
370
-1
48
1
60
0
100
AcDbLine
10
19.5
20
-25
30
0
11
20.71226
21
-20.454024
31
0
39
0
210
0
220
0
230
1
0
LINE
5
5D
100
AcDbEntity
8
1
62
256
6
ByLayer
370
-1
48
1
60
0
100
AcDbLine
10
20.71226
20
20.454024
30
0
11
19.5
21
25
31
0
39
0
210
0
220
0
230
1
0
LINE
5
5E
100
AcDbEntity
8
1
62
256
6
ByLayer
370
-1
48
1
60
0
100
AcDbLine
10
90.763505
20
16
30
0
11
26.50967
21
16
31
0
39
0
210
0
220
0
230
1
0
LINE
5
5F
100
AcDbEntity
8
1
62
256
6
ByLayer
370
-1
48
1
60
0
100
AcDbLine
10
26.50967
20
-16
30
0
11
88.261873
21
-16
31
0
39
0
210
0
220
0
230
1
0
LINE
5
60
100
AcDbEntity
8
1
62
256
6
ByLayer
370
-1
48
1
60
0
100
AcDbLine
10
91.955667
20
-2.122012
30
0
11
91.914466
21
-1.065126
31
0
39
0
210
0
220
0
230
1
0
LINE
5
61
100
AcDbEntity
8
1
62
256
6
ByLayer
370
-1
48
1
60
0
100
AcDbLine
10
8.105662
20
-8.055848
30
0
11
8.105662
21
-23.666502
31
0
39
0
210
0
220
0
230
1
0
LINE
5
62
100
AcDbEntity
8
1
62
256
6
ByLayer
370
-1
48
1
60
0
100
AcDbLine
10
8.538675
20
-7.529667
30
0
11
8.538675
21
-23.83913
31
0
39
0
210
0
220
0
230
1
0
LINE
5
63
100
AcDbEntity
8
1
62
256
6
ByLayer
370
-1
48
1
60
0
100
AcDbLine
10
93.503497
20
13.115513
30
0
11
102.078958
21
4.087823
31
0
39
0
210
0
220
0
230
1
0
LINE
5
64
100
AcDbEntity
8
1
62
256
6
ByLayer
370
-1
48
1
60
0
100
AcDbLine
10
11.461325
20
-7.529667
30
0
11
8.538675
21
-7.529667
31
0
39
0
210
0
220
0
230
1
0
LINE
5
65
100
AcDbEntity
8
1
62
256
6
ByLayer
370
-1
48
1
60
0
100
AcDbLine
10
91.741894
20
-0.517795
30
0
11
91.914466
21
-1.065126
31
0
39
0
210
0
220
0
230
1
0
LINE
5
66
100
AcDbEntity
8
1
62
256
6
ByLayer
370
-1
48
1
60
0
100
AcDbLine
10
0
20
24.7
30
0
11
0
21
-24.7
31
0
39
0
210
0
220
0
230
1
0
LINE
5
67
100
AcDbEntity
8
1
62
256
6
ByLayer
370
-1
48
1
60
0
100
AcDbLine
10
96.313111
20
-12.606186
30
0
11
97.179267
21
-12.006305
31
0
39
0
210
0
220
0
230
1
0
LINE
5
68
100
AcDbEntity
8
1
62
256
6
ByLayer
370
-1
48
1
60
0
100
AcDbLine
10
91.741894
20
-0.517795
30
0
11
94.122936
21
-2.312867
31
0
39
0
210
0
220
0
230
1
0
LINE
5
69
100
AcDbEntity
8
1
62
256
6
ByLayer
370
-1
48
1
60
0
100
AcDbLine
10
11.461325
20
-7.529667
30
0
11
11.461325
21
-23.83913
31
0
39
0
210
0
220
0
230
1
0
LINE
5
6A
100
AcDbEntity
8
1
62
256
6
ByLayer
370
-1
48
1
60
0
100
AcDbLine
10
20.71226
20
20.454024
30
0
11
20.71226
21
-20.454024
31
0
39
0
210
0
220
0
230
1
0
LINE
5
6B
100
AcDbEntity
8
1
62
256
6
ByLayer
370
-1
48
1
60
0
100
AcDbLine
10
90.763505
20
16
30
0
11
92.373903
21
14.304677
31
0
39
0
210
0
220
0
230
1
0
LINE
5
6C
100
AcDbEntity
8
1
62
256
6
ByLayer
370
-1
48
1
60
0
100
AcDbLine
10
0.3
20
25
30
0
11
0.3
21
-25
31
0
39
0
210
0
220
0
230
1
0
LINE
5
6D
100
AcDbEntity
8
1
62
256
6
ByLayer
370
-1
48
1
60
0
100
AcDbLine
10
11.894338
20
-8.055848
30
0
11
11.894338
21
-23.666502
31
0
39
0
210
0
220
0
230
1
0
LINE
5
6E
100
AcDbEntity
8
1
62
256
6
ByLayer
370
-1
48
1
60
0
100
AcDbLine
10
8.538675
20
-23.83913
30
0
11
11.461325
21
-23.83913
31
0
39
0
210
0
220
0
230
1
0
LINE
5
6F
100
AcDbEntity
8
1
62
256
6
ByLayer
370
-1
48
1
60
0
100
AcDbLine
10
91.914466
20
-1.065126
30
0
11
94.295509
21
-2.860197
31
0
39
0
210
0
220
0
230
1
0
LINE
5
70
100
AcDbEntity
8
1
62
256
6
ByLayer
370
-1
48
1
60
0
100
AcDbLine
10
93.966262
20
1.850985
30
0
11
94.138834
21
1.303655
31
0
39
0
210
0
220
0
230
1
0
LINE
5
71
100
AcDbEntity
8
1
62
256
6
ByLayer
370
-1
48
1
60
0
100
AcDbLine
10
8.105662
20
23.666502
30
0
11
8.105662
21
8.055848
31
0
39
0
210
0
220
0
230
1
0
LINE
5
72
100
AcDbEntity
8
1
62
256
6
ByLayer
370
-1
48
1
60
0
100
AcDbLine
10
105.365743
20
-6.336527
30
0
11
102.078958
21
4.087823
31
0
39
0
210
0
220
0
230
1
0
LINE
5
73
100
AcDbEntity
8
1
62
256
6
ByLayer
370
-1
48
1
60
0
100
AcDbLine
10
11.461325
20
23.83913
30
0
11
8.538675
21
23.83913
31
0
39
0
210
0
220
0
230
1
0
LINE
5
74
100
AcDbEntity
8
1
62
256
6
ByLayer
370
-1
48
1
60
0
100
AcDbLine
10
8.538675
20
7.529667
30
0
11
11.461325
21
7.529667
31
0
39
0
210
0
220
0
230
1
0
LINE
5
75
100
AcDbEntity
8
1
62
256
6
ByLayer
370
-1
48
1
60
0
100
AcDbLine
10
91.800267
20
1.364117
30
0
11
91.756388
21
1.503285
31
0
39
0
210
0
220
0
230
1
0
LINE
5
76
100
AcDbEntity
8
1
62
256
6
ByLayer
370
-1
48
1
60
0
100
AcDbLine
10
92.373903
20
14.304677
30
0
11
93.503497
21
13.115513
31
0
39
0
210
0
220
0
230
1
0
LINE
5
77
100
AcDbEntity
8
1
62
256
6
ByLayer
370
-1
48
1
60
0
100
AcDbLine
10
105.365743
20
-6.336527
30
0
11
104.672256
21
-6.816821
31
0
39
0
210
0
220
0
230
1
0
LINE
5
78
100
AcDbEntity
8
1
62
256
6
ByLayer
370
-1
48
1
60
0
100
AcDbLine
10
8.538675
20
23.83913
30
0
11
8.538675
21
7.529667
31
0
39
0
210
0
220
0
230
1
0
LINE
5
79
100
AcDbEntity
8
1
62
256
6
ByLayer
370
-1
48
1
60
0
100
AcDbLine
10
26.50967
20
-16
30
0
11
26.50967
21
16
31
0
39
0
210
0
220
0
230
1
0
LINE
5
7A
100
AcDbEntity
8
1
62
256
6
ByLayer
370
-1
48
1
60
0
100
AcDbLine
10
89.807836
20
-14.900325
30
0
11
88.7974
21
-15.896009
31
0
39
0
210
0
220
0
230
1
0
LINE
5
7B
100
AcDbEntity
8
1
62
256
6
ByLayer
370
-1
48
1
60
0
100
AcDbLine
10
11.461325
20
23.83913
30
0
11
11.461325
21
7.529667
31
0
39
0
210
0
220
0
230
1
0
LINE
5
7C
100
AcDbEntity
8
1
62
256
6
ByLayer
370
-1
48
1
60
0
100
AcDbLine
10
94.719827
20
-4.205917
30
0
11
91.955667
21
-2.122012
31
0
39
0
210
0
220
0
230
1
0
LINE
5
7D
100
AcDbEntity
8
1
62
256
6
ByLayer
370
-1
48
1
60
0
100
AcDbLine
10
85.641596
20
-15.873592
30
0
11
93.503497
21
13.115513
31
0
39
0
210
0
220
0
230
1
0
LINE
5
7E
100
AcDbEntity
8
1
62
256
6
ByLayer
370
-1
48
1
60
0
100
AcDbLine
10
19.5
20
25
30
0
11
19.5
21
-25
31
0
39
0
210
0
220
0
230
1
0
LINE
5
7F
100
AcDbEntity
8
1
62
256
6
ByLayer
370
-1
48
1
60
0
100
AcDbLine
10
11.894338
20
23.666502
30
0
11
11.894338
21
8.055848
31
0
39
0
210
0
220
0
230
1
0
LINE
5
80
100
AcDbEntity
8
1
62
256
6
ByLayer
370
-1
48
1
60
0
100
AcDbLine
10
104.672256
20
-6.816821
30
0
11
94.579229
21
0.792327
31
0
39
0
210
0
220
0
230
1
0
LINE
5
81
100
AcDbEntity
8
1
62
256
6
ByLayer
370
-1
48
1
60
0
100
AcDbLine
10
97.705604
20
-13.43593
30
0
11
108.813735
21
-21.810367
31
0
39
0
210
0
220
0
230
1
0
LINE
5
82
100
AcDbEntity
8
1
62
256
6
ByLayer
370
-1
48
1
60
0
100
AcDbLine
10
105.704577
20
-7.609253
30
0
11
94.596446
21
0.765183
31
0
39
0
210
0
220
0
230
1
0
LINE
5
83
100
AcDbEntity
8
1
62
256
6
ByLayer
370
-1
48
1
60
0
100
AcDbLine
10
93.411258
20
-0.055653
30
0
11
97.569376
21
-13.24352
31
0
39
0
210
0
220
0
230
1
0
LINE
5
84
100
AcDbEntity
8
1
62
256
6
ByLayer
370
-1
48
1
60
0
100
AcDbLine
10
105.076685
20
-7.002727
30
0
11
105.704577
21
-7.609253
31
0
39
0
210
0
220
0
230
1
0
LINE
5
85
100
AcDbEntity
8
1
62
256
6
ByLayer
370
-1
48
1
60
0
100
AcDbLine
10
105.076685
20
-7.002727
30
0
11
104.754493
21
-6.759826
31
0
39
0
210
0
220
0
230
1
0
LINE
5
86
100
AcDbEntity
8
1
62
256
6
ByLayer
370
-1
48
1
60
0
100
AcDbLine
10
94.293936
20
1.126403
30
0
11
93.972612
21
1.36865
31
0
39
0
210
0
220
0
230
1
0
LINE
5
87
100
AcDbEntity
8
1
62
256
6
ByLayer
370
-1
48
1
60
0
100
AcDbLine
10
109.998924
20
-20.989531
30
0
11
105.840805
21
-7.801664
31
0
39
0
210
0
220
0
230
1
0
LINE
5
88
100
AcDbEntity
8
1
62
256
6
ByLayer
370
-1
48
1
60
0
100
AcDbLine
10
102.206674
20
-11.546421
30
0
11
102.281186
21
-11.782742
31
0
39
0
210
0
220
0
230
1
0
LINE
5
89
100
AcDbEntity
8
1
62
256
6
ByLayer
370
-1
48
1
60
0
100
AcDbLine
10
100.637683
20
-11.037844
30
0
11
100.572366
21
-10.830686
31
0
39
0
210
0
220
0
230
1
0
LINE
5
8A
100
AcDbEntity
8
1
62
256
6
ByLayer
370
-1
48
1
60
0
100
AcDbLine
10
100.666981
20
-10.964321
30
0
11
100.732297
21
-11.171478
31
0
39
0
210
0
220
0
230
1
0
LINE
5
8B
100
AcDbEntity
8
1
62
256
6
ByLayer
370
-1
48
1
60
0
100
AcDbLine
10
102.481216
20
-9.024415
30
0
11
102.55563
21
-9.260424
31
0
39
0
210
0
220
0
230
1
0
LINE
5
8C
100
AcDbEntity
8
1
62
256
6
ByLayer
370
-1
48
1
60
0
100
AcDbLine
10
103.083808
20
-10.360725
30
0
11
103.15832
21
-10.597046
31
0
39
0
210
0
220
0
230
1
0
LINE
5
8D
100
AcDbEntity
8
1
62
256
6
ByLayer
370
-1
48
1
60
0
100
AcDbLine
10
100.179226
20
-10.618724
30
0
11
100.25364
21
-10.854733
31
0
39
0
210
0
220
0
230
1
0
LINE
5
8E
100
AcDbEntity
8
1
62
256
6
ByLayer
370
-1
48
1
60
0
100
AcDbLine
10
101.242816
20
-11.635757
30
0
11
101.317328
21
-11.872078
31
0
39
0
210
0
220
0
230
1
0
LINE
5
8F
100
AcDbEntity
8
1
62
256
6
ByLayer
370
-1
48
1
60
0
100
AcDbLine
10
94.286405
20
1.132084
30
0
11
94.284948
21
1.136706
31
0
39
0
210
0
220
0
230
1
0
LINE
5
90
100
AcDbEntity
8
1
62
256
6
ByLayer
370
-1
48
1
60
0
100
AcDbLine
10
93.498777
20
1.028791
30
0
11
93.49572
21
1.038486
31
0
39
0
210
0
220
0
230
1
0
LINE
5
91
100
AcDbEntity
8
1
62
256
6
ByLayer
370
-1
48
1
60
0
100
AcDbLine
10
104.764555
20
-6.767414
30
0
11
104.760799
21
-6.7555
31
0
39
0
210
0
220
0
230
1
0
LINE
5
92
100
AcDbEntity
8
SK1
62
256
6
ByLayer
370
-1
48
1
60
0
100
AcDbLine
10
-1.307107
20
-3.804744
30
0
11
-1.307107
21
3.804747
31
0
39
0
210
0
220
0
230
1
0
LINE
5
94
100
AcDbEntity
8
SK1
62
256
6
ByLayer
370
-1
48
1
60
0
100
AcDbLine
10
-0.2
20
5.881424
30
0
11
-0.2
21
17.833485
31
0
39
0
210
0
220
0
230
1
0
LINE
5
95
100
AcDbEntity
8
SK1
62
256
6
ByLayer
370
-1
48
1
60
0
100
AcDbLine
10
-0.2
20
-17.833485
30
0
11
-0.2
21
-5.881425
31
0
39
0
210
0
220
0
230
1
0
LINE
5
96
100
AcDbEntity
8
SK1
62
256
6
ByLayer
370
-1
48
1
60
0
100
AcDbLine
10
-0.4
20
-17.32515
30
0
11
-0.4
21
-5.168667
31
0
39
0
210
0
220
0
230
1
0
LINE
5
97
100
AcDbEntity
8
2
62
256
6
ByLayer
370
-1
48
1
60
1
100
AcDbLine
10
110
20
0
30
0
11
110.001
21
0.001
31
0
39
0
210
0
220
0
230
1
0
MTEXT
5
110
100
AcDbEntity
8
SK6
62
256
6
ByLayer
370
-1
48
1
60
0
100
AcDbMText
10
-0.400603
20
34.125
30
0
210
0
220
0
230
1
1
\W00.716;\fsimplex.shx,bigfont.shx;C5-SVQBL-22110-16 
40
3.5
41
0
44
1.084337
50
0
71
7
72
5
7
DEFAULT
0
DIMENSION
5
144
100
AcDbEntity
8
SK2
62
256
6
ByLayer
370
-3
48
1
60
0
100
AcDbDimension
2
DimnDraft3D1
10
-42.75
20
-25
30
0
11
-42.75
21
-4.784211
31
0
70
32
71
5
72
1
41
1
210
0
220
0
230
1
3
Standard
100
AcDbAlignedDimension
13
-2
23
25
33
0
14
-2
24
-25
34
0
50
90
100
AcDbRotatedDimension
1001
ACAD
1000
DSTYLE
1002
{
1070
    74
1070
     0
1070
   279
1070
     0
1070
   172
1070
     1
1070
   173
1070
     1
1070
   340
1005
111
1070
    77
1070
     1
1070
    73
1070
     0
1070
   171
1070
     4
1070
   274
1070
     4
1070
   177
1070
     2
1070
   176
1070
     2
1070
   178
1070
     7
1070
    78
1070
     8
1070
    41
1041
3.175
1070
   147
1041
2.25
1070
    42
1041
2.0
1070
    44
1041
2.0
1070
   140
1041
4.5
1070
   343
1005
145
1070
   344
1005
145
1002
}
0
DIMENSION
5
157
100
AcDbEntity
8
2
62
256
6
ByLayer
370
-3
48
1
60
0
100
AcDbDimension
2
DimnDraft3D2
10
37.15
20
16
30
0
11
37.15
21
-7.318421
31
0
70
32
71
5
72
1
41
1
210
0
220
0
230
1
3
Standard
100
AcDbAlignedDimension
13
21.9
23
16
33
0
14
0
24
0
34
0
50
90
100
AcDbRotatedDimension
1001
ACAD
1000
DSTYLE
1002
{
1070
    74
1070
     0
1070
   279
1070
     0
1070
   172
1070
     1
1070
   173
1070
     1
1070
   340
1005
111
1070
    75
1070
     1
1070
    76
1070
     1
1070
    77
1070
     1
1070
    73
1070
     0
1070
   171
1070
     4
1070
   274
1070
     4
1070
   177
1070
     2
1070
   176
1070
     2
1070
   178
1070
     7
1070
    78
1070
     8
1070
    41
1041
3.175
1070
   147
1041
2.25
1070
    42
1041
2.0
1070
    44
1041
2.0
1070
   140
1041
4.5
1070
   343
1005
145
1070
   344
1005
145
1002
}
0
DIMENSION
5
165
100
AcDbEntity
8
2
62
256
6
ByLayer
370
-3
48
1
60
0
100
AcDbDimension
2
DimnDraft3D3
10
122.25
20
-21.9
30
0
11
122.25
21
-16.113158
31
0
70
32
71
5
72
1
41
1
210
0
220
0
230
1
3
Standard
100
AcDbAlignedDimension
13
112
23
0
33
0
14
112
24
-21.9
34
0
50
90
100
AcDbRotatedDimension
1001
ACAD
1000
DSTYLE
1002
{
1070
    74
1070
     0
1070
   279
1070
     0
1070
   172
1070
     1
1070
   173
1070
     1
1070
   340
1005
111
1070
    77
1070
     1
1070
    73
1070
     0
1070
   171
1070
     4
1070
   274
1070
     4
1070
   177
1070
     2
1070
   176
1070
     2
1070
   178
1070
     7
1070
    78
1070
     8
1070
    41
1041
3.175
1070
   147
1041
2.25
1070
    42
1041
2.0
1070
    44
1041
2.0
1070
   140
1041
4.5
1070
   343
1005
145
1070
   344
1005
145
1002
}
0
DIMENSION
5
173
100
AcDbEntity
8
2
62
256
6
ByLayer
370
-3
48
1
60
0
100
AcDbDimension
2
DimnDraft3D4
10
110
20
-54.15
30
0
11
49.309868
21
-54.15
31
0
70
32
71
5
72
1
41
1
210
0
220
0
230
1
3
Standard
100
AcDbAlignedDimension
13
0
23
-27
33
0
14
110
24
-23.9
34
0
50
0
100
AcDbRotatedDimension
1001
ACAD
1000
DSTYLE
1002
{
1070
   279
1070
     0
1070
   172
1070
     1
1070
   173
1070
     1
1070
   340
1005
111
1070
    77
1070
     1
1070
    73
1070
     0
1070
   171
1070
     4
1070
   274
1070
     4
1070
   177
1070
     2
1070
   176
1070
     2
1070
   178
1070
     7
1070
    78
1070
     8
1070
    41
1041
3.175
1070
   147
1041
2.25
1070
    42
1041
2.0
1070
    44
1041
2.0
1070
   140
1041
4.5
1070
   343
1005
145
1070
   344
1005
145
1002
}
0
DIMENSION
5
181
100
AcDbEntity
8
2
62
256
6
ByLayer
370
-3
48
1
60
0
100
AcDbDimension
2
DimnDraft3D5
10
110
20
-39.15
30
0
11
61.349342
21
-39.15
31
0
70
32
71
5
72
1
41
1
210
0
220
0
230
1
3
Standard
100
AcDbAlignedDimension
13
21.9
23
-18
33
0
14
110
24
-23.9
34
0
50
0
100
AcDbRotatedDimension
1001
ACAD
1000
DSTYLE
1002
{
1070
   279
1070
     0
1070
   172
1070
     1
1070
   173
1070
     1
1070
   340
1005
111
1070
    77
1070
     1
1070
    73
1070
     0
1070
   171
1070
     4
1070
   274
1070
     4
1070
   177
1070
     2
1070
   176
1070
     2
1070
   178
1070
     7
1070
    78
1070
     8
1070
    41
1041
3.175
1070
   147
1041
2.25
1070
    42
1041
2.0
1070
    44
1041
2.0
1070
   140
1041
4.5
1070
   343
1005
145
1070
   344
1005
145
1002
}
0
DIMENSION
5
18F
100
AcDbEntity
8
2
62
256
6
ByLayer
370
-3
48
1
60
0
100
AcDbDimension
2
DimnDraft3D6
10
143.021363
20
0
30
0
11
119.502927
21
37.788356
31
0
70
34
71
5
72
1
41
1
210
0
220
0
230
1
3
Standard
100
AcDb2LineAngularDimension
13
104.587296
23
-4.733095
33
0
14
91.088854
24
38.078491
34
0
15
112
25
0
35
0
16
128.1821
26
34.214547
36
0
40
0
0
ENDSEC
0
SECTION
2
OBJECTS
0
DICTIONARY
5
1c0
330
0
100
AcDbDictionary
280
0
281
1
3
ACAD_GROUP
350
1c1
3
ACAD_MLINESTYLE
350
1c2
0
DICTIONARY
5
1c1
330
0
100
AcDbDictionary
280
0
281
1
0
DICTIONARY
5
1c2
330
0
100
AcDbDictionary
280
0
281
1
3
Standard
350
18
0
MLINESTYLE
5
18
330
1c2
100
AcDbMlineStyle
2
Standard
70
0
3

62
256
51
90
52
90
71
2
49
-0.5
62
256
6
ByLayer
49
0.5
62
256
6
ByLayer
0
RASTERVARIABLES
5
1ae
330

100
AcDbRasterVariables
90
0
70
1
71
1
72
1
0
ENDSEC
0
EOF
