0
SECTION
2
HEADER
9
$ACADVER
1
AC1015
9
$DWGCODEPAGE
3
ANSI_1252
9
$HANDSEED
5
1bf
9
$ANGBASE
50
0
9
$ANGDIR
70
0
9
$ATTMODE
70
1
9
$AUNITS
70
0
9
$AUPREC
70
0
9
$CECOLOR
62
256
9
$CELTSCALE
40
1
9
$CELTYPE
6
ByLayer
9
$CELWEIGHT
370
-1
9
$CLAYER
8
0
9
$CMLJUST
70
0
9
$CMLSCALE
40
1
9
$CMLSTYLE
2
Standard
9
$DIMSTYLE
2
Standard
9
$TEXTSIZE
40
0.2
9
$TEXTSTYLE
7
Standard
9
$LUNITS
70
2
9
$LUPREC
70
4
9
$EXTNAMES
290
1
9
$INSUNITS
70
4
9
$LTSCALE
40
1
9
$LWDISPLAY
290
0
9
$PDMODE
70
0
9
$PDSIZE
40
0
9
$PLINEGEN
70
0
0
ENDSEC
0
SECTION
2
CLASSES
0
CLASS
1
RASTERVARIABLES
2
AcDbRasterVariables
3
ISM
90
0
280
0
281
0
0
ENDSEC
0
SECTION
2
TABLES
0
TABLE
2
VPORT
5
1b5
100
AcDbSymbolTable
0
VPORT
5
1
100
AcDbSymbolTableRecord
100
AcDbViewportTableRecord
2
*Active
70
0
10
0
20
0
11
1
21
1
12
-1
22
1
13
0
23
0
14
0.5
24
0.5
15
10
25
10
16
0
26
0
36
1
17
0
27
0
37
0
0
ENDTAB
0
TABLE
2
LTYPE
5
1b6
100
AcDbSymbolTable
0
LTYPE
5
14
100
AcDbSymbolTableRecord
100
AcDbLinetypeTableRecord
70
0
2
ByBlock
3

72
65
73
0
40
0
0
LTYPE
5
15
100
AcDbSymbolTableRecord
100
AcDbLinetypeTableRecord
70
0
2
ByLayer
3

72
65
73
0
40
0
0
LTYPE
5
16
100
AcDbSymbolTableRecord
100
AcDbLinetypeTableRecord
70
0
2
CONTINUOUS
3
Solid line
72
65
73
0
40
0
0
LTYPE
5
3B
100
AcDbSymbolTableRecord
100
AcDbLinetypeTableRecord
70
0
2
DASHED
3
__ __ __ __ __ __ __ __ __
72
65
73
2
40
25.72
49
12.86
74
0
49
-12.86
74
0
0
LTYPE
5
3C
100
AcDbSymbolTableRecord
100
AcDbLinetypeTableRecord
70
0
2
HIDDEN
3
_ _ _ _ _ _ _ _ _ _ _ _ _ _ _
72
65
73
2
40
0.5
49
0.25
74
0
49
-0.25
74
0
0
LTYPE
5
3D
100
AcDbSymbolTableRecord
100
AcDbLinetypeTableRecord
70
0
2
PHANTOM
3
____ _ _ ____ _ _ _____ _ _ ____
72
65
73
6
40
50.5
49
18
74
0
49
-6.5
74
0
49
6.5
74
0
49
-6.5
74
0
49
6.5
74
0
49
-6.5
74
0
0
LTYPE
5
3E
100
AcDbSymbolTableRecord
100
AcDbLinetypeTableRecord
70
0
2
CENTER
3
____ _ ____ _ ____ _ ____
72
65
73
4
40
47.5
49
22
74
0
49
-8.5
74
0
49
8.5
74
0
49
-8.5
74
0
0
LTYPE
5
3F
100
AcDbSymbolTableRecord
100
AcDbLinetypeTableRecord
70
0
2
DOT
3
.........................
72
65
73
2
40
10
49
0
74
0
49
-10
74
0
0
LTYPE
5
40
100
AcDbSymbolTableRecord
100
AcDbLinetypeTableRecord
70
0
2
DASHDOT
3
_._._._._._._._._._._._._._._._.
72
65
73
4
40
70
49
31
74
0
49
-13
74
0
49
13
74
0
49
-13
74
0
0
ENDTAB
0
TABLE
2
LAYER
5
1b7
100
AcDbSymbolTable
0
LAYER
5
10
100
AcDbSymbolTableRecord
100
AcDbLayerTableRecord
2
0
70
0
62
7
6
CONTINUOUS
290
1
370
-3
390
0
0
LAYER
5
42
100
AcDbSymbolTableRecord
100
AcDbLayerTableRecord
2
80
70
0
62
-6
6
CONTINUOUS
290
1
370
-3
390
0
0
LAYER
5
44
100
AcDbSymbolTableRecord
100
AcDbLayerTableRecord
2
81
70
0
62
-3
6
CONTINUOUS
290
1
370
-3
390
0
0
LAYER
5
46
100
AcDbSymbolTableRecord
100
AcDbLayerTableRecord
2
1
70
0
62
4
6
CONTINUOUS
290
1
370
-3
390
0
0
LAYER
5
48
100
AcDbSymbolTableRecord
100
AcDbLayerTableRecord
2
2
70
0
62
7
6
CONTINUOUS
290
1
370
-3
390
0
0
LAYER
5
4E
100
AcDbSymbolTableRecord
100
AcDbLayerTableRecord
2
4
70
0
62
-2
6
CENTER
290
1
370
-3
390
0
0
LAYER
5
1a1
100
AcDbSymbolTableRecord
100
AcDbLayerTableRecord
2
SK4
70
0
62
2
6
CENTER
290
1
370
-3
390
0
0
LAYER
5
1a2
100
AcDbSymbolTableRecord
100
AcDbLayerTableRecord
2
SK1
70
0
62
4
6
CONTINUOUS
290
1
370
-3
390
0
0
LAYER
5
1a3
100
AcDbSymbolTableRecord
100
AcDbLayerTableRecord
2
SK6
70
0
62
5
6
CONTINUOUS
290
1
370
-3
390
0
0
LAYER
5
1a4
100
AcDbSymbolTableRecord
100
AcDbLayerTableRecord
2
SK2
70
0
62
7
6
CONTINUOUS
290
1
370
-3
390
0
0
ENDTAB
0
TABLE
2
STYLE
5
1b8
100
AcDbSymbolTable
0
STYLE
5
11
100
AcDbSymbolTableRecord
100
AcDbTextStyleTableRecord
2
Standard
3
txt
70
0
71
0
40
0
41
1
42
0
50
0
0
STYLE
5
103
100
AcDbSymbolTableRecord
100
AcDbTextStyleTableRecord
2
DEFAULT
3
simplex.shx
70
0
71
0
40
0
41
1
42
0
50
0
0
STYLE
5
126
100
AcDbSymbolTableRecord
100
AcDbTextStyleTableRecord
2
DWGDirectTextStyle
3
SIMPLEX
70
0
71
0
40
0
41
1
42
0
50
0
0
ENDTAB
0
TABLE
2
DIMSTYLE
5
1b9
100
AcDbSymbolTable
100
AcDbDimStyleTable
0
DIMSTYLE
105
27
100
AcDbSymbolTableRecord
100
AcDbDimStyleTableRecord
2
Standard
70
0
3
<>
41
0.18
42
0.0625
44
0.18
140
0.18
147
0.09
73
0
74
0
77
1
271
2
275
0
278
52
280
0
340
11
0
ENDTAB
0
TABLE
2
VIEW
5
1ba
100
AcDbSymbolTable
0
ENDTAB
0
TABLE
2
UCS
5
1bb
100
AcDbSymbolTable
0
ENDTAB
0
TABLE
2
APPID
5
1bc
100
AcDbSymbolTable
0
APPID
5
12
100
AcDbSymbolTableRecord
100
AcDbRegAppTableRecord
2
ACAD
70
0
0
ENDTAB
0
TABLE
2
BLOCK_RECORD
5
1bd
100
AcDbSymbolTable
0
BLOCK_RECORD
5
1F
100
AcDbSymbolTableRecord
100
AcDbBlockTableRecord
2
*Model_Space
340
0
70
0
0
BLOCK_RECORD
5
1B
100
AcDbSymbolTableRecord
100
AcDbBlockTableRecord
2
*Paper_Space
340
0
70
0
0
BLOCK_RECORD
5
23
100
AcDbSymbolTableRecord
100
AcDbBlockTableRecord
2
*Paper_Space0
340
0
70
0
0
BLOCK_RECORD
5
128
100
AcDbSymbolTableRecord
100
AcDbBlockTableRecord
2
DimnDraft3D1
340
0
70
0
0
BLOCK_RECORD
5
137
100
AcDbSymbolTableRecord
100
AcDbBlockTableRecord
2
_CLOSED
340
0
70
0
0
BLOCK_RECORD
5
13E
100
AcDbSymbolTableRecord
100
AcDbBlockTableRecord
2
DimnDraft3D2
340
0
70
0
0
BLOCK_RECORD
5
14A
100
AcDbSymbolTableRecord
100
AcDbBlockTableRecord
2
DimnDraft3D3
340
0
70
0
0
BLOCK_RECORD
5
158
100
AcDbSymbolTableRecord
100
AcDbBlockTableRecord
2
DimnDraft3D4
340
0
70
0
0
BLOCK_RECORD
5
166
100
AcDbSymbolTableRecord
100
AcDbBlockTableRecord
2
DimnDraft3D5
340
0
70
0
0
BLOCK_RECORD
5
174
100
AcDbSymbolTableRecord
100
AcDbBlockTableRecord
2
DimnDraft3D6
340
0
70
0
0
ENDTAB
0
ENDSEC
0
SECTION
2
BLOCKS
0
BLOCK
5
20
100
AcDbEntity
8
0
100
AcDbBlockBegin
2
*Model_Space
70
0
10
0
20
0
30
0
3
*Model_Space
0
ENDBLK
5
21
100
AcDbEntity
8
0
100
AcDbBlockEnd
0
BLOCK
5
1C
100
AcDbEntity
8
0
100
AcDbBlockBegin
2
*Paper_Space
70
0
10
0
20
0
30
0
3
*Paper_Space
0
ENDBLK
5
1D
100
AcDbEntity
8
0
100
AcDbBlockEnd
0
BLOCK
5
24
100
AcDbEntity
8
0
100
AcDbBlockBegin
2
*Paper_Space0
70
0
10
0
20
0
30
0
3
*Paper_Space0
0
ENDBLK
5
25
100
AcDbEntity
8
0
100
AcDbBlockEnd
0
BLOCK
5
134
100
AcDbEntity
8
0
100
AcDbBlockBegin
2
DimnDraft3D1
70
0
10
0
20
0
30
0
3
DimnDraft3D1
0
MTEXT
5
129
100
AcDbEntity
8
SK2
62
256
6
ByLayer
370
-1
48
1
60
0
100
AcDbMText
10
-43.875
20
-3.659211
30
0
210
0
220
0
230
1
1
\W01.000;\fsimplex.shx,bigfont.shx;%%c50 
40
4.5
41
0
44
1.084337
50
90
71
7
72
5
7
DEFAULT
0
LINE
5
12B
100
AcDbEntity
8
SK2
62
256
6
ByLayer
370
-1
48
1
60
0
100
AcDbLine
10
-2
20
-25
30
0
11
-44.75
21
-25
31
0
39
0
210
0
220
0
230
1
0
LINE
5
12C
100
AcDbEntity
8
SK2
62
256
6
ByLayer
370
-1
48
1
60
0
100
AcDbLine
10
-2
20
25
30
0
11
-44.75
21
25
31
0
39
0
210
0
220
0
230
1
0
LINE
5
12D
100
AcDbEntity
8
SK2
62
256
6
ByLayer
370
-1
48
1
60
0
100
AcDbLine
10
-42.75
20
-25
30
0
11
-42.75
21
25
31
0
39
0
210
0
220
0
230
1
0
LINE
5
12E
100
AcDbEntity
8
SK2
62
256
6
ByLayer
370
-1
48
1
60
0
100
AcDbLine
10
-42.75
20
-25
30
0
11
-43.167997
21
-21.825002
31
0
39
0
210
0
220
0
230
1
0
LINE
5
12F
100
AcDbEntity
8
SK2
62
256
6
ByLayer
370
-1
48
1
60
0
100
AcDbLine
10
-42.75
20
-25
30
0
11
-42.332003
21
-21.824998
31
0
39
0
210
0
220
0
230
1
0
LINE
5
130
100
AcDbEntity
8
SK2
62
256
6
ByLayer
370
-1
48
1
60
0
100
AcDbLine
10
-43.167997
20
-21.825002
30
0
11
-42.332003
21
-21.824998
31
0
39
0
210
0
220
0
230
1
0
LINE
5
131
100
AcDbEntity
8
SK2
62
256
6
ByLayer
370
-1
48
1
60
0
100
AcDbLine
10
-42.75
20
25
30
0
11
-42.332003
21
21.825002
31
0
39
0
210
0
220
0
230
1
0
LINE
5
132
100
AcDbEntity
8
SK2
62
256
6
ByLayer
370
-1
48
1
60
0
100
AcDbLine
10
-42.75
20
25
30
0
11
-43.167997
21
21.824998
31
0
39
0
210
0
220
0
230
1
0
LINE
5
133
100
AcDbEntity
8
SK2
62
256
6
ByLayer
370
-1
48
1
60
0
100
AcDbLine
10
-42.332003
20
21.825002
30
0
11
-43.167997
21
21.824998
31
0
39
0
210
0
220
0
230
1
0
ENDBLK
5
135
100
AcDbEntity
8
0
100
AcDbBlockEnd
0
BLOCK
5
138
100
AcDbEntity
8
0
100
AcDbBlockBegin
2
_CLOSED
70
0
10
0
20
0
30
0
3
_CLOSED
0
LINE
5
13A
100
AcDbEntity
8
0
62
256
6
ByLayer
370
-2
48
1
60
0
100
AcDbLine
10
-1
20
0.166667
30
0
11
0
21
0
31
0
39
0
210
0
220
0
230
1
0
LINE
5
13B
100
AcDbEntity
8
0
62
256
6
ByLayer
370
-2
48
1
60
0
100
AcDbLine
10
0
20
0
30
0
11
-1
21
-0.166667
31
0
39
0
210
0
220
0
230
1
0
LINE
5
13C
100
AcDbEntity
8
0
62
256
6
ByLayer
370
-2
48
1
60
0
100
AcDbLine
10
-1
20
0.166667
30
0
11
-1
21
-0.166667
31
0
39
0
210
0
220
0
230
1
0
LINE
5
13D
100
AcDbEntity
8
0
62
256
6
ByLayer
370
-2
48
1
60
0
100
AcDbLine
10
0
20
0
30
0
11
-1
21
0
31
0
39
0
210
0
220
0
230
1
0
ENDBLK
5
139
100
AcDbEntity
8
0
100
AcDbBlockEnd
0
BLOCK
5
147
100
AcDbEntity
8
0
100
AcDbBlockBegin
2
DimnDraft3D2
70
0
10
0
20
0
30
0
3
DimnDraft3D2
0
MTEXT
5
13F
100
AcDbEntity
8
2
62
256
6
ByLayer
370
-1
48
1
60
0
100
AcDbMText
10
37.625
20
-6.193421
30
0
210
0
220
0
230
1
1
\W01.000;\fsimplex.shx,bigfont.shx;%%c20.0 
40
4.5
41
0
44
1.084337
50
90
71
7
72
5
7
DEFAULT
0
LINE
5
140
100
AcDbEntity
8
2
62
256
6
ByLayer
370
-1
48
1
60
0
100
AcDbLine
10
38.75
20
-10
30
0
11
38.75
21
10
31
0
39
0
210
0
220
0
230
1
0
LINE
5
141
100
AcDbEntity
8
2
62
256
6
ByLayer
370
-1
48
1
60
0
100
AcDbLine
10
38.75
20
-10
30
0
11
38.332003
21
-6.825002
31
0
39
0
210
0
220
0
230
1
0
LINE
5
142
100
AcDbEntity
8
2
62
256
6
ByLayer
370
-1
48
1
60
0
100
AcDbLine
10
38.75
20
-10
30
0
11
39.167997
21
-6.824998
31
0
39
0
210
0
220
0
230
1
0
LINE
5
143
100
AcDbEntity
8
2
62
256
6
ByLayer
370
-1
48
1
60
0
100
AcDbLine
10
38.332003
20
-6.825002
30
0
11
39.167997
21
-6.824998
31
0
39
0
210
0
220
0
230
1
0
LINE
5
144
100
AcDbEntity
8
2
62
256
6
ByLayer
370
-1
48
1
60
0
100
AcDbLine
10
38.75
20
10
30
0
11
39.167997
21
6.825002
31
0
39
0
210
0
220
0
230
1
0
LINE
5
145
100
AcDbEntity
8
2
62
256
6
ByLayer
370
-1
48
1
60
0
100
AcDbLine
10
38.75
20
10
30
0
11
38.332003
21
6.824998
31
0
39
0
210
0
220
0
230
1
0
LINE
5
146
100
AcDbEntity
8
2
62
256
6
ByLayer
370
-1
48
1
60
0
100
AcDbLine
10
39.167997
20
6.825002
30
0
11
38.332003
21
6.824998
31
0
39
0
210
0
220
0
230
1
0
ENDBLK
5
148
100
AcDbEntity
8
0
100
AcDbBlockEnd
0
BLOCK
5
155
100
AcDbEntity
8
0
100
AcDbBlockBegin
2
DimnDraft3D3
70
0
10
0
20
0
30
0
3
DimnDraft3D3
0
MTEXT
5
14B
100
AcDbEntity
8
2
62
256
6
ByLayer
370
-1
48
1
60
0
100
AcDbMText
10
91.125
20
24.28
30
0
210
0
220
0
230
1
1
\W01.000;\fsimplex.shx,bigfont.shx;13.0 
40
4.5
41
0
44
1.084337
50
90
71
7
72
5
7
DEFAULT
0
LINE
5
14C
100
AcDbEntity
8
2
62
256
6
ByLayer
370
-1
48
1
60
0
100
AcDbLine
10
82
20
12.9
30
0
11
94.25
21
12.9
31
0
39
0
210
0
220
0
230
1
0
LINE
5
14D
100
AcDbEntity
8
2
62
256
6
ByLayer
370
-1
48
1
60
0
100
AcDbLine
10
82
20
0
30
0
11
94.25
21
0
31
0
39
0
210
0
220
0
230
1
0
LINE
5
14E
100
AcDbEntity
8
2
62
256
6
ByLayer
370
-1
48
1
60
0
100
AcDbLine
10
92.25
20
0
30
0
11
92.25
21
32.356316
31
0
39
0
210
0
220
0
230
1
0
LINE
5
14F
100
AcDbEntity
8
2
62
256
6
ByLayer
370
-1
48
1
60
0
100
AcDbLine
10
92.25
20
12.9
30
0
11
92.667997
21
9.725002
31
0
39
0
210
0
220
0
230
1
0
LINE
5
150
100
AcDbEntity
8
2
62
256
6
ByLayer
370
-1
48
1
60
0
100
AcDbLine
10
92.25
20
12.9
30
0
11
91.832003
21
9.724998
31
0
39
0
210
0
220
0
230
1
0
LINE
5
151
100
AcDbEntity
8
2
62
256
6
ByLayer
370
-1
48
1
60
0
100
AcDbLine
10
92.667997
20
9.725002
30
0
11
91.832003
21
9.724998
31
0
39
0
210
0
220
0
230
1
0
LINE
5
152
100
AcDbEntity
8
2
62
256
6
ByLayer
370
-1
48
1
60
0
100
AcDbLine
10
92.25
20
0
30
0
11
91.832003
21
3.174998
31
0
39
0
210
0
220
0
230
1
0
LINE
5
153
100
AcDbEntity
8
2
62
256
6
ByLayer
370
-1
48
1
60
0
100
AcDbLine
10
92.25
20
0
30
0
11
92.667997
21
3.175002
31
0
39
0
210
0
220
0
230
1
0
LINE
5
154
100
AcDbEntity
8
2
62
256
6
ByLayer
370
-1
48
1
60
0
100
AcDbLine
10
91.832003
20
3.174998
30
0
11
92.667997
21
3.175002
31
0
39
0
210
0
220
0
230
1
0
ENDBLK
5
156
100
AcDbEntity
8
0
100
AcDbBlockEnd
0
BLOCK
5
163
100
AcDbEntity
8
0
100
AcDbBlockBegin
2
DimnDraft3D4
70
0
10
0
20
0
30
0
3
DimnDraft3D4
0
MTEXT
5
159
100
AcDbEntity
8
2
62
256
6
ByLayer
370
-1
48
1
60
0
100
AcDbMText
10
35.961842
20
41.775
30
0
210
0
220
0
230
1
1
\W01.000;\fsimplex.shx,bigfont.shx;80.0 
40
4.5
41
0
44
1.084337
50
0
71
7
72
5
7
DEFAULT
0
LINE
5
15A
100
AcDbEntity
8
2
62
256
6
ByLayer
370
-1
48
1
60
0
100
AcDbLine
10
0
20
27
30
0
11
0
21
42.65
31
0
39
0
210
0
220
0
230
1
0
LINE
5
15B
100
AcDbEntity
8
2
62
256
6
ByLayer
370
-1
48
1
60
0
100
AcDbLine
10
80
20
14.9
30
0
11
80
21
42.65
31
0
39
0
210
0
220
0
230
1
0
LINE
5
15C
100
AcDbEntity
8
2
62
256
6
ByLayer
370
-1
48
1
60
0
100
AcDbLine
10
0
20
40.65
30
0
11
80
21
40.65
31
0
39
0
210
0
220
0
230
1
0
LINE
5
15D
100
AcDbEntity
8
2
62
256
6
ByLayer
370
-1
48
1
60
0
100
AcDbLine
10
0
20
40.65
30
0
11
3.174998
21
41.067997
31
0
39
0
210
0
220
0
230
1
0
LINE
5
15E
100
AcDbEntity
8
2
62
256
6
ByLayer
370
-1
48
1
60
0
100
AcDbLine
10
0
20
40.65
30
0
11
3.175002
21
40.232003
31
0
39
0
210
0
220
0
230
1
0
LINE
5
15F
100
AcDbEntity
8
2
62
256
6
ByLayer
370
-1
48
1
60
0
100
AcDbLine
10
3.174998
20
41.067997
30
0
11
3.175002
21
40.232003
31
0
39
0
210
0
220
0
230
1
0
LINE
5
160
100
AcDbEntity
8
2
62
256
6
ByLayer
370
-1
48
1
60
0
100
AcDbLine
10
80
20
40.65
30
0
11
76.825002
21
40.232003
31
0
39
0
210
0
220
0
230
1
0
LINE
5
161
100
AcDbEntity
8
2
62
256
6
ByLayer
370
-1
48
1
60
0
100
AcDbLine
10
80
20
40.65
30
0
11
76.824998
21
41.067997
31
0
39
0
210
0
220
0
230
1
0
LINE
5
162
100
AcDbEntity
8
2
62
256
6
ByLayer
370
-1
48
1
60
0
100
AcDbLine
10
76.825002
20
40.232003
30
0
11
76.824998
21
41.067997
31
0
39
0
210
0
220
0
230
1
0
ENDBLK
5
164
100
AcDbEntity
8
0
100
AcDbBlockEnd
0
BLOCK
5
171
100
AcDbEntity
8
0
100
AcDbBlockBegin
2
DimnDraft3D5
70
0
10
0
20
0
30
0
3
DimnDraft3D5
0
MTEXT
5
167
100
AcDbEntity
8
2
62
256
6
ByLayer
370
-1
48
1
60
0
100
AcDbMText
10
47.711842
20
26.775
30
0
210
0
220
0
230
1
1
\W01.000;\fsimplex.shx,bigfont.shx;56.5 
40
4.5
41
0
44
1.084337
50
0
71
7
72
5
7
DEFAULT
0
LINE
5
168
100
AcDbEntity
8
2
62
256
6
ByLayer
370
-1
48
1
60
0
100
AcDbLine
10
23.5
20
12
30
0
11
23.5
21
27.65
31
0
39
0
210
0
220
0
230
1
0
LINE
5
169
100
AcDbEntity
8
2
62
256
6
ByLayer
370
-1
48
1
60
0
100
AcDbLine
10
80
20
14.9
30
0
11
80
21
27.65
31
0
39
0
210
0
220
0
230
1
0
LINE
5
16A
100
AcDbEntity
8
2
62
256
6
ByLayer
370
-1
48
1
60
0
100
AcDbLine
10
23.5
20
25.65
30
0
11
80
21
25.65
31
0
39
0
210
0
220
0
230
1
0
LINE
5
16B
100
AcDbEntity
8
2
62
256
6
ByLayer
370
-1
48
1
60
0
100
AcDbLine
10
23.5
20
25.65
30
0
11
26.674998
21
26.067997
31
0
39
0
210
0
220
0
230
1
0
LINE
5
16C
100
AcDbEntity
8
2
62
256
6
ByLayer
370
-1
48
1
60
0
100
AcDbLine
10
23.5
20
25.65
30
0
11
26.675002
21
25.232003
31
0
39
0
210
0
220
0
230
1
0
LINE
5
16D
100
AcDbEntity
8
2
62
256
6
ByLayer
370
-1
48
1
60
0
100
AcDbLine
10
26.674998
20
26.067997
30
0
11
26.675002
21
25.232003
31
0
39
0
210
0
220
0
230
1
0
LINE
5
16E
100
AcDbEntity
8
2
62
256
6
ByLayer
370
-1
48
1
60
0
100
AcDbLine
10
80
20
25.65
30
0
11
76.825002
21
25.232003
31
0
39
0
210
0
220
0
230
1
0
LINE
5
16F
100
AcDbEntity
8
2
62
256
6
ByLayer
370
-1
48
1
60
0
100
AcDbLine
10
80
20
25.65
30
0
11
76.824998
21
26.067997
31
0
39
0
210
0
220
0
230
1
0
LINE
5
170
100
AcDbEntity
8
2
62
256
6
ByLayer
370
-1
48
1
60
0
100
AcDbLine
10
76.825002
20
25.232003
30
0
11
76.824998
21
26.067997
31
0
39
0
210
0
220
0
230
1
0
ENDBLK
5
172
100
AcDbEntity
8
0
100
AcDbBlockEnd
0
BLOCK
5
17F
100
AcDbEntity
8
0
100
AcDbBlockBegin
2
DimnDraft3D6
70
0
10
0
20
0
30
0
3
DimnDraft3D6
0
MTEXT
5
175
100
AcDbEntity
8
2
62
256
6
ByLayer
370
-1
48
1
60
0
100
AcDbMText
10
116.599649
20
-32.044103
30
0
210
0
220
0
230
1
1
\W01.000;\fsimplex.shx,bigfont.shx;75%%d0' 
40
4.5
41
0
44
1.084337
50
52.5
71
7
72
5
7
DEFAULT
0
LINE
5
176
100
AcDbEntity
8
2
62
256
6
ByLayer
370
-1
48
1
60
0
100
AcDbLine
10
82.847009
20
2.274816
30
0
11
96.11963
21
-47.25928
31
0
39
0
210
0
220
0
230
1
0
LINE
5
177
100
AcDbEntity
8
2
62
256
6
ByLayer
370
-1
48
1
60
0
100
AcDbLine
10
82
20
0
30
0
11
132.382951
21
0
31
0
39
0
210
0
220
0
230
1
0
ARC
5
178
100
AcDbEntity
8
2
62
256
6
ByLayer
370
-1
48
1
60
0
100
AcDbCircle
39
0
10
83.456545
20
0
30
0
40
46.9264068782929
210
0
220
0
230
1
100
AcDbArc
50
285
51
0
0
LINE
5
179
100
AcDbEntity
8
2
62
256
6
ByLayer
370
-1
48
1
60
0
100
AcDbLine
10
95.601992
20
-45.327428
30
0
11
98.539477
21
-44.052077
31
0
39
0
210
0
220
0
230
1
0
LINE
5
17A
100
AcDbEntity
8
2
62
256
6
ByLayer
370
-1
48
1
60
0
100
AcDbLine
10
95.601992
20
-45.327428
30
0
11
98.769473
21
-44.85581
31
0
39
0
210
0
220
0
230
1
0
LINE
5
17B
100
AcDbEntity
8
2
62
256
6
ByLayer
370
-1
48
1
60
0
100
AcDbLine
10
98.539477
20
-44.052077
30
0
11
98.769473
21
-44.85581
31
0
39
0
210
0
220
0
230
1
0
LINE
5
17C
100
AcDbEntity
8
2
62
256
6
ByLayer
370
-1
48
1
60
0
100
AcDbLine
10
130.382951
20
0
30
0
11
130.747207
21
-3.181612
31
0
39
0
210
0
220
0
230
1
0
LINE
5
17D
100
AcDbEntity
8
2
62
256
6
ByLayer
370
-1
48
1
60
0
100
AcDbLine
10
130.382951
20
0
30
0
11
129.911333
21
-3.16748
31
0
39
0
210
0
220
0
230
1
0
LINE
5
17E
100
AcDbEntity
8
2
62
256
6
ByLayer
370
-1
48
1
60
0
100
AcDbLine
10
130.747207
20
-3.181612
30
0
11
129.911333
21
-3.16748
31
0
39
0
210
0
220
0
230
1
0
ENDBLK
5
180
100
AcDbEntity
8
0
100
AcDbBlockEnd
0
ENDSEC
0
SECTION
2
ENTITIES
0
ARC
5
8F
100
AcDbEntity
8
SK1
62
256
6
ByLayer
370
-1
48
1
60
0
100
AcDbCircle
39
0
10
0.6
20
18.75
30
0
40
1
210
0
220
0
230
-1
100
AcDbArc
50
233.130102
51
246.421822
0
ARC
5
90
100
AcDbEntity
8
SK1
62
256
6
ByLayer
370
-1
48
1
60
0
100
AcDbCircle
39
0
10
0.6
20
-18.75
30
0
40
1
210
0
220
0
230
-1
100
AcDbArc
50
113.578178
51
126.869898
0
ARC
5
91
100
AcDbEntity
8
1
62
256
6
ByLayer
370
-1
48
1
60
0
100
AcDbCircle
39
0
10
-28.10967
20
-16
30
0
40
6
210
0
220
0
230
-1
100
AcDbArc
50
14.931417
51
90
0
ARC
5
92
100
AcDbEntity
8
1
62
256
6
ByLayer
370
-1
48
1
60
0
100
AcDbCircle
39
0
10
-28.10967
20
16
30
0
40
6
210
0
220
0
230
-1
100
AcDbArc
50
270
51
345.068583
0
ELLIPSE
5
93
100
AcDbEntity
8
1
62
256
6
ByLayer
370
-1
48
1
60
0
100
AcDbEllipse
10
73.054606
20
0.521605
30
0
11
1.4488887394336
21
0.388228567653784
31
0
210
0
220
0
230
1
40
0.99445
41
1.28572167034154
42
2.99298068285019
0
ELLIPSE
5
94
100
AcDbEntity
8
1
62
256
6
ByLayer
370
-1
48
1
60
0
100
AcDbEllipse
10
73.054606
20
0.521605
30
0
11
1.4488887394336
21
0.388228567653784
31
0
210
0
220
0
230
1
40
0.99445
41
0.148661702514902
42
0.623827777476615
0
ELLIPSE
5
95
100
AcDbEntity
8
1
62
256
6
ByLayer
370
-1
48
1
60
0
100
AcDbEllipse
10
21.056258
20
0
30
0
11
11.7092723497262
21
-24.6771864409363
31
0
210
0
220
0
230
-1
40
0.341999
41
2.05975995310048
42
2.97437958168081
0
ELLIPSE
5
96
100
AcDbEntity
8
1
62
256
6
ByLayer
370
-1
48
1
60
0
100
AcDbEllipse
10
-1.056258
20
0
30
0
11
11.709272349728
21
-24.6771864409383
31
0
210
0
220
0
230
-1
40
0.341999
41
-1.08183270048925
42
-0.167213071908975
0
ELLIPSE
5
97
100
AcDbEntity
8
1
62
256
6
ByLayer
370
-1
48
1
60
0
100
AcDbEllipse
10
72.940239
20
0.948427
30
0
11
1.4488887394336
21
0.388228567653784
31
0
210
0
220
0
230
1
40
0.99445
41
1.98855696349668
42
0.297703954947269
0
ELLIPSE
5
98
100
AcDbEntity
8
1
62
256
6
ByLayer
370
-1
48
1
60
0
100
AcDbEllipse
10
73.285693
20
3.045492
30
0
11
-1.44888873943361
21
-0.388228567653783
31
0
210
0
220
0
230
1
40
0.99445
41
-0.00436332312997974
42
0.459149890369811
0
ELLIPSE
5
99
100
AcDbEntity
8
1
62
256
6
ByLayer
370
-1
48
1
60
0
100
AcDbEllipse
10
21.056258
20
0
30
0
11
11.7092723497262
21
24.6771864409362
31
0
210
0
220
0
230
-1
40
0.341999
41
-2.97437958168081
42
-2.05975995310048
0
ELLIPSE
5
9A
100
AcDbEntity
8
1
62
256
6
ByLayer
370
-1
48
1
60
0
100
AcDbEllipse
10
47.279127
20
0.000823
30
0
11
367.097172061161
21
1.01725211848318
31
0
210
0
220
0
230
-1
40
0.027097
41
-1.51329153705547
42
-1.50825828158544
0
ELLIPSE
5
9B
100
AcDbEntity
8
1
62
256
6
ByLayer
370
-1
48
1
60
0
100
AcDbEllipse
10
-1.056258
20
0
30
0
11
11.7092723497275
21
24.6771864409378
31
0
210
0
220
0
230
-1
40
0.341999
41
0.167213071908977
42
1.08183270048927
0
ELLIPSE
5
9C
100
AcDbEntity
8
1
62
256
6
ByLayer
370
-1
48
1
60
0
100
AcDbEllipse
10
73.190952
20
3.402931
30
0
11
1.5936303179932
21
0.427011956740035
31
0
210
0
220
0
230
1
40
0.99445
41
1.87232622214004
42
3.13722933045982
0
ELLIPSE
5
9D
100
AcDbEntity
8
1
62
256
6
ByLayer
370
-1
48
1
60
0
100
AcDbEllipse
10
73.28762
20
3.042162
30
0
11
-1.4488887394336
21
-0.388228567653782
31
0
210
0
220
0
230
1
40
0.99445
41
-1.23805626467495
42
-0.00436332312998302
0
ELLIPSE
5
9E
100
AcDbEntity
8
1
62
256
6
ByLayer
370
-1
48
1
60
0
100
AcDbEllipse
10
73.248931
20
3.182692
30
0
11
1.59363031799321
21
0.427011956740036
31
0
210
0
220
0
230
1
40
0.99445
41
3.13722933045994
42
-2.69077804407226
0
ELLIPSE
5
9F
100
AcDbEntity
8
1
62
256
6
ByLayer
370
-1
48
1
60
0
100
AcDbEllipse
10
73.227715
20
3.265731
30
0
11
-1.4488887394336
21
-0.388228567653782
31
0
210
0
220
0
230
1
40
0.99445
41
-1.23805626467495
42
-0.0043633231299857
0
ELLIPSE
5
A0
100
AcDbEntity
8
1
62
256
6
ByLayer
370
-1
48
1
60
0
100
AcDbEllipse
10
73.036907
20
0.587659
30
0
11
-1.4488887394336
21
-0.388228567653782
31
0
210
0
220
0
230
1
40
0.99445
41
-2.7374569101171
42
-2.57311634662866
0
ELLIPSE
5
A1
100
AcDbEntity
8
1
62
256
6
ByLayer
370
-1
48
1
60
0
100
AcDbEllipse
10
73.036907
20
0.587659
30
0
11
-1.4488887394336
21
-0.388228567653782
31
0
210
0
220
0
230
1
40
0.99445
41
-1.84289296673084
42
-1.25335783941763
0
ELLIPSE
5
A2
100
AcDbEntity
8
1
62
256
6
ByLayer
370
-1
48
1
60
0
100
AcDbEllipse
10
79.389656
20
12.110054
30
0
11
0.76694510607352
21
0.205502321811403
31
0
210
0
220
0
230
1
40
0.99445
41
0
42
1.57079632679491
0
ELLIPSE
5
A3
100
AcDbEntity
8
1
62
256
6
ByLayer
370
-1
48
1
60
0
100
AcDbEllipse
10
73.765949
20
2.431801
30
0
11
0.766945106073487
21
0.205502321811394
31
0
210
0
220
0
230
1
40
0.99445
41
-3.14159265358978
42
-1.57079632679488
0
ELLIPSE
5
A4
100
AcDbEntity
8
1
62
256
6
ByLayer
370
-1
48
1
60
0
100
AcDbEllipse
10
76.577803
20
7.270928
30
0
11
2.96667247474562
21
0.794917493815735
31
0
210
0
220
0
230
1
40
0.99445
41
0
42
6.28318530717959
0
ELLIPSE
5
A5
100
AcDbEntity
8
1
62
256
6
ByLayer
370
-1
48
1
60
0
100
AcDbEllipse
10
71.723103
20
10.055808
30
0
11
0.76694510607352
21
0.205502321811403
31
0
210
0
220
0
230
1
40
0.99445
41
1.57079632679491
42
-3.14159265358977
0
ELLIPSE
5
A6
100
AcDbEntity
8
1
62
256
6
ByLayer
370
-1
48
1
60
0
100
AcDbEllipse
10
76.607414
20
7.160417
30
0
11
-2.84995997970064
21
-0.763644475021805
31
0
210
0
220
0
230
1
40
0.99445
41
0
42
6.28318530717959
0
ELLIPSE
5
A7
100
AcDbEntity
8
1
62
256
6
ByLayer
370
-1
48
1
60
0
100
AcDbEllipse
10
76.60322
20
7.176068
30
0
11
2.90362333281082
21
0.778023527150828
31
0
210
0
220
0
230
1
40
0.99445
41
-0.709824762565615
42
-0.263194202048349
0
ELLIPSE
5
A8
100
AcDbEntity
8
1
62
256
6
ByLayer
370
-1
48
1
60
0
100
AcDbEllipse
10
76.60322
20
7.176068
30
0
11
2.90362333281082
21
0.778023527150828
31
0
210
0
220
0
230
1
40
0.99445
41
-2.41944026959225
42
-0.72209680350133
0
ELLIPSE
5
A9
100
AcDbEntity
8
1
62
256
6
ByLayer
370
-1
48
1
60
0
100
AcDbEllipse
10
76.60322
20
7.176068
30
0
11
2.90362333281082
21
0.778023527150828
31
0
210
0
220
0
230
1
40
0.99445
41
-0.263193867656311
42
-2.97112391581838E-16
0
ELLIPSE
5
AA
100
AcDbEntity
8
1
62
256
6
ByLayer
370
-1
48
1
60
0
100
AcDbEllipse
10
76.60322
20
7.176068
30
0
11
2.90362333281082
21
0.778023527150828
31
0
210
0
220
0
230
1
40
0.99445
41
0
42
-2.43171201066931
0
ELLIPSE
5
AB
100
AcDbEntity
8
1
62
256
6
ByLayer
370
-1
48
1
60
0
100
AcDbEllipse
10
76.621701
20
7.107096
30
0
11
-1.16538950941776
21
-0.312265177916192
31
0
210
0
220
0
230
1
40
0.99445
41
1.52768158209874
42
2.18389472987023
0
ELLIPSE
5
AC
100
AcDbEntity
8
1
62
256
6
ByLayer
370
-1
48
1
60
0
100
AcDbEllipse
10
76.590288
20
7.224332
30
0
11
1.16538950941776
21
0.312265177916194
31
0
210
0
220
0
230
1
40
0.99445
41
2.28716185678033
42
2.42522712360436
0
ELLIPSE
5
AD
100
AcDbEntity
8
1
62
256
6
ByLayer
370
-1
48
1
60
0
100
AcDbEllipse
10
76.582899
20
7.251908
30
0
11
1.61937464777363
21
0.43391012911438
31
0
210
0
220
0
230
1
40
0.99445
41
-2.35619449019233
42
-1.31178748667708
0
ELLIPSE
5
AE
100
AcDbEntity
8
1
62
256
6
ByLayer
370
-1
48
1
60
0
100
AcDbEllipse
10
76.582899
20
7.251908
30
0
11
1.61937464777363
21
0.43391012911438
31
0
210
0
220
0
230
1
40
0.99445
41
2.88258381347199
42
-2.35619449019233
0
ELLIPSE
5
AF
100
AcDbEntity
8
1
62
256
6
ByLayer
370
-1
48
1
60
0
100
AcDbEllipse
10
76.621701
20
7.107096
30
0
11
-1.16538950941776
21
-0.312265177916192
31
0
210
0
220
0
230
1
40
0.99445
41
0.330183447473597
42
1.03132335779594
0
ELLIPSE
5
B0
100
AcDbEntity
8
1
62
256
6
ByLayer
370
-1
48
1
60
0
100
AcDbEllipse
10
76.590288
20
7.224332
30
0
11
1.16538950941776
21
0.312265177916194
31
0
210
0
220
0
230
1
40
0.99445
41
-0.854430796809366
42
-0.716365529985506
0
ELLIPSE
5
B1
100
AcDbEntity
8
1
62
256
6
ByLayer
370
-1
48
1
60
0
100
AcDbEllipse
10
76.621701
20
7.107096
30
0
11
1.16538950941776
21
0.312265177916194
31
0
210
0
220
0
230
1
40
0.99445
41
0.263194661639824
42
1.30760166515505
0
ELLIPSE
5
B2
100
AcDbEntity
8
1
62
256
6
ByLayer
370
-1
48
1
60
0
100
AcDbEllipse
10
76.621701
20
7.107096
30
0
11
-1.16538950941776
21
-0.312265177916192
31
0
210
0
220
0
230
1
40
0.99445
41
2.60491496408179
42
-2.87839799194996
0
ELLIPSE
5
B3
100
AcDbEntity
8
1
62
256
6
ByLayer
370
-1
48
1
60
0
100
AcDbEllipse
10
76.582899
20
7.251908
30
0
11
1.61937464777363
21
0.43391012911438
31
0
210
0
220
0
230
1
40
0.99445
41
-1.31178748667708
42
-0.259008840117801
0
ELLIPSE
5
B4
100
AcDbEntity
8
1
62
256
6
ByLayer
370
-1
48
1
60
0
100
AcDbEllipse
10
76.626966
20
8.989799
30
0
11
-0.662625116834301
21
-0.17754986494033
31
0
210
0
220
0
230
1
40
0.99445
41
1.30760166515505
42
2.09159230877585
0
ELLIPSE
5
B5
100
AcDbEntity
8
1
62
256
6
ByLayer
370
-1
48
1
60
0
100
AcDbEllipse
10
76.582899
20
7.251908
30
0
11
1.61937464777363
21
0.43391012911438
31
0
210
0
220
0
230
1
40
0.99445
41
1.8298051669127
42
2.88258381347199
0
ELLIPSE
5
B6
100
AcDbEntity
8
1
62
256
6
ByLayer
370
-1
48
1
60
0
100
AcDbEllipse
10
76.621701
20
7.107096
30
0
11
1.16538950941776
21
0.312265177916194
31
0
210
0
220
0
230
1
40
0.99445
41
2.28716185678033
42
2.42522712360436
0
ELLIPSE
5
B7
100
AcDbEntity
8
1
62
256
6
ByLayer
370
-1
48
1
60
0
100
AcDbEllipse
10
76.582899
20
7.251908
30
0
11
1.61937464777363
21
0.43391012911438
31
0
210
0
220
0
230
1
40
0.99445
41
-0.259008840117801
42
0.785398163397429
0
ELLIPSE
5
B8
100
AcDbEntity
8
1
62
256
6
ByLayer
370
-1
48
1
60
0
100
AcDbEllipse
10
74.991539
20
8.042233
30
0
11
-0.662625116834301
21
-0.17754986494033
31
0
210
0
220
0
230
1
40
0.99445
41
2.47780853140944
42
-3.135729482066
0
ELLIPSE
5
B9
100
AcDbEntity
8
1
62
256
6
ByLayer
370
-1
48
1
60
0
100
AcDbEllipse
10
76.621701
20
7.107096
30
0
11
-1.16538950941776
21
-0.312265177916192
31
0
210
0
220
0
230
1
40
0.99445
41
-0.716365529985429
42
0.0796651415643337
0
ELLIPSE
5
BA
100
AcDbEntity
8
1
62
256
6
ByLayer
370
-1
48
1
60
0
100
AcDbEllipse
10
76.582899
20
7.251908
30
0
11
1.61937464777363
21
0.43391012911438
31
0
210
0
220
0
230
1
40
0.99445
41
0.785398163397429
42
1.8298051669127
0
ELLIPSE
5
BB
100
AcDbEntity
8
1
62
256
6
ByLayer
370
-1
48
1
60
0
100
AcDbEllipse
10
76.621701
20
7.107096
30
0
11
-1.16538950941776
21
-0.312265177916192
31
0
210
0
220
0
230
1
40
0.99445
41
-1.83399098843472
42
-0.854430796809458
0
ELLIPSE
5
BC
100
AcDbEntity
8
1
62
256
6
ByLayer
370
-1
48
1
60
0
100
AcDbEllipse
10
78.260039
20
8.052993
30
0
11
-0.662625116834301
21
-0.17754986494033
31
0
210
0
220
0
230
1
40
0.99445
41
0.263194661639823
42
1.04718530526061
0
ELLIPSE
5
BD
100
AcDbEntity
8
1
62
256
6
ByLayer
370
-1
48
1
60
0
100
AcDbEllipse
10
74.983363
20
6.1612
30
0
11
-0.662625116834301
21
-0.17754986494033
31
0
210
0
220
0
230
1
40
0.99445
41
2.6207966716088
42
3.14158748122238
0
ELLIPSE
5
BE
100
AcDbEntity
8
1
62
256
6
ByLayer
370
-1
48
1
60
0
100
AcDbEllipse
10
75.237716
20
7.101332
30
0
11
-0.282050341276408
21
-0.0755751611699361
31
0
210
0
220
0
230
1
40
0.99445
41
-1.57665949831865
42
-0.23907131348876
0
ELLIPSE
5
BF
100
AcDbEntity
8
1
62
256
6
ByLayer
370
-1
48
1
60
0
100
AcDbEllipse
10
74.991539
20
8.042233
30
0
11
-0.662625116834301
21
-0.17754986494033
31
0
210
0
220
0
230
1
40
0.99445
41
1.56493315527105
42
2.23458044897523
0
ELLIPSE
5
C0
100
AcDbEntity
8
1
62
256
6
ByLayer
370
-1
48
1
60
0
100
AcDbEllipse
10
75.934722
20
8.300862
30
0
11
-0.282050341276408
21
-0.0755751611699361
31
0
210
0
220
0
230
1
40
0.99445
41
-2.61798163205549
42
0.00586317152377629
0
ELLIPSE
5
C1
100
AcDbEntity
8
1
62
256
6
ByLayer
370
-1
48
1
60
0
100
AcDbEllipse
10
76.626966
20
8.989799
30
0
11
-0.662625116834301
21
-0.17754986494033
31
0
210
0
220
0
230
1
40
0.99445
41
0.523611021534259
42
1.30760166515505
0
ELLIPSE
5
C2
100
AcDbEntity
8
1
62
256
6
ByLayer
370
-1
48
1
60
0
100
AcDbEllipse
10
77.315357
20
8.300861
30
0
11
-0.282050341276408
21
-0.0755751611699361
31
0
210
0
220
0
230
1
40
0.99445
41
-2.88214019138961
42
-1.05000034481384
0
ELLIPSE
5
C3
100
AcDbEntity
8
1
62
256
6
ByLayer
370
-1
48
1
60
0
100
AcDbEllipse
10
78.260039
20
8.052993
30
0
11
-0.662625116834301
21
-0.17754986494033
31
0
210
0
220
0
230
1
40
0.99445
41
-5.24417922461131E-06
42
0.263194661639823
0
ELLIPSE
5
C4
100
AcDbEntity
8
1
62
256
6
ByLayer
370
-1
48
1
60
0
100
AcDbEllipse
10
78.005686
20
7.112861
30
0
11
-0.282050341276408
21
-0.0755751611699361
31
0
210
0
220
0
230
1
40
0.99445
41
-2.84220439014225
42
-2.09440734832908
0
ELLIPSE
5
C5
100
AcDbEntity
8
1
62
256
6
ByLayer
370
-1
48
1
60
0
100
AcDbEllipse
10
76.590399
20
7.223917
30
0
11
2.53555529400881
21
0.679399993394122
31
0
210
0
220
0
230
1
40
0.99445
41
0
42
6.28318530717959
0
ELLIPSE
5
C6
100
AcDbEntity
8
1
62
256
6
ByLayer
370
-1
48
1
60
0
100
AcDbEllipse
10
76.62102
20
7.109637
30
0
11
2.53555529400881
21
0.679399993394122
31
0
210
0
220
0
230
1
40
0.99445
41
3.14157143582123
42
-0.263194136389316
0
ELLIPSE
5
C7
100
AcDbEntity
8
1
62
256
6
ByLayer
370
-1
48
1
60
0
100
AcDbEllipse
10
76.62102
20
7.109637
30
0
11
2.53555529400881
21
0.679399993394122
31
0
210
0
220
0
230
1
40
0.99445
41
-0.263194136389308
42
-3.40242026944828E-16
0
ELLIPSE
5
C8
100
AcDbEntity
8
1
62
256
6
ByLayer
370
-1
48
1
60
0
100
AcDbEllipse
10
76.582899
20
7.251908
30
0
11
1.73866648732032
21
0.465874281184541
31
0
210
0
220
0
230
1
40
0.99445
41
0
42
6.28318530717959
0
ELLIPSE
5
C9
100
AcDbEntity
8
1
62
256
6
ByLayer
370
-1
48
1
60
0
100
AcDbEllipse
10
81.432502
20
4.486048
30
0
11
0.766945106073474
21
0.205502321811391
31
0
210
0
220
0
230
1
40
0.99445
41
-1.57079632679491
42
1.34982668120438E-14
0
POINT
5
41
100
AcDbEntity
8
80
62
256
6
ByLayer
370
-1
48
1
60
0
100
AcDbPoint
10
0
20
0
30
0
39
0
210
0
220
0
230
1
50
360
0
POINT
5
43
100
AcDbEntity
8
81
62
256
6
ByLayer
370
-1
48
1
60
0
100
AcDbPoint
10
80
20
12.9
30
0
39
0
210
0
220
0
230
1
50
360
0
POINT
5
45
100
AcDbEntity
8
1
62
256
6
ByLayer
370
-1
48
1
60
0
100
AcDbPoint
10
0
20
0
30
0
39
0
210
0
220
0
230
1
50
360
0
POINT
5
47
100
AcDbEntity
8
2
62
256
6
ByLayer
370
-1
48
1
60
0
100
AcDbPoint
10
80
20
12.9
30
0
39
0
210
0
220
0
230
1
50
360
0
SPLINE
5
CA
100
AcDbEntity
8
SK1
62
256
6
ByLayer
370
-1
48
1
60
0
100
AcDbSpline
70
4
71
2
72
6
73
3
40
0
40
0
40
0
40
1
40
1
40
1
41
1
10
-2.19492113517947
20
17.5202263833814
30
0
41
1
10
-2.59746056758974
20
17.510113191717
30
0
41
1
10
-3
20
17.5000000000527
30
0
0
SPLINE
5
CB
100
AcDbEntity
8
SK1
62
256
6
ByLayer
370
-1
48
1
60
0
100
AcDbSpline
70
4
71
2
72
6
73
3
40
0
40
0
40
0
40
1
40
1
40
1
41
1
10
-3
20
-17.5000000000204
30
0
41
1
10
-2.59746056758974
20
-17.5101131916847
30
0
41
1
10
-2.19492113517947
20
-17.5202263833491
30
0
0
SPLINE
5
CC
100
AcDbEntity
8
SK1
62
256
6
ByLayer
370
-1
48
1
60
0
100
AcDbSpline
70
4
71
2
72
6
73
3
40
0
40
0
40
0
40
1
40
1
40
1
41
1
10
-3
20
17.5000000000527
30
0
41
1
10
-15.7502365839532
20
17.1796696772131
30
0
41
1
10
-28.5004731679065
20
16.8593393543735
30
0
0
SPLINE
5
CD
100
AcDbEntity
8
SK1
62
256
6
ByLayer
370
-1
48
1
60
0
100
AcDbSpline
70
4
71
2
72
6
73
3
40
0
40
0
40
0
40
1
40
1
40
1
41
1
10
-28.5004731679065
20
-16.8593393543424
30
0
41
1
10
-15.7502365839532
20
-17.1796696771814
30
0
41
1
10
-3
20
-17.5000000000204
30
0
0
SPLINE
5
CE
100
AcDbEntity
8
SK1
62
256
6
ByLayer
370
-1
48
1
60
0
100
AcDbSpline
70
4
71
2
72
6
73
3
40
0
40
0
40
0
40
1
40
1
40
1
41
1
10
-0.400000000000034
20
17.3251501409626
30
0
41
1
10
-1.19999999999999
20
17.3251501409626
30
0
41
1
10
-2
20
17.3251501409626
30
0
0
SPLINE
5
CF
100
AcDbEntity
8
SK1
62
256
6
ByLayer
370
-1
48
1
60
0
100
AcDbSpline
70
4
71
2
72
6
73
3
40
0
40
0
40
0
40
1
40
1
40
1
41
1
10
-2
20
-17.3251501414068
30
0
41
1
10
-1.19999999999999
20
-17.3251501414068
30
0
41
1
10
-0.400000000000034
20
-17.3251501414068
30
0
0
SPLINE
5
D0
100
AcDbEntity
8
SK1
62
256
6
ByLayer
370
-1
48
1
60
0
100
AcDbSpline
70
4
71
2
72
6
73
3
40
0
40
0
40
0
40
1
40
1
40
1
41
1
10
-28.5003904504266
20
16.8597456617469
30
0
41
1
10
-29.2501952787077
20
16.4010253845871
30
0
41
1
10
-30
20
15.9423013487186
30
0
0
SPLINE
5
D1
100
AcDbEntity
8
SK1
62
256
6
ByLayer
370
-1
48
1
60
0
100
AcDbSpline
70
4
71
2
72
6
73
3
40
0
40
0
40
0
40
1
40
1
40
1
41
1
10
-30
20
-15.9408160639395
30
0
41
1
10
-29.250201613525
20
-16.3993636736336
30
0
41
1
10
-28.5004032853135
20
-16.8579102610954
30
0
0
SPLINE
5
D2
100
AcDbEntity
8
SK1
62
256
6
ByLayer
370
-1
48
1
60
0
100
AcDbSpline
70
4
71
3
72
11
73
7
40
0
40
0
40
0
40
0
40
0.245755007744093
40
0.50179419821101
40
0.756953870258399
40
1
40
1
40
1
40
1
41
1
10
-0.199999999999989
20
17.5191731511753
30
0
41
1
10
-0.199994647676419
20
17.493844966999
30
0
41
1
10
-0.20935024226452
20
17.445622853432
30
0
41
1
10
-0.254178184246655
20
17.3766360753193
30
0
41
1
10
-0.324420736760771
20
17.33275982811
30
0
41
1
10
-0.373991067023667
20
17.3239685556464
30
0
41
1
10
-0.400000000000034
20
17.3241476526065
30
0
0
SPLINE
5
D3
100
AcDbEntity
8
SK1
62
256
6
ByLayer
370
-1
48
1
60
0
100
AcDbSpline
70
4
71
3
72
11
73
7
40
0
40
0
40
0
40
0
40
0.243046950855206
40
0.49820466819262
40
0.754242469704742
40
1
40
1
40
1
40
1
41
1
10
-0.400000000000034
20
-17.3241468641747
30
0
41
1
10
-0.373991174653781
20
-17.323967489369
30
0
41
1
10
-0.324421202647557
20
-17.332758304075
30
0
41
1
10
-0.254178044541106
20
-17.3766339294131
30
0
41
1
10
-0.209350044376038
20
-17.4456203921356
30
0
41
1
10
-0.199994500672233
20
-17.4938412312525
30
0
41
1
10
-0.199999999999989
20
-17.5191688355708
30
0
0
SPLINE
5
D4
100
AcDbEntity
8
1
62
256
6
ByLayer
370
-1
48
1
60
0
100
AcDbSpline
70
4
71
3
72
18
73
14
40
0
40
0
40
0
40
0
40
0.0809805960320918
40
0.0809805960320918
40
0.544227292214085
40
0.544227292214085
40
0.699318265621671
40
0.699318265621671
40
0.856346274356483
40
0.856346274356483
40
0.966571999538831
40
0.966571999538831
40
1
40
1
40
1
40
1
41
1
10
8.10566243270262
20
8.05584836782774
30
0
41
1
10
8.11065289887438
20
8.03731605051118
30
0
41
1
10
8.11597900857612
20
8.01885383673363
30
0
41
1
10
8.15400172089505
20
7.89611164850155
30
0
41
1
10
8.1977744361825
20
7.7921939727409
30
0
41
1
10
8.28487257800725
20
7.67169814060125
30
0
41
1
10
8.30967508046024
20
7.64266520230268
30
0
41
1
10
8.36604668219428
20
7.59122859579529
30
0
41
1
10
8.3983775068167
20
7.56839473241365
30
0
41
1
10
8.45889576423616
20
7.54154007085771
30
0
41
1
10
8.48604318765894
20
7.53384342094336
30
0
41
1
10
8.52183069664625
20
7.53010833377257
30
0
41
1
10
8.53025906116034
20
7.52966679426501
30
0
41
1
10
8.53867513459483
20
7.52966679426501
30
0
0
SPLINE
5
D5
100
AcDbEntity
8
1
62
256
6
ByLayer
370
-1
48
1
60
0
100
AcDbSpline
70
4
71
3
72
18
73
14
40
0
40
0
40
0
40
0
40
0.0809805960321051
40
0.0809805960321051
40
0.544227292214096
40
0.544227292214096
40
0.69931826562168
40
0.69931826562168
40
0.856346274356486
40
0.856346274356486
40
0.966571999538835
40
0.966571999538835
40
1
40
1
40
1
40
1
41
1
10
11.8943375672974
20
23.6665017920809
30
0
41
1
10
11.8893471011256
20
23.672810013698
30
0
41
1
10
11.8840209914239
20
23.6790700603507
30
0
41
1
10
11.845998279105
20
23.7205303134149
30
0
41
1
10
11.8022255638174
20
23.7548029562659
30
0
41
1
10
11.7151274219928
20
23.7938243006291
30
0
41
1
10
11.6903249195398
20
23.8031592998669
30
0
41
1
10
11.6339533178057
20
23.8196134016841
30
0
41
1
10
11.6016224931833
20
23.8268687494612
30
0
41
1
10
11.5411042357638
20
23.8353793525422
30
0
41
1
10
11.5139568123411
20
23.8378105604685
30
0
41
1
10
11.4781693033538
20
23.8389905264494
30
0
41
1
10
11.4697409388397
20
23.8391299750503
30
0
41
1
10
11.4613248654052
20
23.8391299750503
30
0
0
SPLINE
5
D6
100
AcDbEntity
8
1
62
256
6
ByLayer
370
-1
48
1
60
0
100
AcDbSpline
70
4
71
3
72
16
73
12
40
0
40
0
40
0
40
0
40
0.0773436766578803
40
0.0773436766578803
40
0.181588290672623
40
0.181588290672623
40
0.353924998170025
40
0.353924998170025
40
0.659870482236126
40
0.659870482236126
40
1
40
1
40
1
40
1
41
1
10
11.4613248654052
20
7.52966679426498
30
0
41
1
10
11.4806912734381
20
7.52966679426498
30
0
41
1
10
11.5001920479834
20
7.53205286469702
30
0
41
1
10
11.5443643455559
20
7.54265601007381
30
0
41
1
10
11.5688999660418
20
7.55272636772358
30
0
41
1
10
11.6286300521075
20
7.58609718460602
30
0
41
1
10
11.66158714279
20
7.61407037421822
30
0
41
1
10
11.7407360052433
20
7.69895209889256
30
0
41
1
10
11.7798892743244
20
7.76300791758413
30
0
41
1
10
11.8468244213921
20
7.90167589305847
30
0
41
1
10
11.8734747805012
20
7.97837348437852
30
0
41
1
10
11.8943375672974
20
8.05584836782771
30
0
0
SPLINE
5
D7
100
AcDbEntity
8
1
62
256
6
ByLayer
370
-1
48
1
60
0
100
AcDbSpline
70
4
71
3
72
16
73
12
40
0
40
0
40
0
40
0
40
0.077343676657827
40
0.077343676657827
40
0.181588290672556
40
0.181588290672556
40
0.353924998169922
40
0.353924998169922
40
0.659870482235914
40
0.659870482235914
40
1
40
1
40
1
40
1
41
1
10
8.53867513459483
20
23.8391299750503
30
0
41
1
10
8.51930872656192
20
23.8391299750503
30
0
41
1
10
8.49980795201657
20
23.8383766644784
30
0
41
1
10
8.45563565444411
20
23.8350242537625
30
0
41
1
10
8.43110003395827
20
23.8318379431383
30
0
41
1
10
8.37136994789256
20
23.8212426939765
30
0
41
1
10
8.33841285720996
20
23.812328084785
30
0
41
1
10
8.25926399475679
20
23.7850663392819
30
0
41
1
10
8.22011072567562
20
23.7642694363116
30
0
41
1
10
8.15317557860794
20
23.7185457490814
30
0
41
1
10
8.12652521949877
20
23.692873493267
30
0
41
1
10
8.10566243270262
20
23.6665017920809
30
0
0
SPLINE
5
D8
100
AcDbEntity
8
1
62
256
6
ByLayer
370
-1
48
1
60
0
100
AcDbSpline
70
4
71
3
72
16
73
12
40
0
40
0
40
0
40
0
40
0.0773436766578767
40
0.0773436766578767
40
0.181588290672618
40
0.181588290672618
40
0.353924998170011
40
0.353924998170011
40
0.659870482236094
40
0.659870482236094
40
1
40
1
40
1
40
1
41
1
10
11.4613248654052
20
-23.8391299750503
30
0
41
1
10
11.4806912734381
20
-23.8391299750503
30
0
41
1
10
11.5001920479834
20
-23.8383766644784
30
0
41
1
10
11.5443643455559
20
-23.8350242537625
30
0
41
1
10
11.5688999660418
20
-23.8318379431383
30
0
41
1
10
11.6286300521075
20
-23.8212426939765
30
0
41
1
10
11.66158714279
20
-23.812328084785
30
0
41
1
10
11.7407360052433
20
-23.7850663392819
30
0
41
1
10
11.7798892743244
20
-23.7642694363116
30
0
41
1
10
11.8468244213921
20
-23.7185457490814
30
0
41
1
10
11.8734747805012
20
-23.692873493267
30
0
41
1
10
11.8943375672974
20
-23.6665017920809
30
0
0
SPLINE
5
D9
100
AcDbEntity
8
1
62
256
6
ByLayer
370
-1
48
1
60
0
100
AcDbSpline
70
4
71
3
72
8
73
4
40
0
40
0
40
0
40
0
40
1
40
1
40
1
40
1
41
1
10
70.9418767856924
20
10.1793335548972
30
0
41
1
10
70.6926488072613
20
10.1169738235454
30
0
41
1
10
70.4434211097583
20
10.0546129685316
30
0
41
1
10
70.1941937092007
20
9.99225092586084
30
0
0
SPLINE
5
DA
100
AcDbEntity
8
1
62
256
6
ByLayer
370
-1
48
1
60
0
100
AcDbSpline
70
4
71
3
72
18
73
14
40
0
40
0
40
0
40
0
40
0.0809805960320615
40
0.0809805960320615
40
0.544227292213941
40
0.544227292213941
40
0.699318265621571
40
0.699318265621571
40
0.856346274356429
40
0.856346274356429
40
0.966571999538782
40
0.966571999538782
40
1
40
1
40
1
40
1
41
1
10
11.8943375672974
20
-8.05584836782771
30
0
41
1
10
11.8893471011256
20
-8.03731605051115
30
0
41
1
10
11.8840209914239
20
-8.01885383673363
30
0
41
1
10
11.845998279105
20
-7.89611164850155
30
0
41
1
10
11.8022255638175
20
-7.79219397274093
30
0
41
1
10
11.7151274219928
20
-7.67169814060131
30
0
41
1
10
11.6903249195398
20
-7.64266520230271
30
0
41
1
10
11.6339533178058
20
-7.59122859579532
30
0
41
1
10
11.6016224931834
20
-7.56839473241365
30
0
41
1
10
11.5411042357638
20
-7.54154007085771
30
0
41
1
10
11.5139568123411
20
-7.53384342094336
30
0
41
1
10
11.4781693033538
20
-7.53010833377257
30
0
41
1
10
11.4697409388397
20
-7.52966679426501
30
0
41
1
10
11.4613248654052
20
-7.52966679426501
30
0
0
SPLINE
5
DB
100
AcDbEntity
8
1
62
256
6
ByLayer
370
-1
48
1
60
0
100
AcDbSpline
70
4
71
3
72
30
73
26
40
-0.125000000000001
40
-0.125000000000001
40
0
40
0
40
0.125
40
0.125
40
0.1875
40
0.1875
40
0.25
40
0.25
40
0.375
40
0.375
40
0.5
40
0.5
40
0.624999999999999
40
0.624999999999999
40
0.687499999999999
40
0.687499999999999
40
0.718749999999999
40
0.718749999999999
40
0.749999999999999
40
0.749999999999999
40
0.812499999999999
40
0.812499999999999
40
0.874999999999999
40
0.874999999999999
40
1
40
1
40
1.125
40
1.125
41
1
10
62.3289826131874
20
3.89200145247494
30
0
41
1
10
61.135008023023
20
3.37777900266727
30
0
41
1
10
60.5304499687057
20
3.19310942691976
30
0
41
1
10
59.569683472285
20
3.23225146220085
30
0
41
1
10
59.2436631314192
20
3.30053519565377
30
0
41
1
10
58.6832898927699
20
3.70387776680701
30
0
41
1
10
58.5038724644684
20
4.07352412000907
30
0
41
1
10
58.5589621226404
20
5.10210357719649
30
0
41
1
10
59.0742069138536
20
5.57398515561781
30
0
41
1
10
60.1272656413796
20
6.25501699265712
30
0
41
1
10
60.7343920296465
20
6.48253696888517
30
0
41
1
10
62.0056925077092
20
6.80979902544686
30
0
41
1
10
62.6655719126972
20
6.91228130194926
30
0
41
1
10
63.6982451391289
20
6.9367896092507
30
0
41
1
10
64.0553193311582
20
6.9291843214173
30
0
41
1
10
64.5660561415387
20
6.79458398526219
30
0
41
1
10
64.7472584127228
20
6.72783633954768
30
0
41
1
10
64.9591667144298
20
6.43434387840509
30
0
41
1
10
64.9270994595289
20
6.2329043207493
30
0
41
1
10
64.7125748907315
20
5.75637273973965
30
0
41
1
10
64.464871092671
20
5.50412891658954
30
0
41
1
10
63.9739705178336
20
5.0353769353103
30
0
41
1
10
63.7113895567597
20
4.82243145210396
30
0
41
1
10
62.8963686908418
20
4.2261384357154
30
0
41
1
10
62.3289826131874
20
3.89200145247494
30
0
41
1
10
61.135008023023
20
3.37777900266727
30
0
0
SPLINE
5
DC
100
AcDbEntity
8
1
62
256
6
ByLayer
370
-1
48
1
60
0
100
AcDbSpline
70
4
71
3
72
22
73
18
40
0
40
0
40
0
40
0
40
0.125
40
0.125
40
0.25
40
0.25
40
0.375
40
0.375
40
0.5
40
0.5
40
0.625
40
0.625
40
0.75
40
0.75
40
0.875
40
0.875
40
1
40
1
40
1
40
1
41
1
10
68.5130196183354
20
-9.75523677489298
30
0
41
1
10
66.5543018127586
20
-9.66290065447814
30
0
41
1
10
64.6665807662481
20
-9.49540727645905
30
0
41
1
10
61.0958319867838
20
-8.71492805388445
30
0
41
1
10
59.4620957212426
20
-8.10197626190228
30
0
41
1
10
56.5753667798024
20
-6.12074379924664
30
0
41
1
10
55.3451573799534
20
-4.74520336114952
30
0
41
1
10
53.4117840535381
20
-1.39191477557125
30
0
41
1
10
52.6817496110044
20
0.599005710008015
30
0
41
1
10
52.0182489215341
20
4.45064804112201
30
0
41
1
10
52.1354004136844
20
6.29474611311801
30
0
41
1
10
53.7393860562573
20
8.73798287674327
30
0
41
1
10
55.1894943322689
20
9.34574125722563
30
0
41
1
10
58.5224573397837
20
9.9461937837861
30
0
41
1
10
60.4010905156145
20
9.9853355183206
30
0
41
1
10
64.309461941267
20
10.0091945737575
30
0
41
1
10
66.3231475626332
20
9.98768880388374
30
0
41
1
10
68.3498207090544
20
9.99014336401061
30
0
0
SPLINE
5
DD
100
AcDbEntity
8
1
62
256
6
ByLayer
370
-1
48
1
60
0
100
AcDbSpline
70
4
71
3
72
8
73
4
40
0
40
0
40
0
40
0
40
1
40
1
40
1
40
1
41
1
10
71.9995321072421
20
2.10785183859895
30
0
41
1
10
72.050691625066
20
2.09341706409933
30
0
41
1
10
72.103471827826
20
2.07710637058051
30
0
41
1
10
72.1579691658537
20
2.05890843812176
30
0
0
SPLINE
5
DE
100
AcDbEntity
8
1
62
256
6
ByLayer
370
-1
48
1
60
0
100
AcDbSpline
70
4
71
3
72
18
73
14
40
0
40
0
40
0
40
0
40
0.0809805960320801
40
0.0809805960320801
40
0.544227292214068
40
0.544227292214068
40
0.699318265621658
40
0.699318265621658
40
0.856346274356475
40
0.856346274356475
40
0.966571999538822
40
0.966571999538822
40
1
40
1
40
1
40
1
41
1
10
8.10566243270262
20
-23.6665017920809
30
0
41
1
10
8.11065289887438
20
-23.672810013698
30
0
41
1
10
8.11597900857612
20
-23.6790700603507
30
0
41
1
10
8.15400172089505
20
-23.7205303134149
30
0
41
1
10
8.1977744361825
20
-23.7548029562659
30
0
41
1
10
8.28487257800725
20
-23.7938243006291
30
0
41
1
10
8.30967508046024
20
-23.8031592998669
30
0
41
1
10
8.36604668219428
20
-23.8196134016841
30
0
41
1
10
8.3983775068167
20
-23.8268687494612
30
0
41
1
10
8.45889576423616
20
-23.8353793525422
30
0
41
1
10
8.48604318765894
20
-23.8378105604685
30
0
41
1
10
8.52183069664625
20
-23.8389905264494
30
0
41
1
10
8.53025906116034
20
-23.8391299750503
30
0
41
1
10
8.53867513459483
20
-23.8391299750503
30
0
0
SPLINE
5
DF
100
AcDbEntity
8
1
62
256
6
ByLayer
370
-1
48
1
60
0
100
AcDbSpline
70
4
71
3
72
16
73
12
40
0
40
0
40
0
40
0
40
0.0773436766578125
40
0.0773436766578125
40
0.181588290672542
40
0.181588290672542
40
0.353924998169895
40
0.353924998169895
40
0.659870482235859
40
0.659870482235859
40
1
40
1
40
1
40
1
41
1
10
8.53867513459483
20
-7.52966679426501
30
0
41
1
10
8.51930872656192
20
-7.52966679426501
30
0
41
1
10
8.49980795201662
20
-7.53205286469702
30
0
41
1
10
8.45563565444411
20
-7.54265601007379
30
0
41
1
10
8.43110003395827
20
-7.55272636772355
30
0
41
1
10
8.37136994789256
20
-7.58609718460599
30
0
41
1
10
8.33841285721002
20
-7.61407037421819
30
0
41
1
10
8.25926399475679
20
-7.69895209889248
30
0
41
1
10
8.22011072567562
20
-7.76300791758402
30
0
41
1
10
8.15317557860794
20
-7.90167589305835
30
0
41
1
10
8.12652521949877
20
-7.97837348437849
30
0
41
1
10
8.10566243270262
20
-8.05584836782774
30
0
0
SPLINE
5
E0
100
AcDbEntity
8
SK1
62
256
6
ByLayer
370
-1
48
1
60
0
100
AcDbSpline
70
4
71
3
72
41
73
37
40
0
40
0
40
0
40
0
40
0.003586261541826
40
0.0346121196535795
40
0.065637977765333
40
0.0966638358770865
40
0.12768969398884
40
0.158715552100593
40
0.189741410212347
40
0.220767268324101
40
0.251793126435854
40
0.282818984547608
40
0.313844842659361
40
0.344870700771115
40
0.375896558882868
40
0.406922416994622
40
0.437948275106375
40
0.468974133218129
40
0.499999991329882
40
0.531025849441636
40
0.562051707553389
40
0.593077565665143
40
0.624103423776896
40
0.65512928188865
40
0.686155140000403
40
0.717180998112157
40
0.74820685622391
40
0.779232714335664
40
0.810258572447417
40
0.841284430559171
40
0.872310288670924
40
0.903336146782678
40
0.934362004894431
40
0.965387863006185
40
0.996413721117938
40
1
40
1
40
1
40
1
41
1
10
-2.20000000000005
20
-10.2416915120114
30
0
41
1
10
-2.20000000000005
20
-10.2098170446198
30
0
41
1
10
-2.20000000000005
20
-9.90198508683847
30
0
41
1
10
-2.20000000000005
20
-9.3149808480191
30
0
41
1
10
-2.20000000000005
20
-8.48421552667966
30
0
41
1
10
-2.20000000000005
20
-7.66447545612931
30
0
41
1
10
-2.20000000000005
20
-6.86437716583347
30
0
41
1
10
-2.20000000000005
20
-6.09147129549578
30
0
41
1
10
-2.20000000000005
20
-5.35199475664402
30
0
41
1
10
-2.20000000000005
20
-4.6506671110304
30
0
41
1
10
-2.20000000000005
20
-3.99054255831777
30
0
41
1
10
-2.20000000000005
20
-3.37292400688881
30
0
41
1
10
-2.20000000000005
20
-2.79733805829036
30
0
41
1
10
-2.20000000000005
20
-2.26158054799637
30
0
41
1
10
-2.20000000000005
20
-1.76181929549949
30
0
41
1
10
-2.20000000000005
20
-1.29276519791185
30
0
41
1
10
-2.20000000000005
20
-0.847888335032877
30
0
41
1
10
-2.20000000000005
20
-0.419689842123091
30
0
41
1
10
-2.20000000000005
20
8.86504949E-08
30
0
41
1
10
-2.20000000000005
20
0.419689487520998
30
0
41
1
10
-2.20000000000005
20
0.847888498250114
30
0
41
1
10
-2.20000000000005
20
1.29276489964477
30
0
41
1
10
-2.20000000000005
20
1.7618194185427
30
0
41
1
10
-2.20000000000005
20
2.26158035409029
30
0
41
1
10
-2.20000000000005
20
2.79733812098013
30
0
41
1
10
-2.20000000000005
20
3.37292395003561
30
0
41
1
10
-2.20000000000005
20
3.99054254934384
30
0
41
1
10
-2.20000000000005
20
4.65066720377908
30
0
41
1
10
-2.20000000000005
20
5.35199467517899
30
0
41
1
10
-2.20000000000005
20
6.091471528607
30
0
41
1
10
-2.20000000000005
20
6.86437702157369
30
0
41
1
10
-2.20000000000005
20
7.66447580005692
30
0
41
1
10
-2.20000000000005
20
8.48421533830793
30
0
41
1
10
-2.20000000000005
20
9.31498125757835
30
0
41
1
10
-2.20000000000005
20
9.90198521620599
30
0
41
1
10
-2.20000000000005
20
10.2098173562794
30
0
41
1
10
-2.20000000000005
20
10.2416919827174
30
0
0
SPLINE
5
E1
100
AcDbEntity
8
SK1
62
256
6
ByLayer
370
-1
48
1
60
0
100
AcDbSpline
70
4
71
3
72
73
73
69
40
0
40
0
40
0
40
0
40
0.0018466561169312
40
0.0173088925234934
40
0.0327711289300555
40
0.0482333653366177
40
0.0636956017431799
40
0.0791578381497421
40
0.0946200745563043
40
0.110082310962866
40
0.125544547369429
40
0.141006783775991
40
0.156469020182553
40
0.171931256589115
40
0.187393492995678
40
0.20285572940224
40
0.218317965808802
40
0.233780202215364
40
0.249242438621926
40
0.264704675028488
40
0.280166911435051
40
0.295629147841613
40
0.311091384248175
40
0.326553620654737
40
0.3420158570613
40
0.357478093467862
40
0.372940329874424
40
0.388402566280986
40
0.403864802687548
40
0.41932703909411
40
0.434789275500673
40
0.450251511907235
40
0.465713748313797
40
0.481175984720359
40
0.496638221126921
40
0.512100457533484
40
0.527562693940046
40
0.543024930346608
40
0.55848716675317
40
0.573949403159732
40
0.589411639566295
40
0.604873875972857
40
0.620336112379419
40
0.635798348785981
40
0.651260585192543
40
0.666722821599105
40
0.682185058005668
40
0.69764729441223
40
0.713109530818792
40
0.728571767225354
40
0.744034003631916
40
0.759496240038479
40
0.774958476445041
40
0.790420712851603
40
0.805882949258165
40
0.821345185664727
40
0.83680742207129
40
0.852269658477852
40
0.867731894884414
40
0.883194131290976
40
0.898656367697538
40
0.9141186041041
40
0.929580840510663
40
0.945043076917225
40
0.960505313323787
40
0.975967549730349
40
0.991429786136912
40
1
40
1
40
1
40
1
41
1
10
-28.5004731679065
20
16.5843275748057
30
0
41
1
10
-28.5004731679065
20
16.5890126478705
30
0
41
1
10
-28.5004731679065
20
16.6325284262555
30
0
41
1
10
-28.5004731679065
20
16.7076779742402
30
0
41
1
10
-28.5004731679065
20
16.7910009100058
30
0
41
1
10
-28.5004731679065
20
16.845797358011
30
0
41
1
10
-28.5004731679065
20
16.866111367971
30
0
41
1
10
-28.5004731679065
20
16.8457932960415
30
0
41
1
10
-28.5004731679065
20
16.7787920295583
30
0
41
1
10
-28.5004731679065
20
16.6594441325878
30
0
41
1
10
-28.5004731679065
20
16.4827618905288
30
0
41
1
10
-28.5004731679065
20
16.2446845781523
30
0
41
1
10
-28.5004731679065
20
15.9423067030317
30
0
41
1
10
-28.5004731679065
20
15.5740550609708
30
0
41
1
10
-28.5004731679065
20
15.1398218356871
30
0
41
1
10
-28.5004731679065
20
14.6410360299331
30
0
41
1
10
-28.5004731679065
20
14.0806798361698
30
0
41
1
10
-28.5004731679065
20
13.4632415716312
30
0
41
1
10
-28.5004731679065
20
12.7946107775085
30
0
41
1
10
-28.5004731679065
20
12.0819181856553
30
0
41
1
10
-28.5004731679065
20
11.3333237326368
30
0
41
1
10
-28.5004731679065
20
10.557766572068
30
0
41
1
10
-28.5004731679065
20
9.76467681695499
30
0
41
1
10
-28.5004731679065
20
8.96367263859332
30
0
41
1
10
-28.5004731679065
20
8.1642385298471
30
0
41
1
10
-28.5004731679065
20
7.37541494914308
30
0
41
1
10
-28.5004731679065
20
6.60549138939064
30
0
41
1
10
-28.5004731679065
20
5.86173553761287
30
0
41
1
10
-28.5004731679065
20
5.15014758540383
30
0
41
1
10
-28.5004731679065
20
4.47527023543958
30
0
41
1
10
-28.5004731679065
20
3.84004176429178
30
0
41
1
10
-28.5004731679065
20
3.2457162593208
30
0
41
1
10
-28.5004731679065
20
2.69183828529165
30
0
41
1
10
-28.5004731679065
20
2.17628628328657
30
0
41
1
10
-28.5004731679065
20
1.69537351492636
30
0
41
1
10
-28.5004731679065
20
1.2440090901581
30
0
41
1
10
-28.5004731679065
20
0.815910920503399
30
0
41
1
10
-28.5004731679065
20
0.403861164287008
30
0
41
1
10
-28.5004731679065
20
8.53071072E-08
30
0
41
1
10
-28.5004731679065
20
-0.403861505515522
30
0
41
1
10
-28.5004731679065
20
-0.815910763441792
30
0
41
1
10
-28.5004731679065
20
-1.24400937717621
30
0
41
1
10
-28.5004731679065
20
-1.69537339652362
30
0
41
1
10
-28.5004731679065
20
-2.17628646987961
30
0
41
1
10
-28.5004731679065
20
-2.69183822496621
30
0
41
1
10
-28.5004731679065
20
-3.24571631402981
30
0
41
1
10
-28.5004731679065
20
-3.84004177292727
30
0
41
1
10
-28.5004731679065
20
-4.47527014618885
30
0
41
1
10
-28.5004731679065
20
-5.15014766379647
30
0
41
1
10
-28.5004731679065
20
-5.86173531329331
30
0
41
1
10
-28.5004731679065
20
-6.60549152820974
30
0
41
1
10
-28.5004731679065
20
-7.37541461818648
30
0
41
1
10
-28.5004731679065
20
-8.16423871111451
30
0
41
1
10
-28.5004731679065
20
-8.96367224448036
30
0
41
1
10
-28.5004731679065
20
-9.76467701679073
30
0
41
1
10
-28.5004731679065
20
-10.5577661668381
30
0
41
1
10
-28.5004731679065
20
-11.3333239249003
30
0
41
1
10
-28.5004731679065
20
-12.0819178218315
30
0
41
1
10
-28.5004731679065
20
-12.7946109377403
30
0
41
1
10
-28.5004731679065
20
-13.4632412945279
30
0
41
1
10
-28.5004731679065
20
-14.0806799452206
30
0
41
1
10
-28.5004731679065
20
-14.6410358708333
30
0
41
1
10
-28.5004731679065
20
-15.1398218825485
30
0
41
1
10
-28.5004731679065
20
-15.5740550326248
30
0
41
1
10
-28.5004731679065
20
-15.942306686368
30
0
41
1
10
-28.5004731679065
20
-16.2446846731531
30
0
41
1
10
-28.5004731679065
20
-16.4473889051978
30
0
41
1
10
-28.5004731679064
20
-16.546015100524
30
0
41
1
10
-28.5004731679064
20
-16.5781578665788
30
0
0
SPLINE
5
E2
100
AcDbEntity
8
SK1
62
256
6
ByLayer
370
-1
48
1
60
0
100
AcDbSpline
70
4
71
3
72
24
73
20
40
0
40
0
40
0
40
0
40
0.0299003298961631
40
0.0299003298961631
40
0.0528622635029669
40
0.0528622635029669
40
0.0709275158044995
40
0.0709275158044995
40
0.0890039000876294
40
0.0890039000876294
40
0.11362248491787
40
0.11362248491787
40
0.157577258657195
40
0.157577258657195
40
0.29602514002948
40
0.29602514002948
40
0.878150828056824
40
0.878150828056824
40
1
40
1
40
1
40
1
41
1
10
-0.400000000000034
20
5.16866682996297
30
0
41
1
10
-0.394094307655564
20
5.16300784544387
30
0
41
1
10
-0.38760623850834
20
5.15782429554133
30
0
41
1
10
-0.374945775641891
20
5.1507540726119
30
0
41
1
10
-0.368929355824321
20
5.14835070696066
30
0
41
1
10
-0.35770867701234
20
5.14629827954846
30
0
41
1
10
-0.352495529695602
20
5.14618209741417
30
0
41
1
10
-0.342356257615734
20
5.14777530545462
30
0
41
1
10
-0.337316914191888
20
5.1495007928761
30
0
41
1
10
-0.32635373840418
20
5.15512166080455
30
0
41
1
10
-0.320571087776045
20
5.15961290941803
30
0
41
1
10
-0.306345382412019
20
5.17348963231112
30
0
41
1
10
-0.298929389281341
20
5.1841444040335
30
0
41
1
10
-0.27264918279883
20
5.22929437458617
30
0
41
1
10
-0.260939846150848
20
5.26761390191822
30
0
41
1
10
-0.210796530798689
20
5.46289223314824
30
0
41
1
10
-0.204366482898251
20
5.62478131775705
30
0
41
1
10
-0.200325121553306
20
5.8154278903541
30
0
41
1
10
-0.200000000000046
20
5.8484679854401
30
0
41
1
10
-0.200000000000046
20
5.88142452370542
30
0
0
SPLINE
5
E3
100
AcDbEntity
8
SK1
62
256
6
ByLayer
370
-1
48
1
60
0
100
AcDbSpline
70
4
71
3
72
20
73
16
40
0
40
0
40
0
40
0
40
0.0482625705630821
40
0.0482625705630821
40
0.325220898600871
40
0.325220898600871
40
0.463381471375242
40
0.463381471375242
40
0.601551524429024
40
0.601551524429024
40
0.739735425197376
40
0.739735425197376
40
0.87793960350904
40
0.87793960350904
40
1
40
1
40
1
40
1
41
1
10
-2.19999999999999
20
15.024780913897
30
0
41
1
10
-2.19999999999999
20
15.0987632316058
30
0
41
1
10
-2.19999999163144
20
15.1713153633957
30
0
41
1
10
-2.19999985652709
20
15.6498272161843
30
0
41
1
10
-2.19999939887509
20
16.0101821224506
30
0
41
1
10
-2.19999683011554
20
16.4712024133173
30
0
41
1
10
-2.19999564996834
20
16.6117543332689
30
0
41
1
10
-2.19999230715831
20
16.8650200442632
30
0
41
1
10
-2.19999013861343
20
16.9778482087754
30
0
41
1
10
-2.19998437020206
20
17.1737303581388
30
0
41
1
10
-2.19998076728285
20
17.2568757984567
30
0
41
1
10
-2.19997155592222
20
17.390896629152
30
0
41
1
10
-2.19996594630391
20
17.4418577268988
30
0
41
1
10
-2.19995283284749
20
17.5043876537375
30
0
41
1
10
-2.19994561248376
20
17.5199107584762
30
0
41
1
10
-2.19993704319938
20
17.5200998959624
30
0
0
SPLINE
5
E4
100
AcDbEntity
8
SK1
62
256
6
ByLayer
370
-1
48
1
60
0
100
AcDbSpline
70
4
71
3
72
20
73
16
40
0
40
0
40
0
40
0
40
0.107709859732841
40
0.107709859732841
40
0.254805889947786
40
0.254805889947786
40
0.401872722916446
40
0.401872722916446
40
0.548920274150178
40
0.548920274150178
40
0.695955076716527
40
0.695955076716527
40
0.842981467920108
40
0.842981467920108
40
1
40
1
40
1
40
1
41
1
10
-2.19993655780451
20
-17.5200998571235
30
0
41
1
10
-2.19994418187713
20
-17.5204461970886
30
0
41
1
10
-2.19995074650438
20
-17.5087568436292
30
0
41
1
10
-2.19996422500265
20
-17.4552443316022
30
0
41
1
10
-2.19997041029711
20
-17.4038992989506
30
0
41
1
10
-2.19998045819511
20
-17.2645372816575
30
0
41
1
10
-2.19998432672412
20
-17.1764163911093
30
0
41
1
10
-2.19999043378135
20
-16.9665639550929
30
0
41
1
10
-2.19999267824221
20
-16.8447172876608
30
0
41
1
10
-2.19999607391787
20
-16.569798663462
30
0
41
1
10
-2.1999972302832
20
-16.4165791409565
30
0
41
1
10
-2.19999885859687
20
-16.0808080953317
30
0
41
1
10
-2.19999933084273
20
-15.8980848535623
30
0
41
1
10
-2.19999991533382
20
-15.4916218225697
30
0
41
1
10
-2.19999999999999
20
-15.2657541717873
30
0
41
1
10
-2.19999999999999
20
-15.0247808645654
30
0
0
SPLINE
5
E5
100
AcDbEntity
8
SK1
62
256
6
ByLayer
370
-1
48
1
60
0
100
AcDbSpline
70
4
71
3
72
22
73
18
40
0
40
0
40
0
40
0
40
0.0434921783994969
40
0.0434921783994969
40
0.0876860403067026
40
0.0876860403067026
40
0.118952127699588
40
0.118952127699588
40
0.1501558424283
40
0.1501558424283
40
0.196307791916001
40
0.196307791916001
40
0.283435745194102
40
0.283435745194102
40
0.579041181948967
40
0.579041181948967
40
1
40
1
40
1
40
1
41
1
10
-0.400000000000034
20
-5.16866679574528
30
0
41
1
10
-0.420550053748514
20
-5.18835839085108
30
0
41
1
10
-0.443027188827387
20
-5.20675192843447
30
0
41
1
10
-0.492732016073376
20
-5.23775963373393
30
0
41
1
10
-0.520750465867991
20
-5.25056923469424
30
0
41
1
10
-0.57132317141145
20
-5.26230651341535
30
0
41
1
10
-0.593569294960218
20
-5.26418855716773
30
0
41
1
10
-0.636876257397887
20
-5.26111275520464
30
0
41
1
10
-0.658413974519078
20
-5.25617334660447
30
0
41
1
10
-0.708019059178241
20
-5.23795018495881
30
0
41
1
10
-0.73522293133459
20
-5.22174262348992
30
0
41
1
10
-0.805307091704549
20
-5.16870577827882
30
0
41
1
10
-0.843008552736933
20
-5.12565182749091
30
0
41
1
10
-0.98697835479976
20
-4.93030734845306
30
0
41
1
10
-1.05565821402411
20
-4.75512394253201
30
0
41
1
10
-1.19912511806342
20
-4.32976589005261
30
0
41
1
10
-1.25838015422249
20
-4.06924736884375
30
0
41
1
10
-1.30710678118658
20
-3.80474664113271
30
0
0
SPLINE
5
E6
100
AcDbEntity
8
SK1
62
256
6
ByLayer
370
-1
48
1
60
0
100
AcDbSpline
70
4
71
3
72
14
73
10
40
0
40
0
40
0
40
0
40
0.134730002443746
40
0.287068852257179
40
0.439407702070613
40
0.591746551884047
40
0.744085401697481
40
0.896424251510915
40
1
40
1
40
1
40
1
41
1
10
-2.20000000000005
20
10.2416919827174
30
0
41
1
10
-2.20000000000005
20
10.4855732775987
30
0
41
1
10
-2.20000000000005
20
11.0026050713442
30
0
41
1
10
-2.20000000000005
20
11.777504870163
30
0
41
1
10
-2.20000000000005
20
12.5554386011843
30
0
41
1
10
-2.20000000000005
20
13.2960633878308
30
0
41
1
10
-2.20000000000005
20
13.9908994853336
30
0
41
1
10
-2.20000000000005
20
14.5640747934535
30
0
41
1
10
-2.20000000000005
20
14.8954704523378
30
0
41
1
10
-2.20000000000005
20
15.0247809138972
30
0
0
SPLINE
5
E7
100
AcDbEntity
8
SK1
62
256
6
ByLayer
370
-1
48
1
60
0
100
AcDbSpline
70
4
71
3
72
14
73
10
40
0
40
0
40
0
40
0
40
0.10357574079845
40
0.255914577449822
40
0.408253414101195
40
0.560592250752568
40
0.712931087403941
40
0.865269924055314
40
1
40
1
40
1
40
1
41
1
10
-2.20000000000005
20
-15.0247808645648
30
0
41
1
10
-2.20000000000005
20
-14.8954704310019
30
0
41
1
10
-2.20000000000005
20
-14.5640748657279
30
0
41
1
10
-2.20000000000005
20
-13.9908991973699
30
0
41
1
10
-2.20000000000005
20
-13.2960635543425
30
0
41
1
10
-2.20000000000005
20
-12.5554382231013
30
0
41
1
10
-2.20000000000005
20
-11.7775050699617
30
0
41
1
10
-2.20000000000005
20
-11.0026045240078
30
0
41
1
10
-2.20000000000005
20
-10.4855729233102
30
0
41
1
10
-2.20000000000005
20
-10.2416915120114
30
0
0
SPLINE
5
E8
100
AcDbEntity
8
SK1
62
256
6
ByLayer
370
-1
48
1
60
0
100
AcDbSpline
70
4
71
3
72
10
73
6
40
0
40
0
40
0
40
0
40
0.5
40
0.5
40
1
40
1
40
1
40
1
41
1
10
-1.30710678118658
20
3.80474436172742
30
0
41
1
10
-1.52921682270318
20
2.59907728352434
30
0
41
1
10
-1.70909405340865
20
1.31281235086666
30
0
41
1
10
-1.70963179300867
20
-1.30649832374493
30
0
41
1
10
-1.52966155970608
20
-2.5966617696443
30
0
41
1
10
-1.30710678118663
20
-3.80474664113297
30
0
0
SPLINE
5
E9
100
AcDbEntity
8
SK1
62
256
6
ByLayer
370
-1
48
1
60
0
100
AcDbSpline
70
4
71
3
72
79
73
75
40
0
40
0
40
0
40
0
40
0.0067087497327157
40
0.0208027855950757
40
0.0348968214574358
40
0.0489908573197958
40
0.0630848931821558
40
0.0771789290445158
40
0.0912729649068758
40
0.105367000769236
40
0.119461036631596
40
0.133555072493956
40
0.147649108356316
40
0.161743144218676
40
0.175837180081036
40
0.189931215943396
40
0.204025251805756
40
0.218119287668116
40
0.232213323530476
40
0.246307359392836
40
0.260401395255196
40
0.274495431117556
40
0.288589466979916
40
0.302683502842276
40
0.316777538704636
40
0.330871574566996
40
0.344965610429356
40
0.359059646291716
40
0.373153682154076
40
0.387247718016436
40
0.401341753878796
40
0.415435789741156
40
0.429529825603516
40
0.443623861465876
40
0.457717897328236
40
0.471811933190596
40
0.485905969052956
40
0.500000004915316
40
0.514094040777676
40
0.528188076640036
40
0.542282112502396
40
0.556376148364756
40
0.570470184227116
40
0.584564220089477
40
0.598658255951837
40
0.612752291814197
40
0.626846327676556
40
0.640940363538917
40
0.655034399401277
40
0.669128435263637
40
0.683222471125997
40
0.697316506988357
40
0.711410542850717
40
0.725504578713077
40
0.739598614575437
40
0.753692650437797
40
0.767786686300157
40
0.781880722162517
40
0.795974758024877
40
0.810068793887237
40
0.824162829749597
40
0.838256865611957
40
0.852350901474317
40
0.866444937336677
40
0.880538973199037
40
0.894633009061397
40
0.908727044923757
40
0.922821080786117
40
0.936915116648477
40
0.951009152510837
40
0.965103188373197
40
0.979197224235557
40
0.993291260097917
40
1
40
1
40
1
40
1
41
1
10
-3
20
-17.2891029998204
30
0
41
1
10
-3
20
-17.3064425230017
30
0
41
1
10
-3
20
-17.3576824669623
30
0
41
1
10
-3
20
-17.4290648746259
30
0
41
1
10
-3
20
-17.4859427971309
30
0
41
1
10
-3
20
-17.5070292572437
30
0
41
1
10
-3
20
-17.4859401738945
30
0
41
1
10
-3
20
-17.4163913620312
30
0
41
1
10
-3
20
-17.2925088911448
30
0
41
1
10
-3
20
-17.1091123896189
30
0
41
1
10
-3
20
-16.8619882313057
30
0
41
1
10
-3
20
-16.5481197778907
30
0
41
1
10
-3
20
-16.1658744357057
30
0
41
1
10
-3
20
-15.7151402778227
30
0
41
1
10
-3
20
-15.1974002275414
30
0
41
1
10
-3
20
-14.6157505856349
30
0
41
1
10
-3
20
-13.9748490556261
30
0
41
1
10
-3
20
-13.2808105172309
30
0
41
1
10
-3
20
-12.5410348198394
30
0
41
1
10
-3
20
-11.763994099502
30
0
41
1
10
-3
20
-10.9589648821141
30
0
41
1
10
-3
20
-10.1357380738661
30
0
41
1
10
-3
20
-9.30429484700929
30
0
41
1
10
-3
20
-8.47448256671282
30
0
41
1
10
-3
20
-7.6556828892094
30
0
41
1
10
-3
20
-6.85650245921596
30
0
41
1
10
-3
20
-6.08448325445985
30
0
41
1
10
-3
20
-5.34585503158101
30
0
41
1
10
-3
20
-4.64533193812392
30
0
41
1
10
-3
20
-3.9859646700211
30
0
41
1
10
-3
20
-3.36905464097902
30
0
41
1
10
-3
20
-2.79412899561987
30
0
41
1
10
-3
20
-2.25898609800083
30
0
41
1
10
-3
20
-1.75979816383233
30
0
41
1
10
-3
20
-1.29128215780307
30
0
41
1
10
-3
20
-0.846915650735156
30
0
41
1
10
-3
20
-0.41920838047011
30
0
41
1
10
-3
20
8.85488021E-08
30
0
41
1
10
-3
20
0.419208026274788
30
0
41
1
10
-3
20
0.84691581376515
30
0
41
1
10
-3
20
1.29128185987813
30
0
41
1
10
-3
20
1.75979828673439
30
0
41
1
10
-3
20
2.25898590431717
30
0
41
1
10
-3
20
2.79412905823773
30
0
41
1
10
-3
20
3.36905458419105
30
0
41
1
10
-3
20
3.98596466105747
30
0
41
1
10
-3
20
4.64533203076618
30
0
41
1
10
-3
20
5.34585495020943
30
0
41
1
10
-3
20
6.08448348730366
30
0
41
1
10
-3
20
6.85650231512167
30
0
41
1
10
-3
20
7.65568323274246
30
0
41
1
10
-3
20
8.47448237855718
30
0
41
1
10
-3
20
9.30429525609867
30
0
41
1
10
-3
20
10.1357378664365
30
0
41
1
10
-3
20
10.9589653027428
30
0
41
1
10
-3
20
11.7639938999324
30
0
41
1
10
-3
20
12.5410351974886
30
0
41
1
10
-3
20
13.2808103509102
30
0
41
1
10
-3
20
13.9748493432595
30
0
41
1
10
-3
20
14.6157504724401
30
0
41
1
10
-3
20
15.197400392687
30
0
41
1
10
-3
20
15.7151402291805
30
0
41
1
10
-3
20
16.1658744651289
30
0
41
1
10
-3
20
16.5481197951877
30
0
41
1
10
-3
20
16.8619881326948
30
0
41
1
10
-3
20
17.1091124641426
30
0
41
1
10
-3
20
17.2925086916609
30
0
41
1
10
-3
20
17.4163918494222
30
0
41
1
10
-3
20
17.4859391868839
30
0
41
1
10
-3
20
17.5070293524766
30
0
41
1
10
-3
20
17.4859434032096
30
0
41
1
10
-3
20
17.4290646714908
30
0
41
1
10
-3
20
17.3576822655576
30
0
41
1
10
-3
20
17.3064424621938
30
0
41
1
10
-3
20
17.2891029998414
30
0
0
SPLINE
5
EA
100
AcDbEntity
8
SK1
62
256
6
ByLayer
370
-1
48
1
60
0
100
AcDbSpline
70
4
71
3
72
22
73
18
40
0
40
0
40
0
40
0
40
0.352684316750051
40
0.352684316750051
40
0.750046292484899
40
0.750046292484899
40
0.835479263400861
40
0.835479263400861
40
0.86935277413835
40
0.86935277413835
40
0.903637365464604
40
0.903637365464604
40
0.934112944215775
40
0.934112944215775
40
0.983611230456553
40
0.983611230456553
40
1
40
1
40
1
40
1
41
1
10
-1.30710678118658
20
3.80474436172742
30
0
41
1
10
-1.26637440296071
20
4.02584957204775
30
0
41
1
10
-1.21786346361694
20
4.24386265362048
30
0
41
1
10
-1.08311917044625
20
4.69265802851214
30
0
41
1
10
-1.00360006874376
20
4.93633956823067
30
0
41
1
10
-0.8033447497628
20
5.16879396055813
30
0
41
1
10
-0.761021311877812
20
5.20853400127967
30
0
41
1
10
-0.689167148695731
20
5.24561851051851
30
0
41
1
10
-0.666676206231386
20
5.25408214518689
30
0
41
1
10
-0.619919785859736
20
5.26355270960357
30
0
41
1
10
-0.595012690956537
20
5.26445496143654
30
0
41
1
10
-0.549926195162811
20
5.25839930645884
30
0
41
1
10
-0.529028206588009
20
5.25231844804927
30
0
41
1
10
-0.478237300450644
20
5.2307965704984
30
0
41
1
10
-0.449806665426422
20
5.21177878736736
30
0
41
1
10
-0.416050679082105
20
5.18357602352128
30
0
41
1
10
-0.407890864165267
20
5.17622805658175
30
0
41
1
10
-0.400000000000034
20
5.16866682996363
30
0
0
SPLINE
5
EB
100
AcDbEntity
8
SK1
62
256
6
ByLayer
370
-1
48
1
60
0
100
AcDbSpline
70
4
71
3
72
30
73
26
40
0
40
0
40
0
40
0
40
0.0056618333773669
40
0.0508667583908923
40
0.0960716834044178
40
0.141276608417943
40
0.186481533431469
40
0.231686458444994
40
0.276891383458519
40
0.322096308472045
40
0.36730123348557
40
0.412506158499096
40
0.457711083512621
40
0.502916008526146
40
0.548120933539672
40
0.593325858553197
40
0.638530783566723
40
0.683735708580248
40
0.728940633593774
40
0.774145558607299
40
0.819350483620824
40
0.86455540863435
40
0.909760333647875
40
0.954965258661401
40
1
40
1
40
1
40
1
41
1
10
-0.400000000000034
20
-5.16866679574528
30
0
41
1
10
-0.400000000000034
20
-5.1981823917107
30
0
41
1
10
-0.400000000000034
20
-5.46426938707833
30
0
41
1
10
-0.400000000000034
20
-5.98219146197602
30
0
41
1
10
-0.400000000000034
20
-6.74713361247495
30
0
41
1
10
-0.400000000000034
20
-7.53968849279406
30
0
41
1
10
-0.400000000000034
20
-8.35230648563555
30
0
41
1
10
-0.400000000000034
20
-9.17636769820604
30
0
41
1
10
-0.400000000000034
20
-10.0024728331477
30
0
41
1
10
-0.400000000000034
20
-10.8207538150476
30
0
41
1
10
-0.400000000000034
20
-11.6212070931939
30
0
41
1
10
-0.400000000000034
20
-12.3940190774915
30
0
41
1
10
-0.400000000000034
20
-13.1298916243886
30
0
41
1
10
-0.400000000000034
20
-13.8203332490725
30
0
41
1
10
-0.400000000000034
20
-14.4579281585871
30
0
41
1
10
-0.400000000000034
20
-15.0365497976464
30
0
41
1
10
-0.400000000000034
20
-15.5515337877379
30
0
41
1
10
-0.400000000000034
20
-15.9997825456108
30
0
41
1
10
-0.400000000000034
20
-16.379817481596
30
0
41
1
10
-0.400000000000034
20
-16.6917603323907
30
0
41
1
10
-0.400000000000034
20
-16.9372586651848
30
0
41
1
10
-0.400000000000034
20
-17.1193485969266
30
0
41
1
10
-0.400000000000034
20
-17.2422669751987
30
0
41
1
10
-0.400000000000034
20
-17.311133444229
30
0
41
1
10
-0.400000000000034
20
-17.3250933704586
30
0
41
1
10
-0.400000000000034
20
-17.3251497957884
30
0
0
SPLINE
5
EC
100
AcDbEntity
8
SK1
62
256
6
ByLayer
370
-1
48
1
60
0
100
AcDbSpline
70
4
71
3
72
26
73
22
40
0
40
0
40
0
40
0
40
0.466011607458034
40
0.466011607458034
40
0.67024046630168
40
0.67024046630168
40
0.77456727018221
40
0.77456727018221
40
0.857070717706419
40
0.857070717706419
40
0.898538406950324
40
0.898538406950324
40
0.918045307993239
40
0.918045307993239
40
0.937772855809251
40
0.937772855809251
40
0.955553297254221
40
0.955553297254221
40
0.984230712729842
40
0.984230712729842
40
1
40
1
40
1
40
1
41
1
10
-0.200000000000046
20
-5.88142397393347
30
0
41
1
10
-0.200000000000046
20
-5.75538988127934
30
0
41
1
10
-0.204053336884726
20
-5.62782146467677
30
0
41
1
10
-0.224291300237951
20
-5.44372978251536
30
0
41
1
10
-0.232375898168357
20
-5.3873284499669
30
0
41
1
10
-0.251389677244674
20
-5.30297629006839
30
0
41
1
10
-0.259003952916999
20
-5.27447755328694
30
0
41
1
10
-0.277073232762461
20
-5.22483382882945
30
0
41
1
10
-0.286541211569727
20
-5.20296176881411
30
0
41
1
10
-0.306529791401147
20
-5.17375294403038
30
0
41
1
10
-0.314426911926432
20
-5.1643717298173
30
0
41
1
10
-0.328481919155991
20
-5.15398148698225
30
0
41
1
10
-0.333472930985636
20
-5.15114386616668
30
0
41
1
10
-0.343977733072507
20
-5.14732547572157
30
0
41
1
10
-0.349636276202261
20
-5.14634920679938
30
0
41
1
10
-0.360093315739675
20
-5.1465317925306
30
0
41
1
10
-0.365036235354125
20
-5.14747094480913
30
0
41
1
10
-0.377122372198698
20
-5.15149960910935
30
0
41
1
10
-0.384002450469666
20
-5.1555505154767
30
0
41
1
10
-0.393629001799525
20
-5.16285427826699
30
0
41
1
10
-0.39689046960973
20
-5.16568716298278
30
0
41
1
10
-0.400000000000034
20
-5.16866679574503
30
0
0
SPLINE
5
ED
100
AcDbEntity
8
SK1
62
256
6
ByLayer
370
-1
48
1
60
0
100
AcDbSpline
70
4
71
3
72
79
73
75
40
0
40
0
40
0
40
0
40
0.0074030719680451
40
0.0214772709933054
40
0.0355514700185658
40
0.0496256690438261
40
0.0636998680690865
40
0.0777740670943468
40
0.0918482661196071
40
0.105922465144868
40
0.119996664170128
40
0.134070863195388
40
0.148145062220648
40
0.162219261245909
40
0.176293460271169
40
0.190367659296429
40
0.20444185832169
40
0.21851605734695
40
0.232590256372211
40
0.246664455397471
40
0.260738654422731
40
0.274812853447992
40
0.288887052473252
40
0.302961251498512
40
0.317035450523773
40
0.331109649549033
40
0.345183848574293
40
0.359258047599553
40
0.373332246624814
40
0.387406445650074
40
0.401480644675335
40
0.415554843700595
40
0.429629042725855
40
0.443703241751115
40
0.457777440776376
40
0.471851639801636
40
0.485925838826897
40
0.500000037852157
40
0.514074236877417
40
0.528148435902678
40
0.542222634927938
40
0.556296833953198
40
0.570371032978459
40
0.584445232003719
40
0.598519431028979
40
0.61259363005424
40
0.6266678290795
40
0.64074202810476
40
0.654816227130021
40
0.668890426155281
40
0.682964625180541
40
0.697038824205802
40
0.711113023231062
40
0.725187222256322
40
0.739261421281583
40
0.753335620306843
40
0.767409819332103
40
0.781484018357364
40
0.795558217382624
40
0.809632416407884
40
0.823706615433145
40
0.837780814458405
40
0.851855013483665
40
0.865929212508926
40
0.880003411534186
40
0.894077610559446
40
0.908151809584707
40
0.922226008609967
40
0.936300207635227
40
0.950374406660488
40
0.964448605685748
40
0.978522804711008
40
0.992597003736269
40
1
40
1
40
1
40
1
41
1
10
-2
20
17.1116144542389
30
0
41
1
10
-2
20
17.1306737735355
30
0
41
1
10
-2
20
17.1831798973923
30
0
41
1
10
-2
20
17.2550395308993
30
0
41
1
10
-2
20
17.3112459497451
30
0
41
1
10
-2
20
17.3321089735132
30
0
41
1
10
-2
20
17.3112189889209
30
0
41
1
10
-2
20
17.2422674474922
30
0
41
1
10
-2
20
17.1193484069474
30
0
41
1
10
-2
20
16.9372587367204
30
0
41
1
10
-2
20
16.6917602356259
30
0
41
1
10
-2
20
16.3798174953022
30
0
41
1
10
-2
20
15.9997825770269
30
0
41
1
10
-2
20
15.5515337348698
30
0
41
1
10
-2
20
15.0365499649754
30
0
41
1
10
-2
20
14.4579280405673
30
0
41
1
10
-2
20
13.8203335391023
30
0
41
1
10
-2
20
13.1298914527523
30
0
41
1
10
-2
20
12.39401945775
30
0
41
1
10
-2
20
11.6212068879994
30
0
41
1
10
-2
20
10.8207542384819
30
0
41
1
10
-2
20
10.00247262006
30
0
41
1
10
-2
20
9.17636811026827
30
0
41
1
10
-2
20
8.35230629219913
30
0
41
1
10
-2
20
7.53968883941312
30
0
41
1
10
-2
20
6.74713346409783
30
0
41
1
10
-2
20
5.98219169787032
30
0
41
1
10
-2
20
5.25109264883253
30
0
41
1
10
-2
20
4.55854550233684
30
0
41
1
10
-2
20
3.90758262960779
30
0
41
1
10
-2
20
3.29948777527221
30
0
41
1
10
-2
20
2.73375387844547
30
0
41
1
10
-2
20
2.20813463136872
30
0
41
1
10
-2
20
1.71876156390923
30
0
41
1
10
-2
20
1.26029526086333
30
0
41
1
10
-2
20
0.826158476850765
30
0
41
1
10
-2
20
0.408799134273892
30
0
41
1
10
-2
20
2.402494488E-07
30
0
41
1
10
-2
20
-0.408799553455736
30
0
41
1
10
-2
20
-0.82615842677356
30
0
41
1
10
-2
20
-1.26029551010325
30
0
41
1
10
-2
20
-1.71876142586774
30
0
41
1
10
-2
20
-2.20813448047156
30
0
41
1
10
-2
20
-2.7337537633878
30
0
41
1
10
-2
20
-3.29948825001514
30
0
41
1
10
-2
20
-3.90758266192117
30
0
41
1
10
-2
20
-4.55854530449344
30
0
41
1
10
-2
20
-5.25109273249788
30
0
41
1
10
-2
20
-5.98219146197602
30
0
41
1
10
-2
20
-6.74713361247495
30
0
41
1
10
-2
20
-7.53968849279406
30
0
41
1
10
-2
20
-8.35230648563552
30
0
41
1
10
-2
20
-9.17636769820604
30
0
41
1
10
-2
20
-10.0024728331477
30
0
41
1
10
-2
20
-10.8207538150476
30
0
41
1
10
-2
20
-11.6212070931939
30
0
41
1
10
-2
20
-12.3940190774915
30
0
41
1
10
-2
20
-13.1298916243886
30
0
41
1
10
-2
20
-13.8203332490725
30
0
41
1
10
-2
20
-14.4579281585871
30
0
41
1
10
-2
20
-15.0365497976464
30
0
41
1
10
-2
20
-15.5515337877379
30
0
41
1
10
-2
20
-15.9997825456108
30
0
41
1
10
-2
20
-16.379817481596
30
0
41
1
10
-2
20
-16.6917603323907
30
0
41
1
10
-2
20
-16.9372586651848
30
0
41
1
10
-2
20
-17.1193485969266
30
0
41
1
10
-2
20
-17.2422669751987
30
0
41
1
10
-2
20
-17.3112199736996
30
0
41
1
10
-2
20
-17.3321088799281
30
0
41
1
10
-2
20
-17.3112453434672
30
0
41
1
10
-2
20
-17.2550397180126
30
0
41
1
10
-2
20
-17.1831802766266
30
0
41
1
10
-2
20
-17.1306742506466
30
0
41
1
10
-2
20
-17.1116151100673
30
0
0
SPLINE
5
EE
100
AcDbEntity
8
1
62
256
6
ByLayer
370
-1
48
1
60
0
100
AcDbSpline
70
4
71
3
72
18
73
14
40
0
40
0
40
0
40
0
40
0.209367001422497
40
0.209367001422497
40
0.384033913650919
40
0.384033913650919
40
0.560418801950697
40
0.560418801950697
40
0.713485384511591
40
0.713485384511591
40
0.915785144300268
40
0.915785144300268
40
1
40
1
40
1
40
1
41
1
10
76.1055686886059
20
8.64029686439659
30
0
41
1
10
76.1559190091064
20
8.58748763649021
30
0
41
1
10
76.2155233079505
20
8.54090707398487
30
0
41
1
10
76.3374066047623
20
8.47484558925996
30
0
41
1
10
76.399058414768
20
8.45156760200734
30
0
41
1
10
76.5272715392939
20
8.42471490892476
30
0
41
1
10
76.5958151907783
20
8.4211577502997
30
0
41
1
10
76.7183660052277
20
8.4343948110334
30
0
41
1
10
76.7745716943443
20
8.44861789238982
30
0
41
1
10
76.8944282773016
20
8.4959727184812
30
0
41
1
10
76.9568257822941
20
8.53427018081049
30
0
41
1
10
77.0330051299705
20
8.59847557492577
30
0
41
1
10
77.0542218663628
20
8.61883844054287
30
0
41
1
10
77.0739897576275
20
8.64029624224952
30
0
0
SPLINE
5
EF
100
AcDbEntity
8
1
62
256
6
ByLayer
370
-1
48
1
60
0
100
AcDbSpline
70
4
71
3
72
16
73
12
40
0
40
0
40
0
40
0
40
0.0514404732925066
40
0.0514404732925066
40
0.274406958397924
40
0.274406958397924
40
0.499511535153546
40
0.499511535153546
40
0.738532632353241
40
0.738532632353241
40
1
40
1
40
1
40
1
41
1
10
78.2587756694401
20
7.25888784296467
30
0
41
1
10
78.258766004156
20
7.26574551052826
30
0
41
1
10
78.2585150468918
20
7.27259557071429
30
0
41
1
10
78.2559142120843
20
7.30869668797155
30
0
41
1
10
78.2492032062029
20
7.33772048322311
30
0
41
1
10
78.2279254858802
20
7.390913424454
30
0
41
1
10
78.2130341997876
20
7.41572045495363
30
0
41
1
10
78.1765921673548
20
7.45956703533034
30
0
41
1
10
78.154254617501
20
7.47872499300024
30
0
41
1
10
78.1039827769595
20
7.5096668134411
30
0
41
1
10
78.0751146420693
20
7.521022382658
30
0
41
1
10
78.0457925516527
20
7.52729487549971
30
0
0
SPLINE
5
F0
100
AcDbEntity
8
1
62
256
6
ByLayer
370
-1
48
1
60
0
100
AcDbSpline
70
4
71
3
72
12
73
8
40
0
40
0
40
0
40
0
40
0.31893439939491
40
0.31893439939491
40
0.787306606100909
40
0.787306606100909
40
1
40
1
40
1
40
1
41
1
10
75.5908346692719
20
7.89333971092512
30
0
41
1
10
75.610915417168
20
7.94115327558569
30
0
41
1
10
75.6253230236185
20
7.99166424105491
30
0
41
1
10
75.646382296769
20
8.11544099519986
30
0
41
1
10
75.6467622726017
20
8.1903156140794
30
0
41
1
10
75.632508730811
20
8.29388710818449
30
0
41
1
10
75.6258903268407
20
8.32595435399557
30
0
41
1
10
75.6173288373175
20
8.35720668773749
30
0
0
SPLINE
5
F1
100
AcDbEntity
8
1
62
256
6
ByLayer
370
-1
48
1
60
0
100
AcDbSpline
70
4
71
3
72
18
73
14
40
0
40
0
40
0
40
0
40
0.204357198710587
40
0.204357198710587
40
0.379898703705818
40
0.379898703705818
40
0.557216369959913
40
0.557216369959913
40
0.710464516918752
40
0.710464516918752
40
0.911876168090854
40
0.911876168090854
40
1
40
1
40
1
40
1
41
1
10
77.561573976806
20
8.36059542213476
30
0
41
1
10
77.5449698165668
20
8.29132882034912
30
0
41
1
10
77.5377354827423
20
8.21755679161225
30
0
41
1
10
77.5453277058259
20
8.07955104906071
30
0
41
1
10
77.5574367829232
20
8.01388345127199
30
0
41
1
10
77.5998306939232
20
7.88852150055007
30
0
41
1
10
77.6311185053161
20
7.82710616899396
30
0
41
1
10
77.7025332114691
20
7.72781867741247
30
0
41
1
10
77.7416733139954
20
7.68663274336552
30
0
41
1
10
77.8384357957967
20
7.6079778919233
30
0
41
1
10
77.8995196641356
20
7.57416909493602
30
0
41
1
10
77.98949027383
20
7.54136092496779
30
0
41
1
10
78.0175408271691
20
7.53333839890021
30
0
41
1
10
78.0457925516527
20
7.52729487549956
30
0
0
SPLINE
5
F2
100
AcDbEntity
8
1
62
256
6
ByLayer
370
-1
48
1
60
0
100
AcDbSpline
70
4
71
3
72
14
73
10
40
0
40
0
40
0
40
0
40
0.253413222301842
40
0.253413222301842
40
0.54356988623251
40
0.54356988623251
40
0.805873804640114
40
0.805873804640114
40
1
40
1
40
1
40
1
41
1
10
75.610156900397
20
6.12107789028369
30
0
41
1
10
75.6020314213427
20
6.09386195220671
30
0
41
1
10
75.5982530260861
20
6.06462688770827
30
0
41
1
10
75.6010219723746
20
6.00158007443875
30
0
41
1
10
75.6092802673778
20
5.96669882213769
30
0
41
1
10
75.6379776649812
20
5.90495823465847
30
0
41
1
10
75.6576664637618
20
5.87673670042386
30
0
41
1
10
75.699790303679
20
5.83503118542828
30
0
41
1
10
75.720578326444
20
5.81920212114053
30
0
41
1
10
75.7429462083348
20
5.80637087135221
30
0
0
SPLINE
5
F3
100
AcDbEntity
8
1
62
256
6
ByLayer
370
-1
48
1
60
0
100
AcDbSpline
70
4
71
3
72
16
73
12
40
0
40
0
40
0
40
0
40
0.21800597131788
40
0.21800597131788
40
0.441439946436369
40
0.441439946436369
40
0.676011040495164
40
0.676011040495164
40
0.931666763594292
40
0.931666763594292
40
1
40
1
40
1
40
1
41
1
10
74.9070222322077
20
7.24492763566619
30
0
41
1
10
74.9070628408338
20
7.21611519171668
30
0
41
1
10
74.911604028595
20
7.18673989879187
30
0
41
1
10
74.928953633441
20
7.13072242138651
30
0
41
1
10
74.9421768368894
20
7.10344609141382
30
0
41
1
10
74.9757309423435
20
7.05364534911112
30
0
41
1
10
74.9967797306449
20
7.03078397396365
30
0
41
1
10
75.0450426020196
20
6.99118558363529
30
0
41
1
10
75.0732237738043
20
6.97466049049189
30
0
41
1
10
75.110063733967
20
6.95973228420311
30
0
41
1
10
75.1179745038527
20
6.95688997442073
30
0
41
1
10
75.1259383255505
20
6.95437843691869
30
0
0
SPLINE
5
F4
100
AcDbEntity
8
1
62
256
6
ByLayer
370
-1
48
1
60
0
100
AcDbSpline
70
4
71
3
72
18
73
14
40
0
40
0
40
0
40
0
40
0.171760828810349
40
0.171760828810349
40
0.353571416701584
40
0.353571416701584
40
0.537533417278082
40
0.537533417278082
40
0.692612709493376
40
0.692612709493376
40
0.852765749764329
40
0.852765749764329
40
1
40
1
40
1
40
1
41
1
10
77.0661621885974
20
5.84137644802158
30
0
41
1
10
77.0264896717837
20
5.87864063225501
30
0
41
1
10
76.9806587172747
20
5.91191812639553
30
0
41
1
10
76.8758549544803
20
5.96847657586292
30
0
41
1
10
76.8149022056679
20
5.9916054954592
30
0
41
1
10
76.6853241750454
20
6.02068514991151
30
0
41
1
10
76.6144749252663
20
6.02669217540313
30
0
41
1
10
76.4873301876927
20
6.01979137112761
30
0
41
1
10
76.4289611877682
20
6.0096707727034
30
0
41
1
10
76.3186804684237
20
5.97755943000951
30
0
41
1
10
76.2657148676334
20
5.95491229998115
30
0
41
1
10
76.1739253339445
20
5.90274595799576
30
0
41
1
10
76.1336021231031
20
5.87356422628901
30
0
41
1
10
76.0977411195756
20
5.84137707016887
30
0
0
SPLINE
5
F5
100
AcDbEntity
8
1
62
256
6
ByLayer
370
-1
48
1
60
0
100
AcDbSpline
70
4
71
3
72
18
73
14
40
0
40
0
40
0
40
0
40
0.0916162981302514
40
0.0916162981302514
40
0.290173509503405
40
0.290173509503405
40
0.451470239304018
40
0.451470239304018
40
0.613527758364205
40
0.613527758364205
40
0.765963818526348
40
0.765963818526348
40
1
40
1
40
1
40
1
41
1
10
75.6101569003971
20
6.12107789028366
30
0
41
1
10
75.6184980650382
20
6.14901625783671
30
0
41
1
10
75.6249119609858
20
6.17783706111348
30
0
41
1
10
75.6384841183448
20
6.2709136893578
30
0
41
1
10
75.6378756471878
20
6.33881222335697
30
0
41
1
10
75.6154274802514
20
6.4623498302285
30
0
41
1
10
75.5971778267842
20
6.51925874854916
30
0
41
1
10
75.545288323722
20
6.62740046253199
30
0
41
1
10
75.5108390663568
20
6.67998121498474
30
0
41
1
10
75.4339777281172
20
6.76996992473613
30
0
41
1
10
75.3913480941462
20
6.80920535201858
30
0
41
1
10
75.2780339355289
20
6.89263416341277
30
0
41
1
10
75.2022967547744
20
6.93029740323024
30
0
41
1
10
75.1259383255505
20
6.95437843691874
30
0
0
SPLINE
5
F6
100
AcDbEntity
8
1
62
256
6
ByLayer
370
-1
48
1
60
0
100
AcDbSpline
70
4
71
3
72
12
73
8
40
0
40
0
40
0
40
0
40
0.284215968195574
40
0.284215968195574
40
0.741847709438552
40
0.741847709438552
40
1
40
1
40
1
40
1
41
1
10
77.5897409432338
20
6.55532459996462
30
0
41
1
10
77.5715352235086
20
6.51365280599228
30
0
41
1
10
77.5576161310011
20
6.47070536541864
30
0
41
1
10
77.5331571762906
20
6.36049773483461
30
0
41
1
10
77.5293770525806
20
6.29259395168882
30
0
41
1
10
77.538751540927
20
6.19292686314878
30
0
41
1
10
77.5452309286511
20
6.15785018615028
30
0
41
1
10
77.5544967533314
20
6.12411314928929
30
0
0
SPLINE
5
F7
100
AcDbEntity
8
1
62
256
6
ByLayer
370
-1
48
1
60
0
100
AcDbSpline
70
4
71
3
72
16
73
12
40
0
40
0
40
0
40
0
40
0.144148616872784
40
0.144148616872784
40
0.447519162264081
40
0.447519162264081
40
0.721767619879806
40
0.721767619879806
40
0.964757018307352
40
0.964757018307352
40
1
40
1
40
1
40
1
41
1
10
76.1055686886095
20
8.64029686439963
30
0
41
1
10
76.0932773888474
20
8.65318842187054
30
0
41
1
10
76.0797842099992
20
8.66513650229612
30
0
41
1
10
76.0350273231605
20
8.69821544978475
30
0
41
1
10
75.9995293160426
20
8.71555450393461
30
0
41
1
10
75.9281103869623
20
8.73394582280625
30
0
41
1
10
75.8914308669192
20
8.7366130090993
30
0
41
1
10
75.8241512651277
20
8.72834783894518
30
0
41
1
10
75.7923658913836
20
8.71877099715473
30
0
41
1
10
75.7593299983325
20
8.70205163027092
30
0
41
1
10
75.7551505094935
20
8.69980097196895
30
0
41
1
10
75.7510315017018
20
8.6974456813135
30
0
0
SPLINE
5
F8
100
AcDbEntity
8
1
62
256
6
ByLayer
370
-1
48
1
60
0
100
AcDbSpline
70
4
71
3
72
16
73
12
40
0
40
0
40
0
40
0
40
0.192791791195059
40
0.192791791195059
40
0.488585348467877
40
0.488585348467877
40
0.755755095293209
40
0.755755095293209
40
0.993377456078489
40
0.993377456078489
40
1
40
1
40
1
40
1
41
1
10
75.128426763325
20
7.51581890836312
30
0
41
1
10
75.1058661717597
20
7.51121725235379
30
0
41
1
10
75.083615172519
20
7.50383208730145
30
0
41
1
10
75.0304158791629
20
7.47832815764147
30
0
41
1
10
75.0002523120649
20
7.4560093963243
30
0
41
1
10
74.9535888701169
20
7.40331108595865
30
0
41
1
10
74.9353848886609
20
7.37306082683247
30
0
41
1
10
74.9130442421421
20
7.31127961390905
30
0
41
1
10
74.907286474711
20
7.27936137768887
30
0
41
1
10
74.9070239458437
20
7.24672534893884
30
0
41
1
10
74.9070209652252
20
7.24582657924918
30
0
41
1
10
74.9070222322077
20
7.24492763566619
30
0
0
SPLINE
5
F9
100
AcDbEntity
8
1
62
256
6
ByLayer
370
-1
48
1
60
0
100
AcDbSpline
70
4
71
3
72
18
73
14
40
0
40
0
40
0
40
0
40
0.0546729749827391
40
0.0546729749827391
40
0.275571530865488
40
0.275571530865488
40
0.498800915213302
40
0.498800915213302
40
0.735994152976863
40
0.735994152976863
40
0.996279096495744
40
0.996279096495744
40
1
40
1
40
1
40
1
41
1
10
77.414766399946
20
5.80636979731736
30
0
41
1
10
77.4211792557193
20
5.81003673363827
30
0
41
1
10
77.4274619171248
20
5.81393567426679
30
0
41
1
10
77.4581225105472
20
5.8345273180359
30
0
41
1
10
77.4803679176217
20
5.85477475098776
30
0
41
1
10
77.5171516300069
20
5.89951039810251
30
0
41
1
10
77.5320928325284
20
5.92459726850774
30
0
41
1
10
77.5540164952428
20
5.97753783194693
30
0
41
1
10
77.5607466558072
20
6.00611887619027
30
0
41
1
10
77.5653558587724
20
6.06445032569337
30
0
41
1
10
77.5624031735053
20
6.09477555510495
30
0
41
1
10
77.5547186484447
20
6.12330133547786
30
0
41
1
10
77.5546081822964
20
6.123707434393
30
0
41
1
10
77.5544967533314
20
6.12411314928929
30
0
0
SPLINE
5
FA
100
AcDbEntity
8
1
62
256
6
ByLayer
370
-1
48
1
60
0
100
AcDbSpline
70
4
71
3
72
14
73
10
40
0
40
0
40
0
40
0
40
0.279798780274993
40
0.279798780274993
40
0.574161225582892
40
0.574161225582892
40
0.833112986337118
40
0.833112986337118
40
1
40
1
40
1
40
1
41
1
10
77.5615739768064
20
8.36059542213468
30
0
41
1
10
77.5695901415285
20
8.39403598652657
30
0
41
1
10
77.572368615385
20
8.42981585899824
30
0
41
1
10
77.5655281330645
20
8.50246862371563
30
0
41
1
10
77.5550228637782
20
8.54048890965649
30
0
41
1
10
77.5225215297789
20
8.60537981846926
30
0
41
1
10
77.5015130743257
20
8.63399106157607
30
0
41
1
10
77.4602677451169
20
8.67288986629649
30
0
41
1
10
77.4421188312278
20
8.68639208739785
30
0
41
1
10
77.422851693313
20
8.69744460727861
30
0
0
SPLINE
5
FB
100
AcDbEntity
8
1
62
256
6
ByLayer
370
-1
48
1
60
0
100
AcDbSpline
70
4
71
3
72
12
73
8
40
0
40
0
40
0
40
0
40
0.430413243754609
40
0.430413243754609
40
0.847061883496811
40
0.847061883496811
40
1
40
1
40
1
40
1
41
1
10
78.0433988273267
20
6.96550092867127
30
0
41
1
10
77.9842930922453
20
6.94651795228003
30
0
41
1
10
77.92567485253
20
6.91910188977138
30
0
41
1
10
77.8170332129332
20
6.849084917114
30
0
41
1
10
77.7655899299436
20
6.80603064705696
30
0
41
1
10
77.7038683414705
20
6.73812053626779
30
0
41
1
10
77.687998128479
20
6.7188522125964
30
0
41
1
10
77.6731317285872
20
6.6988379770618
30
0
0
SPLINE
5
FC
100
AcDbEntity
8
1
62
256
6
ByLayer
370
-1
48
1
60
0
100
AcDbSpline
70
4
71
3
72
14
73
10
40
0
40
0
40
0
40
0
40
0.273021401570964
40
0.273021401570964
40
0.560718757608267
40
0.560718757608267
40
0.820994844954397
40
0.820994844954397
40
1
40
1
40
1
40
1
41
1
10
77.0661621885974
20
5.84137644802155
30
0
41
1
10
77.0884632011193
20
5.82042922546182
30
0
41
1
10
77.1153262355645
20
5.80257934844798
30
0
41
1
10
77.1764184427902
20
5.77607844193727
30
0
41
1
10
77.211959779845
20
5.76762031672121
30
0
41
1
10
77.2813480895849
20
5.76446989413807
30
0
41
1
10
77.316089062559
20
5.76855448279201
30
0
41
1
10
77.3717441971593
20
5.78502378448394
30
0
41
1
10
77.3940678176211
20
5.79453413688753
30
0
41
1
10
77.414766399946
20
5.80636979731736
30
0
0
SPLINE
5
FD
100
AcDbEntity
8
1
62
256
6
ByLayer
370
-1
48
1
60
0
100
AcDbSpline
70
4
71
3
72
16
73
12
40
0
40
0
40
0
40
0
40
0.188650665582488
40
0.188650665582488
40
0.40934401061467
40
0.40934401061467
40
0.63966709053654
40
0.63966709053654
40
0.889784454758303
40
0.889784454758303
40
1
40
1
40
1
40
1
41
1
10
75.7510315017018
20
8.6974456813135
30
0
41
1
10
75.7290652400033
20
8.68488514889171
30
0
41
1
10
75.7085983748416
20
8.6691312007467
30
0
41
1
10
75.6700141004363
20
8.63019518015008
30
0
41
1
10
75.6524124295042
20
8.60569261418999
30
0
41
1
10
75.6251891843577
20
8.55262654189045
30
0
41
1
10
75.615581067121
20
8.52327919446179
30
0
41
1
10
75.6049859855862
20
8.46199497901981
30
0
41
1
10
75.604643955539
20
8.42929190916382
30
0
41
1
10
75.6108638529907
20
8.38418886100632
30
0
41
1
10
75.6136777728444
20
8.37053430847956
30
0
41
1
10
75.6173288373154
20
8.35720668773669
30
0
0
SPLINE
5
FE
100
AcDbEntity
8
1
62
256
6
ByLayer
370
-1
48
1
60
0
100
AcDbSpline
70
4
71
3
72
14
73
10
40
0
40
0
40
0
40
0
40
0.274585754726519
40
0.274585754726519
40
0.560267722712972
40
0.560267722712972
40
0.818663419535335
40
0.818663419535335
40
1
40
1
40
1
40
1
41
1
10
78.0433988273271
20
6.9655009286692
30
0
41
1
10
78.0745613637764
20
6.97550939388654
30
0
41
1
10
78.1052777514515
20
6.99109351111491
30
0
41
1
10
78.1616601783307
20
7.03298640391239
30
0
41
1
10
78.18791745991
20
7.060416863417
30
0
41
1
10
78.2270436507476
20
7.12017742875588
30
0
41
1
10
78.2414936162127
20
7.15272834801613
30
0
41
1
10
78.2557625798142
20
7.20998055780854
30
0
41
1
10
78.2588098619146
20
7.23462775701401
30
0
41
1
10
78.2587756694401
20
7.25888784296467
30
0
0
SPLINE
5
FF
100
AcDbEntity
8
1
62
256
6
ByLayer
370
-1
48
1
60
0
100
AcDbSpline
70
4
71
3
72
18
73
14
40
0
40
0
40
0
40
0
40
0.0412155027391354
40
0.0412155027391354
40
0.264503708125867
40
0.264503708125867
40
0.489339752137532
40
0.489339752137532
40
0.72761853424491
40
0.72761853424491
40
0.988726352206621
40
0.988726352206621
40
1
40
1
40
1
40
1
41
1
10
75.7429462083348
20
5.80637087135221
30
0
41
1
10
75.7477269559785
20
5.80362841377445
30
0
41
1
10
75.7525908099606
20
5.80101244607755
30
0
41
1
10
75.7840049887734
20
5.78520573903492
30
0
41
1
10
75.8129427932882
20
5.77565606012513
30
0
41
1
10
75.8711418136706
20
5.76528079752595
30
0
41
1
10
75.9011427503191
20
5.76436216001363
30
0
41
1
10
75.9600262317668
20
5.77068671455436
30
0
41
1
10
75.989476634907
20
5.77847022111476
30
0
41
1
10
76.0454616616736
20
5.80214879557144
30
0
41
1
10
76.072165221925
20
5.81901541668429
30
0
41
1
10
76.0957869884842
20
5.83963527522059
30
0
41
1
10
76.0967676224682
20
5.84050330478883
30
0
41
1
10
76.0977411195756
20
5.84137707016887
30
0
0
SPLINE
5
100
100
AcDbEntity
8
1
62
256
6
ByLayer
370
-1
48
1
60
0
100
AcDbSpline
70
4
71
3
72
12
73
8
40
0
40
0
40
0
40
0
40
0.490280480391578
40
0.490280480391578
40
0.89611033189486
40
0.89611033189486
40
1
40
1
40
1
40
1
41
1
10
75.1284267633268
20
7.5158189083607
30
0
41
1
10
75.197712293521
20
7.52995099241949
30
0
41
1
10
75.2664044529624
20
7.55550508145103
30
0
41
1
10
75.3822177633825
20
7.62390967561916
30
0
41
1
10
75.4322357573806
20
7.66395380826992
30
0
41
1
10
75.4865054699762
20
7.72378114857639
30
0
41
1
10
75.4972194392954
20
7.73657258123592
30
0
41
1
10
75.5074438839184
20
7.74982633382777
30
0
0
SPLINE
5
101
100
AcDbEntity
8
1
62
256
6
ByLayer
370
-1
48
1
60
0
100
AcDbSpline
70
4
71
3
72
16
73
12
40
0
40
0
40
0
40
0
40
0.0662411927195092
40
0.0662411927195092
40
0.289014984396454
40
0.289014984396454
40
0.514771810820489
40
0.514771810820489
40
0.755134414487638
40
0.755134414487638
40
1
40
1
40
1
40
1
41
1
10
77.422851693313
20
8.69744460727861
30
0
41
1
10
77.4151870074616
20
8.70184142496521
30
0
41
1
10
77.4073152062773
20
8.70587539768181
30
0
41
1
10
77.3724996211049
20
8.72168627019389
30
0
41
1
10
77.3435570974207
20
8.72955748573105
30
0
41
1
10
77.2857284840789
20
8.73588718273055
30
0
41
1
10
77.2561155097289
20
8.73432293513679
30
0
41
1
10
77.1983694243118
20
8.72232851932364
30
0
41
1
10
77.1697273176474
20
8.71121324333822
30
0
41
1
10
77.1178337438607
20
8.68133277968852
30
0
41
1
10
77.0941067317854
20
8.66213296912326
30
0
41
1
10
77.0739897576275
20
8.64029624224952
30
0
0
LINE
5
49
100
AcDbEntity
8
80
62
256
6
ByLayer
370
-1
48
1
60
0
100
AcDbLine
10
0
20
0
30
0
11
-10
21
0
31
0
39
0
210
0
220
0
230
1
0
LINE
5
4A
100
AcDbEntity
8
81
62
256
6
ByLayer
370
-1
48
1
60
0
100
AcDbLine
10
80
20
12.9
30
0
11
90
21
12.9
31
0
39
0
210
0
220
0
230
1
0
LINE
5
4B
100
AcDbEntity
8
SK4
62
256
6
ByLayer
370
-1
48
0.05
60
0
100
AcDbLine
10
-35
20
0
30
0
11
86.814733
21
0
31
0
39
0
210
0
220
0
230
1
0
LINE
5
4D
100
AcDbEntity
8
4
62
256
6
ByLayer
370
-1
48
0.05
60
0
100
AcDbLine
10
0
20
0
30
0
11
116.814733
21
0
31
0
39
0
210
0
220
0
230
1
0
LINE
5
4F
100
AcDbEntity
8
1
62
256
6
ByLayer
370
-1
48
1
60
0
100
AcDbLine
10
75.645988
20
6.33875
30
0
11
75.613889
21
6.458543
31
0
39
0
210
0
220
0
230
1
0
LINE
5
50
100
AcDbEntity
8
1
62
256
6
ByLayer
370
-1
48
1
60
0
100
AcDbLine
10
79.156576
20
7.789037
30
0
11
79.125954
21
7.903317
31
0
39
0
210
0
220
0
230
1
0
LINE
5
51
100
AcDbEntity
8
1
62
256
6
ByLayer
370
-1
48
1
60
0
100
AcDbLine
10
74.054844
20
6.544517
30
0
11
74.085465
21
6.430237
31
0
39
0
210
0
220
0
230
1
0
LINE
5
52
100
AcDbEntity
8
1
62
256
6
ByLayer
370
-1
48
1
60
0
100
AcDbLine
10
77.56533
20
7.995184
30
0
11
77.597414
21
7.875443
31
0
39
0
210
0
220
0
230
1
0
LINE
5
53
100
AcDbEntity
8
1
62
256
6
ByLayer
370
-1
48
1
60
0
100
AcDbLine
10
19.5
20
25
30
0
11
0.3
21
25
31
0
39
0
210
0
220
0
230
1
0
LINE
5
54
100
AcDbEntity
8
1
62
256
6
ByLayer
370
-1
48
1
60
0
100
AcDbLine
10
0.3
20
-25
30
0
11
19.5
21
-25
31
0
39
0
210
0
220
0
230
1
0
LINE
5
55
100
AcDbEntity
8
1
62
256
6
ByLayer
370
-1
48
1
60
0
100
AcDbLine
10
0.3
20
25
30
0
11
0
21
24.7
31
0
39
0
210
0
220
0
230
1
0
LINE
5
56
100
AcDbEntity
8
1
62
256
6
ByLayer
370
-1
48
1
60
0
100
AcDbLine
10
0
20
-24.7
30
0
11
0.3
21
-25
31
0
39
0
210
0
220
0
230
1
0
LINE
5
57
100
AcDbEntity
8
1
62
256
6
ByLayer
370
-1
48
1
60
0
100
AcDbLine
10
19.5
20
-25
30
0
11
22.31226
21
-14.454024
31
0
39
0
210
0
220
0
230
1
0
LINE
5
58
100
AcDbEntity
8
1
62
256
6
ByLayer
370
-1
48
1
60
0
100
AcDbLine
10
22.31226
20
14.454024
30
0
11
19.5
21
25
31
0
39
0
210
0
220
0
230
1
0
LINE
5
59
100
AcDbEntity
8
1
62
256
6
ByLayer
370
-1
48
1
60
0
100
AcDbLine
10
28.10967
20
-10
30
0
11
68.194194
21
-10
31
0
39
0
210
0
220
0
230
1
0
LINE
5
5A
100
AcDbEntity
8
1
62
256
6
ByLayer
370
-1
48
1
60
0
100
AcDbLine
10
63.398433
20
10
30
0
11
28.10967
21
10
31
0
39
0
210
0
220
0
230
1
0
LINE
5
5B
100
AcDbEntity
8
1
62
256
6
ByLayer
370
-1
48
1
60
0
100
AcDbLine
10
74.16124
20
1.720271
30
0
11
74.217263
21
1.511189
31
0
39
0
210
0
220
0
230
1
0
LINE
5
5C
100
AcDbEntity
8
1
62
256
6
ByLayer
370
-1
48
1
60
0
100
AcDbLine
10
71.653463
20
2.762599
30
0
11
71.835134
21
2.663554
31
0
39
0
210
0
220
0
230
1
0
LINE
5
5D
100
AcDbEntity
8
1
62
256
6
ByLayer
370
-1
48
1
60
0
100
AcDbLine
10
28.10967
20
10
30
0
11
28.10967
21
-10
31
0
39
0
210
0
220
0
230
1
0
LINE
5
5E
100
AcDbEntity
8
1
62
256
6
ByLayer
370
-1
48
1
60
0
100
AcDbLine
10
8.105662
20
-23.666502
30
0
11
8.105662
21
-8.055848
31
0
39
0
210
0
220
0
230
1
0
LINE
5
5F
100
AcDbEntity
8
1
62
256
6
ByLayer
370
-1
48
1
60
0
100
AcDbLine
10
8.538675
20
-7.529667
30
0
11
11.461325
21
-7.529667
31
0
39
0
210
0
220
0
230
1
0
LINE
5
60
100
AcDbEntity
8
1
62
256
6
ByLayer
370
-1
48
1
60
0
100
AcDbLine
10
19.5
20
-25
30
0
11
19.5
21
25
31
0
39
0
210
0
220
0
230
1
0
LINE
5
61
100
AcDbEntity
8
1
62
256
6
ByLayer
370
-1
48
1
60
0
100
AcDbLine
10
11.894338
20
-23.666502
30
0
11
11.894338
21
-8.055848
31
0
39
0
210
0
220
0
230
1
0
LINE
5
62
100
AcDbEntity
8
1
62
256
6
ByLayer
370
-1
48
1
60
0
100
AcDbLine
10
81.814733
20
3.779323
30
0
11
81.814733
21
3.786545
31
0
39
0
210
0
220
0
230
1
0
LINE
5
63
100
AcDbEntity
8
1
62
256
6
ByLayer
370
-1
48
1
60
0
100
AcDbLine
10
81.743815
20
3.76032
30
0
11
81.814733
21
3.779323
31
0
39
0
210
0
220
0
230
1
0
LINE
5
64
100
AcDbEntity
8
1
62
256
6
ByLayer
370
-1
48
1
60
0
100
AcDbLine
10
71.850087
20
2.61074
30
0
11
71.83706
21
2.660224
31
0
39
0
210
0
220
0
230
1
0
LINE
5
65
100
AcDbEntity
8
1
62
256
6
ByLayer
370
-1
48
1
60
0
100
AcDbLine
10
71.83706
20
2.660224
30
0
11
71.777155
21
2.883793
31
0
39
0
210
0
220
0
230
1
0
LINE
5
66
100
AcDbEntity
8
1
62
256
6
ByLayer
370
-1
48
1
60
0
100
AcDbLine
10
11.461325
20
-23.83913
30
0
11
11.461325
21
-7.529667
31
0
39
0
210
0
220
0
230
1
0
LINE
5
67
100
AcDbEntity
8
1
62
256
6
ByLayer
370
-1
48
1
60
0
100
AcDbLine
10
22.31226
20
-14.454024
30
0
11
22.31226
21
14.454024
31
0
39
0
210
0
220
0
230
1
0
LINE
5
68
100
AcDbEntity
8
1
62
256
6
ByLayer
370
-1
48
1
60
0
100
AcDbLine
10
68.51302
20
-9.755237
30
0
11
72.786203
21
-6.474707
31
0
39
0
210
0
220
0
230
1
0
LINE
5
69
100
AcDbEntity
8
1
62
256
6
ByLayer
370
-1
48
1
60
0
100
AcDbLine
10
11.461325
20
7.529667
30
0
11
11.461325
21
23.83913
31
0
39
0
210
0
220
0
230
1
0
LINE
5
6A
100
AcDbEntity
8
1
62
256
6
ByLayer
370
-1
48
1
60
0
100
AcDbLine
10
72.786203
20
-6.474707
30
0
11
81.814733
21
0.456513
31
0
39
0
210
0
220
0
230
1
0
LINE
5
6B
100
AcDbEntity
8
1
62
256
6
ByLayer
370
-1
48
1
60
0
100
AcDbLine
10
8.538675
20
-23.83913
30
0
11
8.538675
21
-7.529667
31
0
39
0
210
0
220
0
230
1
0
LINE
5
6C
100
AcDbEntity
8
1
62
256
6
ByLayer
370
-1
48
1
60
0
100
AcDbLine
10
8.538675
20
23.83913
30
0
11
11.461325
21
23.83913
31
0
39
0
210
0
220
0
230
1
0
LINE
5
6D
100
AcDbEntity
8
1
62
256
6
ByLayer
370
-1
48
1
60
0
100
AcDbLine
10
81.814733
20
3.786545
30
0
11
81.781711
21
3.777697
31
0
39
0
210
0
220
0
230
1
0
LINE
5
6E
100
AcDbEntity
8
1
62
256
6
ByLayer
370
-1
48
1
60
0
100
AcDbLine
10
68.51302
20
-9.755237
30
0
11
68.194194
21
-10
31
0
39
0
210
0
220
0
230
1
0
LINE
5
6F
100
AcDbEntity
8
1
62
256
6
ByLayer
370
-1
48
1
60
0
100
AcDbLine
10
71.595484
20
2.982838
30
0
11
71.777155
21
2.883793
31
0
39
0
210
0
220
0
230
1
0
LINE
5
70
100
AcDbEntity
8
1
62
256
6
ByLayer
370
-1
48
1
60
0
100
AcDbLine
10
72.157969
20
2.058908
30
0
11
72.217874
21
1.83534
31
0
39
0
210
0
220
0
230
1
0
LINE
5
71
100
AcDbEntity
8
1
62
256
6
ByLayer
370
-1
48
1
60
0
100
AcDbLine
10
71.835134
20
2.663554
30
0
11
71.777155
21
2.883793
31
0
39
0
210
0
220
0
230
1
0
LINE
5
72
100
AcDbEntity
8
1
62
256
6
ByLayer
370
-1
48
1
60
0
100
AcDbLine
10
11.894338
20
8.055848
30
0
11
11.894338
21
23.666502
31
0
39
0
210
0
220
0
230
1
0
LINE
5
73
100
AcDbEntity
8
1
62
256
6
ByLayer
370
-1
48
1
60
0
100
AcDbLine
10
0.3
20
-25
30
0
11
0.3
21
25
31
0
39
0
210
0
220
0
230
1
0
LINE
5
74
100
AcDbEntity
8
1
62
256
6
ByLayer
370
-1
48
1
60
0
100
AcDbLine
10
0
20
-24.7
30
0
11
0
21
24.7
31
0
39
0
210
0
220
0
230
1
0
LINE
5
75
100
AcDbEntity
8
1
62
256
6
ByLayer
370
-1
48
1
60
0
100
AcDbLine
10
8.105662
20
8.055848
30
0
11
8.105662
21
23.666502
31
0
39
0
210
0
220
0
230
1
0
LINE
5
76
100
AcDbEntity
8
1
62
256
6
ByLayer
370
-1
48
1
60
0
100
AcDbLine
10
11.461325
20
7.529667
30
0
11
8.538675
21
7.529667
31
0
39
0
210
0
220
0
230
1
0
LINE
5
77
100
AcDbEntity
8
1
62
256
6
ByLayer
370
-1
48
1
60
0
100
AcDbLine
10
8.538675
20
7.529667
30
0
11
8.538675
21
23.83913
31
0
39
0
210
0
220
0
230
1
0
LINE
5
78
100
AcDbEntity
8
1
62
256
6
ByLayer
370
-1
48
1
60
0
100
AcDbLine
10
81.814733
20
3.779323
30
0
11
81.814733
21
0.456513
31
0
39
0
210
0
220
0
230
1
0
LINE
5
79
100
AcDbEntity
8
1
62
256
6
ByLayer
370
-1
48
1
60
0
100
AcDbLine
10
11.461325
20
-23.83913
30
0
11
8.538675
21
-23.83913
31
0
39
0
210
0
220
0
230
1
0
LINE
5
7A
100
AcDbEntity
8
1
62
256
6
ByLayer
370
-1
48
1
60
0
100
AcDbLine
10
71.595484
20
2.982838
30
0
11
71.653463
21
2.762599
31
0
39
0
210
0
220
0
230
1
0
LINE
5
7B
100
AcDbEntity
8
1
62
256
6
ByLayer
370
-1
48
1
60
0
100
AcDbLine
10
68.349821
20
9.990143
30
0
11
72.786203
21
-6.474707
31
0
39
0
210
0
220
0
230
1
0
LINE
5
7C
100
AcDbEntity
8
SK1
62
256
6
ByLayer
370
-1
48
1
60
0
100
AcDbLine
10
-0.4
20
17.32515
30
0
11
-0.4
21
5.168667
31
0
39
0
210
0
220
0
230
1
0
LINE
5
7E
100
AcDbEntity
8
SK1
62
256
6
ByLayer
370
-1
48
1
60
0
100
AcDbLine
10
-0.2
20
17.833485
30
0
11
-0.2
21
5.881425
31
0
39
0
210
0
220
0
230
1
0
LINE
5
7F
100
AcDbEntity
8
SK1
62
256
6
ByLayer
370
-1
48
1
60
0
100
AcDbLine
10
-30
20
-15.939791
30
0
11
-30
21
15.941288
31
0
39
0
210
0
220
0
230
1
0
LINE
5
80
100
AcDbEntity
8
SK1
62
256
6
ByLayer
370
-1
48
1
60
0
100
AcDbLine
10
-1.307107
20
3.804744
30
0
11
-1.307107
21
-3.804747
31
0
39
0
210
0
220
0
230
1
0
LINE
5
81
100
AcDbEntity
8
SK1
62
256
6
ByLayer
370
-1
48
1
60
0
100
AcDbLine
10
-0.2
20
-5.881424
30
0
11
-0.2
21
-17.833485
31
0
39
0
210
0
220
0
230
1
0
LINE
5
82
100
AcDbEntity
8
1
62
256
6
ByLayer
370
-1
48
1
60
0
100
AcDbLine
10
75.507444
20
7.749826
30
0
11
75.538857
21
7.632591
31
0
39
0
210
0
220
0
230
1
0
LINE
5
83
100
AcDbEntity
8
1
62
256
6
ByLayer
370
-1
48
1
60
0
100
AcDbLine
10
75.622248
20
7.776104
30
0
11
75.590835
21
7.89334
31
0
39
0
210
0
220
0
230
1
0
LINE
5
84
100
AcDbEntity
8
1
62
256
6
ByLayer
370
-1
48
1
60
0
100
AcDbLine
10
78.081628
20
7.393555
30
0
11
78.045793
21
7.527295
31
0
39
0
210
0
220
0
230
1
0
LINE
5
85
100
AcDbEntity
8
1
62
256
6
ByLayer
370
-1
48
1
60
0
100
AcDbLine
10
77.109825
20
8.506556
30
0
11
77.07399
21
8.640296
31
0
39
0
210
0
220
0
230
1
0
LINE
5
86
100
AcDbEntity
8
1
62
256
6
ByLayer
370
-1
48
1
60
0
100
AcDbLine
10
76.141404
20
8.506557
30
0
11
76.105569
21
8.640297
31
0
39
0
210
0
220
0
230
1
0
LINE
5
87
100
AcDbEntity
8
1
62
256
6
ByLayer
370
-1
48
1
60
0
100
AcDbLine
10
75.653117
20
8.223643
30
0
11
75.617329
21
8.357207
31
0
39
0
210
0
220
0
230
1
0
LINE
5
88
100
AcDbEntity
8
1
62
256
6
ByLayer
370
-1
48
1
60
0
100
AcDbLine
10
75.164215
20
7.382255
30
0
11
75.128427
21
7.515819
31
0
39
0
210
0
220
0
230
1
0
LINE
5
89
100
AcDbEntity
8
1
62
256
6
ByLayer
370
-1
48
1
60
0
100
AcDbLine
10
75.645992
20
5.987338
30
0
11
75.610157
21
6.121078
31
0
39
0
210
0
220
0
230
1
0
LINE
5
8A
100
AcDbEntity
8
1
62
256
6
ByLayer
370
-1
48
1
60
0
100
AcDbLine
10
70.956158
20
9.850305
30
0
11
72.999004
21
2.226299
31
0
39
0
210
0
220
0
230
1
0
LINE
5
8B
100
AcDbEntity
8
1
62
256
6
ByLayer
370
-1
48
1
60
0
100
AcDbLine
10
79.185294
20
12.872743
30
0
11
71.518741
21
10.818496
31
0
39
0
210
0
220
0
230
1
0
LINE
5
8C
100
AcDbEntity
8
1
62
256
6
ByLayer
370
-1
48
1
60
0
100
AcDbLine
10
82.199448
20
4.69155
30
0
11
80.156601
21
12.315557
31
0
39
0
210
0
220
0
230
1
0
LINE
5
8D
100
AcDbEntity
8
1
62
256
6
ByLayer
370
-1
48
1
60
0
100
AcDbLine
10
73.970311
20
1.669112
30
0
11
81.636864
21
3.723359
31
0
39
0
210
0
220
0
230
1
0
LINE
5
8E
100
AcDbEntity
8
2
62
256
6
ByLayer
370
-1
48
1
60
1
100
AcDbLine
10
80
20
0
30
0
11
80.001
21
0.001
31
0
39
0
210
0
220
0
230
1
0
MTEXT
5
102
100
AcDbEntity
8
SK6
62
256
6
ByLayer
370
-1
48
1
60
0
100
AcDbMText
10
-2.217633
20
-35.875
30
0
210
0
220
0
230
1
1
\W00.724;\fsimplex.shx,bigfont.shx;C5-SSKCR-13080-09 
40
3.5
41
0
44
1.084337
50
0
71
7
72
5
7
DEFAULT
0
DIMENSION
5
136
100
AcDbEntity
8
SK2
62
256
6
ByLayer
370
-3
48
1
60
0
100
AcDbDimension
2
DimnDraft3D1
10
-42.75
20
25
30
0
11
-42.75
21
-4.784211
31
0
70
32
71
5
72
1
41
1
210
0
220
0
230
1
3
Standard
100
AcDbAlignedDimension
13
-2
23
-25
33
0
14
-2
24
25
34
0
50
90
100
AcDbRotatedDimension
1001
ACAD
1000
DSTYLE
1002
{
1070
    74
1070
     0
1070
   279
1070
     0
1070
   172
1070
     1
1070
   173
1070
     1
1070
   340
1005
103
1070
    77
1070
     1
1070
    73
1070
     0
1070
   171
1070
     4
1070
   274
1070
     4
1070
   177
1070
     2
1070
   176
1070
     2
1070
   178
1070
     7
1070
    78
1070
     8
1070
    41
1041
3.175
1070
   147
1041
2.25
1070
    42
1041
2.0
1070
    44
1041
2.0
1070
   140
1041
4.5
1070
   343
1005
137
1070
   344
1005
137
1002
}
0
DIMENSION
5
149
100
AcDbEntity
8
2
62
256
6
ByLayer
370
-3
48
1
60
0
100
AcDbDimension
2
DimnDraft3D2
10
38.75
20
10
30
0
11
38.75
21
0
31
0
70
32
71
5
72
1
41
1
210
0
220
0
230
1
3
Standard
100
AcDbAlignedDimension
13
23.5
23
10
33
0
14
0
24
0
34
0
50
90
100
AcDbRotatedDimension
1001
ACAD
1000
DSTYLE
1002
{
1070
    74
1070
     0
1070
   279
1070
     0
1070
   172
1070
     1
1070
   173
1070
     1
1070
   340
1005
103
1070
    75
1070
     1
1070
    76
1070
     1
1070
    77
1070
     1
1070
    73
1070
     0
1070
   171
1070
     4
1070
   274
1070
     4
1070
   177
1070
     2
1070
   176
1070
     2
1070
   178
1070
     7
1070
    78
1070
     8
1070
    41
1041
3.175
1070
   147
1041
2.25
1070
    42
1041
2.0
1070
    44
1041
2.0
1070
   140
1041
4.5
1070
   343
1005
137
1070
   344
1005
137
1002
}
0
DIMENSION
5
157
100
AcDbEntity
8
2
62
256
6
ByLayer
370
-3
48
1
60
0
100
AcDbDimension
2
DimnDraft3D3
10
92.25
20
0
30
0
11
92.25
21
23.155
31
0
70
32
71
5
72
1
41
1
210
0
220
0
230
1
3
Standard
100
AcDbAlignedDimension
13
82
23
12.9
33
0
14
82
24
0
34
0
50
90
100
AcDbRotatedDimension
1001
ACAD
1000
DSTYLE
1002
{
1070
    74
1070
     0
1070
   279
1070
     0
1070
   172
1070
     1
1070
   173
1070
     1
1070
   340
1005
103
1070
    77
1070
     1
1070
    73
1070
     0
1070
   171
1070
     4
1070
   274
1070
     4
1070
   177
1070
     2
1070
   176
1070
     2
1070
   178
1070
     7
1070
    78
1070
     8
1070
    41
1041
3.175
1070
   147
1041
2.25
1070
    42
1041
2.0
1070
    44
1041
2.0
1070
   140
1041
4.5
1070
   343
1005
137
1070
   344
1005
137
1002
}
0
DIMENSION
5
165
100
AcDbEntity
8
2
62
256
6
ByLayer
370
-3
48
1
60
0
100
AcDbDimension
2
DimnDraft3D4
10
80
20
40.65
30
0
11
34.836842
21
40.65
31
0
70
32
71
5
72
1
41
1
210
0
220
0
230
1
3
Standard
100
AcDbAlignedDimension
13
0
23
27
33
0
14
80
24
14.9
34
0
50
0
100
AcDbRotatedDimension
1001
ACAD
1000
DSTYLE
1002
{
1070
   279
1070
     0
1070
   172
1070
     1
1070
   173
1070
     1
1070
   340
1005
103
1070
    77
1070
     1
1070
    73
1070
     0
1070
   171
1070
     4
1070
   274
1070
     4
1070
   177
1070
     2
1070
   176
1070
     2
1070
   178
1070
     7
1070
    78
1070
     8
1070
    41
1041
3.175
1070
   147
1041
2.25
1070
    42
1041
2.0
1070
    44
1041
2.0
1070
   140
1041
4.5
1070
   343
1005
137
1070
   344
1005
137
1002
}
0
DIMENSION
5
173
100
AcDbEntity
8
2
62
256
6
ByLayer
370
-3
48
1
60
0
100
AcDbDimension
2
DimnDraft3D5
10
80
20
25.65
30
0
11
46.586842
21
25.65
31
0
70
32
71
5
72
1
41
1
210
0
220
0
230
1
3
Standard
100
AcDbAlignedDimension
13
23.5
23
12
33
0
14
80
24
14.9
34
0
50
0
100
AcDbRotatedDimension
1001
ACAD
1000
DSTYLE
1002
{
1070
   279
1070
     0
1070
   172
1070
     1
1070
   173
1070
     1
1070
   340
1005
103
1070
    77
1070
     1
1070
    73
1070
     0
1070
   171
1070
     4
1070
   274
1070
     4
1070
   177
1070
     2
1070
   176
1070
     2
1070
   178
1070
     7
1070
    78
1070
     8
1070
    41
1041
3.175
1070
   147
1041
2.25
1070
    42
1041
2.0
1070
    44
1041
2.0
1070
   140
1041
4.5
1070
   343
1005
137
1070
   344
1005
137
1002
}
0
DIMENSION
5
181
100
AcDbEntity
8
2
62
256
6
ByLayer
370
-3
48
1
60
0
100
AcDbDimension
2
DimnDraft3D6
10
132.382951
20
0
30
0
11
115.02227
21
-32.251769
31
0
70
34
71
5
72
1
41
1
210
0
220
0
230
1
3
Standard
100
AcDb2LineAngularDimension
13
82.847009
23
2.274816
33
0
14
96.11963
24
-47.25928
34
0
15
82
25
0
35
0
16
117.115676
26
-25.82756
36
0
40
0
0
ENDSEC
0
SECTION
2
OBJECTS
0
DICTIONARY
5
1b2
330
0
100
AcDbDictionary
280
0
281
1
3
ACAD_GROUP
350
1b3
3
ACAD_MLINESTYLE
350
1b4
0
DICTIONARY
5
1b3
330
0
100
AcDbDictionary
280
0
281
1
0
DICTIONARY
5
1b4
330
0
100
AcDbDictionary
280
0
281
1
3
Standard
350
18
0
MLINESTYLE
5
18
330
1b4
100
AcDbMlineStyle
2
Standard
70
0
3

62
256
51
90
52
90
71
2
49
-0.5
62
256
6
ByLayer
49
0.5
62
256
6
ByLayer
0
RASTERVARIABLES
5
1a0
330

100
AcDbRasterVariables
90
0
70
1
71
1
72
1
0
ENDSEC
0
EOF
