0
SECTION
2
HEADER
9
$ACADVER
1
AC1015
9
$DWGCODEPAGE
3
ANSI_1252
9
$HANDSEED
5
173
9
$ANGBASE
50
0
9
$ANGDIR
70
0
9
$ATTMODE
70
1
9
$AUNITS
70
0
9
$AUPREC
70
0
9
$CECOLOR
62
256
9
$CELTSCALE
40
1
9
$CELTYPE
6
ByLayer
9
$CELWEIGHT
370
-1
9
$CLAYER
8
0
9
$CMLJUST
70
0
9
$CMLSCALE
40
1
9
$CMLSTYLE
2
Standard
9
$DIMSTYLE
2
Standard
9
$TEXTSIZE
40
0.2
9
$TEXTSTYLE
7
Standard
9
$LUNITS
70
2
9
$LUPREC
70
4
9
$EXTNAMES
290
1
9
$INSUNITS
70
4
9
$LTSCALE
40
1
9
$LWDISPLAY
290
0
9
$PDMODE
70
0
9
$PDSIZE
40
0
9
$PLINEGEN
70
0
0
ENDSEC
0
SECTION
2
CLASSES
0
CLASS
1
RASTERVARIABLES
2
AcDbRasterVariables
3
ISM
90
0
280
0
281
0
0
ENDSEC
0
SECTION
2
TABLES
0
TABLE
2
VPORT
5
169
100
AcDbSymbolTable
0
VPORT
5
1
100
AcDbSymbolTableRecord
100
AcDbViewportTableRecord
2
*Active
70
0
10
0
20
0
11
1
21
1
12
-1
22
1
13
0
23
0
14
0.5
24
0.5
15
10
25
10
16
0
26
0
36
1
17
0
27
0
37
0
0
ENDTAB
0
TABLE
2
LTYPE
5
16a
100
AcDbSymbolTable
0
LTYPE
5
14
100
AcDbSymbolTableRecord
100
AcDbLinetypeTableRecord
70
0
2
ByBlock
3

72
65
73
0
40
0
0
LTYPE
5
15
100
AcDbSymbolTableRecord
100
AcDbLinetypeTableRecord
70
0
2
ByLayer
3

72
65
73
0
40
0
0
LTYPE
5
16
100
AcDbSymbolTableRecord
100
AcDbLinetypeTableRecord
70
0
2
CONTINUOUS
3
Solid line
72
65
73
0
40
0
0
LTYPE
5
3B
100
AcDbSymbolTableRecord
100
AcDbLinetypeTableRecord
70
0
2
DASHED
3
__ __ __ __ __ __ __ __ __
72
65
73
2
40
25.72
49
12.86
74
0
49
-12.86
74
0
0
LTYPE
5
3C
100
AcDbSymbolTableRecord
100
AcDbLinetypeTableRecord
70
0
2
HIDDEN
3
_ _ _ _ _ _ _ _ _ _ _ _ _ _ _
72
65
73
2
40
0.5
49
0.25
74
0
49
-0.25
74
0
0
LTYPE
5
3D
100
AcDbSymbolTableRecord
100
AcDbLinetypeTableRecord
70
0
2
PHANTOM
3
____ _ _ ____ _ _ _____ _ _ ____
72
65
73
6
40
50.5
49
18
74
0
49
-6.5
74
0
49
6.5
74
0
49
-6.5
74
0
49
6.5
74
0
49
-6.5
74
0
0
LTYPE
5
3E
100
AcDbSymbolTableRecord
100
AcDbLinetypeTableRecord
70
0
2
CENTER
3
____ _ ____ _ ____ _ ____
72
65
73
4
40
47.5
49
22
74
0
49
-8.5
74
0
49
8.5
74
0
49
-8.5
74
0
0
LTYPE
5
3F
100
AcDbSymbolTableRecord
100
AcDbLinetypeTableRecord
70
0
2
DOT
3
.........................
72
65
73
2
40
10
49
0
74
0
49
-10
74
0
0
LTYPE
5
40
100
AcDbSymbolTableRecord
100
AcDbLinetypeTableRecord
70
0
2
DASHDOT
3
_._._._._._._._._._._._._._._._.
72
65
73
4
40
70
49
31
74
0
49
-13
74
0
49
13
74
0
49
-13
74
0
0
ENDTAB
0
TABLE
2
LAYER
5
16b
100
AcDbSymbolTable
0
LAYER
5
10
100
AcDbSymbolTableRecord
100
AcDbLayerTableRecord
2
0
70
0
62
7
6
CONTINUOUS
290
1
370
-3
390
0
0
LAYER
5
44
100
AcDbSymbolTableRecord
100
AcDbLayerTableRecord
2
81
70
0
62
-3
6
CONTINUOUS
290
1
370
-3
390
0
0
LAYER
5
46
100
AcDbSymbolTableRecord
100
AcDbLayerTableRecord
2
80
70
0
62
-6
6
CONTINUOUS
290
1
370
-3
390
0
0
LAYER
5
4B
100
AcDbSymbolTableRecord
100
AcDbLayerTableRecord
2
2
70
0
62
7
6
CONTINUOUS
290
1
370
-3
390
0
0
LAYER
5
4F
100
AcDbSymbolTableRecord
100
AcDbLayerTableRecord
2
1
70
0
62
4
6
CONTINUOUS
290
1
370
-3
390
0
0
LAYER
5
5C
100
AcDbSymbolTableRecord
100
AcDbLayerTableRecord
2
4
70
0
62
-2
6
CENTER
290
1
370
-3
390
0
0
LAYER
5
155
100
AcDbSymbolTableRecord
100
AcDbLayerTableRecord
2
SK2
70
0
62
7
6
CONTINUOUS
290
1
370
-3
390
0
0
LAYER
5
156
100
AcDbSymbolTableRecord
100
AcDbLayerTableRecord
2
SK4
70
0
62
2
6
CENTER
290
1
370
-3
390
0
0
LAYER
5
157
100
AcDbSymbolTableRecord
100
AcDbLayerTableRecord
2
SK1
70
0
62
4
6
CONTINUOUS
290
1
370
-3
390
0
0
LAYER
5
158
100
AcDbSymbolTableRecord
100
AcDbLayerTableRecord
2
SK6
70
0
62
5
6
CONTINUOUS
290
1
370
-3
390
0
0
ENDTAB
0
TABLE
2
STYLE
5
16c
100
AcDbSymbolTable
0
STYLE
5
11
100
AcDbSymbolTableRecord
100
AcDbTextStyleTableRecord
2
Standard
3
txt
70
0
71
0
40
0
41
1
42
0
50
0
0
STYLE
5
E0
100
AcDbSymbolTableRecord
100
AcDbTextStyleTableRecord
2
DEFAULT
3
simplex.shx
70
0
71
0
40
0
41
1
42
0
50
0
0
STYLE
5
103
100
AcDbSymbolTableRecord
100
AcDbTextStyleTableRecord
2
DWGDirectTextStyle
3
SIMPLEX
70
0
71
0
40
0
41
1
42
0
50
0
0
ENDTAB
0
TABLE
2
DIMSTYLE
5
16d
100
AcDbSymbolTable
100
AcDbDimStyleTable
0
DIMSTYLE
105
27
100
AcDbSymbolTableRecord
100
AcDbDimStyleTableRecord
2
Standard
70
0
3
<>
41
0.18
42
0.0625
44
0.18
140
0.18
147
0.09
73
0
74
0
77
1
271
2
275
0
278
52
280
0
340
11
0
ENDTAB
0
TABLE
2
VIEW
5
16e
100
AcDbSymbolTable
0
ENDTAB
0
TABLE
2
UCS
5
16f
100
AcDbSymbolTable
0
ENDTAB
0
TABLE
2
APPID
5
170
100
AcDbSymbolTable
0
APPID
5
12
100
AcDbSymbolTableRecord
100
AcDbRegAppTableRecord
2
ACAD
70
0
0
ENDTAB
0
TABLE
2
BLOCK_RECORD
5
171
100
AcDbSymbolTable
0
BLOCK_RECORD
5
1F
100
AcDbSymbolTableRecord
100
AcDbBlockTableRecord
2
*Model_Space
340
0
70
0
0
BLOCK_RECORD
5
1B
100
AcDbSymbolTableRecord
100
AcDbBlockTableRecord
2
*Paper_Space
340
0
70
0
0
BLOCK_RECORD
5
23
100
AcDbSymbolTableRecord
100
AcDbBlockTableRecord
2
*Paper_Space0
340
0
70
0
0
BLOCK_RECORD
5
105
100
AcDbSymbolTableRecord
100
AcDbBlockTableRecord
2
DimnDraft3D1
340
0
70
0
0
BLOCK_RECORD
5
113
100
AcDbSymbolTableRecord
100
AcDbBlockTableRecord
2
_CLOSED
340
0
70
0
0
BLOCK_RECORD
5
11A
100
AcDbSymbolTableRecord
100
AcDbBlockTableRecord
2
DimnDraft3D2
340
0
70
0
0
BLOCK_RECORD
5
128
100
AcDbSymbolTableRecord
100
AcDbBlockTableRecord
2
DimnDraft3D3
340
0
70
0
0
ENDTAB
0
ENDSEC
0
SECTION
2
BLOCKS
0
BLOCK
5
20
100
AcDbEntity
8
0
100
AcDbBlockBegin
2
*Model_Space
70
0
10
0
20
0
30
0
3
*Model_Space
0
ENDBLK
5
21
100
AcDbEntity
8
0
100
AcDbBlockEnd
0
BLOCK
5
1C
100
AcDbEntity
8
0
100
AcDbBlockBegin
2
*Paper_Space
70
0
10
0
20
0
30
0
3
*Paper_Space
0
ENDBLK
5
1D
100
AcDbEntity
8
0
100
AcDbBlockEnd
0
BLOCK
5
24
100
AcDbEntity
8
0
100
AcDbBlockBegin
2
*Paper_Space0
70
0
10
0
20
0
30
0
3
*Paper_Space0
0
ENDBLK
5
25
100
AcDbEntity
8
0
100
AcDbBlockEnd
0
BLOCK
5
110
100
AcDbEntity
8
0
100
AcDbBlockBegin
2
DimnDraft3D1
70
0
10
0
20
0
30
0
3
DimnDraft3D1
0
MTEXT
5
106
100
AcDbEntity
8
SK2
62
256
6
ByLayer
370
-1
48
1
60
0
100
AcDbMText
10
-40.875
20
-3.659211
30
0
210
0
220
0
230
1
1
\W01.000;\fsimplex.shx,bigfont.shx;%%c50 
40
4.5
41
0
44
1.084337
50
90
71
7
72
5
7
DEFAULT
0
LINE
5
107
100
AcDbEntity
8
SK2
62
256
6
ByLayer
370
-1
48
1
60
0
100
AcDbLine
10
-2
20
-25
30
0
11
-41.75
21
-25
31
0
39
0
210
0
220
0
230
1
0
LINE
5
108
100
AcDbEntity
8
SK2
62
256
6
ByLayer
370
-1
48
1
60
0
100
AcDbLine
10
-2
20
25
30
0
11
-41.75
21
25
31
0
39
0
210
0
220
0
230
1
0
LINE
5
109
100
AcDbEntity
8
SK2
62
256
6
ByLayer
370
-1
48
1
60
0
100
AcDbLine
10
-39.75
20
-25
30
0
11
-39.75
21
25
31
0
39
0
210
0
220
0
230
1
0
LINE
5
10A
100
AcDbEntity
8
SK2
62
256
6
ByLayer
370
-1
48
1
60
0
100
AcDbLine
10
-39.75
20
-25
30
0
11
-40.167997
21
-21.825002
31
0
39
0
210
0
220
0
230
1
0
LINE
5
10B
100
AcDbEntity
8
SK2
62
256
6
ByLayer
370
-1
48
1
60
0
100
AcDbLine
10
-39.75
20
-25
30
0
11
-39.332003
21
-21.824998
31
0
39
0
210
0
220
0
230
1
0
LINE
5
10C
100
AcDbEntity
8
SK2
62
256
6
ByLayer
370
-1
48
1
60
0
100
AcDbLine
10
-40.167997
20
-21.825002
30
0
11
-39.332003
21
-21.824998
31
0
39
0
210
0
220
0
230
1
0
LINE
5
10D
100
AcDbEntity
8
SK2
62
256
6
ByLayer
370
-1
48
1
60
0
100
AcDbLine
10
-39.75
20
25
30
0
11
-39.332003
21
21.825002
31
0
39
0
210
0
220
0
230
1
0
LINE
5
10E
100
AcDbEntity
8
SK2
62
256
6
ByLayer
370
-1
48
1
60
0
100
AcDbLine
10
-39.75
20
25
30
0
11
-40.167997
21
21.824998
31
0
39
0
210
0
220
0
230
1
0
LINE
5
10F
100
AcDbEntity
8
SK2
62
256
6
ByLayer
370
-1
48
1
60
0
100
AcDbLine
10
-39.332003
20
21.825002
30
0
11
-40.167997
21
21.824998
31
0
39
0
210
0
220
0
230
1
0
ENDBLK
5
111
100
AcDbEntity
8
0
100
AcDbBlockEnd
0
BLOCK
5
114
100
AcDbEntity
8
0
100
AcDbBlockBegin
2
_CLOSED
70
0
10
0
20
0
30
0
3
_CLOSED
0
LINE
5
116
100
AcDbEntity
8
0
62
256
6
ByLayer
370
-2
48
1
60
0
100
AcDbLine
10
-1
20
0.166667
30
0
11
0
21
0
31
0
39
0
210
0
220
0
230
1
0
LINE
5
117
100
AcDbEntity
8
0
62
256
6
ByLayer
370
-2
48
1
60
0
100
AcDbLine
10
0
20
0
30
0
11
-1
21
-0.166667
31
0
39
0
210
0
220
0
230
1
0
LINE
5
118
100
AcDbEntity
8
0
62
256
6
ByLayer
370
-2
48
1
60
0
100
AcDbLine
10
-1
20
0.166667
30
0
11
-1
21
-0.166667
31
0
39
0
210
0
220
0
230
1
0
LINE
5
119
100
AcDbEntity
8
0
62
256
6
ByLayer
370
-2
48
1
60
0
100
AcDbLine
10
0
20
0
30
0
11
-1
21
0
31
0
39
0
210
0
220
0
230
1
0
ENDBLK
5
115
100
AcDbEntity
8
0
100
AcDbBlockEnd
0
BLOCK
5
125
100
AcDbEntity
8
0
100
AcDbBlockBegin
2
DimnDraft3D2
70
0
10
0
20
0
30
0
3
DimnDraft3D2
0
MTEXT
5
11B
100
AcDbEntity
8
2
62
256
6
ByLayer
370
-1
48
1
60
0
100
AcDbMText
10
73.125
20
-19.003947
30
0
210
0
220
0
230
1
1
\W01.000;\fsimplex.shx,bigfont.shx;35 
40
4.5
41
0
44
1.084337
50
90
71
7
72
5
7
DEFAULT
0
LINE
5
11C
100
AcDbEntity
8
2
62
256
6
ByLayer
370
-1
48
1
60
0
100
AcDbLine
10
62
20
0
30
0
11
76.25
21
0
31
0
39
0
210
0
220
0
230
1
0
LINE
5
11D
100
AcDbEntity
8
2
62
256
6
ByLayer
370
-1
48
1
60
0
100
AcDbLine
10
62
20
-35
30
0
11
76.25
21
-35
31
0
39
0
210
0
220
0
230
1
0
LINE
5
11E
100
AcDbEntity
8
2
62
256
6
ByLayer
370
-1
48
1
60
0
100
AcDbLine
10
74.25
20
0
30
0
11
74.25
21
-35
31
0
39
0
210
0
220
0
230
1
0
LINE
5
11F
100
AcDbEntity
8
2
62
256
6
ByLayer
370
-1
48
1
60
0
100
AcDbLine
10
74.25
20
0
30
0
11
74.667997
21
-3.174998
31
0
39
0
210
0
220
0
230
1
0
LINE
5
120
100
AcDbEntity
8
2
62
256
6
ByLayer
370
-1
48
1
60
0
100
AcDbLine
10
74.25
20
0
30
0
11
73.832003
21
-3.175002
31
0
39
0
210
0
220
0
230
1
0
LINE
5
121
100
AcDbEntity
8
2
62
256
6
ByLayer
370
-1
48
1
60
0
100
AcDbLine
10
74.667997
20
-3.174998
30
0
11
73.832003
21
-3.175002
31
0
39
0
210
0
220
0
230
1
0
LINE
5
122
100
AcDbEntity
8
2
62
256
6
ByLayer
370
-1
48
1
60
0
100
AcDbLine
10
74.25
20
-35
30
0
11
73.832003
21
-31.825002
31
0
39
0
210
0
220
0
230
1
0
LINE
5
123
100
AcDbEntity
8
2
62
256
6
ByLayer
370
-1
48
1
60
0
100
AcDbLine
10
74.25
20
-35
30
0
11
74.667997
21
-31.824998
31
0
39
0
210
0
220
0
230
1
0
LINE
5
124
100
AcDbEntity
8
2
62
256
6
ByLayer
370
-1
48
1
60
0
100
AcDbLine
10
73.832003
20
-31.825002
30
0
11
74.667997
21
-31.824998
31
0
39
0
210
0
220
0
230
1
0
ENDBLK
5
126
100
AcDbEntity
8
0
100
AcDbBlockEnd
0
BLOCK
5
133
100
AcDbEntity
8
0
100
AcDbBlockBegin
2
DimnDraft3D3
70
0
10
0
20
0
30
0
3
DimnDraft3D3
0
MTEXT
5
129
100
AcDbEntity
8
2
62
256
6
ByLayer
370
-1
48
1
60
0
100
AcDbMText
10
28.496053
20
-58.125
30
0
210
0
220
0
230
1
1
\W01.000;\fsimplex.shx,bigfont.shx;60 
40
4.5
41
0
44
1.084337
50
0
71
7
72
5
7
DEFAULT
0
LINE
5
12A
100
AcDbEntity
8
2
62
256
6
ByLayer
370
-1
48
1
60
0
100
AcDbLine
10
0
20
-27
30
0
11
0
21
-61.25
31
0
39
0
210
0
220
0
230
1
0
LINE
5
12B
100
AcDbEntity
8
2
62
256
6
ByLayer
370
-1
48
1
60
0
100
AcDbLine
10
60
20
-37
30
0
11
60
21
-61.25
31
0
39
0
210
0
220
0
230
1
0
LINE
5
12C
100
AcDbEntity
8
2
62
256
6
ByLayer
370
-1
48
1
60
0
100
AcDbLine
10
0
20
-59.25
30
0
11
60
21
-59.25
31
0
39
0
210
0
220
0
230
1
0
LINE
5
12D
100
AcDbEntity
8
2
62
256
6
ByLayer
370
-1
48
1
60
0
100
AcDbLine
10
0
20
-59.25
30
0
11
3.174998
21
-58.832003
31
0
39
0
210
0
220
0
230
1
0
LINE
5
12E
100
AcDbEntity
8
2
62
256
6
ByLayer
370
-1
48
1
60
0
100
AcDbLine
10
0
20
-59.25
30
0
11
3.175002
21
-59.667997
31
0
39
0
210
0
220
0
230
1
0
LINE
5
12F
100
AcDbEntity
8
2
62
256
6
ByLayer
370
-1
48
1
60
0
100
AcDbLine
10
3.174998
20
-58.832003
30
0
11
3.175002
21
-59.667997
31
0
39
0
210
0
220
0
230
1
0
LINE
5
130
100
AcDbEntity
8
2
62
256
6
ByLayer
370
-1
48
1
60
0
100
AcDbLine
10
60
20
-59.25
30
0
11
56.825002
21
-59.667997
31
0
39
0
210
0
220
0
230
1
0
LINE
5
131
100
AcDbEntity
8
2
62
256
6
ByLayer
370
-1
48
1
60
0
100
AcDbLine
10
60
20
-59.25
30
0
11
56.824998
21
-58.832003
31
0
39
0
210
0
220
0
230
1
0
LINE
5
132
100
AcDbEntity
8
2
62
256
6
ByLayer
370
-1
48
1
60
0
100
AcDbLine
10
56.825002
20
-59.667997
30
0
11
56.824998
21
-58.832003
31
0
39
0
210
0
220
0
230
1
0
ENDBLK
5
134
100
AcDbEntity
8
0
100
AcDbBlockEnd
0
ENDSEC
0
SECTION
2
ENTITIES
0
ARC
5
85
100
AcDbEntity
8
SK1
62
256
6
ByLayer
370
-1
48
1
60
0
100
AcDbCircle
39
0
10
0.6
20
-18.75
30
0
40
1.00000000000001
210
0
220
0
230
-1
100
AcDbArc
50
113.578178
51
126.869898
0
ARC
5
86
100
AcDbEntity
8
SK1
62
256
6
ByLayer
370
-1
48
1
60
0
100
AcDbCircle
39
0
10
0.6
20
18.75
30
0
40
1.00000000000001
210
0
220
0
230
-1
100
AcDbArc
50
233.130102
51
246.421822
0
ARC
5
87
100
AcDbEntity
8
1
62
256
6
ByLayer
370
-1
48
1
60
0
100
AcDbCircle
39
0
10
-33.445895
20
-34.8
30
0
40
10.2
210
0
220
0
230
-1
100
AcDbArc
50
88.363448
51
120
0
ARC
5
88
100
AcDbEntity
8
1
62
256
6
ByLayer
370
-1
48
1
60
0
100
AcDbCircle
39
0
10
53.863741
20
-28.863741
30
0
40
5.83000000000004
210
0
220
0
230
1
100
AcDbArc
50
155.168996
51
163.533974
0
ARC
5
89
100
AcDbEntity
8
1
62
256
6
ByLayer
370
-1
48
1
60
0
100
AcDbCircle
39
0
10
-31.462558
20
15.174909
30
0
40
10.2
210
0
220
0
230
-1
100
AcDbArc
50
315
51
339.831828
0
ARC
5
8A
100
AcDbEntity
8
1
62
256
6
ByLayer
370
-1
48
1
60
0
100
AcDbCircle
39
0
10
52.020101
20
-27.020101
30
0
40
3.5
210
0
220
0
230
1
100
AcDbArc
50
99.947824
51
170.052176
0
ARC
5
8B
100
AcDbEntity
8
1
62
256
6
ByLayer
370
-1
48
1
60
0
100
AcDbCircle
39
0
10
53.863741
20
-28.863741
30
0
40
5.83000000000004
210
0
220
0
230
1
100
AcDbArc
50
106.466026
51
114.831004
0
ARC
5
8D
100
AcDbEntity
8
1
62
256
6
ByLayer
370
-1
48
1
60
0
100
AcDbCircle
39
0
10
-54
20
-29
30
0
40
1.2065
210
0
220
0
230
-1
100
AcDbArc
50
318.955279
51
15.079943
0
ARC
5
8E
100
AcDbEntity
8
1
62
256
6
ByLayer
370
-1
48
1
60
0
100
AcDbCircle
39
0
10
54
20
-29
30
0
40
1.2065
210
0
220
0
230
1
100
AcDbArc
50
41.044721
51
48.955279
0
ARC
5
8F
100
AcDbEntity
8
1
62
256
6
ByLayer
370
-1
48
1
60
0
100
AcDbCircle
39
0
10
54
20
-29
30
0
40
1.6765
210
0
220
0
230
1
100
AcDbArc
50
194.840113
51
255.159887
0
ARC
5
90
100
AcDbEntity
8
1
62
256
6
ByLayer
370
-1
48
1
60
0
100
AcDbCircle
39
0
10
54
20
-29
30
0
40
1.6765
210
0
220
0
230
1
100
AcDbArc
50
255.159887
51
315
0
ARC
5
92
100
AcDbEntity
8
1
62
256
6
ByLayer
370
-1
48
1
60
0
100
AcDbCircle
39
0
10
-54
20
-29
30
0
40
1.2065
210
0
220
0
230
-1
100
AcDbArc
50
74.920057
51
131.044721
0
ARC
5
93
100
AcDbEntity
8
1
62
256
6
ByLayer
370
-1
48
1
60
0
100
AcDbCircle
39
0
10
-54
20
-29
30
0
40
1.2065
210
0
220
0
230
-1
100
AcDbArc
50
254.920057
51
311.044721
0
ARC
5
94
100
AcDbEntity
8
1
62
256
6
ByLayer
370
-1
48
1
60
0
100
AcDbCircle
39
0
10
54
20
-29
30
0
40
1.6765
210
0
220
0
230
1
100
AcDbArc
50
315
51
14.840113
0
ARC
5
96
100
AcDbEntity
8
1
62
256
6
ByLayer
370
-1
48
1
60
0
100
AcDbCircle
39
0
10
54
20
-29
30
0
40
1.6765
210
0
220
0
230
1
100
AcDbArc
50
75.159887
51
135
0
ARC
5
99
100
AcDbEntity
8
1
62
256
6
ByLayer
370
-1
48
1
60
0
100
AcDbCircle
39
0
10
-54
20
-29
30
0
40
1.2065
210
0
220
0
230
-1
100
AcDbArc
50
138.955279
51
195.079943
0
ARC
5
9A
100
AcDbEntity
8
1
62
256
6
ByLayer
370
-1
48
1
60
0
100
AcDbCircle
39
0
10
-54
20
-29
30
0
40
1.2065
210
0
220
0
230
-1
100
AcDbArc
50
15.079943
51
74.920057
0
ARC
5
9C
100
AcDbEntity
8
1
62
256
6
ByLayer
370
-1
48
1
60
0
100
AcDbCircle
39
0
10
54
20
-29
30
0
40
1.2065
210
0
220
0
230
1
100
AcDbArc
50
221.044721
51
228.955279
0
ARC
5
9D
100
AcDbEntity
8
1
62
256
6
ByLayer
370
-1
48
1
60
0
100
AcDbCircle
39
0
10
-54
20
-29
30
0
40
1.2065
210
0
220
0
230
-1
100
AcDbArc
50
195.079943
51
254.920057
0
ARC
5
9E
100
AcDbEntity
8
1
62
256
6
ByLayer
370
-1
48
1
60
0
100
AcDbCircle
39
0
10
54
20
-29
30
0
40
1.6765
210
0
220
0
230
1
100
AcDbArc
50
14.840113
51
75.159887
0
ARC
5
9F
100
AcDbEntity
8
1
62
256
6
ByLayer
370
-1
48
1
60
0
100
AcDbCircle
39
0
10
54
20
-29
30
0
40
1.6765
210
0
220
0
230
1
100
AcDbArc
50
135
51
194.840113
0
CIRCLE
5
8C
100
AcDbEntity
8
1
62
256
6
ByLayer
370
-1
48
1
60
0
100
AcDbCircle
10
54
20
-29
30
0
40
2.99999999999999
39
0
210
0
220
0
230
1
0
CIRCLE
5
91
100
AcDbEntity
8
1
62
256
6
ByLayer
370
-1
48
1
60
0
100
AcDbCircle
10
54
20
-29
30
0
40
3.07132534818238
39
0
210
0
220
0
230
1
0
CIRCLE
5
95
100
AcDbEntity
8
1
62
256
6
ByLayer
370
-1
48
1
60
0
100
AcDbCircle
10
54
20
-29
30
0
40
2.625
39
0
210
0
220
0
230
1
0
CIRCLE
5
97
100
AcDbEntity
8
1
62
256
6
ByLayer
370
-1
48
1
60
0
100
AcDbCircle
10
54
20
-29
30
0
40
2.92793707720186
39
0
210
0
220
0
230
1
0
CIRCLE
5
98
100
AcDbEntity
8
1
62
256
6
ByLayer
370
-1
48
1
60
0
100
AcDbCircle
10
54
20
-29
30
0
40
1.79999999999999
39
0
210
0
220
0
230
1
0
CIRCLE
5
9B
100
AcDbEntity
8
1
62
256
6
ByLayer
370
-1
48
1
60
0
100
AcDbCircle
10
54
20
-29
30
0
40
6
39
0
210
0
220
0
230
1
0
ELLIPSE
5
A0
100
AcDbEntity
8
1
62
256
6
ByLayer
370
-1
48
1
60
0
100
AcDbEllipse
10
-1.056258
20
0
30
0
11
-11.7092723497278
21
24.6771864409381
31
0
210
0
220
0
230
1
40
0.341999
41
-2.97437958168082
42
-2.05975995310054
0
ELLIPSE
5
A1
100
AcDbEntity
8
1
62
256
6
ByLayer
370
-1
48
1
60
0
100
AcDbEllipse
10
18.187217
20
0
30
0
11
1.53075794227797E-15
21
25
31
0
210
0
220
0
230
1
40
0.087489
41
0.130222821956013
42
3.01136983163378
0
ELLIPSE
5
A2
100
AcDbEntity
8
1
62
256
6
ByLayer
370
-1
48
1
60
0
100
AcDbEllipse
10
21.056258
20
0
30
0
11
-11.7092723497278
21
24.6771864409381
31
0
210
0
220
0
230
1
40
0.341999
41
0.167213071908976
42
1.08183270048926
0
ELLIPSE
5
A3
100
AcDbEntity
8
1
62
256
6
ByLayer
370
-1
48
1
60
0
100
AcDbEllipse
10
-1.056258
20
0
30
0
11
-11.7092723497271
21
-24.6771864409373
31
0
210
0
220
0
230
1
40
0.341999
41
2.05975995310051
42
2.97437958168082
0
ELLIPSE
5
A4
100
AcDbEntity
8
1
62
256
6
ByLayer
370
-1
48
1
60
0
100
AcDbEllipse
10
17.100931
20
-9.5969
30
0
11
-0.0559149480246497
21
6.21221149854628
31
0
210
0
220
0
230
1
40
0.079015
41
-1.24032158045435
42
0.388798745750238
0
ELLIPSE
5
A5
100
AcDbEntity
8
1
62
256
6
ByLayer
370
-1
48
1
60
0
100
AcDbEllipse
10
17.100931
20
-9.5969
30
0
11
-0.0559149480246497
21
6.21221149854628
31
0
210
0
220
0
230
1
40
0.079015
41
0.388798745750238
42
-1.9427621206687
0
ELLIPSE
5
A6
100
AcDbEntity
8
1
62
256
6
ByLayer
370
-1
48
1
60
0
100
AcDbEllipse
10
21.056258
20
0
30
0
11
-11.7092723497275
21
-24.6771864409378
31
0
210
0
220
0
230
1
40
0.341999
41
-1.08183270048927
42
-0.167213071908978
0
ELLIPSE
5
A7
100
AcDbEntity
8
1
62
256
6
ByLayer
370
-1
48
1
60
0
100
AcDbEllipse
10
18.190908
20
-10.159193
30
0
11
0.916931731492063
21
1.7774240348839
31
0
210
0
220
0
230
1
40
0.139384
41
-3.14158125812948
42
-1.83468418934962
0
ELLIPSE
5
A8
100
AcDbEntity
8
1
62
256
6
ByLayer
370
-1
48
1
60
0
100
AcDbEllipse
10
18.190908
20
-10.159193
30
0
11
0.916931731492063
21
1.7774240348839
31
0
210
0
220
0
230
1
40
0.139384
41
-1.83468418934961
42
0
0
ELLIPSE
5
A9
100
AcDbEntity
8
1
62
256
6
ByLayer
370
-1
48
1
60
0
100
AcDbEllipse
10
18.366916
20
-10.249992
30
0
11
-0.825238558342857
21
-1.59968163139551
31
0
210
0
220
0
230
1
40
0.139384
41
0.141186578725486
42
3.00042856135676
0
POINT
5
41
100
AcDbEntity
8
SK2
62
256
6
ByLayer
370
-1
48
1
60
0
100
AcDbPoint
10
60
20
35
30
0
39
0
210
0
220
0
230
1
50
360
0
POINT
5
43
100
AcDbEntity
8
81
62
256
6
ByLayer
370
-1
48
1
60
0
100
AcDbPoint
10
60
20
-35
30
0
39
0
210
0
220
0
230
1
50
360
0
POINT
5
45
100
AcDbEntity
8
80
62
256
6
ByLayer
370
-1
48
1
60
0
100
AcDbPoint
10
0
20
0
30
0
39
0
210
0
220
0
230
1
50
360
0
POINT
5
47
100
AcDbEntity
8
SK2
62
256
6
ByLayer
370
-1
48
1
60
0
100
AcDbPoint
10
60
20
35
30
0
39
0
210
0
220
0
230
1
50
360
0
POINT
5
48
100
AcDbEntity
8
SK2
62
256
6
ByLayer
370
-1
48
1
60
0
100
AcDbPoint
10
60
20
35
30
0
39
0
210
0
220
0
230
1
50
360
0
POINT
5
49
100
AcDbEntity
8
SK2
62
256
6
ByLayer
370
-1
48
1
60
0
100
AcDbPoint
10
110
20
85
30
0
39
0
210
0
220
0
230
1
50
360
0
POINT
5
4A
100
AcDbEntity
8
2
62
256
6
ByLayer
370
-1
48
1
60
0
100
AcDbPoint
10
60
20
35
30
0
39
0
210
0
220
0
230
1
50
360
0
POINT
5
4C
100
AcDbEntity
8
SK2
62
256
6
ByLayer
370
-1
48
1
60
0
100
AcDbPoint
10
60
20
35
30
0
39
0
210
0
220
0
230
1
50
360
0
POINT
5
4D
100
AcDbEntity
8
SK2
62
256
6
ByLayer
370
-1
48
1
60
0
100
AcDbPoint
10
110
20
85
30
0
39
0
210
0
220
0
230
1
50
360
0
SPLINE
5
AA
100
AcDbEntity
8
SK1
62
256
6
ByLayer
370
-1
48
1
60
0
100
AcDbSpline
70
4
71
3
72
13
73
9
40
0
40
0
40
0
40
0
40
0.239456135686331
40
0.368359721834698
40
0.499998983918301
40
0.631638415195123
40
0.760542467717019
40
1
40
1
40
1
40
1
41
1
10
-2.19999999999999
20
-17.5200987347078
30
0
41
1
10
-2.19909198642127
20
-17.4940412586114
30
0
41
1
10
-2.19103284106792
20
-17.4566686743028
30
0
41
1
10
-2.16563592203168
20
-17.4104495005038
30
0
41
1
10
-2.13886378679055
20
-17.3791679466684
30
0
41
1
10
-2.10627712749673
20
-17.3540005764861
30
0
41
1
10
-2.05884064233987
20
-17.3309567740351
30
0
41
1
10
-2.02111030872966
20
-17.324784519015
30
0
41
1
10
-1.9950399779393
20
-17.3251861589552
30
0
0
SPLINE
5
AB
100
AcDbEntity
8
SK1
62
256
6
ByLayer
370
-1
48
1
60
0
100
AcDbSpline
70
4
71
3
72
13
73
9
40
0
40
0
40
0
40
0
40
0.23945753223757
40
0.368361584743898
40
0.500001016014717
40
0.63164027810347
40
0.760543864266968
40
1
40
1
40
1
40
1
41
1
10
-1.9950399779393
20
17.3251859759625
30
0
41
1
10
-2.02111030873063
20
17.3247843360228
30
0
41
1
10
-2.05884064234172
20
17.3309565910454
30
0
41
1
10
-2.10627712749809
20
17.3540003935064
30
0
41
1
10
-2.13886378679183
20
17.3791677636995
30
0
41
1
10
-2.16563592203264
20
17.410449317548
30
0
41
1
10
-2.19103284106865
20
17.4566684913667
30
0
41
1
10
-2.19909198642199
20
17.4940410756898
30
0
41
1
10
-2.2
20
17.520098551796
30
0
0
SPLINE
5
AC
100
AcDbEntity
8
SK1
62
256
6
ByLayer
370
-1
48
1
60
0
100
AcDbSpline
70
4
71
2
72
6
73
3
40
0
40
0
40
0
40
1
40
1
40
1
41
1
10
-28.5
20
-16.854272429841
30
0
41
1
10
-15.3499999999294
20
-17.1845422725478
30
0
41
1
10
-2.2
20
-17.5148117187522
30
0
0
SPLINE
5
AD
100
AcDbEntity
8
SK1
62
256
6
ByLayer
370
-1
48
1
60
0
100
AcDbSpline
70
4
71
2
72
6
73
3
40
0
40
0
40
0
40
1
40
1
40
1
41
1
10
-2.19999999999999
20
17.5148116792767
30
0
41
1
10
-15.3499999999286
20
17.1845422635703
30
0
41
1
10
-28.5
20
16.8542724489282
30
0
0
SPLINE
5
AE
100
AcDbEntity
8
SK1
62
256
6
ByLayer
370
-1
48
1
60
0
100
AcDbSpline
70
4
71
2
72
6
73
3
40
0
40
0
40
0
40
1
40
1
40
1
41
1
10
-1.9950399779393
20
-17.3199593319919
30
0
41
1
10
-1.19500843340704
20
-17.3400525762132
30
0
41
1
10
-0.394976888875291
20
-17.3601458189993
30
0
0
SPLINE
5
AF
100
AcDbEntity
8
SK1
62
256
6
ByLayer
370
-1
48
1
60
0
100
AcDbSpline
70
4
71
2
72
6
73
3
40
0
40
0
40
0
40
1
40
1
40
1
41
1
10
-0.394976888875291
20
17.3601457933935
30
0
41
1
10
-1.19500843340704
20
17.340052552406
30
0
41
1
10
-1.9950399779393
20
17.3199593099743
30
0
0
SPLINE
5
B0
100
AcDbEntity
8
SK1
62
256
6
ByLayer
370
-1
48
1
60
0
100
AcDbSpline
70
4
71
2
72
6
73
3
40
0
40
0
40
0
40
1
40
1
40
1
41
1
10
-28.5
20
16.8584504491481
30
0
41
1
10
-29.2499999991495
20
16.4254650261933
30
0
41
1
10
-30
20
15.9924794145163
30
0
0
SPLINE
5
B1
100
AcDbEntity
8
SK1
62
256
6
ByLayer
370
-1
48
1
60
0
100
AcDbSpline
70
4
71
2
72
6
73
3
40
0
40
0
40
0
40
1
40
1
40
1
41
1
10
-30
20
-15.99247954079
30
0
41
1
10
-29.2499999991496
20
-16.4254651505507
30
0
41
1
10
-28.5
20
-16.8584505716142
30
0
0
SPLINE
5
B2
100
AcDbEntity
8
SK1
62
256
6
ByLayer
370
-1
48
1
60
0
100
AcDbSpline
70
4
71
2
72
6
73
3
40
0
40
0
40
0
40
1
40
1
40
1
41
1
10
-0.258658740615687
20
17.4310145299901
30
0
41
1
10
-0.305277226309741
20
17.3671842624703
30
0
41
1
10
-0.394976888875291
20
17.359696795897
30
0
0
SPLINE
5
B3
100
AcDbEntity
8
SK1
62
256
6
ByLayer
370
-1
48
1
60
0
100
AcDbSpline
70
4
71
2
72
6
73
3
40
0
40
0
40
0
40
1
40
1
40
1
41
1
10
-0.394976888875291
20
-17.3596982935394
30
0
41
1
10
-0.305123774552598
20
-17.3672404580573
30
0
41
1
10
-0.258442643302431
20
-17.4312381196178
30
0
0
SPLINE
5
B4
100
AcDbEntity
8
1
62
256
6
ByLayer
370
-1
48
1
60
0
100
AcDbSpline
70
4
71
2
72
6
73
3
40
0
40
0
40
0
40
1
40
1
40
1
41
1
10
8.88693392147221
20
-10.708656536125
30
0
41
1
10
8.88918095878326
20
-10.7818231000003
30
0
41
1
10
8.89142670140684
20
-10.8549625700176
30
0
0
SPLINE
5
B5
100
AcDbEntity
8
1
62
256
6
ByLayer
370
-1
48
1
60
0
100
AcDbSpline
70
4
71
3
72
8
73
4
40
0
40
0
40
0
40
0
40
1
40
1
40
1
40
1
41
1
10
21.8879741929458
20
11.6581859624478
30
0
41
1
10
21.6872703130755
20
12.2046196309485
30
0
41
1
10
21.5329819685099
20
12.7702796122192
30
0
41
1
10
21.4284446003909
20
13.342815709754
30
0
0
SPLINE
5
B6
100
AcDbEntity
8
1
62
256
6
ByLayer
370
-1
48
1
60
0
100
AcDbSpline
70
4
71
3
72
16
73
12
40
0
40
0
40
0
40
0
40
0.111430279628047
40
0.111430279628047
40
0.248747543515467
40
0.248747543515467
40
0.465535329195252
40
0.465535329195252
40
0.883855351867553
40
0.883855351867553
40
1
40
1
40
1
40
1
41
1
10
8.53867513459481
20
7.52966679426501
30
0
41
1
10
8.51081528400579
20
7.52966679426501
30
0
41
1
10
8.48260885722448
20
7.53471706780857
30
0
41
1
10
8.42415079676071
20
7.55489210221029
30
0
41
1
10
8.39395861076943
20
7.57218953888446
30
0
41
1
10
8.32484624564245
20
7.62460019394089
30
0
41
1
10
8.28921459142954
20
7.66489294253907
30
0
41
1
10
8.20100610925398
20
7.78941367630352
30
0
41
1
10
8.16026799314912
20
7.88247511004147
30
0
41
1
10
8.12070829847319
20
8.00269269538009
30
0
41
1
10
8.11283840142688
20
8.02920008991578
30
0
41
1
10
8.10566243270245
20
8.05584836782771
30
0
0
SPLINE
5
B7
100
AcDbEntity
8
1
62
256
6
ByLayer
370
-1
48
1
60
0
100
AcDbSpline
70
4
71
3
72
16
73
12
40
0
40
0
40
0
40
0
40
0.111430279628052
40
0.111430279628052
40
0.248747543515474
40
0.248747543515474
40
0.465535329195271
40
0.465535329195271
40
0.883855351867598
40
0.883855351867598
40
1
40
1
40
1
40
1
41
1
10
11.4613248654052
20
23.8391299750503
30
0
41
1
10
11.4891847159942
20
23.8391299750503
30
0
41
1
10
11.5173911427755
20
23.8375361275706
30
0
41
1
10
11.5758492032393
20
23.831150658589
30
0
41
1
10
11.6060413892306
20
23.825666877018
30
0
41
1
10
11.6751537543576
20
23.8089605749788
30
0
41
1
10
11.7107854085705
20
23.796037970776
30
0
41
1
10
11.798993890746
20
23.7556824246832
30
0
41
1
10
11.8397320068509
20
23.7250165399981
30
0
41
1
10
11.8792917015268
20
23.6845451449633
30
0
41
1
10
11.8871615985731
20
23.6755726082078
30
0
41
1
10
11.8943375672976
20
23.6665017920809
30
0
0
SPLINE
5
B8
100
AcDbEntity
8
1
62
256
6
ByLayer
370
-1
48
1
60
0
100
AcDbSpline
70
4
71
3
72
16
73
12
40
0
40
0
40
0
40
0
40
0.111430279628047
40
0.111430279628047
40
0.248747543515475
40
0.248747543515475
40
0.465535329195272
40
0.465535329195272
40
0.883855351867603
40
0.883855351867603
40
1
40
1
40
1
40
1
41
1
10
11.4613248654052
20
-7.52966679426504
30
0
41
1
10
11.4891847159942
20
-7.52966679426504
30
0
41
1
10
11.5173911427755
20
-7.53471706780854
30
0
41
1
10
11.5758492032393
20
-7.55489210221029
30
0
41
1
10
11.6060413892306
20
-7.57218953888446
30
0
41
1
10
11.6751537543576
20
-7.62460019394089
30
0
41
1
10
11.7107854085705
20
-7.66489294253907
30
0
41
1
10
11.798993890746
20
-7.78941367630352
30
0
41
1
10
11.8397320068509
20
-7.8824751100415
30
0
41
1
10
11.8792917015268
20
-8.00269269538009
30
0
41
1
10
11.8871615985731
20
-8.02920008991578
30
0
41
1
10
11.8943375672976
20
-8.05584836782771
30
0
0
SPLINE
5
B9
100
AcDbEntity
8
1
62
256
6
ByLayer
370
-1
48
1
60
0
100
AcDbSpline
70
4
71
3
72
12
73
8
40
0
40
0
40
0
40
0
40
0.428827924949489
40
0.428827924949489
40
0.857742686358445
40
0.857742686358445
40
1
40
1
40
1
40
1
41
1
10
17.9031954005788
20
24.7883245941616
30
0
41
1
10
17.9416632909447
20
24.8459081354276
30
0
41
1
10
18.0557429024333
20
24.8911338433052
30
0
41
1
10
18.4185989275181
20
24.9548888240128
30
0
41
1
10
18.6723859760918
20
24.9744898758592
30
0
41
1
10
19.0796164134687
20
24.989197345384
30
0
41
1
10
19.18774794809
20
24.9919864349078
30
0
41
1
10
19.3010812077232
20
24.9940783806346
30
0
0
SPLINE
5
BA
100
AcDbEntity
8
1
62
256
6
ByLayer
370
-1
48
1
60
0
100
AcDbSpline
70
4
71
3
72
16
73
12
40
0
40
0
40
0
40
0
40
0.461208588217095
40
0.461208588217095
40
0.643534962278547
40
0.643534962278547
40
0.828408472975285
40
0.828408472975285
40
0.943003644159988
40
0.943003644159988
40
1
40
1
40
1
40
1
41
1
10
8.1056624327026
20
23.6665017920809
30
0
41
1
10
8.13394960848487
20
23.7022583261632
30
0
41
1
10
8.17266608070922
20
23.7370095736338
30
0
41
1
10
8.25268397516849
20
23.7800170858174
30
0
41
1
10
8.27872153625232
20
23.7917125768793
30
0
41
1
10
8.33934560108361
20
23.8127037684951
30
0
41
1
10
8.37482777731263
20
23.8222104320954
30
0
41
1
10
8.44007741480422
20
23.8331586856493
30
0
41
1
10
8.46752172250564
20
23.836332378473
30
0
41
1
10
8.50983152523006
20
23.8387183279986
30
0
41
1
10
8.5242826069246
20
23.8391299750505
30
0
41
1
10
8.53867513459475
20
23.8391299750505
30
0
0
SPLINE
5
BB
100
AcDbEntity
8
1
62
256
6
ByLayer
370
-1
48
1
60
0
100
AcDbSpline
70
4
71
3
72
16
73
12
40
0
40
0
40
0
40
0
40
0.461208588217088
40
0.461208588217088
40
0.643534962278544
40
0.643534962278544
40
0.82840847297529
40
0.82840847297529
40
0.943003644159989
40
0.943003644159989
40
1
40
1
40
1
40
1
41
1
10
8.1056624327026
20
-8.05584836782774
30
0
41
1
10
8.13394960848487
20
-7.95080268681445
30
0
41
1
10
8.17266608070922
20
-7.84628670970801
30
0
41
1
10
8.25268397516849
20
-7.71442469145123
30
0
41
1
10
8.27872153625232
20
-7.67825379650728
30
0
41
1
10
8.33934560108361
20
-7.61290523367228
30
0
41
1
10
8.37482777731262
20
-7.5830592305141
30
0
41
1
10
8.44007741480422
20
-7.54855881865589
30
0
41
1
10
8.46752172250564
20
-7.5385201810229
30
0
41
1
10
8.50983152523006
20
-7.53097042135255
30
0
41
1
10
8.5242826069246
20
-7.52966679426473
30
0
41
1
10
8.53867513459474
20
-7.52966679426473
30
0
0
SPLINE
5
BC
100
AcDbEntity
8
1
62
256
6
ByLayer
370
-1
48
1
60
0
100
AcDbSpline
70
4
71
3
72
16
73
12
40
0
40
0
40
0
40
0
40
0.11143027962805
40
0.11143027962805
40
0.248747543515472
40
0.248747543515472
40
0.465535329195252
40
0.465535329195252
40
0.88385535186756
40
0.88385535186756
40
1
40
1
40
1
40
1
41
1
10
8.53867513459481
20
-23.8391299750503
30
0
41
1
10
8.51081528400579
20
-23.8391299750503
30
0
41
1
10
8.48260885722448
20
-23.8375361275706
30
0
41
1
10
8.42415079676071
20
-23.831150658589
30
0
41
1
10
8.39395861076943
20
-23.825666877018
30
0
41
1
10
8.32484624564245
20
-23.8089605749788
30
0
41
1
10
8.28921459142956
20
-23.796037970776
30
0
41
1
10
8.201006109254
20
-23.7556824246832
30
0
41
1
10
8.16026799314912
20
-23.7250165399981
30
0
41
1
10
8.12070829847319
20
-23.6845451449633
30
0
41
1
10
8.11283840142688
20
-23.6755726082077
30
0
41
1
10
8.10566243270245
20
-23.6665017920809
30
0
0
SPLINE
5
BD
100
AcDbEntity
8
1
62
256
6
ByLayer
370
-1
48
1
60
0
100
AcDbSpline
70
4
71
3
72
16
73
12
40
0
40
0
40
0
40
0
40
0.461208588217085
40
0.461208588217085
40
0.643534962278541
40
0.643534962278541
40
0.828408472975291
40
0.828408472975291
40
0.943003644159993
40
0.943003644159993
40
1
40
1
40
1
40
1
41
1
10
11.8943375672974
20
-23.6665017920809
30
0
41
1
10
11.8660503915152
20
-23.7022583261632
30
0
41
1
10
11.8273339192908
20
-23.7370095736338
30
0
41
1
10
11.7473160248315
20
-23.7800170858174
30
0
41
1
10
11.7212784637477
20
-23.7917125768793
30
0
41
1
10
11.6606543989164
20
-23.8127037684951
30
0
41
1
10
11.6251722226874
20
-23.8222104320954
30
0
41
1
10
11.5599225851958
20
-23.8331586856493
30
0
41
1
10
11.5324782774944
20
-23.836332378473
30
0
41
1
10
11.4901684747699
20
-23.8387183279986
30
0
41
1
10
11.4757173930754
20
-23.8391299750505
30
0
41
1
10
11.4613248654053
20
-23.8391299750505
30
0
0
SPLINE
5
BE
100
AcDbEntity
8
1
62
256
6
ByLayer
370
-1
48
1
60
0
100
AcDbSpline
70
4
71
3
72
12
73
8
40
0
40
0
40
0
40
0
40
0.313024174000333
40
0.313024174000333
40
0.720825404125866
40
0.720825404125866
40
1
40
1
40
1
40
1
41
1
10
19.4334589728501
20
-24.9961869433149
30
0
41
1
10
19.1629506124517
20
-24.9925148513517
30
0
41
1
10
18.9177033127413
20
-24.9854897567689
30
0
41
1
10
18.4391851508127
20
-24.9562504860304
30
0
41
1
10
18.2259591711871
20
-24.9293375040847
30
0
41
1
10
17.9918769236217
20
-24.862065298816
30
0
41
1
10
17.9297848082607
20
-24.8281269394403
30
0
41
1
10
17.9031954005788
20
-24.7883245941616
30
0
0
SPLINE
5
BF
100
AcDbEntity
8
1
62
256
6
ByLayer
370
-1
48
1
60
0
100
AcDbSpline
70
4
71
3
72
16
73
12
40
0
40
0
40
0
40
0
40
0.461208588217066
40
0.461208588217066
40
0.643534962278522
40
0.643534962278522
40
0.828408472975271
40
0.828408472975271
40
0.943003644159981
40
0.943003644159981
40
1
40
1
40
1
40
1
41
1
10
11.8943375672974
20
8.05584836782774
30
0
41
1
10
11.8660503915152
20
7.95080268681445
30
0
41
1
10
11.8273339192908
20
7.84628670970801
30
0
41
1
10
11.7473160248315
20
7.71442469145123
30
0
41
1
10
11.7212784637477
20
7.67825379650728
30
0
41
1
10
11.6606543989164
20
7.61290523367228
30
0
41
1
10
11.6251722226874
20
7.58305923051407
30
0
41
1
10
11.5599225851958
20
7.54855881865589
30
0
41
1
10
11.5324782774944
20
7.5385201810229
30
0
41
1
10
11.49016847477
20
7.53097042135255
30
0
41
1
10
11.4757173930754
20
7.5296667942647
30
0
41
1
10
11.4613248654053
20
7.5296667942647
30
0
0
SPLINE
5
C0
100
AcDbEntity
8
SK1
62
256
6
ByLayer
370
-1
48
1
60
0
100
AcDbSpline
70
4
71
3
72
282
73
278
40
0
40
0
40
0
40
0
40
0.0031455709040488
40
0.0067200625630919
40
0.010294554222135
40
0.0138690458811781
40
0.0174435375402212
40
0.0210180291992643
40
0.0245925208583073
40
0.0281670125173504
40
0.0317415041763935
40
0.0353159958354366
40
0.0424649791535228
40
0.0460394708125659
40
0.0496139624716089
40
0.053188454130652
40
0.0567629457896951
40
0.0639119291077813
40
0.0674864207668244
40
0.0710609124258675
40
0.0782098957439536
40
0.0817843874029967
40
0.0853588790620398
40
0.092507862380126
40
0.0960823540391691
40
0.0996568456982121
40
0.103231337357255
40
0.106805829016298
40
0.110380320675341
40
0.113954812334384
40
0.117529303993428
40
0.121103795652471
40
0.128252778970557
40
0.1318272706296
40
0.135401762288643
40
0.138976253947686
40
0.142550745606729
40
0.149699728924815
40
0.153274220583859
40
0.156848712242902
40
0.160423203901945
40
0.163997695560988
40
0.171146678879074
40
0.174721170538117
40
0.17829566219716
40
0.181870153856203
40
0.185444645515246
40
0.192593628833332
40
0.196168120492376
40
0.199742612151419
40
0.203317103810462
40
0.206891595469505
40
0.214040578787591
40
0.217615070446634
40
0.221189562105677
40
0.22476405376472
40
0.228338545423763
40
0.235487528741849
40
0.239062020400893
40
0.242636512059936
40
0.246211003718979
40
0.249785495378022
40
0.256934478696108
40
0.260508970355151
40
0.264083462014194
40
0.27123244533228
40
0.278381428650367
40
0.28195592030941
40
0.285530411968453
40
0.292679395286539
40
0.296253886945582
40
0.299828378604625
40
0.303402870263668
40
0.306977361922711
40
0.310551853581754
40
0.314126345240797
40
0.321275328558884
40
0.32842431187697
40
0.331998803536013
40
0.335573295195056
40
0.339147786854099
40
0.342722278513142
40
0.346296770172185
40
0.349871261831228
40
0.357020245149314
40
0.364169228467401
40
0.371318211785487
40
0.37489270344453
40
0.378467195103573
40
0.382041686762616
40
0.385616178421659
40
0.389190670080702
40
0.392765161739745
40
0.396339653398788
40
0.399914145057831
40
0.403488636716875
40
0.407063128375918
40
0.410637620034961
40
0.414212111694004
40
0.417786603353047
40
0.42136109501209
40
0.424935586671133
40
0.428510078330176
40
0.432084569989219
40
0.433871815818741
40
0.435659061648262
40
0.437446307477784
40
0.439233553307306
40
0.442808044966349
40
0.446382536625392
40
0.448169782454913
40
0.449957028284435
40
0.451744274113956
40
0.453531519943478
40
0.455318765772999
40
0.457106011602521
40
0.460680503261564
40
0.462467749091086
40
0.464254994920607
40
0.466042240750129
40
0.46782948657965
40
0.469616732409172
40
0.471403978238693
40
0.473191224068215
40
0.474978469897736
40
0.476765715727258
40
0.478552961556779
40
0.480340207386301
40
0.482127453215823
40
0.483914699045344
40
0.485701944874866
40
0.487489190704387
40
0.489276436533909
40
0.49106368236343
40
0.492850928192952
40
0.494638174022473
40
0.496425419851995
40
0.498212665681516
40
0.499999911511038
40
0.501787157340559
40
0.503574403170081
40
0.505361648999602
40
0.507148894829124
40
0.508936140658646
40
0.510723386488167
40
0.512510632317689
40
0.51429787814721
40
0.516085123976732
40
0.517872369806253
40
0.519659615635775
40
0.521446861465296
40
0.523234107294818
40
0.52502135312434
40
0.526808598953861
40
0.528595844783383
40
0.530383090612904
40
0.532170336442426
40
0.533957582271947
40
0.535744828101469
40
0.53753207393099
40
0.539319319760512
40
0.541106565590033
40
0.542893811419555
40
0.544681057249076
40
0.546468303078598
40
0.550042794737641
40
0.551830040567163
40
0.553617286396684
40
0.557191778055727
40
0.56076626971477
40
0.562553515544292
40
0.564340761373814
40
0.566128007203335
40
0.567915253032857
40
0.5714897446919
40
0.575064236350943
40
0.578638728009986
40
0.582213219669029
40
0.585787711328072
40
0.589362202987115
40
0.592936694646158
40
0.596511186305201
40
0.600085677964244
40
0.603660169623287
40
0.607234661282331
40
0.610809152941374
40
0.614383644600417
40
0.61795813625946
40
0.621532627918503
40
0.625107119577546
40
0.628681611236589
40
0.635830594554675
40
0.642979577872761
40
0.650128561190848
40
0.653703052849891
40
0.657277544508934
40
0.660852036167977
40
0.66442652782702
40
0.668001019486063
40
0.671575511145106
40
0.678724494463192
40
0.685873477781278
40
0.689447969440322
40
0.693022461099365
40
0.696596952758408
40
0.700171444417451
40
0.703745936076494
40
0.707320427735537
40
0.714469411053623
40
0.718043902712666
40
0.721618394371709
40
0.728767377689795
40
0.735916361007882
40
0.739490852666925
40
0.743065344325968
40
0.750214327644054
40
0.753788819303097
40
0.75736331096214
40
0.760937802621183
40
0.764512294280226
40
0.771661277598312
40
0.775235769257355
40
0.778810260916399
40
0.782384752575442
40
0.785959244234485
40
0.793108227552571
40
0.796682719211614
40
0.800257210870657
40
0.8038317025297
40
0.807406194188743
40
0.814555177506829
40
0.818129669165873
40
0.821704160824916
40
0.825278652483959
40
0.828853144143002
40
0.836002127461088
40
0.839576619120131
40
0.843151110779174
40
0.844938356608696
40
0.846725602438217
40
0.85030009409726
40
0.857449077415347
40
0.86102356907439
40
0.864598060733433
40
0.868172552392476
40
0.871747044051519
40
0.878896027369605
40
0.882470519028648
40
0.886045010687691
40
0.889619502346734
40
0.893193994005777
40
0.89676848566482
40
0.900342977323864
40
0.903917468982907
40
0.90749196064195
40
0.914640943960036
40
0.918215435619079
40
0.921789927278122
40
0.928938910596208
40
0.932513402255251
40
0.936087893914294
40
0.943236877232381
40
0.946811368891424
40
0.950385860550467
40
0.95396035220951
40
0.957534843868553
40
0.964683827186639
40
0.968258318845682
40
0.971832810504725
40
0.975407302163768
40
0.978981793822811
40
0.982556285481855
40
0.986130777140898
40
0.989705268799941
40
0.993279760458984
40
0.996854252118027
40
1
40
1
40
1
40
1
41
1
10
-2.19999999999999
20
-17.514744878045
30
0
41
1
10
-2.19999999999999
20
-17.5132050126312
30
0
41
1
10
-2.19999999999999
20
-17.5092143160932
30
0
41
1
10
-2.19999999999999
20
-17.5008423359265
30
0
41
1
10
-2.19999999999999
20
-17.4896606050755
30
0
41
1
10
-2.19999999999999
20
-17.4760589345483
30
0
41
1
10
-2.19999999999999
20
-17.4600756660116
30
0
41
1
10
-2.19999999999999
20
-17.4417480829298
30
0
41
1
10
-2.19999999999999
20
-17.4211116708093
30
0
41
1
10
-2.19999999999999
20
-17.3981999720817
30
0
41
1
10
-2.19999999999999
20
-17.373046254225
30
0
41
1
10
-2.19999999999999
20
-17.3365615480365
30
0
41
1
10
-2.19999999999999
20
-17.2957083393221
30
0
41
1
10
-2.19999999999999
20
-17.2506132986913
30
0
41
1
10
-2.19999999999999
20
-17.2146924230801
30
0
41
1
10
-2.19999999999999
20
-17.1766986759847
30
0
41
1
10
-2.19999999999999
20
-17.1233138560685
30
0
41
1
10
-2.19999999999999
20
-17.0658713749173
30
0
41
1
10
-2.19999999999999
20
-17.0044820563696
30
0
41
1
10
-2.19999999999999
20
-16.9404819965209
30
0
41
1
10
-2.19999999999999
20
-16.8725984751516
30
0
41
1
10
-2.19999999999999
20
-16.8009296734765
30
0
41
1
10
-2.19999999999999
20
-16.72675615712
30
0
41
1
10
-2.19999999999999
20
-16.6488472996884
30
0
41
1
10
-2.19999999999999
20
-16.5672977573629
30
0
41
1
10
-2.19999999999999
20
-16.5043209819811
30
0
41
1
10
-2.19999999999999
20
-16.4395493732765
30
0
41
1
10
-2.19999999999999
20
-16.3729983406747
30
0
41
1
10
-2.19999999999999
20
-16.3046816133433
30
0
41
1
10
-2.19999999999999
20
-16.2346146587631
30
0
41
1
10
-2.19999999999999
20
-16.1628111167189
30
0
41
1
10
-2.19999999999999
20
-16.0647793469533
30
0
41
1
10
-2.19999999999999
20
-15.9633134995801
30
0
41
1
10
-2.19999999999999
20
-15.8584913887799
30
0
41
1
10
-2.19999999999999
20
-15.7781982427732
30
0
41
1
10
-2.19999999999999
20
-15.6962433497342
30
0
41
1
10
-2.19999999999999
20
-15.5847743861311
30
0
41
1
10
-2.19999999999999
20
-15.4700110710185
30
0
41
1
10
-2.19999999999999
20
-15.3520264687641
30
0
41
1
10
-2.19999999999999
20
-15.2619258251736
30
0
41
1
10
-2.19999999999999
20
-15.1702262286607
30
0
41
1
10
-2.19999999999999
20
-15.0458463802595
30
0
41
1
10
-2.19999999999999
20
-14.9182892137509
30
0
41
1
10
-2.19999999999999
20
-14.7876243835494
30
0
41
1
10
-2.19999999999999
20
-14.6880675684927
30
0
41
1
10
-2.19999999999999
20
-14.5869647024964
30
0
41
1
10
-2.19999999999999
20
-14.4501162009323
30
0
41
1
10
-2.19999999999999
20
-14.310188578504
30
0
41
1
10
-2.19999999999999
20
-14.1672492498436
30
0
41
1
10
-2.19999999999999
20
-14.0585319196999
30
0
41
1
10
-2.19999999999999
20
-13.9483131149779
30
0
41
1
10
-2.19999999999999
20
-13.7993681823229
30
0
41
1
10
-2.19999999999999
20
-13.6474264445925
30
0
41
1
10
-2.19999999999999
20
-13.4925540283558
30
0
41
1
10
-2.19999999999999
20
-13.3749248852381
30
0
41
1
10
-2.19999999999999
20
-13.2558316845062
30
0
41
1
10
-2.19999999999999
20
-13.0951031858018
30
0
41
1
10
-2.19999999999999
20
-12.9314463879873
30
0
41
1
10
-2.19999999999999
20
-12.7649271524075
30
0
41
1
10
-2.19999999999999
20
-12.6385945304865
30
0
41
1
10
-2.19999999999999
20
-12.510828990928
30
0
41
1
10
-2.19999999999999
20
-12.3385783725546
30
0
41
1
10
-2.19999999999999
20
-12.1634558634281
30
0
41
1
10
-2.19999999999999
20
-11.9855279960913
30
0
41
1
10
-2.19999999999999
20
-11.8057193844339
30
0
41
1
10
-2.19999999999999
20
-11.5774197426994
30
0
41
1
10
-2.19999999999999
20
-11.3444552561941
30
0
41
1
10
-2.19999999999999
20
-11.1553144466797
30
0
41
1
10
-2.19999999999999
20
-10.96432157968
30
0
41
1
10
-2.19999999999999
20
-10.7705258372791
30
0
41
1
10
-2.19999999999999
20
-10.5740001677826
30
0
41
1
10
-2.19999999999999
20
-10.4252200954492
30
0
41
1
10
-2.19999999999999
20
-10.2750653600417
30
0
41
1
10
-2.19999999999999
20
-10.1235384488298
30
0
41
1
10
-2.19999999999999
20
-9.97064122920807
30
0
41
1
10
-2.19999999999999
20
-9.76496631801302
30
0
41
1
10
-2.19999999999999
20
-9.50443392738597
30
0
41
1
10
-2.19999999999999
20
-9.23936570098886
30
0
41
1
10
-2.19999999999999
20
-9.02461799380217
30
0
41
1
10
-2.19999999999999
20
-8.86219304475887
30
0
41
1
10
-2.19999999999999
20
-8.69841428000512
30
0
41
1
10
-2.19999999999999
20
-8.53328405958746
30
0
41
1
10
-2.19999999999999
20
-8.36680339868337
30
0
41
1
10
-2.19999999999999
20
-8.14304412571011
30
0
41
1
10
-2.19999999999999
20
-7.85994707617317
30
0
41
1
10
-2.19999999999999
20
-7.51487111531026
30
0
41
1
10
-2.19999999999999
20
-7.22282329277962
30
0
41
1
10
-2.19999999999999
20
-6.98653548716825
30
0
41
1
10
-2.19999999999999
20
-6.80797157864473
30
0
41
1
10
-2.19999999999999
20
-6.62807270531451
30
0
41
1
10
-2.19999999999999
20
-6.44684086969582
30
0
41
1
10
-2.19999999999999
20
-6.26427776637016
30
0
41
1
10
-2.19999999999999
20
-6.0803858592752
30
0
41
1
10
-2.19999999999999
20
-5.89516728223867
30
0
41
1
10
-2.19999999999999
20
-5.70862469092603
30
0
41
1
10
-2.19999999999999
20
-5.52076103085633
30
0
41
1
10
-2.19999999999999
20
-5.33157993388585
30
0
41
1
10
-2.19999999999999
20
-5.14108511996025
30
0
41
1
10
-2.19999999999999
20
-4.94928086714648
30
0
41
1
10
-2.19999999999999
20
-4.75617251627347
30
0
41
1
10
-2.19999999999999
20
-4.56176620564526
30
0
41
1
10
-2.19999999999999
20
-4.36606873641344
30
0
41
1
10
-2.19999999999999
20
-4.16908849962459
30
0
41
1
10
-2.19999999999999
20
-4.00386590607064
30
0
41
1
10
-2.19999999999999
20
-3.87107810854147
30
0
41
1
10
-2.19999999999999
20
-3.77116418570387
30
0
41
1
10
-2.19999999999999
20
-3.67093805129474
30
0
41
1
10
-2.19999999999999
20
-3.5369018254882
30
0
41
1
10
-2.19999999999999
20
-3.36855658184018
30
0
41
1
10
-2.19999999999999
20
-3.19919951970698
30
0
41
1
10
-2.19999999999999
20
-3.06314133422208
30
0
41
1
10
-2.19999999999999
20
-2.96079189341756
30
0
41
1
10
-2.19999999999999
20
-2.85815023786418
30
0
41
1
10
-2.19999999999999
20
-2.75522026664268
30
0
41
1
10
-2.19999999999999
20
-2.65200561172494
30
0
41
1
10
-2.19999999999999
20
-2.51402705629772
30
0
41
1
10
-2.19999999999999
20
-2.375450816946
30
0
41
1
10
-2.19999999999999
20
-2.23639085040648
30
0
41
1
10
-2.19999999999999
20
-2.13182395998015
30
0
41
1
10
-2.19999999999999
20
-2.02700348752293
30
0
41
1
10
-2.19999999999999
20
-1.92193653735015
30
0
41
1
10
-2.19999999999999
20
-1.81663008016324
30
0
41
1
10
-2.19999999999999
20
-1.71109231328518
30
0
41
1
10
-2.19999999999999
20
-1.60533155404698
30
0
41
1
10
-2.19999999999999
20
-1.49935698477981
30
0
41
1
10
-2.19999999999999
20
-1.39317847233161
30
0
41
1
10
-2.19999999999999
20
-1.28680633401083
30
0
41
1
10
-2.19999999999999
20
-1.18025197439016
30
0
41
1
10
-2.19999999999999
20
-1.073527020087
30
0
41
1
10
-2.19999999999999
20
-0.96664434311532
30
0
41
1
10
-2.19999999999999
20
-0.859616995486334
30
0
41
1
10
-2.19999999999999
20
-0.752459219961509
30
0
41
1
10
-2.19999999999999
20
-0.645185453734172
30
0
41
1
10
-2.19999999999999
20
-0.537811163545626
30
0
41
1
10
-2.19999999999999
20
-0.430352024765995
30
0
41
1
10
-2.19999999999999
20
-0.322824496958617
30
0
41
1
10
-2.19999999999999
20
-0.215245213108545
30
0
41
1
10
-2.19999999999999
20
-0.107631302158183
30
0
41
1
10
-2.19999999999999
20
5.9909553E-09
30
0
41
1
10
-2.19999999999999
20
0.107631313716837
30
0
41
1
10
-2.19999999999999
20
0.21524522393176
30
0
41
1
10
-2.19999999999999
20
0.322824507999513
30
0
41
1
10
-2.19999999999999
20
0.430352036900842
30
0
41
1
10
-2.19999999999999
20
0.537811175438549
30
0
41
1
10
-2.19999999999999
20
0.645185463980482
30
0
41
1
10
-2.19999999999999
20
0.752459230354134
30
0
41
1
10
-2.19999999999999
20
0.859617007920519
30
0
41
1
10
-2.19999999999999
20
0.966644355262389
30
0
41
1
10
-2.19999999999999
20
1.07352702949097
30
0
41
1
10
-2.19999999999999
20
1.18025198377217
30
0
41
1
10
-2.19999999999999
20
1.2868063464968
30
0
41
1
10
-2.19999999999999
20
1.39317848503856
30
0
41
1
10
-2.19999999999999
20
1.49935699380708
30
0
41
1
10
-2.19999999999999
20
1.60533156181745
30
0
41
1
10
-2.19999999999999
20
1.71109232444707
30
0
41
1
10
-2.19999999999999
20
1.81663009373557
30
0
41
1
10
-2.19999999999999
20
1.92193654804359
30
0
41
1
10
-2.19999999999999
20
2.02700349385552
30
0
41
1
10
-2.19999999999999
20
2.13182396747069
30
0
41
1
10
-2.19999999999999
20
2.23639086291988
30
0
41
1
10
-2.19999999999999
20
2.34069812940876
30
0
41
1
10
-2.19999999999999
20
2.44473977839391
30
0
41
1
10
-2.19999999999999
20
2.54851063247165
30
0
41
1
10
-2.19999999999999
20
2.65200559968281
30
0
41
1
10
-2.19999999999999
20
2.78960994504098
30
0
41
1
10
-2.19999999999999
20
2.92668912429065
30
0
41
1
10
-2.19999999999999
20
3.06314133551615
30
0
41
1
10
-2.19999999999999
20
3.19919952332836
30
0
41
1
10
-2.19999999999999
20
3.36855659963138
30
0
41
1
10
-2.19999999999999
20
3.53690183437428
30
0
41
1
10
-2.19999999999999
20
3.67093805397229
30
0
41
1
10
-2.19999999999999
20
3.77116418775421
30
0
41
1
10
-2.19999999999999
20
3.87107811616198
30
0
41
1
10
-2.19999999999999
20
4.00386592221614
30
0
41
1
10
-2.19999999999999
20
4.169088511784
30
0
41
1
10
-2.19999999999999
20
4.36606871643775
30
0
41
1
10
-2.19999999999999
20
4.56176617271484
30
0
41
1
10
-2.19999999999999
20
4.75617249379653
30
0
41
1
10
-2.19999999999999
20
4.94928076863457
30
0
41
1
10
-2.19999999999999
20
5.14108500618136
30
0
41
1
10
-2.19999999999999
20
5.33157993903225
30
0
41
1
10
-2.19999999999999
20
5.52076102284181
30
0
41
1
10
-2.19999999999999
20
5.70862461825791
30
0
41
1
10
-2.19999999999999
20
5.89516734859464
30
0
41
1
10
-2.19999999999999
20
6.0803860968085
30
0
41
1
10
-2.19999999999999
20
6.26427796235188
30
0
41
1
10
-2.19999999999999
20
6.44684092947378
30
0
41
1
10
-2.19999999999999
20
6.62807271786153
30
0
41
1
10
-2.19999999999999
20
6.80797159432129
30
0
41
1
10
-2.19999999999999
20
6.98653550324826
30
0
41
1
10
-2.19999999999999
20
7.22282328452872
30
0
41
1
10
-2.19999999999999
20
7.51487112820209
30
0
41
1
10
-2.19999999999999
20
7.85994708827315
30
0
41
1
10
-2.19999999999999
20
8.14304411844034
30
0
41
1
10
-2.19999999999999
20
8.36680341033821
30
0
41
1
10
-2.19999999999999
20
8.53328407858575
30
0
41
1
10
-2.19999999999999
20
8.69841428877766
30
0
41
1
10
-2.19999999999999
20
8.86219304073114
30
0
41
1
10
-2.19999999999999
20
9.02461799205523
30
0
41
1
10
-2.19999999999999
20
9.23936571773672
30
0
41
1
10
-2.19999999999999
20
9.50443394039922
30
0
41
1
10
-2.19999999999999
20
9.76496631110049
30
0
41
1
10
-2.19999999999999
20
9.97064123613964
30
0
41
1
10
-2.19999999999999
20
10.123538466054
30
0
41
1
10
-2.19999999999999
20
10.2750653748105
30
0
41
1
10
-2.19999999999999
20
10.4252201002359
30
0
41
1
10
-2.19999999999999
20
10.5740001651574
30
0
41
1
10
-2.19999999999999
20
10.7705258416001
30
0
41
1
10
-2.19999999999999
20
10.9643215989582
30
0
41
1
10
-2.19999999999999
20
11.1553144582602
30
0
41
1
10
-2.19999999999999
20
11.3444552554371
30
0
41
1
10
-2.19999999999999
20
11.5774197477568
30
0
41
1
10
-2.19999999999999
20
11.8057194023465
30
0
41
1
10
-2.19999999999999
20
11.9855280067157
30
0
41
1
10
-2.19999999999999
20
12.1634558646821
30
0
41
1
10
-2.19999999999999
20
12.3385783781737
30
0
41
1
10
-2.19999999999999
20
12.510829004708
30
0
41
1
10
-2.19999999999999
20
12.6385945454976
30
0
41
1
10
-2.19999999999999
20
12.7649271637091
30
0
41
1
10
-2.19999999999999
20
12.9314463925932
30
0
41
1
10
-2.19999999999999
20
13.0951031927999
30
0
41
1
10
-2.19999999999999
20
13.2558316973182
30
0
41
1
10
-2.19999999999999
20
13.3749248996582
30
0
41
1
10
-2.19999999999999
20
13.4925540411334
30
0
41
1
10
-2.19999999999999
20
13.6474264531923
30
0
41
1
10
-2.19999999999999
20
13.7993681905533
30
0
41
1
10
-2.19999999999999
20
13.9483131264862
30
0
41
1
10
-2.19999999999999
20
14.0585319334344
30
0
41
1
10
-2.19999999999999
20
14.1672492642274
30
0
41
1
10
-2.19999999999999
20
14.3101885914782
30
0
41
1
10
-2.19999999999999
20
14.4501162106047
30
0
41
1
10
-2.19999999999999
20
14.5869647126432
30
0
41
1
10
-2.19999999999999
20
14.6880675812844
30
0
41
1
10
-2.19999999999999
20
14.7876243995297
30
0
41
1
10
-2.19999999999999
20
14.9182892218295
30
0
41
1
10
-2.19999999999999
20
15.0458464314392
30
0
41
1
10
-2.19999999999999
20
15.1702261509224
30
0
41
1
10
-2.19999999999999
20
15.2466455133785
30
0
41
1
10
-2.19999999999999
20
15.3069761679616
30
0
41
1
10
-2.19999999999999
20
15.3667724139347
30
0
41
1
10
-2.19999999999999
20
15.4700110929875
30
0
41
1
10
-2.19999999999999
20
15.5847743990242
30
0
41
1
10
-2.19999999999999
20
15.6962433571227
30
0
41
1
10
-2.19999999999999
20
15.7781982539187
30
0
41
1
10
-2.19999999999999
20
15.8584914079188
30
0
41
1
10
-2.19999999999999
20
15.9633135259672
30
0
41
1
10
-2.19999999999999
20
16.0647793597711
30
0
41
1
10
-2.19999999999999
20
16.1628111223414
30
0
41
1
10
-2.19999999999999
20
16.2346146707391
30
0
41
1
10
-2.19999999999999
20
16.3046816359758
30
0
41
1
10
-2.19999999999999
20
16.3729983688048
30
0
41
1
10
-2.19999999999999
20
16.439549393056
30
0
41
1
10
-2.19999999999999
20
16.5043209901434
30
0
41
1
10
-2.19999999999999
20
16.5672977619412
30
0
41
1
10
-2.19999999999999
20
16.6488473199257
30
0
41
1
10
-2.19999999999999
20
16.7267561914694
30
0
41
1
10
-2.19999999999999
20
16.8009296884544
30
0
41
1
10
-2.19999999999999
20
16.8725984731112
30
0
41
1
10
-2.19999999999999
20
16.9404820184079
30
0
41
1
10
-2.19999999999999
20
17.0044820909957
30
0
41
1
10
-2.19999999999999
20
17.0658713913631
30
0
41
1
10
-2.19999999999999
20
17.123313852319
30
0
41
1
10
-2.19999999999999
20
17.1766986986672
30
0
41
1
10
-2.19999999999999
20
17.2146924603873
30
0
41
1
10
-2.19999999999999
20
17.250613323192
30
0
41
1
10
-2.19999999999999
20
17.2957083328928
30
0
41
1
10
-2.19999999999999
20
17.3365615705832
30
0
41
1
10
-2.19999999999999
20
17.3730462873428
30
0
41
1
10
-2.19999999999999
20
17.398199993695
30
0
41
1
10
-2.19999999999999
20
17.4211116738093
30
0
41
1
10
-2.19999999999999
20
17.4417480876219
30
0
41
1
10
-2.19999999999999
20
17.4600756994924
30
0
41
1
10
-2.19999999999999
20
17.4760589706817
30
0
41
1
10
-2.19999999999999
20
17.4896606126055
30
0
41
1
10
-2.19999999999999
20
17.5008423321234
30
0
41
1
10
-2.19999999999999
20
17.50921447984
30
0
41
1
10
-2.19999999999999
20
17.5132052284141
30
0
41
1
10
-2.19999999999999
20
17.5147451234242
30
0
0
SPLINE
5
C1
100
AcDbEntity
8
SK1
62
256
6
ByLayer
370
-1
48
1
60
0
100
AcDbSpline
70
4
71
3
72
287
73
283
40
0
40
0
40
0
40
0
40
0.0019139567248541
40
0.0054376957508055
40
0.0089614347767569
40
0.0124851738027082
40
0.0160089128286596
40
0.019532651854611
40
0.0230563908805623
40
0.0265801299065137
40
0.0301038689324651
40
0.0336276079584165
40
0.0371513469843678
40
0.0441988250362706
40
0.047722564062222
40
0.0512463030881733
40
0.0547700421141247
40
0.0582937811400761
40
0.0653412591919788
40
0.0688649982179302
40
0.0723887372438815
40
0.0794362152957843
40
0.0829599543217357
40
0.0864836933476871
40
0.0935311713995898
40
0.0970549104255412
40
0.100578649451493
40
0.104102388477444
40
0.107626127503395
40
0.111149866529347
40
0.114673605555298
40
0.11819734458125
40
0.121721083607201
40
0.128768561659104
40
0.132292300685055
40
0.135816039711006
40
0.139339778736958
40
0.142863517762909
40
0.149910995814812
40
0.153434734840763
40
0.156958473866715
40
0.160482212892666
40
0.164005951918617
40
0.17105342997052
40
0.174577168996471
40
0.178100908022423
40
0.181624647048374
40
0.185148386074325
40
0.192195864126228
40
0.19571960315218
40
0.199243342178131
40
0.202767081204082
40
0.206290820230034
40
0.213338298281937
40
0.216862037307888
40
0.220385776333839
40
0.223909515359791
40
0.227433254385742
40
0.234480732437645
40
0.238004471463596
40
0.241528210489548
40
0.245051949515499
40
0.24857568854145
40
0.255623166593353
40
0.259146905619304
40
0.262670644645256
40
0.269718122697158
40
0.276765600749061
40
0.280289339775013
40
0.283813078800964
40
0.290860556852867
40
0.294384295878818
40
0.29790803490477
40
0.301431773930721
40
0.304955512956672
40
0.308479251982624
40
0.312002991008575
40
0.319050469060478
40
0.32609794711238
40
0.329621686138332
40
0.333145425164283
40
0.336669164190235
40
0.340192903216186
40
0.343716642242137
40
0.347240381268089
40
0.354287859319992
40
0.361335337371894
40
0.368382815423797
40
0.371906554449748
40
0.3754302934757
40
0.378954032501651
40
0.382477771527602
40
0.386001510553554
40
0.389525249579505
40
0.393048988605457
40
0.396572727631408
40
0.400096466657359
40
0.403620205683311
40
0.407143944709262
40
0.410667683735213
40
0.414191422761165
40
0.417715161787116
40
0.421238900813067
40
0.424762639839019
40
0.42828637886497
40
0.430048248377946
40
0.431810117890922
40
0.433571987403897
40
0.435333856916873
40
0.438857595942824
40
0.442381334968776
40
0.444143204481751
40
0.445905073994727
40
0.447666943507703
40
0.449428813020679
40
0.451190682533654
40
0.45295255204663
40
0.456476291072581
40
0.458238160585557
40
0.460000030098533
40
0.461761899611508
40
0.463523769124484
40
0.46528563863746
40
0.467047508150435
40
0.468809377663411
40
0.470571247176387
40
0.472333116689363
40
0.474094986202338
40
0.475856855715314
40
0.47761872522829
40
0.479380594741265
40
0.481142464254241
40
0.482904333767217
40
0.484666203280192
40
0.486428072793168
40
0.488189942306144
40
0.489951811819119
40
0.491713681332095
40
0.493475550845071
40
0.495237420358046
40
0.496999289871022
40
0.498761159383998
40
0.500523028896973
40
0.502284898409949
40
0.504046767922925
40
0.505808637435901
40
0.507570506948876
40
0.509332376461852
40
0.511094245974828
40
0.512856115487803
40
0.514617985000779
40
0.516379854513755
40
0.51814172402673
40
0.519903593539706
40
0.521665463052682
40
0.523427332565657
40
0.525189202078633
40
0.526951071591609
40
0.528712941104584
40
0.53047481061756
40
0.532236680130536
40
0.533998549643511
40
0.535760419156487
40
0.537522288669463
40
0.539284158182439
40
0.541046027695414
40
0.544569766721366
40
0.546331636234341
40
0.548093505747317
40
0.551617244773268
40
0.55514098379922
40
0.556902853312195
40
0.558664722825171
40
0.560426592338147
40
0.562188461851122
40
0.565712200877074
40
0.569235939903025
40
0.572759678928977
40
0.576283417954928
40
0.579807156980879
40
0.583330896006831
40
0.586854635032782
40
0.590378374058733
40
0.593902113084685
40
0.597425852110636
40
0.600949591136587
40
0.604473330162539
40
0.60799706918849
40
0.611520808214442
40
0.615044547240393
40
0.618568286266344
40
0.622092025292296
40
0.629139503344198
40
0.636186981396101
40
0.643234459448004
40
0.646758198473955
40
0.650281937499907
40
0.653805676525858
40
0.657329415551809
40
0.660853154577761
40
0.664376893603712
40
0.671424371655615
40
0.678471849707518
40
0.681995588733469
40
0.68551932775942
40
0.689043066785372
40
0.692566805811323
40
0.696090544837275
40
0.699614283863226
40
0.706661761915129
40
0.71018550094108
40
0.713709239967032
40
0.720756718018934
40
0.727804196070837
40
0.731327935096788
40
0.73485167412274
40
0.741899152174642
40
0.745422891200594
40
0.748946630226545
40
0.752470369252497
40
0.755994108278448
40
0.763041586330351
40
0.766565325356302
40
0.770089064382253
40
0.773612803408205
40
0.777136542434156
40
0.784184020486059
40
0.78770775951201
40
0.791231498537962
40
0.794755237563913
40
0.798278976589865
40
0.805326454641767
40
0.808850193667718
40
0.81237393269367
40
0.815897671719621
40
0.819421410745573
40
0.826468888797475
40
0.829992627823427
40
0.833516366849378
40
0.835278236362354
40
0.83704010587533
40
0.840563844901281
40
0.847611322953184
40
0.851135061979135
40
0.854658801005086
40
0.858182540031038
40
0.861706279056989
40
0.868753757108892
40
0.872277496134843
40
0.875801235160795
40
0.879324974186746
40
0.882848713212697
40
0.886372452238649
40
0.8898961912646
40
0.893419930290551
40
0.896943669316503
40
0.903991147368405
40
0.907514886394357
40
0.911038625420308
40
0.918086103472211
40
0.921609842498162
40
0.925133581524114
40
0.932181059576016
40
0.935704798601968
40
0.939228537627919
40
0.942752276653871
40
0.946276015679822
40
0.953323493731725
40
0.956847232757676
40
0.960370971783628
40
0.963894710809579
40
0.96741844983553
40
0.970942188861482
40
0.974465927887433
40
0.977989666913384
40
0.981513405939336
40
0.985037144965287
40
0.988560883991239
40
0.99208462301719
40
0.995608362043141
40
0.999132101069093
40
1
40
1
40
1
40
1
41
1
10
-28.5
20
-16.8570111672775
30
0
41
1
10
-28.5
20
-16.85639137736
30
0
41
1
10
-28.5
20
-16.8542840058513
30
0
41
1
10
-28.5
20
-16.8492032887544
30
0
41
1
10
-28.5
20
-16.8407921788659
30
0
41
1
10
-28.5
20
-16.8300011209595
30
0
41
1
10
-28.5
20
-16.8168672741156
30
0
41
1
10
-28.5
20
-16.8014255225769
30
0
41
1
10
-28.5
20
-16.783709883521
30
0
41
1
10
-28.5
20
-16.7637529731542
30
0
41
1
10
-28.5
20
-16.7415855338906
30
0
41
1
10
-28.5
20
-16.7172383450784
30
0
41
1
10
-28.5
20
-16.6818353810987
30
0
41
1
10
-28.5
20
-16.642411510514
30
0
41
1
10
-28.5
20
-16.5986105790194
30
0
41
1
10
-28.5
20
-16.5637763020887
30
0
41
1
10
-28.5
20
-16.5269199075572
30
0
41
1
10
-28.5
20
-16.4750169305147
30
0
41
1
10
-28.5
20
-16.4194622625482
30
0
41
1
10
-28.5
20
-16.3597331913305
30
0
41
1
10
-28.5
20
-16.2974462059125
30
0
41
1
10
-28.5
20
-16.2317181614777
30
0
41
1
10
-28.5
20
-16.1619255301562
30
0
41
1
10
-28.5
20
-16.0896767577218
30
0
41
1
10
-28.5
20
-16.0141701499498
30
0
41
1
10
-28.5
20
-15.9346970720351
30
0
41
1
10
-28.5
20
-15.8734193498834
30
0
41
1
10
-28.5
20
-15.8103844132608
30
0
41
1
10
-28.5
20
-15.745608166167
30
0
41
1
10
-28.5
20
-15.6791035033831
30
0
41
1
10
-28.5
20
-15.6108850520675
30
0
41
1
10
-28.5
20
-15.5409672008416
30
0
41
1
10
-28.5
20
-15.4453363897878
30
0
41
1
10
-28.5
20
-15.3468344295442
30
0
41
1
10
-28.5
20
-15.2445501023872
30
0
41
1
10
-28.5
20
-15.1663215412447
30
0
41
1
10
-28.5
20
-15.0864673138636
30
0
41
1
10
-28.5
20
-14.9776668598204
30
0
41
1
10
-28.5
20
-14.8661866472663
30
0
41
1
10
-28.5
20
-14.7510047173632
30
0
41
1
10
-28.5
20
-14.6631805593238
30
0
41
1
10
-28.5
20
-14.5737935545692
30
0
41
1
10
-28.5
20
-14.4523474056541
30
0
41
1
10
-28.5
20
-14.3283920102608
30
0
41
1
10
-28.5
20
-14.2007962111626
30
0
41
1
10
-28.5
20
-14.1037299196573
30
0
41
1
10
-28.5
20
-14.0051547121626
30
0
41
1
10
-28.5
20
-13.8715103774192
30
0
41
1
10
-28.5
20
-13.7355116027341
30
0
41
1
10
-28.5
20
-13.5959164295663
30
0
41
1
10
-28.5
20
-13.4899116400767
30
0
41
1
10
-28.5
20
-13.3824445287113
30
0
41
1
10
-28.5
20
-13.2369867267196
30
0
41
1
10
-28.5
20
-13.0893180063072
30
0
41
1
10
-28.5
20
-12.9380809359595
30
0
41
1
10
-28.5
20
-12.8234002792818
30
0
41
1
10
-28.5
20
-12.7072977235968
30
0
41
1
10
-28.5
20
-12.550359403554
30
0
41
1
10
-28.5
20
-12.3913462445321
30
0
41
1
10
-28.5
20
-12.2287775158425
30
0
41
1
10
-28.5
20
-12.1056498288981
30
0
41
1
10
-28.5
20
-11.9811355431936
30
0
41
1
10
-28.5
20
-11.8130068133241
30
0
41
1
10
-28.5
20
-11.642935768078
30
0
41
1
10
-28.5
20
-11.4693068645233
30
0
41
1
10
-28.5
20
-11.2938625434425
30
0
41
1
10
-28.5
20
-11.0718089327865
30
0
41
1
10
-28.5
20
-10.8452681360072
30
0
41
1
10
-28.5
20
-10.6608198079832
30
0
41
1
10
-28.5
20
-10.4745957683654
30
0
41
1
10
-28.5
20
-10.2866518533399
30
0
41
1
10
-28.5
20
-10.0951135357909
30
0
41
1
10
-28.5
20
-9.9503895477591
30
0
41
1
10
-28.5
20
-9.8043545776041
30
0
41
1
10
-28.5
20
-9.65701503611822
30
0
41
1
10
-28.5
20
-9.50837340526911
30
0
41
1
10
-28.5
20
-9.30810992365679
30
0
41
1
10
-28.5
20
-9.05534970701544
30
0
41
1
10
-28.5
20
-8.79830464348922
30
0
41
1
10
-28.5
20
-8.58944232029054
30
0
41
1
10
-28.5
20
-8.43181572672981
30
0
41
1
10
-28.5
20
-8.27292311790592
30
0
41
1
10
-28.5
20
-8.11277014047184
30
0
41
1
10
-28.5
20
-7.9513617118449
30
0
41
1
10
-28.5
20
-7.73407184255308
30
0
41
1
10
-28.5
20
-7.46030866767529
30
0
41
1
10
-28.5
20
-7.12632140637373
30
0
41
1
10
-28.5
20
-6.84437402550569
30
0
41
1
10
-28.5
20
-6.61554359890371
30
0
41
1
10
-28.5
20
-6.44309029411608
30
0
41
1
10
-28.5
20
-6.26944364545889
30
0
41
1
10
-28.5
20
-6.09461246091772
30
0
41
1
10
-28.5
20
-5.91860523667609
30
0
41
1
10
-28.5
20
-5.74143189937953
30
0
41
1
10
-28.5
20
-5.56310357372001
30
0
41
1
10
-28.5
20
-5.38363134733163
30
0
41
1
10
-28.5
20
-5.20302692387261
30
0
41
1
10
-28.5
20
-5.0213042232472
30
0
41
1
10
-28.5
20
-4.83847919931264
30
0
41
1
10
-28.5
20
-4.65456716028004
30
0
41
1
10
-28.5
20
-4.46958486845949
30
0
41
1
10
-28.5
20
-4.28355302808069
30
0
41
1
10
-28.5
20
-4.09649275318182
30
0
41
1
10
-28.5
20
-3.90842813226232
30
0
41
1
10
-28.5
20
-3.75124940963562
30
0
41
1
10
-28.5
20
-3.6243549796439
30
0
41
1
10
-28.5
20
-3.52924315934183
30
0
41
1
10
-28.5
20
-3.43390158445521
30
0
41
1
10
-28.5
20
-3.30608717079298
30
0
41
1
10
-28.5
20
-3.14669072023423
30
0
41
1
10
-28.5
20
-2.9865693987912
30
0
41
1
10
-28.5
20
-2.85729421649611
30
0
41
1
10
-28.5
20
-2.76048089001324
30
0
41
1
10
-28.5
20
-2.66347976206254
30
0
41
1
10
-28.5
20
-2.56629526768592
30
0
41
1
10
-28.5
20
-2.46893611478751
30
0
41
1
10
-28.5
20
-2.33842740009587
30
0
41
1
10
-28.5
20
-2.20905952740142
30
0
41
1
10
-28.5
20
-2.07788039572898
30
0
41
1
10
-28.5
20
-1.97974994874616
30
0
41
1
10
-28.5
20
-1.88148715614122
30
0
41
1
10
-28.5
20
-1.78310090101277
30
0
41
1
10
-28.5
20
-1.68460072925305
30
0
41
1
10
-28.5
20
-1.58599184128096
30
0
41
1
10
-28.5
20
-1.48728649469356
30
0
41
1
10
-28.5
20
-1.38848914320587
30
0
41
1
10
-28.5
20
-1.28961139997082
30
0
41
1
10
-28.5
20
-1.19065859360987
30
0
41
1
10
-28.5
20
-1.09164071478048
30
0
41
1
10
-28.5
20
-0.992564090788449
30
0
41
1
10
-28.5
20
-0.893436923932512
30
0
41
1
10
-28.5
20
-0.794265471937166
30
0
41
1
10
-28.5
20
-0.695056741362833
30
0
41
1
10
-28.5
20
-0.595816468507252
30
0
41
1
10
-28.5
20
-0.49655061320999
30
0
41
1
10
-28.5
20
-0.397263853181812
30
0
41
1
10
-28.5
20
-0.297961366795107
30
0
41
1
10
-28.5
20
-0.198647102840738
30
0
41
1
10
-28.5
20
-0.0993254669347436
30
0
41
1
10
-28.5
20
-5.4725149E-09
30
0
41
1
10
-28.5
20
0.0993254684405827
30
0
41
1
10
-28.5
20
0.198647127601248
30
0
41
1
10
-28.5
20
0.297961388791691
30
0
41
1
10
-28.5
20
0.397263840424017
30
0
41
1
10
-28.5
20
0.496550594205559
30
0
41
1
10
-28.5
20
0.595816495504096
30
0
41
1
10
-28.5
20
0.695056784277028
30
0
41
1
10
-28.5
20
0.794265459276176
30
0
41
1
10
-28.5
20
0.89343688343348
30
0
41
1
10
-28.5
20
0.992564112169902
30
0
41
1
10
-28.5
20
1.0916407792042
30
0
41
1
10
-28.5
20
1.19065859620264
30
0
41
1
10
-28.5
20
1.28961134189754
30
0
41
1
10
-28.5
20
1.38848913588993
30
0
41
1
10
-28.5
20
1.48728656512978
30
0
41
1
10
-28.5
20
1.58599188781932
30
0
41
1
10
-28.5
20
1.6846006870125
30
0
41
1
10
-28.5
20
1.78310084050699
30
0
41
1
10
-28.5
20
1.88148718140701
30
0
41
1
10
-28.5
20
1.9797500364362
30
0
41
1
10
-28.5
20
2.0778804265363
30
0
41
1
10
-28.5
20
2.17587292609082
30
0
41
1
10
-28.5
20
2.27371679621319
30
0
41
1
10
-28.5
20
2.37140757120355
30
0
41
1
10
-28.5
20
2.46893613943033
30
0
41
1
10
-28.5
20
2.59923374131699
30
0
41
1
10
-28.5
20
2.72777279716706
30
0
41
1
10
-28.5
20
2.8572942882393
30
0
41
1
10
-28.5
20
2.98656948332388
30
0
41
1
10
-28.5
20
3.14669074057869
30
0
41
1
10
-28.5
20
3.30608709676798
30
0
41
1
10
-28.5
20
3.43390157548936
30
0
41
1
10
-28.5
20
3.52924322184191
30
0
41
1
10
-28.5
20
3.62435506854831
30
0
41
1
10
-28.5
20
3.75124942106058
30
0
41
1
10
-28.5
20
3.90842799420625
30
0
41
1
10
-28.5
20
4.09649259176146
30
0
41
1
10
-28.5
20
4.28355297730505
30
0
41
1
10
-28.5
20
4.4695846174555
30
0
41
1
10
-28.5
20
4.65456683421039
30
0
41
1
10
-28.5
20
4.83847943804494
30
0
41
1
10
-28.5
20
5.0213044851898
30
0
41
1
10
-28.5
20
5.2030267003301
30
0
41
1
10
-28.5
20
5.38363156234237
30
0
41
1
10
-28.5
20
5.56310445504442
30
0
41
1
10
-28.5
20
5.74143237747984
30
0
41
1
10
-28.5
20
5.91860495448572
30
0
41
1
10
-28.5
20
6.09461208825527
30
0
41
1
10
-28.5
20
6.26944357118299
30
0
41
1
10
-28.5
20
6.4430903265563
30
0
41
1
10
-28.5
20
6.61554357091572
30
0
41
1
10
-28.5
20
6.84437400802861
30
0
41
1
10
-28.5
20
7.12632144512301
30
0
41
1
10
-28.5
20
7.46030865505762
30
0
41
1
10
-28.5
20
7.73407184285279
30
0
41
1
10
-28.5
20
7.95136176299604
30
0
41
1
10
-28.5
20
8.11277014937085
30
0
41
1
10
-28.5
20
8.27292308432649
30
0
41
1
10
-28.5
20
8.43181570788789
30
0
41
1
10
-28.5
20
8.5894423488798
30
0
41
1
10
-28.5
20
8.79830467826932
30
0
41
1
10
-28.5
20
9.05534969583792
30
0
41
1
10
-28.5
20
9.30810991622684
30
0
41
1
10
-28.5
20
9.50837344479851
30
0
41
1
10
-28.5
20
9.65701506287493
30
0
41
1
10
-28.5
20
9.80435457188474
30
0
41
1
10
-28.5
20
9.95038952754788
30
0
41
1
10
-28.5
20
10.095113531911
30
0
41
1
10
-28.5
20
10.2866518813937
30
0
41
1
10
-28.5
20
10.4745957936973
30
0
41
1
10
-28.5
20
10.6608197986608
30
0
41
1
10
-28.5
20
10.8452681286137
30
0
41
1
10
-28.5
20
11.0718089525805
30
0
41
1
10
-28.5
20
11.2938625632929
30
0
41
1
10
-28.5
20
11.4693068596264
30
0
41
1
10
-28.5
20
11.6429357656381
30
0
41
1
10
-28.5
20
11.8130068303033
30
0
41
1
10
-28.5
20
11.9811355648908
30
0
41
1
10
-28.5
20
12.1056498404809
30
0
41
1
10
-28.5
20
12.2287775174238
30
0
41
1
10
-28.5
20
12.3913462461042
30
0
41
1
10
-28.5
20
12.5503594172971
30
0
41
1
10
-28.5
20
12.7072977423403
30
0
41
1
10
-28.5
20
12.8234002933141
30
0
41
1
10
-28.5
20
12.9380809438717
30
0
41
1
10
-28.5
20
13.0893180117675
30
0
41
1
10
-28.5
20
13.2369867372074
30
0
41
1
10
-28.5
20
13.3824445445542
30
0
41
1
10
-28.5
20
13.4899116562855
30
0
41
1
10
-28.5
20
13.5959164434403
30
0
41
1
10
-28.5
20
13.7355116125921
30
0
41
1
10
-28.5
20
13.8715103854275
30
0
41
1
10
-28.5
20
14.0051547249398
30
0
41
1
10
-28.5
20
14.1037299370701
30
0
41
1
10
-28.5
20
14.2007962250068
30
0
41
1
10
-28.5
20
14.328392039309
30
0
41
1
10
-28.5
20
14.4523474054459
30
0
41
1
10
-28.5
20
14.5737935062701
30
0
41
1
10
-28.5
20
14.6481896525931
30
0
41
1
10
-28.5
20
14.7070919001429
30
0
41
1
10
-28.5
20
14.7654709460418
30
0
41
1
10
-28.5
20
14.8661866667289
30
0
41
1
10
-28.5
20
14.9776668655465
30
0
41
1
10
-28.5
20
15.0864673213159
30
0
41
1
10
-28.5
20
15.1663215599361
30
0
41
1
10
-28.5
20
15.2445501295776
30
0
41
1
10
-28.5
20
15.3468344527491
30
0
41
1
10
-28.5
20
15.4453363938053
30
0
41
1
10
-28.5
20
15.5409672073329
30
0
41
1
10
-28.5
20
15.6108850733398
30
0
41
1
10
-28.5
20
15.679103534252
30
0
41
1
10
-28.5
20
15.7456081924762
30
0
41
1
10
-28.5
20
15.810384423087
30
0
41
1
10
-28.5
20
15.8734193510279
30
0
41
1
10
-28.5
20
15.9346970807191
30
0
41
1
10
-28.5
20
16.0141701800502
30
0
41
1
10
-28.5
20
16.0896767899468
30
0
41
1
10
-28.5
20
16.1619255341458
30
0
41
1
10
-28.5
20
16.2317181619347
30
0
41
1
10
-28.5
20
16.2974462376793
30
0
41
1
10
-28.5
20
16.3597332242326
30
0
41
1
10
-28.5
20
16.4194622696319
30
0
41
1
10
-28.5
20
16.4750169286961
30
0
41
1
10
-28.5
20
16.5269199399481
30
0
41
1
10
-28.5
20
16.5637763395248
30
0
41
1
10
-28.5
20
16.5986105943247
30
0
41
1
10
-28.5
20
16.642411504334
30
0
41
1
10
-28.5
20
16.6818354096897
30
0
41
1
10
-28.5
20
16.7172383773105
30
0
41
1
10
-28.5
20
16.741585550229
30
0
41
1
10
-28.5
20
16.7637529737167
30
0
41
1
10
-28.5
20
16.7837098927271
30
0
41
1
10
-28.5
20
16.8014255596809
30
0
41
1
10
-28.5
20
16.816867307208
30
0
41
1
10
-28.5
20
16.8300011251081
30
0
41
1
10
-28.5
20
16.8407921763224
30
0
41
1
10
-28.5
20
16.8492033090471
30
0
41
1
10
-28.5
20
16.8551966659016
30
0
41
1
10
-28.5
20
16.8587319423621
30
0
41
1
10
-28.5
20
16.8597680746869
30
0
41
1
10
-28.5
20
16.8586398965551
30
0
41
1
10
-28.5
20
16.8573438942378
30
0
41
1
10
-28.5
20
16.8570614836814
30
0
0
SPLINE
5
C2
100
AcDbEntity
8
SK1
62
256
6
ByLayer
370
-1
48
1
60
0
100
AcDbSpline
70
4
71
3
72
284
73
280
40
0
40
0
40
0
40
0
40
0.0001430962273805
40
0.0037135037311478
40
0.0072839112349152
40
0.0108543187386826
40
0.01442472624245
40
0.0179951337462173
40
0.0215655412499847
40
0.0251359487537521
40
0.0287063562575194
40
0.0322767637612868
40
0.0358471712650542
40
0.0429879862725889
40
0.0465583937763563
40
0.0501288012801237
40
0.053699208783891
40
0.0572696162876584
40
0.0644104312951932
40
0.0679808387989605
40
0.0715512463027279
40
0.0786920613102626
40
0.08226246881403
40
0.0858328763177974
40
0.0929736913253321
40
0.0965440988290995
40
0.100114506332867
40
0.103684913836634
40
0.107255321340402
40
0.110825728844169
40
0.114396136347936
40
0.117966543851704
40
0.121536951355471
40
0.128677766363006
40
0.132248173866773
40
0.135818581370541
40
0.139388988874308
40
0.142959396378075
40
0.15010021138561
40
0.153670618889377
40
0.157241026393145
40
0.160811433896912
40
0.164381841400679
40
0.171522656408214
40
0.175093063911982
40
0.178663471415749
40
0.182233878919516
40
0.185804286423284
40
0.192945101430819
40
0.196515508934586
40
0.200085916438353
40
0.203656323942121
40
0.207226731445888
40
0.214367546453423
40
0.21793795395719
40
0.221508361460958
40
0.225078768964725
40
0.228649176468492
40
0.235789991476027
40
0.239360398979794
40
0.242930806483562
40
0.246501213987329
40
0.250071621491097
40
0.257212436498631
40
0.260782844002398
40
0.264353251506166
40
0.271494066513701
40
0.278634881521235
40
0.282205289025003
40
0.28577569652877
40
0.292916511536305
40
0.296486919040072
40
0.30005732654384
40
0.303627734047607
40
0.307198141551374
40
0.310768549055142
40
0.314338956558909
40
0.321479771566444
40
0.328620586573979
40
0.332190994077746
40
0.335761401581513
40
0.339331809085281
40
0.342902216589048
40
0.346472624092815
40
0.350043031596583
40
0.357183846604118
40
0.364324661611652
40
0.371465476619187
40
0.375035884122954
40
0.378606291626722
40
0.382176699130489
40
0.385747106634256
40
0.389317514138024
40
0.392887921641791
40
0.396458329145559
40
0.400028736649326
40
0.403599144153093
40
0.407169551656861
40
0.410739959160628
40
0.414310366664396
40
0.417880774168163
40
0.42145118167193
40
0.425021589175698
40
0.428591996679465
40
0.432162404183232
40
0.433947607935116
40
0.435732811687
40
0.437518015438883
40
0.439303219190767
40
0.442873626694535
40
0.446444034198302
40
0.448229237950185
40
0.450014441702069
40
0.451799645453953
40
0.453584849205837
40
0.45537005295772
40
0.457155256709604
40
0.460725664213371
40
0.462510867965255
40
0.464296071717139
40
0.466081275469022
40
0.467866479220906
40
0.46965168297279
40
0.471436886724673
40
0.473222090476557
40
0.475007294228441
40
0.476792497980325
40
0.478577701732208
40
0.480362905484092
40
0.482148109235976
40
0.483933312987859
40
0.485718516739743
40
0.487503720491627
40
0.48928892424351
40
0.491074127995394
40
0.492859331747278
40
0.494644535499161
40
0.496429739251045
40
0.498214943002929
40
0.500000146754812
40
0.501785350506696
40
0.50357055425858
40
0.505355758010464
40
0.507140961762347
40
0.508926165514231
40
0.510711369266114
40
0.512496573017998
40
0.514281776769882
40
0.516066980521766
40
0.517852184273649
40
0.519637388025533
40
0.521422591777417
40
0.5232077955293
40
0.524992999281184
40
0.526778203033068
40
0.528563406784951
40
0.530348610536835
40
0.532133814288719
40
0.533919018040602
40
0.535704221792486
40
0.53748942554437
40
0.539274629296253
40
0.541059833048137
40
0.542845036800021
40
0.544630240551905
40
0.546415444303788
40
0.549985851807556
40
0.551771055559439
40
0.553556259311323
40
0.55712666681509
40
0.560697074318858
40
0.562482278070741
40
0.564267481822625
40
0.566052685574509
40
0.567837889326392
40
0.57140829683016
40
0.574978704333927
40
0.578549111837695
40
0.582119519341462
40
0.585689926845229
40
0.589260334348997
40
0.592830741852764
40
0.596401149356531
40
0.599971556860299
40
0.603541964364066
40
0.607112371867834
40
0.610682779371601
40
0.614253186875368
40
0.617823594379136
40
0.621394001882903
40
0.62496440938667
40
0.628534816890438
40
0.635675631897972
40
0.642816446905507
40
0.649957261913042
40
0.653527669416809
40
0.657098076920577
40
0.660668484424344
40
0.664238891928111
40
0.667809299431879
40
0.671379706935646
40
0.678520521943181
40
0.685661336950716
40
0.689231744454483
40
0.69280215195825
40
0.696372559462018
40
0.699942966965785
40
0.703513374469553
40
0.70708378197332
40
0.714224596980855
40
0.717795004484622
40
0.721365411988389
40
0.728506226995924
40
0.735647042003459
40
0.739217449507226
40
0.742787857010994
40
0.749928672018528
40
0.753499079522296
40
0.757069487026063
40
0.760639894529831
40
0.764210302033598
40
0.771351117041133
40
0.7749215245449
40
0.778491932048667
40
0.782062339552435
40
0.785632747056202
40
0.792773562063737
40
0.796343969567504
40
0.799914377071272
40
0.803484784575039
40
0.807055192078806
40
0.814196007086341
40
0.817766414590108
40
0.821336822093876
40
0.824907229597643
40
0.828477637101411
40
0.835618452108945
40
0.839188859612713
40
0.84275926711648
40
0.844544470868364
40
0.846329674620247
40
0.849900082124015
40
0.85704089713155
40
0.860611304635317
40
0.864181712139084
40
0.867752119642852
40
0.871322527146619
40
0.878463342154154
40
0.882033749657921
40
0.885604157161689
40
0.889174564665456
40
0.892744972169223
40
0.896315379672991
40
0.899885787176758
40
0.903456194680525
40
0.907026602184293
40
0.914167417191827
40
0.917737824695595
40
0.921308232199362
40
0.928449047206897
40
0.932019454710664
40
0.935589862214432
40
0.942730677221966
40
0.946301084725734
40
0.949871492229501
40
0.953441899733269
40
0.957012307237036
40
0.964153122244571
40
0.967723529748338
40
0.971293937252105
40
0.974864344755873
40
0.97843475225964
40
0.982005159763407
40
0.985575567267175
40
0.989145974770942
40
0.99271638227471
40
0.996286789778477
40
0.999857197282244
40
1
40
1
40
1
40
1
41
1
10
-1.9950399779393
20
-17.3206892114529
30
0
41
1
10
-1.9950399779393
20
-17.3206252192137
30
0
41
1
10
-1.9950399779393
20
-17.3189470222528
30
0
41
1
10
-1.9950399779393
20
-17.3147637003649
30
0
41
1
10
-1.9950399779393
20
-17.3061342577567
30
0
41
1
10
-1.9950399779393
20
-17.295067771448
30
0
41
1
10
-1.9950399779393
20
-17.2816041041457
30
0
41
1
10
-1.9950399779393
20
-17.2657805776118
30
0
41
1
10
-1.9950399779393
20
-17.2476335117891
30
0
41
1
10
-1.9950399779393
20
-17.2271975457697
30
0
41
1
10
-1.9950399779393
20
-17.2045053960087
30
0
41
1
10
-1.9950399779393
20
-17.1795895960111
30
0
41
1
10
-1.9950399779393
20
-17.143423992764
30
0
41
1
10
-1.9950399779393
20
-17.1029924242496
30
0
41
1
10
-1.9950399779393
20
-17.0582791326422
30
0
41
1
10
-1.9950399779393
20
-17.0226787925821
30
0
41
1
10
-1.9950399779393
20
-16.9850205529168
30
0
41
1
10
-1.9950399779393
20
-16.9320728615657
30
0
41
1
10
-1.9950399779393
20
-16.8751872660894
30
0
41
1
10
-1.9950399779393
20
-16.8142877036056
30
0
41
1
10
-1.9950399779393
20
-16.7507929832779
30
0
41
1
10
-1.9950399779393
20
-16.6835453056651
30
0
41
1
10
-1.9950399779393
20
-16.6124299551482
30
0
41
1
10
-1.9950399779393
20
-16.5388242186582
30
0
41
1
10
-1.9950399779393
20
-16.4616240004255
30
0
41
1
10
-1.9950399779393
20
-16.3806869939664
30
0
41
1
10
-1.9950399779393
20
-16.3182114219941
30
0
41
1
10
-1.9950399779393
20
-16.2539521138773
30
0
41
1
10
-1.9950399779393
20
-16.1879246249361
30
0
41
1
10
-1.9950399779393
20
-16.1201424382026
30
0
41
1
10
-1.9950399779393
20
-16.0506207732709
30
0
41
1
10
-1.9950399779393
20
-15.979373490825
30
0
41
1
10
-1.9950399779393
20
-15.8820499794418
30
0
41
1
10
-1.9950399779393
20
-15.7814584486047
30
0
41
1
10
-1.9950399779393
20
-15.677384958149
30
0
41
1
10
-1.9950399779393
20
-15.5977008436634
30
0
41
1
10
-1.9950399779393
20
-15.5163656256123
30
0
41
1
10
-1.9950399779393
20
-15.4056838451686
30
0
41
1
10
-1.9950399779393
20
-15.2918890118945
30
0
41
1
10
-1.9950399779393
20
-15.1747311694574
30
0
41
1
10
-1.9950399779393
20
-15.0853020659337
30
0
41
1
10
-1.9950399779393
20
-14.9942846604514
30
0
41
1
10
-1.9950399779393
20
-14.8707702235387
30
0
41
1
10
-1.9950399779393
20
-14.7442755428493
30
0
41
1
10
-1.9950399779393
20
-14.6145160455858
30
0
41
1
10
-1.9950399779393
20
-14.5156939096276
30
0
41
1
10
-1.9950399779393
20
-14.4153366771621
30
0
41
1
10
-1.9950399779393
20
-14.2794333721973
30
0
41
1
10
-1.9950399779393
20
-14.1406647198644
30
0
41
1
10
-1.9950399779393
20
-13.9987118830366
30
0
41
1
10
-1.9950399779393
20
-13.8907947247769
30
0
41
1
10
-1.9950399779393
20
-13.7813876415877
30
0
41
1
10
-1.9950399779393
20
-13.6334713769854
30
0
41
1
10
-1.9950399779393
20
-13.482790135872
30
0
41
1
10
-1.9950399779393
20
-13.328990109671
30
0
41
1
10
-1.9950399779393
20
-13.2122307400427
30
0
41
1
10
-1.9950399779393
20
-13.09401974916
30
0
41
1
10
-1.9950399779393
20
-12.9344093145834
30
0
41
1
10
-1.9950399779393
20
-12.7721223429484
30
0
41
1
10
-1.9950399779393
20
-12.606768466692
30
0
41
1
10
-1.9950399779393
20
-12.4813812679684
30
0
41
1
10
-1.9950399779393
20
-12.3545748152048
30
0
41
1
10
-1.9950399779393
20
-12.1835401119863
30
0
41
1
10
-1.9950399779393
20
-12.0099077332894
30
0
41
1
10
-1.9950399779393
20
-11.8332480165124
30
0
41
1
10
-1.9950399779393
20
-11.6547268261542
30
0
41
1
10
-1.9950399779393
20
-11.4282697000141
30
0
41
1
10
-1.9950399779393
20
-11.1972001365959
30
0
41
1
10
-1.9950399779393
20
-11.00944356136
30
0
41
1
10
-1.9950399779393
20
-10.8198574498995
30
0
41
1
10
-1.9950399779393
20
-10.627787937013
30
0
41
1
10
-1.9950399779393
20
-10.4327334855784
30
0
41
1
10
-1.9950399779393
20
-10.2851499168301
30
0
41
1
10
-1.9950399779393
20
-10.13621047024
30
0
41
1
10
-1.9950399779393
20
-9.98591879047714
30
0
41
1
10
-1.9950399779393
20
-9.83427692622885
30
0
41
1
10
-1.9950399779393
20
-9.63019833168175
30
0
41
1
10
-1.9950399779393
20
-9.37195865327328
30
0
41
1
10
-1.9950399779393
20
-9.1092571782612
30
0
41
1
10
-1.9950399779393
20
-8.89624559944801
30
0
41
1
10
-1.9950399779393
20
-8.73523611643316
30
0
41
1
10
-1.9950399779393
20
-8.57289871794615
30
0
41
1
10
-1.9950399779393
20
-8.40923673354897
30
0
41
1
10
-1.9950399779393
20
-8.24425232954013
30
0
41
1
10
-1.9950399779393
20
-8.0224014648056
30
0
41
1
10
-1.9950399779393
20
-7.7420578132905
30
0
41
1
10
-1.9950399779393
20
-7.40025290593451
30
0
41
1
10
-1.9950399779393
20
-7.11118461088941
30
0
41
1
10
-1.9950399779393
20
-6.87709665618266
30
0
41
1
10
-1.9950399779393
20
-6.70033531356589
30
0
41
1
10
-1.9950399779393
20
-6.52228078287743
30
0
41
1
10
-1.9950399779393
20
-6.3429370741791
30
0
41
1
10
-1.9950399779393
20
-6.16230788845579
30
0
41
1
10
-1.9950399779393
20
-5.98039789106801
30
0
41
1
10
-1.9950399779393
20
-5.79721186805691
30
0
41
1
10
-1.9950399779393
20
-5.61275496243289
30
0
41
1
10
-1.9950399779393
20
-5.42703270327695
30
0
41
1
10
-1.9950399779393
20
-5.24005175731475
30
0
41
1
10
-1.9950399779393
20
-5.05181945337139
30
0
41
1
10
-1.9950399779393
20
-4.86234332329403
30
0
41
1
10
-1.9950399779393
20
-4.67163207713236
30
0
41
1
10
-1.9950399779393
20
-4.47969614999016
30
0
41
1
10
-1.9950399779393
20
-4.28654656517494
30
0
41
1
10
-1.9950399779393
20
-4.09219634432211
30
0
41
1
10
-1.9950399779393
20
-3.92934661081907
30
0
41
1
10
-1.9950399779393
20
-3.7982972967292
30
0
41
1
10
-1.9950399779393
20
-3.69979994526253
30
0
41
1
10
-1.9950399779393
20
-3.6010147061962
30
0
41
1
10
-1.9950399779393
20
-3.46881385164499
30
0
41
1
10
-1.9950399779393
20
-3.30310841087518
30
0
41
1
10
-1.9950399779393
20
-3.13647579824178
30
0
41
1
10
-1.9950399779393
20
-3.00241852965871
30
0
41
1
10
-1.9950399779393
20
-2.90170218623106
30
0
41
1
10
-1.9950399779393
20
-2.80072442890969
30
0
41
1
10
-1.9950399779393
20
-2.69948931487846
30
0
41
1
10
-1.9950399779393
20
-2.5980019734576
30
0
41
1
10
-1.9950399779393
20
-2.46222694501739
30
0
41
1
10
-1.9950399779393
20
-2.3263670801044
30
0
41
1
10
-1.9950399779393
20
-2.18963187963746
30
0
41
1
10
-1.9950399779393
20
-2.08696367451518
30
0
41
1
10
-1.9950399779393
20
-1.98407765086858
30
0
41
1
10
-1.9950399779393
20
-1.88098143773604
30
0
41
1
10
-1.9950399779393
20
-1.77768276547397
30
0
41
1
10
-1.9950399779393
20
-1.67418894734925
30
0
41
1
10
-1.9950399779393
20
-1.57050946303122
30
0
41
1
10
-1.9950399779393
20
-1.46665209995737
30
0
41
1
10
-1.9950399779393
20
-1.36262724011792
30
0
41
1
10
-1.9950399779393
20
-1.25844372920938
30
0
41
1
10
-1.9950399779393
20
-1.15411255471386
30
0
41
1
10
-1.9950399779393
20
-1.04964378000579
30
0
41
1
10
-1.9950399779393
20
-0.945048899580655
30
0
41
1
10
-1.9950399779393
20
-0.840338961204225
30
0
41
1
10
-1.9950399779393
20
-0.735526073032332
30
0
41
1
10
-1.9950399779393
20
-0.630622105582688
30
0
41
1
10
-1.9950399779393
20
-0.525639721157262
30
0
41
1
10
-1.9950399779393
20
-0.420591350928703
30
0
41
1
10
-1.9950399779393
20
-0.315490126623814
30
0
41
1
10
-1.9950399779393
20
-0.210348939519435
30
0
41
1
10
-1.9950399779393
20
-0.105181165306249
30
0
41
1
10
-1.9950399779393
20
2.6093687E-09
30
0
41
1
10
-1.9950399779393
20
0.10518117389941
30
0
41
1
10
-1.9950399779393
20
0.21034895445402
30
0
41
1
10
-1.9950399779393
20
0.315490140896543
30
0
41
1
10
-1.9950399779393
20
0.420591355720489
30
0
41
1
10
-1.9950399779393
20
0.525639723935797
30
0
41
1
10
-1.9950399779393
20
0.630622120770227
30
0
41
1
10
-1.9950399779393
20
0.735526093018507
30
0
41
1
10
-1.9950399779393
20
0.840338966235578
30
0
41
1
10
-1.9950399779393
20
0.945048896197648
30
0
41
1
10
-1.9950399779393
20
1.04964379294299
30
0
41
1
10
-1.9950399779393
20
1.15411258033262
30
0
41
1
10
-1.9950399779393
20
1.25844373877697
30
0
41
1
10
-1.9950399779393
20
1.36262723194542
30
0
41
1
10
-1.9950399779393
20
1.46665210416356
30
0
41
1
10
-1.9950399779393
20
1.57050948928742
30
0
41
1
10
-1.9950399779393
20
1.67418896894682
30
0
41
1
10
-1.9950399779393
20
1.77768276258209
30
0
41
1
10
-1.9950399779393
20
1.88098142742643
30
0
41
1
10
-1.9950399779393
20
1.98407766278629
30
0
41
1
10
-1.9950399779393
20
2.08696370566375
30
0
41
1
10
-1.9950399779393
20
2.18963189754737
30
0
41
1
10
-1.9950399779393
20
2.29207637206397
30
0
41
1
10
-1.9950399779393
20
2.39428973936722
30
0
41
1
10
-1.9950399779393
20
2.49626703199883
30
0
41
1
10
-1.9950399779393
20
2.59800197223717
30
0
41
1
10
-1.9950399779393
20
2.73345090264118
30
0
41
1
10
-1.9950399779393
20
2.86801083241156
30
0
41
1
10
-1.9950399779393
20
3.00241855173454
30
0
41
1
10
-1.9950399779393
20
3.13647582573117
30
0
41
1
10
-1.9950399779393
20
3.30310842941955
30
0
41
1
10
-1.9950399779393
20
3.46881383607317
30
0
41
1
10
-1.9950399779393
20
3.60101470543907
30
0
41
1
10
-1.9950399779393
20
3.69979996514493
30
0
41
1
10
-1.9950399779393
20
3.79829732832764
30
0
41
1
10
-1.9950399779393
20
3.92934662557204
30
0
41
1
10
-1.9950399779393
20
4.09219631216948
30
0
41
1
10
-1.9950399779393
20
4.28654650347451
30
0
41
1
10
-1.9950399779393
20
4.47969611179559
30
0
41
1
10
-1.9950399779393
20
4.67163198724225
30
0
41
1
10
-1.9950399779393
20
4.86234315765492
30
0
41
1
10
-1.9950399779393
20
5.05181944357969
30
0
41
1
10
-1.9950399779393
20
5.24005183821342
30
0
41
1
10
-1.9950399779393
20
5.42703263168386
30
0
41
1
10
-1.9950399779393
20
5.61275497462711
30
0
41
1
10
-1.9950399779393
20
5.79721217482029
30
0
41
1
10
-1.9950399779393
20
5.98039819956611
30
0
41
1
10
-1.9950399779393
20
6.16230794338162
30
0
41
1
10
-1.9950399779393
20
6.34293700639154
30
0
41
1
10
-1.9950399779393
20
6.52228076981257
30
0
41
1
10
-1.9950399779393
20
6.70033533418757
30
0
41
1
10
-1.9950399779393
20
6.87709665926303
30
0
41
1
10
-1.9950399779393
20
7.11118459991687
30
0
41
1
10
-1.9950399779393
20
7.40025292645402
30
0
41
1
10
-1.9950399779393
20
7.74205781809903
30
0
41
1
10
-1.9950399779393
20
8.02240145976876
30
0
41
1
10
-1.9950399779393
20
8.24425235284596
30
0
41
1
10
-1.9950399779393
20
8.40923674956807
30
0
41
1
10
-1.9950399779393
20
8.57289871422529
30
0
41
1
10
-1.9950399779393
20
8.73523610803539
30
0
41
1
10
-1.9950399779393
20
8.89624560664996
30
0
41
1
10
-1.9950399779393
20
9.10925720032841
30
0
41
1
10
-1.9950399779393
20
9.37195865915049
30
0
41
1
10
-1.9950399779393
20
9.6301983246166
30
0
41
1
10
-1.9950399779393
20
9.83427694277646
30
0
41
1
10
-1.9950399779393
20
9.98591881051331
30
0
41
1
10
-1.9950399779393
20
10.1362104789651
30
0
41
1
10
-1.9950399779393
20
10.2851499142426
30
0
41
1
10
-1.9950399779393
20
10.432733482583
30
0
41
1
10
-1.9950399779393
20
10.6277879483349
30
0
41
1
10
-1.9950399779393
20
10.8198574709635
30
0
41
1
10
-1.9950399779393
20
11.0094435667743
30
0
41
1
10
-1.9950399779393
20
11.1972001338813
30
0
41
1
10
-1.9950399779393
20
11.4282697094187
30
0
41
1
10
-1.9950399779393
20
11.6547268446385
30
0
41
1
10
-1.9950399779393
20
11.8332480225582
30
0
41
1
10
-1.9950399779393
20
12.0099077334538
30
0
41
1
10
-1.9950399779393
20
12.1835401209566
30
0
41
1
10
-1.9950399779393
20
12.3545748313203
30
0
41
1
10
-1.9950399779393
20
12.4813812819682
30
0
41
1
10
-1.9950399779393
20
12.6067684751262
30
0
41
1
10
-1.9950399779393
20
12.7721223466594
30
0
41
1
10
-1.9950399779393
20
12.9344093235711
30
0
41
1
10
-1.9950399779393
20
13.0940197637218
30
0
41
1
10
-1.9950399779393
20
13.2122307543484
30
0
41
1
10
-1.9950399779393
20
13.3289901210133
30
0
41
1
10
-1.9950399779393
20
13.4827901435456
30
0
41
1
10
-1.9950399779393
20
13.6334713858817
30
0
41
1
10
-1.9950399779393
20
13.7813876543746
30
0
41
1
10
-1.9950399779393
20
13.8907947392413
30
0
41
1
10
-1.9950399779393
20
13.99871189727
30
0
41
1
10
-1.9950399779393
20
14.1406647319193
30
0
41
1
10
-1.9950399779393
20
14.2794333813788
30
0
41
1
10
-1.9950399779393
20
14.4153366880849
30
0
41
1
10
-1.9950399779393
20
14.5156939237825
30
0
41
1
10
-1.9950399779393
20
14.614516060936
30
0
41
1
10
-1.9950399779393
20
14.7442755571137
30
0
41
1
10
-1.9950399779393
20
14.8707702595594
30
0
41
1
10
-1.9950399779393
20
14.9942845913974
30
0
41
1
10
-1.9950399779393
20
15.070107125687
30
0
41
1
10
-1.9950399779393
20
15.130016414734
30
0
41
1
10
-1.9950399779393
20
15.1893946011099
30
0
41
1
10
-1.9950399779393
20
15.2918890331241
30
0
41
1
10
-1.9950399779393
20
15.4056838559475
30
0
41
1
10
-1.9950399779393
20
15.5163656330196
30
0
41
1
10
-1.9950399779393
20
15.5977008570348
30
0
41
1
10
-1.9950399779393
20
15.677384979663
30
0
41
1
10
-1.9950399779393
20
15.781458474053
30
0
41
1
10
-1.9950399779393
20
15.8820499896637
30
0
41
1
10
-1.9950399779393
20
15.9793734967038
30
0
41
1
10
-1.9950399779393
20
16.0506207879892
30
0
41
1
10
-1.9950399779393
20
16.1201424632647
30
0
41
1
10
-1.9950399779393
20
16.1879246525291
30
0
41
1
10
-1.9950399779393
20
16.2539521307207
30
0
41
1
10
-1.9950399779393
20
16.3182114280861
30
0
41
1
10
-1.9950399779393
20
16.3806869997558
30
0
41
1
10
-1.9950399779393
20
16.4616240235723
30
0
41
1
10
-1.9950399779393
20
16.538824252381
30
0
41
1
10
-1.9950399779393
20
16.6124299668847
30
0
41
1
10
-1.9950399779393
20
16.6835453043615
30
0
41
1
10
-1.9950399779393
20
16.7507930080793
30
0
41
1
10
-1.9950399779393
20
16.8142877377232
30
0
41
1
10
-1.9950399779393
20
16.8751872797734
30
0
41
1
10
-1.9950399779393
20
16.9320728583858
30
0
41
1
10
-1.9950399779393
20
16.9850205784631
30
0
41
1
10
-1.9950399779393
20
17.0226788299273
30
0
41
1
10
-1.9950399779393
20
17.0582791544304
30
0
41
1
10
-1.9950399779393
20
17.1029924178939
30
0
41
1
10
-1.9950399779393
20
17.1434240170936
30
0
41
1
10
-1.9950399779393
20
17.1795896288677
30
0
41
1
10
-1.9950399779393
20
17.204505416066
30
0
41
1
10
-1.9950399779393
20
17.2271975480507
30
0
41
1
10
-1.9950399779393
20
17.2476335178127
30
0
41
1
10
-1.9950399779393
20
17.2657806121613
30
0
41
1
10
-1.9950399779393
20
17.2816041393821
30
0
41
1
10
-1.9950399779393
20
17.2950677779805
30
0
41
1
10
-1.9950399779393
20
17.3061342543252
30
0
41
1
10
-1.9950399779393
20
17.3147637210185
30
0
41
1
10
-1.9950399779393
20
17.3189468555819
30
0
41
1
10
-1.9950399779393
20
17.3206249266838
30
0
41
1
10
-1.9950399779393
20
17.3206887892835
30
0
0
SPLINE
5
C3
100
AcDbEntity
8
SK1
62
256
6
ByLayer
370
-1
48
1
60
0
100
AcDbSpline
70
4
71
3
72
106
73
102
40
0
40
0
40
0
40
0
40
0.0075864939593847
40
0.0161184316908374
40
0.0246503694222902
40
0.033182307153743
40
0.0417142448851958
40
0.0502461826166486
40
0.0587781203481014
40
0.0673100580795541
40
0.0758419958110069
40
0.0843739335424597
40
0.0929058712739125
40
0.101437809005365
40
0.109969746736818
40
0.118501684468271
40
0.135565559931176
40
0.144097497662629
40
0.152629435394082
40
0.161161373125535
40
0.169693310856987
40
0.186757186319893
40
0.195289124051346
40
0.203821061782799
40
0.220884937245704
40
0.229416874977157
40
0.23794881270861
40
0.255012688171515
40
0.263544625902968
40
0.272076563634421
40
0.280608501365874
40
0.289140439097326
40
0.297672376828779
40
0.306204314560232
40
0.314736252291685
40
0.323268190023138
40
0.340332065486043
40
0.348864003217496
40
0.357395940948949
40
0.365927878680401
40
0.374459816411854
40
0.39152369187476
40
0.400055629606213
40
0.408587567337665
40
0.417119505069118
40
0.425651442800571
40
0.442715318263476
40
0.451247255994929
40
0.459779193726382
40
0.468311131457835
40
0.476843069189288
40
0.493906944652193
40
0.502438882383646
40
0.510970820115099
40
0.519502757846552
40
0.528034695578004
40
0.54509857104091
40
0.553630508772363
40
0.562162446503815
40
0.570694384235268
40
0.579226321966721
40
0.596290197429627
40
0.604822135161079
40
0.613354072892532
40
0.621886010623985
40
0.630417948355438
40
0.647481823818343
40
0.656013761549796
40
0.664545699281249
40
0.681609574744154
40
0.69867345020706
40
0.707205387938513
40
0.715737325669966
40
0.732801201132871
40
0.741333138864324
40
0.749865076595777
40
0.758397014327229
40
0.766928952058682
40
0.775460889790135
40
0.783992827521588
40
0.801056702984493
40
0.818120578447399
40
0.826652516178852
40
0.835184453910304
40
0.843716391641757
40
0.85224832937321
40
0.860780267104663
40
0.869312204836115
40
0.886376080299021
40
0.903439955761927
40
0.920503831224832
40
0.929035768956285
40
0.937567706687738
40
0.94609964441919
40
0.954631582150643
40
0.963163519882096
40
0.971695457613549
40
0.980227395345002
40
0.988759333076454
40
0.997291270807907
40
1
40
1
40
1
40
1
41
1
10
-0.394976888875291
20
-17.3601838880359
30
0
41
1
10
-0.394976888875291
20
-17.3617494125644
30
0
41
1
10
-0.394976888875291
20
-17.3643151423935
30
0
41
1
10
-0.394976888875291
20
-17.3658104187982
30
0
41
1
10
-0.394976888875291
20
-17.364743357607
30
0
41
1
10
-0.394976888875291
20
-17.3611046370287
30
0
41
1
10
-0.394976888875291
20
-17.3549392673806
30
0
41
1
10
-0.394976888875291
20
-17.3462909837355
30
0
41
1
10
-0.394976888875291
20
-17.3352007293143
30
0
41
1
10
-0.394976888875291
20
-17.3217086001335
30
0
41
1
10
-0.394976888875291
20
-17.3058521283006
30
0
41
1
10
-0.394976888875291
20
-17.2876678324761
30
0
41
1
10
-0.394976888875291
20
-17.267190526317
30
0
41
1
10
-0.394976888875291
20
-17.2444530966284
30
0
41
1
10
-0.394976888875291
20
-17.2194882282903
30
0
41
1
10
-0.394976888875291
20
-17.1832568130363
30
0
41
1
10
-0.394976888875291
20
-17.1427382851614
30
0
41
1
10
-0.394976888875291
20
-17.0979462613767
30
0
41
1
10
-0.394976888875291
20
-17.0622798138473
30
0
41
1
10
-0.394976888875291
20
-17.0245523789023
30
0
41
1
10
-0.394976888875291
20
-16.9715145338597
30
0
41
1
10
-0.394976888875291
20
-16.9145140859045
30
0
41
1
10
-0.394976888875291
20
-16.8535135157982
30
0
41
1
10
-0.394976888875291
20
-16.7899145739052
30
0
41
1
10
-0.394976888875291
20
-16.7225357594453
30
0
41
1
10
-0.394976888875291
20
-16.6513062647865
30
0
41
1
10
-0.394976888875291
20
-16.577583428992
30
0
41
1
10
-0.394976888875291
20
-16.5002370605308
30
0
41
1
10
-0.394976888875291
20
-16.4191737242595
30
0
41
1
10
-0.394976888875291
20
-16.3565947837564
30
0
41
1
10
-0.394976888875291
20
-16.2922298184193
30
0
41
1
10
-0.394976888875291
20
-16.2260943534788
30
0
41
1
10
-0.394976888875291
20
-16.1582019227301
30
0
41
1
10
-0.394976888875291
20
-16.0885677968918
30
0
41
1
10
-0.394976888875291
20
-16.0172057910894
30
0
41
1
10
-0.394976888875291
20
-15.9197362080175
30
0
41
1
10
-0.394976888875291
20
-15.8189643575456
30
0
41
1
10
-0.394976888875291
20
-15.7147364711228
30
0
41
1
10
-0.394976888875291
20
-15.6349267495635
30
0
41
1
10
-0.394976888875291
20
-15.553463729323
30
0
41
1
10
-0.394976888875291
20
-15.4426195996911
30
0
41
1
10
-0.394976888875291
20
-15.3286250260664
30
0
41
1
10
-0.394976888875291
20
-15.2112966721243
30
0
41
1
10
-0.394976888875291
20
-15.1217290697223
30
0
41
1
10
-0.394976888875291
20
-15.0305709686995
30
0
41
1
10
-0.394976888875291
20
-14.906878048735
30
0
41
1
10
-0.394976888875291
20
-14.7801642402503
30
0
41
1
10
-0.394976888875291
20
-14.6502180265082
30
0
41
1
10
-0.394976888875291
20
-14.5512443698349
30
0
41
1
10
-0.394976888875291
20
-14.4507333574048
30
0
41
1
10
-0.394976888875291
20
-14.3146351144528
30
0
41
1
10
-0.394976888875291
20
-14.1756274353422
30
0
41
1
10
-0.394976888875291
20
-14.0334711437704
30
0
41
1
10
-0.394976888875291
20
-13.9253889575191
30
0
41
1
10
-0.394976888875291
20
-13.8158144643309
30
0
41
1
10
-0.394976888875291
20
-13.6676860465324
30
0
41
1
10
-0.394976888875291
20
-13.5167448397425
30
0
41
1
10
-0.394976888875291
20
-13.3627236430939
30
0
41
1
10
-0.394976888875291
20
-13.2457848907918
30
0
41
1
10
-0.394976888875291
20
-13.127391952352
30
0
41
1
10
-0.394976888875291
20
-12.9675509274721
30
0
41
1
10
-0.394976888875291
20
-12.8049814419576
30
0
41
1
10
-0.394976888875291
20
-12.6393872212047
30
0
41
1
10
-0.394976888875291
20
-12.5138050377602
30
0
41
1
10
-0.394976888875291
20
-12.3868007822861
30
0
41
1
10
-0.394976888875291
20
-12.2155153079022
30
0
41
1
10
-0.394976888875291
20
-12.0415756036957
30
0
41
1
10
-0.394976888875291
20
-11.8646543426879
30
0
41
1
10
-0.394976888875291
20
-11.6858676336886
30
0
41
1
10
-0.394976888875291
20
-11.4590305058839
30
0
41
1
10
-0.394976888875291
20
-11.2275701322441
30
0
41
1
10
-0.394976888875291
20
-11.0395280715927
30
0
41
1
10
-0.394976888875291
20
-10.8496518299165
30
0
41
1
10
-0.394976888875291
20
-10.6572262982852
30
0
41
1
10
-0.394976888875291
20
-10.4618684218406
30
0
41
1
10
-0.394976888875291
20
-10.3140380853821
30
0
41
1
10
-0.394976888875291
20
-10.1648479968029
30
0
41
1
10
-0.394976888875291
20
-10.0143015620689
30
0
41
1
10
-0.394976888875291
20
-9.86240079247779
30
0
41
1
10
-0.394976888875291
20
-9.65799297250354
30
0
41
1
10
-0.394976888875291
20
-9.3992804435735
30
0
41
1
10
-0.394976888875291
20
-9.13609084815204
30
0
41
1
10
-0.394976888875291
20
-8.92272120904667
30
0
41
1
10
-0.394976888875291
20
-8.76141979935898
30
0
41
1
10
-0.394976888875291
20
-8.59878513251641
30
0
41
1
10
-0.394976888875291
20
-8.43482033812748
30
0
41
1
10
-0.394976888875291
20
-8.26952734508268
30
0
41
1
10
-0.394976888875291
20
-8.04728288893983
30
0
41
1
10
-0.394976888875291
20
-7.76637137475095
30
0
41
1
10
-0.394976888875291
20
-7.42389184310318
30
0
41
1
10
-0.394976888875291
20
-7.13420904829047
30
0
41
1
10
-0.394976888875291
20
-6.89966739484251
30
0
41
1
10
-0.394976888875291
20
-6.7225342898117
30
0
41
1
10
-0.394976888875291
20
-6.54409938064705
30
0
41
1
10
-0.394976888875291
20
-6.36436626337326
30
0
41
1
10
-0.394976888875291
20
-6.18333822517317
30
0
41
1
10
-0.394976888875291
20
-6.0010194773844
30
0
41
1
10
-0.394976888875291
20
-5.81741425905383
30
0
41
1
10
-0.394976888875291
20
-5.63252720020009
30
0
41
1
10
-0.394976888875291
20
-5.48871675629277
30
0
41
1
10
-0.394976888875291
20
-5.40659331253005
30
0
41
1
10
-0.394976888875291
20
-5.38678223324203
30
0
0
SPLINE
5
C4
100
AcDbEntity
8
SK1
62
256
6
ByLayer
370
-1
48
1
60
0
100
AcDbSpline
70
4
71
3
72
107
73
103
40
0
40
0
40
0
40
0
40
0.0027087431776924
40
0.0112406780945814
40
0.0197726130114703
40
0.0283045479283593
40
0.0368364828452482
40
0.0453684177621372
40
0.0539003526790261
40
0.0624322875959151
40
0.070964222512804
40
0.079496157429693
40
0.0965600272634709
40
0.113623897097249
40
0.130687766931027
40
0.139219701847916
40
0.147751636764805
40
0.156283571681693
40
0.164815506598582
40
0.173347441515471
40
0.18187937643236
40
0.198943246266138
40
0.216007116099916
40
0.224539051016805
40
0.233070985933694
40
0.241602920850583
40
0.250134855767472
40
0.258666790684361
40
0.26719872560125
40
0.284262595435028
40
0.292794530351917
40
0.301326465268806
40
0.318390335102584
40
0.335454204936362
40
0.34398613985325
40
0.352518074770139
40
0.369581944603917
40
0.378113879520806
40
0.386645814437695
40
0.395177749354584
40
0.403709684271473
40
0.420773554105251
40
0.42930548902214
40
0.437837423939029
40
0.446369358855918
40
0.454901293772807
40
0.471965163606585
40
0.480497098523474
40
0.489029033440363
40
0.497560968357252
40
0.506092903274141
40
0.523156773107918
40
0.531688708024807
40
0.540220642941696
40
0.548752577858585
40
0.557284512775474
40
0.574348382609252
40
0.582880317526141
40
0.59141225244303
40
0.595678219901475
40
0.599944187359919
40
0.608476122276808
40
0.625539992110586
40
0.634071927027475
40
0.642603861944364
40
0.651135796861253
40
0.659667731778142
40
0.67673160161192
40
0.685263536528808
40
0.693795471445698
40
0.702327406362586
40
0.710859341279475
40
0.719391276196364
40
0.727923211113253
40
0.736455146030142
40
0.744987080947031
40
0.762050950780809
40
0.770582885697698
40
0.779114820614587
40
0.796178690448365
40
0.804710625365254
40
0.813242560282143
40
0.830306430115921
40
0.83883836503281
40
0.847370299949699
40
0.855902234866588
40
0.864434169783476
40
0.881498039617254
40
0.890029974534143
40
0.898561909451032
40
0.907093844367921
40
0.91562577928481
40
0.924157714201699
40
0.932689649118588
40
0.941221584035477
40
0.949753518952366
40
0.958285453869255
40
0.966817388786144
40
0.975349323703033
40
0.983881258619922
40
0.992413193536811
40
1
40
1
40
1
40
1
41
1
10
-0.394976888875291
20
5.38678189578289
30
0
41
1
10
-0.394976888875291
20
5.4065930765673
30
0
41
1
10
-0.394976888875291
20
5.48871660168982
30
0
41
1
10
-0.394976888875291
20
5.63252719489225
30
0
41
1
10
-0.394976888875291
20
5.8174145162354
30
0
41
1
10
-0.394976888875291
20
6.00101977124669
30
0
41
1
10
-0.394976888875291
20
6.18333830919048
30
0
41
1
10
-0.394976888875291
20
6.3643662218949
30
0
41
1
10
-0.394976888875291
20
6.54409937286439
30
0
41
1
10
-0.394976888875291
20
6.72253430941348
30
0
41
1
10
-0.394976888875291
20
6.89966740060396
30
0
41
1
10
-0.394976888875291
20
7.13420903787926
30
0
41
1
10
-0.394976888875291
20
7.42389186204957
30
0
41
1
10
-0.394976888875291
20
7.76637138106329
30
0
41
1
10
-0.394976888875291
20
8.04728288344245
30
0
41
1
10
-0.394976888875291
20
8.26952736598562
30
0
41
1
10
-0.394976888875291
20
8.434820354761
30
0
41
1
10
-0.394976888875291
20
8.59878513137221
30
0
41
1
10
-0.394976888875291
20
8.76141979186249
30
0
41
1
10
-0.394976888875291
20
8.922721214403
30
0
41
1
10
-0.394976888875291
20
9.1360908691222
30
0
41
1
10
-0.394976888875291
20
9.39928045092248
30
0
41
1
10
-0.394976888875291
20
9.65799296546987
30
0
41
1
10
-0.394976888875291
20
9.86240080704218
30
0
41
1
10
-0.394976888875291
20
10.0143015815252
30
0
41
1
10
-0.394976888875291
20
10.1648480067744
30
0
41
1
10
-0.394976888875291
20
10.3140380843155
30
0
41
1
10
-0.394976888875291
20
10.4618684189216
30
0
41
1
10
-0.394976888875291
20
10.6572263081632
30
0
41
1
10
-0.394976888875291
20
10.8496518506122
30
0
41
1
10
-0.394976888875291
20
11.0395280782787
30
0
41
1
10
-0.394976888875291
20
11.2275701299333
30
0
41
1
10
-0.394976888875291
20
11.4590305143918
30
0
41
1
10
-0.394976888875291
20
11.685867652055
30
0
41
1
10
-0.394976888875291
20
11.864654349678
30
0
41
1
10
-0.394976888875291
20
12.0415756040849
30
0
41
1
10
-0.394976888875291
20
12.2155153161813
30
0
41
1
10
-0.394976888875291
20
12.3868007979199
30
0
41
1
10
-0.394976888875291
20
12.5138050519686
30
0
41
1
10
-0.394976888875291
20
12.6393872302303
30
0
41
1
10
-0.394976888875291
20
12.8049814458532
30
0
41
1
10
-0.394976888875291
20
12.9675509360494
30
0
41
1
10
-0.394976888875291
20
13.1273919665529
30
0
41
1
10
-0.394976888875291
20
13.2457849051211
30
0
41
1
10
-0.394976888875291
20
13.3627236547323
30
0
41
1
10
-0.394976888875291
20
13.5167448476072
30
0
41
1
10
-0.394976888875291
20
13.6676860552913
30
0
41
1
10
-0.394976888875291
20
13.8158144768541
30
0
41
1
10
-0.394976888875291
20
13.9253889718329
30
0
41
1
10
-0.394976888875291
20
14.0334711580348
30
0
41
1
10
-0.394976888875291
20
14.1756274475866
30
0
41
1
10
-0.394976888875291
20
14.3146351237356
30
0
41
1
10
-0.394976888875291
20
14.4507333681675
30
0
41
1
10
-0.394976888875291
20
14.5512443837086
30
0
41
1
10
-0.394976888875291
20
14.6502180419884
30
0
41
1
10
-0.394976888875291
20
14.780164253239
30
0
41
1
10
-0.394976888875291
20
14.9068780878822
30
0
41
1
10
-0.394976888875291
20
15.0305708978545
30
0
41
1
10
-0.394976888875291
20
15.1065165223896
30
0
41
1
10
-0.394976888875291
20
15.1665127141503
30
0
41
1
10
-0.394976888875291
20
15.2259771214207
30
0
41
1
10
-0.394976888875291
20
15.3286250474485
30
0
41
1
10
-0.394976888875291
20
15.4426196109061
30
0
41
1
10
-0.394976888875291
20
15.5534637367265
30
0
41
1
10
-0.394976888875291
20
15.6349267624759
30
0
41
1
10
-0.394976888875291
20
15.7147364921469
30
0
41
1
10
-0.394976888875291
20
15.8189643831875
30
0
41
1
10
-0.394976888875291
20
15.9197362187748
30
0
41
1
10
-0.394976888875291
20
16.0172057969154
30
0
41
1
10
-0.394976888875291
20
16.0885678110446
30
0
41
1
10
-0.394976888875291
20
16.1582019472912
30
0
41
1
10
-0.394976888875291
20
16.2260943811825
30
0
41
1
10
-0.394976888875291
20
16.2922298358683
30
0
41
1
10
-0.394976888875291
20
16.3565947902754
30
0
41
1
10
-0.394976888875291
20
16.4191737297992
30
0
41
1
10
-0.394976888875291
20
16.5002370830775
30
0
41
1
10
-0.394976888875291
20
16.5775834628441
30
0
41
1
10
-0.394976888875291
20
16.6513062771915
30
0
41
1
10
-0.394976888875291
20
16.7225357579897
30
0
41
1
10
-0.394976888875291
20
16.7899145981056
30
0
41
1
10
-0.394976888875291
20
16.8535135500206
30
0
41
1
10
-0.394976888875291
20
16.9145141001581
30
0
41
1
10
-0.394976888875291
20
16.9715145305624
30
0
41
1
10
-0.394976888875291
20
17.024552403858
30
0
41
1
10
-0.394976888875291
20
17.0622798511847
30
0
41
1
10
-0.394976888875291
20
17.0979462837243
30
0
41
1
10
-0.394976888875291
20
17.1427382787905
30
0
41
1
10
-0.394976888875291
20
17.1832568369982
30
0
41
1
10
-0.394976888875291
20
17.2194882612007
30
0
41
1
10
-0.394976888875291
20
17.2444531170066
30
0
41
1
10
-0.394976888875291
20
17.2671905287463
30
0
41
1
10
-0.394976888875291
20
17.2876678382251
30
0
41
1
10
-0.394976888875291
20
17.3058521626298
30
0
41
1
10
-0.394976888875291
20
17.3217086355548
30
0
41
1
10
-0.394976888875291
20
17.3352007360526
30
0
41
1
10
-0.394976888875291
20
17.3462909802274
30
0
41
1
10
-0.394976888875291
20
17.3549392880652
30
0
41
1
10
-0.394976888875291
20
17.3611046305144
30
0
41
1
10
-0.394976888875291
20
17.3647432146661
30
0
41
1
10
-0.394976888875291
20
17.3658102005923
30
0
41
1
10
-0.394976888875291
20
17.364315051121
30
0
41
1
10
-0.394976888875291
20
17.3617494022354
30
0
41
1
10
-0.394976888875291
20
17.3601838596929
30
0
0
SPLINE
5
C5
100
AcDbEntity
8
SK1
62
256
6
ByLayer
370
-1
48
1
60
0
100
AcDbSpline
70
4
71
3
72
288
73
284
40
0
40
0
40
0
40
0
40
0.002285132166597
40
0.0057901727602925
40
0.009295213353988
40
0.0128002539476835
40
0.0163052945413791
40
0.0198103351350746
40
0.0233153757287701
40
0.0268204163224657
40
0.0303254569161612
40
0.0338304975098567
40
0.0373355381035523
40
0.0408405786972478
40
0.0443456192909433
40
0.0513557004783343
40
0.0548607410720299
40
0.0583657816657254
40
0.0618708222594209
40
0.0653758628531164
40
0.0723859440405075
40
0.075890984634203
40
0.0793960252278986
40
0.0864061064152896
40
0.0899111470089851
40
0.0934161876026806
40
0.100426268790072
40
0.103931309383767
40
0.107436349977463
40
0.110941390571158
40
0.114446431164854
40
0.117951471758549
40
0.121456512352245
40
0.12496155294594
40
0.128466593539636
40
0.135476674727027
40
0.138981715320723
40
0.142486755914418
40
0.145991796508114
40
0.149496837101809
40
0.1565069182892
40
0.160011958882896
40
0.163516999476591
40
0.167022040070287
40
0.170527080663982
40
0.177537161851373
40
0.181042202445069
40
0.184547243038764
40
0.18805228363246
40
0.191557324226155
40
0.198567405413546
40
0.202072446007242
40
0.205577486600937
40
0.209082527194633
40
0.212587567788329
40
0.21959764897572
40
0.223102689569415
40
0.226607730163111
40
0.230112770756806
40
0.233617811350502
40
0.240627892537893
40
0.244132933131588
40
0.247637973725284
40
0.251143014318979
40
0.254648054912675
40
0.261658136100066
40
0.265163176693761
40
0.268668217287457
40
0.275678298474848
40
0.282688379662239
40
0.286193420255935
40
0.28969846084963
40
0.296708542037021
40
0.300213582630717
40
0.303718623224412
40
0.307223663818108
40
0.310728704411803
40
0.314233745005499
40
0.317738785599194
40
0.324748866786585
40
0.331758947973976
40
0.335263988567672
40
0.338769029161367
40
0.342274069755063
40
0.345779110348759
40
0.349284150942454
40
0.35278919153615
40
0.359799272723541
40
0.366809353910932
40
0.373819435098323
40
0.377324475692018
40
0.380829516285714
40
0.384334556879409
40
0.387839597473105
40
0.3913446380668
40
0.394849678660496
40
0.398354719254191
40
0.401859759847887
40
0.405364800441582
40
0.408869841035278
40
0.412374881628974
40
0.415879922222669
40
0.419384962816365
40
0.42289000341006
40
0.426395044003756
40
0.429900084597451
40
0.433405125191146
40
0.435157645487994
40
0.436910165784842
40
0.43866268608169
40
0.440415206378538
40
0.443920246972233
40
0.447425287565929
40
0.449177807862776
40
0.450930328159624
40
0.452682848456472
40
0.45443536875332
40
0.456187889050167
40
0.457940409347015
40
0.461445449940711
40
0.463197970237558
40
0.464950490534406
40
0.466703010831254
40
0.468455531128102
40
0.470208051424949
40
0.471960571721797
40
0.473713092018645
40
0.475465612315493
40
0.477218132612341
40
0.478970652909188
40
0.480723173206036
40
0.482475693502884
40
0.484228213799732
40
0.485980734096579
40
0.487733254393427
40
0.489485774690275
40
0.491238294987123
40
0.49299081528397
40
0.494743335580818
40
0.496495855877666
40
0.498248376174514
40
0.500000896471361
40
0.501753416768209
40
0.503505937065057
40
0.505258457361905
40
0.507010977658753
40
0.5087634979556
40
0.510516018252448
40
0.512268538549296
40
0.514021058846144
40
0.515773579142991
40
0.517526099439839
40
0.519278619736687
40
0.521031140033535
40
0.522783660330382
40
0.52453618062723
40
0.526288700924078
40
0.528041221220926
40
0.529793741517773
40
0.531546261814621
40
0.533298782111469
40
0.535051302408317
40
0.536803822705164
40
0.538556343002012
40
0.54030886329886
40
0.542061383595708
40
0.543813903892556
40
0.545566424189403
40
0.549071464783099
40
0.550823985079947
40
0.552576505376795
40
0.55608154597049
40
0.559586586564186
40
0.561339106861033
40
0.563091627157881
40
0.564844147454729
40
0.566596667751576
40
0.570101708345272
40
0.573606748938968
40
0.577111789532663
40
0.580616830126359
40
0.584121870720054
40
0.58762691131375
40
0.591131951907445
40
0.594636992501141
40
0.598142033094836
40
0.601647073688532
40
0.605152114282227
40
0.608657154875923
40
0.612162195469618
40
0.615667236063314
40
0.619172276657009
40
0.622677317250705
40
0.6261823578444
40
0.633192439031791
40
0.640202520219183
40
0.647212601406574
40
0.650717642000269
40
0.654222682593965
40
0.65772772318766
40
0.661232763781356
40
0.664737804375051
40
0.668242844968747
40
0.675252926156138
40
0.682263007343529
40
0.685768047937224
40
0.68927308853092
40
0.692778129124615
40
0.696283169718311
40
0.699788210312006
40
0.703293250905702
40
0.710303332093093
40
0.713808372686789
40
0.717313413280484
40
0.724323494467875
40
0.731333575655266
40
0.734838616248962
40
0.738343656842657
40
0.745353738030048
40
0.748858778623744
40
0.752363819217439
40
0.755868859811135
40
0.75937390040483
40
0.766383981592221
40
0.769889022185917
40
0.773394062779612
40
0.776899103373308
40
0.780404143967004
40
0.787414225154395
40
0.79091926574809
40
0.794424306341786
40
0.797929346935481
40
0.801434387529177
40
0.808444468716568
40
0.811949509310263
40
0.815454549903959
40
0.818959590497654
40
0.82246463109135
40
0.829474712278741
40
0.832979752872436
40
0.836484793466132
40
0.83823731376298
40
0.839989834059827
40
0.843494874653523
40
0.850504955840914
40
0.85400999643461
40
0.857515037028305
40
0.861020077622001
40
0.864525118215696
40
0.871535199403087
40
0.875040239996783
40
0.878545280590478
40
0.882050321184174
40
0.885555361777869
40
0.889060402371565
40
0.89256544296526
40
0.896070483558956
40
0.899575524152652
40
0.906585605340043
40
0.910090645933738
40
0.913595686527434
40
0.920605767714825
40
0.92411080830852
40
0.927615848902215
40
0.934625930089607
40
0.938130970683302
40
0.941636011276998
40
0.945141051870693
40
0.948646092464389
40
0.95565617365178
40
0.959161214245475
40
0.962666254839171
40
0.966171295432867
40
0.969676336026562
40
0.973181376620258
40
0.976686417213953
40
0.980191457807648
40
0.983696498401344
40
0.987201538995039
40
0.990706579588735
40
0.99421162018243
40
0.997716660776126
40
1
40
1
40
1
40
1
41
1
10
-30
20
-15.9926656704961
30
0
41
1
10
-30
20
-15.9930575022002
30
0
41
1
10
-30
20
-15.9936130022934
30
0
41
1
10
-30
20
-15.992743696334
30
0
41
1
10
-30
20
-15.9893850921089
30
0
41
1
10
-30
20
-15.9836860314146
30
0
41
1
10
-30
20
-15.9756808210229
30
0
41
1
10
-30
20
-15.9654018084481
30
0
41
1
10
-30
20
-15.9528811264941
30
0
41
1
10
-30
20
-15.9381491278438
30
0
41
1
10
-30
20
-15.9212355486336
30
0
41
1
10
-30
20
-15.9021692443494
30
0
41
1
10
-30
20
-15.8809772874923
30
0
41
1
10
-30
20
-15.85768719628
30
0
41
1
10
-30
20
-15.8237020449635
30
0
41
1
10
-30
20
-15.786151572388
30
0
41
1
10
-30
20
-15.7440467976174
30
0
41
1
10
-30
20
-15.7106366986067
30
0
41
1
10
-30
20
-15.6752710038507
30
0
41
1
10
-30
20
-15.6253102414823
30
0
41
1
10
-30
20
-15.5722298833996
30
0
41
1
10
-30
20
-15.5146768571488
30
0
41
1
10
-30
20
-15.454635155867
30
0
41
1
10
-30
20
-15.3917322415494
30
0
41
1
10
-30
20
-15.3243986601424
30
0
41
1
10
-30
20
-15.2546726017927
30
0
41
1
10
-30
20
-15.1823145630236
30
0
41
1
10
-30
20
-15.1055630554725
30
0
41
1
10
-30
20
-15.0465122402176
30
0
41
1
10
-30
20
-14.985753516587
30
0
41
1
10
-30
20
-14.9233034368069
30
0
41
1
10
-30
20
-14.8591738020485
30
0
41
1
10
-30
20
-14.7933781380804
30
0
41
1
10
-30
20
-14.7259318150055
30
0
41
1
10
-30
20
-14.6334478809413
30
0
41
1
10
-30
20
-14.5388306139923
30
0
41
1
10
-30
20
-14.4398724968665
30
0
41
1
10
-30
20
-14.3643499358607
30
0
41
1
10
-30
20
-14.2872489988171
30
0
41
1
10
-30
20
-14.1819460940194
30
0
41
1
10
-30
20
-14.0747689624993
30
0
41
1
10
-30
20
-13.9632604256822
30
0
41
1
10
-30
20
-13.8784200007502
30
0
41
1
10
-30
20
-13.7920640526129
30
0
41
1
10
-30
20
-13.674463030797
30
0
41
1
10
-30
20
-13.5552283874056
30
0
41
1
10
-30
20
-13.4316550911985
30
0
41
1
10
-30
20
-13.337853067095
30
0
41
1
10
-30
20
-13.2425907988595
30
0
41
1
10
-30
20
-13.1131460860381
30
0
41
1
10
-30
20
-12.9822967545723
30
0
41
1
10
-30
20
-12.847084683004
30
0
41
1
10
-30
20
-12.7446351532221
30
0
41
1
10
-30
20
-12.6407746180399
30
0
41
1
10
-30
20
-12.499887311655
30
0
41
1
10
-30
20
-12.3578191289812
30
0
41
1
10
-30
20
-12.2113468162578
30
0
41
1
10
-30
20
-12.100530667573
30
0
41
1
10
-30
20
-11.9883478761207
30
0
41
1
10
-30
20
-11.836377249174
30
0
41
1
10
-30
20
-11.6834503922585
30
0
41
1
10
-30
20
-11.5260594948948
30
0
41
1
10
-30
20
-11.4071324366749
30
0
41
1
10
-30
20
-11.2868794886981
30
0
41
1
10
-30
20
-11.1241532157817
30
0
41
1
10
-30
20
-10.9607029988619
30
0
41
1
10
-30
20
-10.7927086404326
30
0
41
1
10
-30
20
-10.6229844866849
30
0
41
1
10
-30
20
-10.4091173939315
30
0
41
1
10
-30
20
-10.1909959678347
30
0
41
1
10
-30
20
-10.0126979588287
30
0
41
1
10
-30
20
-9.83272430289384
30
0
41
1
10
-30
20
-9.65245023276196
30
0
41
1
10
-30
20
-9.46744871362009
30
0
41
1
10
-30
20
-9.32804093460692
30
0
41
1
10
-30
20
-9.18740563851225
30
0
41
1
10
-30
20
-9.0455543785921
30
0
41
1
10
-30
20
-8.90249044231982
30
0
41
1
10
-30
20
-8.70931958714519
30
0
41
1
10
-30
20
-8.46674616603482
30
0
41
1
10
-30
20
-8.22021686294167
30
0
41
1
10
-30
20
-8.01906836645577
30
0
41
1
10
-30
20
-7.86773085832667
30
0
41
1
10
-30
20
-7.71524241280142
30
0
41
1
10
-30
20
-7.56161298420645
30
0
41
1
10
-30
20
-7.40685260452798
30
0
41
1
10
-30
20
-7.19804202206524
30
0
41
1
10
-30
20
-6.93651252502835
30
0
41
1
10
-30
20
-6.61705894701072
30
0
41
1
10
-30
20
-6.34834996432815
30
0
41
1
10
-30
20
-6.12929373929515
30
0
41
1
10
-30
20
-5.96484945115367
30
0
41
1
10
-30
20
-5.7993974381898
30
0
41
1
10
-30
20
-5.63295542814623
30
0
41
1
10
-30
20
-5.46554083189747
30
0
41
1
10
-30
20
-5.29717335727497
30
0
41
1
10
-30
20
-5.12787591307327
30
0
41
1
10
-30
20
-4.9576706384986
30
0
41
1
10
-30
20
-4.78658071628459
30
0
41
1
10
-30
20
-4.6146335506248
30
0
41
1
10
-30
20
-4.44186113006069
30
0
41
1
10
-30
20
-4.26829321973949
30
0
41
1
10
-30
20
-4.09396155182321
30
0
41
1
10
-30
20
-3.91890592173868
30
0
41
1
10
-30
20
-3.74316620306936
30
0
41
1
10
-30
20
-3.56678705857649
30
0
41
1
10
-30
20
-3.42015123791836
30
0
41
1
10
-30
20
-3.3009810984795
30
0
41
1
10
-30
20
-3.21216327477833
30
0
41
1
10
-30
20
-3.12322377081893
30
0
41
1
10
-30
20
-3.00356413190352
30
0
41
1
10
-30
20
-2.85589664233001
30
0
41
1
10
-30
20
-2.70788037697056
30
0
41
1
10
-30
20
-2.58749550859633
30
0
41
1
10
-30
20
-2.49793822974365
30
0
41
1
10
-30
20
-2.40833000131903
30
0
41
1
10
-30
20
-2.31867596083524
30
0
41
1
10
-30
20
-2.22899146909501
30
0
41
1
10
-30
20
-2.10827328924756
30
0
41
1
10
-30
20
-1.99097459417121
30
0
41
1
10
-30
20
-1.87012467714987
30
0
41
1
10
-30
20
-1.78043031683035
30
0
41
1
10
-30
20
-1.69076251244053
30
0
41
1
10
-30
20
-1.60113247848605
30
0
41
1
10
-30
20
-1.51155313609783
30
0
41
1
10
-30
20
-1.422025757727
30
0
41
1
10
-30
20
-1.33256776537959
30
0
41
1
10
-30
20
-1.24317741509074
30
0
41
1
10
-30
20
-1.15386860885192
30
0
41
1
10
-30
20
-1.06464013673647
30
0
41
1
10
-30
20
-0.975500136218244
30
0
41
1
10
-30
20
-0.886447988926847
30
0
41
1
10
-30
20
-0.797485776681128
30
0
41
1
10
-30
20
-0.708610852102623
30
0
41
1
10
-30
20
-0.61982073744278
30
0
41
1
10
-30
20
-0.531109764951225
30
0
41
1
10
-30
20
-0.442471434007643
30
0
41
1
10
-30
20
-0.35389600796347
30
0
41
1
10
-30
20
-0.265373879214224
30
0
41
1
10
-30
20
-0.176892371692162
30
0
41
1
10
-30
20
-0.0884392148653887
30
0
41
1
10
-30
20
-2.04973958E-08
30
0
41
1
10
-30
20
0.0884392031952927
30
0
41
1
10
-30
20
0.17689241471993
30
0
41
1
10
-30
20
0.265373915570137
30
0
41
1
10
-30
20
0.353895962579486
30
0
41
1
10
-30
20
0.442471374506823
30
0
41
1
10
-30
20
0.531109813902646
30
0
41
1
10
-30
20
0.61982082298212
30
0
41
1
10
-30
20
0.70861080655007
30
0
41
1
10
-30
20
0.797485667180155
30
0
41
1
10
-30
20
0.886448026006832
30
0
41
1
10
-30
20
0.97550027278379
30
0
41
1
10
-30
20
1.06464012636249
30
0
41
1
10
-30
20
1.1538684580087
30
0
41
1
10
-30
20
1.24317738635406
30
0
41
1
10
-30
20
1.33256791795026
30
0
41
1
10
-30
20
1.42202585063245
30
0
41
1
10
-30
20
1.5115530207047
30
0
41
1
10
-30
20
1.60113232466117
30
0
41
1
10
-30
20
1.69076256252157
30
0
41
1
10
-30
20
1.78043050963589
30
0
41
1
10
-30
20
1.87012473193457
30
0
41
1
10
-30
20
1.95984062320625
30
0
41
1
10
-30
20
2.04956121840735
30
0
41
1
10
-30
20
2.13928298465069
30
0
41
1
10
-30
20
2.22899154181988
30
0
41
1
10
-30
20
2.34971237639812
30
0
41
1
10
-30
20
2.4670581044816
30
0
41
1
10
-30
20
2.58749567267543
30
0
41
1
10
-30
20
2.70788056755165
30
0
41
1
10
-30
20
2.85589666602098
30
0
41
1
10
-30
20
3.00356394920902
30
0
41
1
10
-30
20
3.12322374659235
30
0
41
1
10
-30
20
3.21216341650842
30
0
41
1
10
-30
20
3.3009812939207
30
0
41
1
10
-30
20
3.4201512431562
30
0
41
1
10
-30
20
3.56678672363677
30
0
41
1
10
-30
20
3.74316585626101
30
0
41
1
10
-30
20
3.91890584757377
30
0
41
1
10
-30
20
4.09396100129445
30
0
41
1
10
-30
20
4.26829259541552
30
0
41
1
10
-30
20
4.44186183082067
30
0
41
1
10
-30
20
4.61463414914383
30
0
41
1
10
-30
20
4.78658021025493
30
0
41
1
10
-30
20
4.95767123056282
30
0
41
1
10
-30
20
5.1278778625566
30
0
41
1
10
-30
20
5.29717415068043
30
0
41
1
10
-30
20
5.46553992297876
30
0
41
1
10
-30
20
5.63295448869491
30
0
41
1
10
-30
20
5.79939725011727
30
0
41
1
10
-30
20
5.96484950556561
30
0
41
1
10
-30
20
6.1292936535483
30
0
41
1
10
-30
20
6.34834993475852
30
0
41
1
10
-30
20
6.6170590196507
30
0
41
1
10
-30
20
6.93651248001379
30
0
41
1
10
-30
20
7.19804203228608
30
0
41
1
10
-30
20
7.40685270744595
30
0
41
1
10
-30
20
7.56161297986856
30
0
41
1
10
-30
20
7.71524232371232
30
0
41
1
10
-30
20
7.86773082006812
30
0
41
1
10
-30
20
8.01906843480592
30
0
41
1
10
-30
20
8.22021692135615
30
0
41
1
10
-30
20
8.46674612315107
30
0
41
1
10
-30
20
8.7093195790371
30
0
41
1
10
-30
20
8.90249052457438
30
0
41
1
10
-30
20
9.04555441784282
30
0
41
1
10
-30
20
9.18740560593943
30
0
41
1
10
-30
20
9.32804088163152
30
0
41
1
10
-30
20
9.46744870809565
30
0
41
1
10
-30
20
9.65245029192155
30
0
41
1
10
-30
20
9.83272433616031
30
0
41
1
10
-30
20
10.0126979221092
30
0
41
1
10
-30
20
10.1909959517429
30
0
41
1
10
-30
20
10.4091174330404
30
0
41
1
10
-30
20
10.6229845090751
30
0
41
1
10
-30
20
10.7927086151923
30
0
41
1
10
-30
20
10.9607029915804
30
0
41
1
10
-30
20
11.1241532476502
30
0
41
1
10
-30
20
11.286879520772
30
0
41
1
10
-30
20
11.4071324437642
30
0
41
1
10
-30
20
11.526059483736
30
0
41
1
10
-30
20
11.6834503898541
30
0
41
1
10
-30
20
11.8363772717575
30
0
41
1
10
-30
20
11.9883479026383
30
0
41
1
10
-30
20
12.100530681097
30
0
41
1
10
-30
20
12.211346817793
30
0
41
1
10
-30
20
12.3578191303265
30
0
41
1
10
-30
20
12.4998873251013
30
0
41
1
10
-30
20
12.640774639564
30
0
41
1
10
-30
20
12.7446351726738
30
0
41
1
10
-30
20
12.8470846962099
30
0
41
1
10
-30
20
12.9822967603461
30
0
41
1
10
-30
20
13.1131460918651
30
0
41
1
10
-30
20
13.2425908150843
30
0
41
1
10
-30
20
13.3378530905647
30
0
41
1
10
-30
20
13.431655102243
30
0
41
1
10
-30
20
13.5552284439381
30
0
41
1
10
-30
20
13.6744629632361
30
0
41
1
10
-30
20
13.7920640428987
30
0
41
1
10
-30
20
13.8638084100541
30
0
41
1
10
-30
20
13.9208384799595
30
0
41
1
10
-30
20
13.9773600368974
30
0
41
1
10
-30
20
14.0747689786766
30
0
41
1
10
-30
20
14.1819460903518
30
0
41
1
10
-30
20
14.2872490063531
30
0
41
1
10
-30
20
14.3643499644422
30
0
41
1
10
-30
20
14.4398725346097
30
0
41
1
10
-30
20
14.5388306330265
30
0
41
1
10
-30
20
14.6334478734244
30
0
41
1
10
-30
20
14.7259318226356
30
0
41
1
10
-30
20
14.793378171537
30
0
41
1
10
-30
20
14.8591738437125
30
0
41
1
10
-30
20
14.9233034607296
30
0
41
1
10
-30
20
14.9857535133679
30
0
41
1
10
-30
20
15.0465122321639
30
0
41
1
10
-30
20
15.1055630695376
30
0
41
1
10
-30
20
15.1823146060513
30
0
41
1
10
-30
20
15.2546726312332
30
0
41
1
10
-30
20
15.3243986497297
30
0
41
1
10
-30
20
15.3917322452796
30
0
41
1
10
-30
20
15.4546352005829
30
0
41
1
10
-30
20
15.5146768877911
30
0
41
1
10
-30
20
15.5722298782127
30
0
41
1
10
-30
20
15.6253102421943
30
0
41
1
10
-30
20
15.6752710489662
30
0
41
1
10
-30
20
15.7106367362118
30
0
41
1
10
-30
20
15.7440468008705
30
0
41
1
10
-30
20
15.7861515665346
30
0
41
1
10
-30
20
15.8237020814765
30
0
41
1
10
-30
20
15.8576872273509
30
0
41
1
10
-30
20
15.8809772969169
30
0
41
1
10
-30
20
15.9021692417172
30
0
41
1
10
-30
20
15.921235563756
30
0
41
1
10
-30
20
15.9381491696965
30
0
41
1
10
-30
20
15.9528811556007
30
0
41
1
10
-30
20
15.9654018081648
30
0
41
1
10
-30
20
15.9756808201301
30
0
41
1
10
-30
20
15.9836860510364
30
0
41
1
10
-30
20
15.989385071505
30
0
41
1
10
-30
20
15.992743547039
30
0
41
1
10
-30
20
15.9936126281558
30
0
41
1
10
-30
20
15.993057693218
30
0
41
1
10
-30
20
15.9926664703535
30
0
0
SPLINE
5
C6
100
AcDbEntity
8
SK1
62
256
6
ByLayer
370
-1
48
1
60
0
100
AcDbSpline
70
4
71
3
72
22
73
18
40
0
40
0
40
0
40
0
40
0.0394331151890913
40
0.0394331151890913
40
0.0795339708694828
40
0.0795339708694828
40
0.109637917244288
40
0.109637917244288
40
0.13957706301322
40
0.13957706301322
40
0.189266399657458
40
0.189266399657458
40
0.289571152403382
40
0.289571152403382
40
0.658284396834382
40
0.658284396834382
40
1
40
1
40
1
40
1
41
1
10
-0.394976888875291
20
5.38678189578292
30
0
41
1
10
-0.415237014773382
20
5.40399317028476
30
0
41
1
10
-0.437419275645468
20
5.41977813092004
30
0
41
1
10
-0.486103141154984
20
5.44521655864725
30
0
41
1
10
-0.51341298093098
20
5.45496005292577
30
0
41
1
10
-0.562874322366525
20
5.46212264681108
30
0
41
1
10
-0.585106616517606
20
5.46199323188387
30
0
41
1
10
-0.627692822126718
20
5.45533455005088
30
0
41
1
10
-0.648523068172736
20
5.44883772858989
30
0
41
1
10
-0.699826196362139
20
5.42613682765011
30
0
41
1
10
-0.728695564403452
20
5.40623396070797
30
0
41
1
10
-0.806075449923839
20
5.34007786619352
30
0
41
1
10
-0.847522380016557
20
5.28655870152033
30
0
41
1
10
-1.01570466784385
20
5.03084699030373
30
0
41
1
10
-1.09210771407481
20
4.80149729085085
30
0
41
1
10
-1.21929875138234
20
4.35887826398974
30
0
41
1
10
-1.26692602208389
20
4.13998960128646
30
0
41
1
10
-1.30710678118655
20
3.91806548057696
30
0
0
SPLINE
5
C7
100
AcDbEntity
8
1
62
256
6
ByLayer
370
-1
48
1
60
0
100
AcDbSpline
70
4
71
3
72
16
73
12
40
0
40
0
40
0
40
0
40
0.0629997311900711
40
0.0629997311900711
40
0.28587277716373
40
0.28587277716373
40
0.511544652680465
40
0.511544652680465
40
0.751675359283789
40
0.751675359283789
40
1
40
1
40
1
40
1
41
1
10
55.1854645186593
20
-30.1854645186592
30
0
41
1
10
55.1795049471776
20
-30.1914240901409
30
0
41
1
10
55.1732798359797
20
-30.197131757336
30
0
41
1
10
55.1441756901669
20
-30.2215861697915
30
0
41
1
10
55.1183125149705
20
-30.2372562054189
30
0
41
1
10
55.0641803883694
20
-30.2598416734177
30
0
41
1
10
55.0352054388779
20
-30.2669540425737
30
0
41
1
10
54.9763683828315
20
-30.2725630500955
30
0
41
1
10
54.9458346026828
20
-30.2705805575903
30
0
41
1
10
54.8874918912557
20
-30.2579407358252
30
0
41
1
10
54.8591485909009
20
-30.2468755290971
30
0
41
1
10
54.8336986799055
20
-30.2322769705245
30
0
0
SPLINE
5
C8
100
AcDbEntity
8
1
62
256
6
ByLayer
370
-1
48
1
60
0
100
AcDbSpline
70
4
71
3
72
16
73
12
40
0
40
0
40
0
40
0
40
0.0570946626181429
40
0.0570946626181429
40
0.280051745717122
40
0.280051745717122
40
0.505470715177428
40
0.505470715177428
40
0.745074291066791
40
0.745074291066791
40
1
40
1
40
1
40
1
41
1
10
55.6205791879491
20
-28.5706104966511
30
0
41
1
10
55.6225368057895
20
-28.5779988345246
30
0
41
1
10
55.6242055263136
20
-28.5854711654289
30
0
41
1
10
55.6308915457563
20
-28.6221147520591
30
0
41
1
10
55.631688943963
20
-28.6523724392116
30
0
41
1
10
55.62447193779
20
-28.7106007494453
30
0
41
1
10
55.6162914509926
20
-28.7392869556288
30
0
41
1
10
55.5920200568697
20
-28.793134613231
30
0
41
1
10
55.5751887887743
20
-28.8186482001568
30
0
41
1
10
55.5347837283553
20
-28.863659296218
30
0
41
1
10
55.5103924007803
20
-28.883223825217
30
0
41
1
10
55.4843221457742
20
-28.8982759196385
30
0
0
SPLINE
5
C9
100
AcDbEntity
8
1
62
256
6
ByLayer
370
-1
48
1
60
0
100
AcDbSpline
70
4
71
3
72
12
73
8
40
0
40
0
40
0
40
0
40
0.422118814263963
40
0.422118814263963
40
0.843213979141486
40
0.843213979141486
40
1
40
1
40
1
40
1
41
1
10
54.7922457004998
20
-28.0900609910331
30
0
41
1
10
54.7503819900682
20
-28.0365395815957
30
0
41
1
10
54.7168678590712
20
-27.9767309508882
30
0
41
1
10
54.6698396363408
20
-27.8560130482227
30
0
41
1
10
54.6554646146636
20
-27.7934978026325
30
0
41
1
10
54.6474665348487
20
-27.7091695325388
30
0
41
1
10
54.6464629942879
20
-27.6861955821896
30
0
41
1
10
54.6465966913453
20
-27.6633929872358
30
0
0
SPLINE
5
CA
100
AcDbEntity
8
1
62
256
6
ByLayer
370
-1
48
1
60
0
100
AcDbSpline
70
4
71
3
72
16
73
12
40
0
40
0
40
0
40
0
40
0.0570946626181087
40
0.0570946626181087
40
0.28005174571708
40
0.28005174571708
40
0.505470715177374
40
0.505470715177374
40
0.745074291066734
40
0.745074291066734
40
1
40
1
40
1
40
1
41
1
10
52.3794208120509
20
-29.4293895033488
30
0
41
1
10
52.3774631942105
20
-29.4220011654754
30
0
41
1
10
52.3757944736864
20
-29.4145288345711
30
0
41
1
10
52.3691084542436
20
-29.3778852479409
30
0
41
1
10
52.368311056037
20
-29.3476275607884
30
0
41
1
10
52.37552806221
20
-29.2893992505547
30
0
41
1
10
52.3837085490073
20
-29.2607130443712
30
0
41
1
10
52.4079799431303
20
-29.206865386769
30
0
41
1
10
52.4248112112257
20
-29.1813517998432
30
0
41
1
10
52.4652162716447
20
-29.136340703782
30
0
41
1
10
52.4896075992197
20
-29.116776174783
30
0
41
1
10
52.5156778542258
20
-29.1017240803614
30
0
0
SPLINE
5
CB
100
AcDbEntity
8
1
62
256
6
ByLayer
370
-1
48
1
60
0
100
AcDbSpline
70
4
71
3
72
18
73
14
40
0
40
0
40
0
40
0
40
0.212474032872476
40
0.212474032872476
40
0.3866036978792
40
0.3866036978792
40
0.562415073202759
40
0.562415073202759
40
0.715377731647779
40
0.715377731647779
40
0.918235368779596
40
0.918235368779596
40
1
40
1
40
1
40
1
41
1
10
54.1017240803614
20
-27.5156778542258
30
0
41
1
10
54.0662396497889
20
-27.5771369527317
30
0
41
1
10
54.0198732068208
20
-27.6350789288347
30
0
41
1
10
53.9180335675894
20
-27.7257946602452
30
0
41
1
10
53.864457675205
20
-27.7621267004009
30
0
41
1
10
53.7476304983063
20
-27.8186058379576
30
0
41
1
10
53.6824767947072
20
-27.8392594095395
30
0
41
1
10
53.5608940003248
20
-27.8590122656395
30
0
41
1
10
53.5029959429797
20
-27.8608859676168
30
0
41
1
10
53.3749235064986
20
-27.849679149036
30
0
41
1
10
53.3046614172347
20
-27.8315723794516
30
0
41
1
10
53.21524288353
20
-27.7938727666138
30
0
41
1
10
53.1902461700717
20
-27.7814582560924
30
0
41
1
10
53.1663013200945
20
-27.7677230294755
30
0
0
SPLINE
5
CC
100
AcDbEntity
8
1
62
256
6
ByLayer
370
-1
48
1
60
0
100
AcDbSpline
70
4
71
3
72
14
73
10
40
0
40
0
40
0
40
0
40
0.283482543589364
40
0.283482543589364
40
0.569866164960626
40
0.569866164960626
40
0.829080366665628
40
0.829080366665628
40
1
40
1
40
1
40
1
41
1
10
53.8982759196386
20
-30.4843221457742
30
0
41
1
10
53.8815405981943
20
-30.5133077530553
30
0
41
1
10
53.8591700751254
20
-30.5402553830181
30
0
41
1
10
53.8054822183834
20
-30.5850339992213
30
0
41
1
10
53.7732032933381
20
-30.6034144716497
30
0
41
1
10
53.7069234244808
20
-30.6256925926913
30
0
41
1
10
53.6723562671509
20
-30.6310778478491
30
0
41
1
10
53.615522367549
20
-30.629667604469
30
0
41
1
10
53.592629545939
20
-30.6264133666849
30
0
41
1
10
53.5706104966511
20
-30.6205791879491
30
0
0
SPLINE
5
CD
100
AcDbEntity
8
1
62
256
6
ByLayer
370
-1
48
1
60
0
100
AcDbSpline
70
4
71
3
72
16
73
12
40
0
40
0
40
0
40
0
40
0.062103919721163
40
0.062103919721163
40
0.282872737560588
40
0.282872737560588
40
0.506396836331431
40
0.506396836331431
40
0.744229103370112
40
0.744229103370112
40
1
40
1
40
1
40
1
41
1
10
53.5706104966511
20
-30.6205791879491
30
0
41
1
10
53.5625023875774
20
-30.6184308591577
30
0
41
1
10
53.5544779083842
20
-30.6159297883513
30
0
41
1
10
53.5187432189478
20
-30.6030798811734
30
0
41
1
10
53.4921932536758
20
-30.5886009509932
30
0
41
1
10
53.4454535463029
20
-30.5531622733669
30
0
41
1
10
53.4247380785169
20
-30.5316916981126
30
0
41
1
10
53.3903095488988
20
-30.4836532008807
30
0
41
1
10
53.3766724696945
20
-30.4562640034493
30
0
41
1
10
53.3579002120995
20
-30.3983512037906
30
0
41
1
10
53.3532247745621
20
-30.3670567524733
30
0
41
1
10
53.3534033086547
20
-30.3366070127641
30
0
0
SPLINE
5
CE
100
AcDbEntity
8
1
62
256
6
ByLayer
370
-1
48
1
60
0
100
AcDbSpline
70
4
71
3
72
14
73
10
40
0
40
0
40
0
40
0
40
0.282377988047967
40
0.282377988047967
40
0.567084253766372
40
0.567084253766372
40
0.824684854618567
40
0.824684854618567
40
1
40
1
40
1
40
1
41
1
10
55.3366070127641
20
-28.3534033086547
30
0
41
1
10
55.3702231733018
20
-28.3532062090809
30
0
41
1
10
55.4049266759033
20
-28.3589539316878
30
0
41
1
10
55.4708675305386
20
-28.3828500403369
30
0
41
1
10
55.503075192962
20
-28.4015297845178
30
0
41
1
10
55.5557918510679
20
-28.44771380766
30
0
41
1
10
55.5778796360215
20
-28.4749534957189
30
0
41
1
10
55.605629803624
20
-28.52557464086
30
0
41
1
10
55.6145399206577
20
-28.547817412967
30
0
41
1
10
55.6205791879491
20
-28.5706104966511
30
0
0
SPLINE
5
CF
100
AcDbEntity
8
1
62
256
6
ByLayer
370
-1
48
1
60
0
100
AcDbSpline
70
4
71
3
72
18
73
14
40
0
40
0
40
0
40
0
40
0.212474276129479
40
0.212474276129479
40
0.386603898215956
40
0.386603898215956
40
0.562415227754641
40
0.562415227754641
40
0.715377877558409
40
0.715377877558409
40
0.918235557790065
40
0.918235557790065
40
1
40
1
40
1
40
1
41
1
10
55.2322769705245
20
-29.8336986799055
30
0
41
1
10
55.1969656495893
20
-29.7721398643235
30
0
41
1
10
55.1701626293141
20
-29.7029392044635
30
0
41
1
10
55.1428931504631
20
-29.5693089169608
30
0
41
1
10
55.1383968382258
20
-29.5047320239162
30
0
41
1
10
55.1482592004796
20
-29.3753441994156
30
0
41
1
10
55.1631357670438
20
-29.3086339268481
30
0
41
1
10
55.207141928374
20
-29.1935860957744
30
0
41
1
10
55.2346107225076
20
-29.142584522914
30
0
41
1
10
55.3086459454011
20
-29.0374801503725
30
0
41
1
10
55.3596022733721
20
-28.9858267809775
30
0
41
1
10
55.4371235288581
20
-28.9274540203514
30
0
41
1
10
55.4604161113069
20
-28.912078465412
30
0
41
1
10
55.4843221457742
20
-28.8982759196386
30
0
0
SPLINE
5
D0
100
AcDbEntity
8
1
62
256
6
ByLayer
370
-1
48
1
60
0
100
AcDbSpline
70
4
71
3
72
18
73
14
40
0
40
0
40
0
40
0
40
0.212474032872503
40
0.212474032872503
40
0.386603697879207
40
0.386603697879207
40
0.562415073202754
40
0.562415073202754
40
0.715377731647768
40
0.715377731647768
40
0.918235368779569
40
0.918235368779569
40
1
40
1
40
1
40
1
41
1
10
53.8982759196386
20
-30.4843221457742
30
0
41
1
10
53.9337603502111
20
-30.4228630472683
30
0
41
1
10
53.9801267931792
20
-30.3649210711653
30
0
41
1
10
54.0819664324107
20
-30.2742053397548
30
0
41
1
10
54.135542324795
20
-30.2378732995991
30
0
41
1
10
54.2523695016938
20
-30.1813941620424
30
0
41
1
10
54.3175232052928
20
-30.1607405904605
30
0
41
1
10
54.4391059996752
20
-30.1409877343604
30
0
41
1
10
54.4970040570203
20
-30.1391140323832
30
0
41
1
10
54.6250764935014
20
-30.1503208509639
30
0
41
1
10
54.6953385827653
20
-30.1684276205483
30
0
41
1
10
54.78475711647
20
-30.2061272333862
30
0
41
1
10
54.8097538299284
20
-30.2185417439076
30
0
41
1
10
54.8336986799055
20
-30.2322769705245
30
0
0
SPLINE
5
D1
100
AcDbEntity
8
1
62
256
6
ByLayer
370
-1
48
1
60
0
100
AcDbSpline
70
4
71
3
72
14
73
10
40
0
40
0
40
0
40
0
40
0.283482543589506
40
0.283482543589506
40
0.569866164960757
40
0.569866164960757
40
0.829080366665758
40
0.829080366665758
40
1
40
1
40
1
40
1
41
1
10
54.1017240803614
20
-27.5156778542258
30
0
41
1
10
54.1184594018057
20
-27.4866922469447
30
0
41
1
10
54.1408299248746
20
-27.4597446169819
30
0
41
1
10
54.1945177816166
20
-27.4149660007787
30
0
41
1
10
54.2267967066619
20
-27.3965855283502
30
0
41
1
10
54.2930765755193
20
-27.3743074073087
30
0
41
1
10
54.3276437328492
20
-27.3689221521509
30
0
41
1
10
54.384477632451
20
-27.370332395531
30
0
41
1
10
54.407370454061
20
-27.3735866333151
30
0
41
1
10
54.4293895033488
20
-27.3794208120509
30
0
0
SPLINE
5
D2
100
AcDbEntity
8
1
62
256
6
ByLayer
370
-1
48
1
60
0
100
AcDbSpline
70
4
71
3
72
16
73
12
40
0
40
0
40
0
40
0
40
0.0621039197212844
40
0.0621039197212844
40
0.282872737560697
40
0.282872737560697
40
0.506396836331536
40
0.506396836331536
40
0.744229103370214
40
0.744229103370214
40
1
40
1
40
1
40
1
41
1
10
54.4293895033488
20
-27.3794208120509
30
0
41
1
10
54.4374976124226
20
-27.3815691408423
30
0
41
1
10
54.4455220916158
20
-27.3840702116487
30
0
41
1
10
54.4812567810522
20
-27.3969201188266
30
0
41
1
10
54.5078067463242
20
-27.4113990490068
30
0
41
1
10
54.5545464536971
20
-27.4468377266331
30
0
41
1
10
54.5752619214831
20
-27.4683083018874
30
0
41
1
10
54.6096904511012
20
-27.5163467991193
30
0
41
1
10
54.6233275303055
20
-27.5437359965507
30
0
41
1
10
54.6420997879005
20
-27.6016487962094
30
0
41
1
10
54.6467752254379
20
-27.6329432475268
30
0
41
1
10
54.6465966913453
20
-27.6633929872358
30
0
0
SPLINE
5
D3
100
AcDbEntity
8
SK1
62
256
6
ByLayer
370
-1
48
1
60
0
100
AcDbSpline
70
4
71
3
72
24
73
20
40
0
40
0
40
0
40
0
40
0.469770575826712
40
0.469770575826712
40
0.663612078687295
40
0.663612078687295
40
0.860454184613411
40
0.860454184613411
40
0.903064590395674
40
0.903064590395674
40
0.923089343972159
40
0.923089343972159
40
0.943389594779288
40
0.943389594779288
40
0.961332284531898
40
0.961332284531898
40
0.988068136377815
40
0.988068136377815
40
1
40
1
40
1
40
1
41
1
10
-0.199999999999989
20
6.10344849123027
30
0
41
1
10
-0.199999999999989
20
5.97798788494984
30
0
41
1
10
-0.204016575726513
20
5.8509635670122
30
0
41
1
10
-0.223752631922082
20
5.67079358995508
30
0
41
1
10
-0.231244965282215
20
5.61789623093799
30
0
41
1
10
-0.253819137983143
20
5.51250015101135
30
0
41
1
10
-0.267096215270385
20
5.45724004647028
30
0
41
1
10
-0.303692478692526
20
5.40035311573845
30
0
41
1
10
-0.311479622041318
20
5.39039941672755
30
0
41
1
10
-0.325477757614365
20
5.37891036834915
30
0
41
1
10
-0.330455622185014
20
5.3756771312581
30
0
41
1
10
-0.341078704143143
20
5.37102422840917
30
0
41
1
10
-0.346883276538151
20
5.36960762575521
30
0
41
1
10
-0.357630415747778
20
5.36914354197148
30
0
41
1
10
-0.362713068049587
20
5.36981917830482
30
0
41
1
10
-0.374583401808834
20
5.37316903610403
30
0
41
1
10
-0.3812109954861
20
5.37664910167555
30
0
41
1
10
-0.38989246528871
20
5.38265091141974
30
0
41
1
10
-0.392483363308571
20
5.38466360919151
30
0
41
1
10
-0.394976888875334
20
5.38678189578178
30
0
0
SPLINE
5
D4
100
AcDbEntity
8
1
62
256
6
ByLayer
370
-1
48
1
60
0
100
AcDbSpline
70
4
71
3
72
14
73
10
40
0
40
0
40
0
40
0
40
0.283903408666438
40
0.283903408666438
40
0.57023417554228
40
0.57023417554228
40
0.829405958796945
40
0.829405958796945
40
1
40
1
40
1
40
1
41
1
10
55.2322769705245
20
-29.8336986799055
30
0
41
1
10
55.2489552830016
20
-29.8627742606202
30
0
41
1
10
55.2610267216002
20
-29.8957107191272
30
0
41
1
10
55.2727412196973
20
-29.9646832988092
30
0
41
1
10
55.2723968983799
20
-30.0018222295194
30
0
41
1
10
55.258327370125
20
-30.0703069596477
30
0
41
1
10
55.2456028105835
20
-30.1028899691223
30
0
41
1
10
55.215832561563
20
-30.1512679471304
30
0
41
1
10
55.2015410323697
20
-30.1693880049488
30
0
41
1
10
55.1854645186593
20
-30.1854645186592
30
0
0
SPLINE
5
D5
100
AcDbEntity
8
1
62
256
6
ByLayer
370
-1
48
1
60
0
100
AcDbSpline
70
4
71
3
72
14
73
10
40
0
40
0
40
0
40
0
40
0.282377988047964
40
0.282377988047964
40
0.567084253766356
40
0.567084253766356
40
0.824684854618527
40
0.824684854618527
40
1
40
1
40
1
40
1
41
1
10
52.6633929872359
20
-29.6465966913453
30
0
41
1
10
52.6297768266982
20
-29.6467937909191
30
0
41
1
10
52.5950733240968
20
-29.6410460683122
30
0
41
1
10
52.5291324694614
20
-29.6171499596631
30
0
41
1
10
52.496924807038
20
-29.5984702154822
30
0
41
1
10
52.4442081489321
20
-29.55228619234
30
0
41
1
10
52.4221203639785
20
-29.5250465042811
30
0
41
1
10
52.394370196376
20
-29.47442535914
30
0
41
1
10
52.3854600793423
20
-29.452182587033
30
0
41
1
10
52.3794208120509
20
-29.4293895033488
30
0
0
SPLINE
5
D6
100
AcDbEntity
8
SK1
62
256
6
ByLayer
370
-1
48
1
60
0
100
AcDbSpline
70
4
71
3
72
22
73
18
40
0
40
0
40
0
40
0
40
0.0260455644157247
40
0.0260455644157247
40
0.0526262165848557
40
0.0526262165848557
40
0.0706056579866928
40
0.0706056579866928
40
0.0884949509195805
40
0.0884949509195805
40
0.11748921873202
40
0.11748921873202
40
0.17459086731972
40
0.17459086731972
40
0.37652425293745
40
0.37652425293745
40
1
40
1
40
1
40
1
41
1
10
-0.394976888872947
20
-5.38678223324206
30
0
41
1
10
-0.389612432086423
20
-5.38222504185003
30
0
41
1
10
-0.383763200778972
20
-5.37811700449893
30
0
41
1
10
-0.370972888875414
20
-5.37184824531644
30
0
41
1
10
-0.363785592650899
20
-5.36968256852501
30
0
41
1
10
-0.351475656346565
20
-5.3691458249703
30
0
41
1
10
-0.346317238365032
20
-5.36979468027801
30
0
41
1
10
-0.336550133197363
20
-5.3727304206256
30
0
41
1
10
-0.33182986596411
20
-5.3750241182685
30
0
41
1
10
-0.320511111438336
20
-5.38234306083376
30
0
41
1
10
-0.31432144813617
20
-5.3882440687963
30
0
41
1
10
-0.298260159254525
20
-5.40702817233921
30
0
41
1
10
-0.290032841564667
20
-5.42147709180324
30
0
41
1
10
-0.258449669573651
20
-5.48745345024415
30
0
41
1
10
-0.24608390551893
20
-5.5434138926733
30
0
41
1
10
-0.204764795451908
20
-5.7670899064446
30
0
41
1
10
-0.200000000000358
20
-5.93709576978202
30
0
41
1
10
-0.200000000000358
20
-6.10344667966001
30
0
0
SPLINE
5
D7
100
AcDbEntity
8
SK1
62
256
6
ByLayer
370
-1
48
1
60
0
100
AcDbSpline
70
4
71
3
72
22
73
18
40
0
40
0
40
0
40
0
40
0.359503326352592
40
0.359503326352592
40
0.722215553677066
40
0.722215553677066
40
0.826527133697721
40
0.826527133697721
40
0.863141914878009
40
0.863141914878009
40
0.900378805007221
40
0.900378805007221
40
0.933500873078508
40
0.933500873078508
40
0.972947835056124
40
0.972947835056124
40
1
40
1
40
1
40
1
41
1
10
-1.30710678118655
20
-3.91806548153781
30
0
41
1
10
-1.26486058419175
20
-4.15139729989579
30
0
41
1
10
-1.21446435132795
20
-4.3814323255595
30
0
41
1
10
-1.08204001032738
20
-4.82987250608483
30
0
41
1
10
-1.00537527699572
20
-5.05527264511531
30
0
41
1
10
-0.832356114396674
20
-5.30654108347395
30
0
41
1
10
-0.787238294886336
20
-5.36152992388779
30
0
41
1
10
-0.709490490588578
20
-5.41877880440927
30
0
41
1
10
-0.687203973712826
20
-5.43218986569767
30
0
41
1
10
-0.639076749164033
20
-5.45244590583036
30
0
41
1
10
-0.612446414061694
20
-5.45928056674788
30
0
41
1
10
-0.562058433231044
20
-5.46233960302246
30
0
41
1
10
-0.537713914852588
20
-5.45964677314575
30
0
41
1
10
-0.48805385269695
20
-5.44628701250068
30
0
41
1
10
-0.462609559288765
20
-5.43420976008088
30
0
41
1
10
-0.423860760477325
20
-5.40985221311715
30
0
41
1
10
-0.408979654247759
20
-5.39867780521598
30
0
41
1
10
-0.394976888875405
20
-5.38678223323953
30
0
0
SPLINE
5
D8
100
AcDbEntity
8
1
62
256
6
ByLayer
370
-1
48
1
60
0
100
AcDbSpline
70
4
71
3
72
16
73
12
40
0
40
0
40
0
40
0
40
0.0629997311900808
40
0.0629997311900808
40
0.285872777163726
40
0.285872777163726
40
0.511544652680448
40
0.511544652680448
40
0.751675359283757
40
0.751675359283757
40
1
40
1
40
1
40
1
41
1
10
52.8145354813407
20
-27.8145354813408
30
0
41
1
10
52.8204950528224
20
-27.8085759098591
30
0
41
1
10
52.8267201640203
20
-27.802868242664
30
0
41
1
10
52.8558243098331
20
-27.7784138302085
30
0
41
1
10
52.8816874850295
20
-27.7627437945811
30
0
41
1
10
52.9358196116306
20
-27.7401583265823
30
0
41
1
10
52.9647945611221
20
-27.7330459574263
30
0
41
1
10
53.0236316171685
20
-27.7274369499045
30
0
41
1
10
53.0541653973171
20
-27.7294194424097
30
0
41
1
10
53.1125081087443
20
-27.7420592641748
30
0
41
1
10
53.1408514090991
20
-27.753124470903
30
0
41
1
10
53.1663013200945
20
-27.7677230294755
30
0
0
SPLINE
5
D9
100
AcDbEntity
8
1
62
256
6
ByLayer
370
-1
48
1
60
0
100
AcDbSpline
70
4
71
3
72
18
73
14
40
0
40
0
40
0
40
0
40
0.212474276129476
40
0.212474276129476
40
0.386603898215957
40
0.386603898215957
40
0.562415227754648
40
0.562415227754648
40
0.715377877558417
40
0.715377877558417
40
0.918235557790074
40
0.918235557790074
40
1
40
1
40
1
40
1
41
1
10
52.7677230294755
20
-28.1663013200945
30
0
41
1
10
52.8030343504107
20
-28.2278601356765
30
0
41
1
10
52.8298373706859
20
-28.2970607955365
30
0
41
1
10
52.8571068495369
20
-28.4306910830392
30
0
41
1
10
52.8616031617742
20
-28.4952679760838
30
0
41
1
10
52.8517407995204
20
-28.6246558005844
30
0
41
1
10
52.8368642329562
20
-28.6913660731519
30
0
41
1
10
52.792858071626
20
-28.8064139042257
30
0
41
1
10
52.7653892774924
20
-28.857415477086
30
0
41
1
10
52.6913540545989
20
-28.9625198496275
30
0
41
1
10
52.6403977266279
20
-29.0141732190225
30
0
41
1
10
52.5628764711419
20
-29.0725459796486
30
0
41
1
10
52.5395838886931
20
-29.087921534588
30
0
41
1
10
52.5156778542258
20
-29.1017240803614
30
0
0
SPLINE
5
DA
100
AcDbEntity
8
1
62
256
6
ByLayer
370
-1
48
1
60
0
100
AcDbSpline
70
4
71
3
72
12
73
8
40
0
40
0
40
0
40
0
40
0.495924969245311
40
0.495924969245311
40
0.900362445266789
40
0.900362445266789
40
1
40
1
40
1
40
1
41
1
10
52.6633929872359
20
-29.6465966913453
30
0
41
1
10
52.7347362042286
20
-29.6461783890337
30
0
41
1
10
52.8085300074494
20
-29.6570458613108
30
0
41
1
10
52.9385658746082
20
-29.6994558368382
30
0
41
1
10
52.9969460076697
20
-29.7274430148994
30
0
41
1
10
53.0640501780205
20
-29.7726403153088
30
0
41
1
10
53.077219799175
20
-29.7822014968213
30
0
41
1
10
53.0900609910332
20
-29.7922457004998
30
0
0
SPLINE
5
DB
100
AcDbEntity
8
1
62
256
6
ByLayer
370
-1
48
1
60
0
100
AcDbSpline
70
4
71
3
72
12
73
8
40
0
40
0
40
0
40
0
40
0.422118813951674
40
0.422118813951674
40
0.84321397877231
40
0.84321397877231
40
1
40
1
40
1
40
1
41
1
10
53.2077542995002
20
-29.9099390089668
30
0
41
1
10
53.2496180099009
20
-29.9634604183648
30
0
41
1
10
53.2831321408795
20
-30.023269049023
30
0
41
1
10
53.330160363617
20
-30.143986951631
30
0
41
1
10
53.3445353853069
20
-30.2065021972124
30
0
41
1
10
53.3525334651465
20
-30.2908304673532
30
0
41
1
10
53.3535370057124
20
-30.3138044177568
30
0
41
1
10
53.3534033086547
20
-30.3366070127641
30
0
0
SPLINE
5
DC
100
AcDbEntity
8
1
62
256
6
ByLayer
370
-1
48
1
60
0
100
AcDbSpline
70
4
71
3
72
12
73
8
40
0
40
0
40
0
40
0
40
0.495924969245353
40
0.495924969245353
40
0.900362445241129
40
0.900362445241129
40
1
40
1
40
1
40
1
41
1
10
55.3366070127641
20
-28.3534033086547
30
0
41
1
10
55.2652637957714
20
-28.3538216109663
30
0
41
1
10
55.1914699925506
20
-28.3429541386892
30
0
41
1
10
55.0614341253954
20
-28.300544163163
30
0
41
1
10
55.0030539923376
20
-28.2725569851041
30
0
41
1
10
54.9359498219861
20
-28.227359684696
30
0
41
1
10
54.9227802008283
20
-28.2177985031812
30
0
41
1
10
54.9099390089669
20
-28.2077542995002
30
0
0
SPLINE
5
DD
100
AcDbEntity
8
1
62
256
6
ByLayer
370
-1
48
1
60
0
100
AcDbSpline
70
4
71
3
72
14
73
10
40
0
40
0
40
0
40
0
40
0.28390340866646
40
0.28390340866646
40
0.570234175542306
40
0.570234175542306
40
0.829405958796952
40
0.829405958796952
40
1
40
1
40
1
40
1
41
1
10
52.7677230294755
20
-28.1663013200945
30
0
41
1
10
52.7510447169985
20
-28.1372257393798
30
0
41
1
10
52.7389732783998
20
-28.1042892808728
30
0
41
1
10
52.7272587803027
20
-28.0353167011908
30
0
41
1
10
52.7276031016201
20
-27.9981777704805
30
0
41
1
10
52.741672629875
20
-27.9296930403523
30
0
41
1
10
52.7543971894165
20
-27.8971100308777
30
0
41
1
10
52.784167438437
20
-27.8487320528697
30
0
41
1
10
52.7984589676303
20
-27.8306119950512
30
0
41
1
10
52.8145354813407
20
-27.8145354813408
30
0
0
SPLINE
5
DE
100
AcDbEntity
8
SK1
62
256
6
ByLayer
370
-1
48
1
60
0
100
AcDbSpline
70
4
71
3
72
10
73
6
40
0
40
0
40
0
40
0
40
0.5
40
0.5
40
1
40
1
40
1
40
1
41
1
10
-1.30710678118655
20
-3.91806548153784
30
0
41
1
10
-1.53227959010833
20
-2.67440369212437
30
0
41
1
10
-1.71681589069691
20
-1.34075776539186
30
0
41
1
10
-1.71598271729604
20
1.35050010337164
30
0
41
1
10
-1.53230696904974
20
2.67425240209695
30
0
41
1
10
-1.30710678118655
20
3.91806548057698
30
0
0
LINE
5
4E
100
AcDbEntity
8
1
62
256
6
ByLayer
370
-1
48
1
60
0
100
AcDbLine
10
0.3
20
25
30
0
11
0
21
24.7
31
0
39
0
210
0
220
0
230
1
0
LINE
5
50
100
AcDbEntity
8
1
62
256
6
ByLayer
370
-1
48
1
60
0
100
AcDbLine
10
0
20
-24.7
30
0
11
0.3
21
-25
31
0
39
0
210
0
220
0
230
1
0
LINE
5
51
100
AcDbEntity
8
1
62
256
6
ByLayer
370
-1
48
1
60
0
100
AcDbLine
10
0.3
20
-25
30
0
11
19.3
21
-25
31
0
39
0
210
0
220
0
230
1
0
LINE
5
52
100
AcDbEntity
8
1
62
256
6
ByLayer
370
-1
48
1
60
0
100
AcDbLine
10
19.3
20
25
30
0
11
0.3
21
25
31
0
39
0
210
0
220
0
230
1
0
LINE
5
53
100
AcDbEntity
8
1
62
256
6
ByLayer
370
-1
48
1
60
0
100
AcDbLine
10
19.10784
20
-8.381769
30
0
11
16.62903
21
-7.103009
31
0
39
0
210
0
220
0
230
1
0
LINE
5
54
100
AcDbEntity
8
1
62
256
6
ByLayer
370
-1
48
1
60
0
100
AcDbLine
10
16.654783
20
-11.61719
30
0
11
17.273976
21
-11.936617
31
0
39
0
210
0
220
0
230
1
0
LINE
5
55
100
AcDbEntity
8
1
62
256
6
ByLayer
370
-1
48
1
60
0
100
AcDbLine
10
17.317978
20
-11.936911
30
0
11
17.581278
21
-11.849937
31
0
39
0
210
0
220
0
230
1
0
LINE
5
56
100
AcDbEntity
8
1
62
256
6
ByLayer
370
-1
48
1
60
0
100
AcDbLine
10
19.215323
20
-8.682427
30
0
11
19.133583
21
-8.417455
31
0
39
0
210
0
220
0
230
1
0
LINE
5
57
100
AcDbEntity
8
81
62
256
6
ByLayer
370
-1
48
1
60
0
100
AcDbLine
10
60
20
-35
30
0
11
70
21
-35
31
0
39
0
210
0
220
0
230
1
0
LINE
5
58
100
AcDbEntity
8
SK4
62
256
6
ByLayer
370
-1
48
0.05
60
0
100
AcDbLine
10
-35
20
0
30
0
11
60
21
0
31
0
39
0
210
0
220
0
230
1
0
LINE
5
5A
100
AcDbEntity
8
80
62
256
6
ByLayer
370
-1
48
1
60
0
100
AcDbLine
10
0
20
0
30
0
11
-5
21
0
31
0
39
0
210
0
220
0
230
1
0
LINE
5
5B
100
AcDbEntity
8
4
62
256
6
ByLayer
370
-1
48
0.05
60
0
100
AcDbLine
10
0
20
0
30
0
11
60
21
0
31
0
39
0
210
0
220
0
230
1
0
LINE
5
5D
100
AcDbEntity
8
1
62
256
6
ByLayer
370
-1
48
1
60
0
100
AcDbLine
10
19.433459
20
-24.996187
30
0
11
19.3
21
-25
31
0
39
0
210
0
220
0
230
1
0
LINE
5
5E
100
AcDbEntity
8
1
62
256
6
ByLayer
370
-1
48
1
60
0
100
AcDbLine
10
48.161688
20
-30.383539
30
0
11
47.442328
21
-31.102899
31
0
39
0
210
0
220
0
230
1
0
LINE
5
5F
100
AcDbEntity
8
1
62
256
6
ByLayer
370
-1
48
1
60
0
100
AcDbLine
10
11.461325
20
23.83913
30
0
11
11.461325
21
7.529667
31
0
39
0
210
0
220
0
230
1
0
LINE
5
60
100
AcDbEntity
8
1
62
256
6
ByLayer
370
-1
48
1
60
0
100
AcDbLine
10
0.3
20
0
30
0
11
0.3
21
-25
31
0
39
0
210
0
220
0
230
1
0
LINE
5
61
100
AcDbEntity
8
1
62
256
6
ByLayer
370
-1
48
1
60
0
100
AcDbLine
10
0.3
20
25
30
0
11
0.3
21
0
31
0
39
0
210
0
220
0
230
1
0
LINE
5
62
100
AcDbEntity
8
1
62
256
6
ByLayer
370
-1
48
1
60
0
100
AcDbLine
10
19.301081
20
24.994078
30
0
11
21.428445
21
13.342816
31
0
39
0
210
0
220
0
230
1
0
LINE
5
63
100
AcDbEntity
8
1
62
256
6
ByLayer
370
-1
48
1
60
0
100
AcDbLine
10
46.916666
20
-30.799408
30
0
11
38.545895
21
-25.966541
31
0
39
0
210
0
220
0
230
1
0
LINE
5
64
100
AcDbEntity
8
1
62
256
6
ByLayer
370
-1
48
1
60
0
100
AcDbLine
10
47.218184
20
-30.97349
30
0
11
46.916666
21
-30.799408
31
0
39
0
210
0
220
0
230
1
0
LINE
5
65
100
AcDbEntity
8
1
62
256
6
ByLayer
370
-1
48
1
60
0
100
AcDbLine
10
8.538675
20
23.83913
30
0
11
8.538675
21
7.529667
31
0
39
0
210
0
220
0
230
1
0
LINE
5
66
100
AcDbEntity
8
1
62
256
6
ByLayer
370
-1
48
1
60
0
100
AcDbLine
10
47.218184
20
-30.97349
30
0
11
48.10012
21
-30.091554
31
0
39
0
210
0
220
0
230
1
0
LINE
5
67
100
AcDbEntity
8
1
62
256
6
ByLayer
370
-1
48
1
60
0
100
AcDbLine
10
11.894338
20
-8.055848
30
0
11
11.894338
21
-23.666502
31
0
39
0
210
0
220
0
230
1
0
LINE
5
68
100
AcDbEntity
8
1
62
256
6
ByLayer
370
-1
48
1
60
0
100
AcDbLine
10
11.461325
20
-23.83913
30
0
11
8.538675
21
-23.83913
31
0
39
0
210
0
220
0
230
1
0
LINE
5
69
100
AcDbEntity
8
1
62
256
6
ByLayer
370
-1
48
1
60
0
100
AcDbLine
10
11.461325
20
-7.529667
30
0
11
11.461325
21
-23.83913
31
0
39
0
210
0
220
0
230
1
0
LINE
5
6A
100
AcDbEntity
8
1
62
256
6
ByLayer
370
-1
48
1
60
0
100
AcDbLine
10
8.105662
20
23.666502
30
0
11
8.105662
21
8.055848
31
0
39
0
210
0
220
0
230
1
0
LINE
5
6B
100
AcDbEntity
8
1
62
256
6
ByLayer
370
-1
48
1
60
0
100
AcDbLine
10
24.250069
20
7.96242
30
0
11
54.964282
21
-22.751793
31
0
39
0
210
0
220
0
230
1
0
LINE
5
6C
100
AcDbEntity
8
1
62
256
6
ByLayer
370
-1
48
1
60
0
100
AcDbLine
10
11.894338
20
23.666502
30
0
11
11.894338
21
8.055848
31
0
39
0
210
0
220
0
230
1
0
LINE
5
6D
100
AcDbEntity
8
1
62
256
6
ByLayer
370
-1
48
1
60
0
100
AcDbLine
10
48.038392
20
-29.677683
30
0
11
46.916666
21
-30.799408
31
0
39
0
210
0
220
0
230
1
0
LINE
5
6E
100
AcDbEntity
8
1
62
256
6
ByLayer
370
-1
48
1
60
0
100
AcDbLine
10
47.218184
20
-30.97349
30
0
11
47.442328
21
-31.102899
31
0
39
0
210
0
220
0
230
1
0
LINE
5
6F
100
AcDbEntity
8
1
62
256
6
ByLayer
370
-1
48
1
60
0
100
AcDbLine
10
21.887974
20
-24.926059
30
0
11
19.433459
21
-24.996187
31
0
39
0
210
0
220
0
230
1
0
LINE
5
70
100
AcDbEntity
8
1
62
256
6
ByLayer
370
-1
48
1
60
0
100
AcDbLine
10
17.903195
20
-24.788325
30
0
11
17.903195
21
-11.514951
31
0
39
0
210
0
220
0
230
1
0
LINE
5
71
100
AcDbEntity
8
1
62
256
6
ByLayer
370
-1
48
1
60
0
100
AcDbLine
10
17.903195
20
-7.760295
30
0
11
17.903195
21
24.788325
31
0
39
0
210
0
220
0
230
1
0
LINE
5
72
100
AcDbEntity
8
1
62
256
6
ByLayer
370
-1
48
1
60
0
100
AcDbLine
10
54.964282
20
-22.751793
30
0
11
54.677682
21
-23.038392
31
0
39
0
210
0
220
0
230
1
0
LINE
5
73
100
AcDbEntity
8
1
62
256
6
ByLayer
370
-1
48
1
60
0
100
AcDbLine
10
8.538675
20
-7.529667
30
0
11
8.538675
21
-23.83913
31
0
39
0
210
0
220
0
230
1
0
LINE
5
74
100
AcDbEntity
8
1
62
256
6
ByLayer
370
-1
48
1
60
0
100
AcDbLine
10
11.461325
20
7.529667
30
0
11
8.538675
21
7.529667
31
0
39
0
210
0
220
0
230
1
0
LINE
5
75
100
AcDbEntity
8
1
62
256
6
ByLayer
370
-1
48
1
60
0
100
AcDbLine
10
55.371294
20
-23.158805
30
0
11
55.202082
21
-22.989592
31
0
39
0
210
0
220
0
230
1
0
LINE
5
76
100
AcDbEntity
8
1
62
256
6
ByLayer
370
-1
48
1
60
0
100
AcDbLine
10
0
20
0
30
0
11
0
21
-24.7
31
0
39
0
210
0
220
0
230
1
0
LINE
5
77
100
AcDbEntity
8
1
62
256
6
ByLayer
370
-1
48
1
60
0
100
AcDbLine
10
0
20
24.7
30
0
11
0
21
0
31
0
39
0
210
0
220
0
230
1
0
LINE
5
78
100
AcDbEntity
8
1
62
256
6
ByLayer
370
-1
48
1
60
0
100
AcDbLine
10
55.091543
20
-23.100131
30
0
11
55.202082
21
-22.989592
31
0
39
0
210
0
220
0
230
1
0
LINE
5
79
100
AcDbEntity
8
1
62
256
6
ByLayer
370
-1
48
1
60
0
100
AcDbLine
10
8.538675
20
-7.529667
30
0
11
11.461325
21
-7.529667
31
0
39
0
210
0
220
0
230
1
0
LINE
5
7A
100
AcDbEntity
8
1
62
256
6
ByLayer
370
-1
48
1
60
0
100
AcDbLine
10
19.3
20
25
30
0
11
19.301081
21
24.994078
31
0
39
0
210
0
220
0
230
1
0
LINE
5
7B
100
AcDbEntity
8
1
62
256
6
ByLayer
370
-1
48
1
60
0
100
AcDbLine
10
21.887974
20
-24.926059
30
0
11
21.887974
21
11.658186
31
0
39
0
210
0
220
0
230
1
0
LINE
5
7C
100
AcDbEntity
8
1
62
256
6
ByLayer
370
-1
48
1
60
0
100
AcDbLine
10
33.154589
20
-24.604161
30
0
11
21.887974
21
-24.926059
31
0
39
0
210
0
220
0
230
1
0
LINE
5
7D
100
AcDbEntity
8
1
62
256
6
ByLayer
370
-1
48
1
60
0
100
AcDbLine
10
8.538675
20
23.83913
30
0
11
11.461325
21
23.83913
31
0
39
0
210
0
220
0
230
1
0
LINE
5
7E
100
AcDbEntity
8
1
62
256
6
ByLayer
370
-1
48
1
60
0
100
AcDbLine
10
54.964282
20
-22.751793
30
0
11
55.202082
21
-22.989592
31
0
39
0
210
0
220
0
230
1
0
LINE
5
7F
100
AcDbEntity
8
1
62
256
6
ByLayer
370
-1
48
1
60
0
100
AcDbLine
10
8.105662
20
-8.055848
30
0
11
8.105662
21
-23.666502
31
0
39
0
210
0
220
0
230
1
0
LINE
5
80
100
AcDbEntity
8
1
62
256
6
ByLayer
370
-1
48
1
60
0
100
AcDbLine
10
47.442328
20
-31.102899
30
0
11
48.712796
21
-31.836404
31
0
39
0
210
0
220
0
230
1
0
LINE
5
81
100
AcDbEntity
8
SK1
62
256
6
ByLayer
370
-1
48
1
60
0
100
AcDbLine
10
-0.2
20
17.833485
30
0
11
-0.2
21
6.103448
31
0
39
0
210
0
220
0
230
1
0
LINE
5
83
100
AcDbEntity
8
SK1
62
256
6
ByLayer
370
-1
48
1
60
0
100
AcDbLine
10
-0.2
20
-6.103447
30
0
11
-0.2
21
-17.833485
31
0
39
0
210
0
220
0
230
1
0
LINE
5
84
100
AcDbEntity
8
SK1
62
256
6
ByLayer
370
-1
48
1
60
0
100
AcDbLine
10
-1.307107
20
3.918065
30
0
11
-1.307107
21
-3.918065
31
0
39
0
210
0
220
0
230
1
0
MTEXT
5
DF
100
AcDbEntity
8
SK6
62
256
6
ByLayer
370
-1
48
1
60
0
100
AcDbMText
10
20.530468
20
34.362798
30
0
210
0
220
0
230
1
1
\W00.724;\fsimplex.shx,bigfont.shx;C5-SRSCL-35060-12 
40
3.5
41
0
44
1.084337
50
0
71
7
72
5
7
DEFAULT
0
DIMENSION
5
112
100
AcDbEntity
8
SK2
62
256
6
ByLayer
370
-3
48
1
60
0
100
AcDbDimension
2
DimnDraft3D1
10
-39.75
20
25
30
0
11
-39.75
21
-4.784211
31
0
70
32
71
5
72
1
41
1
210
0
220
0
230
1
3
Standard
100
AcDbAlignedDimension
13
-2
23
-25
33
0
14
-2
24
25
34
0
50
90
100
AcDbRotatedDimension
1001
ACAD
1000
DSTYLE
1002
{
1070
    74
1070
     0
1070
   279
1070
     0
1070
   172
1070
     1
1070
   173
1070
     1
1070
   340
1005
E0
1070
    77
1070
     1
1070
    73
1070
     0
1070
   171
1070
     3
1070
   274
1070
     4
1070
   177
1070
     2
1070
   176
1070
     2
1070
   178
1070
     7
1070
    78
1070
     8
1070
    41
1041
3.175
1070
   147
1041
2.25
1070
    42
1041
2.0
1070
    44
1041
2.0
1070
   140
1041
4.5
1070
   343
1005
113
1070
   344
1005
113
1002
}
0
DIMENSION
5
127
100
AcDbEntity
8
2
62
256
6
ByLayer
370
-3
48
1
60
0
100
AcDbDimension
2
DimnDraft3D2
10
74.25
20
-35
30
0
11
74.25
21
-20.128947
31
0
70
32
71
5
72
1
41
1
210
0
220
0
230
1
3
Standard
100
AcDbAlignedDimension
13
62
23
0
33
0
14
62
24
-35
34
0
50
90
100
AcDbRotatedDimension
1001
ACAD
1000
DSTYLE
1002
{
1070
    74
1070
     0
1070
   279
1070
     0
1070
   172
1070
     1
1070
   173
1070
     1
1070
   340
1005
E0
1070
    77
1070
     1
1070
    73
1070
     0
1070
   171
1070
     3
1070
   274
1070
     4
1070
   177
1070
     2
1070
   176
1070
     2
1070
   178
1070
     7
1070
    78
1070
     8
1070
    41
1041
3.175
1070
   147
1041
2.25
1070
    42
1041
2.0
1070
    44
1041
2.0
1070
   140
1041
4.5
1070
   343
1005
113
1070
   344
1005
113
1002
}
0
DIMENSION
5
135
100
AcDbEntity
8
2
62
256
6
ByLayer
370
-3
48
1
60
0
100
AcDbDimension
2
DimnDraft3D3
10
60
20
-59.25
30
0
11
27.371053
21
-59.25
31
0
70
32
71
5
72
1
41
1
210
0
220
0
230
1
3
Standard
100
AcDbAlignedDimension
13
0
23
-27
33
0
14
60
24
-37
34
0
50
0
100
AcDbRotatedDimension
1001
ACAD
1000
DSTYLE
1002
{
1070
   279
1070
     0
1070
   172
1070
     1
1070
   173
1070
     1
1070
   340
1005
E0
1070
    77
1070
     1
1070
    73
1070
     0
1070
   171
1070
     3
1070
   274
1070
     4
1070
   177
1070
     2
1070
   176
1070
     2
1070
   178
1070
     7
1070
    78
1070
     8
1070
    41
1041
3.175
1070
   147
1041
2.25
1070
    42
1041
2.0
1070
    44
1041
2.0
1070
   140
1041
4.5
1070
   343
1005
113
1070
   344
1005
113
1002
}
0
ENDSEC
0
SECTION
2
OBJECTS
0
DICTIONARY
5
166
330
0
100
AcDbDictionary
280
0
281
1
3
ACAD_GROUP
350
167
3
ACAD_MLINESTYLE
350
168
0
DICTIONARY
5
167
330
0
100
AcDbDictionary
280
0
281
1
0
DICTIONARY
5
168
330
0
100
AcDbDictionary
280
0
281
1
3
Standard
350
18
0
MLINESTYLE
5
18
330
168
100
AcDbMlineStyle
2
Standard
70
0
3

62
256
51
90
52
90
71
2
49
-0.5
62
256
6
ByLayer
49
0.5
62
256
6
ByLayer
0
RASTERVARIABLES
5
154
330

100
AcDbRasterVariables
90
0
70
1
71
1
72
1
0
ENDSEC
0
EOF
