0
SECTION
2
HEADER
9
$ACADVER
1
AC1015
9
$DWGCODEPAGE
3
ANSI_1252
9
$HANDSEED
5
181
9
$ANGBASE
50
0
9
$ANGDIR
70
0
9
$ATTMODE
70
1
9
$AUNITS
70
0
9
$AUPREC
70
0
9
$CECOLOR
62
256
9
$CELTSCALE
40
1
9
$CELTYPE
6
ByLayer
9
$CELWEIGHT
370
-1
9
$CLAYER
8
0
9
$CMLJUST
70
0
9
$CMLSCALE
40
1
9
$CMLSTYLE
2
Standard
9
$DIMSTYLE
2
Standard
9
$TEXTSIZE
40
0.2
9
$TEXTSTYLE
7
Standard
9
$LUNITS
70
2
9
$LUPREC
70
4
9
$EXTNAMES
290
1
9
$INSUNITS
70
4
9
$LTSCALE
40
1
9
$LWDISPLAY
290
0
9
$PDMODE
70
0
9
$PDSIZE
40
0
9
$PLINEGEN
70
0
0
ENDSEC
0
SECTION
2
CLASSES
0
CLASS
1
RASTERVARIABLES
2
AcDbRasterVariables
3
ISM
90
0
280
0
281
0
0
ENDSEC
0
SECTION
2
TABLES
0
TABLE
2
VPORT
5
177
100
AcDbSymbolTable
0
VPORT
5
1
100
AcDbSymbolTableRecord
100
AcDbViewportTableRecord
2
*Active
70
0
10
0
20
0
11
1
21
1
12
-1
22
1
13
0
23
0
14
0.5
24
0.5
15
10
25
10
16
0
26
0
36
1
17
0
27
0
37
0
0
ENDTAB
0
TABLE
2
LTYPE
5
178
100
AcDbSymbolTable
0
LTYPE
5
14
100
AcDbSymbolTableRecord
100
AcDbLinetypeTableRecord
70
0
2
ByBlock
3

72
65
73
0
40
0
0
LTYPE
5
15
100
AcDbSymbolTableRecord
100
AcDbLinetypeTableRecord
70
0
2
ByLayer
3

72
65
73
0
40
0
0
LTYPE
5
16
100
AcDbSymbolTableRecord
100
AcDbLinetypeTableRecord
70
0
2
CONTINUOUS
3
Solid line
72
65
73
0
40
0
0
LTYPE
5
3B
100
AcDbSymbolTableRecord
100
AcDbLinetypeTableRecord
70
0
2
DASHED
3
__ __ __ __ __ __ __ __ __
72
65
73
2
40
25.72
49
12.86
74
0
49
-12.86
74
0
0
LTYPE
5
3C
100
AcDbSymbolTableRecord
100
AcDbLinetypeTableRecord
70
0
2
HIDDEN
3
_ _ _ _ _ _ _ _ _ _ _ _ _ _ _
72
65
73
2
40
0.5
49
0.25
74
0
49
-0.25
74
0
0
LTYPE
5
3D
100
AcDbSymbolTableRecord
100
AcDbLinetypeTableRecord
70
0
2
PHANTOM
3
____ _ _ ____ _ _ _____ _ _ ____
72
65
73
6
40
50.5
49
18
74
0
49
-6.5
74
0
49
6.5
74
0
49
-6.5
74
0
49
6.5
74
0
49
-6.5
74
0
0
LTYPE
5
3E
100
AcDbSymbolTableRecord
100
AcDbLinetypeTableRecord
70
0
2
CENTER
3
____ _ ____ _ ____ _ ____
72
65
73
4
40
47.5
49
22
74
0
49
-8.5
74
0
49
8.5
74
0
49
-8.5
74
0
0
LTYPE
5
3F
100
AcDbSymbolTableRecord
100
AcDbLinetypeTableRecord
70
0
2
DOT
3
.........................
72
65
73
2
40
10
49
0
74
0
49
-10
74
0
0
LTYPE
5
40
100
AcDbSymbolTableRecord
100
AcDbLinetypeTableRecord
70
0
2
DASHDOT
3
_._._._._._._._._._._._._._._._.
72
65
73
4
40
70
49
31
74
0
49
-13
74
0
49
13
74
0
49
-13
74
0
0
ENDTAB
0
TABLE
2
LAYER
5
179
100
AcDbSymbolTable
0
LAYER
5
10
100
AcDbSymbolTableRecord
100
AcDbLayerTableRecord
2
0
70
0
62
7
6
CONTINUOUS
290
1
370
-3
390
0
0
LAYER
5
45
100
AcDbSymbolTableRecord
100
AcDbLayerTableRecord
2
81
70
0
62
-3
6
CONTINUOUS
290
1
370
-3
390
0
0
LAYER
5
4B
100
AcDbSymbolTableRecord
100
AcDbLayerTableRecord
2
2
70
0
62
7
6
CONTINUOUS
290
1
370
-3
390
0
0
LAYER
5
4D
100
AcDbSymbolTableRecord
100
AcDbLayerTableRecord
2
80
70
0
62
-6
6
CONTINUOUS
290
1
370
-3
390
0
0
LAYER
5
4F
100
AcDbSymbolTableRecord
100
AcDbLayerTableRecord
2
1
70
0
62
4
6
CONTINUOUS
290
1
370
-3
390
0
0
LAYER
5
5C
100
AcDbSymbolTableRecord
100
AcDbLayerTableRecord
2
4
70
0
62
-2
6
CENTER
290
1
370
-3
390
0
0
LAYER
5
163
100
AcDbSymbolTableRecord
100
AcDbLayerTableRecord
2
SK2
70
0
62
7
6
CONTINUOUS
290
1
370
-3
390
0
0
LAYER
5
164
100
AcDbSymbolTableRecord
100
AcDbLayerTableRecord
2
SK4
70
0
62
2
6
CENTER
290
1
370
-3
390
0
0
LAYER
5
165
100
AcDbSymbolTableRecord
100
AcDbLayerTableRecord
2
SK1
70
0
62
4
6
CONTINUOUS
290
1
370
-3
390
0
0
LAYER
5
166
100
AcDbSymbolTableRecord
100
AcDbLayerTableRecord
2
SK6
70
0
62
5
6
CONTINUOUS
290
1
370
-3
390
0
0
ENDTAB
0
TABLE
2
STYLE
5
17a
100
AcDbSymbolTable
0
STYLE
5
11
100
AcDbSymbolTableRecord
100
AcDbTextStyleTableRecord
2
Standard
3
txt
70
0
71
0
40
0
41
1
42
0
50
0
0
STYLE
5
E0
100
AcDbSymbolTableRecord
100
AcDbTextStyleTableRecord
2
DEFAULT
3
simplex.shx
70
0
71
0
40
0
41
1
42
0
50
0
0
STYLE
5
103
100
AcDbSymbolTableRecord
100
AcDbTextStyleTableRecord
2
DWGDirectTextStyle
3
SIMPLEX
70
0
71
0
40
0
41
1
42
0
50
0
0
ENDTAB
0
TABLE
2
DIMSTYLE
5
17b
100
AcDbSymbolTable
100
AcDbDimStyleTable
0
DIMSTYLE
105
27
100
AcDbSymbolTableRecord
100
AcDbDimStyleTableRecord
2
Standard
70
0
3
<>
41
0.18
42
0.0625
44
0.18
140
0.18
147
0.09
73
0
74
0
77
1
271
2
275
0
278
52
280
0
340
11
0
ENDTAB
0
TABLE
2
VIEW
5
17c
100
AcDbSymbolTable
0
ENDTAB
0
TABLE
2
UCS
5
17d
100
AcDbSymbolTable
0
ENDTAB
0
TABLE
2
APPID
5
17e
100
AcDbSymbolTable
0
APPID
5
12
100
AcDbSymbolTableRecord
100
AcDbRegAppTableRecord
2
ACAD
70
0
0
ENDTAB
0
TABLE
2
BLOCK_RECORD
5
17f
100
AcDbSymbolTable
0
BLOCK_RECORD
5
1F
100
AcDbSymbolTableRecord
100
AcDbBlockTableRecord
2
*Model_Space
340
0
70
0
0
BLOCK_RECORD
5
1B
100
AcDbSymbolTableRecord
100
AcDbBlockTableRecord
2
*Paper_Space
340
0
70
0
0
BLOCK_RECORD
5
23
100
AcDbSymbolTableRecord
100
AcDbBlockTableRecord
2
*Paper_Space0
340
0
70
0
0
BLOCK_RECORD
5
105
100
AcDbSymbolTableRecord
100
AcDbBlockTableRecord
2
DimnDraft3D11
340
0
70
0
0
BLOCK_RECORD
5
113
100
AcDbSymbolTableRecord
100
AcDbBlockTableRecord
2
DimnDraft3D2
340
0
70
0
0
BLOCK_RECORD
5
121
100
AcDbSymbolTableRecord
100
AcDbBlockTableRecord
2
_CLOSED
340
0
70
0
0
BLOCK_RECORD
5
128
100
AcDbSymbolTableRecord
100
AcDbBlockTableRecord
2
DimnDraft3D3
340
0
70
0
0
BLOCK_RECORD
5
136
100
AcDbSymbolTableRecord
100
AcDbBlockTableRecord
2
DimnDraft3D4
340
0
70
0
0
ENDTAB
0
ENDSEC
0
SECTION
2
BLOCKS
0
BLOCK
5
20
100
AcDbEntity
8
0
100
AcDbBlockBegin
2
*Model_Space
70
0
10
0
20
0
30
0
3
*Model_Space
0
ENDBLK
5
21
100
AcDbEntity
8
0
100
AcDbBlockEnd
0
BLOCK
5
1C
100
AcDbEntity
8
0
100
AcDbBlockBegin
2
*Paper_Space
70
0
10
0
20
0
30
0
3
*Paper_Space
0
ENDBLK
5
1D
100
AcDbEntity
8
0
100
AcDbBlockEnd
0
BLOCK
5
24
100
AcDbEntity
8
0
100
AcDbBlockBegin
2
*Paper_Space0
70
0
10
0
20
0
30
0
3
*Paper_Space0
0
ENDBLK
5
25
100
AcDbEntity
8
0
100
AcDbBlockEnd
0
BLOCK
5
106
100
AcDbEntity
8
0
100
AcDbBlockBegin
2
DimnDraft3D11
70
0
10
0
20
0
30
0
3
DimnDraft3D11
0
LINE
5
108
100
AcDbEntity
8
2
62
256
6
ByLayer
370
-1
48
1
60
0
100
AcDbLine
10
62
20
5
30
0
11
76.25
21
5
31
0
39
0
210
0
220
0
230
1
0
LINE
5
109
100
AcDbEntity
8
2
62
256
6
ByLayer
370
-1
48
1
60
0
100
AcDbLine
10
62
20
0
30
0
11
76.25
21
0
31
0
39
0
210
0
220
0
230
1
0
LINE
5
10A
100
AcDbEntity
8
2
62
256
6
ByLayer
370
-1
48
1
60
0
100
AcDbLine
10
74.25
20
-11.25
30
0
11
74.25
21
17.208947
31
0
39
0
210
0
220
0
230
1
0
LINE
5
10B
100
AcDbEntity
8
2
62
256
6
ByLayer
370
-1
48
1
60
0
100
AcDbLine
10
74.25
20
5
30
0
11
73.832003
21
8.174998
31
0
39
0
210
0
220
0
230
1
0
LINE
5
10C
100
AcDbEntity
8
2
62
256
6
ByLayer
370
-1
48
1
60
0
100
AcDbLine
10
74.25
20
5
30
0
11
74.667997
21
8.175002
31
0
39
0
210
0
220
0
230
1
0
LINE
5
10D
100
AcDbEntity
8
2
62
256
6
ByLayer
370
-1
48
1
60
0
100
AcDbLine
10
73.832003
20
8.174998
30
0
11
74.667997
21
8.175002
31
0
39
0
210
0
220
0
230
1
0
LINE
5
10E
100
AcDbEntity
8
2
62
256
6
ByLayer
370
-1
48
1
60
0
100
AcDbLine
10
74.25
20
0
30
0
11
74.667997
21
-3.174998
31
0
39
0
210
0
220
0
230
1
0
LINE
5
10F
100
AcDbEntity
8
2
62
256
6
ByLayer
370
-1
48
1
60
0
100
AcDbLine
10
74.25
20
0
30
0
11
73.832003
21
-3.175002
31
0
39
0
210
0
220
0
230
1
0
LINE
5
110
100
AcDbEntity
8
2
62
256
6
ByLayer
370
-1
48
1
60
0
100
AcDbLine
10
74.667997
20
-3.174998
30
0
11
73.832003
21
-3.175002
31
0
39
0
210
0
220
0
230
1
0
MTEXT
5
111
100
AcDbEntity
8
2
62
256
6
ByLayer
370
-1
48
1
60
0
100
AcDbMText
10
73.125
20
16.38
30
0
210
0
220
0
230
1
1
\W00.521;\fsimplex.shx,bigfont.shx;5 
40
4.5
41
0
44
1.084337
50
90
71
7
72
5
7
DEFAULT
0
ENDBLK
5
107
100
AcDbEntity
8
0
100
AcDbBlockEnd
0
BLOCK
5
11E
100
AcDbEntity
8
0
100
AcDbBlockBegin
2
DimnDraft3D2
70
0
10
0
20
0
30
0
3
DimnDraft3D2
0
MTEXT
5
114
100
AcDbEntity
8
SK2
62
256
6
ByLayer
370
-1
48
1
60
0
100
AcDbMText
10
-40.875
20
-3.659211
30
0
210
0
220
0
230
1
1
\W01.000;\fsimplex.shx,bigfont.shx;%%c50 
40
4.5
41
0
44
1.084337
50
90
71
7
72
5
7
DEFAULT
0
LINE
5
115
100
AcDbEntity
8
SK2
62
256
6
ByLayer
370
-1
48
1
60
0
100
AcDbLine
10
-2
20
-25
30
0
11
-41.75
21
-25
31
0
39
0
210
0
220
0
230
1
0
LINE
5
116
100
AcDbEntity
8
SK2
62
256
6
ByLayer
370
-1
48
1
60
0
100
AcDbLine
10
-2
20
25
30
0
11
-41.75
21
25
31
0
39
0
210
0
220
0
230
1
0
LINE
5
117
100
AcDbEntity
8
SK2
62
256
6
ByLayer
370
-1
48
1
60
0
100
AcDbLine
10
-39.75
20
-25
30
0
11
-39.75
21
25
31
0
39
0
210
0
220
0
230
1
0
LINE
5
118
100
AcDbEntity
8
SK2
62
256
6
ByLayer
370
-1
48
1
60
0
100
AcDbLine
10
-39.75
20
-25
30
0
11
-40.167997
21
-21.825002
31
0
39
0
210
0
220
0
230
1
0
LINE
5
119
100
AcDbEntity
8
SK2
62
256
6
ByLayer
370
-1
48
1
60
0
100
AcDbLine
10
-39.75
20
-25
30
0
11
-39.332003
21
-21.824998
31
0
39
0
210
0
220
0
230
1
0
LINE
5
11A
100
AcDbEntity
8
SK2
62
256
6
ByLayer
370
-1
48
1
60
0
100
AcDbLine
10
-40.167997
20
-21.825002
30
0
11
-39.332003
21
-21.824998
31
0
39
0
210
0
220
0
230
1
0
LINE
5
11B
100
AcDbEntity
8
SK2
62
256
6
ByLayer
370
-1
48
1
60
0
100
AcDbLine
10
-39.75
20
25
30
0
11
-39.332003
21
21.825002
31
0
39
0
210
0
220
0
230
1
0
LINE
5
11C
100
AcDbEntity
8
SK2
62
256
6
ByLayer
370
-1
48
1
60
0
100
AcDbLine
10
-39.75
20
25
30
0
11
-40.167997
21
21.824998
31
0
39
0
210
0
220
0
230
1
0
LINE
5
11D
100
AcDbEntity
8
SK2
62
256
6
ByLayer
370
-1
48
1
60
0
100
AcDbLine
10
-39.332003
20
21.825002
30
0
11
-40.167997
21
21.824998
31
0
39
0
210
0
220
0
230
1
0
ENDBLK
5
11F
100
AcDbEntity
8
0
100
AcDbBlockEnd
0
BLOCK
5
122
100
AcDbEntity
8
0
100
AcDbBlockBegin
2
_CLOSED
70
0
10
0
20
0
30
0
3
_CLOSED
0
LINE
5
124
100
AcDbEntity
8
0
62
256
6
ByLayer
370
-2
48
1
60
0
100
AcDbLine
10
-1
20
0.166667
30
0
11
0
21
0
31
0
39
0
210
0
220
0
230
1
0
LINE
5
125
100
AcDbEntity
8
0
62
256
6
ByLayer
370
-2
48
1
60
0
100
AcDbLine
10
0
20
0
30
0
11
-1
21
-0.166667
31
0
39
0
210
0
220
0
230
1
0
LINE
5
126
100
AcDbEntity
8
0
62
256
6
ByLayer
370
-2
48
1
60
0
100
AcDbLine
10
-1
20
0.166667
30
0
11
-1
21
-0.166667
31
0
39
0
210
0
220
0
230
1
0
LINE
5
127
100
AcDbEntity
8
0
62
256
6
ByLayer
370
-2
48
1
60
0
100
AcDbLine
10
0
20
0
30
0
11
-1
21
0
31
0
39
0
210
0
220
0
230
1
0
ENDBLK
5
123
100
AcDbEntity
8
0
100
AcDbBlockEnd
0
BLOCK
5
133
100
AcDbEntity
8
0
100
AcDbBlockBegin
2
DimnDraft3D3
70
0
10
0
20
0
30
0
3
DimnDraft3D3
0
MTEXT
5
129
100
AcDbEntity
8
2
62
256
6
ByLayer
370
-1
48
1
60
0
100
AcDbMText
10
28.496053
20
40.875
30
0
210
0
220
0
230
1
1
\W01.000;\fsimplex.shx,bigfont.shx;60 
40
4.5
41
0
44
1.084337
50
0
71
7
72
5
7
DEFAULT
0
LINE
5
12A
100
AcDbEntity
8
2
62
256
6
ByLayer
370
-1
48
1
60
0
100
AcDbLine
10
0
20
27
30
0
11
0
21
41.75
31
0
39
0
210
0
220
0
230
1
0
LINE
5
12B
100
AcDbEntity
8
2
62
256
6
ByLayer
370
-1
48
1
60
0
100
AcDbLine
10
60
20
7
30
0
11
60
21
41.75
31
0
39
0
210
0
220
0
230
1
0
LINE
5
12C
100
AcDbEntity
8
2
62
256
6
ByLayer
370
-1
48
1
60
0
100
AcDbLine
10
0
20
39.75
30
0
11
60
21
39.75
31
0
39
0
210
0
220
0
230
1
0
LINE
5
12D
100
AcDbEntity
8
2
62
256
6
ByLayer
370
-1
48
1
60
0
100
AcDbLine
10
0
20
39.75
30
0
11
3.174998
21
40.167997
31
0
39
0
210
0
220
0
230
1
0
LINE
5
12E
100
AcDbEntity
8
2
62
256
6
ByLayer
370
-1
48
1
60
0
100
AcDbLine
10
0
20
39.75
30
0
11
3.175002
21
39.332003
31
0
39
0
210
0
220
0
230
1
0
LINE
5
12F
100
AcDbEntity
8
2
62
256
6
ByLayer
370
-1
48
1
60
0
100
AcDbLine
10
3.174998
20
40.167997
30
0
11
3.175002
21
39.332003
31
0
39
0
210
0
220
0
230
1
0
LINE
5
130
100
AcDbEntity
8
2
62
256
6
ByLayer
370
-1
48
1
60
0
100
AcDbLine
10
60
20
39.75
30
0
11
56.825002
21
39.332003
31
0
39
0
210
0
220
0
230
1
0
LINE
5
131
100
AcDbEntity
8
2
62
256
6
ByLayer
370
-1
48
1
60
0
100
AcDbLine
10
60
20
39.75
30
0
11
56.824998
21
40.167997
31
0
39
0
210
0
220
0
230
1
0
LINE
5
132
100
AcDbEntity
8
2
62
256
6
ByLayer
370
-1
48
1
60
0
100
AcDbLine
10
56.825002
20
39.332003
30
0
11
56.824998
21
40.167997
31
0
39
0
210
0
220
0
230
1
0
ENDBLK
5
134
100
AcDbEntity
8
0
100
AcDbBlockEnd
0
BLOCK
5
141
100
AcDbEntity
8
0
100
AcDbBlockBegin
2
DimnDraft3D4
70
0
10
0
20
0
30
0
3
DimnDraft3D4
0
MTEXT
5
137
100
AcDbEntity
8
2
62
256
6
ByLayer
370
-1
48
1
60
0
100
AcDbMText
10
45.996053
20
-16.125
30
0
210
0
220
0
230
1
1
\W01.000;\fsimplex.shx,bigfont.shx;25 
40
4.5
41
0
44
1.084337
50
0
71
7
72
5
7
DEFAULT
0
LINE
5
138
100
AcDbEntity
8
2
62
256
6
ByLayer
370
-1
48
1
60
0
100
AcDbLine
10
60
20
-7
30
0
11
60
21
-19.25
31
0
39
0
210
0
220
0
230
1
0
LINE
5
139
100
AcDbEntity
8
2
62
256
6
ByLayer
370
-1
48
1
60
0
100
AcDbLine
10
35
20
-7
30
0
11
35
21
-19.25
31
0
39
0
210
0
220
0
230
1
0
LINE
5
13A
100
AcDbEntity
8
2
62
256
6
ByLayer
370
-1
48
1
60
0
100
AcDbLine
10
60
20
-17.25
30
0
11
35
21
-17.25
31
0
39
0
210
0
220
0
230
1
0
LINE
5
13B
100
AcDbEntity
8
2
62
256
6
ByLayer
370
-1
48
1
60
0
100
AcDbLine
10
60
20
-17.25
30
0
11
56.825002
21
-17.667997
31
0
39
0
210
0
220
0
230
1
0
LINE
5
13C
100
AcDbEntity
8
2
62
256
6
ByLayer
370
-1
48
1
60
0
100
AcDbLine
10
60
20
-17.25
30
0
11
56.824998
21
-16.832003
31
0
39
0
210
0
220
0
230
1
0
LINE
5
13D
100
AcDbEntity
8
2
62
256
6
ByLayer
370
-1
48
1
60
0
100
AcDbLine
10
56.825002
20
-17.667997
30
0
11
56.824998
21
-16.832003
31
0
39
0
210
0
220
0
230
1
0
LINE
5
13E
100
AcDbEntity
8
2
62
256
6
ByLayer
370
-1
48
1
60
0
100
AcDbLine
10
35
20
-17.25
30
0
11
38.174998
21
-16.832003
31
0
39
0
210
0
220
0
230
1
0
LINE
5
13F
100
AcDbEntity
8
2
62
256
6
ByLayer
370
-1
48
1
60
0
100
AcDbLine
10
35
20
-17.25
30
0
11
38.175002
21
-17.667997
31
0
39
0
210
0
220
0
230
1
0
LINE
5
140
100
AcDbEntity
8
2
62
256
6
ByLayer
370
-1
48
1
60
0
100
AcDbLine
10
38.174998
20
-16.832003
30
0
11
38.175002
21
-17.667997
31
0
39
0
210
0
220
0
230
1
0
ENDBLK
5
142
100
AcDbEntity
8
0
100
AcDbBlockEnd
0
ENDSEC
0
SECTION
2
ENTITIES
0
ARC
5
86
100
AcDbEntity
8
SK1
62
256
6
ByLayer
370
-1
48
1
60
0
100
AcDbCircle
39
0
10
0.6
20
-18.75
30
0
40
1.00000000000001
210
0
220
0
230
-1
100
AcDbArc
50
113.578178
51
126.869898
0
ARC
5
87
100
AcDbEntity
8
SK1
62
256
6
ByLayer
370
-1
48
1
60
0
100
AcDbCircle
39
0
10
0.6
20
18.75
30
0
40
1.00000000000001
210
0
220
0
230
-1
100
AcDbArc
50
233.130102
51
246.421822
0
ARC
5
88
100
AcDbEntity
8
1
62
256
6
ByLayer
370
-1
48
1
60
0
100
AcDbCircle
39
0
10
-52.8
20
0
30
0
40
3
210
0
220
0
230
-1
100
AcDbArc
50
327.272858
51
32.727142
0
ARC
5
89
100
AcDbEntity
8
1
62
256
6
ByLayer
370
-1
48
1
60
0
100
AcDbCircle
39
0
10
36.9
20
-8.2
30
0
40
4.00000000000002
210
0
220
0
230
1
100
AcDbArc
50
90
51
143.130102
0
ARC
5
8A
100
AcDbEntity
8
1
62
256
6
ByLayer
370
-1
48
1
60
0
100
AcDbCircle
39
0
10
36.9
20
8.2
30
0
40
4
210
0
220
0
230
1
100
AcDbArc
50
216.869898
51
270
0
ARC
5
8B
100
AcDbEntity
8
1
62
256
6
ByLayer
370
-1
48
1
60
0
100
AcDbCircle
39
0
10
55
20
0
30
0
40
1.2065
210
0
220
0
230
1
100
AcDbArc
50
273.955279
51
330.079943
0
ARC
5
8E
100
AcDbEntity
8
1
62
256
6
ByLayer
370
-1
48
1
60
0
100
AcDbCircle
39
0
10
55
20
0
30
0
40
1.2065
210
0
220
0
230
1
100
AcDbArc
50
150.079943
51
209.920057
0
ARC
5
8F
100
AcDbEntity
8
1
62
256
6
ByLayer
370
-1
48
1
60
0
100
AcDbCircle
39
0
10
-55
20
0
30
0
40
1.6765
210
0
220
0
230
-1
100
AcDbArc
50
59.840113
51
120.159887
0
ARC
5
91
100
AcDbEntity
8
1
62
256
6
ByLayer
370
-1
48
1
60
0
100
AcDbCircle
39
0
10
55
20
0
30
0
40
1.2065
210
0
220
0
230
1
100
AcDbArc
50
209.920057
51
266.044721
0
ARC
5
93
100
AcDbEntity
8
1
62
256
6
ByLayer
370
-1
48
1
60
0
100
AcDbCircle
39
0
10
-55
20
0
30
0
40
1.2065
210
0
220
0
230
-1
100
AcDbArc
50
86.044721
51
93.955279
0
ARC
5
94
100
AcDbEntity
8
1
62
256
6
ByLayer
370
-1
48
1
60
0
100
AcDbCircle
39
0
10
55
20
0
30
0
40
1.2065
210
0
220
0
230
1
100
AcDbArc
50
330.079943
51
29.920057
0
ARC
5
95
100
AcDbEntity
8
1
62
256
6
ByLayer
370
-1
48
1
60
0
100
AcDbCircle
39
0
10
-55
20
0
30
0
40
1.6765
210
0
220
0
230
-1
100
AcDbArc
50
0
51
59.840113
0
ARC
5
96
100
AcDbEntity
8
1
62
256
6
ByLayer
370
-1
48
1
60
0
100
AcDbCircle
39
0
10
-55
20
0
30
0
40
1.2065
210
0
220
0
230
-1
100
AcDbArc
50
266.044721
51
273.955279
0
ARC
5
98
100
AcDbEntity
8
1
62
256
6
ByLayer
370
-1
48
1
60
0
100
AcDbCircle
39
0
10
-55
20
0
30
0
40
1.6765
210
0
220
0
230
-1
100
AcDbArc
50
180
51
239.840113
0
ARC
5
9A
100
AcDbEntity
8
1
62
256
6
ByLayer
370
-1
48
1
60
0
100
AcDbCircle
39
0
10
55
20
0
30
0
40
1.2065
210
0
220
0
230
1
100
AcDbArc
50
29.920057
51
86.044721
0
ARC
5
9B
100
AcDbEntity
8
1
62
256
6
ByLayer
370
-1
48
1
60
0
100
AcDbCircle
39
0
10
-55
20
0
30
0
40
1.2065
210
0
220
0
230
-1
100
AcDbArc
50
29.920057
51
86.044721
0
ARC
5
9C
100
AcDbEntity
8
1
62
256
6
ByLayer
370
-1
48
1
60
0
100
AcDbCircle
39
0
10
-55
20
0
30
0
40
1.6765
210
0
220
0
230
-1
100
AcDbArc
50
300.159887
51
0
0
ARC
5
9D
100
AcDbEntity
8
1
62
256
6
ByLayer
370
-1
48
1
60
0
100
AcDbCircle
39
0
10
-55
20
0
30
0
40
1.6765
210
0
220
0
230
-1
100
AcDbArc
50
239.840113
51
300.159887
0
ARC
5
9E
100
AcDbEntity
8
1
62
256
6
ByLayer
370
-1
48
1
60
0
100
AcDbCircle
39
0
10
-55
20
0
30
0
40
1.6765
210
0
220
0
230
-1
100
AcDbArc
50
120.159887
51
180
0
CIRCLE
5
8C
100
AcDbEntity
8
1
62
256
6
ByLayer
370
-1
48
1
60
0
100
AcDbCircle
10
-55
20
0
30
0
40
1.8
39
0
210
0
220
0
230
-1
0
CIRCLE
5
8D
100
AcDbEntity
8
1
62
256
6
ByLayer
370
-1
48
1
60
0
100
AcDbCircle
10
-55
20
0
30
0
40
3
39
0
210
0
220
0
230
-1
0
CIRCLE
5
90
100
AcDbEntity
8
1
62
256
6
ByLayer
370
-1
48
1
60
0
100
AcDbCircle
10
-55
20
0
30
0
40
5
39
0
210
0
220
0
230
-1
0
CIRCLE
5
92
100
AcDbEntity
8
1
62
256
6
ByLayer
370
-1
48
1
60
0
100
AcDbCircle
10
-55
20
0
30
0
40
2.625
39
0
210
0
220
0
230
-1
0
CIRCLE
5
97
100
AcDbEntity
8
1
62
256
6
ByLayer
370
-1
48
1
60
0
100
AcDbCircle
10
-55
20
0
30
0
40
2.94445165909345
39
0
210
0
220
0
230
-1
0
CIRCLE
5
99
100
AcDbEntity
8
1
62
256
6
ByLayer
370
-1
48
1
60
0
100
AcDbCircle
10
-55
20
0
30
0
40
3.04453416176669
39
0
210
0
220
0
230
-1
0
ELLIPSE
5
9F
100
AcDbEntity
8
1
62
256
6
ByLayer
370
-1
48
1
60
0
100
AcDbEllipse
10
16.96467
20
0
30
0
11
3.36766747301154E-16
21
5.5
31
0
210
0
220
0
230
1
40
0.090668
41
1.5707963267949
42
-1.94287874581778
0
ELLIPSE
5
A0
100
AcDbEntity
8
1
62
256
6
ByLayer
370
-1
48
1
60
0
100
AcDbEllipse
10
16.96467
20
0
30
0
11
3.36766747301154E-16
21
5.5
31
0
210
0
220
0
230
1
40
0.090668
41
-1.19861579506388
42
1.5707963267949
0
ELLIPSE
5
A1
100
AcDbEntity
8
1
62
256
6
ByLayer
370
-1
48
1
60
0
100
AcDbEllipse
10
21.056258
20
0
30
0
11
-11.7092723497278
21
-24.6771864409381
31
0
210
0
220
0
230
1
40
0.341999
41
-1.08183270048926
42
-0.167213071908978
0
ELLIPSE
5
A2
100
AcDbEntity
8
1
62
256
6
ByLayer
370
-1
48
1
60
0
100
AcDbEllipse
10
18.187217
20
0
30
0
11
1.53075794227797E-15
21
25
31
0
210
0
220
0
230
1
40
0.087489
41
0.130222821956014
42
3.01136983163378
0
ELLIPSE
5
A3
100
AcDbEntity
8
1
62
256
6
ByLayer
370
-1
48
1
60
0
100
AcDbEllipse
10
-1.056258
20
0
30
0
11
-11.7092723497271
21
24.6771864409373
31
0
210
0
220
0
230
1
40
0.341999
41
-2.97437958168082
42
-2.05975995310051
0
ELLIPSE
5
A4
100
AcDbEntity
8
1
62
256
6
ByLayer
370
-1
48
1
60
0
100
AcDbEllipse
10
-1.056258
20
0
30
0
11
-11.7092723497278
21
-24.6771864409381
31
0
210
0
220
0
230
1
40
0.341999
41
2.05975995310054
42
2.97437958168082
0
ELLIPSE
5
A5
100
AcDbEntity
8
1
62
256
6
ByLayer
370
-1
48
1
60
0
100
AcDbEllipse
10
21.056258
20
0
30
0
11
-11.7092723497275
21
24.6771864409378
31
0
210
0
220
0
230
1
40
0.341999
41
0.167213071908977
42
1.08183270048926
0
ELLIPSE
5
A6
100
AcDbEntity
8
1
62
256
6
ByLayer
370
-1
48
1
60
0
100
AcDbEllipse
10
16.360302
20
0
30
0
11
1.22460635382238E-16
21
2
31
0
210
0
220
0
230
1
40
0.190809
41
-2.77883711936617
42
-1.57079632745085
0
ELLIPSE
5
A7
100
AcDbEntity
8
1
62
256
6
ByLayer
370
-1
48
1
60
0
100
AcDbEllipse
10
16.360302
20
0
30
0
11
1.22460635382238E-16
21
2
31
0
210
0
220
0
230
1
40
0.190809
41
-1.57079632745086
42
-0.362657332827829
0
ELLIPSE
5
A8
100
AcDbEntity
8
1
62
256
6
ByLayer
370
-1
48
1
60
0
100
AcDbEllipse
10
19.208253
20
0
30
0
11
-3.67381906146713E-16
21
-2
31
0
210
0
220
0
230
1
40
0.190809
41
0
42
-3.14159264671429
0
ELLIPSE
5
A9
100
AcDbEntity
8
1
62
256
6
ByLayer
370
-1
48
1
60
0
100
AcDbEllipse
10
19.404579
20
0
30
0
11
1.10214571844014E-16
21
1.8
31
0
210
0
220
0
230
1
40
0.190809
41
-2.94593006815357
42
-1.57079649411752
0
ELLIPSE
5
AA
100
AcDbEntity
8
1
62
256
6
ByLayer
370
-1
48
1
60
0
100
AcDbEllipse
10
19.404579
20
0
30
0
11
1.10214571844014E-16
21
1.8
31
0
210
0
220
0
230
1
40
0.190809
41
-1.57079649411754
42
-0.195565000367862
0
POINT
5
41
100
AcDbEntity
8
SK2
62
256
6
ByLayer
370
-1
48
1
60
0
100
AcDbPoint
10
60
20
2.071068
30
0
39
0
210
0
220
0
230
1
50
360
0
POINT
5
43
100
AcDbEntity
8
SK2
62
256
6
ByLayer
370
-1
48
1
60
0
100
AcDbPoint
10
110
20
52.071068
30
0
39
0
210
0
220
0
230
1
50
360
0
POINT
5
44
100
AcDbEntity
8
81
62
256
6
ByLayer
370
-1
48
1
60
0
100
AcDbPoint
10
60
20
5
30
0
39
0
210
0
220
0
230
1
50
360
0
POINT
5
46
100
AcDbEntity
8
SK2
62
256
6
ByLayer
370
-1
48
1
60
0
100
AcDbPoint
10
60
20
2.071068
30
0
39
0
210
0
220
0
230
1
50
360
0
POINT
5
47
100
AcDbEntity
8
SK2
62
256
6
ByLayer
370
-1
48
1
60
0
100
AcDbPoint
10
110
20
52.071068
30
0
39
0
210
0
220
0
230
1
50
360
0
POINT
5
48
100
AcDbEntity
8
SK2
62
256
6
ByLayer
370
-1
48
1
60
0
100
AcDbPoint
10
60
20
2.071068
30
0
39
0
210
0
220
0
230
1
50
360
0
POINT
5
49
100
AcDbEntity
8
SK2
62
256
6
ByLayer
370
-1
48
1
60
0
100
AcDbPoint
10
60
20
2.071068
30
0
39
0
210
0
220
0
230
1
50
360
0
POINT
5
4A
100
AcDbEntity
8
2
62
256
6
ByLayer
370
-1
48
1
60
0
100
AcDbPoint
10
60
20
2.071068
30
0
39
0
210
0
220
0
230
1
50
360
0
POINT
5
4C
100
AcDbEntity
8
80
62
256
6
ByLayer
370
-1
48
1
60
0
100
AcDbPoint
10
0
20
0
30
0
39
0
210
0
220
0
230
1
50
360
0
SPLINE
5
AB
100
AcDbEntity
8
SK1
62
256
6
ByLayer
370
-1
48
1
60
0
100
AcDbSpline
70
4
71
2
72
6
73
3
40
0
40
0
40
0
40
1
40
1
40
1
41
1
10
-28.5
20
-16.8542724489282
30
0
41
1
10
-15.3499999999286
20
-17.1845422635703
30
0
41
1
10
-2.19999999999999
20
-17.5148116792767
30
0
0
SPLINE
5
AC
100
AcDbEntity
8
SK1
62
256
6
ByLayer
370
-1
48
1
60
0
100
AcDbSpline
70
4
71
2
72
6
73
3
40
0
40
0
40
0
40
1
40
1
40
1
41
1
10
-2.2
20
17.5148117187522
30
0
41
1
10
-15.3499999999294
20
17.1845422725478
30
0
41
1
10
-28.5
20
16.854272429841
30
0
0
SPLINE
5
AD
100
AcDbEntity
8
SK1
62
256
6
ByLayer
370
-1
48
1
60
0
100
AcDbSpline
70
4
71
3
72
13
73
9
40
0
40
0
40
0
40
0
40
0.239456135733032
40
0.36835972189653
40
0.499998983985283
40
0.631638415256102
40
0.76054246776243
40
1
40
1
40
1
40
1
41
1
10
-2.2
20
-17.520098551796
30
0
41
1
10
-2.19909198642199
20
-17.4940410756898
30
0
41
1
10
-2.19103284106865
20
-17.4566684913667
30
0
41
1
10
-2.16563592203264
20
-17.410449317548
30
0
41
1
10
-2.13886378679183
20
-17.3791677636995
30
0
41
1
10
-2.10627712749809
20
-17.3540003935064
30
0
41
1
10
-2.05884064234172
20
-17.3309565910454
30
0
41
1
10
-2.02111030873063
20
-17.3247843360228
30
0
41
1
10
-1.9950399779393
20
-17.3251859759625
30
0
0
SPLINE
5
AE
100
AcDbEntity
8
SK1
62
256
6
ByLayer
370
-1
48
1
60
0
100
AcDbSpline
70
4
71
3
72
13
73
9
40
0
40
0
40
0
40
0
40
0.239457532282982
40
0.368361584804877
40
0.500001016081699
40
0.631640278165302
40
0.760543864313669
40
1
40
1
40
1
40
1
41
1
10
-1.99503997793928
20
17.3251861589552
30
0
41
1
10
-2.02111030872966
20
17.324784519015
30
0
41
1
10
-2.05884064233987
20
17.3309567740351
30
0
41
1
10
-2.10627712749673
20
17.3540005764861
30
0
41
1
10
-2.13886378679055
20
17.3791679466684
30
0
41
1
10
-2.16563592203168
20
17.4104495005038
30
0
41
1
10
-2.19103284106792
20
17.4566686743028
30
0
41
1
10
-2.19909198642127
20
17.4940412586114
30
0
41
1
10
-2.19999999999999
20
17.5200987347078
30
0
0
SPLINE
5
AF
100
AcDbEntity
8
SK1
62
256
6
ByLayer
370
-1
48
1
60
0
100
AcDbSpline
70
4
71
2
72
6
73
3
40
0
40
0
40
0
40
1
40
1
40
1
41
1
10
-1.9950399779393
20
-17.3199593099743
30
0
41
1
10
-1.19500843340704
20
-17.340052552406
30
0
41
1
10
-0.394976888875291
20
-17.3601457933935
30
0
0
SPLINE
5
B0
100
AcDbEntity
8
SK1
62
256
6
ByLayer
370
-1
48
1
60
0
100
AcDbSpline
70
4
71
2
72
6
73
3
40
0
40
0
40
0
40
1
40
1
40
1
41
1
10
-0.394976888875291
20
17.3601458189993
30
0
41
1
10
-1.19500843340704
20
17.3400525762132
30
0
41
1
10
-1.9950399779393
20
17.3199593319919
30
0
0
SPLINE
5
B1
100
AcDbEntity
8
SK1
62
256
6
ByLayer
370
-1
48
1
60
0
100
AcDbSpline
70
4
71
2
72
6
73
3
40
0
40
0
40
0
40
1
40
1
40
1
41
1
10
-30
20
-15.9924794145163
30
0
41
1
10
-29.2499999991495
20
-16.4254650261933
30
0
41
1
10
-28.5
20
-16.8584504491481
30
0
0
SPLINE
5
B2
100
AcDbEntity
8
SK1
62
256
6
ByLayer
370
-1
48
1
60
0
100
AcDbSpline
70
4
71
2
72
6
73
3
40
0
40
0
40
0
40
1
40
1
40
1
41
1
10
-28.5
20
16.8584505716142
30
0
41
1
10
-29.2499999991496
20
16.4254651505507
30
0
41
1
10
-30
20
15.99247954079
30
0
0
SPLINE
5
B3
100
AcDbEntity
8
SK1
62
256
6
ByLayer
370
-1
48
1
60
0
100
AcDbSpline
70
4
71
2
72
6
73
3
40
0
40
0
40
0
40
1
40
1
40
1
41
1
10
-0.394976888875291
20
-17.359696795897
30
0
41
1
10
-0.286004994367318
20
-17.3675903489467
30
0
41
1
10
-0.248878635305218
20
-17.4470673686671
30
0
0
SPLINE
5
B4
100
AcDbEntity
8
SK1
62
256
6
ByLayer
370
-1
48
1
60
0
100
AcDbSpline
70
4
71
2
72
6
73
3
40
0
40
0
40
0
40
1
40
1
40
1
41
1
10
-0.248803384698164
20
17.4471793423611
30
0
41
1
10
-0.285937388777214
20
17.3676196897178
30
0
41
1
10
-0.394976888875291
20
17.3596982935394
30
0
0
SPLINE
5
B5
100
AcDbEntity
8
1
62
256
6
ByLayer
370
-1
48
1
60
0
100
AcDbSpline
70
4
71
3
72
16
73
12
40
0
40
0
40
0
40
0
40
0.111430279628047
40
0.111430279628047
40
0.248747543515467
40
0.248747543515467
40
0.465535329195252
40
0.465535329195252
40
0.883855351867553
40
0.883855351867553
40
1
40
1
40
1
40
1
41
1
10
8.53867513459481
20
-7.52966679426501
30
0
41
1
10
8.51081528400579
20
-7.52966679426501
30
0
41
1
10
8.48260885722448
20
-7.53471706780857
30
0
41
1
10
8.42415079676071
20
-7.55489210221029
30
0
41
1
10
8.39395861076943
20
-7.57218953888446
30
0
41
1
10
8.32484624564245
20
-7.62460019394089
30
0
41
1
10
8.28921459142954
20
-7.66489294253907
30
0
41
1
10
8.20100610925398
20
-7.78941367630352
30
0
41
1
10
8.16026799314912
20
-7.88247511004147
30
0
41
1
10
8.12070829847319
20
-8.00269269538009
30
0
41
1
10
8.11283840142688
20
-8.02920008991578
30
0
41
1
10
8.10566243270245
20
-8.05584836782771
30
0
0
SPLINE
5
B6
100
AcDbEntity
8
1
62
256
6
ByLayer
370
-1
48
1
60
0
100
AcDbSpline
70
4
71
3
72
16
73
12
40
0
40
0
40
0
40
0
40
0.111430279628047
40
0.111430279628047
40
0.248747543515475
40
0.248747543515475
40
0.465535329195272
40
0.465535329195272
40
0.883855351867603
40
0.883855351867603
40
1
40
1
40
1
40
1
41
1
10
11.4613248654052
20
7.52966679426504
30
0
41
1
10
11.4891847159942
20
7.52966679426504
30
0
41
1
10
11.5173911427755
20
7.53471706780854
30
0
41
1
10
11.5758492032393
20
7.55489210221029
30
0
41
1
10
11.6060413892306
20
7.57218953888446
30
0
41
1
10
11.6751537543576
20
7.62460019394089
30
0
41
1
10
11.7107854085705
20
7.66489294253907
30
0
41
1
10
11.798993890746
20
7.78941367630352
30
0
41
1
10
11.8397320068509
20
7.8824751100415
30
0
41
1
10
11.8792917015268
20
8.00269269538009
30
0
41
1
10
11.8871615985731
20
8.02920008991578
30
0
41
1
10
11.8943375672976
20
8.05584836782771
30
0
0
SPLINE
5
B7
100
AcDbEntity
8
1
62
256
6
ByLayer
370
-1
48
1
60
0
100
AcDbSpline
70
4
71
3
72
16
73
12
40
0
40
0
40
0
40
0
40
0.461208588217088
40
0.461208588217088
40
0.643534962278544
40
0.643534962278544
40
0.82840847297529
40
0.82840847297529
40
0.943003644159989
40
0.943003644159989
40
1
40
1
40
1
40
1
41
1
10
8.1056624327026
20
8.05584836782774
30
0
41
1
10
8.13394960848487
20
7.95080268681445
30
0
41
1
10
8.17266608070922
20
7.84628670970801
30
0
41
1
10
8.25268397516849
20
7.71442469145123
30
0
41
1
10
8.27872153625232
20
7.67825379650728
30
0
41
1
10
8.33934560108361
20
7.61290523367228
30
0
41
1
10
8.37482777731262
20
7.5830592305141
30
0
41
1
10
8.44007741480422
20
7.54855881865589
30
0
41
1
10
8.46752172250564
20
7.5385201810229
30
0
41
1
10
8.50983152523006
20
7.53097042135255
30
0
41
1
10
8.5242826069246
20
7.52966679426473
30
0
41
1
10
8.53867513459474
20
7.52966679426473
30
0
0
SPLINE
5
B8
100
AcDbEntity
8
1
62
256
6
ByLayer
370
-1
48
1
60
0
100
AcDbSpline
70
4
71
3
72
16
73
12
40
0
40
0
40
0
40
0
40
0.461208588217085
40
0.461208588217085
40
0.643534962278541
40
0.643534962278541
40
0.828408472975291
40
0.828408472975291
40
0.943003644159993
40
0.943003644159993
40
1
40
1
40
1
40
1
41
1
10
11.8943375672974
20
23.6665017920809
30
0
41
1
10
11.8660503915152
20
23.7022583261632
30
0
41
1
10
11.8273339192908
20
23.7370095736338
30
0
41
1
10
11.7473160248315
20
23.7800170858174
30
0
41
1
10
11.7212784637477
20
23.7917125768793
30
0
41
1
10
11.6606543989164
20
23.8127037684951
30
0
41
1
10
11.6251722226874
20
23.8222104320954
30
0
41
1
10
11.5599225851958
20
23.8331586856493
30
0
41
1
10
11.5324782774944
20
23.836332378473
30
0
41
1
10
11.4901684747699
20
23.8387183279986
30
0
41
1
10
11.4757173930754
20
23.8391299750505
30
0
41
1
10
11.4613248654053
20
23.8391299750505
30
0
0
SPLINE
5
B9
100
AcDbEntity
8
1
62
256
6
ByLayer
370
-1
48
1
60
0
100
AcDbSpline
70
4
71
3
72
12
73
8
40
0
40
0
40
0
40
0
40
0.276462055073402
40
0.276462055073402
40
0.705967217870369
40
0.705967217870369
40
1
40
1
40
1
40
1
41
1
10
19.3043954988392
20
24.9941393319879
30
0
41
1
10
19.0848523755078
20
24.9901167100865
30
0
41
1
10
18.8843254560446
20
24.9834502433998
30
0
41
1
10
18.4391851508127
20
24.9562504860304
30
0
41
1
10
18.2259591711871
20
24.9293375040847
30
0
41
1
10
17.9918769236217
20
24.862065298816
30
0
41
1
10
17.9297848082607
20
24.8281269394403
30
0
41
1
10
17.9031954005788
20
24.7883245941616
30
0
0
SPLINE
5
BA
100
AcDbEntity
8
1
62
256
6
ByLayer
370
-1
48
1
60
0
100
AcDbSpline
70
4
71
3
72
16
73
12
40
0
40
0
40
0
40
0
40
0.111430279628052
40
0.111430279628052
40
0.248747543515474
40
0.248747543515474
40
0.465535329195271
40
0.465535329195271
40
0.883855351867598
40
0.883855351867598
40
1
40
1
40
1
40
1
41
1
10
11.4613248654052
20
-23.8391299750503
30
0
41
1
10
11.4891847159942
20
-23.8391299750503
30
0
41
1
10
11.5173911427755
20
-23.8375361275706
30
0
41
1
10
11.5758492032393
20
-23.831150658589
30
0
41
1
10
11.6060413892306
20
-23.825666877018
30
0
41
1
10
11.6751537543576
20
-23.8089605749788
30
0
41
1
10
11.7107854085705
20
-23.796037970776
30
0
41
1
10
11.798993890746
20
-23.7556824246832
30
0
41
1
10
11.8397320068509
20
-23.7250165399981
30
0
41
1
10
11.8792917015268
20
-23.6845451449633
30
0
41
1
10
11.8871615985731
20
-23.6755726082078
30
0
41
1
10
11.8943375672976
20
-23.6665017920809
30
0
0
SPLINE
5
BB
100
AcDbEntity
8
1
62
256
6
ByLayer
370
-1
48
1
60
0
100
AcDbSpline
70
4
71
3
72
16
73
12
40
0
40
0
40
0
40
0
40
0.11143027962805
40
0.11143027962805
40
0.248747543515472
40
0.248747543515472
40
0.465535329195252
40
0.465535329195252
40
0.88385535186756
40
0.88385535186756
40
1
40
1
40
1
40
1
41
1
10
8.53867513459481
20
23.8391299750503
30
0
41
1
10
8.51081528400579
20
23.8391299750503
30
0
41
1
10
8.48260885722448
20
23.8375361275706
30
0
41
1
10
8.42415079676071
20
23.831150658589
30
0
41
1
10
8.39395861076943
20
23.825666877018
30
0
41
1
10
8.32484624564245
20
23.8089605749788
30
0
41
1
10
8.28921459142956
20
23.796037970776
30
0
41
1
10
8.201006109254
20
23.7556824246832
30
0
41
1
10
8.16026799314912
20
23.7250165399981
30
0
41
1
10
8.12070829847319
20
23.6845451449633
30
0
41
1
10
8.11283840142688
20
23.6755726082077
30
0
41
1
10
8.10566243270245
20
23.6665017920809
30
0
0
SPLINE
5
BC
100
AcDbEntity
8
1
62
256
6
ByLayer
370
-1
48
1
60
0
100
AcDbSpline
70
4
71
3
72
12
73
8
40
0
40
0
40
0
40
0
40
0.428231542910829
40
0.428231542910829
40
0.856549801515425
40
0.856549801515425
40
1
40
1
40
1
40
1
41
1
10
17.9031954005788
20
-24.7883245941616
30
0
41
1
10
17.9416632909447
20
-24.8459081354276
30
0
41
1
10
18.0557429024333
20
-24.8911338433052
30
0
41
1
10
18.4185989275181
20
-24.9548888240128
30
0
41
1
10
18.6723859760918
20
-24.9744898758592
30
0
41
1
10
19.0806078619558
20
-24.9892331523795
30
0
41
1
10
19.1898542924746
20
-24.9920406282874
30
0
41
1
10
19.3043954988282
20
-24.9941393319877
30
0
0
SPLINE
5
BD
100
AcDbEntity
8
1
62
256
6
ByLayer
370
-1
48
1
60
0
100
AcDbSpline
70
4
71
3
72
16
73
12
40
0
40
0
40
0
40
0
40
0.461208588217095
40
0.461208588217095
40
0.643534962278547
40
0.643534962278547
40
0.828408472975285
40
0.828408472975285
40
0.943003644159988
40
0.943003644159988
40
1
40
1
40
1
40
1
41
1
10
8.1056624327026
20
-23.6665017920809
30
0
41
1
10
8.13394960848487
20
-23.7022583261632
30
0
41
1
10
8.17266608070922
20
-23.7370095736338
30
0
41
1
10
8.25268397516849
20
-23.7800170858174
30
0
41
1
10
8.27872153625232
20
-23.7917125768793
30
0
41
1
10
8.33934560108361
20
-23.8127037684951
30
0
41
1
10
8.37482777731263
20
-23.8222104320954
30
0
41
1
10
8.44007741480422
20
-23.8331586856493
30
0
41
1
10
8.46752172250564
20
-23.836332378473
30
0
41
1
10
8.50983152523006
20
-23.8387183279986
30
0
41
1
10
8.5242826069246
20
-23.8391299750505
30
0
41
1
10
8.53867513459475
20
-23.8391299750505
30
0
0
SPLINE
5
BE
100
AcDbEntity
8
1
62
256
6
ByLayer
370
-1
48
1
60
0
100
AcDbSpline
70
4
71
3
72
16
73
12
40
0
40
0
40
0
40
0
40
0.461208588217066
40
0.461208588217066
40
0.643534962278522
40
0.643534962278522
40
0.828408472975271
40
0.828408472975271
40
0.943003644159981
40
0.943003644159981
40
1
40
1
40
1
40
1
41
1
10
11.8943375672974
20
-8.05584836782774
30
0
41
1
10
11.8660503915152
20
-7.95080268681445
30
0
41
1
10
11.8273339192908
20
-7.84628670970801
30
0
41
1
10
11.7473160248315
20
-7.71442469145123
30
0
41
1
10
11.7212784637477
20
-7.67825379650728
30
0
41
1
10
11.6606543989164
20
-7.61290523367228
30
0
41
1
10
11.6251722226874
20
-7.58305923051407
30
0
41
1
10
11.5599225851958
20
-7.54855881865589
30
0
41
1
10
11.5324782774944
20
-7.5385201810229
30
0
41
1
10
11.49016847477
20
-7.53097042135255
30
0
41
1
10
11.4757173930754
20
-7.5296667942647
30
0
41
1
10
11.4613248654053
20
-7.5296667942647
30
0
0
SPLINE
5
BF
100
AcDbEntity
8
SK1
62
256
6
ByLayer
370
-1
48
1
60
0
100
AcDbSpline
70
4
71
3
72
10
73
6
40
0
40
0
40
0
40
0
40
0.383533800907155
40
0.383533800907155
40
1
40
1
40
1
40
1
41
1
10
-0.209577002981774
20
17.5038546575898
30
0
41
1
10
-0.21186233959051
20
17.4968415830615
30
0
41
1
10
-0.214637114414913
20
17.489561960255
30
0
41
1
10
-0.223367424980054
20
17.4698128281472
30
0
41
1
10
-0.230251751350252
20
17.4568481315222
30
0
41
1
10
-0.240283122623694
20
17.4428022830407
30
0
0
SPLINE
5
C0
100
AcDbEntity
8
SK1
62
256
6
ByLayer
370
-1
48
1
60
0
100
AcDbSpline
70
4
71
3
72
282
73
278
40
0
40
0
40
0
40
0
40
0.0031455701887758
40
0.006720061850968
40
0.0102945535131603
40
0.0138690451753525
40
0.0174435368375447
40
0.0210180284997369
40
0.0245925201619291
40
0.0281670118241213
40
0.0317415034863135
40
0.0353159951485057
40
0.0424649784728901
40
0.0460394701350823
40
0.0496139617972745
40
0.0531884534594667
40
0.0567629451216589
40
0.0639119284460433
40
0.0674864201082356
40
0.0710609117704278
40
0.0782098950948122
40
0.0817843867570044
40
0.0853588784191966
40
0.092507861743581
40
0.0960823534057732
40
0.0996568450679654
40
0.103231336730158
40
0.10680582839235
40
0.110380320054542
40
0.113954811716734
40
0.117529303378927
40
0.121103795041119
40
0.128252778365503
40
0.131827270027695
40
0.135401761689887
40
0.13897625335208
40
0.142550745014272
40
0.149699728338656
40
0.153274220000849
40
0.156848711663041
40
0.160423203325233
40
0.163997694987425
40
0.17114667831181
40
0.174721169974002
40
0.178295661636194
40
0.181870153298386
40
0.185444644960578
40
0.192593628284963
40
0.196168119947155
40
0.199742611609347
40
0.203317103271539
40
0.206891594933732
40
0.214040578258116
40
0.217615069920308
40
0.2211895615825
40
0.224764053244693
40
0.228338544906885
40
0.235487528231269
40
0.239062019893462
40
0.242636511555654
40
0.246211003217846
40
0.249785494880038
40
0.256934478204423
40
0.260508969866615
40
0.264083461528807
40
0.271232444853191
40
0.278381428177576
40
0.281955919839768
40
0.28553041150196
40
0.292679394826345
40
0.296253886488537
40
0.299828378150729
40
0.303402869812921
40
0.306977361475114
40
0.310551853137306
40
0.314126344799498
40
0.321275328123882
40
0.328424311448267
40
0.331998803110459
40
0.335573294772651
40
0.339147786434843
40
0.342722278097035
40
0.346296769759228
40
0.34987126142142
40
0.357020244745804
40
0.364169228070189
40
0.371318211394573
40
0.374892703056765
40
0.378467194718958
40
0.38204168638115
40
0.385616178043342
40
0.389190669705534
40
0.392765161367726
40
0.396339653029919
40
0.399914144692111
40
0.403488636354303
40
0.407063128016495
40
0.410637619678687
40
0.41421211134088
40
0.417786603003072
40
0.421361094665264
40
0.424935586327456
40
0.428510077989649
40
0.432084569651841
40
0.433871815482937
40
0.435659061314033
40
0.437446307145129
40
0.439233552976225
40
0.442808044638417
40
0.446382536300609
40
0.448169782131706
40
0.449957027962802
40
0.451744273793898
40
0.453531519624994
40
0.45531876545609
40
0.457106011287186
40
0.460680502949378
40
0.462467748780474
40
0.464254994611571
40
0.466042240442667
40
0.467829486273763
40
0.469616732104859
40
0.471403977935955
40
0.473191223767051
40
0.474978469598147
40
0.476765715429243
40
0.478552961260339
40
0.480340207091435
40
0.482127452922532
40
0.483914698753628
40
0.485701944584724
40
0.48748919041582
40
0.489276436246916
40
0.491063682078012
40
0.492850927909108
40
0.494638173740204
40
0.4964254195713
40
0.498212665402397
40
0.499999911233493
40
0.501787157064589
40
0.503574402895685
40
0.505361648726781
40
0.507148894557877
40
0.508936140388973
40
0.510723386220069
40
0.512510632051165
40
0.514297877882261
40
0.516085123713358
40
0.517872369544454
40
0.51965961537555
40
0.521446861206646
40
0.523234107037742
40
0.525021352868838
40
0.526808598699934
40
0.52859584453103
40
0.530383090362126
40
0.532170336193223
40
0.533957582024319
40
0.535744827855415
40
0.537532073686511
40
0.539319319517607
40
0.541106565348703
40
0.542893811179799
40
0.544681057010895
40
0.546468302841991
40
0.550042794504184
40
0.55183004033528
40
0.553617286166376
40
0.557191777828568
40
0.56076626949076
40
0.562553515321856
40
0.564340761152952
40
0.566128006984048
40
0.567915252815145
40
0.571489744477337
40
0.575064236139529
40
0.578638727801721
40
0.582213219463913
40
0.585787711126106
40
0.589362202788298
40
0.59293669445049
40
0.596511186112682
40
0.600085677774874
40
0.603660169437067
40
0.607234661099259
40
0.610809152761451
40
0.614383644423643
40
0.617958136085836
40
0.621532627748028
40
0.62510711941022
40
0.628681611072412
40
0.635830594396797
40
0.642979577721181
40
0.650128561045565
40
0.653703052707758
40
0.65727754436995
40
0.660852036032142
40
0.664426527694334
40
0.668001019356526
40
0.671575511018719
40
0.678724494343103
40
0.685873477667487
40
0.68944796932968
40
0.693022460991872
40
0.696596952654064
40
0.700171444316256
40
0.703745935978448
40
0.707320427640641
40
0.714469410965025
40
0.718043902627217
40
0.721618394289409
40
0.728767377613794
40
0.735916360938178
40
0.739490852600371
40
0.743065344262563
40
0.750214327586947
40
0.753788819249139
40
0.757363310911331
40
0.760937802573524
40
0.764512294235716
40
0.7716612775601
40
0.775235769222293
40
0.778810260884485
40
0.782384752546677
40
0.785959244208869
40
0.793108227533254
40
0.796682719195446
40
0.800257210857638
40
0.80383170251983
40
0.807406194182022
40
0.814555177506407
40
0.818129669168599
40
0.821704160830791
40
0.825278652492983
40
0.828853144155176
40
0.83600212747956
40
0.839576619141752
40
0.843151110803944
40
0.844938356635041
40
0.846725602466137
40
0.850300094128329
40
0.857449077452713
40
0.861023569114906
40
0.864598060777098
40
0.86817255243929
40
0.871747044101482
40
0.878896027425867
40
0.882470519088059
40
0.886045010750251
40
0.889619502412443
40
0.893193994074635
40
0.896768485736828
40
0.90034297739902
40
0.903917469061212
40
0.907491960723404
40
0.914640944047789
40
0.918215435709981
40
0.921789927372173
40
0.928938910696557
40
0.93251340235875
40
0.936087894020942
40
0.943236877345326
40
0.946811369007519
40
0.950385860669711
40
0.953960352331903
40
0.957534843994095
40
0.96468382731848
40
0.968258318980672
40
0.971832810642864
40
0.975407302305056
40
0.978981793967248
40
0.982556285629441
40
0.986130777291633
40
0.989705268953825
40
0.993279760616017
40
0.996854252278209
40
1
40
1
40
1
40
1
41
1
10
-2.19999999999999
20
17.5147448769905
30
0
41
1
10
-2.19999999999999
20
17.5132050117784
30
0
41
1
10
-2.19999999999999
20
17.5092143155092
30
0
41
1
10
-2.19999999999999
20
17.5008423359265
30
0
41
1
10
-2.19999999999999
20
17.4896606050755
30
0
41
1
10
-2.19999999999999
20
17.4760589345483
30
0
41
1
10
-2.19999999999999
20
17.4600756660116
30
0
41
1
10
-2.19999999999999
20
17.4417480829298
30
0
41
1
10
-2.19999999999999
20
17.4211116708093
30
0
41
1
10
-2.19999999999999
20
17.3981999720817
30
0
41
1
10
-2.19999999999999
20
17.373046254225
30
0
41
1
10
-2.19999999999999
20
17.3365615480365
30
0
41
1
10
-2.19999999999999
20
17.2957083393221
30
0
41
1
10
-2.19999999999999
20
17.2506132986913
30
0
41
1
10
-2.19999999999999
20
17.2146924230801
30
0
41
1
10
-2.19999999999999
20
17.1766986759847
30
0
41
1
10
-2.19999999999999
20
17.1233138560685
30
0
41
1
10
-2.19999999999999
20
17.0658713749173
30
0
41
1
10
-2.19999999999999
20
17.0044820563696
30
0
41
1
10
-2.19999999999999
20
16.9404819965209
30
0
41
1
10
-2.19999999999999
20
16.8725984751516
30
0
41
1
10
-2.19999999999999
20
16.8009296734765
30
0
41
1
10
-2.19999999999999
20
16.72675615712
30
0
41
1
10
-2.19999999999999
20
16.6488472996884
30
0
41
1
10
-2.19999999999999
20
16.5672977573629
30
0
41
1
10
-2.19999999999999
20
16.5043209819811
30
0
41
1
10
-2.19999999999999
20
16.4395493732765
30
0
41
1
10
-2.19999999999999
20
16.3729983406747
30
0
41
1
10
-2.19999999999999
20
16.3046816133433
30
0
41
1
10
-2.19999999999999
20
16.2346146587631
30
0
41
1
10
-2.19999999999999
20
16.1628111167189
30
0
41
1
10
-2.19999999999999
20
16.0647793469533
30
0
41
1
10
-2.19999999999999
20
15.9633134995801
30
0
41
1
10
-2.19999999999999
20
15.8584913887799
30
0
41
1
10
-2.19999999999999
20
15.7781982427732
30
0
41
1
10
-2.19999999999999
20
15.6962433497342
30
0
41
1
10
-2.19999999999999
20
15.5847743861311
30
0
41
1
10
-2.19999999999999
20
15.4700110710185
30
0
41
1
10
-2.19999999999999
20
15.3520264687641
30
0
41
1
10
-2.19999999999999
20
15.2619258251736
30
0
41
1
10
-2.19999999999999
20
15.1702262286607
30
0
41
1
10
-2.19999999999999
20
15.0458463802595
30
0
41
1
10
-2.19999999999999
20
14.9182892137509
30
0
41
1
10
-2.19999999999999
20
14.7876243835494
30
0
41
1
10
-2.19999999999999
20
14.6880675684927
30
0
41
1
10
-2.19999999999999
20
14.5869647024964
30
0
41
1
10
-2.19999999999999
20
14.4501162009323
30
0
41
1
10
-2.19999999999999
20
14.310188578504
30
0
41
1
10
-2.19999999999999
20
14.1672492498436
30
0
41
1
10
-2.19999999999999
20
14.0585319196999
30
0
41
1
10
-2.19999999999999
20
13.9483131149779
30
0
41
1
10
-2.19999999999999
20
13.7993681823229
30
0
41
1
10
-2.19999999999999
20
13.6474264445925
30
0
41
1
10
-2.19999999999999
20
13.4925540283558
30
0
41
1
10
-2.19999999999999
20
13.3749248852381
30
0
41
1
10
-2.19999999999999
20
13.2558316845062
30
0
41
1
10
-2.19999999999999
20
13.0951031858018
30
0
41
1
10
-2.19999999999999
20
12.9314463879873
30
0
41
1
10
-2.19999999999999
20
12.7649271524075
30
0
41
1
10
-2.19999999999999
20
12.6385945304865
30
0
41
1
10
-2.19999999999999
20
12.510828990928
30
0
41
1
10
-2.19999999999999
20
12.3385783725546
30
0
41
1
10
-2.19999999999999
20
12.1634558634281
30
0
41
1
10
-2.19999999999999
20
11.9855279960913
30
0
41
1
10
-2.19999999999999
20
11.8057193844339
30
0
41
1
10
-2.19999999999999
20
11.5774197426994
30
0
41
1
10
-2.19999999999999
20
11.3444552561941
30
0
41
1
10
-2.19999999999999
20
11.1553144466797
30
0
41
1
10
-2.19999999999999
20
10.96432157968
30
0
41
1
10
-2.19999999999999
20
10.7705258372791
30
0
41
1
10
-2.19999999999999
20
10.5740001677826
30
0
41
1
10
-2.19999999999999
20
10.4252200954492
30
0
41
1
10
-2.19999999999999
20
10.2750653600417
30
0
41
1
10
-2.19999999999999
20
10.1235384488298
30
0
41
1
10
-2.19999999999999
20
9.97064122920807
30
0
41
1
10
-2.19999999999999
20
9.76496631801302
30
0
41
1
10
-2.19999999999999
20
9.50443392738597
30
0
41
1
10
-2.19999999999999
20
9.23936570098886
30
0
41
1
10
-2.19999999999999
20
9.02461799380217
30
0
41
1
10
-2.19999999999999
20
8.86219304475887
30
0
41
1
10
-2.19999999999999
20
8.69841428000512
30
0
41
1
10
-2.19999999999999
20
8.53328405958746
30
0
41
1
10
-2.19999999999999
20
8.36680339868337
30
0
41
1
10
-2.19999999999999
20
8.14304412571011
30
0
41
1
10
-2.19999999999999
20
7.85994707617317
30
0
41
1
10
-2.19999999999999
20
7.51487111531026
30
0
41
1
10
-2.19999999999999
20
7.22282329277962
30
0
41
1
10
-2.19999999999999
20
6.98653548716825
30
0
41
1
10
-2.19999999999999
20
6.80797157864473
30
0
41
1
10
-2.19999999999999
20
6.62807270531451
30
0
41
1
10
-2.19999999999999
20
6.44684086969582
30
0
41
1
10
-2.19999999999999
20
6.26427776637016
30
0
41
1
10
-2.19999999999999
20
6.0803858592752
30
0
41
1
10
-2.19999999999999
20
5.89516728223867
30
0
41
1
10
-2.19999999999999
20
5.70862469092603
30
0
41
1
10
-2.19999999999999
20
5.52076103085633
30
0
41
1
10
-2.19999999999999
20
5.33157993388585
30
0
41
1
10
-2.19999999999999
20
5.14108511996025
30
0
41
1
10
-2.19999999999999
20
4.94928086714648
30
0
41
1
10
-2.19999999999999
20
4.75617251627347
30
0
41
1
10
-2.19999999999999
20
4.56176620564526
30
0
41
1
10
-2.19999999999999
20
4.36606873641344
30
0
41
1
10
-2.19999999999999
20
4.16908849962459
30
0
41
1
10
-2.19999999999999
20
4.00386590607064
30
0
41
1
10
-2.19999999999999
20
3.87107810854147
30
0
41
1
10
-2.19999999999999
20
3.77116418570387
30
0
41
1
10
-2.19999999999999
20
3.67093805129474
30
0
41
1
10
-2.19999999999999
20
3.5369018254882
30
0
41
1
10
-2.19999999999999
20
3.36855658184018
30
0
41
1
10
-2.19999999999999
20
3.19919951970698
30
0
41
1
10
-2.19999999999999
20
3.06314133422208
30
0
41
1
10
-2.19999999999999
20
2.96079189341756
30
0
41
1
10
-2.19999999999999
20
2.85815023786418
30
0
41
1
10
-2.19999999999999
20
2.75522026664268
30
0
41
1
10
-2.19999999999999
20
2.65200561172494
30
0
41
1
10
-2.19999999999999
20
2.51402705629772
30
0
41
1
10
-2.19999999999999
20
2.375450816946
30
0
41
1
10
-2.19999999999999
20
2.23639085040648
30
0
41
1
10
-2.19999999999999
20
2.13182395998015
30
0
41
1
10
-2.19999999999999
20
2.02700348752293
30
0
41
1
10
-2.19999999999999
20
1.92193653735015
30
0
41
1
10
-2.19999999999999
20
1.81663008016324
30
0
41
1
10
-2.19999999999999
20
1.71109231328518
30
0
41
1
10
-2.19999999999999
20
1.60533155404698
30
0
41
1
10
-2.19999999999999
20
1.49935698477981
30
0
41
1
10
-2.19999999999999
20
1.39317847233161
30
0
41
1
10
-2.19999999999999
20
1.28680633401083
30
0
41
1
10
-2.19999999999999
20
1.18025197439016
30
0
41
1
10
-2.19999999999999
20
1.073527020087
30
0
41
1
10
-2.19999999999999
20
0.96664434311532
30
0
41
1
10
-2.19999999999999
20
0.859616995486334
30
0
41
1
10
-2.19999999999999
20
0.752459219961509
30
0
41
1
10
-2.19999999999999
20
0.645185453734172
30
0
41
1
10
-2.19999999999999
20
0.537811163545626
30
0
41
1
10
-2.19999999999999
20
0.430352024765995
30
0
41
1
10
-2.19999999999999
20
0.322824496958617
30
0
41
1
10
-2.19999999999999
20
0.215245213108545
30
0
41
1
10
-2.19999999999999
20
0.107631302158183
30
0
41
1
10
-2.19999999999999
20
-5.9909553E-09
30
0
41
1
10
-2.19999999999999
20
-0.107631313716837
30
0
41
1
10
-2.19999999999999
20
-0.21524522393176
30
0
41
1
10
-2.19999999999999
20
-0.322824507999513
30
0
41
1
10
-2.19999999999999
20
-0.430352036900842
30
0
41
1
10
-2.19999999999999
20
-0.537811175438549
30
0
41
1
10
-2.19999999999999
20
-0.645185463980482
30
0
41
1
10
-2.19999999999999
20
-0.752459230354134
30
0
41
1
10
-2.19999999999999
20
-0.859617007920519
30
0
41
1
10
-2.19999999999999
20
-0.966644355262389
30
0
41
1
10
-2.19999999999999
20
-1.07352702949097
30
0
41
1
10
-2.19999999999999
20
-1.18025198377217
30
0
41
1
10
-2.19999999999999
20
-1.2868063464968
30
0
41
1
10
-2.19999999999999
20
-1.39317848503856
30
0
41
1
10
-2.19999999999999
20
-1.49935699380708
30
0
41
1
10
-2.19999999999999
20
-1.60533156181745
30
0
41
1
10
-2.19999999999999
20
-1.71109232444707
30
0
41
1
10
-2.19999999999999
20
-1.81663009373557
30
0
41
1
10
-2.19999999999999
20
-1.92193654804359
30
0
41
1
10
-2.19999999999999
20
-2.02700349385552
30
0
41
1
10
-2.19999999999999
20
-2.13182396747069
30
0
41
1
10
-2.19999999999999
20
-2.23639086291988
30
0
41
1
10
-2.19999999999999
20
-2.34069812940876
30
0
41
1
10
-2.19999999999999
20
-2.44473977839391
30
0
41
1
10
-2.19999999999999
20
-2.54851063247165
30
0
41
1
10
-2.19999999999999
20
-2.65200559968281
30
0
41
1
10
-2.19999999999999
20
-2.78960994504098
30
0
41
1
10
-2.19999999999999
20
-2.92668912429065
30
0
41
1
10
-2.19999999999999
20
-3.06314133551615
30
0
41
1
10
-2.19999999999999
20
-3.19919952332836
30
0
41
1
10
-2.19999999999999
20
-3.36855659963138
30
0
41
1
10
-2.19999999999999
20
-3.53690183437428
30
0
41
1
10
-2.19999999999999
20
-3.67093805397229
30
0
41
1
10
-2.19999999999999
20
-3.77116418775421
30
0
41
1
10
-2.19999999999999
20
-3.87107811616198
30
0
41
1
10
-2.19999999999999
20
-4.00386592221614
30
0
41
1
10
-2.19999999999999
20
-4.169088511784
30
0
41
1
10
-2.19999999999999
20
-4.36606871643775
30
0
41
1
10
-2.19999999999999
20
-4.56176617271484
30
0
41
1
10
-2.19999999999999
20
-4.75617249379653
30
0
41
1
10
-2.19999999999999
20
-4.94928076863457
30
0
41
1
10
-2.19999999999999
20
-5.14108500618136
30
0
41
1
10
-2.19999999999999
20
-5.33157993903225
30
0
41
1
10
-2.19999999999999
20
-5.52076102284181
30
0
41
1
10
-2.19999999999999
20
-5.70862461825791
30
0
41
1
10
-2.19999999999999
20
-5.89516734859464
30
0
41
1
10
-2.19999999999999
20
-6.0803860968085
30
0
41
1
10
-2.19999999999999
20
-6.26427796235188
30
0
41
1
10
-2.19999999999999
20
-6.44684092947378
30
0
41
1
10
-2.19999999999999
20
-6.62807271786153
30
0
41
1
10
-2.19999999999999
20
-6.80797159432129
30
0
41
1
10
-2.19999999999999
20
-6.98653550324826
30
0
41
1
10
-2.19999999999999
20
-7.22282328452872
30
0
41
1
10
-2.19999999999999
20
-7.51487112820209
30
0
41
1
10
-2.19999999999999
20
-7.85994708827315
30
0
41
1
10
-2.19999999999999
20
-8.14304411844034
30
0
41
1
10
-2.19999999999999
20
-8.36680341033821
30
0
41
1
10
-2.19999999999999
20
-8.53328407858575
30
0
41
1
10
-2.19999999999999
20
-8.69841428877766
30
0
41
1
10
-2.19999999999999
20
-8.86219304073114
30
0
41
1
10
-2.19999999999999
20
-9.02461799205523
30
0
41
1
10
-2.19999999999999
20
-9.23936571773672
30
0
41
1
10
-2.19999999999999
20
-9.50443394039922
30
0
41
1
10
-2.19999999999999
20
-9.76496631110049
30
0
41
1
10
-2.19999999999999
20
-9.97064123613964
30
0
41
1
10
-2.19999999999999
20
-10.123538466054
30
0
41
1
10
-2.19999999999999
20
-10.2750653748105
30
0
41
1
10
-2.19999999999999
20
-10.4252201002359
30
0
41
1
10
-2.19999999999999
20
-10.5740001651574
30
0
41
1
10
-2.19999999999999
20
-10.7705258416001
30
0
41
1
10
-2.19999999999999
20
-10.9643215989582
30
0
41
1
10
-2.19999999999999
20
-11.1553144582602
30
0
41
1
10
-2.19999999999999
20
-11.3444552554371
30
0
41
1
10
-2.19999999999999
20
-11.5774197477568
30
0
41
1
10
-2.19999999999999
20
-11.8057194023465
30
0
41
1
10
-2.19999999999999
20
-11.9855280067157
30
0
41
1
10
-2.19999999999999
20
-12.1634558646821
30
0
41
1
10
-2.19999999999999
20
-12.3385783781737
30
0
41
1
10
-2.19999999999999
20
-12.510829004708
30
0
41
1
10
-2.19999999999999
20
-12.6385945454976
30
0
41
1
10
-2.19999999999999
20
-12.7649271637091
30
0
41
1
10
-2.19999999999999
20
-12.9314463925932
30
0
41
1
10
-2.19999999999999
20
-13.0951031927999
30
0
41
1
10
-2.19999999999999
20
-13.2558316973182
30
0
41
1
10
-2.19999999999999
20
-13.3749248996582
30
0
41
1
10
-2.19999999999999
20
-13.4925540411334
30
0
41
1
10
-2.19999999999999
20
-13.6474264531923
30
0
41
1
10
-2.19999999999999
20
-13.7993681905533
30
0
41
1
10
-2.19999999999999
20
-13.9483131264862
30
0
41
1
10
-2.19999999999999
20
-14.0585319334344
30
0
41
1
10
-2.19999999999999
20
-14.1672492642274
30
0
41
1
10
-2.19999999999999
20
-14.3101885914782
30
0
41
1
10
-2.19999999999999
20
-14.4501162106047
30
0
41
1
10
-2.19999999999999
20
-14.5869647126432
30
0
41
1
10
-2.19999999999999
20
-14.6880675812844
30
0
41
1
10
-2.19999999999999
20
-14.7876243995297
30
0
41
1
10
-2.19999999999999
20
-14.9182892218295
30
0
41
1
10
-2.19999999999999
20
-15.0458464314392
30
0
41
1
10
-2.19999999999999
20
-15.1702261509224
30
0
41
1
10
-2.19999999999999
20
-15.2466455133785
30
0
41
1
10
-2.19999999999999
20
-15.3069761679616
30
0
41
1
10
-2.19999999999999
20
-15.3667724139347
30
0
41
1
10
-2.19999999999999
20
-15.4700110929875
30
0
41
1
10
-2.19999999999999
20
-15.5847743990242
30
0
41
1
10
-2.19999999999999
20
-15.6962433571227
30
0
41
1
10
-2.19999999999999
20
-15.7781982539187
30
0
41
1
10
-2.19999999999999
20
-15.8584914079188
30
0
41
1
10
-2.19999999999999
20
-15.9633135259672
30
0
41
1
10
-2.19999999999999
20
-16.0647793597711
30
0
41
1
10
-2.19999999999999
20
-16.1628111223414
30
0
41
1
10
-2.19999999999999
20
-16.2346146707391
30
0
41
1
10
-2.19999999999999
20
-16.3046816359758
30
0
41
1
10
-2.19999999999999
20
-16.3729983688048
30
0
41
1
10
-2.19999999999999
20
-16.439549393056
30
0
41
1
10
-2.19999999999999
20
-16.5043209901434
30
0
41
1
10
-2.19999999999999
20
-16.5672977619412
30
0
41
1
10
-2.19999999999999
20
-16.6488473199257
30
0
41
1
10
-2.19999999999999
20
-16.7267561914694
30
0
41
1
10
-2.19999999999999
20
-16.8009296884544
30
0
41
1
10
-2.19999999999999
20
-16.8725984731112
30
0
41
1
10
-2.19999999999999
20
-16.9404820184079
30
0
41
1
10
-2.19999999999999
20
-17.0044820909957
30
0
41
1
10
-2.19999999999999
20
-17.0658713913631
30
0
41
1
10
-2.19999999999999
20
-17.123313852319
30
0
41
1
10
-2.19999999999999
20
-17.1766986986672
30
0
41
1
10
-2.19999999999999
20
-17.2146924603873
30
0
41
1
10
-2.19999999999999
20
-17.250613323192
30
0
41
1
10
-2.19999999999999
20
-17.2957083328928
30
0
41
1
10
-2.19999999999999
20
-17.3365615705832
30
0
41
1
10
-2.19999999999999
20
-17.3730462873428
30
0
41
1
10
-2.19999999999999
20
-17.398199993695
30
0
41
1
10
-2.19999999999999
20
-17.4211116738093
30
0
41
1
10
-2.19999999999999
20
-17.4417480876219
30
0
41
1
10
-2.19999999999999
20
-17.4600756994924
30
0
41
1
10
-2.19999999999999
20
-17.4760589706817
30
0
41
1
10
-2.19999999999999
20
-17.4896606126055
30
0
41
1
10
-2.19999999999999
20
-17.5008423321234
30
0
41
1
10
-2.19999999999999
20
-17.5092144797075
30
0
41
1
10
-2.19999999999999
20
-17.5132052282205
30
0
41
1
10
-2.19999999999997
20
-17.514745123185
30
0
0
SPLINE
5
C1
100
AcDbEntity
8
SK1
62
256
6
ByLayer
370
-1
48
1
60
0
100
AcDbSpline
70
4
71
3
72
284
73
280
40
0
40
0
40
0
40
0
40
0.0019583089094563
40
0.0055157467464589
40
0.0090731845834615
40
0.012630622420464
40
0.0161880602574666
40
0.0197454980944692
40
0.0233029359314718
40
0.0268603737684744
40
0.030417811605477
40
0.0339752494424796
40
0.0375326872794821
40
0.0446475629534873
40
0.0482050007904899
40
0.0517624386274925
40
0.055319876464495
40
0.0588773143014977
40
0.0659921899755028
40
0.0695496278125054
40
0.0731070656495079
40
0.0802219413235131
40
0.0837793791605157
40
0.0873368169975183
40
0.0944516926715235
40
0.0980091305085261
40
0.101566568345529
40
0.105124006182531
40
0.108681444019534
40
0.112238881856536
40
0.115796319693539
40
0.119353757530542
40
0.122911195367544
40
0.130026071041549
40
0.133583508878552
40
0.137140946715554
40
0.140698384552557
40
0.14425582238956
40
0.151370698063565
40
0.154928135900568
40
0.15848557373757
40
0.162043011574572
40
0.165600449411575
40
0.17271532508558
40
0.176272762922583
40
0.179830200759586
40
0.183387638596588
40
0.186945076433591
40
0.194059952107596
40
0.197617389944598
40
0.201174827781601
40
0.204732265618604
40
0.208289703455606
40
0.215404579129611
40
0.218962016966614
40
0.222519454803616
40
0.226076892640619
40
0.229634330477622
40
0.236749206151627
40
0.240306643988629
40
0.243864081825632
40
0.247421519662635
40
0.250978957499637
40
0.258093833173642
40
0.261651271010645
40
0.265208708847648
40
0.272323584521653
40
0.279438460195658
40
0.282995898032661
40
0.286553335869663
40
0.293668211543668
40
0.297225649380671
40
0.300783087217673
40
0.304340525054676
40
0.307897962891678
40
0.311455400728681
40
0.315012838565684
40
0.322127714239689
40
0.329242589913694
40
0.332800027750697
40
0.336357465587699
40
0.339914903424702
40
0.343472341261704
40
0.347029779098707
40
0.350587216935709
40
0.357702092609715
40
0.36481696828372
40
0.371931843957725
40
0.375489281794728
40
0.37904671963173
40
0.382604157468733
40
0.386161595305735
40
0.389719033142738
40
0.393276470979741
40
0.396833908816743
40
0.400391346653746
40
0.403948784490748
40
0.407506222327751
40
0.411063660164753
40
0.414621098001756
40
0.418178535838759
40
0.421735973675761
40
0.425293411512764
40
0.428850849349766
40
0.432408287186769
40
0.43418700610527
40
0.435965725023772
40
0.437744443942273
40
0.439523162860774
40
0.443080600697777
40
0.446638038534779
40
0.448416757453281
40
0.450195476371782
40
0.451974195290283
40
0.453752914208784
40
0.455531633127286
40
0.457310352045787
40
0.46086778988279
40
0.462646508801291
40
0.464425227719792
40
0.466203946638294
40
0.467982665556795
40
0.469761384475296
40
0.471540103393797
40
0.473318822312299
40
0.4750975412308
40
0.476876260149301
40
0.478654979067803
40
0.480433697986304
40
0.482212416904805
40
0.483991135823306
40
0.485769854741808
40
0.487548573660309
40
0.48932729257881
40
0.491106011497312
40
0.492884730415813
40
0.494663449334314
40
0.496442168252815
40
0.498220887171317
40
0.499999606089818
40
0.501778325008319
40
0.50355704392682
40
0.505335762845322
40
0.507114481763823
40
0.508893200682324
40
0.510671919600826
40
0.512450638519327
40
0.514229357437828
40
0.51600807635633
40
0.517786795274831
40
0.519565514193332
40
0.521344233111834
40
0.523122952030335
40
0.524901670948836
40
0.526680389867337
40
0.528459108785839
40
0.53023782770434
40
0.532016546622841
40
0.533795265541342
40
0.535573984459844
40
0.537352703378345
40
0.539131422296846
40
0.540910141215348
40
0.542688860133849
40
0.54446757905235
40
0.546246297970852
40
0.549803735807854
40
0.551582454726355
40
0.553361173644857
40
0.556918611481859
40
0.560476049318862
40
0.562254768237363
40
0.564033487155864
40
0.565812206074366
40
0.567590924992867
40
0.571148362829869
40
0.574705800666872
40
0.578263238503875
40
0.581820676340877
40
0.58537811417788
40
0.588935552014883
40
0.592492989851885
40
0.596050427688888
40
0.59960786552589
40
0.603165303362893
40
0.606722741199895
40
0.610280179036898
40
0.6138376168739
40
0.617395054710903
40
0.620952492547906
40
0.624509930384908
40
0.628067368221911
40
0.635182243895916
40
0.642297119569921
40
0.649411995243926
40
0.652969433080929
40
0.656526870917932
40
0.660084308754934
40
0.663641746591937
40
0.667199184428939
40
0.670756622265942
40
0.677871497939947
40
0.684986373613952
40
0.688543811450955
40
0.692101249287957
40
0.69565868712496
40
0.699216124961963
40
0.702773562798965
40
0.706331000635968
40
0.713445876309973
40
0.717003314146975
40
0.720560751983978
40
0.727675627657983
40
0.734790503331988
40
0.738347941168991
40
0.741905379005994
40
0.749020254679999
40
0.752577692517001
40
0.756135130354004
40
0.759692568191007
40
0.763250006028009
40
0.770364881702014
40
0.773922319539017
40
0.777479757376019
40
0.781037195213022
40
0.784594633050024
40
0.79170950872403
40
0.795266946561032
40
0.798824384398035
40
0.802381822235038
40
0.80593926007204
40
0.813054135746045
40
0.816611573583048
40
0.82016901142005
40
0.823726449257053
40
0.827283887094056
40
0.834398762768061
40
0.837956200605063
40
0.841513638442066
40
0.843292357360567
40
0.845071076279069
40
0.848628514116071
40
0.855743389790076
40
0.859300827627079
40
0.862858265464081
40
0.866415703301084
40
0.869973141138087
40
0.877088016812092
40
0.880645454649094
40
0.884202892486097
40
0.8877603303231
40
0.891317768160102
40
0.894875205997105
40
0.898432643834107
40
0.90199008167111
40
0.905547519508112
40
0.912662395182117
40
0.91621983301912
40
0.919777270856123
40
0.926892146530128
40
0.93044958436713
40
0.934007022204133
40
0.941121897878138
40
0.944679335715141
40
0.948236773552143
40
0.951794211389146
40
0.955351649226149
40
0.962466524900154
40
0.966023962737156
40
0.969581400574159
40
0.973138838411162
40
0.976696276248164
40
0.980253714085166
40
0.983811151922169
40
0.987368589759172
40
0.990926027596174
40
0.994483465433177
40
0.99804090327018
40
1
40
1
40
1
40
1
41
1
10
-28.5
20
16.8570361664728
30
0
41
1
10
-28.5
20
16.8564113541167
30
0
41
1
10
-28.5
20
16.8542986341388
30
0
41
1
10
-28.5
20
16.8492032887544
30
0
41
1
10
-28.5
20
16.8407921788659
30
0
41
1
10
-28.5
20
16.8300011209595
30
0
41
1
10
-28.5
20
16.8168672741156
30
0
41
1
10
-28.5
20
16.8014255225769
30
0
41
1
10
-28.5
20
16.783709883521
30
0
41
1
10
-28.5
20
16.7637529731542
30
0
41
1
10
-28.5
20
16.7415855338906
30
0
41
1
10
-28.5
20
16.7172383450784
30
0
41
1
10
-28.5
20
16.6818353810987
30
0
41
1
10
-28.5
20
16.642411510514
30
0
41
1
10
-28.5
20
16.5986105790194
30
0
41
1
10
-28.5
20
16.5637763020887
30
0
41
1
10
-28.5
20
16.5269199075572
30
0
41
1
10
-28.5
20
16.4750169305147
30
0
41
1
10
-28.5
20
16.4194622625482
30
0
41
1
10
-28.5
20
16.3597331913305
30
0
41
1
10
-28.5
20
16.2974462059125
30
0
41
1
10
-28.5
20
16.2317181614777
30
0
41
1
10
-28.5
20
16.1619255301562
30
0
41
1
10
-28.5
20
16.0896767577218
30
0
41
1
10
-28.5
20
16.0141701499498
30
0
41
1
10
-28.5
20
15.9346970720351
30
0
41
1
10
-28.5
20
15.8734193498834
30
0
41
1
10
-28.5
20
15.8103844132608
30
0
41
1
10
-28.5
20
15.745608166167
30
0
41
1
10
-28.5
20
15.6791035033831
30
0
41
1
10
-28.5
20
15.6108850520675
30
0
41
1
10
-28.5
20
15.5409672008416
30
0
41
1
10
-28.5
20
15.4453363897878
30
0
41
1
10
-28.5
20
15.3468344295442
30
0
41
1
10
-28.5
20
15.2445501023872
30
0
41
1
10
-28.5
20
15.1663215412447
30
0
41
1
10
-28.5
20
15.0864673138636
30
0
41
1
10
-28.5
20
14.9776668598204
30
0
41
1
10
-28.5
20
14.8661866472663
30
0
41
1
10
-28.5
20
14.7510047173632
30
0
41
1
10
-28.5
20
14.6631805593238
30
0
41
1
10
-28.5
20
14.5737935545692
30
0
41
1
10
-28.5
20
14.4523474056541
30
0
41
1
10
-28.5
20
14.3283920102608
30
0
41
1
10
-28.5
20
14.2007962111626
30
0
41
1
10
-28.5
20
14.1037299196573
30
0
41
1
10
-28.5
20
14.0051547121626
30
0
41
1
10
-28.5
20
13.8715103774192
30
0
41
1
10
-28.5
20
13.7355116027341
30
0
41
1
10
-28.5
20
13.5959164295663
30
0
41
1
10
-28.5
20
13.4899116400767
30
0
41
1
10
-28.5
20
13.3824445287113
30
0
41
1
10
-28.5
20
13.2369867267196
30
0
41
1
10
-28.5
20
13.0893180063072
30
0
41
1
10
-28.5
20
12.9380809359595
30
0
41
1
10
-28.5
20
12.8234002792818
30
0
41
1
10
-28.5
20
12.7072977235968
30
0
41
1
10
-28.5
20
12.550359403554
30
0
41
1
10
-28.5
20
12.3913462445321
30
0
41
1
10
-28.5
20
12.2287775158425
30
0
41
1
10
-28.5
20
12.1056498288981
30
0
41
1
10
-28.5
20
11.9811355431936
30
0
41
1
10
-28.5
20
11.8130068133241
30
0
41
1
10
-28.5
20
11.642935768078
30
0
41
1
10
-28.5
20
11.4693068645233
30
0
41
1
10
-28.5
20
11.2938625434425
30
0
41
1
10
-28.5
20
11.0718089327865
30
0
41
1
10
-28.5
20
10.8452681360072
30
0
41
1
10
-28.5
20
10.6608198079832
30
0
41
1
10
-28.5
20
10.4745957683654
30
0
41
1
10
-28.5
20
10.2866518533399
30
0
41
1
10
-28.5
20
10.0951135357909
30
0
41
1
10
-28.5
20
9.9503895477591
30
0
41
1
10
-28.5
20
9.8043545776041
30
0
41
1
10
-28.5
20
9.65701503611822
30
0
41
1
10
-28.5
20
9.50837340526911
30
0
41
1
10
-28.5
20
9.30810992365679
30
0
41
1
10
-28.5
20
9.05534970701544
30
0
41
1
10
-28.5
20
8.79830464348922
30
0
41
1
10
-28.5
20
8.58944232029054
30
0
41
1
10
-28.5
20
8.43181572672981
30
0
41
1
10
-28.5
20
8.27292311790592
30
0
41
1
10
-28.5
20
8.11277014047184
30
0
41
1
10
-28.5
20
7.9513617118449
30
0
41
1
10
-28.5
20
7.73407184255308
30
0
41
1
10
-28.5
20
7.46030866767529
30
0
41
1
10
-28.5
20
7.12632140637373
30
0
41
1
10
-28.5
20
6.84437402550569
30
0
41
1
10
-28.5
20
6.61554359890371
30
0
41
1
10
-28.5
20
6.44309029411608
30
0
41
1
10
-28.5
20
6.26944364545889
30
0
41
1
10
-28.5
20
6.09461246091772
30
0
41
1
10
-28.5
20
5.91860523667609
30
0
41
1
10
-28.5
20
5.74143189937953
30
0
41
1
10
-28.5
20
5.56310357372001
30
0
41
1
10
-28.5
20
5.38363134733163
30
0
41
1
10
-28.5
20
5.20302692387261
30
0
41
1
10
-28.5
20
5.0213042232472
30
0
41
1
10
-28.5
20
4.83847919931264
30
0
41
1
10
-28.5
20
4.65456716028004
30
0
41
1
10
-28.5
20
4.46958486845949
30
0
41
1
10
-28.5
20
4.28355302808069
30
0
41
1
10
-28.5
20
4.09649275318182
30
0
41
1
10
-28.5
20
3.90842813226232
30
0
41
1
10
-28.5
20
3.75124940963562
30
0
41
1
10
-28.5
20
3.6243549796439
30
0
41
1
10
-28.5
20
3.52924315934183
30
0
41
1
10
-28.5
20
3.43390158445521
30
0
41
1
10
-28.5
20
3.30608717079298
30
0
41
1
10
-28.5
20
3.14669072023423
30
0
41
1
10
-28.5
20
2.9865693987912
30
0
41
1
10
-28.5
20
2.85729421649611
30
0
41
1
10
-28.5
20
2.76048089001324
30
0
41
1
10
-28.5
20
2.66347976206254
30
0
41
1
10
-28.5
20
2.56629526768592
30
0
41
1
10
-28.5
20
2.46893611478751
30
0
41
1
10
-28.5
20
2.33842740009587
30
0
41
1
10
-28.5
20
2.20905952740142
30
0
41
1
10
-28.5
20
2.07788039572898
30
0
41
1
10
-28.5
20
1.97974994874616
30
0
41
1
10
-28.5
20
1.88148715614122
30
0
41
1
10
-28.5
20
1.78310090101277
30
0
41
1
10
-28.5
20
1.68460072925305
30
0
41
1
10
-28.5
20
1.58599184128096
30
0
41
1
10
-28.5
20
1.48728649469356
30
0
41
1
10
-28.5
20
1.38848914320587
30
0
41
1
10
-28.5
20
1.28961139997082
30
0
41
1
10
-28.5
20
1.19065859360987
30
0
41
1
10
-28.5
20
1.09164071478048
30
0
41
1
10
-28.5
20
0.992564090788449
30
0
41
1
10
-28.5
20
0.893436923932512
30
0
41
1
10
-28.5
20
0.794265471937166
30
0
41
1
10
-28.5
20
0.695056741362833
30
0
41
1
10
-28.5
20
0.595816468507252
30
0
41
1
10
-28.5
20
0.49655061320999
30
0
41
1
10
-28.5
20
0.397263853181812
30
0
41
1
10
-28.5
20
0.297961366795107
30
0
41
1
10
-28.5
20
0.198647102840738
30
0
41
1
10
-28.5
20
0.0993254669347436
30
0
41
1
10
-28.5
20
5.4725149E-09
30
0
41
1
10
-28.5
20
-0.0993254684405827
30
0
41
1
10
-28.5
20
-0.198647127601248
30
0
41
1
10
-28.5
20
-0.297961388791691
30
0
41
1
10
-28.5
20
-0.397263840424017
30
0
41
1
10
-28.5
20
-0.496550594205559
30
0
41
1
10
-28.5
20
-0.595816495504096
30
0
41
1
10
-28.5
20
-0.695056784277028
30
0
41
1
10
-28.5
20
-0.794265459276176
30
0
41
1
10
-28.5
20
-0.89343688343348
30
0
41
1
10
-28.5
20
-0.992564112169902
30
0
41
1
10
-28.5
20
-1.0916407792042
30
0
41
1
10
-28.5
20
-1.19065859620264
30
0
41
1
10
-28.5
20
-1.28961134189754
30
0
41
1
10
-28.5
20
-1.38848913588993
30
0
41
1
10
-28.5
20
-1.48728656512978
30
0
41
1
10
-28.5
20
-1.58599188781932
30
0
41
1
10
-28.5
20
-1.6846006870125
30
0
41
1
10
-28.5
20
-1.78310084050699
30
0
41
1
10
-28.5
20
-1.88148718140701
30
0
41
1
10
-28.5
20
-1.9797500364362
30
0
41
1
10
-28.5
20
-2.0778804265363
30
0
41
1
10
-28.5
20
-2.17587292609082
30
0
41
1
10
-28.5
20
-2.27371679621319
30
0
41
1
10
-28.5
20
-2.37140757120355
30
0
41
1
10
-28.5
20
-2.46893613943033
30
0
41
1
10
-28.5
20
-2.59923374131699
30
0
41
1
10
-28.5
20
-2.72777279716706
30
0
41
1
10
-28.5
20
-2.8572942882393
30
0
41
1
10
-28.5
20
-2.98656948332388
30
0
41
1
10
-28.5
20
-3.14669074057869
30
0
41
1
10
-28.5
20
-3.30608709676798
30
0
41
1
10
-28.5
20
-3.43390157548936
30
0
41
1
10
-28.5
20
-3.52924322184191
30
0
41
1
10
-28.5
20
-3.62435506854831
30
0
41
1
10
-28.5
20
-3.75124942106058
30
0
41
1
10
-28.5
20
-3.90842799420625
30
0
41
1
10
-28.5
20
-4.09649259176146
30
0
41
1
10
-28.5
20
-4.28355297730505
30
0
41
1
10
-28.5
20
-4.4695846174555
30
0
41
1
10
-28.5
20
-4.65456683421039
30
0
41
1
10
-28.5
20
-4.83847943804494
30
0
41
1
10
-28.5
20
-5.0213044851898
30
0
41
1
10
-28.5
20
-5.2030267003301
30
0
41
1
10
-28.5
20
-5.38363156234237
30
0
41
1
10
-28.5
20
-5.56310445504442
30
0
41
1
10
-28.5
20
-5.74143237747984
30
0
41
1
10
-28.5
20
-5.91860495448572
30
0
41
1
10
-28.5
20
-6.09461208825527
30
0
41
1
10
-28.5
20
-6.26944357118299
30
0
41
1
10
-28.5
20
-6.4430903265563
30
0
41
1
10
-28.5
20
-6.61554357091572
30
0
41
1
10
-28.5
20
-6.84437400802861
30
0
41
1
10
-28.5
20
-7.12632144512301
30
0
41
1
10
-28.5
20
-7.46030865505762
30
0
41
1
10
-28.5
20
-7.73407184285279
30
0
41
1
10
-28.5
20
-7.95136176299604
30
0
41
1
10
-28.5
20
-8.11277014937085
30
0
41
1
10
-28.5
20
-8.27292308432649
30
0
41
1
10
-28.5
20
-8.43181570788789
30
0
41
1
10
-28.5
20
-8.5894423488798
30
0
41
1
10
-28.5
20
-8.79830467826932
30
0
41
1
10
-28.5
20
-9.05534969583792
30
0
41
1
10
-28.5
20
-9.30810991622684
30
0
41
1
10
-28.5
20
-9.50837344479851
30
0
41
1
10
-28.5
20
-9.65701506287493
30
0
41
1
10
-28.5
20
-9.80435457188474
30
0
41
1
10
-28.5
20
-9.95038952754788
30
0
41
1
10
-28.5
20
-10.095113531911
30
0
41
1
10
-28.5
20
-10.2866518813937
30
0
41
1
10
-28.5
20
-10.4745957936973
30
0
41
1
10
-28.5
20
-10.6608197986608
30
0
41
1
10
-28.5
20
-10.8452681286137
30
0
41
1
10
-28.5
20
-11.0718089525805
30
0
41
1
10
-28.5
20
-11.2938625632929
30
0
41
1
10
-28.5
20
-11.4693068596264
30
0
41
1
10
-28.5
20
-11.6429357656381
30
0
41
1
10
-28.5
20
-11.8130068303033
30
0
41
1
10
-28.5
20
-11.9811355648908
30
0
41
1
10
-28.5
20
-12.1056498404809
30
0
41
1
10
-28.5
20
-12.2287775174238
30
0
41
1
10
-28.5
20
-12.3913462461042
30
0
41
1
10
-28.5
20
-12.5503594172971
30
0
41
1
10
-28.5
20
-12.7072977423403
30
0
41
1
10
-28.5
20
-12.8234002933141
30
0
41
1
10
-28.5
20
-12.9380809438717
30
0
41
1
10
-28.5
20
-13.0893180117675
30
0
41
1
10
-28.5
20
-13.2369867372074
30
0
41
1
10
-28.5
20
-13.3824445445542
30
0
41
1
10
-28.5
20
-13.4899116562855
30
0
41
1
10
-28.5
20
-13.5959164434403
30
0
41
1
10
-28.5
20
-13.7355116125921
30
0
41
1
10
-28.5
20
-13.8715103854275
30
0
41
1
10
-28.5
20
-14.0051547249398
30
0
41
1
10
-28.5
20
-14.1037299370701
30
0
41
1
10
-28.5
20
-14.2007962250068
30
0
41
1
10
-28.5
20
-14.328392039309
30
0
41
1
10
-28.5
20
-14.4523474054459
30
0
41
1
10
-28.5
20
-14.5737935062701
30
0
41
1
10
-28.5
20
-14.6481896525931
30
0
41
1
10
-28.5
20
-14.7070919001429
30
0
41
1
10
-28.5
20
-14.7654709460418
30
0
41
1
10
-28.5
20
-14.8661866667289
30
0
41
1
10
-28.5
20
-14.9776668655465
30
0
41
1
10
-28.5
20
-15.0864673213159
30
0
41
1
10
-28.5
20
-15.1663215599361
30
0
41
1
10
-28.5
20
-15.2445501295776
30
0
41
1
10
-28.5
20
-15.3468344527491
30
0
41
1
10
-28.5
20
-15.4453363938053
30
0
41
1
10
-28.5
20
-15.5409672073329
30
0
41
1
10
-28.5
20
-15.6108850733398
30
0
41
1
10
-28.5
20
-15.679103534252
30
0
41
1
10
-28.5
20
-15.7456081924762
30
0
41
1
10
-28.5
20
-15.810384423087
30
0
41
1
10
-28.5
20
-15.8734193510279
30
0
41
1
10
-28.5
20
-15.9346970807191
30
0
41
1
10
-28.5
20
-16.0141701800502
30
0
41
1
10
-28.5
20
-16.0896767899468
30
0
41
1
10
-28.5
20
-16.1619255341458
30
0
41
1
10
-28.5
20
-16.2317181619347
30
0
41
1
10
-28.5
20
-16.2974462376793
30
0
41
1
10
-28.5
20
-16.3597332242326
30
0
41
1
10
-28.5
20
-16.4194622696319
30
0
41
1
10
-28.5
20
-16.4750169286961
30
0
41
1
10
-28.5
20
-16.5269199399481
30
0
41
1
10
-28.5
20
-16.5637763395248
30
0
41
1
10
-28.5
20
-16.5986105943247
30
0
41
1
10
-28.5
20
-16.642411504334
30
0
41
1
10
-28.5
20
-16.6818354096897
30
0
41
1
10
-28.5
20
-16.7172383773105
30
0
41
1
10
-28.5
20
-16.741585550229
30
0
41
1
10
-28.5
20
-16.7637529737167
30
0
41
1
10
-28.5
20
-16.7837098927271
30
0
41
1
10
-28.5
20
-16.8014255596809
30
0
41
1
10
-28.5
20
-16.816867307208
30
0
41
1
10
-28.5
20
-16.8300011251081
30
0
41
1
10
-28.5
20
-16.8407921763224
30
0
41
1
10
-28.5
20
-16.8492033090471
30
0
41
1
10
-28.5
20
-16.8542990696475
30
0
41
1
10
-28.5
20
-16.8564118934533
30
0
41
1
10
-28.5
20
-16.8570368354171
30
0
0
SPLINE
5
C2
100
AcDbEntity
8
SK1
62
256
6
ByLayer
370
-1
48
1
60
0
100
AcDbSpline
70
4
71
3
72
284
73
280
40
0
40
0
40
0
40
0
40
0.0001141000222925
40
0.0036847120262515
40
0.0072553240302106
40
0.0108259360341697
40
0.0143965480381287
40
0.0179671600420878
40
0.0215377720460469
40
0.025108384050006
40
0.028678996053965
40
0.0322496080579241
40
0.0358202200618832
40
0.0429614440698013
40
0.0465320560737604
40
0.0501026680777194
40
0.0536732800816785
40
0.0572438920856376
40
0.0643851160935557
40
0.0679557280975148
40
0.0715263401014739
40
0.078667564109392
40
0.0822381761133511
40
0.0858087881173101
40
0.0929500121252283
40
0.0965206241291874
40
0.100091236133146
40
0.103661848137105
40
0.107232460141065
40
0.110803072145024
40
0.114373684148983
40
0.117944296152942
40
0.121514908156901
40
0.128656132164819
40
0.132226744168778
40
0.135797356172737
40
0.139367968176696
40
0.142938580180655
40
0.150079804188573
40
0.153650416192533
40
0.157221028196492
40
0.160791640200451
40
0.16436225220441
40
0.171503476212328
40
0.175074088216287
40
0.178644700220246
40
0.182215312224205
40
0.185785924228164
40
0.192927148236082
40
0.196497760240041
40
0.200068372244
40
0.20363898424796
40
0.207209596251919
40
0.214350820259837
40
0.217921432263796
40
0.221492044267755
40
0.225062656271714
40
0.228633268275673
40
0.235774492283591
40
0.23934510428755
40
0.242915716291509
40
0.246486328295468
40
0.250056940299427
40
0.257198164307345
40
0.260768776311305
40
0.264339388315264
40
0.271480612323182
40
0.2786218363311
40
0.282192448335059
40
0.285763060339018
40
0.292904284346936
40
0.296474896350895
40
0.300045508354854
40
0.303616120358813
40
0.307186732362773
40
0.310757344366732
40
0.314327956370691
40
0.321469180378609
40
0.328610404386527
40
0.332181016390486
40
0.335751628394445
40
0.339322240398404
40
0.342892852402363
40
0.346463464406322
40
0.350034076410281
40
0.3571753004182
40
0.364316524426118
40
0.371457748434036
40
0.375028360437995
40
0.378598972441954
40
0.382169584445913
40
0.385740196449872
40
0.389310808453831
40
0.39288142045779
40
0.396452032461749
40
0.400022644465708
40
0.403593256469667
40
0.407163868473627
40
0.410734480477585
40
0.414305092481545
40
0.417875704485504
40
0.421446316489463
40
0.425016928493422
40
0.428587540497381
40
0.43215815250134
40
0.43394345850332
40
0.435728764505299
40
0.437514070507279
40
0.439299376509258
40
0.442869988513217
40
0.446440600517176
40
0.448225906519156
40
0.450011212521135
40
0.451796518523115
40
0.453581824525094
40
0.455367130527074
40
0.457152436529053
40
0.460723048533012
40
0.462508354534992
40
0.464293660536972
40
0.466078966538951
40
0.467864272540931
40
0.46964957854291
40
0.47143488454489
40
0.473220190546869
40
0.475005496548849
40
0.476790802550828
40
0.478576108552808
40
0.480361414554787
40
0.482146720556767
40
0.483932026558747
40
0.485717332560726
40
0.487502638562705
40
0.489287944564685
40
0.491073250566665
40
0.492858556568644
40
0.494643862570624
40
0.496429168572603
40
0.498214474574583
40
0.499999780576562
40
0.501785086578542
40
0.503570392580521
40
0.505355698582501
40
0.50714100458448
40
0.50892631058646
40
0.51071161658844
40
0.512496922590419
40
0.514282228592399
40
0.516067534594378
40
0.517852840596358
40
0.519638146598337
40
0.521423452600317
40
0.523208758602296
40
0.524994064604276
40
0.526779370606255
40
0.528564676608235
40
0.530349982610214
40
0.532135288612194
40
0.533920594614174
40
0.535705900616153
40
0.537491206618133
40
0.539276512620112
40
0.541061818622092
40
0.542847124624071
40
0.544632430626051
40
0.54641773662803
40
0.549988348631989
40
0.551773654633969
40
0.553558960635948
40
0.557129572639907
40
0.560700184643867
40
0.562485490645846
40
0.564270796647826
40
0.566056102649805
40
0.567841408651785
40
0.571412020655744
40
0.574982632659703
40
0.578553244663662
40
0.582123856667621
40
0.58569446867158
40
0.589265080675539
40
0.592835692679498
40
0.596406304683457
40
0.599976916687416
40
0.603547528691375
40
0.607118140695334
40
0.610688752699293
40
0.614259364703253
40
0.617829976707212
40
0.621400588711171
40
0.62497120071513
40
0.628541812719089
40
0.635683036727007
40
0.642824260734925
40
0.649965484742843
40
0.653536096746802
40
0.657106708750761
40
0.66067732075472
40
0.66424793275868
40
0.667818544762639
40
0.671389156766598
40
0.678530380774516
40
0.685671604782434
40
0.689242216786393
40
0.692812828790352
40
0.696383440794311
40
0.69995405279827
40
0.703524664802229
40
0.707095276806188
40
0.714236500814107
40
0.717807112818066
40
0.721377724822025
40
0.728518948829943
40
0.735660172837861
40
0.73923078484182
40
0.742801396845779
40
0.749942620853697
40
0.753513232857656
40
0.757083844861615
40
0.760654456865575
40
0.764225068869533
40
0.771366292877452
40
0.774936904881411
40
0.77850751688537
40
0.782078128889329
40
0.785648740893288
40
0.792789964901206
40
0.796360576905165
40
0.799931188909124
40
0.803501800913083
40
0.807072412917042
40
0.81421363692496
40
0.81778424892892
40
0.821354860932879
40
0.824925472936838
40
0.828496084940797
40
0.835637308948715
40
0.839207920952674
40
0.842778532956633
40
0.844563838958613
40
0.846349144960592
40
0.849919756964551
40
0.857060980972469
40
0.860631592976428
40
0.864202204980387
40
0.867772816984347
40
0.871343428988306
40
0.878484652996224
40
0.882055265000183
40
0.885625877004142
40
0.889196489008101
40
0.89276710101206
40
0.896337713016019
40
0.899908325019978
40
0.903478937023937
40
0.907049549027896
40
0.914190773035814
40
0.917761385039773
40
0.921331997043733
40
0.928473221051651
40
0.93204383305561
40
0.935614445059569
40
0.942755669067487
40
0.946326281071446
40
0.949896893075405
40
0.953467505079364
40
0.957038117083323
40
0.964179341091241
40
0.9677499530952
40
0.97132056509916
40
0.974891177103119
40
0.978461789107078
40
0.982032401111037
40
0.985603013114996
40
0.989173625118955
40
0.992744237122914
40
0.996314849126873
40
0.999885461130832
40
1
40
1
40
1
40
1
41
1
10
-1.9950399779393
20
17.3206502183813
30
0
41
1
10
-1.9950399779393
20
17.3205989778012
30
0
41
1
10
-1.9950399779393
20
17.3189303652956
30
0
41
1
10
-1.9950399779393
20
17.3147637003649
30
0
41
1
10
-1.9950399779393
20
17.3061342577567
30
0
41
1
10
-1.9950399779393
20
17.295067771448
30
0
41
1
10
-1.9950399779393
20
17.2816041041457
30
0
41
1
10
-1.9950399779393
20
17.2657805776118
30
0
41
1
10
-1.9950399779393
20
17.2476335117891
30
0
41
1
10
-1.9950399779393
20
17.2271975457697
30
0
41
1
10
-1.9950399779393
20
17.2045053960087
30
0
41
1
10
-1.9950399779393
20
17.1795895960111
30
0
41
1
10
-1.9950399779393
20
17.143423992764
30
0
41
1
10
-1.9950399779393
20
17.1029924242496
30
0
41
1
10
-1.9950399779393
20
17.0582791326422
30
0
41
1
10
-1.9950399779393
20
17.0226787925821
30
0
41
1
10
-1.9950399779393
20
16.9850205529168
30
0
41
1
10
-1.9950399779393
20
16.9320728615657
30
0
41
1
10
-1.9950399779393
20
16.8751872660894
30
0
41
1
10
-1.9950399779393
20
16.8142877036056
30
0
41
1
10
-1.9950399779393
20
16.7507929832779
30
0
41
1
10
-1.9950399779393
20
16.6835453056651
30
0
41
1
10
-1.9950399779393
20
16.6124299551482
30
0
41
1
10
-1.9950399779393
20
16.5388242186582
30
0
41
1
10
-1.9950399779393
20
16.4616240004255
30
0
41
1
10
-1.9950399779393
20
16.3806869939664
30
0
41
1
10
-1.9950399779393
20
16.3182114219941
30
0
41
1
10
-1.9950399779393
20
16.2539521138773
30
0
41
1
10
-1.9950399779393
20
16.1879246249361
30
0
41
1
10
-1.9950399779393
20
16.1201424382026
30
0
41
1
10
-1.9950399779393
20
16.0506207732709
30
0
41
1
10
-1.9950399779393
20
15.979373490825
30
0
41
1
10
-1.9950399779393
20
15.8820499794418
30
0
41
1
10
-1.9950399779393
20
15.7814584486047
30
0
41
1
10
-1.9950399779393
20
15.677384958149
30
0
41
1
10
-1.9950399779393
20
15.5977008436634
30
0
41
1
10
-1.9950399779393
20
15.5163656256123
30
0
41
1
10
-1.9950399779393
20
15.4056838451686
30
0
41
1
10
-1.9950399779393
20
15.2918890118945
30
0
41
1
10
-1.9950399779393
20
15.1747311694574
30
0
41
1
10
-1.9950399779393
20
15.0853020659337
30
0
41
1
10
-1.9950399779393
20
14.9942846604514
30
0
41
1
10
-1.9950399779393
20
14.8707702235387
30
0
41
1
10
-1.9950399779393
20
14.7442755428493
30
0
41
1
10
-1.9950399779393
20
14.6145160455858
30
0
41
1
10
-1.9950399779393
20
14.5156939096276
30
0
41
1
10
-1.9950399779393
20
14.4153366771621
30
0
41
1
10
-1.9950399779393
20
14.2794333721973
30
0
41
1
10
-1.9950399779393
20
14.1406647198644
30
0
41
1
10
-1.9950399779393
20
13.9987118830366
30
0
41
1
10
-1.9950399779393
20
13.8907947247769
30
0
41
1
10
-1.9950399779393
20
13.7813876415877
30
0
41
1
10
-1.9950399779393
20
13.6334713769854
30
0
41
1
10
-1.9950399779393
20
13.482790135872
30
0
41
1
10
-1.9950399779393
20
13.328990109671
30
0
41
1
10
-1.9950399779393
20
13.2122307400427
30
0
41
1
10
-1.9950399779393
20
13.09401974916
30
0
41
1
10
-1.9950399779393
20
12.9344093145834
30
0
41
1
10
-1.9950399779393
20
12.7721223429484
30
0
41
1
10
-1.9950399779393
20
12.606768466692
30
0
41
1
10
-1.9950399779393
20
12.4813812679684
30
0
41
1
10
-1.9950399779393
20
12.3545748152048
30
0
41
1
10
-1.9950399779393
20
12.1835401119863
30
0
41
1
10
-1.9950399779393
20
12.0099077332894
30
0
41
1
10
-1.9950399779393
20
11.8332480165124
30
0
41
1
10
-1.9950399779393
20
11.6547268261542
30
0
41
1
10
-1.9950399779393
20
11.4282697000141
30
0
41
1
10
-1.9950399779393
20
11.1972001365959
30
0
41
1
10
-1.9950399779393
20
11.00944356136
30
0
41
1
10
-1.9950399779393
20
10.8198574498995
30
0
41
1
10
-1.9950399779393
20
10.627787937013
30
0
41
1
10
-1.9950399779393
20
10.4327334855784
30
0
41
1
10
-1.9950399779393
20
10.2851499168301
30
0
41
1
10
-1.9950399779393
20
10.13621047024
30
0
41
1
10
-1.9950399779393
20
9.98591879047714
30
0
41
1
10
-1.9950399779393
20
9.83427692622885
30
0
41
1
10
-1.9950399779393
20
9.63019833168175
30
0
41
1
10
-1.9950399779393
20
9.37195865327328
30
0
41
1
10
-1.9950399779393
20
9.1092571782612
30
0
41
1
10
-1.9950399779393
20
8.89624559944801
30
0
41
1
10
-1.9950399779393
20
8.73523611643316
30
0
41
1
10
-1.9950399779393
20
8.57289871794615
30
0
41
1
10
-1.9950399779393
20
8.40923673354897
30
0
41
1
10
-1.9950399779393
20
8.24425232954013
30
0
41
1
10
-1.9950399779393
20
8.0224014648056
30
0
41
1
10
-1.9950399779393
20
7.7420578132905
30
0
41
1
10
-1.9950399779393
20
7.40025290593451
30
0
41
1
10
-1.9950399779393
20
7.11118461088941
30
0
41
1
10
-1.9950399779393
20
6.87709665618266
30
0
41
1
10
-1.9950399779393
20
6.70033531356589
30
0
41
1
10
-1.9950399779393
20
6.52228078287743
30
0
41
1
10
-1.9950399779393
20
6.3429370741791
30
0
41
1
10
-1.9950399779393
20
6.16230788845579
30
0
41
1
10
-1.9950399779393
20
5.98039789106801
30
0
41
1
10
-1.9950399779393
20
5.79721186805691
30
0
41
1
10
-1.9950399779393
20
5.61275496243289
30
0
41
1
10
-1.9950399779393
20
5.42703270327695
30
0
41
1
10
-1.9950399779393
20
5.24005175731475
30
0
41
1
10
-1.9950399779393
20
5.05181945337139
30
0
41
1
10
-1.9950399779393
20
4.86234332329403
30
0
41
1
10
-1.9950399779393
20
4.67163207713236
30
0
41
1
10
-1.9950399779393
20
4.47969614999016
30
0
41
1
10
-1.9950399779393
20
4.28654656517494
30
0
41
1
10
-1.9950399779393
20
4.09219634432211
30
0
41
1
10
-1.9950399779393
20
3.92934661081907
30
0
41
1
10
-1.9950399779393
20
3.7982972967292
30
0
41
1
10
-1.9950399779393
20
3.69979994526253
30
0
41
1
10
-1.9950399779393
20
3.6010147061962
30
0
41
1
10
-1.9950399779393
20
3.46881385164499
30
0
41
1
10
-1.9950399779393
20
3.30310841087518
30
0
41
1
10
-1.9950399779393
20
3.13647579824178
30
0
41
1
10
-1.9950399779393
20
3.00241852965871
30
0
41
1
10
-1.9950399779393
20
2.90170218623106
30
0
41
1
10
-1.9950399779393
20
2.80072442890969
30
0
41
1
10
-1.9950399779393
20
2.69948931487846
30
0
41
1
10
-1.9950399779393
20
2.5980019734576
30
0
41
1
10
-1.9950399779393
20
2.46222694501739
30
0
41
1
10
-1.9950399779393
20
2.3263670801044
30
0
41
1
10
-1.9950399779393
20
2.18963187963746
30
0
41
1
10
-1.9950399779393
20
2.08696367451518
30
0
41
1
10
-1.9950399779393
20
1.98407765086858
30
0
41
1
10
-1.9950399779393
20
1.88098143773604
30
0
41
1
10
-1.9950399779393
20
1.77768276547397
30
0
41
1
10
-1.9950399779393
20
1.67418894734925
30
0
41
1
10
-1.9950399779393
20
1.57050946303122
30
0
41
1
10
-1.9950399779393
20
1.46665209995737
30
0
41
1
10
-1.9950399779393
20
1.36262724011792
30
0
41
1
10
-1.9950399779393
20
1.25844372920938
30
0
41
1
10
-1.9950399779393
20
1.15411255471386
30
0
41
1
10
-1.9950399779393
20
1.04964378000579
30
0
41
1
10
-1.9950399779393
20
0.945048899580655
30
0
41
1
10
-1.9950399779393
20
0.840338961204225
30
0
41
1
10
-1.9950399779393
20
0.735526073032332
30
0
41
1
10
-1.9950399779393
20
0.630622105582688
30
0
41
1
10
-1.9950399779393
20
0.525639721157262
30
0
41
1
10
-1.9950399779393
20
0.420591350928703
30
0
41
1
10
-1.9950399779393
20
0.315490126623814
30
0
41
1
10
-1.9950399779393
20
0.210348939519435
30
0
41
1
10
-1.9950399779393
20
0.105181165306249
30
0
41
1
10
-1.9950399779393
20
-2.6093687E-09
30
0
41
1
10
-1.9950399779393
20
-0.10518117389941
30
0
41
1
10
-1.9950399779393
20
-0.21034895445402
30
0
41
1
10
-1.9950399779393
20
-0.315490140896543
30
0
41
1
10
-1.9950399779393
20
-0.420591355720489
30
0
41
1
10
-1.9950399779393
20
-0.525639723935797
30
0
41
1
10
-1.9950399779393
20
-0.630622120770227
30
0
41
1
10
-1.9950399779393
20
-0.735526093018507
30
0
41
1
10
-1.9950399779393
20
-0.840338966235578
30
0
41
1
10
-1.9950399779393
20
-0.945048896197648
30
0
41
1
10
-1.9950399779393
20
-1.04964379294299
30
0
41
1
10
-1.9950399779393
20
-1.15411258033262
30
0
41
1
10
-1.9950399779393
20
-1.25844373877697
30
0
41
1
10
-1.9950399779393
20
-1.36262723194542
30
0
41
1
10
-1.9950399779393
20
-1.46665210416356
30
0
41
1
10
-1.9950399779393
20
-1.57050948928742
30
0
41
1
10
-1.9950399779393
20
-1.67418896894682
30
0
41
1
10
-1.9950399779393
20
-1.77768276258209
30
0
41
1
10
-1.9950399779393
20
-1.88098142742643
30
0
41
1
10
-1.9950399779393
20
-1.98407766278629
30
0
41
1
10
-1.9950399779393
20
-2.08696370566375
30
0
41
1
10
-1.9950399779393
20
-2.18963189754737
30
0
41
1
10
-1.9950399779393
20
-2.29207637206397
30
0
41
1
10
-1.9950399779393
20
-2.39428973936722
30
0
41
1
10
-1.9950399779393
20
-2.49626703199883
30
0
41
1
10
-1.9950399779393
20
-2.59800197223717
30
0
41
1
10
-1.9950399779393
20
-2.73345090264118
30
0
41
1
10
-1.9950399779393
20
-2.86801083241156
30
0
41
1
10
-1.9950399779393
20
-3.00241855173454
30
0
41
1
10
-1.9950399779393
20
-3.13647582573117
30
0
41
1
10
-1.9950399779393
20
-3.30310842941955
30
0
41
1
10
-1.9950399779393
20
-3.46881383607317
30
0
41
1
10
-1.9950399779393
20
-3.60101470543907
30
0
41
1
10
-1.9950399779393
20
-3.69979996514493
30
0
41
1
10
-1.9950399779393
20
-3.79829732832764
30
0
41
1
10
-1.9950399779393
20
-3.92934662557204
30
0
41
1
10
-1.9950399779393
20
-4.09219631216948
30
0
41
1
10
-1.9950399779393
20
-4.28654650347451
30
0
41
1
10
-1.9950399779393
20
-4.47969611179559
30
0
41
1
10
-1.9950399779393
20
-4.67163198724225
30
0
41
1
10
-1.9950399779393
20
-4.86234315765492
30
0
41
1
10
-1.9950399779393
20
-5.05181944357969
30
0
41
1
10
-1.9950399779393
20
-5.24005183821342
30
0
41
1
10
-1.9950399779393
20
-5.42703263168386
30
0
41
1
10
-1.9950399779393
20
-5.61275497462711
30
0
41
1
10
-1.9950399779393
20
-5.79721217482029
30
0
41
1
10
-1.9950399779393
20
-5.98039819956611
30
0
41
1
10
-1.9950399779393
20
-6.16230794338162
30
0
41
1
10
-1.9950399779393
20
-6.34293700639154
30
0
41
1
10
-1.9950399779393
20
-6.52228076981257
30
0
41
1
10
-1.9950399779393
20
-6.70033533418757
30
0
41
1
10
-1.9950399779393
20
-6.87709665926303
30
0
41
1
10
-1.9950399779393
20
-7.11118459991687
30
0
41
1
10
-1.9950399779393
20
-7.40025292645402
30
0
41
1
10
-1.9950399779393
20
-7.74205781809903
30
0
41
1
10
-1.9950399779393
20
-8.02240145976876
30
0
41
1
10
-1.9950399779393
20
-8.24425235284596
30
0
41
1
10
-1.9950399779393
20
-8.40923674956807
30
0
41
1
10
-1.9950399779393
20
-8.57289871422529
30
0
41
1
10
-1.9950399779393
20
-8.73523610803539
30
0
41
1
10
-1.9950399779393
20
-8.89624560664996
30
0
41
1
10
-1.9950399779393
20
-9.10925720032841
30
0
41
1
10
-1.9950399779393
20
-9.37195865915049
30
0
41
1
10
-1.9950399779393
20
-9.6301983246166
30
0
41
1
10
-1.9950399779393
20
-9.83427694277646
30
0
41
1
10
-1.9950399779393
20
-9.98591881051331
30
0
41
1
10
-1.9950399779393
20
-10.1362104789651
30
0
41
1
10
-1.9950399779393
20
-10.2851499142426
30
0
41
1
10
-1.9950399779393
20
-10.432733482583
30
0
41
1
10
-1.9950399779393
20
-10.6277879483349
30
0
41
1
10
-1.9950399779393
20
-10.8198574709635
30
0
41
1
10
-1.9950399779393
20
-11.0094435667743
30
0
41
1
10
-1.9950399779393
20
-11.1972001338813
30
0
41
1
10
-1.9950399779393
20
-11.4282697094187
30
0
41
1
10
-1.9950399779393
20
-11.6547268446385
30
0
41
1
10
-1.9950399779393
20
-11.8332480225582
30
0
41
1
10
-1.9950399779393
20
-12.0099077334538
30
0
41
1
10
-1.9950399779393
20
-12.1835401209566
30
0
41
1
10
-1.9950399779393
20
-12.3545748313203
30
0
41
1
10
-1.9950399779393
20
-12.4813812819682
30
0
41
1
10
-1.9950399779393
20
-12.6067684751262
30
0
41
1
10
-1.9950399779393
20
-12.7721223466594
30
0
41
1
10
-1.9950399779393
20
-12.9344093235711
30
0
41
1
10
-1.9950399779393
20
-13.0940197637218
30
0
41
1
10
-1.9950399779393
20
-13.2122307543484
30
0
41
1
10
-1.9950399779393
20
-13.3289901210133
30
0
41
1
10
-1.9950399779393
20
-13.4827901435456
30
0
41
1
10
-1.9950399779393
20
-13.6334713858817
30
0
41
1
10
-1.9950399779393
20
-13.7813876543746
30
0
41
1
10
-1.9950399779393
20
-13.8907947392413
30
0
41
1
10
-1.9950399779393
20
-13.99871189727
30
0
41
1
10
-1.9950399779393
20
-14.1406647319193
30
0
41
1
10
-1.9950399779393
20
-14.2794333813788
30
0
41
1
10
-1.9950399779393
20
-14.4153366880849
30
0
41
1
10
-1.9950399779393
20
-14.5156939237825
30
0
41
1
10
-1.9950399779393
20
-14.614516060936
30
0
41
1
10
-1.9950399779393
20
-14.7442755571137
30
0
41
1
10
-1.9950399779393
20
-14.8707702595594
30
0
41
1
10
-1.9950399779393
20
-14.9942845913974
30
0
41
1
10
-1.9950399779393
20
-15.070107125687
30
0
41
1
10
-1.9950399779393
20
-15.130016414734
30
0
41
1
10
-1.9950399779393
20
-15.1893946011099
30
0
41
1
10
-1.9950399779393
20
-15.2918890331241
30
0
41
1
10
-1.9950399779393
20
-15.4056838559475
30
0
41
1
10
-1.9950399779393
20
-15.5163656330196
30
0
41
1
10
-1.9950399779393
20
-15.5977008570348
30
0
41
1
10
-1.9950399779393
20
-15.677384979663
30
0
41
1
10
-1.9950399779393
20
-15.781458474053
30
0
41
1
10
-1.9950399779393
20
-15.8820499896637
30
0
41
1
10
-1.9950399779393
20
-15.9793734967038
30
0
41
1
10
-1.9950399779393
20
-16.0506207879892
30
0
41
1
10
-1.9950399779393
20
-16.1201424632647
30
0
41
1
10
-1.9950399779393
20
-16.1879246525291
30
0
41
1
10
-1.9950399779393
20
-16.2539521307207
30
0
41
1
10
-1.9950399779393
20
-16.3182114280861
30
0
41
1
10
-1.9950399779393
20
-16.3806869997558
30
0
41
1
10
-1.9950399779393
20
-16.4616240235723
30
0
41
1
10
-1.9950399779393
20
-16.538824252381
30
0
41
1
10
-1.9950399779393
20
-16.6124299668847
30
0
41
1
10
-1.9950399779393
20
-16.6835453043615
30
0
41
1
10
-1.9950399779393
20
-16.7507930080793
30
0
41
1
10
-1.9950399779393
20
-16.8142877377232
30
0
41
1
10
-1.9950399779393
20
-16.8751872797734
30
0
41
1
10
-1.9950399779393
20
-16.9320728583858
30
0
41
1
10
-1.9950399779393
20
-16.9850205784631
30
0
41
1
10
-1.9950399779393
20
-17.0226788299273
30
0
41
1
10
-1.9950399779393
20
-17.0582791544304
30
0
41
1
10
-1.9950399779393
20
-17.1029924178939
30
0
41
1
10
-1.9950399779393
20
-17.1434240170936
30
0
41
1
10
-1.9950399779393
20
-17.1795896288677
30
0
41
1
10
-1.9950399779393
20
-17.204505416066
30
0
41
1
10
-1.9950399779393
20
-17.2271975480507
30
0
41
1
10
-1.9950399779393
20
-17.2476335178127
30
0
41
1
10
-1.9950399779393
20
-17.2657806121613
30
0
41
1
10
-1.9950399779393
20
-17.2816041393821
30
0
41
1
10
-1.9950399779393
20
-17.2950677779805
30
0
41
1
10
-1.9950399779393
20
-17.3061342543252
30
0
41
1
10
-1.9950399779393
20
-17.3147637210185
30
0
41
1
10
-1.99503997793928
20
-17.3189306192928
30
0
41
1
10
-1.99503997793928
20
-17.320599348456
30
0
41
1
10
-1.99503997793928
20
-17.3206507818883
30
0
0
SPLINE
5
C3
100
AcDbEntity
8
SK1
62
256
6
ByLayer
370
-1
48
1
60
0
100
AcDbSpline
70
4
71
3
72
107
73
103
40
0
40
0
40
0
40
0
40
0.0027087431768065
40
0.011240678090905
40
0.0197726130050035
40
0.028304547919102
40
0.0368364828332004
40
0.0453684177472989
40
0.0539003526613974
40
0.0624322875754959
40
0.0709642224895944
40
0.0794961574036929
40
0.0965600272318899
40
0.113623897060087
40
0.130687766888284
40
0.139219701802382
40
0.147751636716481
40
0.156283571630579
40
0.164815506544678
40
0.173347441458776
40
0.181879376372875
40
0.198943246201072
40
0.216007116029269
40
0.224539050943367
40
0.233070985857466
40
0.241602920771564
40
0.250134855685663
40
0.258666790599761
40
0.26719872551386
40
0.284262595342057
40
0.292794530256155
40
0.301326465170254
40
0.31839033499845
40
0.335454204826648
40
0.343986139740746
40
0.352518074654845
40
0.369581944483041
40
0.37811387939714
40
0.386645814311239
40
0.395177749225337
40
0.403709684139435
40
0.420773553967632
40
0.429305488881731
40
0.43783742379583
40
0.446369358709928
40
0.454901293624026
40
0.471965163452223
40
0.480497098366322
40
0.48902903328042
40
0.497560968194519
40
0.506092903108617
40
0.523156772936814
40
0.531688707850913
40
0.540220642765011
40
0.54875257767911
40
0.557284512593208
40
0.574348382421405
40
0.582880317335504
40
0.591412252249602
40
0.595678219706652
40
0.599944187163701
40
0.608476122077799
40
0.625539991905996
40
0.634071926820095
40
0.642603861734193
40
0.651135796648292
40
0.65966773156239
40
0.676731601390587
40
0.685263536304686
40
0.693795471218784
40
0.702327406132882
40
0.710859341046981
40
0.71939127596108
40
0.727923210875178
40
0.736455145789277
40
0.744987080703375
40
0.762050950531572
40
0.770582885445671
40
0.779114820359769
40
0.796178690187966
40
0.804710625102064
40
0.813242560016163
40
0.83030642984436
40
0.838838364758458
40
0.847370299672557
40
0.855902234586655
40
0.864434169500754
40
0.881498039328951
40
0.890029974243049
40
0.898561909157148
40
0.907093844071246
40
0.915625778985345
40
0.924157713899443
40
0.932689648813542
40
0.94122158372764
40
0.949753518641739
40
0.958285453555837
40
0.966817388469936
40
0.975349323384034
40
0.983881258298133
40
0.992413193212231
40
1
40
1
40
1
40
1
41
1
10
-0.394976888875291
20
-5.38678189578289
30
0
41
1
10
-0.394976888875291
20
-5.4065930765673
30
0
41
1
10
-0.394976888875291
20
-5.48871660168982
30
0
41
1
10
-0.394976888875291
20
-5.63252719489225
30
0
41
1
10
-0.394976888875291
20
-5.8174145162354
30
0
41
1
10
-0.394976888875291
20
-6.00101977124669
30
0
41
1
10
-0.394976888875291
20
-6.18333830919048
30
0
41
1
10
-0.394976888875291
20
-6.3643662218949
30
0
41
1
10
-0.394976888875291
20
-6.54409937286439
30
0
41
1
10
-0.394976888875291
20
-6.72253430941348
30
0
41
1
10
-0.394976888875291
20
-6.89966740060396
30
0
41
1
10
-0.394976888875291
20
-7.13420903787926
30
0
41
1
10
-0.394976888875291
20
-7.42389186204957
30
0
41
1
10
-0.394976888875291
20
-7.76637138106329
30
0
41
1
10
-0.394976888875291
20
-8.04728288344245
30
0
41
1
10
-0.394976888875291
20
-8.26952736598562
30
0
41
1
10
-0.394976888875291
20
-8.434820354761
30
0
41
1
10
-0.394976888875291
20
-8.59878513137221
30
0
41
1
10
-0.394976888875291
20
-8.76141979186249
30
0
41
1
10
-0.394976888875291
20
-8.922721214403
30
0
41
1
10
-0.394976888875291
20
-9.1360908691222
30
0
41
1
10
-0.394976888875291
20
-9.39928045092248
30
0
41
1
10
-0.394976888875291
20
-9.65799296546987
30
0
41
1
10
-0.394976888875291
20
-9.86240080704218
30
0
41
1
10
-0.394976888875291
20
-10.0143015815252
30
0
41
1
10
-0.394976888875291
20
-10.1648480067744
30
0
41
1
10
-0.394976888875291
20
-10.3140380843155
30
0
41
1
10
-0.394976888875291
20
-10.4618684189216
30
0
41
1
10
-0.394976888875291
20
-10.6572263081632
30
0
41
1
10
-0.394976888875291
20
-10.8496518506122
30
0
41
1
10
-0.394976888875291
20
-11.0395280782787
30
0
41
1
10
-0.394976888875291
20
-11.2275701299333
30
0
41
1
10
-0.394976888875291
20
-11.4590305143918
30
0
41
1
10
-0.394976888875291
20
-11.685867652055
30
0
41
1
10
-0.394976888875291
20
-11.864654349678
30
0
41
1
10
-0.394976888875291
20
-12.0415756040849
30
0
41
1
10
-0.394976888875291
20
-12.2155153161813
30
0
41
1
10
-0.394976888875291
20
-12.3868007979199
30
0
41
1
10
-0.394976888875291
20
-12.5138050519686
30
0
41
1
10
-0.394976888875291
20
-12.6393872302303
30
0
41
1
10
-0.394976888875291
20
-12.8049814458532
30
0
41
1
10
-0.394976888875291
20
-12.9675509360494
30
0
41
1
10
-0.394976888875291
20
-13.1273919665529
30
0
41
1
10
-0.394976888875291
20
-13.2457849051211
30
0
41
1
10
-0.394976888875291
20
-13.3627236547323
30
0
41
1
10
-0.394976888875291
20
-13.5167448476072
30
0
41
1
10
-0.394976888875291
20
-13.6676860552913
30
0
41
1
10
-0.394976888875291
20
-13.8158144768541
30
0
41
1
10
-0.394976888875291
20
-13.9253889718329
30
0
41
1
10
-0.394976888875291
20
-14.0334711580348
30
0
41
1
10
-0.394976888875291
20
-14.1756274475866
30
0
41
1
10
-0.394976888875291
20
-14.3146351237356
30
0
41
1
10
-0.394976888875291
20
-14.4507333681675
30
0
41
1
10
-0.394976888875291
20
-14.5512443837086
30
0
41
1
10
-0.394976888875291
20
-14.6502180419884
30
0
41
1
10
-0.394976888875291
20
-14.780164253239
30
0
41
1
10
-0.394976888875291
20
-14.9068780878822
30
0
41
1
10
-0.394976888875291
20
-15.0305708978545
30
0
41
1
10
-0.394976888875291
20
-15.1065165223896
30
0
41
1
10
-0.394976888875291
20
-15.1665127141503
30
0
41
1
10
-0.394976888875291
20
-15.2259771214207
30
0
41
1
10
-0.394976888875291
20
-15.3286250474485
30
0
41
1
10
-0.394976888875291
20
-15.4426196109061
30
0
41
1
10
-0.394976888875291
20
-15.5534637367265
30
0
41
1
10
-0.394976888875291
20
-15.6349267624759
30
0
41
1
10
-0.394976888875291
20
-15.7147364921469
30
0
41
1
10
-0.394976888875291
20
-15.8189643831875
30
0
41
1
10
-0.394976888875291
20
-15.9197362187748
30
0
41
1
10
-0.394976888875291
20
-16.0172057969154
30
0
41
1
10
-0.394976888875291
20
-16.0885678110446
30
0
41
1
10
-0.394976888875291
20
-16.1582019472912
30
0
41
1
10
-0.394976888875291
20
-16.2260943811825
30
0
41
1
10
-0.394976888875291
20
-16.2922298358683
30
0
41
1
10
-0.394976888875291
20
-16.3565947902754
30
0
41
1
10
-0.394976888875291
20
-16.4191737297992
30
0
41
1
10
-0.394976888875291
20
-16.5002370830775
30
0
41
1
10
-0.394976888875291
20
-16.5775834628441
30
0
41
1
10
-0.394976888875291
20
-16.6513062771915
30
0
41
1
10
-0.394976888875291
20
-16.7225357579897
30
0
41
1
10
-0.394976888875291
20
-16.7899145981056
30
0
41
1
10
-0.394976888875291
20
-16.8535135500206
30
0
41
1
10
-0.394976888875291
20
-16.9145141001581
30
0
41
1
10
-0.394976888875291
20
-16.9715145305624
30
0
41
1
10
-0.394976888875291
20
-17.024552403858
30
0
41
1
10
-0.394976888875291
20
-17.0622798511847
30
0
41
1
10
-0.394976888875291
20
-17.0979462837243
30
0
41
1
10
-0.394976888875291
20
-17.1427382787905
30
0
41
1
10
-0.394976888875291
20
-17.1832568369982
30
0
41
1
10
-0.394976888875291
20
-17.2194882612007
30
0
41
1
10
-0.394976888875291
20
-17.2444531170066
30
0
41
1
10
-0.394976888875291
20
-17.2671905287463
30
0
41
1
10
-0.394976888875291
20
-17.2876678382251
30
0
41
1
10
-0.394976888875291
20
-17.3058521626298
30
0
41
1
10
-0.394976888875291
20
-17.3217086355548
30
0
41
1
10
-0.394976888875291
20
-17.3352007360526
30
0
41
1
10
-0.394976888875291
20
-17.3462909802274
30
0
41
1
10
-0.394976888875291
20
-17.3549392880652
30
0
41
1
10
-0.394976888875291
20
-17.3611046305144
30
0
41
1
10
-0.394976888875291
20
-17.3647432146661
30
0
41
1
10
-0.394976888875291
20
-17.3658102005923
30
0
41
1
10
-0.394976888875291
20
-17.3643150511012
30
0
41
1
10
-0.394976888875291
20
-17.3617494021313
30
0
41
1
10
-0.394976888875291
20
-17.3601838594905
30
0
0
SPLINE
5
C4
100
AcDbEntity
8
SK1
62
256
6
ByLayer
370
-1
48
1
60
0
100
AcDbSpline
70
4
71
3
72
106
73
102
40
0
40
0
40
0
40
0
40
0.0075864940710778
40
0.0161184318015703
40
0.0246503695320628
40
0.0331823072625554
40
0.0417142449930479
40
0.0502461827235405
40
0.058778120454033
40
0.0673100581845255
40
0.0758419959150181
40
0.0843739336455106
40
0.0929058713760031
40
0.101437809106496
40
0.109969746836988
40
0.118501684567481
40
0.135565560028466
40
0.144097497758958
40
0.152629435489451
40
0.161161373219943
40
0.169693310950436
40
0.186757186411421
40
0.195289124141914
40
0.203821061872406
40
0.220884937333391
40
0.229416875063884
40
0.237948812794376
40
0.255012688255361
40
0.263544625985854
40
0.272076563716346
40
0.280608501446839
40
0.289140439177332
40
0.297672376907824
40
0.306204314638317
40
0.314736252368809
40
0.323268190099302
40
0.340332065560287
40
0.348864003290779
40
0.357395941021272
40
0.365927878751764
40
0.374459816482257
40
0.391523691943242
40
0.400055629673734
40
0.408587567404227
40
0.41711950513472
40
0.425651442865212
40
0.442715318326197
40
0.45124725605669
40
0.459779193787182
40
0.468311131517675
40
0.476843069248167
40
0.493906944709152
40
0.502438882439645
40
0.510970820170137
40
0.51950275790063
40
0.528034695631122
40
0.545098571092108
40
0.5536305088226
40
0.562162446553093
40
0.570694384283585
40
0.579226322014078
40
0.596290197475063
40
0.604822135205555
40
0.613354072936048
40
0.62188601066654
40
0.630417948397033
40
0.647481823858018
40
0.656013761588511
40
0.664545699319003
40
0.681609574779988
40
0.698673450240973
40
0.707205387971466
40
0.715737325701958
40
0.732801201162943
40
0.741333138893436
40
0.749865076623928
40
0.758397014354421
40
0.766928952084914
40
0.775460889815406
40
0.783992827545899
40
0.801056703006884
40
0.818120578467869
40
0.826652516198361
40
0.835184453928854
40
0.843716391659346
40
0.852248329389839
40
0.860780267120332
40
0.869312204850824
40
0.886376080311809
40
0.903439955772794
40
0.920503831233779
40
0.929035768964272
40
0.937567706694764
40
0.946099644425257
40
0.95463158215575
40
0.963163519886242
40
0.971695457616734
40
0.980227395347227
40
0.988759333077719
40
0.997291270808212
40
1
40
1
40
1
40
1
41
1
10
-0.394976888875291
20
17.3601838879662
30
0
41
1
10
-0.39497688887532
20
17.3617494125285
30
0
41
1
10
-0.394976888875291
20
17.3643151423867
30
0
41
1
10
-0.394976888875291
20
17.3658104187982
30
0
41
1
10
-0.394976888875291
20
17.364743357607
30
0
41
1
10
-0.394976888875291
20
17.3611046370287
30
0
41
1
10
-0.394976888875291
20
17.3549392673806
30
0
41
1
10
-0.394976888875291
20
17.3462909837355
30
0
41
1
10
-0.394976888875291
20
17.3352007293143
30
0
41
1
10
-0.394976888875291
20
17.3217086001335
30
0
41
1
10
-0.394976888875291
20
17.3058521283006
30
0
41
1
10
-0.394976888875291
20
17.2876678324761
30
0
41
1
10
-0.394976888875291
20
17.267190526317
30
0
41
1
10
-0.394976888875291
20
17.2444530966284
30
0
41
1
10
-0.394976888875291
20
17.2194882282903
30
0
41
1
10
-0.394976888875291
20
17.1832568130363
30
0
41
1
10
-0.394976888875291
20
17.1427382851614
30
0
41
1
10
-0.394976888875291
20
17.0979462613767
30
0
41
1
10
-0.394976888875291
20
17.0622798138473
30
0
41
1
10
-0.394976888875291
20
17.0245523789023
30
0
41
1
10
-0.394976888875291
20
16.9715145338597
30
0
41
1
10
-0.394976888875291
20
16.9145140859045
30
0
41
1
10
-0.394976888875291
20
16.8535135157982
30
0
41
1
10
-0.394976888875291
20
16.7899145739052
30
0
41
1
10
-0.394976888875291
20
16.7225357594453
30
0
41
1
10
-0.394976888875291
20
16.6513062647865
30
0
41
1
10
-0.394976888875291
20
16.577583428992
30
0
41
1
10
-0.394976888875291
20
16.5002370605308
30
0
41
1
10
-0.394976888875291
20
16.4191737242595
30
0
41
1
10
-0.394976888875291
20
16.3565947837564
30
0
41
1
10
-0.394976888875291
20
16.2922298184193
30
0
41
1
10
-0.394976888875291
20
16.2260943534788
30
0
41
1
10
-0.394976888875291
20
16.1582019227301
30
0
41
1
10
-0.394976888875291
20
16.0885677968918
30
0
41
1
10
-0.394976888875291
20
16.0172057910894
30
0
41
1
10
-0.394976888875291
20
15.9197362080175
30
0
41
1
10
-0.394976888875291
20
15.8189643575456
30
0
41
1
10
-0.394976888875291
20
15.7147364711228
30
0
41
1
10
-0.394976888875291
20
15.6349267495635
30
0
41
1
10
-0.394976888875291
20
15.553463729323
30
0
41
1
10
-0.394976888875291
20
15.4426195996911
30
0
41
1
10
-0.394976888875291
20
15.3286250260664
30
0
41
1
10
-0.394976888875291
20
15.2112966721243
30
0
41
1
10
-0.394976888875291
20
15.1217290697223
30
0
41
1
10
-0.394976888875291
20
15.0305709686995
30
0
41
1
10
-0.394976888875291
20
14.906878048735
30
0
41
1
10
-0.394976888875291
20
14.7801642402503
30
0
41
1
10
-0.394976888875291
20
14.6502180265082
30
0
41
1
10
-0.394976888875291
20
14.5512443698349
30
0
41
1
10
-0.394976888875291
20
14.4507333574048
30
0
41
1
10
-0.394976888875291
20
14.3146351144528
30
0
41
1
10
-0.394976888875291
20
14.1756274353422
30
0
41
1
10
-0.394976888875291
20
14.0334711437704
30
0
41
1
10
-0.394976888875291
20
13.9253889575191
30
0
41
1
10
-0.394976888875291
20
13.8158144643309
30
0
41
1
10
-0.394976888875291
20
13.6676860465324
30
0
41
1
10
-0.394976888875291
20
13.5167448397425
30
0
41
1
10
-0.394976888875291
20
13.3627236430939
30
0
41
1
10
-0.394976888875291
20
13.2457848907918
30
0
41
1
10
-0.394976888875291
20
13.127391952352
30
0
41
1
10
-0.394976888875291
20
12.9675509274721
30
0
41
1
10
-0.394976888875291
20
12.8049814419576
30
0
41
1
10
-0.394976888875291
20
12.6393872212047
30
0
41
1
10
-0.394976888875291
20
12.5138050377602
30
0
41
1
10
-0.394976888875291
20
12.3868007822861
30
0
41
1
10
-0.394976888875291
20
12.2155153079022
30
0
41
1
10
-0.394976888875291
20
12.0415756036957
30
0
41
1
10
-0.394976888875291
20
11.8646543426879
30
0
41
1
10
-0.394976888875291
20
11.6858676336886
30
0
41
1
10
-0.394976888875291
20
11.4590305058839
30
0
41
1
10
-0.394976888875291
20
11.2275701322441
30
0
41
1
10
-0.394976888875291
20
11.0395280715927
30
0
41
1
10
-0.394976888875291
20
10.8496518299165
30
0
41
1
10
-0.394976888875291
20
10.6572262982852
30
0
41
1
10
-0.394976888875291
20
10.4618684218406
30
0
41
1
10
-0.394976888875291
20
10.3140380853821
30
0
41
1
10
-0.394976888875291
20
10.1648479968029
30
0
41
1
10
-0.394976888875291
20
10.0143015620689
30
0
41
1
10
-0.394976888875291
20
9.86240079247779
30
0
41
1
10
-0.394976888875291
20
9.65799297250354
30
0
41
1
10
-0.394976888875291
20
9.3992804435735
30
0
41
1
10
-0.394976888875291
20
9.13609084815204
30
0
41
1
10
-0.394976888875291
20
8.92272120904667
30
0
41
1
10
-0.394976888875291
20
8.76141979935898
30
0
41
1
10
-0.394976888875291
20
8.59878513251641
30
0
41
1
10
-0.394976888875291
20
8.43482033812748
30
0
41
1
10
-0.394976888875291
20
8.26952734508268
30
0
41
1
10
-0.394976888875291
20
8.04728288893983
30
0
41
1
10
-0.394976888875291
20
7.76637137475095
30
0
41
1
10
-0.394976888875291
20
7.42389184310318
30
0
41
1
10
-0.394976888875291
20
7.13420904829047
30
0
41
1
10
-0.394976888875291
20
6.89966739484251
30
0
41
1
10
-0.394976888875291
20
6.7225342898117
30
0
41
1
10
-0.394976888875291
20
6.54409938064705
30
0
41
1
10
-0.394976888875291
20
6.36436626337326
30
0
41
1
10
-0.394976888875291
20
6.18333822517317
30
0
41
1
10
-0.394976888875291
20
6.0010194773844
30
0
41
1
10
-0.394976888875291
20
5.81741425905383
30
0
41
1
10
-0.394976888875291
20
5.63252720020009
30
0
41
1
10
-0.394976888875291
20
5.48871675629277
30
0
41
1
10
-0.394976888875291
20
5.40659331253005
30
0
41
1
10
-0.394976888875291
20
5.38678223324203
30
0
0
SPLINE
5
C5
100
AcDbEntity
8
SK1
62
256
6
ByLayer
370
-1
48
1
60
0
100
AcDbSpline
70
4
71
3
72
288
73
284
40
0
40
0
40
0
40
0
40
0.0022851285227252
40
0.0057901691115574
40
0.0092952097003895
40
0.0128002502892217
40
0.0163052908780539
40
0.0198103314668861
40
0.0233153720557183
40
0.0268204126445504
40
0.0303254532333826
40
0.0338304938222148
40
0.037335534411047
40
0.0408405749998792
40
0.0443456155887114
40
0.0513556967663757
40
0.0548607373552079
40
0.0583657779440401
40
0.0618708185328723
40
0.0653758591217045
40
0.0723859402993688
40
0.075890980888201
40
0.0793960214770332
40
0.0864061026546976
40
0.0899111432435297
40
0.0934161838323619
40
0.100426265010026
40
0.103931305598859
40
0.107436346187691
40
0.110941386776523
40
0.114446427365355
40
0.117951467954187
40
0.121456508543019
40
0.124961549131852
40
0.128466589720684
40
0.135476670898348
40
0.13898171148718
40
0.142486752076012
40
0.145991792664845
40
0.149496833253677
40
0.156506914431341
40
0.160011955020174
40
0.163516995609006
40
0.167022036197838
40
0.17052707678667
40
0.177537157964334
40
0.181042198553167
40
0.184547239141999
40
0.188052279730831
40
0.191557320319663
40
0.198567401497327
40
0.20207244208616
40
0.205577482674992
40
0.209082523263824
40
0.212587563852656
40
0.219597645030321
40
0.223102685619153
40
0.226607726207985
40
0.230112766796817
40
0.233617807385649
40
0.240627888563314
40
0.244132929152146
40
0.247637969740978
40
0.25114301032981
40
0.254648050918642
40
0.261658132096307
40
0.265163172685139
40
0.268668213273971
40
0.275678294451635
40
0.2826883756293
40
0.286193416218132
40
0.289698456806964
40
0.296708537984629
40
0.300213578573461
40
0.303718619162293
40
0.307223659751125
40
0.310728700339957
40
0.314233740928789
40
0.317738781517622
40
0.324748862695286
40
0.33175894387295
40
0.335263984461783
40
0.338769025050615
40
0.342274065639447
40
0.345779106228279
40
0.349284146817111
40
0.352789187405943
40
0.359799268583608
40
0.366809349761272
40
0.373819430938937
40
0.377324471527769
40
0.380829512116601
40
0.384334552705433
40
0.387839593294265
40
0.391344633883098
40
0.39484967447193
40
0.398354715060762
40
0.401859755649594
40
0.405364796238426
40
0.408869836827259
40
0.412374877416091
40
0.415879918004923
40
0.419384958593755
40
0.422889999182587
40
0.426395039771419
40
0.429900080360252
40
0.433405120949084
40
0.4351576412435
40
0.436910161537916
40
0.438662681832332
40
0.440415202126748
40
0.44392024271558
40
0.447425283304412
40
0.449177803598829
40
0.450930323893245
40
0.452682844187661
40
0.454435364482077
40
0.456187884776493
40
0.457940405070909
40
0.461445445659741
40
0.463197965954157
40
0.464950486248573
40
0.46670300654299
40
0.468455526837405
40
0.470208047131822
40
0.471960567426238
40
0.473713087720654
40
0.47546560801507
40
0.477218128309486
40
0.478970648603902
40
0.480723168898318
40
0.482475689192734
40
0.48422820948715
40
0.485980729781566
40
0.487733250075983
40
0.489485770370399
40
0.491238290664815
40
0.492990810959231
40
0.494743331253647
40
0.496495851548063
40
0.498248371842479
40
0.500000892136895
40
0.501753412431311
40
0.503505932725727
40
0.505258453020143
40
0.50701097331456
40
0.508763493608976
40
0.510516013903392
40
0.512268534197808
40
0.514021054492224
40
0.51577357478664
40
0.517526095081056
40
0.519278615375472
40
0.521031135669888
40
0.522783655964304
40
0.524536176258721
40
0.526288696553137
40
0.528041216847553
40
0.529793737141969
40
0.531546257436385
40
0.533298777730801
40
0.535051298025217
40
0.536803818319633
40
0.538556338614049
40
0.540308858908465
40
0.542061379202882
40
0.543813899497298
40
0.545566419791714
40
0.549071460380546
40
0.550823980674962
40
0.552576500969378
40
0.55608154155821
40
0.559586582147042
40
0.561339102441459
40
0.563091622735875
40
0.564844143030291
40
0.566596663324707
40
0.570101703913539
40
0.573606744502371
40
0.577111785091203
40
0.580616825680035
40
0.584121866268867
40
0.5876269068577
40
0.591131947446532
40
0.594636988035364
40
0.598142028624196
40
0.601647069213028
40
0.605152109801861
40
0.608657150390693
40
0.612162190979525
40
0.615667231568357
40
0.619172272157189
40
0.622677312746022
40
0.626182353334854
40
0.633192434512518
40
0.640202515690183
40
0.647212596867847
40
0.650717637456679
40
0.654222678045511
40
0.657727718634343
40
0.661232759223175
40
0.664737799812008
40
0.66824284040084
40
0.675252921578504
40
0.682263002756169
40
0.685768043345001
40
0.689273083933833
40
0.692778124522665
40
0.696283165111498
40
0.69978820570033
40
0.703293246289162
40
0.710303327466826
40
0.713808368055659
40
0.717313408644491
40
0.724323489822155
40
0.731333570999819
40
0.734838611588651
40
0.738343652177484
40
0.745353733355148
40
0.74885877394398
40
0.752363814532812
40
0.755868855121644
40
0.759373895710477
40
0.766383976888141
40
0.769889017476973
40
0.773394058065805
40
0.776899098654638
40
0.78040413924347
40
0.787414220421134
40
0.790919261009966
40
0.794424301598799
40
0.797929342187631
40
0.801434382776463
40
0.808444463954127
40
0.81194950454296
40
0.815454545131792
40
0.818959585720624
40
0.822464626309456
40
0.82947470748712
40
0.832979748075953
40
0.836484788664785
40
0.838237308959201
40
0.839989829253617
40
0.843494869842449
40
0.850504951020113
40
0.854009991608946
40
0.857515032197778
40
0.86102007278661
40
0.864525113375442
40
0.871535194553107
40
0.875040235141939
40
0.878545275730771
40
0.882050316319603
40
0.885555356908435
40
0.889060397497268
40
0.8925654380861
40
0.896070478674932
40
0.899575519263764
40
0.906585600441428
40
0.91009064103026
40
0.913595681619093
40
0.920605762796757
40
0.924110803385589
40
0.927615843974421
40
0.934625925152086
40
0.938130965740918
40
0.94163600632975
40
0.945141046918582
40
0.948646087507415
40
0.955656168685079
40
0.959161209273911
40
0.962666249862743
40
0.966171290451576
40
0.969676331040408
40
0.97318137162924
40
0.976686412218072
40
0.980191452806904
40
0.983696493395737
40
0.987201533984569
40
0.990706574573401
40
0.994211615162233
40
0.997716655751065
40
1
40
1
40
1
40
1
41
1
10
-30
20
15.9926656723689
30
0
41
1
10
-30
20
15.9930575028988
30
0
41
1
10
-30
20
15.9936130019529
30
0
41
1
10
-30
20
15.992743696334
30
0
41
1
10
-30
20
15.9893850921089
30
0
41
1
10
-30
20
15.9836860314146
30
0
41
1
10
-30
20
15.9756808210229
30
0
41
1
10
-30
20
15.9654018084481
30
0
41
1
10
-30
20
15.9528811264941
30
0
41
1
10
-30
20
15.9381491278438
30
0
41
1
10
-30
20
15.9212355486336
30
0
41
1
10
-30
20
15.9021692443494
30
0
41
1
10
-30
20
15.8809772874923
30
0
41
1
10
-30
20
15.85768719628
30
0
41
1
10
-30
20
15.8237020449635
30
0
41
1
10
-30
20
15.786151572388
30
0
41
1
10
-30
20
15.7440467976174
30
0
41
1
10
-30
20
15.7106366986067
30
0
41
1
10
-30
20
15.6752710038507
30
0
41
1
10
-30
20
15.6253102414823
30
0
41
1
10
-30
20
15.5722298833996
30
0
41
1
10
-30
20
15.5146768571488
30
0
41
1
10
-30
20
15.454635155867
30
0
41
1
10
-30
20
15.3917322415494
30
0
41
1
10
-30
20
15.3243986601424
30
0
41
1
10
-30
20
15.2546726017927
30
0
41
1
10
-30
20
15.1823145630236
30
0
41
1
10
-30
20
15.1055630554725
30
0
41
1
10
-30
20
15.0465122402176
30
0
41
1
10
-30
20
14.985753516587
30
0
41
1
10
-30
20
14.9233034368069
30
0
41
1
10
-30
20
14.8591738020485
30
0
41
1
10
-30
20
14.7933781380804
30
0
41
1
10
-30
20
14.7259318150055
30
0
41
1
10
-30
20
14.6334478809413
30
0
41
1
10
-30
20
14.5388306139923
30
0
41
1
10
-30
20
14.4398724968665
30
0
41
1
10
-30
20
14.3643499358607
30
0
41
1
10
-30
20
14.2872489988171
30
0
41
1
10
-30
20
14.1819460940194
30
0
41
1
10
-30
20
14.0747689624993
30
0
41
1
10
-30
20
13.9632604256822
30
0
41
1
10
-30
20
13.8784200007502
30
0
41
1
10
-30
20
13.7920640526129
30
0
41
1
10
-30
20
13.674463030797
30
0
41
1
10
-30
20
13.5552283874056
30
0
41
1
10
-30
20
13.4316550911985
30
0
41
1
10
-30
20
13.337853067095
30
0
41
1
10
-30
20
13.2425907988595
30
0
41
1
10
-30
20
13.1131460860381
30
0
41
1
10
-30
20
12.9822967545723
30
0
41
1
10
-30
20
12.847084683004
30
0
41
1
10
-30
20
12.7446351532221
30
0
41
1
10
-30
20
12.6407746180399
30
0
41
1
10
-30
20
12.499887311655
30
0
41
1
10
-30
20
12.3578191289812
30
0
41
1
10
-30
20
12.2113468162578
30
0
41
1
10
-30
20
12.100530667573
30
0
41
1
10
-30
20
11.9883478761207
30
0
41
1
10
-30
20
11.836377249174
30
0
41
1
10
-30
20
11.6834503922585
30
0
41
1
10
-30
20
11.5260594948948
30
0
41
1
10
-30
20
11.4071324366749
30
0
41
1
10
-30
20
11.2868794886981
30
0
41
1
10
-30
20
11.1241532157817
30
0
41
1
10
-30
20
10.9607029988619
30
0
41
1
10
-30
20
10.7927086404326
30
0
41
1
10
-30
20
10.6229844866849
30
0
41
1
10
-30
20
10.4091173939315
30
0
41
1
10
-30
20
10.1909959678347
30
0
41
1
10
-30
20
10.0126979588287
30
0
41
1
10
-30
20
9.83272430289384
30
0
41
1
10
-30
20
9.65245023276196
30
0
41
1
10
-30
20
9.46744871362009
30
0
41
1
10
-30
20
9.32804093460692
30
0
41
1
10
-30
20
9.18740563851225
30
0
41
1
10
-30
20
9.0455543785921
30
0
41
1
10
-30
20
8.90249044231982
30
0
41
1
10
-30
20
8.70931958714519
30
0
41
1
10
-30
20
8.46674616603482
30
0
41
1
10
-30
20
8.22021686294167
30
0
41
1
10
-30
20
8.01906836645577
30
0
41
1
10
-30
20
7.86773085832667
30
0
41
1
10
-30
20
7.71524241280142
30
0
41
1
10
-30
20
7.56161298420645
30
0
41
1
10
-30
20
7.40685260452798
30
0
41
1
10
-30
20
7.19804202206524
30
0
41
1
10
-30
20
6.93651252502835
30
0
41
1
10
-30
20
6.61705894701072
30
0
41
1
10
-30
20
6.34834996432815
30
0
41
1
10
-30
20
6.12929373929515
30
0
41
1
10
-30
20
5.96484945115367
30
0
41
1
10
-30
20
5.7993974381898
30
0
41
1
10
-30
20
5.63295542814623
30
0
41
1
10
-30
20
5.46554083189747
30
0
41
1
10
-30
20
5.29717335727497
30
0
41
1
10
-30
20
5.12787591307327
30
0
41
1
10
-30
20
4.9576706384986
30
0
41
1
10
-30
20
4.78658071628459
30
0
41
1
10
-30
20
4.6146335506248
30
0
41
1
10
-30
20
4.44186113006069
30
0
41
1
10
-30
20
4.26829321973949
30
0
41
1
10
-30
20
4.09396155182321
30
0
41
1
10
-30
20
3.91890592173868
30
0
41
1
10
-30
20
3.74316620306936
30
0
41
1
10
-30
20
3.56678705857649
30
0
41
1
10
-30
20
3.42015123791836
30
0
41
1
10
-30
20
3.3009810984795
30
0
41
1
10
-30
20
3.21216327477833
30
0
41
1
10
-30
20
3.12322377081893
30
0
41
1
10
-30
20
3.00356413190352
30
0
41
1
10
-30
20
2.85589664233001
30
0
41
1
10
-30
20
2.70788037697056
30
0
41
1
10
-30
20
2.58749550859633
30
0
41
1
10
-30
20
2.49793822974365
30
0
41
1
10
-30
20
2.40833000131903
30
0
41
1
10
-30
20
2.31867596083524
30
0
41
1
10
-30
20
2.22899146909501
30
0
41
1
10
-30
20
2.10827328924756
30
0
41
1
10
-30
20
1.99097459417121
30
0
41
1
10
-30
20
1.87012467714987
30
0
41
1
10
-30
20
1.78043031683035
30
0
41
1
10
-30
20
1.69076251244053
30
0
41
1
10
-30
20
1.60113247848605
30
0
41
1
10
-30
20
1.51155313609783
30
0
41
1
10
-30
20
1.422025757727
30
0
41
1
10
-30
20
1.33256776537959
30
0
41
1
10
-30
20
1.24317741509074
30
0
41
1
10
-30
20
1.15386860885192
30
0
41
1
10
-30
20
1.06464013673647
30
0
41
1
10
-30
20
0.975500136218244
30
0
41
1
10
-30
20
0.886447988926847
30
0
41
1
10
-30
20
0.797485776681128
30
0
41
1
10
-30
20
0.708610852102623
30
0
41
1
10
-30
20
0.61982073744278
30
0
41
1
10
-30
20
0.531109764951225
30
0
41
1
10
-30
20
0.442471434007643
30
0
41
1
10
-30
20
0.35389600796347
30
0
41
1
10
-30
20
0.265373879214224
30
0
41
1
10
-30
20
0.176892371692162
30
0
41
1
10
-30
20
0.0884392148653887
30
0
41
1
10
-30
20
2.04973958E-08
30
0
41
1
10
-30
20
-0.0884392031952927
30
0
41
1
10
-30
20
-0.17689241471993
30
0
41
1
10
-30
20
-0.265373915570137
30
0
41
1
10
-30
20
-0.353895962579486
30
0
41
1
10
-30
20
-0.442471374506823
30
0
41
1
10
-30
20
-0.531109813902646
30
0
41
1
10
-30
20
-0.61982082298212
30
0
41
1
10
-30
20
-0.70861080655007
30
0
41
1
10
-30
20
-0.797485667180155
30
0
41
1
10
-30
20
-0.886448026006832
30
0
41
1
10
-30
20
-0.97550027278379
30
0
41
1
10
-30
20
-1.06464012636249
30
0
41
1
10
-30
20
-1.1538684580087
30
0
41
1
10
-30
20
-1.24317738635406
30
0
41
1
10
-30
20
-1.33256791795026
30
0
41
1
10
-30
20
-1.42202585063245
30
0
41
1
10
-30
20
-1.5115530207047
30
0
41
1
10
-30
20
-1.60113232466117
30
0
41
1
10
-30
20
-1.69076256252157
30
0
41
1
10
-30
20
-1.78043050963589
30
0
41
1
10
-30
20
-1.87012473193457
30
0
41
1
10
-30
20
-1.95984062320625
30
0
41
1
10
-30
20
-2.04956121840735
30
0
41
1
10
-30
20
-2.13928298465069
30
0
41
1
10
-30
20
-2.22899154181988
30
0
41
1
10
-30
20
-2.34971237639812
30
0
41
1
10
-30
20
-2.4670581044816
30
0
41
1
10
-30
20
-2.58749567267543
30
0
41
1
10
-30
20
-2.70788056755165
30
0
41
1
10
-30
20
-2.85589666602098
30
0
41
1
10
-30
20
-3.00356394920902
30
0
41
1
10
-30
20
-3.12322374659235
30
0
41
1
10
-30
20
-3.21216341650842
30
0
41
1
10
-30
20
-3.3009812939207
30
0
41
1
10
-30
20
-3.4201512431562
30
0
41
1
10
-30
20
-3.56678672363677
30
0
41
1
10
-30
20
-3.74316585626101
30
0
41
1
10
-30
20
-3.91890584757377
30
0
41
1
10
-30
20
-4.09396100129445
30
0
41
1
10
-30
20
-4.26829259541552
30
0
41
1
10
-30
20
-4.44186183082067
30
0
41
1
10
-30
20
-4.61463414914383
30
0
41
1
10
-30
20
-4.78658021025493
30
0
41
1
10
-30
20
-4.95767123056282
30
0
41
1
10
-30
20
-5.1278778625566
30
0
41
1
10
-30
20
-5.29717415068043
30
0
41
1
10
-30
20
-5.46553992297876
30
0
41
1
10
-30
20
-5.63295448869491
30
0
41
1
10
-30
20
-5.79939725011727
30
0
41
1
10
-30
20
-5.96484950556561
30
0
41
1
10
-30
20
-6.1292936535483
30
0
41
1
10
-30
20
-6.34834993475852
30
0
41
1
10
-30
20
-6.6170590196507
30
0
41
1
10
-30
20
-6.93651248001379
30
0
41
1
10
-30
20
-7.19804203228608
30
0
41
1
10
-30
20
-7.40685270744595
30
0
41
1
10
-30
20
-7.56161297986856
30
0
41
1
10
-30
20
-7.71524232371232
30
0
41
1
10
-30
20
-7.86773082006812
30
0
41
1
10
-30
20
-8.01906843480592
30
0
41
1
10
-30
20
-8.22021692135615
30
0
41
1
10
-30
20
-8.46674612315107
30
0
41
1
10
-30
20
-8.7093195790371
30
0
41
1
10
-30
20
-8.90249052457438
30
0
41
1
10
-30
20
-9.04555441784282
30
0
41
1
10
-30
20
-9.18740560593943
30
0
41
1
10
-30
20
-9.32804088163152
30
0
41
1
10
-30
20
-9.46744870809565
30
0
41
1
10
-30
20
-9.65245029192155
30
0
41
1
10
-30
20
-9.83272433616031
30
0
41
1
10
-30
20
-10.0126979221092
30
0
41
1
10
-30
20
-10.1909959517429
30
0
41
1
10
-30
20
-10.4091174330404
30
0
41
1
10
-30
20
-10.6229845090751
30
0
41
1
10
-30
20
-10.7927086151923
30
0
41
1
10
-30
20
-10.9607029915804
30
0
41
1
10
-30
20
-11.1241532476502
30
0
41
1
10
-30
20
-11.286879520772
30
0
41
1
10
-30
20
-11.4071324437642
30
0
41
1
10
-30
20
-11.526059483736
30
0
41
1
10
-30
20
-11.6834503898541
30
0
41
1
10
-30
20
-11.8363772717575
30
0
41
1
10
-30
20
-11.9883479026383
30
0
41
1
10
-30
20
-12.100530681097
30
0
41
1
10
-30
20
-12.211346817793
30
0
41
1
10
-30
20
-12.3578191303265
30
0
41
1
10
-30
20
-12.4998873251013
30
0
41
1
10
-30
20
-12.640774639564
30
0
41
1
10
-30
20
-12.7446351726738
30
0
41
1
10
-30
20
-12.8470846962099
30
0
41
1
10
-30
20
-12.9822967603461
30
0
41
1
10
-30
20
-13.1131460918651
30
0
41
1
10
-30
20
-13.2425908150843
30
0
41
1
10
-30
20
-13.3378530905647
30
0
41
1
10
-30
20
-13.431655102243
30
0
41
1
10
-30
20
-13.5552284439381
30
0
41
1
10
-30
20
-13.6744629632361
30
0
41
1
10
-30
20
-13.7920640428987
30
0
41
1
10
-30
20
-13.8638084100541
30
0
41
1
10
-30
20
-13.9208384799595
30
0
41
1
10
-30
20
-13.9773600368974
30
0
41
1
10
-30
20
-14.0747689786766
30
0
41
1
10
-30
20
-14.1819460903518
30
0
41
1
10
-30
20
-14.2872490063531
30
0
41
1
10
-30
20
-14.3643499644422
30
0
41
1
10
-30
20
-14.4398725346097
30
0
41
1
10
-30
20
-14.5388306330265
30
0
41
1
10
-30
20
-14.6334478734244
30
0
41
1
10
-30
20
-14.7259318226356
30
0
41
1
10
-30
20
-14.793378171537
30
0
41
1
10
-30
20
-14.8591738437125
30
0
41
1
10
-30
20
-14.9233034607296
30
0
41
1
10
-30
20
-14.9857535133679
30
0
41
1
10
-30
20
-15.0465122321639
30
0
41
1
10
-30
20
-15.1055630695376
30
0
41
1
10
-30
20
-15.1823146060513
30
0
41
1
10
-30
20
-15.2546726312332
30
0
41
1
10
-30
20
-15.3243986497297
30
0
41
1
10
-30
20
-15.3917322452796
30
0
41
1
10
-30
20
-15.4546352005829
30
0
41
1
10
-30
20
-15.5146768877911
30
0
41
1
10
-30
20
-15.5722298782127
30
0
41
1
10
-30
20
-15.6253102421943
30
0
41
1
10
-30
20
-15.6752710489662
30
0
41
1
10
-30
20
-15.7106367362118
30
0
41
1
10
-30
20
-15.7440468008705
30
0
41
1
10
-30
20
-15.7861515665346
30
0
41
1
10
-30
20
-15.8237020814765
30
0
41
1
10
-30
20
-15.8576872273509
30
0
41
1
10
-30
20
-15.8809772969169
30
0
41
1
10
-30
20
-15.9021692417172
30
0
41
1
10
-30
20
-15.921235563756
30
0
41
1
10
-30
20
-15.9381491696965
30
0
41
1
10
-30
20
-15.9528811556007
30
0
41
1
10
-30
20
-15.9654018081648
30
0
41
1
10
-30
20
-15.9756808201301
30
0
41
1
10
-30
20
-15.9836860510364
30
0
41
1
10
-30
20
-15.989385071505
30
0
41
1
10
-30
20
-15.992743547039
30
0
41
1
10
-30
20
-15.993612628626
30
0
41
1
10
-30
20
-15.9930576922538
30
0
41
1
10
-30
20
-15.9926664677689
30
0
0
SPLINE
5
C6
100
AcDbEntity
8
1
62
256
6
ByLayer
370
-1
48
1
60
0
100
AcDbSpline
70
4
71
3
72
14
73
10
40
0
40
0
40
0
40
0
40
0.282169922576098
40
0.282169922576098
40
0.566902245317965
40
0.566902245317965
40
0.824523972080258
40
0.824523972080258
40
1
40
1
40
1
40
1
41
1
10
54.512089022636
20
1.40233678765756
30
0
41
1
10
54.4884755428677
20
1.42622880348662
30
0
41
1
10
54.4598973715972
20
1.4466909539924
30
0
41
1
10
54.3964034073027
20
1.47642759952868
30
0
41
1
10
54.3604207832103
20
1.48600316008026
30
0
41
1
10
54.2904842322965
20
1.49063981766778
30
0
41
1
10
54.255601295172
20
1.48700486818098
30
0
41
1
10
54.2001581578494
20
1.47083834363633
30
0
41
1
10
54.178107891115
20
1.46140433355825
30
0
41
1
10
54.1577016963397
20
1.44954676284439
30
0
0
SPLINE
5
C7
100
AcDbEntity
8
SK1
62
256
6
ByLayer
370
-1
48
1
60
0
100
AcDbSpline
70
4
71
3
72
10
73
6
40
0
40
0
40
0
40
0
40
0.5
40
0.5
40
1
40
1
40
1
40
1
41
1
10
-1.30710678118655
20
3.91806548153784
30
0
41
1
10
-1.53227959010833
20
2.67440369212437
30
0
41
1
10
-1.71681589069691
20
1.34075776539186
30
0
41
1
10
-1.71598271729604
20
-1.35050010337164
30
0
41
1
10
-1.53230696904974
20
-2.67425240209695
30
0
41
1
10
-1.30710678118655
20
-3.91806548057698
30
0
0
SPLINE
5
C8
100
AcDbEntity
8
SK1
62
256
6
ByLayer
370
-1
48
1
60
0
100
AcDbSpline
70
4
71
3
72
22
73
18
40
0
40
0
40
0
40
0
40
0.359503326352592
40
0.359503326352592
40
0.722215553677066
40
0.722215553677066
40
0.826527133697721
40
0.826527133697721
40
0.863141914878009
40
0.863141914878009
40
0.900378805007221
40
0.900378805007221
40
0.933500873078508
40
0.933500873078508
40
0.972947835056124
40
0.972947835056124
40
1
40
1
40
1
40
1
41
1
10
-1.30710678118655
20
3.91806548153781
30
0
41
1
10
-1.26486058419175
20
4.15139729989579
30
0
41
1
10
-1.21446435132795
20
4.3814323255595
30
0
41
1
10
-1.08204001032738
20
4.82987250608483
30
0
41
1
10
-1.00537527699572
20
5.05527264511531
30
0
41
1
10
-0.832356114396674
20
5.30654108347395
30
0
41
1
10
-0.787238294886336
20
5.36152992388779
30
0
41
1
10
-0.709490490588578
20
5.41877880440927
30
0
41
1
10
-0.687203973712826
20
5.43218986569767
30
0
41
1
10
-0.639076749164033
20
5.45244590583036
30
0
41
1
10
-0.612446414061694
20
5.45928056674788
30
0
41
1
10
-0.562058433231044
20
5.46233960302246
30
0
41
1
10
-0.537713914852588
20
5.45964677314575
30
0
41
1
10
-0.48805385269695
20
5.44628701250068
30
0
41
1
10
-0.462609559288765
20
5.43420976008088
30
0
41
1
10
-0.423860760477325
20
5.40985221311715
30
0
41
1
10
-0.408979654247759
20
5.39867780521598
30
0
41
1
10
-0.394976888875405
20
5.38678223323953
30
0
0
SPLINE
5
C9
100
AcDbEntity
8
1
62
256
6
ByLayer
370
-1
48
1
60
0
100
AcDbSpline
70
4
71
3
72
18
73
14
40
0
40
0
40
0
40
0
40
0.2124916957553
40
0.2124916957553
40
0.386618276853804
40
0.386618276853804
40
0.562426360907934
40
0.562426360907934
40
0.715388416645938
40
0.715388416645938
40
0.918249208689865
40
0.918249208689865
40
1
40
1
40
1
40
1
41
1
10
54.0223555322912
20
-1.12150404176836
30
0
41
1
10
54.0407239238099
20
-1.05294891329137
30
0
41
1
10
54.0489088908468
20
-0.979185025504108
30
0
41
1
10
54.0410389991461
20
-0.843022153365325
30
0
41
1
10
54.0288442405563
20
-0.77944876007362
30
0
41
1
10
53.9861694283771
20
-0.656905539523677
30
0
41
1
10
53.9547023316607
20
-0.596232464314596
30
0
41
1
10
53.8826967636609
20
-0.496295746396243
30
0
41
1
10
53.8430811011105
20
-0.454031777737725
30
0
41
1
10
53.7445940375196
20
-0.371396705684134
30
0
41
1
10
53.682106412471
20
-0.334518098051092
30
0
41
1
10
53.592223268082
20
-0.297950670793398
30
0
41
1
10
53.5657739639204
20
-0.289055491728504
30
0
41
1
10
53.5391346078147
20
-0.281837412122968
30
0
0
SPLINE
5
CA
100
AcDbEntity
8
1
62
256
6
ByLayer
370
-1
48
1
60
0
100
AcDbSpline
70
4
71
3
72
16
73
12
40
0
40
0
40
0
40
0
40
0.0624450082614124
40
0.0624450082614124
40
0.283207995985764
40
0.283207995985764
40
0.506745688833494
40
0.506745688833494
40
0.744607284736923
40
0.744607284736923
40
1
40
1
40
1
40
1
41
1
10
54.1577016963397
20
-1.44954676282944
30
0
41
1
10
54.1649936831846
20
-1.45378396876663
30
0
41
1
10
54.1724780945314
20
-1.45770925193815
30
0
41
1
10
54.20688062772
20
-1.4738940865285
30
0
41
1
10
54.2358948640169
20
-1.48241558862114
30
0
41
1
10
54.2940063384808
20
-1.49038000157398
30
0
41
1
10
54.3238364565737
20
-1.48983232117163
30
0
41
1
10
54.3821472923554
20
-1.48018142671063
30
0
41
1
10
54.4111545010766
20
-1.47044293259631
30
0
41
1
10
54.465324642001
20
-1.44276136962697
30
0
41
1
10
54.4907153855943
20
-1.42396254037092
30
0
41
1
10
54.512089022636
20
-1.40233678764261
30
0
0
SPLINE
5
CB
100
AcDbEntity
8
1
62
256
6
ByLayer
370
-1
48
1
60
0
100
AcDbSpline
70
4
71
3
72
16
73
12
40
0
40
0
40
0
40
0
40
0.0630415689509084
40
0.0630415689509084
40
0.285914332024935
40
0.285914332024935
40
0.511588305408831
40
0.511588305408831
40
0.751723061839295
40
0.751723061839295
40
1
40
1
40
1
40
1
41
1
10
53.3235
20
7.4749E-12
30
0
41
1
10
53.3235
20
-0.0084336538254206
30
0
41
1
10
53.3238663712513
20
-0.0168769683429559
30
0
41
1
10
53.3271568565848
20
-0.0547537924240373
30
0
41
1
10
53.334366109589
20
-0.0841216087630698
30
0
41
1
10
53.356675911307
20
-0.138367789835826
30
0
41
1
10
53.37213653408
20
-0.16388454963635
30
0
41
1
10
53.4097771651801
20
-0.209452916494314
30
0
41
1
10
53.4327709702198
20
-0.229640568245685
30
0
41
1
10
53.4829603817965
20
-0.26195144864019
30
0
41
1
10
53.5108212864832
20
-0.274165762460825
30
0
41
1
10
53.5391346078147
20
-0.281837412122968
30
0
0
SPLINE
5
CC
100
AcDbEntity
8
1
62
256
6
ByLayer
370
-1
48
1
60
0
100
AcDbSpline
70
4
71
3
72
12
73
8
40
0
40
0
40
0
40
0
40
0.422118641229806
40
0.422118641229806
40
0.843213633747316
40
0.843213633747316
40
1
40
1
40
1
40
1
41
1
10
54.9167782634827
20
-1.20362635088844
30
0
41
1
10
54.8493307984488
20
-1.21186958890243
30
0
41
1
10
54.7833416408563
20
-1.23046260793382
30
0
41
1
10
54.6647272181067
20
-1.28256908027373
30
0
41
1
10
54.6103575887119
20
-1.31660935903523
30
0
41
1
10
54.5450730005586
20
-1.37058295420641
30
0
41
1
10
54.5281183540982
20
-1.38611837998815
30
0
41
1
10
54.512089022636
20
-1.40233678764261
30
0
0
SPLINE
5
CD
100
AcDbEntity
8
1
62
256
6
ByLayer
370
-1
48
1
60
0
100
AcDbSpline
70
4
71
3
72
12
73
8
40
0
40
0
40
0
40
0
40
0.422118641229848
40
0.422118641229848
40
0.843213633747361
40
0.843213633747361
40
1
40
1
40
1
40
1
41
1
10
55.0832217365173
20
1.20362635090339
30
0
41
1
10
55.1506692015512
20
1.21186958891738
30
0
41
1
10
55.2166583591437
20
1.2304626079488
30
0
41
1
10
55.3352727818933
20
1.28256908028868
30
0
41
1
10
55.3896424112882
20
1.31660935905018
30
0
41
1
10
55.4549269994414
20
1.37058295422136
30
0
41
1
10
55.4718816459018
20
1.38611838000313
30
0
41
1
10
55.487910977364
20
1.40233678765756
30
0
0
SPLINE
5
CE
100
AcDbEntity
8
1
62
256
6
ByLayer
370
-1
48
1
60
0
100
AcDbSpline
70
4
71
3
72
14
73
10
40
0
40
0
40
0
40
0
40
0.283961457856582
40
0.283961457856582
40
0.570284934646613
40
0.570284934646613
40
0.829450869060449
40
0.829450869060449
40
1
40
1
40
1
40
1
41
1
10
53.5391346078147
20
0.281837412137918
30
0
41
1
10
53.506775123635
20
0.273069432466173
30
0
41
1
10
53.4749432487876
20
0.258311308216634
30
0
41
1
10
53.4178862914263
20
0.217815543961137
30
0
41
1
10
53.3918709220879
20
0.191309493317249
30
0
41
1
10
53.3533981754779
20
0.132933226223571
30
0
41
1
10
53.3393584772187
20
0.10089560261784
30
0
41
1
10
53.326205731979
20
0.0456420108857856
30
0
41
1
10
53.3235
20
0.0227296608030656
30
0
41
1
10
53.3235
20
7.4749E-12
30
0
0
SPLINE
5
CF
100
AcDbEntity
8
1
62
256
6
ByLayer
370
-1
48
1
60
0
100
AcDbSpline
70
4
71
3
72
18
73
14
40
0
40
0
40
0
40
0
40
0.212491592102413
40
0.212491592102413
40
0.386618191488474
40
0.386618191488474
40
0.56242629505081
40
0.56242629505081
40
0.715388354469456
40
0.715388354469456
40
0.918249128147158
40
0.918249128147158
40
1
40
1
40
1
40
1
41
1
10
56.4608653921853
20
-0.281837412122968
30
0
41
1
10
56.3923622765154
20
-0.300398706929428
30
0
41
1
10
56.3244718307194
20
-0.330381808903127
30
0
41
1
10
56.2106957340066
20
-0.405596523644164
30
0
41
1
10
56.1618552932208
20
-0.448080643410634
30
0
41
1
10
56.0773415786699
20
-0.546545944405011
30
0
41
1
10
56.0406915357823
20
-0.604236286885936
30
0
41
1
10
55.9904602172058
20
-0.716703910705121
30
0
41
1
10
55.9738211448525
20
-0.772190714029989
30
0
41
1
10
55.9518539899321
20
-0.898862337751439
30
0
41
1
10
55.9513624544236
20
-0.971419161552916
30
0
41
1
10
55.9649038860688
20
-1.06750657273707
30
0
41
1
10
55.9705014003797
20
-1.09484444569196
30
0
41
1
10
55.9776444677088
20
-1.12150404176839
30
0
0
SPLINE
5
D0
100
AcDbEntity
8
1
62
256
6
ByLayer
370
-1
48
1
60
0
100
AcDbSpline
70
4
71
3
72
14
73
10
40
0
40
0
40
0
40
0
40
0.283961457856594
40
0.283961457856594
40
0.570284934646624
40
0.570284934646624
40
0.82945086906047
40
0.82945086906047
40
1
40
1
40
1
40
1
41
1
10
56.4608653921853
20
-0.281837412122968
30
0
41
1
10
56.493224876365
20
-0.273069432451223
30
0
41
1
10
56.5250567512124
20
-0.258311308201684
30
0
41
1
10
56.5821137085737
20
-0.217815543946187
30
0
41
1
10
56.6081290779121
20
-0.191309493302299
30
0
41
1
10
56.6466018245221
20
-0.132933226208621
30
0
41
1
10
56.6606415227813
20
-0.10089560260289
30
0
41
1
10
56.673794268021
20
-0.0456420108708357
30
0
41
1
10
56.6765
20
-0.0227296607881158
30
0
41
1
10
56.6765
20
7.4749E-12
30
0
0
SPLINE
5
D1
100
AcDbEntity
8
1
62
256
6
ByLayer
370
-1
48
1
60
0
100
AcDbSpline
70
4
71
3
72
16
73
12
40
0
40
0
40
0
40
0
40
0.0569446172825117
40
0.0569446172825117
40
0.279906644834081
40
0.279906644834081
40
0.505321967306672
40
0.505321967306672
40
0.744915047128799
40
0.744915047128799
40
1
40
1
40
1
40
1
41
1
10
55.8422983036603
20
-1.44954676282941
30
0
41
1
10
55.8488895614923
20
-1.44571673441419
30
0
41
1
10
55.8553366747187
20
-1.44162442621365
30
0
41
1
10
55.8859636168391
20
-1.42045865074161
30
0
41
1
10
55.9079276670061
20
-1.39963106375407
30
0
41
1
10
55.9440076363933
20
-1.35336102379605
30
0
41
1
10
55.9585125540832
20
-1.32729536170811
30
0
41
1
10
55.9794368822212
20
-1.27206196333529
30
0
41
1
10
55.9855822003864
20
-1.24212170468567
30
0
41
1
10
55.9888529009894
20
-1.18170391694628
30
0
41
1
10
55.9854405212243
20
-1.15060073484716
30
0
41
1
10
55.9776444677088
20
-1.12150404176839
30
0
0
SPLINE
5
D2
100
AcDbEntity
8
1
62
256
6
ByLayer
370
-1
48
1
60
0
100
AcDbSpline
70
4
71
3
72
18
73
14
40
0
40
0
40
0
40
0
40
0.212491592102414
40
0.212491592102414
40
0.386618191488476
40
0.386618191488476
40
0.562426295050812
40
0.562426295050812
40
0.715388354469459
40
0.715388354469459
40
0.918249128147162
40
0.918249128147162
40
1
40
1
40
1
40
1
41
1
10
53.5391346078147
20
0.281837412137918
30
0
41
1
10
53.6076377234846
20
0.300398706944407
30
0
41
1
10
53.6755281692806
20
0.330381808918077
30
0
41
1
10
53.7893042659934
20
0.405596523659142
30
0
41
1
10
53.8381447067792
20
0.448080643425584
30
0
41
1
10
53.9226584213301
20
0.546545944419961
30
0
41
1
10
53.9593084642177
20
0.604236286900885
30
0
41
1
10
54.0095397827942
20
0.716703910720071
30
0
41
1
10
54.0261788551475
20
0.772190714044939
30
0
41
1
10
54.0481460100679
20
0.898862337766388
30
0
41
1
10
54.0486375455764
20
0.971419161567866
30
0
41
1
10
54.0350961139312
20
1.06750657275202
30
0
41
1
10
54.0294985996203
20
1.09484444570691
30
0
41
1
10
54.0223555322912
20
1.12150404178334
30
0
0
SPLINE
5
D3
100
AcDbEntity
8
SK1
62
256
6
ByLayer
370
-1
48
1
60
0
100
AcDbSpline
70
4
71
3
72
22
73
18
40
0
40
0
40
0
40
0
40
0.0394331151890913
40
0.0394331151890913
40
0.0795339708694828
40
0.0795339708694828
40
0.109637917244288
40
0.109637917244288
40
0.13957706301322
40
0.13957706301322
40
0.189266399657458
40
0.189266399657458
40
0.289571152403382
40
0.289571152403382
40
0.658284396834382
40
0.658284396834382
40
1
40
1
40
1
40
1
41
1
10
-0.394976888875291
20
-5.38678189578292
30
0
41
1
10
-0.415237014773382
20
-5.40399317028476
30
0
41
1
10
-0.437419275645468
20
-5.41977813092004
30
0
41
1
10
-0.486103141154984
20
-5.44521655864725
30
0
41
1
10
-0.51341298093098
20
-5.45496005292577
30
0
41
1
10
-0.562874322366525
20
-5.46212264681108
30
0
41
1
10
-0.585106616517606
20
-5.46199323188387
30
0
41
1
10
-0.627692822126718
20
-5.45533455005088
30
0
41
1
10
-0.648523068172736
20
-5.44883772858989
30
0
41
1
10
-0.699826196362139
20
-5.42613682765011
30
0
41
1
10
-0.728695564403452
20
-5.40623396070797
30
0
41
1
10
-0.806075449923839
20
-5.34007786619352
30
0
41
1
10
-0.847522380016557
20
-5.28655870152033
30
0
41
1
10
-1.01570466784385
20
-5.03084699030373
30
0
41
1
10
-1.09210771407481
20
-4.80149729085085
30
0
41
1
10
-1.21929875138234
20
-4.35887826398974
30
0
41
1
10
-1.26692602208389
20
-4.13998960128646
30
0
41
1
10
-1.30710678118655
20
-3.91806548057696
30
0
0
SPLINE
5
D4
100
AcDbEntity
8
1
62
256
6
ByLayer
370
-1
48
1
60
0
100
AcDbSpline
70
4
71
3
72
12
73
8
40
0
40
0
40
0
40
0
40
0.495785575728972
40
0.495785575728972
40
0.900238279923947
40
0.900238279923947
40
1
40
1
40
1
40
1
41
1
10
55.487910977364
20
-1.40233678764261
30
0
41
1
10
55.4377736049687
20
-1.35160801294913
30
0
41
1
10
55.3779290117278
20
-1.3071233514456
30
0
41
1
10
55.2560162887576
20
-1.24516073116766
30
0
41
1
10
55.1949462341845
20
-1.22366365062788
30
0
41
1
10
55.1155172566204
20
-1.20816202595745
30
0
41
1
10
55.0994242804515
20
-1.20560657988617
30
0
41
1
10
55.0832217365173
20
-1.20362635088844
30
0
0
SPLINE
5
D5
100
AcDbEntity
8
1
62
256
6
ByLayer
370
-1
48
1
60
0
100
AcDbSpline
70
4
71
3
72
16
73
12
40
0
40
0
40
0
40
0
40
0.0569446172824893
40
0.0569446172824893
40
0.279906644834048
40
0.279906644834048
40
0.505321967306648
40
0.505321967306648
40
0.744915047128762
40
0.744915047128762
40
1
40
1
40
1
40
1
41
1
10
54.1577016963397
20
1.44954676284439
30
0
41
1
10
54.1511104385077
20
1.44571673442914
30
0
41
1
10
54.1446633252813
20
1.4416244262286
30
0
41
1
10
54.1140363831609
20
1.42045865075656
30
0
41
1
10
54.0920723329939
20
1.39963106376905
30
0
41
1
10
54.0559923636067
20
1.353361023811
30
0
41
1
10
54.0414874459168
20
1.32729536172306
30
0
41
1
10
54.0205631177788
20
1.27206196335027
30
0
41
1
10
54.0144177996136
20
1.24212170470065
30
0
41
1
10
54.0111470990106
20
1.18170391696125
30
0
41
1
10
54.0145594787757
20
1.15060073486211
30
0
41
1
10
54.0223555322912
20
1.12150404178331
30
0
0
SPLINE
5
D6
100
AcDbEntity
8
1
62
256
6
ByLayer
370
-1
48
1
60
0
100
AcDbSpline
70
4
71
3
72
14
73
10
40
0
40
0
40
0
40
0
40
0.283961749036715
40
0.283961749036715
40
0.570285189259027
40
0.570285189259027
40
0.829451094335685
40
0.829451094335685
40
1
40
1
40
1
40
1
41
1
10
54.0223555322912
20
-1.12150404176836
30
0
41
1
10
54.013678671596
20
-1.15388811302105
30
0
41
1
10
54.0104461401964
20
-1.18882554195145
30
0
41
1
10
54.0167936345158
20
-1.25850421460655
30
0
41
1
10
54.0266409822431
20
-1.29431482283445
30
0
41
1
10
54.0577854086303
20
-1.35690846986282
30
0
41
1
10
54.0784322513996
20
-1.38514373352581
30
0
41
1
10
54.1195978406633
20
-1.42427613242427
30
0
41
1
10
54.1380490492359
20
-1.43812706134594
30
0
41
1
10
54.1577016963397
20
-1.44954676282944
30
0
0
SPLINE
5
D7
100
AcDbEntity
8
1
62
256
6
ByLayer
370
-1
48
1
60
0
100
AcDbSpline
70
4
71
3
72
18
73
14
40
0
40
0
40
0
40
0
40
0.212491695755303
40
0.212491695755303
40
0.386618276853806
40
0.386618276853806
40
0.562426360907935
40
0.562426360907935
40
0.715388416645936
40
0.715388416645936
40
0.918249208689858
40
0.918249208689858
40
1
40
1
40
1
40
1
41
1
10
55.9776444677088
20
1.12150404178334
30
0
41
1
10
55.9592760761901
20
1.05294891330632
30
0
41
1
10
55.9510911091532
20
0.979185025519058
30
0
41
1
10
55.9589610008539
20
0.843022153380275
30
0
41
1
10
55.9711557594437
20
0.77944876008857
30
0
41
1
10
56.0138305716229
20
0.656905539538627
30
0
41
1
10
56.0452976683393
20
0.596232464329546
30
0
41
1
10
56.1173032363391
20
0.496295746411192
30
0
41
1
10
56.1569188988895
20
0.454031777752675
30
0
41
1
10
56.2554059624804
20
0.371396705699084
30
0
41
1
10
56.317893587529
20
0.334518098066042
30
0
41
1
10
56.407776731918
20
0.297950670808348
30
0
41
1
10
56.4342260360797
20
0.289055491743454
30
0
41
1
10
56.4608653921853
20
0.281837412137918
30
0
0
SPLINE
5
D8
100
AcDbEntity
8
1
62
256
6
ByLayer
370
-1
48
1
60
0
100
AcDbSpline
70
4
71
3
72
16
73
12
40
0
40
0
40
0
40
0
40
0.0624450082614115
40
0.0624450082614115
40
0.283207995985764
40
0.283207995985764
40
0.506745688833495
40
0.506745688833495
40
0.744607284736925
40
0.744607284736925
40
1
40
1
40
1
40
1
41
1
10
55.8422983036603
20
1.44954676284439
30
0
41
1
10
55.8350063168154
20
1.45378396878158
30
0
41
1
10
55.8275219054686
20
1.45770925195313
30
0
41
1
10
55.79311937228
20
1.47389408654345
30
0
41
1
10
55.7641051359831
20
1.48241558863609
30
0
41
1
10
55.7059936615192
20
1.49038000158893
30
0
41
1
10
55.6761635434263
20
1.48983232118658
30
0
41
1
10
55.6178527076446
20
1.48018142672561
30
0
41
1
10
55.5888454989234
20
1.47044293261126
30
0
41
1
10
55.534675357999
20
1.44276136964194
30
0
41
1
10
55.5092846144057
20
1.42396254038587
30
0
41
1
10
55.487910977364
20
1.40233678765756
30
0
0
SPLINE
5
D9
100
AcDbEntity
8
1
62
256
6
ByLayer
370
-1
48
1
60
0
100
AcDbSpline
70
4
71
3
72
16
73
12
40
0
40
0
40
0
40
0
40
0.0630415689509317
40
0.0630415689509317
40
0.285914332024963
40
0.285914332024963
40
0.511588305408878
40
0.511588305408878
40
0.751723061839346
40
0.751723061839346
40
1
40
1
40
1
40
1
41
1
10
56.6765
20
7.4749E-12
30
0
41
1
10
56.6765
20
0.0084336538403704
30
0
41
1
10
56.6761336287486
20
0.0168769683579058
30
0
41
1
10
56.6728431434152
20
0.0547537924389871
30
0
41
1
10
56.665633890411
20
0.0841216087780197
30
0
41
1
10
56.643324088693
20
0.138367789850804
30
0
41
1
10
56.62786346592
20
0.1638845496513
30
0
41
1
10
56.5902228348199
20
0.209452916509264
30
0
41
1
10
56.5672290297802
20
0.229640568260635
30
0
41
1
10
56.5170396182034
20
0.261951448655139
30
0
41
1
10
56.4891787135168
20
0.274165762475775
30
0
41
1
10
56.4608653921853
20
0.281837412137918
30
0
0
SPLINE
5
DA
100
AcDbEntity
8
SK1
62
256
6
ByLayer
370
-1
48
1
60
0
100
AcDbSpline
70
4
71
3
72
24
73
20
40
0
40
0
40
0
40
0
40
0.469770575826712
40
0.469770575826712
40
0.663612078687295
40
0.663612078687295
40
0.860454184613411
40
0.860454184613411
40
0.903064590395674
40
0.903064590395674
40
0.923089343972159
40
0.923089343972159
40
0.943389594779288
40
0.943389594779288
40
0.961332284531898
40
0.961332284531898
40
0.988068136377815
40
0.988068136377815
40
1
40
1
40
1
40
1
41
1
10
-0.199999999999989
20
-6.10344849123027
30
0
41
1
10
-0.199999999999989
20
-5.97798788494984
30
0
41
1
10
-0.204016575726513
20
-5.8509635670122
30
0
41
1
10
-0.223752631922082
20
-5.67079358995508
30
0
41
1
10
-0.231244965282215
20
-5.61789623093799
30
0
41
1
10
-0.253819137983143
20
-5.51250015101135
30
0
41
1
10
-0.267096215270385
20
-5.45724004647028
30
0
41
1
10
-0.303692478692526
20
-5.40035311573845
30
0
41
1
10
-0.311479622041318
20
-5.39039941672755
30
0
41
1
10
-0.325477757614365
20
-5.37891036834915
30
0
41
1
10
-0.330455622185014
20
-5.3756771312581
30
0
41
1
10
-0.341078704143143
20
-5.37102422840917
30
0
41
1
10
-0.346883276538151
20
-5.36960762575521
30
0
41
1
10
-0.357630415747778
20
-5.36914354197148
30
0
41
1
10
-0.362713068049587
20
-5.36981917830482
30
0
41
1
10
-0.374583401808834
20
-5.37316903610403
30
0
41
1
10
-0.3812109954861
20
-5.37664910167555
30
0
41
1
10
-0.38989246528871
20
-5.38265091141974
30
0
41
1
10
-0.392483363308571
20
-5.38466360919151
30
0
41
1
10
-0.394976888875334
20
-5.38678189578178
30
0
0
SPLINE
5
DB
100
AcDbEntity
8
1
62
256
6
ByLayer
370
-1
48
1
60
0
100
AcDbSpline
70
4
71
3
72
12
73
8
40
0
40
0
40
0
40
0
40
0.495785575728979
40
0.495785575728979
40
0.900238279923949
40
0.900238279923949
40
1
40
1
40
1
40
1
41
1
10
54.512089022636
20
1.40233678765756
30
0
41
1
10
54.5622263950313
20
1.35160801296408
30
0
41
1
10
54.6220709882722
20
1.30712335146055
30
0
41
1
10
54.7439837112424
20
1.24516073118261
30
0
41
1
10
54.8050537658155
20
1.22366365064283
30
0
41
1
10
54.8844827433796
20
1.2081620259724
30
0
41
1
10
54.9005757195485
20
1.20560657990112
30
0
41
1
10
54.9167782634827
20
1.20362635090339
30
0
0
SPLINE
5
DC
100
AcDbEntity
8
SK1
62
256
6
ByLayer
370
-1
48
1
60
0
100
AcDbSpline
70
4
71
3
72
22
73
18
40
0
40
0
40
0
40
0
40
0.0260455644157247
40
0.0260455644157247
40
0.0526262165848557
40
0.0526262165848557
40
0.0706056579866928
40
0.0706056579866928
40
0.0884949509195805
40
0.0884949509195805
40
0.11748921873202
40
0.11748921873202
40
0.17459086731972
40
0.17459086731972
40
0.37652425293745
40
0.37652425293745
40
1
40
1
40
1
40
1
41
1
10
-0.394976888872947
20
5.38678223324206
30
0
41
1
10
-0.389612432086423
20
5.38222504185003
30
0
41
1
10
-0.383763200778972
20
5.37811700449893
30
0
41
1
10
-0.370972888875414
20
5.37184824531644
30
0
41
1
10
-0.363785592650899
20
5.36968256852501
30
0
41
1
10
-0.351475656346565
20
5.3691458249703
30
0
41
1
10
-0.346317238365032
20
5.36979468027801
30
0
41
1
10
-0.336550133197363
20
5.3727304206256
30
0
41
1
10
-0.33182986596411
20
5.3750241182685
30
0
41
1
10
-0.320511111438336
20
5.38234306083376
30
0
41
1
10
-0.31432144813617
20
5.3882440687963
30
0
41
1
10
-0.298260159254525
20
5.40702817233921
30
0
41
1
10
-0.290032841564667
20
5.42147709180324
30
0
41
1
10
-0.258449669573651
20
5.48745345024415
30
0
41
1
10
-0.24608390551893
20
5.5434138926733
30
0
41
1
10
-0.204764795451908
20
5.7670899064446
30
0
41
1
10
-0.200000000000358
20
5.93709576978202
30
0
41
1
10
-0.200000000000358
20
6.10344667966001
30
0
0
SPLINE
5
DD
100
AcDbEntity
8
1
62
256
6
ByLayer
370
-1
48
1
60
0
100
AcDbSpline
70
4
71
3
72
14
73
10
40
0
40
0
40
0
40
0
40
0.283961749036708
40
0.283961749036708
40
0.570285189259024
40
0.570285189259024
40
0.829451094335683
40
0.829451094335683
40
1
40
1
40
1
40
1
41
1
10
55.9776444677088
20
1.12150404178334
30
0
41
1
10
55.986321328404
20
1.153888113036
30
0
41
1
10
55.9895538598036
20
1.18882554196639
30
0
41
1
10
55.9832063654842
20
1.2585042146215
30
0
41
1
10
55.9733590177569
20
1.29431482284943
30
0
41
1
10
55.9422145913697
20
1.35690846987777
30
0
41
1
10
55.9215677486004
20
1.38514373354076
30
0
41
1
10
55.8804021593366
20
1.42427613243922
30
0
41
1
10
55.8619509507641
20
1.43812706136089
30
0
41
1
10
55.8422983036603
20
1.44954676284439
30
0
0
SPLINE
5
DE
100
AcDbEntity
8
1
62
256
6
ByLayer
370
-1
48
1
60
0
100
AcDbSpline
70
4
71
3
72
14
73
10
40
0
40
0
40
0
40
0
40
0.282169922576108
40
0.282169922576108
40
0.566902245317974
40
0.566902245317974
40
0.824523972080291
40
0.824523972080291
40
1
40
1
40
1
40
1
41
1
10
55.487910977364
20
-1.40233678764261
30
0
41
1
10
55.5115244571323
20
-1.42622880347167
30
0
41
1
10
55.5401026284028
20
-1.44669095397745
30
0
41
1
10
55.6035965926973
20
-1.47642759951373
30
0
41
1
10
55.6395792167897
20
-1.48600316006528
30
0
41
1
10
55.7095157677035
20
-1.49063981765283
30
0
41
1
10
55.744398704828
20
-1.48700486816603
30
0
41
1
10
55.7998418421506
20
-1.47083834362138
30
0
41
1
10
55.821892108885
20
-1.4614043335433
30
0
41
1
10
55.8422983036603
20
-1.44954676282941
30
0
0
INSERT
5
112
100
AcDbEntity
8
2
62
256
6
ByLayer
370
-1
48
1
60
0
100
AcDbBlockReference
2
DimnDraft3D11
10
0
20
0
30
0
41
1
42
1
43
1
50
0
210
0
220
0
230
1
0
LINE
5
4E
100
AcDbEntity
8
1
62
256
6
ByLayer
370
-1
48
1
60
0
100
AcDbLine
10
19.208253
20
2
30
0
11
16.500163
21
2
31
0
39
0
210
0
220
0
230
1
0
LINE
5
50
100
AcDbEntity
8
1
62
256
6
ByLayer
370
-1
48
1
60
0
100
AcDbLine
10
16.500163
20
-2
30
0
11
19.208253
21
-2
31
0
39
0
210
0
220
0
230
1
0
LINE
5
51
100
AcDbEntity
8
1
62
256
6
ByLayer
370
-1
48
1
60
0
100
AcDbLine
10
19.282432
20
-1.961852
30
0
11
19.47134
21
-1.765667
31
0
39
0
210
0
220
0
230
1
0
LINE
5
52
100
AcDbEntity
8
1
62
256
6
ByLayer
370
-1
48
1
60
0
100
AcDbLine
10
19.47134
20
1.765667
30
0
11
19.282432
21
1.961852
31
0
39
0
210
0
220
0
230
1
0
LINE
5
53
100
AcDbEntity
8
1
62
256
6
ByLayer
370
-1
48
1
60
0
100
AcDbLine
10
0.3
20
-25
30
0
11
19.3
21
-25
31
0
39
0
210
0
220
0
230
1
0
LINE
5
54
100
AcDbEntity
8
1
62
256
6
ByLayer
370
-1
48
1
60
0
100
AcDbLine
10
19.3
20
25
30
0
11
0.3
21
25
31
0
39
0
210
0
220
0
230
1
0
LINE
5
55
100
AcDbEntity
8
1
62
256
6
ByLayer
370
-1
48
1
60
0
100
AcDbLine
10
0.3
20
25
30
0
11
0
21
24.7
31
0
39
0
210
0
220
0
230
1
0
LINE
5
56
100
AcDbEntity
8
1
62
256
6
ByLayer
370
-1
48
1
60
0
100
AcDbLine
10
0
20
-24.7
30
0
11
0.3
21
-25
31
0
39
0
210
0
220
0
230
1
0
LINE
5
57
100
AcDbEntity
8
80
62
256
6
ByLayer
370
-1
48
1
60
0
100
AcDbLine
10
0
20
0
30
0
11
-5
21
0
31
0
39
0
210
0
220
0
230
1
0
LINE
5
58
100
AcDbEntity
8
SK4
62
256
6
ByLayer
370
-1
48
0.05
60
0
100
AcDbLine
10
-35
20
0
30
0
11
60
21
0
31
0
39
0
210
0
220
0
230
1
0
LINE
5
5A
100
AcDbEntity
8
81
62
256
6
ByLayer
370
-1
48
1
60
0
100
AcDbLine
10
60
20
5
30
0
11
70
21
5
31
0
39
0
210
0
220
0
230
1
0
LINE
5
5B
100
AcDbEntity
8
4
62
256
6
ByLayer
370
-1
48
0.05
60
0
100
AcDbLine
10
0
20
0
30
0
11
60
21
0
31
0
39
0
210
0
220
0
230
1
0
LINE
5
5D
100
AcDbEntity
8
1
62
256
6
ByLayer
370
-1
48
1
60
0
100
AcDbLine
10
51.695888
20
3.752717
30
0
11
51.695888
21
4.2
31
0
39
0
210
0
220
0
230
1
0
LINE
5
5E
100
AcDbEntity
8
1
62
256
6
ByLayer
370
-1
48
1
60
0
100
AcDbLine
10
8.105662
20
8.055848
30
0
11
8.105662
21
23.666502
31
0
39
0
210
0
220
0
230
1
0
LINE
5
5F
100
AcDbEntity
8
1
62
256
6
ByLayer
370
-1
48
1
60
0
100
AcDbLine
10
52.25
20
-4.2
30
0
11
52.287084
21
-4.2
31
0
39
0
210
0
220
0
230
1
0
LINE
5
60
100
AcDbEntity
8
1
62
256
6
ByLayer
370
-1
48
1
60
0
100
AcDbLine
10
36.9
20
-4.2
30
0
11
51.695888
21
-4.2
31
0
39
0
210
0
220
0
230
1
0
LINE
5
61
100
AcDbEntity
8
1
62
256
6
ByLayer
370
-1
48
1
60
0
100
AcDbLine
10
11.894338
20
-23.666502
30
0
11
11.894338
21
-8.055848
31
0
39
0
210
0
220
0
230
1
0
LINE
5
62
100
AcDbEntity
8
1
62
256
6
ByLayer
370
-1
48
1
60
0
100
AcDbLine
10
52.25
20
4.175815
30
0
11
52.25
21
4.2
31
0
39
0
210
0
220
0
230
1
0
LINE
5
63
100
AcDbEntity
8
1
62
256
6
ByLayer
370
-1
48
1
60
0
100
AcDbLine
10
8.538675
20
7.529667
30
0
11
11.461325
21
7.529667
31
0
39
0
210
0
220
0
230
1
0
LINE
5
64
100
AcDbEntity
8
1
62
256
6
ByLayer
370
-1
48
1
60
0
100
AcDbLine
10
51.695888
20
4.2
30
0
11
36.9
21
4.2
31
0
39
0
210
0
220
0
230
1
0
LINE
5
65
100
AcDbEntity
8
1
62
256
6
ByLayer
370
-1
48
1
60
0
100
AcDbLine
10
51.695888
20
-4.2
30
0
11
52
21
-4.2
31
0
39
0
210
0
220
0
230
1
0
LINE
5
66
100
AcDbEntity
8
1
62
256
6
ByLayer
370
-1
48
1
60
0
100
AcDbLine
10
19.304395
20
-24.994139
30
0
11
21.887974
21
-21.549368
31
0
39
0
210
0
220
0
230
1
0
LINE
5
67
100
AcDbEntity
8
1
62
256
6
ByLayer
370
-1
48
1
60
0
100
AcDbLine
10
52
20
4.2
30
0
11
51.695888
21
4.2
31
0
39
0
210
0
220
0
230
1
0
LINE
5
68
100
AcDbEntity
8
1
62
256
6
ByLayer
370
-1
48
1
60
0
100
AcDbLine
10
52
20
4.2
30
0
11
52
21
3.999991
31
0
39
0
210
0
220
0
230
1
0
LINE
5
69
100
AcDbEntity
8
1
62
256
6
ByLayer
370
-1
48
1
60
0
100
AcDbLine
10
52.25
20
-4.2
30
0
11
52
21
-4.2
31
0
39
0
210
0
220
0
230
1
0
LINE
5
6A
100
AcDbEntity
8
1
62
256
6
ByLayer
370
-1
48
1
60
0
100
AcDbLine
10
8.538675
20
-23.83913
30
0
11
8.538675
21
-7.529667
31
0
39
0
210
0
220
0
230
1
0
LINE
5
6B
100
AcDbEntity
8
1
62
256
6
ByLayer
370
-1
48
1
60
0
100
AcDbLine
10
0.3
20
-25
30
0
11
0.3
21
25
31
0
39
0
210
0
220
0
230
1
0
LINE
5
6C
100
AcDbEntity
8
1
62
256
6
ByLayer
370
-1
48
1
60
0
100
AcDbLine
10
11.461325
20
7.529667
30
0
11
11.461325
21
23.83913
31
0
39
0
210
0
220
0
230
1
0
LINE
5
6D
100
AcDbEntity
8
1
62
256
6
ByLayer
370
-1
48
1
60
0
100
AcDbLine
10
19.3
20
-25
30
0
11
19.304395
21
-24.994139
31
0
39
0
210
0
220
0
230
1
0
LINE
5
6E
100
AcDbEntity
8
1
62
256
6
ByLayer
370
-1
48
1
60
0
100
AcDbLine
10
51.695888
20
-4.2
30
0
11
51.695888
21
-3.752717
31
0
39
0
210
0
220
0
230
1
0
LINE
5
6F
100
AcDbEntity
8
1
62
256
6
ByLayer
370
-1
48
1
60
0
100
AcDbLine
10
11.461325
20
-7.529667
30
0
11
8.538675
21
-7.529667
31
0
39
0
210
0
220
0
230
1
0
LINE
5
70
100
AcDbEntity
8
1
62
256
6
ByLayer
370
-1
48
1
60
0
100
AcDbLine
10
19.304395
20
24.994139
30
0
11
19.3
21
25
31
0
39
0
210
0
220
0
230
1
0
LINE
5
71
100
AcDbEntity
8
1
62
256
6
ByLayer
370
-1
48
1
60
0
100
AcDbLine
10
33.7
20
5.8
30
0
11
21.887974
21
21.549368
31
0
39
0
210
0
220
0
230
1
0
LINE
5
72
100
AcDbEntity
8
1
62
256
6
ByLayer
370
-1
48
1
60
0
100
AcDbLine
10
8.538675
20
7.529667
30
0
11
8.538675
21
23.83913
31
0
39
0
210
0
220
0
230
1
0
LINE
5
73
100
AcDbEntity
8
1
62
256
6
ByLayer
370
-1
48
1
60
0
100
AcDbLine
10
52
20
4.2
30
0
11
52.25
21
4.2
31
0
39
0
210
0
220
0
230
1
0
LINE
5
74
100
AcDbEntity
8
1
62
256
6
ByLayer
370
-1
48
1
60
0
100
AcDbLine
10
21.887974
20
21.549368
30
0
11
21.887974
21
-21.549368
31
0
39
0
210
0
220
0
230
1
0
LINE
5
75
100
AcDbEntity
8
1
62
256
6
ByLayer
370
-1
48
1
60
0
100
AcDbLine
10
11.894338
20
8.055848
30
0
11
11.894338
21
23.666502
31
0
39
0
210
0
220
0
230
1
0
LINE
5
76
100
AcDbEntity
8
1
62
256
6
ByLayer
370
-1
48
1
60
0
100
AcDbLine
10
11.461325
20
-23.83913
30
0
11
11.461325
21
-7.529667
31
0
39
0
210
0
220
0
230
1
0
LINE
5
77
100
AcDbEntity
8
1
62
256
6
ByLayer
370
-1
48
1
60
0
100
AcDbLine
10
52.287084
20
4.2
30
0
11
52.25
21
4.2
31
0
39
0
210
0
220
0
230
1
0
LINE
5
78
100
AcDbEntity
8
1
62
256
6
ByLayer
370
-1
48
1
60
0
100
AcDbLine
10
0
20
-24.7
30
0
11
0
21
24.7
31
0
39
0
210
0
220
0
230
1
0
LINE
5
79
100
AcDbEntity
8
1
62
256
6
ByLayer
370
-1
48
1
60
0
100
AcDbLine
10
21.887974
20
21.549368
30
0
11
19.304395
21
24.994139
31
0
39
0
210
0
220
0
230
1
0
LINE
5
7A
100
AcDbEntity
8
1
62
256
6
ByLayer
370
-1
48
1
60
0
100
AcDbLine
10
8.538675
20
-23.83913
30
0
11
11.461325
21
-23.83913
31
0
39
0
210
0
220
0
230
1
0
LINE
5
7B
100
AcDbEntity
8
1
62
256
6
ByLayer
370
-1
48
1
60
0
100
AcDbLine
10
8.105662
20
-23.666502
30
0
11
8.105662
21
-8.055848
31
0
39
0
210
0
220
0
230
1
0
LINE
5
7C
100
AcDbEntity
8
1
62
256
6
ByLayer
370
-1
48
1
60
0
100
AcDbLine
10
52.25
20
-4.2
30
0
11
52.25
21
-4.175815
31
0
39
0
210
0
220
0
230
1
0
LINE
5
7D
100
AcDbEntity
8
1
62
256
6
ByLayer
370
-1
48
1
60
0
100
AcDbLine
10
17.903195
20
24.788325
30
0
11
17.903195
21
1.999333
31
0
39
0
210
0
220
0
230
1
0
LINE
5
7E
100
AcDbEntity
8
1
62
256
6
ByLayer
370
-1
48
1
60
0
100
AcDbLine
10
17.903195
20
-1.999333
30
0
11
17.903195
21
-24.788325
31
0
39
0
210
0
220
0
230
1
0
LINE
5
7F
100
AcDbEntity
8
1
62
256
6
ByLayer
370
-1
48
1
60
0
100
AcDbLine
10
21.887974
20
-21.549368
30
0
11
33.7
21
-5.8
31
0
39
0
210
0
220
0
230
1
0
LINE
5
80
100
AcDbEntity
8
1
62
256
6
ByLayer
370
-1
48
1
60
0
100
AcDbLine
10
11.461325
20
23.83913
30
0
11
8.538675
21
23.83913
31
0
39
0
210
0
220
0
230
1
0
LINE
5
81
100
AcDbEntity
8
1
62
256
6
ByLayer
370
-1
48
1
60
0
100
AcDbLine
10
52
20
-3.999991
30
0
11
52
21
-4.2
31
0
39
0
210
0
220
0
230
1
0
LINE
5
82
100
AcDbEntity
8
SK1
62
256
6
ByLayer
370
-1
48
1
60
0
100
AcDbLine
10
-0.2
20
6.103447
30
0
11
-0.2
21
17.833485
31
0
39
0
210
0
220
0
230
1
0
LINE
5
84
100
AcDbEntity
8
SK1
62
256
6
ByLayer
370
-1
48
1
60
0
100
AcDbLine
10
-0.2
20
-17.833485
30
0
11
-0.2
21
-6.103448
31
0
39
0
210
0
220
0
230
1
0
LINE
5
85
100
AcDbEntity
8
SK1
62
256
6
ByLayer
370
-1
48
1
60
0
100
AcDbLine
10
-1.307107
20
-3.918065
30
0
11
-1.307107
21
3.918065
31
0
39
0
210
0
220
0
230
1
0
MTEXT
5
DF
100
AcDbEntity
8
SK6
62
256
6
ByLayer
370
-1
48
1
60
0
100
AcDbMText
10
20.811852
20
-36.28641
30
0
210
0
220
0
230
1
1
\W00.733;\fsimplex.shx,bigfont.shx;C5-SRDCN-00060-10A 
40
3.5
41
0
44
1.084337
50
0
71
7
72
5
7
DEFAULT
0
DIMENSION
5
120
100
AcDbEntity
8
SK2
62
256
6
ByLayer
370
-3
48
1
60
0
100
AcDbDimension
2
DimnDraft3D2
10
-39.75
20
25
30
0
11
-39.75
21
-4.784211
31
0
70
32
71
5
72
1
41
1
210
0
220
0
230
1
3
Standard
100
AcDbAlignedDimension
13
-2
23
-25
33
0
14
-2
24
25
34
0
50
90
100
AcDbRotatedDimension
1001
ACAD
1000
DSTYLE
1002
{
1070
    74
1070
     0
1070
   279
1070
     0
1070
   172
1070
     1
1070
   173
1070
     1
1070
   340
1005
E0
1070
    77
1070
     1
1070
    73
1070
     0
1070
   171
1070
     3
1070
   274
1070
     4
1070
   177
1070
     2
1070
   176
1070
     2
1070
   178
1070
     7
1070
    78
1070
     8
1070
    41
1041
3.175
1070
   147
1041
2.25
1070
    42
1041
2.0
1070
    44
1041
2.0
1070
   140
1041
4.5
1070
   343
1005
121
1070
   344
1005
121
1002
}
0
DIMENSION
5
135
100
AcDbEntity
8
2
62
256
6
ByLayer
370
-3
48
1
60
0
100
AcDbDimension
2
DimnDraft3D3
10
60
20
39.75
30
0
11
27.371053
21
39.75
31
0
70
32
71
5
72
1
41
1
210
0
220
0
230
1
3
Standard
100
AcDbAlignedDimension
13
0
23
27
33
0
14
60
24
7
34
0
50
0
100
AcDbRotatedDimension
1001
ACAD
1000
DSTYLE
1002
{
1070
   279
1070
     0
1070
   172
1070
     1
1070
   173
1070
     1
1070
   340
1005
E0
1070
    77
1070
     1
1070
    73
1070
     0
1070
   171
1070
     3
1070
   274
1070
     4
1070
   177
1070
     2
1070
   176
1070
     2
1070
   178
1070
     7
1070
    78
1070
     8
1070
    41
1041
3.175
1070
   147
1041
2.25
1070
    42
1041
2.0
1070
    44
1041
2.0
1070
   140
1041
4.5
1070
   343
1005
121
1070
   344
1005
121
1002
}
0
DIMENSION
5
143
100
AcDbEntity
8
2
62
256
6
ByLayer
370
-3
48
1
60
0
100
AcDbDimension
2
DimnDraft3D4
10
35
20
-17.25
30
0
11
44.871053
21
-17.25
31
0
70
32
71
5
72
1
41
1
210
0
220
0
230
1
3
Standard
100
AcDbAlignedDimension
13
60
23
-7
33
0
14
35
24
-7
34
0
50
0
100
AcDbRotatedDimension
1001
ACAD
1000
DSTYLE
1002
{
1070
   279
1070
     0
1070
   172
1070
     1
1070
   173
1070
     1
1070
   340
1005
E0
1070
    77
1070
     1
1070
    73
1070
     0
1070
   171
1070
     3
1070
   274
1070
     4
1070
   177
1070
     2
1070
   176
1070
     2
1070
   178
1070
     7
1070
    78
1070
     8
1070
    41
1041
3.175
1070
   147
1041
2.25
1070
    42
1041
2.0
1070
    44
1041
2.0
1070
   140
1041
4.5
1070
   343
1005
121
1070
   344
1005
121
1002
}
0
ENDSEC
0
SECTION
2
OBJECTS
0
DICTIONARY
5
174
330
0
100
AcDbDictionary
280
0
281
1
3
ACAD_GROUP
350
175
3
ACAD_MLINESTYLE
350
176
0
DICTIONARY
5
175
330
0
100
AcDbDictionary
280
0
281
1
0
DICTIONARY
5
176
330
0
100
AcDbDictionary
280
0
281
1
3
Standard
350
18
0
MLINESTYLE
5
18
330
176
100
AcDbMlineStyle
2
Standard
70
0
3

62
256
51
90
52
90
71
2
49
-0.5
62
256
6
ByLayer
49
0.5
62
256
6
ByLayer
0
RASTERVARIABLES
5
162
330

100
AcDbRasterVariables
90
0
70
1
71
1
72
1
0
ENDSEC
0
EOF
