0
SECTION
2
HEADER
9
$ACADVER
1
AC1015
9
$DWGCODEPAGE
3
ANSI_1252
9
$HANDSEED
5
265
9
$ANGBASE
50
0
9
$ANGDIR
70
0
9
$ATTMODE
70
1
9
$AUNITS
70
0
9
$AUPREC
70
0
9
$CECOLOR
62
256
9
$CELTSCALE
40
1
9
$CELTYPE
6
ByLayer
9
$CELWEIGHT
370
18
9
$CLAYER
8
0
9
$CMLJUST
70
0
9
$CMLSCALE
40
1
9
$CMLSTYLE
2
Standard
9
$DIMSTYLE
2
Standard
9
$TEXTSIZE
40
0.2
9
$TEXTSTYLE
7
Standard
9
$LUNITS
70
2
9
$LUPREC
70
4
9
$EXTNAMES
290
1
9
$INSUNITS
70
4
9
$LTSCALE
40
1
9
$LWDISPLAY
290
1
9
$PDMODE
70
0
9
$PDSIZE
40
0
9
$PLINEGEN
70
0
0
ENDSEC
0
SECTION
2
CLASSES
0
CLASS
1
RASTERVARIABLES
2
AcDbRasterVariables
3
ISM
90
0
280
0
281
0
0
ENDSEC
0
SECTION
2
TABLES
0
TABLE
2
VPORT
5
25b
100
AcDbSymbolTable
0
VPORT
5
1
100
AcDbSymbolTableRecord
100
AcDbViewportTableRecord
2
*Active
70
0
10
0
20
0
11
1
21
1
12
-1
22
1
13
0
23
0
14
0.5
24
0.5
15
10
25
10
16
0
26
0
36
1
17
0
27
0
37
0
0
ENDTAB
0
TABLE
2
LTYPE
5
25c
100
AcDbSymbolTable
0
LTYPE
5
14
100
AcDbSymbolTableRecord
100
AcDbLinetypeTableRecord
70
0
2
ByBlock
3

72
65
73
0
40
0
0
LTYPE
5
15
100
AcDbSymbolTableRecord
100
AcDbLinetypeTableRecord
70
0
2
ByLayer
3

72
65
73
0
40
0
0
LTYPE
5
16
100
AcDbSymbolTableRecord
100
AcDbLinetypeTableRecord
70
0
2
CONTINUOUS
3
Solid line
72
65
73
0
40
0
0
LTYPE
5
6A
100
AcDbSymbolTableRecord
100
AcDbLinetypeTableRecord
70
0
2
CENTER
3
____ _ ____ _ ____ _ ____
72
65
73
4
40
47.5
49
22
74
0
49
-8.5
74
0
49
8.5
74
0
49
-8.5
74
0
0
LTYPE
5
6B
100
AcDbSymbolTableRecord
100
AcDbLinetypeTableRecord
70
0
2
DASHED
3
__ __ __ __ __ __ __ __ __
72
65
73
2
40
25.72
49
12.86
74
0
49
-12.86
74
0
0
ENDTAB
0
TABLE
2
LAYER
5
25d
100
AcDbSymbolTable
0
LAYER
5
10
100
AcDbSymbolTableRecord
100
AcDbLayerTableRecord
2
0
70
0
62
7
6
CONTINUOUS
290
1
370
-3
390
0
0
LAYER
5
6D
100
AcDbSymbolTableRecord
100
AcDbLayerTableRecord
2
1
70
0
62
4
6
CONTINUOUS
290
1
370
-3
390
0
0
LAYER
5
74
100
AcDbSymbolTableRecord
100
AcDbLayerTableRecord
2
80
70
0
62
-6
6
CONTINUOUS
290
1
370
-3
390
0
0
LAYER
5
76
100
AcDbSymbolTableRecord
100
AcDbLayerTableRecord
2
81
70
0
62
-3
6
CONTINUOUS
290
1
370
-3
390
0
0
LAYER
5
F2
100
AcDbSymbolTableRecord
100
AcDbLayerTableRecord
2
4
70
0
62
-2
6
CENTER
290
1
370
-3
390
0
0
LAYER
5
1D3
100
AcDbSymbolTableRecord
100
AcDbLayerTableRecord
2
2
70
0
62
7
6
CONTINUOUS
290
1
370
-3
390
0
0
LAYER
5
247
100
AcDbSymbolTableRecord
100
AcDbLayerTableRecord
2
SK1
70
0
62
4
6
CONTINUOUS
290
1
370
-3
390
0
0
LAYER
5
248
100
AcDbSymbolTableRecord
100
AcDbLayerTableRecord
2
SK4
70
0
62
2
6
CENTER
290
1
370
-3
390
0
0
LAYER
5
249
100
AcDbSymbolTableRecord
100
AcDbLayerTableRecord
2
SK6
70
0
62
5
6
CONTINUOUS
290
1
370
-3
390
0
0
LAYER
5
24a
100
AcDbSymbolTableRecord
100
AcDbLayerTableRecord
2
SK2
70
0
62
7
6
CONTINUOUS
290
1
370
-3
390
0
0
ENDTAB
0
TABLE
2
STYLE
5
25e
100
AcDbSymbolTable
0
STYLE
5
11
100
AcDbSymbolTableRecord
100
AcDbTextStyleTableRecord
2
Standard
3
txt
70
0
71
0
40
0
41
1
42
0
50
0
0
STYLE
5
1A9
100
AcDbSymbolTableRecord
100
AcDbTextStyleTableRecord
2
iso_b_vert
3
simplex.shx
70
0
71
0
40
0
41
1
42
0
50
0
0
STYLE
5
1AA
100
AcDbSymbolTableRecord
100
AcDbTextStyleTableRecord
2
DWGDirectTextStyle
3
simplex
70
0
71
0
40
0
41
1
42
0
50
0
0
ENDTAB
0
TABLE
2
DIMSTYLE
5
25f
100
AcDbSymbolTable
100
AcDbDimStyleTable
0
DIMSTYLE
105
27
100
AcDbSymbolTableRecord
100
AcDbDimStyleTableRecord
2
Standard
70
0
3
<>
41
0.18
42
0.0625
44
0.18
140
0.18
147
0.09
73
0
74
0
77
1
271
2
275
0
278
52
280
0
340
11
0
ENDTAB
0
TABLE
2
VIEW
5
260
100
AcDbSymbolTable
0
ENDTAB
0
TABLE
2
UCS
5
261
100
AcDbSymbolTable
0
ENDTAB
0
TABLE
2
APPID
5
262
100
AcDbSymbolTable
0
APPID
5
12
100
AcDbSymbolTableRecord
100
AcDbRegAppTableRecord
2
ACAD
70
0
0
ENDTAB
0
TABLE
2
BLOCK_RECORD
5
263
100
AcDbSymbolTable
0
BLOCK_RECORD
5
1F
100
AcDbSymbolTableRecord
100
AcDbBlockTableRecord
2
*Model_Space
340
0
70
0
0
BLOCK_RECORD
5
1B
100
AcDbSymbolTableRecord
100
AcDbBlockTableRecord
2
*Paper_Space
340
0
70
0
0
BLOCK_RECORD
5
23
100
AcDbSymbolTableRecord
100
AcDbBlockTableRecord
2
*Paper_Space0
340
0
70
0
0
BLOCK_RECORD
5
1AC
100
AcDbSymbolTableRecord
100
AcDbBlockTableRecord
2
DimnDraft3D1
340
0
70
0
0
BLOCK_RECORD
5
1BC
100
AcDbSymbolTableRecord
100
AcDbBlockTableRecord
2
DimnDraft3D2
340
0
70
0
0
BLOCK_RECORD
5
1CA
100
AcDbSymbolTableRecord
100
AcDbBlockTableRecord
2
_CLOSED
340
0
70
0
0
BLOCK_RECORD
5
1D1
100
AcDbSymbolTableRecord
100
AcDbBlockTableRecord
2
DimnDraft3D3
340
0
70
0
0
BLOCK_RECORD
5
1E0
100
AcDbSymbolTableRecord
100
AcDbBlockTableRecord
2
DimnDraft3D4
340
0
70
0
0
ENDTAB
0
ENDSEC
0
SECTION
2
BLOCKS
0
BLOCK
5
20
100
AcDbEntity
8
0
100
AcDbBlockBegin
2
*Model_Space
70
0
10
0
20
0
30
0
3
*Model_Space
0
ENDBLK
5
21
100
AcDbEntity
8
0
100
AcDbBlockEnd
0
BLOCK
5
1C
100
AcDbEntity
8
0
100
AcDbBlockBegin
2
*Paper_Space
70
0
10
0
20
0
30
0
3
*Paper_Space
0
ENDBLK
5
1D
100
AcDbEntity
8
0
100
AcDbBlockEnd
0
BLOCK
5
24
100
AcDbEntity
8
0
100
AcDbBlockBegin
2
*Paper_Space0
70
0
10
0
20
0
30
0
3
*Paper_Space0
0
ENDBLK
5
25
100
AcDbEntity
8
0
100
AcDbBlockEnd
0
BLOCK
5
1B9
100
AcDbEntity
8
0
100
AcDbBlockBegin
2
DimnDraft3D1
70
0
10
0
20
0
30
0
3
DimnDraft3D1
0
MTEXT
5
1AD
100
AcDbEntity
8
SK2
62
256
6
ByLayer
370
18
48
1
60
0
100
AcDbMText
10
-40.304715
20
1.504859
30
0
210
0
220
0
230
1
1
\W0.6562;50
40
3.50012
41
0
44
1.084337
50
90
71
7
72
5
7
iso_b_vert
0
MTEXT
5
1AF
100
AcDbEntity
8
SK2
62
256
6
ByLayer
370
18
48
1
60
0
100
AcDbMText
10
-40.304715
20
-7.218097
30
0
210
0
220
0
230
1
1
%%c
40
3.50012
41
0
44
1.084337
50
90
71
7
72
5
7
iso_b_vert
0
LINE
5
1B0
100
AcDbEntity
8
SK2
62
256
6
ByLayer
370
13
48
1
60
0
100
AcDbLine
10
-1.2875
20
-25
30
0
11
-41.729655
21
-25
31
0
39
0
210
0
220
0
230
1
0
LINE
5
1B1
100
AcDbEntity
8
SK2
62
256
6
ByLayer
370
13
48
1
60
0
100
AcDbLine
10
-1.2875
20
25
30
0
11
-41.729655
21
25
31
0
39
0
210
0
220
0
230
1
0
LINE
5
1B2
100
AcDbEntity
8
SK2
62
256
6
ByLayer
370
13
48
1
60
0
100
AcDbLine
10
-38.554655
20
-25
30
0
11
-38.554655
21
25
31
0
39
0
210
0
220
0
230
1
0
LINE
5
1B3
100
AcDbEntity
8
SK2
62
256
6
ByLayer
370
13
48
1
60
0
100
AcDbLine
10
-38.554655
20
-25
30
0
11
-38.972652
21
-21.825002
31
0
39
0
210
0
220
0
230
1
0
LINE
5
1B4
100
AcDbEntity
8
SK2
62
256
6
ByLayer
370
13
48
1
60
0
100
AcDbLine
10
-38.554655
20
-25
30
0
11
-38.136659
21
-21.824998
31
0
39
0
210
0
220
0
230
1
0
LINE
5
1B5
100
AcDbEntity
8
SK2
62
256
6
ByLayer
370
13
48
1
60
0
100
AcDbLine
10
-38.972652
20
-21.825002
30
0
11
-38.136659
21
-21.824998
31
0
39
0
210
0
220
0
230
1
0
LINE
5
1B6
100
AcDbEntity
8
SK2
62
256
6
ByLayer
370
13
48
1
60
0
100
AcDbLine
10
-38.554655
20
25
30
0
11
-38.136659
21
21.825002
31
0
39
0
210
0
220
0
230
1
0
LINE
5
1B7
100
AcDbEntity
8
SK2
62
256
6
ByLayer
370
13
48
1
60
0
100
AcDbLine
10
-38.554655
20
25
30
0
11
-38.972652
21
21.824998
31
0
39
0
210
0
220
0
230
1
0
LINE
5
1B8
100
AcDbEntity
8
SK2
62
256
6
ByLayer
370
13
48
1
60
0
100
AcDbLine
10
-38.136659
20
21.825002
30
0
11
-38.972652
21
21.824998
31
0
39
0
210
0
220
0
230
1
0
ENDBLK
5
1BA
100
AcDbEntity
8
0
100
AcDbBlockEnd
0
BLOCK
5
1C7
100
AcDbEntity
8
0
100
AcDbBlockBegin
2
DimnDraft3D2
70
0
10
0
20
0
30
0
3
DimnDraft3D2
0
MTEXT
5
1BD
100
AcDbEntity
8
SK2
62
256
6
ByLayer
370
18
48
1
60
0
100
AcDbMText
10
70.396077
20
-19.434494
30
0
210
0
220
0
230
1
1
\W0.6562;33
40
3.50012
41
0
44
1.084337
50
90
71
7
72
5
7
iso_b_vert
0
LINE
5
1BE
100
AcDbEntity
8
SK2
62
256
6
ByLayer
370
13
48
1
60
0
100
AcDbLine
10
44.914641
20
-32.917106
30
0
11
74.446107
21
-32.917106
31
0
39
0
210
0
220
0
230
1
0
LINE
5
1BF
100
AcDbEntity
8
SK2
62
256
6
ByLayer
370
13
48
1
60
0
100
AcDbLine
10
58.8875
20
0
30
0
11
74.446107
21
0
31
0
39
0
210
0
220
0
230
1
0
LINE
5
1C0
100
AcDbEntity
8
SK2
62
256
6
ByLayer
370
13
48
1
60
0
100
AcDbLine
10
71.271107
20
-32.917106
30
0
11
71.271107
21
0
31
0
39
0
210
0
220
0
230
1
0
LINE
5
1C1
100
AcDbEntity
8
SK2
62
256
6
ByLayer
370
13
48
1
60
0
100
AcDbLine
10
71.271107
20
-32.917106
30
0
11
70.853111
21
-29.742107
31
0
39
0
210
0
220
0
230
1
0
LINE
5
1C2
100
AcDbEntity
8
SK2
62
256
6
ByLayer
370
13
48
1
60
0
100
AcDbLine
10
71.271107
20
-32.917106
30
0
11
71.689104
21
-29.742104
31
0
39
0
210
0
220
0
230
1
0
LINE
5
1C3
100
AcDbEntity
8
SK2
62
256
6
ByLayer
370
13
48
1
60
0
100
AcDbLine
10
70.853111
20
-29.742107
30
0
11
71.689104
21
-29.742104
31
0
39
0
210
0
220
0
230
1
0
LINE
5
1C4
100
AcDbEntity
8
SK2
62
256
6
ByLayer
370
13
48
1
60
0
100
AcDbLine
10
71.271107
20
0
30
0
11
71.689104
21
-3.174998
31
0
39
0
210
0
220
0
230
1
0
LINE
5
1C5
100
AcDbEntity
8
SK2
62
256
6
ByLayer
370
13
48
1
60
0
100
AcDbLine
10
71.271107
20
0
30
0
11
70.853111
21
-3.175002
31
0
39
0
210
0
220
0
230
1
0
LINE
5
1C6
100
AcDbEntity
8
SK2
62
256
6
ByLayer
370
13
48
1
60
0
100
AcDbLine
10
71.689104
20
-3.174998
30
0
11
70.853111
21
-3.175002
31
0
39
0
210
0
220
0
230
1
0
ENDBLK
5
1C8
100
AcDbEntity
8
0
100
AcDbBlockEnd
0
BLOCK
5
1CB
100
AcDbEntity
8
0
100
AcDbBlockBegin
2
_CLOSED
70
0
10
0
20
0
30
0
3
_CLOSED
0
LINE
5
1CD
100
AcDbEntity
8
0
62
256
6
ByLayer
370
-2
48
1
60
0
100
AcDbLine
10
-1
20
0.166667
30
0
11
0
21
0
31
0
39
0
210
0
220
0
230
1
0
LINE
5
1CE
100
AcDbEntity
8
0
62
256
6
ByLayer
370
-2
48
1
60
0
100
AcDbLine
10
0
20
0
30
0
11
-1
21
-0.166667
31
0
39
0
210
0
220
0
230
1
0
LINE
5
1CF
100
AcDbEntity
8
0
62
256
6
ByLayer
370
-2
48
1
60
0
100
AcDbLine
10
-1
20
0.166667
30
0
11
-1
21
-0.166667
31
0
39
0
210
0
220
0
230
1
0
LINE
5
1D0
100
AcDbEntity
8
0
62
256
6
ByLayer
370
-2
48
1
60
0
100
AcDbLine
10
0
20
0
30
0
11
-1
21
0
31
0
39
0
210
0
220
0
230
1
0
ENDBLK
5
1CC
100
AcDbEntity
8
0
100
AcDbBlockEnd
0
BLOCK
5
1DD
100
AcDbEntity
8
0
100
AcDbBlockBegin
2
DimnDraft3D3
70
0
10
0
20
0
30
0
3
DimnDraft3D3
0
MTEXT
5
1D2
100
AcDbEntity
8
2
62
256
6
ByLayer
370
18
48
1
60
0
100
AcDbMText
10
20.099952
20
-69.588845
30
0
210
0
220
0
230
1
1
\W0.7361;43
40
3.50012
41
0
44
1.084337
50
0
71
7
72
5
7
iso_b_vert
0
LINE
5
1D4
100
AcDbEntity
8
2
62
256
6
ByLayer
370
13
48
1
60
0
100
AcDbLine
10
0
20
-26.2875
30
0
11
0
21
-73.638875
31
0
39
0
210
0
220
0
230
1
0
LINE
5
1D5
100
AcDbEntity
8
2
62
256
6
ByLayer
370
13
48
1
60
0
100
AcDbLine
10
43
20
-47.496181
30
0
11
43
21
-73.638875
31
0
39
0
210
0
220
0
230
1
0
LINE
5
1D6
100
AcDbEntity
8
2
62
256
6
ByLayer
370
13
48
1
60
0
100
AcDbLine
10
0
20
-70.463875
30
0
11
43
21
-70.463875
31
0
39
0
210
0
220
0
230
1
0
LINE
5
1D7
100
AcDbEntity
8
2
62
256
6
ByLayer
370
13
48
1
60
0
100
AcDbLine
10
0
20
-70.463875
30
0
11
3.174998
21
-70.045879
31
0
39
0
210
0
220
0
230
1
0
LINE
5
1D8
100
AcDbEntity
8
2
62
256
6
ByLayer
370
13
48
1
60
0
100
AcDbLine
10
0
20
-70.463875
30
0
11
3.175002
21
-70.881872
31
0
39
0
210
0
220
0
230
1
0
LINE
5
1D9
100
AcDbEntity
8
2
62
256
6
ByLayer
370
13
48
1
60
0
100
AcDbLine
10
3.174998
20
-70.045879
30
0
11
3.175002
21
-70.881872
31
0
39
0
210
0
220
0
230
1
0
LINE
5
1DA
100
AcDbEntity
8
2
62
256
6
ByLayer
370
13
48
1
60
0
100
AcDbLine
10
43
20
-70.463875
30
0
11
39.825002
21
-70.881872
31
0
39
0
210
0
220
0
230
1
0
LINE
5
1DB
100
AcDbEntity
8
2
62
256
6
ByLayer
370
13
48
1
60
0
100
AcDbLine
10
43
20
-70.463875
30
0
11
39.824998
21
-70.045879
31
0
39
0
210
0
220
0
230
1
0
LINE
5
1DC
100
AcDbEntity
8
2
62
256
6
ByLayer
370
13
48
1
60
0
100
AcDbLine
10
39.825002
20
-70.881872
30
0
11
39.824998
21
-70.045879
31
0
39
0
210
0
220
0
230
1
0
ENDBLK
5
1DE
100
AcDbEntity
8
0
100
AcDbBlockEnd
0
BLOCK
5
1EB
100
AcDbEntity
8
0
100
AcDbBlockBegin
2
DimnDraft3D4
70
0
10
0
20
0
30
0
3
DimnDraft3D4
0
MTEXT
5
1E1
100
AcDbEntity
8
SK2
62
256
6
ByLayer
370
18
48
1
60
0
100
AcDbMText
10
34.610125
20
-59.291158
30
0
210
0
220
0
230
1
1
\W0.7361;40
40
3.50012
41
0
44
1.084337
50
0
71
7
72
5
7
iso_b_vert
0
LINE
5
1E2
100
AcDbEntity
8
SK2
62
256
6
ByLayer
370
13
48
1
60
0
100
AcDbLine
10
23
20
-34.0875
30
0
11
23
21
-63.341188
31
0
39
0
210
0
220
0
230
1
0
LINE
5
1E3
100
AcDbEntity
8
SK2
62
256
6
ByLayer
370
13
48
1
60
0
100
AcDbLine
10
63
20
-34.0875
30
0
11
63
21
-63.341188
31
0
39
0
210
0
220
0
230
1
0
LINE
5
1E4
100
AcDbEntity
8
SK2
62
256
6
ByLayer
370
13
48
1
60
0
100
AcDbLine
10
23
20
-60.166188
30
0
11
63
21
-60.166188
31
0
39
0
210
0
220
0
230
1
0
LINE
5
1E5
100
AcDbEntity
8
SK2
62
256
6
ByLayer
370
13
48
1
60
0
100
AcDbLine
10
23
20
-60.166188
30
0
11
26.174998
21
-59.748192
31
0
39
0
210
0
220
0
230
1
0
LINE
5
1E6
100
AcDbEntity
8
SK2
62
256
6
ByLayer
370
13
48
1
60
0
100
AcDbLine
10
23
20
-60.166188
30
0
11
26.175002
21
-60.584185
31
0
39
0
210
0
220
0
230
1
0
LINE
5
1E7
100
AcDbEntity
8
SK2
62
256
6
ByLayer
370
13
48
1
60
0
100
AcDbLine
10
26.174998
20
-59.748192
30
0
11
26.175002
21
-60.584185
31
0
39
0
210
0
220
0
230
1
0
LINE
5
1E8
100
AcDbEntity
8
SK2
62
256
6
ByLayer
370
13
48
1
60
0
100
AcDbLine
10
63
20
-60.166188
30
0
11
59.825002
21
-60.584185
31
0
39
0
210
0
220
0
230
1
0
LINE
5
1E9
100
AcDbEntity
8
SK2
62
256
6
ByLayer
370
13
48
1
60
0
100
AcDbLine
10
63
20
-60.166188
30
0
11
59.824998
21
-59.748192
31
0
39
0
210
0
220
0
230
1
0
LINE
5
1EA
100
AcDbEntity
8
SK2
62
256
6
ByLayer
370
13
48
1
60
0
100
AcDbLine
10
59.825002
20
-60.584185
30
0
11
59.824998
21
-59.748192
31
0
39
0
210
0
220
0
230
1
0
ENDBLK
5
1EC
100
AcDbEntity
8
0
100
AcDbBlockEnd
0
ENDSEC
0
SECTION
2
ENTITIES
0
ARC
5
F3
100
AcDbEntity
8
1
62
256
6
ByLayer
370
18
48
1
60
0
100
AcDbCircle
39
0
10
-41.5
20
-32.659481
30
0
40
0.154500000000001
210
0
220
0
230
-1
100
AcDbArc
50
30
51
150
0
ARC
5
F4
100
AcDbEntity
8
1
62
256
6
ByLayer
370
18
48
1
60
0
100
AcDbCircle
39
0
10
-42.146921
20
-33.178981
30
0
40
0.146000000000056
210
0
220
0
230
-1
100
AcDbArc
50
270
51
330
0
ARC
5
F5
100
AcDbEntity
8
1
62
256
6
ByLayer
370
18
48
1
60
0
100
AcDbCircle
39
0
10
-43.646921
20
-33.178981
30
0
40
0.146000000000981
210
0
220
0
230
-1
100
AcDbArc
50
270
51
330
0
ARC
5
F6
100
AcDbEntity
8
1
62
256
6
ByLayer
370
18
48
1
60
0
100
AcDbCircle
39
0
10
-43
20
-32.659481
30
0
40
0.154499999999965
210
0
220
0
230
-1
100
AcDbArc
50
30
51
150
0
ARC
5
F7
100
AcDbEntity
8
1
62
256
6
ByLayer
370
18
48
1
60
0
100
AcDbCircle
39
0
10
-42.353079
20
-33.178981
30
0
40
0.145999999999413
210
0
220
0
230
-1
100
AcDbArc
50
210
51
270
0
ARC
5
F8
100
AcDbEntity
8
1
62
256
6
ByLayer
370
18
48
1
60
0
100
AcDbCircle
39
0
10
-40.853079
20
-33.178981
30
0
40
0.146000000001339
210
0
220
0
230
-1
100
AcDbArc
50
210
51
270
0
ARC
5
F9
100
AcDbEntity
8
1
62
256
6
ByLayer
370
18
48
1
60
0
100
AcDbCircle
39
0
10
-40.646921
20
-33.178981
30
0
40
0.145999999999821
210
0
220
0
230
-1
100
AcDbArc
50
270
51
330
0
ARC
5
FA
100
AcDbEntity
8
1
62
256
6
ByLayer
370
18
48
1
60
0
100
AcDbCircle
39
0
10
-40
20
-32.659481
30
0
40
0.154499999999979
210
0
220
0
230
-1
100
AcDbArc
50
30
51
150
0
ARC
5
FB
100
AcDbEntity
8
1
62
256
6
ByLayer
370
18
48
1
60
0
100
AcDbCircle
39
0
10
-39.353079
20
-33.178981
30
0
40
0.145999999999217
210
0
220
0
230
-1
100
AcDbArc
50
210
51
270
0
ARC
5
FC
100
AcDbEntity
8
1
62
256
6
ByLayer
370
18
48
1
60
0
100
AcDbCircle
39
0
10
-39.146921
20
-33.178981
30
0
40
0.145999999999821
210
0
220
0
230
-1
100
AcDbArc
50
270
51
330
0
ARC
5
FD
100
AcDbEntity
8
1
62
256
6
ByLayer
370
18
48
1
60
0
100
AcDbCircle
39
0
10
-38.5
20
-32.659481
30
0
40
0.154499999999979
210
0
220
0
230
-1
100
AcDbArc
50
30
51
150
0
ARC
5
FE
100
AcDbEntity
8
1
62
256
6
ByLayer
370
18
48
1
60
0
100
AcDbCircle
39
0
10
-37.853079
20
-33.178981
30
0
40
0.145999999999217
210
0
220
0
230
-1
100
AcDbArc
50
210
51
270
0
ARC
5
FF
100
AcDbEntity
8
1
62
256
6
ByLayer
370
18
48
1
60
0
100
AcDbCircle
39
0
10
-37.646921
20
-33.178981
30
0
40
0.145999999999821
210
0
220
0
230
-1
100
AcDbArc
50
270
51
330
0
ARC
5
100
100
AcDbEntity
8
1
62
256
6
ByLayer
370
18
48
1
60
0
100
AcDbCircle
39
0
10
-48.353079
20
-33.178981
30
0
40
0.146000000000056
210
0
220
0
230
-1
100
AcDbArc
50
210
51
270
0
ARC
5
101
100
AcDbEntity
8
1
62
256
6
ByLayer
370
18
48
1
60
0
100
AcDbCircle
39
0
10
-48.146921
20
-33.178981
30
0
40
0.145999999999568
210
0
220
0
230
-1
100
AcDbArc
50
270
51
330
0
ARC
5
102
100
AcDbEntity
8
1
62
256
6
ByLayer
370
18
48
1
60
0
100
AcDbCircle
39
0
10
-47.5
20
-32.659481
30
0
40
0.154499999999971
210
0
220
0
230
-1
100
AcDbArc
50
30
51
150
0
ARC
5
103
100
AcDbEntity
8
1
62
256
6
ByLayer
370
18
48
1
60
0
100
AcDbCircle
39
0
10
-46.853079
20
-33.178981
30
0
40
0.145999999998992
210
0
220
0
230
-1
100
AcDbArc
50
210
51
270
0
ARC
5
104
100
AcDbEntity
8
1
62
256
6
ByLayer
370
18
48
1
60
0
100
AcDbCircle
39
0
10
-46.646921
20
-33.178981
30
0
40
0.146000000001512
210
0
220
0
230
-1
100
AcDbArc
50
270
51
330
0
ARC
5
105
100
AcDbEntity
8
1
62
256
6
ByLayer
370
18
48
1
60
0
100
AcDbCircle
39
0
10
-46
20
-32.659481
30
0
40
0.15449999999998
210
0
220
0
230
-1
100
AcDbArc
50
30
51
150
0
ARC
5
106
100
AcDbEntity
8
1
62
256
6
ByLayer
370
18
48
1
60
0
100
AcDbCircle
39
0
10
-45.353079
20
-33.178981
30
0
40
0.145999999998992
210
0
220
0
230
-1
100
AcDbArc
50
210
51
270
0
ARC
5
107
100
AcDbEntity
8
1
62
256
6
ByLayer
370
18
48
1
60
0
100
AcDbCircle
39
0
10
-45.146921
20
-33.178981
30
0
40
0.146000000000056
210
0
220
0
230
-1
100
AcDbArc
50
270
51
330
0
ARC
5
108
100
AcDbEntity
8
1
62
256
6
ByLayer
370
18
48
1
60
0
100
AcDbCircle
39
0
10
-44.5
20
-32.659481
30
0
40
0.154499999999965
210
0
220
0
230
-1
100
AcDbArc
50
30
51
150
0
ARC
5
109
100
AcDbEntity
8
1
62
256
6
ByLayer
370
18
48
1
60
0
100
AcDbCircle
39
0
10
-43.853079
20
-33.178981
30
0
40
0.145999999998964
210
0
220
0
230
-1
100
AcDbArc
50
210
51
270
0
ARC
5
10A
100
AcDbEntity
8
1
62
256
6
ByLayer
370
18
48
1
60
0
100
AcDbCircle
39
0
10
-20
20
-26.2
30
0
40
1.2
210
0
220
0
230
-1
100
AcDbArc
50
90
51
165
0
ARC
5
10B
100
AcDbEntity
8
SK1
62
256
6
ByLayer
370
18
48
1
60
0
100
AcDbCircle
39
0
10
0.6
20
-18.75
30
0
40
1
210
0
220
0
230
-1
100
AcDbArc
50
113.578178
51
126.870857
0
ARC
5
10C
100
AcDbEntity
8
SK1
62
256
6
ByLayer
370
18
48
1
60
0
100
AcDbCircle
39
0
10
0.6
20
18.75
30
0
40
1
210
0
220
0
230
-1
100
AcDbArc
50
233.129143
51
246.421822
0
ARC
5
10D
100
AcDbEntity
8
1
62
256
6
ByLayer
370
18
48
1
60
0
100
AcDbCircle
39
0
10
56.367292
20
-48.824981
30
0
40
0.5
210
0
220
0
230
1
100
AcDbArc
50
270
51
0
0
ARC
5
10E
100
AcDbEntity
8
1
62
256
6
ByLayer
370
18
48
1
60
0
100
AcDbCircle
39
0
10
44.367292
20
-48.824981
30
0
40
0.5
210
0
220
0
230
1
100
AcDbArc
50
180
51
270
0
ARC
5
10F
100
AcDbEntity
8
1
62
256
6
ByLayer
370
18
48
1
60
0
100
AcDbCircle
39
0
10
56.367292
20
-48.678981
30
0
40
0.5
210
0
220
0
230
1
100
AcDbArc
50
270
51
0
0
ARC
5
110
100
AcDbEntity
8
1
62
256
6
ByLayer
370
18
48
1
60
0
100
AcDbCircle
39
0
10
44.367292
20
-48.678981
30
0
40
0.5
210
0
220
0
230
1
100
AcDbArc
50
180
51
270
0
ARC
5
111
100
AcDbEntity
8
1
62
256
6
ByLayer
370
18
48
1
60
0
100
AcDbCircle
39
0
10
41.632708
20
-48.824981
30
0
40
0.5
210
0
220
0
230
1
100
AcDbArc
50
270
51
0
0
ARC
5
112
100
AcDbEntity
8
1
62
256
6
ByLayer
370
18
48
1
60
0
100
AcDbCircle
39
0
10
29.632708
20
-48.824981
30
0
40
0.5
210
0
220
0
230
1
100
AcDbArc
50
180
51
270
0
ELLIPSE
5
113
100
AcDbEntity
8
1
62
256
6
ByLayer
370
18
48
1
60
0
100
AcDbEllipse
10
-1.056258
20
0
30
0
11
11.7092723497277
21
24.6771864409379
31
0
210
0
220
0
230
-1
40
0.341999
41
0.167213071908974
42
1.08183270048926
0
ELLIPSE
5
114
100
AcDbEntity
8
1
62
256
6
ByLayer
370
18
48
1
60
0
100
AcDbEllipse
10
21.056258
20
0
30
0
11
11.7092723497283
21
-24.6771864409387
31
0
210
0
220
0
230
-1
40
0.341999
41
2.05975995310056
42
2.97437958168082
0
ELLIPSE
5
115
100
AcDbEntity
8
1
62
256
6
ByLayer
370
18
48
1
60
0
100
AcDbEllipse
10
-1.056258
20
0
30
0
11
11.7092723497274
21
-24.6771864409377
31
0
210
0
220
0
230
-1
40
0.341999
41
-1.08183270048927
42
-0.167213071908978
0
ELLIPSE
5
116
100
AcDbEntity
8
1
62
256
6
ByLayer
370
18
48
1
60
0
100
AcDbEllipse
10
21.056258
20
0
30
0
11
11.7092723497283
21
24.6771864409388
31
0
210
0
220
0
230
-1
40
0.341999
41
-2.97437958168082
42
-2.05975995310056
0
POINT
5
6C
100
AcDbEntity
8
1
62
256
6
ByLayer
370
13
48
1
60
1
100
AcDbPoint
10
206.695425
20
156.672533
30
0
39
0
210
0
220
0
230
1
50
360
0
POINT
5
6E
100
AcDbEntity
8
1
62
256
6
ByLayer
370
13
48
1
60
1
100
AcDbPoint
10
206.695425
20
179.672533
30
0
39
0
210
0
220
0
230
1
50
360
0
POINT
5
6F
100
AcDbEntity
8
1
62
256
6
ByLayer
370
13
48
1
60
1
100
AcDbPoint
10
166.870444
20
142.539825
30
0
39
0
210
0
220
0
230
1
50
360
0
POINT
5
70
100
AcDbEntity
8
1
62
256
6
ByLayer
370
13
48
1
60
1
100
AcDbPoint
10
156.370444
20
142.539825
30
0
39
0
210
0
220
0
230
1
50
360
0
POINT
5
71
100
AcDbEntity
8
1
62
256
6
ByLayer
370
13
48
1
60
1
100
AcDbPoint
10
167.016444
20
127.805241
30
0
39
0
210
0
220
0
230
1
50
360
0
POINT
5
72
100
AcDbEntity
8
1
62
256
6
ByLayer
370
13
48
1
60
1
100
AcDbPoint
10
156.370444
20
127.805241
30
0
39
0
210
0
220
0
230
1
50
360
0
POINT
5
73
100
AcDbEntity
8
80
62
256
6
ByLayer
370
18
48
1
60
0
100
AcDbPoint
10
0
20
0
30
0
39
0
210
0
220
0
230
1
50
360
0
POINT
5
75
100
AcDbEntity
8
81
62
256
6
ByLayer
370
18
48
1
60
0
100
AcDbPoint
10
43
20
-32.999981
30
0
39
0
210
0
220
0
230
1
50
360
0
SPLINE
5
117
100
AcDbEntity
8
1
62
256
6
ByLayer
370
18
48
1
60
0
100
AcDbSpline
70
4
71
3
72
8
73
4
40
0
40
0
40
0
40
0
40
1
40
1
40
1
40
1
41
1
10
24.5058736518735
20
-5.99999999999997
30
1E-15
41
1
10
24.128941903471
20
-4.12319606160639
30
3.4E-15
41
1
10
23.7496013957015
20
-2.27675204598288
30
-1.3E-15
41
1
10
23.3674952832338
20
-0.460688683202619
30
1.2E-15
0
SPLINE
5
118
100
AcDbEntity
8
1
62
256
6
ByLayer
370
18
48
1
60
0
100
AcDbSpline
70
4
71
3
72
30
73
26
40
0
40
0
40
0
40
0
40
0.125
40
0.125
40
0.25
40
0.25
40
0.3125
40
0.3125
40
0.34375
40
0.34375
40
0.375
40
0.375
40
0.5
40
0.5
40
0.625
40
0.625
40
0.65625
40
0.65625
40
0.6875
40
0.6875
40
0.75
40
0.75
40
0.875
40
0.875
40
1
40
1
40
1
40
1
41
1
10
21.159110991547
20
23.6558395011101
30
3E-16
41
1
10
21.2056938510701
20
23.2169876313491
30
-3E-16
41
1
10
21.2606684080728
20
22.694723999695
30
-8E-16
41
1
10
21.3855846870559
20
21.4900777108773
30
5E-16
41
1
10
21.4555284196719
20
20.8076727476327
30
4E-16
41
1
10
21.5707991555081
20
19.6632878423231
30
-2E-16
41
1
10
21.6109534600832
20
19.2616400847682
30
8E-16
41
1
10
21.6737168061051
20
18.6282739554682
30
-1.1E-15
41
1
10
21.6950871418548
20
18.4117247541867
30
-6E-16
41
1
10
21.7385424158568
20
17.969424841057
30
5E-16
41
1
10
21.7605724423104
20
17.744235175947
30
1.1E-15
41
1
10
21.8721678265441
20
16.5983720935878
30
5E-16
41
1
10
21.9660426139402
20
15.6181873078358
30
-6E-16
41
1
10
22.1617278306341
20
13.5342141712936
30
1.2E-15
41
1
10
22.263541464857
20
12.4304215585896
30
4E-16
41
1
10
22.3953634496828
20
10.9719456509524
30
6E-16
41
1
10
22.4219569721509
20
10.6762995126733
30
1.3E-15
41
1
10
22.4755975339272
20
10.0770097821333
30
-7E-16
41
1
10
22.5026902706283
20
9.77284939782265
30
0
41
1
10
22.5842694270873
20
8.85243498493793
30
-1.2E-15
41
1
10
22.6389939261999
20
8.22897947355744
30
4E-16
41
1
10
22.8040690565225
20
6.32972812479338
30
1.7E-15
41
1
10
22.9153110519493
20
5.02515436867668
30
1.4E-15
41
1
10
23.1398564831492
20
2.3399560134265
30
1.2E-15
41
1
10
23.253161269827
20
0.959338931577861
30
-2.4E-15
41
1
10
23.3674952832338
20
-0.460688683202619
30
1.2E-15
0
SPLINE
5
119
100
AcDbEntity
8
1
62
256
6
ByLayer
370
18
48
1
60
0
100
AcDbSpline
70
4
71
3
72
10
73
6
40
0
40
0
40
0
40
0
40
0.5
40
0.5
40
1
40
1
40
1
40
1
41
1
10
20.8483974421211
20
24.9999999999999
30
-4E-16
41
1
10
20.900265133774
20
24.8718300917345
30
-1E-16
41
1
10
20.961667740468
20
24.6953524659076
30
3E-16
41
1
10
21.0739407513569
20
24.2472623916181
30
6E-16
41
1
10
21.1251642072673
20
23.9756483300658
30
-5E-16
41
1
10
21.159110991547
20
23.6558395011101
30
3E-16
0
SPLINE
5
11A
100
AcDbEntity
8
1
62
256
6
ByLayer
370
18
48
1
60
0
100
AcDbSpline
70
4
71
3
72
56
73
52
40
0
40
0
40
0
40
0
40
0.0156249999999995
40
0.0156249999999995
40
0.0234374999999991
40
0.0234374999999991
40
0.0312499999999987
40
0.0312499999999987
40
0.046874999999998
40
0.046874999999998
40
0.0546874999999977
40
0.0546874999999977
40
0.0624999999999975
40
0.0624999999999975
40
0.0937499999999974
40
0.0937499999999974
40
0.124999999999997
40
0.124999999999997
40
0.156249999999997
40
0.156249999999997
40
0.187499999999997
40
0.187499999999997
40
0.249999999999997
40
0.249999999999997
40
0.312499999999997
40
0.312499999999997
40
0.374999999999996
40
0.374999999999996
40
0.499999999999996
40
0.499999999999996
40
0.531249999999996
40
0.531249999999996
40
0.562499999999996
40
0.562499999999996
40
0.624999999999996
40
0.624999999999996
40
0.687499999999996
40
0.687499999999996
40
0.749999999999996
40
0.749999999999996
40
0.781249999999996
40
0.781249999999996
40
0.796874999999996
40
0.796874999999996
40
0.812499999999997
40
0.812499999999997
40
0.874999999999998
40
0.874999999999998
40
0.937499999999999
40
0.937499999999999
40
1
40
1
40
1
40
1
41
1
10
30.7500000000001
20
24.9999999999999
30
-4E-16
41
1
10
30.960315332453
20
24.9999999999999
30
-4E-16
41
1
10
31.1648459817574
20
24.9963299750391
30
-4E-16
41
1
10
31.4646326116942
20
24.9860862243588
30
-4E-16
41
1
10
31.563958072346
20
24.9818464703664
30
-4E-16
41
1
10
31.7568970073659
20
24.9720752458898
30
-4E-16
41
1
10
31.8507196368554
20
24.9665485937276
30
-3E-16
41
1
10
32.1259194974074
20
24.9482771846103
30
-3E-16
41
1
10
32.3011190517205
20
24.9338546982904
30
-3E-16
41
1
10
32.5558917926619
20
24.9093839507727
30
-2E-16
41
1
10
32.6396247548864
20
24.9007298112772
30
-2E-16
41
1
10
32.8036709612135
20
24.8826520704759
30
-1E-16
41
1
10
32.8840636547169
20
24.8732235966986
30
-1E-16
41
1
10
33.2794569401653
20
24.8242373836125
30
0
41
1
10
33.575629143173
20
24.7792124148474
30
1E-16
41
1
10
34.1485028483054
20
24.6786524525223
30
4E-16
41
1
10
34.4247378606487
20
24.6230820967847
30
-4E-16
41
1
10
34.9652403651425
20
24.5016704802305
30
-1E-16
41
1
10
35.2293770654027
20
24.4358208496334
30
1E-16
41
1
10
35.7494912973346
20
24.2938646450827
30
5E-16
41
1
10
36.005260035428
20
24.217781447884
30
7E-16
41
1
10
36.7596118657636
20
23.9753818611286
30
-5E-16
41
1
10
37.2469247979001
20
23.7945530578839
30
0
41
1
10
38.1997417638471
20
23.3941572487164
30
-8E-16
41
1
10
38.6650414227694
20
23.1745855345661
30
-2E-16
41
1
10
39.576667299346
20
22.6957013964272
30
-8E-16
41
1
10
40.0229330191209
20
22.4363908179993
30
-1E-16
41
1
10
41.3341716669781
20
21.5963386907952
30
2E-16
41
1
10
42.1720501972858
20
20.953992420551
30
1E-16
41
1
10
43.1679142603581
20
20.0333793151
30
-1.1E-15
41
1
10
43.3644714133634
20
19.843331967273
30
-7E-16
41
1
10
43.7520327326795
20
19.4508316942471
30
3E-16
41
1
10
43.9430037262675
20
19.2483680623433
30
9E-16
41
1
10
44.5030031427897
20
18.6261074570197
30
-1.1E-15
41
1
10
44.860545003687
20
18.1901008397406
30
0
41
1
10
45.5412070831534
20
17.2735597593002
30
-1.2E-15
41
1
10
45.8643384160204
20
16.7930348722643
30
0
41
1
10
46.4720849696625
20
15.7842359923948
30
-1E-15
41
1
10
46.756721216884
20
15.255978322881
30
3E-16
41
1
10
47.1504200141019
20
14.4243046076234
30
-1.1E-15
41
1
10
47.2760949571263
20
14.1405196735159
30
-4E-16
41
1
10
47.4555489410187
20
13.7044271577954
30
7E-16
41
1
10
47.5138602500644
20
13.5572951620652
30
1.1E-15
41
1
10
47.6267508065264
20
13.2610232822232
30
-1.7E-15
41
1
10
47.6814086843466
20
13.1116976711622
30
-1.3E-15
41
1
10
47.9455644306687
20
12.3590800769908
30
6E-16
41
1
10
48.1277521801443
20
11.737853113952
30
-1.4E-15
41
1
10
48.4274603503635
20
10.4555634164663
30
-1.7E-15
41
1
10
48.5450182768671
20
9.79451005485441
30
0
41
1
10
48.7062530474139
20
8.43001343278871
30
-1E-16
41
1
10
48.75
20
7.72658772760892
30
1.7E-15
41
1
10
48.75
20
6.99999999999997
30
0
0
SPLINE
5
11B
100
AcDbEntity
8
1
62
256
6
ByLayer
370
18
48
1
60
0
100
AcDbSpline
70
4
71
3
72
24
73
20
40
0
40
0
40
0
40
0
40
0.0312500000000007
40
0.0312500000000007
40
0.0625000000000013
40
0.0625000000000013
40
0.125000000000002
40
0.125000000000002
40
0.187500000000003
40
0.187500000000003
40
0.250000000000004
40
0.250000000000004
40
0.375000000000004
40
0.375000000000004
40
0.500000000000003
40
0.500000000000003
40
0.750000000000001
40
0.750000000000001
40
1
40
1
40
1
40
1
41
1
10
48.6891672062427
20
-6.00000000000003
30
1E-15
41
1
10
48.7488105764573
20
-6.00000000000003
30
1E-15
41
1
10
48.8069857123275
20
-5.99264062800512
30
1E-15
41
1
10
48.9208190407954
20
-5.96530879834464
30
9E-16
41
1
10
48.9770460244383
20
-5.94503217190342
30
9E-16
41
1
10
49.1372897301769
20
-5.87082579913735
30
7E-16
41
1
10
49.2340458007215
20
-5.80430699739455
30
5E-16
41
1
10
49.4152429438161
20
-5.65416406012412
30
1E-16
41
1
10
49.4975505175742
20
-5.57217791659349
30
-1E-16
41
1
10
49.6531597804502
20
-5.40075410913892
30
-5E-16
41
1
10
49.7263116099155
20
-5.3111905145937
30
-7E-16
41
1
10
49.9369041596579
20
-5.03523949865016
30
-1.4E-15
41
1
10
50.0659710844365
20
-4.84123873327462
30
-1.9E-15
41
1
10
50.3093503232341
20
-4.4489989895348
30
-2.9E-15
41
1
10
50.4239341685579
20
-4.24986125541
30
-3.4E-15
41
1
10
50.7548629725681
20
-3.64750329379135
30
2.2E-15
41
1
10
50.9586538094556
20
-3.23946770012449
30
1.1E-15
41
1
10
51.3485848964285
20
-2.41827405475158
30
-1E-15
41
1
10
51.5342593191541
20
-2.00489111439631
30
-2E-15
41
1
10
51.7131996434779
20
-1.590007077742
30
-3.1E-15
0
SPLINE
5
11C
100
AcDbEntity
8
1
62
256
6
ByLayer
370
18
48
1
60
0
100
AcDbSpline
70
4
71
3
72
18
73
14
40
0
40
0
40
0
40
0
40
0.25
40
0.25
40
0.499999999999999
40
0.499999999999999
40
0.562499999999999
40
0.562499999999999
40
0.624999999999999
40
0.624999999999999
40
0.749999999999999
40
0.749999999999999
40
1
40
1
40
1
40
1
41
1
10
48.75
20
7.99999999999997
30
1E-15
41
1
10
48.75
20
7.20708649610035
30
-5E-16
41
1
10
48.8052395324872
20
6.40470880809565
30
1.5E-15
41
1
10
49.0368616756911
20
4.78427789744322
30
2.1E-15
41
1
10
49.213136620152
20
3.96620260331832
30
-3E-15
41
1
10
49.5202743492776
20
2.93618562298528
30
-4E-16
41
1
10
49.5861756089073
20
2.72954776066317
30
2E-16
41
1
10
49.7256584919034
20
2.31956295826589
30
1.2E-15
41
1
10
49.7993646644373
20
2.11575790684435
30
1.7E-15
41
1
10
50.0324135351807
20
1.5080229362087
30
3.3E-15
41
1
10
50.203673486051
20
1.1077680116295
30
-2.8E-15
41
1
10
50.7658828343855
20
-0.0771747663687847
30
2E-16
41
1
10
51.2050002066862
20
-0.846160490590052
30
2.1E-15
41
1
10
51.7131996434779
20
-1.590007077742
30
-3.1E-15
0
SPLINE
5
11D
100
AcDbEntity
8
1
62
256
6
ByLayer
370
18
48
1
60
0
100
AcDbSpline
70
4
71
3
72
14
73
10
40
0
40
0
40
0
40
0
40
0.25
40
0.25
40
0.5
40
0.5
40
0.75
40
0.75
40
1
40
1
40
1
40
1
41
1
10
24.5058736518735
20
-5.99999999999997
30
1E-15
41
1
10
24.7766143404394
20
-8.30428651372299
30
-2E-16
41
1
10
25.1948238866022
20
-10.5714597190319
30
-1.6E-15
41
1
10
26.2651062488425
20
-15.0469500443413
30
2.7E-15
41
1
10
26.9167413381602
20
-17.2553773265042
30
1.2E-15
41
1
10
28.3954456842244
20
-21.6280805868309
30
-1.9E-15
41
1
10
29.2224089320393
20
-23.7923832441339
30
-3.5E-15
41
1
10
31.005378695825
20
-28.088512396058
30
3E-16
41
1
10
31.9551993320373
20
-30.2057216697035
30
-1.4E-15
41
1
10
32.9458934894813
20
-32.3
30
-3.2E-15
0
SPLINE
5
11E
100
AcDbEntity
8
1
62
256
6
ByLayer
370
18
48
1
60
0
100
AcDbSpline
70
4
71
3
72
18
73
14
40
0
40
0
40
0
40
0
40
0.25
40
0.25
40
0.5
40
0.5
40
0.75
40
0.75
40
0.875
40
0.875
40
0.9375
40
0.9375
40
1
40
1
40
1
40
1
41
1
10
32.9458934894813
20
-32.3
30
-3.2E-15
41
1
10
31.9490464434438
20
-32.3
30
-3.2E-15
41
1
10
30.9822081950917
20
-32.3
30
3E-16
41
1
10
29.1313975885757
20
-32.3
30
3E-16
41
1
10
28.2472881823421
20
-32.3
30
3E-16
41
1
10
26.5951674277743
20
-32.3
30
3E-16
41
1
10
25.8269990407903
20
-32.3
30
3E-16
41
1
10
24.7980859112122
20
-32.3
30
3E-16
41
1
10
24.4758067126479
20
-32.3
30
3E-16
41
1
10
24.0293013562996
20
-32.3
30
3E-16
41
1
10
23.8865566720559
20
-32.3
30
3E-16
41
1
10
23.615956596507
20
-32.3
30
3E-16
41
1
10
23.4878992882028
20
-32.3
30
3E-16
41
1
10
23.3674952832337
20
-32.3
30
3E-16
0
SPLINE
5
11F
100
AcDbEntity
8
1
62
256
6
ByLayer
370
18
48
1
60
0
100
AcDbSpline
70
4
71
3
72
14
73
10
40
0
40
0
40
0
40
0
40
0.25
40
0.25
40
0.5
40
0.5
40
0.75
40
0.75
40
1
40
1
40
1
40
1
41
1
10
51.7131996434779
20
-1.59000707774203
30
-3.1E-15
41
1
10
51.8812629376929
20
-1.83599969161935
30
-2.4E-15
41
1
10
52.0527473454364
20
-2.0730968125136
30
-1.8E-15
41
1
10
52.3997951051867
20
-2.52872446898135
30
-7E-16
41
1
10
52.5755461426628
20
-2.74746833419755
30
-1E-16
41
1
10
52.9269067907628
20
-3.16434461045077
30
9E-16
41
1
10
53.0991022987939
20
-3.35846413898187
30
1.4E-15
41
1
10
53.4313846048238
20
-3.71800473581777
30
2.3E-15
41
1
10
53.5915070814506
20
-3.8834530303512
30
2.8E-15
41
1
10
53.7423469894216
20
-4.03396315340663
30
3.1E-15
0
SPLINE
5
120
100
AcDbEntity
8
1
62
256
6
ByLayer
370
18
48
1
60
0
100
AcDbSpline
70
4
71
3
72
18
73
14
40
0
40
0
40
0
40
0
40
0.250000000000021
40
0.250000000000021
40
0.500000000000043
40
0.500000000000043
40
0.625000000000032
40
0.625000000000032
40
0.750000000000022
40
0.750000000000022
40
0.875000000000011
40
0.875000000000011
40
1
40
1
40
1
40
1
41
1
10
53.5868035654748
20
-32.5316709670317
30
-2.6E-15
41
1
10
53.576091567458
20
-32.5243957947777
30
-2.7E-15
41
1
10
53.564033304365
20
-32.5180947731641
30
-2.7E-15
41
1
10
53.5359606052536
20
-32.5084936989074
30
-2.7E-15
41
1
10
53.5202925891571
20
-32.5051822495456
30
-2.7E-15
41
1
10
53.4922466006954
20
-32.5048926500161
30
-2.7E-15
41
1
10
53.4820725684837
20
-32.5056008426194
30
-2.7E-15
41
1
10
53.4596584251618
20
-32.5099047568295
30
-2.7E-15
41
1
10
53.4473745522523
20
-32.5134658178229
30
-2.7E-15
41
1
10
53.4205788547402
20
-32.5261312661268
30
-2.7E-15
41
1
10
53.4060622068611
20
-32.535700961687
30
-2.6E-15
41
1
10
53.3819118131835
20
-32.5584810762791
30
-2.6E-15
41
1
10
53.3728215811864
20
-32.570760430173
30
-2.5E-15
41
1
10
53.3661990751152
20
-32.5822309471617
30
-2.5E-15
0
SPLINE
5
121
100
AcDbEntity
8
1
62
256
6
ByLayer
370
18
48
1
60
0
100
AcDbSpline
70
4
71
3
72
8
73
4
40
0
40
0
40
0
40
0
40
1
40
1
40
1
40
1
41
1
10
52.9802537178638
20
-33.2507079148663
30
-8E-16
41
1
10
53.1076188680563
20
-33.0301050036192
30
-1.4E-15
41
1
10
53.2364800461179
20
-32.8069108960934
30
-1.9E-15
41
1
10
53.3661990751151
20
-32.5822309471618
30
-2.5E-15
0
SPLINE
5
122
100
AcDbEntity
8
1
62
256
6
ByLayer
370
18
48
1
60
0
100
AcDbSpline
70
4
71
3
72
12
73
8
40
0
40
0
40
0
40
0
40
0.250000000000008
40
0.250000000000008
40
0.500000000000016
40
0.500000000000016
40
1
40
1
40
1
40
1
41
1
10
52.9452353838242
20
-33.2922205393032
30
-7E-16
41
1
10
52.9366656843999
20
-33.2991947105641
30
-7E-16
41
1
10
52.9273540223103
20
-33.3050514193374
30
-7E-16
41
1
10
52.90998044683
20
-33.3137873543918
30
-7E-16
41
1
10
52.9018279654197
20
-33.3168356121938
30
-7E-16
41
1
10
52.8787299906524
20
-33.3236028679144
30
-6E-16
41
1
10
52.865419730061
20
-33.3249809471617
30
-6E-16
41
1
10
52.8530790233729
20
-33.3249809471617
30
-6E-16
0
SPLINE
5
123
100
AcDbEntity
8
1
62
256
6
ByLayer
370
18
48
1
60
0
100
AcDbSpline
70
4
71
3
72
10
73
6
40
0
40
0
40
0
40
0
40
0.5
40
0.5
40
1
40
1
40
1
40
1
41
1
10
52.6469209766269
20
-33.3249809471617
30
-6E-16
41
1
10
52.6151456399558
20
-33.3249809471617
30
-6E-16
41
1
10
52.5903786279505
20
-33.3157668775136
30
-7E-16
41
1
10
52.5490927531452
20
-33.2900532957751
30
-7E-16
41
1
10
52.5325898131688
20
-33.272953563164
30
-8E-16
41
1
10
52.5204812676743
20
-33.2519809471618
30
-8E-16
0
SPLINE
5
124
100
AcDbEntity
8
1
62
256
6
ByLayer
370
18
48
1
60
0
100
AcDbSpline
70
4
71
3
72
8
73
4
40
0
40
0
40
0
40
0
40
1
40
1
40
1
40
1
41
1
10
52.1338009248846
20
-32.5822309471618
30
-2.5E-15
41
1
10
52.2740438648728
20
-32.8251388446242
30
-1.9E-15
41
1
10
52.4044665117313
20
-33.0510374954407
30
-1.3E-15
41
1
10
52.5204812676744
20
-33.2519809471618
30
-8E-16
0
SPLINE
5
125
100
AcDbEntity
8
1
62
256
6
ByLayer
370
18
48
1
60
0
100
AcDbSpline
70
4
71
3
72
18
73
14
40
0
40
0
40
0
40
0
40
0.249999999999983
40
0.249999999999983
40
0.499999999999967
40
0.499999999999967
40
0.624999999999975
40
0.624999999999975
40
0.749999999999983
40
0.749999999999983
40
0.874999999999992
40
0.874999999999992
40
1
40
1
40
1
40
1
41
1
10
52.1338009248846
20
-32.5822309471617
30
-2.5E-15
41
1
10
52.1237857639755
20
-32.5648841796212
30
-2.6E-15
41
1
10
52.1106658186451
20
-32.5496120212695
30
-2.6E-15
41
1
10
52.0770454803464
20
-32.5239003502782
30
-2.7E-15
41
1
10
52.0563771709337
20
-32.5132951957626
30
-2.7E-15
41
1
10
52.0180948057918
20
-32.505492537429
30
-2.7E-15
41
1
10
52.004384628292
20
-32.5042907382098
30
-2.7E-15
41
1
10
51.9739327792734
20
-32.506432830795
30
-2.7E-15
41
1
10
51.9570804558868
20
-32.5100181815203
30
-2.7E-15
41
1
10
51.9245050202635
20
-32.5235334807836
30
-2.7E-15
41
1
10
51.9088650794858
20
-32.5335298816005
30
-2.6E-15
41
1
10
51.8832760874769
20
-32.5567932025257
30
-2.6E-15
41
1
10
51.8735632599784
20
-32.5694758048222
30
-2.6E-15
41
1
10
51.8661990751149
20
-32.5822309471622
30
-2.5E-15
0
SPLINE
5
126
100
AcDbEntity
8
1
62
256
6
ByLayer
370
18
48
1
60
0
100
AcDbSpline
70
4
71
3
72
8
73
4
40
0
40
0
40
0
40
0
40
1
40
1
40
1
40
1
41
1
10
51.4795187323253
20
-33.2519809471618
30
-8E-16
41
1
10
51.6084101856925
20
-33.0287344012684
30
-1.4E-15
41
1
10
51.7373038558047
20
-32.80548401586
30
-2E-15
41
1
10
51.8661990751148
20
-32.5822309471622
30
-2.5E-15
0
SPLINE
5
127
100
AcDbEntity
8
1
62
256
6
ByLayer
370
18
48
1
60
0
100
AcDbSpline
70
4
71
3
72
10
73
6
40
0
40
0
40
0
40
0
40
0.5
40
0.5
40
1
40
1
40
1
40
1
41
1
10
51.4795187323287
20
-33.251980947162
30
-8E-16
41
1
10
51.4684008150636
20
-33.27123774474
30
-8E-16
41
1
10
51.4505121644747
20
-33.2911530760992
30
-7E-16
41
1
10
51.402907282592
20
-33.318955759462
30
-6E-16
41
1
10
51.3759480905102
20
-33.3249809471664
30
-6E-16
41
1
10
51.3530790233705
20
-33.324980947166
30
-6E-16
0
SPLINE
5
128
100
AcDbEntity
8
1
62
256
6
ByLayer
370
18
48
1
60
0
100
AcDbSpline
70
4
71
3
72
12
73
8
40
0
40
0
40
0
40
0
40
0.25000000000004
40
0.25000000000004
40
0.500000000000079
40
0.500000000000079
40
1
40
1
40
1
40
1
41
1
10
51.1469209766222
20
-33.3249809471695
30
-6E-16
41
1
10
51.131170780972
20
-33.324980947169
30
-6E-16
41
1
10
51.1166764162103
20
-33.3224676968484
30
-6E-16
41
1
10
51.0905452688844
20
-33.3143506644067
30
-7E-16
41
1
10
51.078984420517
20
-33.3088037617638
30
-7E-16
41
1
10
51.047643192986
20
-33.2888594121329
30
-7E-16
41
1
10
51.0318413911723
20
-33.2716572582407
30
-8E-16
41
1
10
51.0204812676742
20
-33.2519809471618
30
-8E-16
0
SPLINE
5
129
100
AcDbEntity
8
1
62
256
6
ByLayer
370
18
48
1
60
0
100
AcDbSpline
70
4
71
3
72
8
73
4
40
0
40
0
40
0
40
0
40
1
40
1
40
1
40
1
41
1
10
50.6338009248846
20
-32.5822309471617
30
-2.5E-15
41
1
10
50.7667211785015
20
-32.8124555797812
30
-1.9E-15
41
1
10
50.896095079924
20
-33.0365377502185
30
-1.4E-15
41
1
10
51.0204812676743
20
-33.2519809471618
30
-8E-16
0
SPLINE
5
12A
100
AcDbEntity
8
1
62
256
6
ByLayer
370
18
48
1
60
0
100
AcDbSpline
70
4
71
3
72
16
73
12
40
0
40
0
40
0
40
0
40
0.250000000000048
40
0.250000000000048
40
0.500000000000095
40
0.500000000000095
40
0.625000000000083
40
0.625000000000083
40
0.750000000000071
40
0.750000000000071
40
1
40
1
40
1
40
1
41
1
10
50.6338009248846
20
-32.5822309471617
30
-2.5E-15
41
1
10
50.6231605143145
20
-32.5638012154408
30
-2.6E-15
41
1
10
50.608895628119
20
-32.5473406989212
30
-2.6E-15
41
1
10
50.5702101029743
20
-32.5198233854645
30
-2.7E-15
41
1
10
50.5461739598996
20
-32.5092202625302
30
-2.7E-15
41
1
10
50.5029740968635
20
-32.5043312799765
30
-2.7E-15
41
1
10
50.487459208678
20
-32.5046620224331
30
-2.7E-15
41
1
10
50.4560042543825
20
-32.510516034284
30
-2.7E-15
41
1
10
50.4406351641987
20
-32.5159809639555
30
-2.7E-15
41
1
10
50.3991804393648
20
-32.5382770617748
30
-2.6E-15
41
1
10
50.3790507982687
20
-32.5599711096951
30
-2.6E-15
41
1
10
50.3661990751151
20
-32.5822309471619
30
-2.5E-15
0
SPLINE
5
12B
100
AcDbEntity
8
1
62
256
6
ByLayer
370
18
48
1
60
0
100
AcDbSpline
70
4
71
3
72
8
73
4
40
0
40
0
40
0
40
0
40
1
40
1
40
1
40
1
41
1
10
49.9795187323253
20
-33.2519809471618
30
-8E-16
41
1
10
50.1080919166889
20
-33.0292856593532
30
-1.4E-15
41
1
10
50.237017134239
20
-32.8059806321794
30
-1.9E-15
41
1
10
50.366199075115
20
-32.5822309471619
30
-2.5E-15
0
SPLINE
5
12C
100
AcDbEntity
8
1
62
256
6
ByLayer
370
18
48
1
60
0
100
AcDbSpline
70
4
71
3
72
10
73
6
40
0
40
0
40
0
40
0
40
0.5
40
0.5
40
1
40
1
40
1
40
1
41
1
10
49.9795187323257
20
-33.2519809471619
30
-8E-16
41
1
10
49.9686761779065
20
-33.2707608022998
30
-8E-16
41
1
10
49.952453452672
20
-33.2891215419648
30
-7E-16
41
1
10
49.9078241221138
20
-33.3168548097533
30
-7E-16
41
1
10
49.8796834824865
20
-33.3249809471629
30
-6E-16
41
1
10
49.8530790233661
20
-33.3249809471617
30
-6E-16
0
SPLINE
5
12D
100
AcDbEntity
8
1
62
256
6
ByLayer
370
18
48
1
60
0
100
AcDbSpline
70
4
71
3
72
10
73
6
40
0
40
0
40
0
40
0
40
0.5
40
0.5
40
1
40
1
40
1
40
1
41
1
10
49.6469209766268
20
-33.3249809471618
30
-6E-16
41
1
10
49.6168409221308
20
-33.3249809471618
30
-6E-16
41
1
10
49.5893526677138
20
-33.3154563756182
30
-7E-16
41
1
10
49.5472649000367
20
-33.2885634236903
30
-7E-16
41
1
10
49.5314655147944
20
-33.2710062212618
30
-8E-16
41
1
10
49.520481267666
20
-33.2519809471476
30
-8E-16
0
SPLINE
5
12E
100
AcDbEntity
8
1
62
256
6
ByLayer
370
18
48
1
60
0
100
AcDbSpline
70
4
71
3
72
8
73
4
40
0
40
0
40
0
40
0
40
1
40
1
40
1
40
1
41
1
10
49.1338009248846
20
-32.5822309471617
30
-2.5E-15
41
1
10
49.2643805493721
20
-32.8084014912074
30
-1.9E-15
41
1
10
49.3934605636453
20
-33.0319746341704
30
-1.4E-15
41
1
10
49.5204812676664
20
-33.251980947148
30
-8E-16
0
SPLINE
5
12F
100
AcDbEntity
8
1
62
256
6
ByLayer
370
18
48
1
60
0
100
AcDbSpline
70
4
71
3
72
18
73
14
40
0
40
0
40
0
40
0
40
0.249999999999998
40
0.249999999999998
40
0.37499999999999
40
0.37499999999999
40
0.499999999999982
40
0.499999999999982
40
0.624999999999974
40
0.624999999999974
40
0.749999999999965
40
0.749999999999965
40
1
40
1
40
1
40
1
41
1
10
49.1338009248846
20
-32.5822309471617
30
-2.5E-15
41
1
10
49.1225174479225
20
-32.5626873917773
30
-2.6E-15
41
1
10
49.1064536805106
20
-32.544542303184
30
-2.6E-15
41
1
10
49.0739189816783
20
-32.5231926822919
30
-2.7E-15
41
1
10
49.061482265053
20
-32.5170248718991
30
-2.7E-15
41
1
10
49.0343550392614
20
-32.5081748548435
30
-2.7E-15
41
1
10
49.0192992300663
20
-32.5054426855066
30
-2.7E-15
41
1
10
48.9889788562879
20
-32.5046301133694
30
-2.7E-15
41
1
10
48.9732805835152
20
-32.5065664759242
30
-2.7E-15
41
1
10
48.9442711852367
20
-32.5145980222319
30
-2.7E-15
41
1
10
48.9307651088541
20
-32.5206576171875
30
-2.7E-15
41
1
10
48.8950994226714
20
-32.5426619963678
30
-2.6E-15
41
1
10
48.8779954501169
20
-32.5617990263137
30
-2.6E-15
41
1
10
48.8661990751152
20
-32.5822309471618
30
-2.5E-15
0
SPLINE
5
130
100
AcDbEntity
8
1
62
256
6
ByLayer
370
18
48
1
60
0
100
AcDbSpline
70
4
71
3
72
8
73
4
40
0
40
0
40
0
40
0
40
1
40
1
40
1
40
1
41
1
10
48.5521678957212
20
-33.1261489050326
30
-1.1E-15
41
1
10
48.6561633085842
20
-32.9460235661999
30
-1.6E-15
41
1
10
48.7608943427436
20
-32.7646240939066
30
-2.1E-15
41
1
10
48.866199075115
20
-32.5822309471618
30
-2.5E-15
0
SPLINE
5
131
100
AcDbEntity
8
1
62
256
6
ByLayer
370
18
48
1
60
0
100
AcDbSpline
70
4
71
3
72
18
73
14
40
0
40
0
40
0
40
0
40
0.124999999999993
40
0.124999999999993
40
0.249999999999985
40
0.249999999999985
40
0.374999999999978
40
0.374999999999978
40
0.499999999999971
40
0.499999999999971
40
0.749999999999985
40
0.749999999999985
40
1
40
1
40
1
40
1
41
1
10
32.6338009248893
20
-32.5822309471678
30
-2.5E-15
41
1
10
32.6272005673433
20
-32.5707987925487
30
-2.5E-15
41
1
10
32.6180760507354
20
-32.558457657787
30
-2.6E-15
41
1
10
32.5938320896407
20
-32.5356132850904
30
-2.6E-15
41
1
10
32.5791528387737
20
-32.5259804121513
30
-2.7E-15
41
1
10
32.5524785916958
20
-32.5134208152036
30
-2.7E-15
41
1
10
32.5401102453375
20
-32.5098485629738
30
-2.7E-15
41
1
10
32.5178469194898
20
-32.5055973234601
30
-2.7E-15
41
1
10
32.5076535191781
20
-32.5048895364394
30
-2.7E-15
41
1
10
32.4797002555172
20
-32.5051906594775
30
-2.7E-15
41
1
10
32.4639601819688
20
-32.5085174003037
30
-2.7E-15
41
1
10
32.435982411282
20
-32.5180927959665
30
-2.7E-15
41
1
10
32.4239230711969
20
-32.5243858527728
30
-2.7E-15
41
1
10
32.413196434525
20
-32.5316709670317
30
-2.6E-15
0
SPLINE
5
132
100
AcDbEntity
8
1
62
256
6
ByLayer
370
18
48
1
60
0
100
AcDbSpline
70
4
71
3
72
8
73
4
40
0
40
0
40
0
40
0
40
1
40
1
40
1
40
1
41
1
10
37.1338009248846
20
-32.5822309471617
30
-2.5E-15
41
1
10
37.239105657256
20
-32.7646240939065
30
-2.1E-15
41
1
10
37.3438366914155
20
-32.9460235661999
30
-1.6E-15
41
1
10
37.4478321042784
20
-33.1261489050326
30
-1.1E-15
0
SPLINE
5
133
100
AcDbEntity
8
1
62
256
6
ByLayer
370
18
48
1
60
0
100
AcDbSpline
70
4
71
3
72
20
73
16
40
0
40
0
40
0
40
0
40
0.125000000000001
40
0.125000000000001
40
0.250000000000001
40
0.250000000000001
40
0.375000000000001
40
0.375000000000001
40
0.500000000000002
40
0.500000000000002
40
0.625000000000002
40
0.625000000000002
40
0.750000000000003
40
0.750000000000003
40
1
40
1
40
1
40
1
41
1
10
37.1338009248847
20
-32.5822309471617
30
-2.5E-15
41
1
10
37.1279392020828
20
-32.5720781454489
30
-2.5E-15
41
1
10
37.120836820551
20
-32.5623914963901
30
-2.6E-15
41
1
10
37.1035742955587
20
-32.5441541768458
30
-2.6E-15
41
1
10
37.0932527446355
20
-32.5355223490852
30
-2.6E-15
41
1
10
37.0697357750237
20
-32.5209214649853
30
-2.7E-15
41
1
10
37.0562202498922
20
-32.5147898667272
30
-2.7E-15
41
1
10
37.0272736497476
20
-32.5066661138349
30
-2.7E-15
41
1
10
37.0116725604086
20
-32.5046621820183
30
-2.7E-15
41
1
10
36.9810315564617
20
-32.5053858568545
30
-2.7E-15
41
1
10
36.9660431641787
20
-32.5080684510483
30
-2.7E-15
41
1
10
36.9385705181039
20
-32.516984528146
30
-2.7E-15
41
1
10
36.926410716186
20
-32.5229998390629
30
-2.7E-15
41
1
10
36.8934625338912
20
-32.5445508790523
30
-2.6E-15
41
1
10
36.877546959638
20
-32.5625758346099
30
-2.6E-15
41
1
10
36.8661990751152
20
-32.5822309471617
30
-2.5E-15
0
SPLINE
5
134
100
AcDbEntity
8
1
62
256
6
ByLayer
370
18
48
1
60
0
100
AcDbSpline
70
4
71
3
72
8
73
4
40
0
40
0
40
0
40
0
40
1
40
1
40
1
40
1
41
1
10
36.4795187323313
20
-33.2519809471514
30
-8E-16
41
1
10
36.606539436353
20
-33.0319746341727
30
-1.4E-15
41
1
10
36.7356194506269
20
-32.8084014912086
30
-1.9E-15
41
1
10
36.8661990751151
20
-32.5822309471617
30
-2.5E-15
0
SPLINE
5
135
100
AcDbEntity
8
1
62
256
6
ByLayer
370
18
48
1
60
0
100
AcDbSpline
70
4
71
3
72
10
73
6
40
0
40
0
40
0
40
0
40
0.5
40
0.5
40
1
40
1
40
1
40
1
41
1
10
36.4795187323321
20
-33.2519809471509
30
-8E-16
41
1
10
36.4685590167846
20
-33.2709637313194
30
-8E-16
41
1
10
36.4528005779233
20
-33.2885085107252
30
-7E-16
41
1
10
36.4106901632001
20
-33.315442048542
30
-7E-16
41
1
10
36.3832846508189
20
-33.3249809471616
30
-6E-16
41
1
10
36.3530790233729
20
-33.3249809471617
30
-6E-16
0
SPLINE
5
136
100
AcDbEntity
8
1
62
256
6
ByLayer
370
18
48
1
60
0
100
AcDbSpline
70
4
71
3
72
12
73
8
40
0
40
0
40
0
40
0
40
0.249999999999984
40
0.249999999999984
40
0.499999999999968
40
0.499999999999968
40
1
40
1
40
1
40
1
41
1
10
36.1469209766268
20
-33.3249809471616
30
-6E-16
41
1
10
36.1336907316267
20
-33.3249809471616
30
-6E-16
41
1
10
36.1198510430658
20
-33.3230954460138
30
-6E-16
41
1
10
36.0936438123737
20
-33.3155946867766
30
-7E-16
41
1
10
36.0810197124636
20
-33.3099161130841
30
-7E-16
41
1
10
36.0476914291357
20
-33.2892237432006
30
-7E-16
41
1
10
36.0313580604914
20
-33.2708201049557
30
-8E-16
41
1
10
36.0204812676557
20
-33.2519809471299
30
-8E-16
0
SPLINE
5
137
100
AcDbEntity
8
1
62
256
6
ByLayer
370
18
48
1
60
0
100
AcDbSpline
70
4
71
3
72
8
73
4
40
0
40
0
40
0
40
0
40
1
40
1
40
1
40
1
41
1
10
35.6338009248846
20
-32.5822309471617
30
-2.5E-15
41
1
10
35.7629828657544
20
-32.8059806321686
30
-1.9E-15
41
1
10
35.8919080832984
20
-33.0292856593317
30
-1.4E-15
41
1
10
36.0204812676559
20
-33.2519809471297
30
-8E-16
0
SPLINE
5
138
100
AcDbEntity
8
1
62
256
6
ByLayer
370
18
48
1
60
0
100
AcDbSpline
70
4
71
3
72
18
73
14
40
0
40
0
40
0
40
0
40
0.125
40
0.125
40
0.25
40
0.25
40
0.375
40
0.375
40
0.5
40
0.5
40
0.75
40
0.75
40
1
40
1
40
1
40
1
41
1
10
35.6338009248847
20
-32.5822309471617
30
-2.5E-15
41
1
10
35.6274108395848
20
-32.5711629947576
30
-2.5E-15
41
1
10
35.6194025082614
20
-32.5603981917308
30
-2.6E-15
41
1
10
35.5992091826966
20
-32.5401834640718
30
-2.6E-15
41
1
10
35.5871255482177
20
-32.5309390251824
30
-2.6E-15
41
1
10
35.5596546626118
20
-32.5161100711546
30
-2.7E-15
41
1
10
35.544224138254
20
-32.5106042487004
30
-2.7E-15
41
1
10
35.5131642252352
20
-32.5047335758657
30
-2.7E-15
41
1
10
35.4975070719534
20
-32.5043165144248
30
-2.7E-15
41
1
10
35.4540940084995
20
-32.5091122221833
30
-2.7E-15
41
1
10
35.4298841123306
20
-32.5198242877988
30
-2.7E-15
41
1
10
35.3916003406748
20
-32.5469210339321
30
-2.6E-15
41
1
10
35.3768832251424
20
-32.563725456479
30
-2.6E-15
41
1
10
35.3661990751152
20
-32.5822309471617
30
-2.5E-15
0
SPLINE
5
139
100
AcDbEntity
8
1
62
256
6
ByLayer
370
18
48
1
60
0
100
AcDbSpline
70
4
71
3
72
8
73
4
40
0
40
0
40
0
40
0
40
1
40
1
40
1
40
1
41
1
10
34.9795187323254
20
-33.2519809471617
30
-8E-16
41
1
10
35.1039049200757
20
-33.0365377502184
30
-1.4E-15
41
1
10
35.2332788214982
20
-32.8124555797812
30
-1.9E-15
41
1
10
35.3661990751151
20
-32.5822309471617
30
-2.5E-15
0
SPLINE
5
13A
100
AcDbEntity
8
1
62
256
6
ByLayer
370
18
48
1
60
0
100
AcDbSpline
70
4
71
3
72
10
73
6
40
0
40
0
40
0
40
0
40
0.5
40
0.5
40
1
40
1
40
1
40
1
41
1
10
34.9795187323261
20
-33.2519809471621
30
-8E-16
41
1
10
34.9682145447946
20
-33.2715603743049
30
-8E-16
41
1
10
34.9523960148863
20
-33.2888154669515
30
-7E-16
41
1
10
34.9106886059747
20
-33.3153943722091
30
-7E-16
41
1
10
34.8848992215749
20
-33.3249809471617
30
-6E-16
41
1
10
34.8530790233728
20
-33.3249809471617
30
-6E-16
0
SPLINE
5
13B
100
AcDbEntity
8
1
62
256
6
ByLayer
370
18
48
1
60
0
100
AcDbSpline
70
4
71
3
72
14
73
10
40
0
40
0
40
0
40
0
40
0.25
40
0.25
40
0.5
40
0.5
40
0.75
40
0.75
40
1
40
1
40
1
40
1
41
1
10
34.646920976627
20
-33.3249809471621
30
-6E-16
41
1
10
34.6354356378495
20
-33.3249809471622
30
-6E-16
41
1
10
34.6230746527339
20
-33.3235991495388
30
-6E-16
41
1
10
34.5980381211307
20
-33.3171603163184
30
-7E-16
41
1
10
34.5851437188596
20
-33.3119655546591
30
-7E-16
41
1
10
34.5616221510396
20
-33.2982514202971
30
-7E-16
41
1
10
34.5508866678228
20
-33.2896959734823
30
-7E-16
41
1
10
34.533059029994
20
-33.2712623788239
30
-8E-16
41
1
10
34.5261041425077
20
-33.2617200520575
30
-8E-16
41
1
10
34.5204812676752
20
-33.2519809471632
30
-8E-16
0
SPLINE
5
13C
100
AcDbEntity
8
1
62
256
6
ByLayer
370
18
48
1
60
0
100
AcDbSpline
70
4
71
3
72
8
73
4
40
0
40
0
40
0
40
0
40
1
40
1
40
1
40
1
41
1
10
34.1338009248846
20
-32.5822309471617
30
-2.5E-15
41
1
10
34.262696144195
20
-32.8054840158601
30
-2E-15
41
1
10
34.3915898143076
20
-33.0287344012692
30
-1.4E-15
41
1
10
34.5204812676752
20
-33.2519809471632
30
-8E-16
0
SPLINE
5
13D
100
AcDbEntity
8
1
62
256
6
ByLayer
370
18
48
1
60
0
100
AcDbSpline
70
4
71
3
72
18
73
14
40
0
40
0
40
0
40
0
40
0.125000000000007
40
0.125000000000007
40
0.250000000000013
40
0.250000000000013
40
0.37500000000002
40
0.37500000000002
40
0.500000000000026
40
0.500000000000026
40
0.750000000000013
40
0.750000000000013
40
1
40
1
40
1
40
1
41
1
10
34.1338009248849
20
-32.5822309471617
30
-2.5E-15
41
1
10
34.1264946448463
20
-32.5695760989205
30
-2.6E-15
41
1
10
34.1166906505354
20
-32.5567975377134
30
-2.6E-15
41
1
10
34.0915089185933
20
-32.5338357788655
30
-2.6E-15
41
1
10
34.0759249478847
20
-32.5237593372677
30
-2.7E-15
41
1
10
34.0431871528085
20
-32.510082744576
30
-2.7E-15
41
1
10
34.026579693925
20
-32.5065221318007
30
-2.7E-15
41
1
10
33.9961580107265
20
-32.5042774728313
30
-2.7E-15
41
1
10
33.9820884684341
20
-32.5054779057706
30
-2.7E-15
41
1
10
33.9440298560604
20
-32.5131674759324
30
-2.7E-15
41
1
10
33.9234520331118
20
-32.5236089501772
30
-2.7E-15
41
1
10
33.8896462385556
20
-32.5492864004075
30
-2.6E-15
41
1
10
33.8762351374452
20
-32.5648479772983
30
-2.6E-15
41
1
10
33.8661990751152
20
-32.5822309471617
30
-2.5E-15
0
SPLINE
5
13E
100
AcDbEntity
8
1
62
256
6
ByLayer
370
18
48
1
60
0
100
AcDbSpline
70
4
71
3
72
8
73
4
40
0
40
0
40
0
40
0
40
1
40
1
40
1
40
1
41
1
10
33.4795187323253
20
-33.2519809471618
30
-8E-16
41
1
10
33.5955334882684
20
-33.0510374954407
30
-1.3E-15
41
1
10
33.7259561351269
20
-32.8251388446242
30
-1.9E-15
41
1
10
33.8661990751151
20
-32.5822309471617
30
-2.5E-15
0
SPLINE
5
13F
100
AcDbEntity
8
1
62
256
6
ByLayer
370
18
48
1
60
0
100
AcDbSpline
70
4
71
3
72
12
73
8
40
0
40
0
40
0
40
0
40
0.499999999999957
40
0.499999999999957
40
0.749999999999979
40
0.749999999999979
40
1
40
1
40
1
40
1
41
1
10
33.4795187323254
20
-33.2519809471617
30
-8E-16
41
1
10
33.4674705318893
20
-33.2728490424567
30
-8E-16
41
1
10
33.4511111354859
20
-33.289916967475
30
-7E-16
41
1
10
33.4199009626119
20
-33.3093692224762
30
-7E-16
41
1
10
33.4083177987826
20
-33.3147803647762
30
-7E-16
41
1
10
33.3828769357522
20
-33.32252497717
30
-6E-16
41
1
10
33.369016020987
20
-33.3249809471608
30
-6E-16
41
1
10
33.3530790233808
20
-33.3249809471617
30
-6E-16
0
SPLINE
5
140
100
AcDbEntity
8
1
62
256
6
ByLayer
370
18
48
1
60
0
100
AcDbSpline
70
4
71
3
72
12
73
8
40
0
40
0
40
0
40
0
40
0.499999999999892
40
0.499999999999892
40
0.749999999999946
40
0.749999999999946
40
1
40
1
40
1
40
1
41
1
10
33.1469209766268
20
-33.3249809471617
30
-6E-16
41
1
10
33.1346503034201
20
-33.3249809471616
30
-6E-16
41
1
10
33.1212905137548
20
-33.3236086709682
30
-6E-16
41
1
10
33.0981643474795
20
-33.316833462171
30
-7E-16
41
1
10
33.0899032491091
20
-33.3137330317692
30
-7E-16
41
1
10
33.0726615740197
20
-33.3050550788533
30
-7E-16
41
1
10
33.063469126941
20
-33.2993044223911
30
-7E-16
41
1
10
33.0547646161755
20
-33.2922205393031
30
-7E-16
0
SPLINE
5
141
100
AcDbEntity
8
1
62
256
6
ByLayer
370
18
48
1
60
0
100
AcDbSpline
70
4
71
3
72
8
73
4
40
0
40
0
40
0
40
0
40
1
40
1
40
1
40
1
41
1
10
32.6338009248878
20
-32.5822309471673
30
-2.5E-15
41
1
10
32.7635199538839
20
-32.8069108960971
30
-1.9E-15
41
1
10
32.8923811319444
20
-33.030105003621
30
-1.4E-15
41
1
10
33.0197462821359
20
-33.2507079148663
30
-8E-16
0
SPLINE
5
142
100
AcDbEntity
8
1
62
256
6
ByLayer
370
18
48
1
60
0
100
AcDbSpline
70
4
71
3
72
8
73
4
40
0
40
0
40
0
40
0
40
1
40
1
40
1
40
1
41
1
10
29.633800924878
20
-32.5822309471504
30
1E-15
41
1
10
29.7630301252331
20
-32.8060624879869
30
1.6E-15
41
1
10
29.8919308703058
20
-33.0293251275863
30
-1.4E-15
41
1
10
30.0204812676434
20
-33.2519809471081
30
-8E-16
0
SPLINE
5
143
100
AcDbEntity
8
1
62
256
6
ByLayer
370
18
48
1
60
0
100
AcDbSpline
70
4
71
3
72
10
73
6
40
0
40
0
40
0
40
0
40
0.50101979410013
40
0.50101979410013
40
1
40
1
40
1
40
1
41
1
10
23.3674952832328
20
-32.3000000000001
30
3E-16
41
1
10
23.2074740720748
20
-32.3
30
3E-16
41
1
10
23.0838454657728
20
-32.3
30
3E-16
41
1
10
22.9185880943063
20
-32.3000000000001
30
-1E-16
41
1
10
22.8767074512255
20
-32.3000000000001
30
1E-16
41
1
10
22.8768217498757
20
-32.3000000000001
30
1E-16
0
SPLINE
5
144
100
AcDbEntity
8
1
62
256
6
ByLayer
370
18
48
1
60
0
100
AcDbSpline
70
4
71
3
72
30
73
26
40
0
40
0
40
0
40
0
40
0.0078125
40
0.0078125
40
0.015625
40
0.03125
40
0.0625
40
0.0625
40
0.125
40
0.125
40
0.25
40
0.25
40
0.375
40
0.375
40
0.4375
40
0.4375
40
0.5
40
0.5
40
0.625
40
0.625
40
0.75
40
0.75
40
0.875
40
0.875
40
1
40
1
40
1
40
1
41
1
10
63.2499999999999
20
-20.3681159050088
30
0
41
1
10
63.2499999999999
20
-20.3262612470203
30
0
41
1
10
63.2498523222873
20
-20.2838570033252
30
0
41
1
10
63.2492588544806
20
-20.1994034986323
30
0
41
1
10
63.2479230016385
20
-20.0727458796021
30
0
41
1
10
63.2416892926244
20
-19.7773786770602
30
0
41
1
10
63.2310122427504
20
-19.5245235419587
30
1E-16
41
1
10
63.2025634886998
20
-19.0193158531247
30
-1E-16
41
1
10
63.1741406769587
20
-18.683180584758
30
-1E-16
41
1
10
63.0605452932542
20
-17.6774318804009
30
-4E-16
41
1
10
62.947087592843
20
-17.010465804151
30
-3E-16
41
1
10
62.6439598155556
20
-15.6872094326056
30
8E-16
41
1
10
62.4542944925664
20
-15.0309101871326
30
9E-16
41
1
10
62.1110263239769
20
-14.0574764946456
30
2E-16
41
1
10
61.9867972530605
20
-13.734838528706
30
-6E-16
41
1
10
61.7183094092903
20
-13.0938093235601
30
-5E-16
41
1
10
61.5740465242486
20
-12.7754872814116
30
5E-16
41
1
10
61.1127933817219
20
-11.8322033295662
30
-1E-16
41
1
10
60.7667933427845
20
-11.2174057775066
30
1E-16
41
1
10
59.9959824616796
20
-10.0210210122339
30
6E-16
41
1
10
59.5711817010249
20
-9.4394159201311
30
-9E-16
41
1
10
58.6393229232178
20
-8.31578167752284
30
-2E-16
41
1
10
58.1322837628033
20
-7.77372395904274
30
-1.6E-15
41
1
10
57.0304417592263
20
-6.73752034239749
30
-7E-16
41
1
10
56.4356731113848
20
-6.2433251519553
30
1.6E-15
41
1
10
55.7928571428571
20
-5.77879915386137
30
5E-16
0
SPLINE
5
145
100
AcDbEntity
8
1
62
256
6
ByLayer
370
18
48
1
60
0
100
AcDbSpline
70
4
71
3
72
8
73
4
40
0
40
0
40
0
40
0
40
1
40
1
40
1
40
1
41
1
10
55.7928571428571
20
-5.77879915386137
30
5E-16
41
1
10
55.1214912414357
20
-5.29364176712392
30
-8E-16
41
1
10
54.4319595637615
20
-4.72206801120339
30
1.3E-15
41
1
10
53.7423469894216
20
-4.03396315340663
30
3.1E-15
0
SPLINE
5
146
100
AcDbEntity
8
1
62
256
6
ByLayer
370
18
48
1
60
0
100
AcDbSpline
70
4
71
3
72
8
73
4
40
0
40
0
40
0
40
0
40
1
40
1
40
1
40
1
41
1
10
62.6338009248845
20
-32.5822309471619
30
1E-16
41
1
10
62.7028252613523
20
-32.7017846048828
30
1E-16
41
1
10
62.737448786544
20
-32.7617543096518
30
1E-16
41
1
10
62.7376744248846
20
-32.7621451267219
30
1E-16
0
SPLINE
5
147
100
AcDbEntity
8
1
62
256
6
ByLayer
370
18
48
1
60
0
100
AcDbSpline
70
4
71
3
72
28
73
24
40
0
40
0
40
0
40
0
40
0.500000000000008
40
0.500000000000008
40
0.750000000000013
40
0.750000000000013
40
0.875000000000015
40
0.875000000000015
40
0.906250000000016
40
0.906250000000016
40
0.937500000000018
40
0.937500000000018
40
0.953125000000018
40
0.953125000000018
40
0.960937500000014
40
0.960937500000014
40
0.968750000000011
40
0.968750000000011
40
0.976562500000007
40
0.976562500000007
40
0.984375000000004
40
0.984375000000004
40
1
40
1
40
1
40
1
41
1
10
62.6338009248846
20
-32.5822309471618
30
1E-16
41
1
10
62.619314747298
20
-32.5571401515745
30
1E-16
41
1
10
62.5980086827086
20
-32.534734567854
30
0
41
1
10
62.5490604726459
20
-32.5118747217412
30
0
41
1
10
62.5300814650784
20
-32.5058647141355
30
0
41
1
10
62.4923737179538
20
-32.5046577004549
30
-1E-16
41
1
10
62.4784997522245
20
-32.5053153749594
30
0
41
1
10
62.4556142267269
20
-32.5114181470562
30
0
41
1
10
62.4507312360692
20
-32.5129317840935
30
9E-16
41
1
10
62.4398540862941
20
-32.5170501311149
30
9E-16
41
1
10
62.4339136531794
20
-32.5195813703815
30
9E-16
41
1
10
62.422945834461
20
-32.5255027128178
30
-9E-16
41
1
10
62.418984344022
20
-32.5277957649015
30
-9E-16
41
1
10
62.4116845089804
20
-32.5326771913771
30
-9E-16
41
1
10
62.4090589772584
20
-32.5345196288052
30
-9E-16
41
1
10
62.4028421021094
20
-32.5392896680265
30
-9E-16
41
1
10
62.3990785628685
20
-32.5423308772138
30
-8E-16
41
1
10
62.3899498251138
20
-32.5508612695291
30
-8E-16
41
1
10
62.3853147481443
20
-32.5558414613167
30
-8E-16
41
1
10
62.3790302068436
20
-32.5632512263728
30
-8E-16
41
1
10
62.3767959007595
20
-32.5661970505619
30
-8E-16
41
1
10
62.3709909410198
20
-32.5742139874768
30
-8E-16
41
1
10
62.368408253765
20
-32.5784045374974
30
-8E-16
41
1
10
62.3661990751153
20
-32.5822309471616
30
-7E-16
0
SPLINE
5
148
100
AcDbEntity
8
1
62
256
6
ByLayer
370
18
48
1
60
0
100
AcDbSpline
70
4
71
3
72
8
73
4
40
0
40
0
40
0
40
0
40
1
40
1
40
1
40
1
41
1
10
61.9795187323273
20
-33.2519809471584
30
1E-16
41
1
10
62.0877830402846
20
-33.0644616651301
30
-4E-16
41
1
10
62.2176437798826
20
-32.8395362662378
30
-1E-16
41
1
10
62.366199075115
20
-32.582230947162
30
-7E-16
0
SPLINE
5
149
100
AcDbEntity
8
1
62
256
6
ByLayer
370
18
48
1
60
0
100
AcDbSpline
70
4
71
3
72
26
73
22
40
0
40
0
40
0
40
0
40
0.0624999999999714
40
0.0624999999999714
40
0.0937499999999541
40
0.0937499999999541
40
0.109374999999944
40
0.109374999999944
40
0.124999999999934
40
0.124999999999934
40
0.140624999999923
40
0.140624999999923
40
0.156249999999913
40
0.156249999999913
40
0.187499999999913
40
0.187499999999913
40
0.249999999999919
40
0.249999999999919
40
0.499999999999944
40
0.499999999999944
40
1
40
1
40
1
40
1
41
1
10
61.9795187323276
20
-33.2519809471581
30
1E-16
41
1
10
61.9776662140821
20
-33.2551896028816
30
1E-16
41
1
10
61.9755318288102
20
-33.2586689704964
30
1E-16
41
1
10
61.9708902819483
20
-33.265257971968
30
1E-16
41
1
10
61.969143332371
20
-33.2676394893322
30
1E-16
41
1
10
61.9654629691514
20
-33.2721993142469
30
1E-16
41
1
10
61.9640479059674
20
-33.2739000911077
30
1E-16
41
1
10
61.9603520025605
20
-33.2780579108208
30
1E-16
41
1
10
61.9578553330976
20
-33.2807248464816
30
1E-16
41
1
10
61.9525266366094
20
-33.2859392023359
30
2E-16
41
1
10
61.9501581825048
20
-33.2880589782855
30
2E-16
41
1
10
61.9463270143176
20
-33.2913517271553
30
2E-16
41
1
10
61.9447231339882
20
-33.2926504129394
30
2E-16
41
1
10
61.940379370983
20
-33.2960630173077
30
2E-16
41
1
10
61.9380277700971
20
-33.2977517688066
30
2E-16
41
1
10
61.931585621007
20
-33.3021877030834
30
2E-16
41
1
10
61.928150043346
20
-33.3042554069512
30
2E-16
41
1
10
61.9122504764758
20
-33.3132504976295
30
2E-16
41
1
10
61.9035045989122
20
-33.3162701221855
30
2E-16
41
1
10
61.8786197312725
20
-33.3237700946439
30
3E-16
41
1
10
61.8654269522397
20
-33.3249809471618
30
3E-16
41
1
10
61.8530790233733
20
-33.3249809471618
30
3E-16
0
SPLINE
5
14A
100
AcDbEntity
8
1
62
256
6
ByLayer
370
18
48
1
60
0
100
AcDbSpline
70
4
71
3
72
10
73
6
40
0
40
0
40
0
40
0
40
0.5
40
0.5
40
1
40
1
40
1
40
1
41
1
10
61.6469209766003
20
-33.3249809471885
30
3E-16
41
1
10
61.6163124063881
20
-33.324980947183
30
-6E-16
41
1
10
61.5926402914011
20
-33.316665408937
30
-7E-16
41
1
10
61.5510655597707
20
-33.2917423894292
30
-7E-16
41
1
10
61.5335858962773
20
-33.2746788297167
30
-8E-16
41
1
10
61.5204812676742
20
-33.2519809471616
30
-8E-16
0
SPLINE
5
14B
100
AcDbEntity
8
1
62
256
6
ByLayer
370
18
48
1
60
0
100
AcDbSpline
70
4
71
3
72
8
73
4
40
0
40
0
40
0
40
0
40
1
40
1
40
1
40
1
41
1
10
61.1338009248845
20
-32.5822309471618
30
-7E-16
41
1
10
61.2900965362245
20
-32.8529428870027
30
-1E-16
41
1
10
61.4193779491704
20
-33.0768648626993
30
5E-16
41
1
10
61.5204812676742
20
-33.2519809471616
30
-8E-16
0
SPLINE
5
14C
100
AcDbEntity
8
1
62
256
6
ByLayer
370
18
48
1
60
0
100
AcDbSpline
70
4
71
3
72
26
73
22
40
0
40
0
40
0
40
0
40
0.250000000000001
40
0.250000000000001
40
0.500000000000003
40
0.500000000000003
40
0.750000000000004
40
0.750000000000004
40
0.812500000000006
40
0.812500000000006
40
0.875000000000007
40
0.875000000000007
40
0.906250000000008
40
0.906250000000008
40
0.937500000000009
40
0.937500000000009
40
0.953125000000006
40
0.953125000000006
40
0.968750000000004
40
0.968750000000004
40
1
40
1
40
1
40
1
41
1
10
61.1338009248846
20
-32.5822309471618
30
-7E-16
41
1
10
61.1251742176362
20
-32.5672890519056
30
-8E-16
41
1
10
61.1143722586754
20
-32.5542074883213
30
-8E-16
41
1
10
61.0885420151259
20
-32.5317162170984
30
-9E-16
41
1
10
61.0735675782444
20
-32.5222911993957
30
9E-16
41
1
10
61.0380363619317
20
-32.5085291315652
30
8E-16
41
1
10
61.0178210367231
20
-32.5037352129295
30
8E-16
41
1
10
60.9847053508109
20
-32.5055968080383
30
8E-16
41
1
10
60.9776622148469
20
-32.5064003063312
30
8E-16
41
1
10
60.9621647846329
20
-32.5094770948087
30
8E-16
41
1
10
60.9537734296686
20
-32.5116694192135
30
9E-16
41
1
10
60.9387970459351
20
-32.5175190796989
30
9E-16
41
1
10
60.9334593906053
20
-32.5198732197495
30
9E-16
41
1
10
60.9212655710153
20
-32.5263687390654
30
-9E-16
41
1
10
60.9144631252004
20
-32.5303777938989
30
-9E-16
41
1
10
60.9017572492203
20
-32.5401197528712
30
-8E-16
41
1
10
60.8971229112218
20
-32.5440466679574
30
-8E-16
41
1
10
60.8881952838966
20
-32.5526704904267
30
-8E-16
41
1
10
60.8840540663342
20
-32.557232893562
30
-8E-16
41
1
10
60.8739899194412
20
-32.5694631400879
30
-8E-16
41
1
10
60.8696799123699
20
-32.5762019601855
30
-8E-16
41
1
10
60.8661990751243
20
-32.582230947146
30
-7E-16
0
SPLINE
5
14D
100
AcDbEntity
8
1
62
256
6
ByLayer
370
18
48
1
60
0
100
AcDbSpline
70
4
71
3
72
8
73
4
40
0
40
0
40
0
40
0
40
1
40
1
40
1
40
1
41
1
10
60.4795187323306
20
-33.2519809471527
30
-8E-16
41
1
10
60.6055837757652
20
-33.0336298868655
30
4E-16
41
1
10
60.7345761385705
20
-32.8102085606984
30
-2E-16
41
1
10
60.8661990751239
20
-32.5822309471465
30
-7E-16
0
SPLINE
5
14E
100
AcDbEntity
8
1
62
256
6
ByLayer
370
18
48
1
60
0
100
AcDbSpline
70
4
71
3
72
20
73
16
40
0
40
0
40
0
40
0
40
0.062500000000006
40
0.062500000000006
40
0.125000000000012
40
0.125000000000012
40
0.187500000000018
40
0.187500000000018
40
0.250000000000024
40
0.250000000000024
40
0.375000000000021
40
0.375000000000021
40
0.500000000000018
40
0.500000000000018
40
1
40
1
40
1
40
1
41
1
10
60.4795187323309
20
-33.2519809471524
30
-8E-16
41
1
10
60.4776890532003
20
-33.2551500443687
30
-8E-16
41
1
10
60.4755929804617
20
-33.2585242665134
30
-8E-16
41
1
10
60.4703882449992
20
-33.2660174674074
30
-8E-16
41
1
10
60.4672430508028
20
-33.2701959376814
30
-8E-16
41
1
10
60.4591926204414
20
-33.2794473802213
30
-7E-16
41
1
10
60.4541263766883
20
-33.2845660284989
30
-7E-16
41
1
10
60.4442807060087
20
-33.2931782768039
30
-7E-16
41
1
10
60.4397519438506
20
-33.2965735242698
30
-7E-16
41
1
10
60.4275816066441
20
-33.3049261829829
30
-7E-16
41
1
10
60.4212997072267
20
-33.3082223270026
30
-7E-16
41
1
10
60.4096664359114
20
-33.3137224059294
30
-7E-16
41
1
10
60.4045618372616
20
-33.3156957406456
30
-7E-16
41
1
10
60.3806798819577
20
-33.3237595047488
30
-6E-16
41
1
10
60.3662990493662
20
-33.3249809471705
30
-6E-16
41
1
10
60.3530790233729
20
-33.3249809471705
30
-6E-16
0
SPLINE
5
14F
100
AcDbEntity
8
1
62
256
6
ByLayer
370
18
48
1
60
0
100
AcDbSpline
70
4
71
3
72
12
73
8
40
0
40
0
40
0
40
0
40
0.249999999999999
40
0.249999999999999
40
0.499999999999999
40
0.499999999999999
40
1
40
1
40
1
40
1
41
1
10
60.1469209766268
20
-33.3249809471617
30
-6E-16
41
1
10
60.1306766777332
20
-33.3249809471617
30
-6E-16
41
1
10
60.1168191289747
20
-33.3224539088005
30
-6E-16
41
1
10
60.0915485672428
20
-33.3147178553057
30
-7E-16
41
1
10
60.0802283039685
20
-33.3094197662788
30
-7E-16
41
1
10
60.0494044236377
20
-33.2902972279521
30
-7E-16
41
1
10
60.0328222880774
20
-33.2733562215172
30
-8E-16
41
1
10
60.0204812676743
20
-33.2519809471618
30
-8E-16
0
SPLINE
5
150
100
AcDbEntity
8
1
62
256
6
ByLayer
370
18
48
1
60
0
100
AcDbSpline
70
4
71
3
72
8
73
4
40
0
40
0
40
0
40
0
40
1
40
1
40
1
40
1
41
1
10
59.6338009248845
20
-32.5822309471617
30
1E-15
41
1
10
59.7742704620199
20
-32.8255313223959
30
1.7E-15
41
1
10
59.9033249127222
20
-33.0490601879551
30
-1.3E-15
41
1
10
60.0204812676743
20
-33.2519809471618
30
-8E-16
0
SPLINE
5
151
100
AcDbEntity
8
1
62
256
6
ByLayer
370
18
48
1
60
0
100
AcDbSpline
70
4
71
3
72
24
73
20
40
0
40
0
40
0
40
0
40
0.25
40
0.25
40
0.5
40
0.5
40
0.75
40
0.75
40
0.812499999999997
40
0.812499999999997
40
0.874999999999994
40
0.874999999999994
40
0.906249999999995
40
0.906249999999995
40
0.937499999999997
40
0.937499999999997
40
0.968749999999998
40
0.968749999999998
40
1
40
1
40
1
40
1
41
1
10
59.6338009248846
20
-32.5822309471617
30
1E-15
41
1
10
59.6248777148424
20
-32.566775494002
30
1E-15
41
1
10
59.6136614069201
20
-32.5533515387349
30
1E-15
41
1
10
59.5867692112271
20
-32.530432620016
30
9E-16
41
1
10
59.5711408047074
20
-32.5209239668518
30
9E-16
41
1
10
59.5340606542871
20
-32.5074976496696
30
8E-16
41
1
10
59.512980133347
20
-32.5029984651817
30
8E-16
41
1
10
59.4781211967873
20
-32.5063776142972
30
8E-16
41
1
10
59.470648547829
20
-32.5075565412982
30
8E-16
41
1
10
59.4541558525066
20
-32.5116944559586
30
9E-16
41
1
10
59.4452787978579
20
-32.5145169029718
30
9E-16
41
1
10
59.4292715599973
20
-32.5219948704384
30
9E-16
41
1
10
59.4235862689484
20
-32.5249912765153
30
9E-16
41
1
10
59.4109157615759
20
-32.533027286605
30
9E-16
41
1
10
59.4035769823707
20
-32.538392496457
30
9E-16
41
1
10
59.3895190825091
20
-32.5510661045747
30
1E-15
41
1
10
59.3829907909375
20
-32.5582672669539
30
1E-15
41
1
10
59.3730836684387
20
-32.5710071722357
30
1E-15
41
1
10
59.3692951526673
20
-32.5768683834889
30
1E-15
41
1
10
59.3661990750642
20
-32.5822309472068
30
1E-15
0
SPLINE
5
152
100
AcDbEntity
8
1
62
256
6
ByLayer
370
18
48
1
60
0
100
AcDbSpline
70
4
71
3
72
8
73
4
40
0
40
0
40
0
40
0
40
1
40
1
40
1
40
1
41
1
10
58.9795187323313
20
-33.2519809471515
30
-8E-16
41
1
10
59.1072812423217
20
-33.0306897885456
30
-1.4E-15
41
1
10
59.2362067859015
20
-32.807384196672
30
1.6E-15
41
1
10
59.3661990751033
20
-32.5822309471821
30
1E-15
0
SPLINE
5
153
100
AcDbEntity
8
1
62
256
6
ByLayer
370
18
48
1
60
0
100
AcDbSpline
70
4
71
3
72
18
73
14
40
0
40
0
40
0
40
0
40
0.125000000000005
40
0.125000000000005
40
0.25000000000001
40
0.25000000000001
40
0.375000000000015
40
0.375000000000015
40
0.50000000000002
40
0.50000000000002
40
0.75000000000001
40
0.75000000000001
40
1
40
1
40
1
40
1
41
1
10
58.9795187323318
20
-33.2519809471511
30
-8E-16
41
1
10
58.9760374313198
20
-33.2580107373816
30
-8E-16
41
1
10
58.9716887042535
20
-33.2646654936224
30
-8E-16
41
1
10
58.959310202121
20
-33.2796041778918
30
-7E-16
41
1
10
58.9508845290241
20
-33.2878571528254
30
-7E-16
41
1
10
58.934803173106
20
-33.300393913709
30
-7E-16
41
1
10
58.9276499904425
20
-33.3047068185216
30
-7E-16
41
1
10
58.9149199154165
20
-33.3114329306506
30
-7E-16
41
1
10
58.9091882578268
20
-33.3138855702958
30
-7E-16
41
1
10
58.8934040534082
20
-33.319749928434
30
-6E-16
41
1
10
58.8844531680331
20
-33.3218192383619
30
-6E-16
41
1
10
58.8677987610354
20
-33.3244816128279
30
-6E-16
41
1
10
58.8602012651072
20
-33.3249809471749
30
-6E-16
41
1
10
58.8530790233625
20
-33.3249809471744
30
-6E-16
0
SPLINE
5
154
100
AcDbEntity
8
1
62
256
6
ByLayer
370
18
48
1
60
0
100
AcDbSpline
70
4
71
3
72
12
73
8
40
0
40
0
40
0
40
0
40
0.250000000000003
40
0.250000000000003
40
0.500000000000006
40
0.500000000000006
40
1
40
1
40
1
40
1
41
1
10
58.6469209766268
20
-33.3249809471617
30
-6E-16
41
1
10
58.630520685273
20
-33.3249809471617
30
-6E-16
41
1
10
58.6165860230144
20
-33.3224096709392
30
-6E-16
41
1
10
58.5912300257413
20
-33.3145926214548
30
-7E-16
41
1
10
58.5798806787197
20
-33.3092442946562
30
-7E-16
41
1
10
58.549033644065
20
-33.2899847088062
30
-7E-16
41
1
10
58.5326433922441
20
-33.2730463648447
30
-8E-16
41
1
10
58.5204812676743
20
-33.2519809471618
30
-8E-16
0
SPLINE
5
155
100
AcDbEntity
8
1
62
256
6
ByLayer
370
18
48
1
60
0
100
AcDbSpline
70
4
71
3
72
8
73
4
40
0
40
0
40
0
40
0
40
1
40
1
40
1
40
1
41
1
10
58.1338009248845
20
-32.5822309471617
30
1E-15
41
1
10
58.2698793713872
20
-32.8179257303193
30
1.6E-15
41
1
10
58.398871072818
20
-33.0413459109523
30
-1.4E-15
41
1
10
58.5204812676743
20
-33.2519809471618
30
-8E-16
0
SPLINE
5
156
100
AcDbEntity
8
1
62
256
6
ByLayer
370
18
48
1
60
0
100
AcDbSpline
70
4
71
3
72
26
73
22
40
0
40
0
40
0
40
0
40
0.249999999999995
40
0.249999999999995
40
0.49999999999999
40
0.49999999999999
40
0.624999999999997
40
0.624999999999997
40
0.750000000000004
40
0.750000000000004
40
0.812500000000007
40
0.812500000000007
40
0.87500000000001
40
0.87500000000001
40
0.906250000000008
40
0.906250000000008
40
0.937500000000005
40
0.937500000000005
40
0.968750000000003
40
0.968750000000003
40
1
40
1
40
1
40
1
41
1
10
58.1338009248846
20
-32.5822309471617
30
1E-15
41
1
10
58.1247083277437
20
-32.5664821069408
30
1E-15
41
1
10
58.1132369234219
20
-32.5528397423506
30
1E-15
41
1
10
58.0856562950925
20
-32.5296427921354
30
9E-16
41
1
10
58.0695234815117
20
-32.5200400681222
30
9E-16
41
1
10
58.0409204233596
20
-32.5101573898801
30
9E-16
41
1
10
58.0306352555359
20
-32.5076144373406
30
8E-16
41
1
10
58.0078614607158
20
-32.5047548888444
30
8E-16
41
1
10
57.9954581433284
20
-32.5043502442674
30
8E-16
41
1
10
57.97358663493
20
-32.5070783142898
30
8E-16
41
1
10
57.965723520202
20
-32.5085667123175
30
8E-16
41
1
10
57.9485655923336
20
-32.5135203872355
30
9E-16
41
1
10
57.9392647789995
20
-32.5168690182159
30
9E-16
41
1
10
57.9226408397828
20
-32.525596742838
30
9E-16
41
1
10
57.9166991221853
20
-32.5291395975892
30
9E-16
41
1
10
57.9043199972829
20
-32.5379357262226
30
9E-16
41
1
10
57.8978511641619
20
-32.5432802981781
30
9E-16
41
1
10
57.8861676199924
20
-32.5546994375854
30
1E-15
41
1
10
57.8809666721921
20
-32.5607361131282
30
1E-15
41
1
10
57.8725067547773
20
-32.5719312595556
30
1E-15
41
1
10
57.8690954235235
20
-32.5772143245621
30
1E-15
41
1
10
57.8661990751152
20
-32.5822309471618
30
1E-15
0
SPLINE
5
157
100
AcDbEntity
8
1
62
256
6
ByLayer
370
18
48
1
60
0
100
AcDbSpline
70
4
71
3
72
8
73
4
40
0
40
0
40
0
40
0
40
1
40
1
40
1
40
1
41
1
10
57.4795187323253
20
-33.2519809471618
30
-8E-16
41
1
10
57.6078268954119
20
-33.0297446896701
30
-1.4E-15
41
1
10
57.7367344993005
20
-32.806470170253
30
1.6E-15
41
1
10
57.8661990751151
20
-32.5822309471618
30
1E-15
0
SPLINE
5
158
100
AcDbEntity
8
1
62
256
6
ByLayer
370
18
48
1
60
0
100
AcDbSpline
70
4
71
3
72
18
73
14
40
0
40
0
40
0
40
0
40
0.125000000000005
40
0.125000000000005
40
0.250000000000011
40
0.250000000000011
40
0.375000000000016
40
0.375000000000016
40
0.500000000000021
40
0.500000000000021
40
0.750000000000011
40
0.750000000000011
40
1
40
1
40
1
40
1
41
1
10
57.4795187323254
20
-33.2519809471618
30
-8E-16
41
1
10
57.4761556072873
20
-33.2578060506
30
-8E-16
41
1
10
57.4720782761262
20
-33.2640092519945
30
-8E-16
41
1
10
57.4612203525043
20
-33.2774496615449
30
-8E-16
41
1
10
57.4544064072566
20
-33.2845354632014
30
-7E-16
41
1
10
57.4396428482395
20
-33.2969457673648
30
-7E-16
41
1
10
57.4323275485065
20
-33.3018397867244
30
-7E-16
41
1
10
57.419042183032
20
-33.3094550241362
30
-7E-16
41
1
10
57.4129486729455
20
-33.3122790077983
30
-7E-16
41
1
10
57.3960643021182
20
-33.3190354274501
30
-6E-16
41
1
10
57.3863259124954
20
-33.3214278416766
30
-6E-16
41
1
10
57.3686368970244
20
-33.3244265588546
30
-6E-16
41
1
10
57.360617654462
20
-33.3249809471617
30
-6E-16
41
1
10
57.3530790233741
20
-33.3249809471617
30
-6E-16
0
SPLINE
5
159
100
AcDbEntity
8
1
62
256
6
ByLayer
370
18
48
1
60
0
100
AcDbSpline
70
4
71
3
72
12
73
8
40
0
40
0
40
0
40
0
40
0.249999999999997
40
0.249999999999997
40
0.499999999999993
40
0.499999999999993
40
1
40
1
40
1
40
1
41
1
10
57.1469209766268
20
-33.3249809471617
30
-6E-16
41
1
10
57.1304561417452
20
-33.3249809471617
30
-6E-16
41
1
10
57.116481476316
20
-33.322390473222
30
-6E-16
41
1
10
57.091071920931
20
-33.3145307104293
30
-7E-16
41
1
10
57.0797163862534
20
-33.309162455683
30
-7E-16
41
1
10
57.0488199127894
20
-33.2898092368107
30
-7E-16
41
1
10
57.0325384545937
20
-33.2728646075025
30
-8E-16
41
1
10
57.0204812676743
20
-33.2519809471617
30
-8E-16
0
SPLINE
5
15A
100
AcDbEntity
8
1
62
256
6
ByLayer
370
18
48
1
60
0
100
AcDbSpline
70
4
71
3
72
8
73
4
40
0
40
0
40
0
40
0
40
1
40
1
40
1
40
1
41
1
10
56.6338009248845
20
-32.5822309471617
30
1E-15
41
1
10
56.7678061724306
20
-32.8143348443924
30
1.6E-15
41
1
10
56.8967683877814
20
-33.0377039536366
30
-1.4E-15
41
1
10
57.0204812676743
20
-33.2519809471617
30
-8E-16
0
SPLINE
5
15B
100
AcDbEntity
8
1
62
256
6
ByLayer
370
18
48
1
60
0
100
AcDbSpline
70
4
71
3
72
22
73
18
40
0
40
0
40
0
40
0
40
0.249999999999995
40
0.249999999999995
40
0.499999999999991
40
0.499999999999991
40
0.624999999999992
40
0.624999999999992
40
0.749999999999993
40
0.749999999999993
40
0.812499999999995
40
0.812499999999995
40
0.874999999999996
40
0.874999999999996
40
0.937499999999998
40
0.937499999999998
40
1
40
1
40
1
40
1
41
1
10
56.6338009248847
20
-32.5822309471616
30
1E-15
41
1
10
56.624548031282
20
-32.5662044653248
30
1E-15
41
1
10
56.6128292820889
20
-32.5523483598276
30
1E-15
41
1
10
56.584556710282
20
-32.528874665108
30
9E-16
41
1
10
56.5679647064921
20
-32.5191743129564
30
9E-16
41
1
10
56.5382410648406
20
-32.5094256350515
30
8E-16
41
1
10
56.5275249412568
20
-32.506978710324
30
8E-16
41
1
10
56.503621934349
20
-32.5045569779921
30
8E-16
41
1
10
56.4906157707434
20
-32.5045006737781
30
8E-16
41
1
10
56.4678320071665
20
-32.508171182235
30
8E-16
41
1
10
56.459708995513
20
-32.5100277266989
30
9E-16
41
1
10
56.4417872608779
20
-32.5160553317606
30
9E-16
41
1
10
56.4319922994229
20
-32.520177633871
30
9E-16
41
1
10
56.4102264111125
20
-32.5331038797411
30
9E-16
41
1
10
56.3981972451709
20
-32.5424127534817
30
9E-16
41
1
10
56.3787008214534
20
-32.5627582913555
30
1E-15
41
1
10
56.3715245227442
20
-32.5730070012948
30
1E-15
41
1
10
56.3661990751144
20
-32.5822309471627
30
1E-15
0
SPLINE
5
15C
100
AcDbEntity
8
1
62
256
6
ByLayer
370
18
48
1
60
0
100
AcDbSpline
70
4
71
3
72
8
73
4
40
0
40
0
40
0
40
0
40
1
40
1
40
1
40
1
41
1
10
55.9795187323253
20
-33.2519809471619
30
-8E-16
41
1
10
56.1080691296707
20
-33.0293251276264
30
-1.4E-15
41
1
10
56.2369698747515
20
-32.806062488013
30
1.6E-15
41
1
10
56.3661990751146
20
-32.5822309471626
30
1E-15
0
SPLINE
5
15D
100
AcDbEntity
8
1
62
256
6
ByLayer
370
18
48
1
60
0
100
AcDbSpline
70
4
71
3
72
18
73
14
40
0
40
0
40
0
40
0
40
0.124999999999982
40
0.124999999999982
40
0.249999999999965
40
0.249999999999965
40
0.374999999999947
40
0.374999999999947
40
0.499999999999929
40
0.499999999999929
40
0.749999999999965
40
0.749999999999965
40
1
40
1
40
1
40
1
41
1
10
55.9795187323511
20
-33.251980947147
30
-8E-16
41
1
10
55.976270825571
20
-33.2576064867106
30
-8E-16
41
1
10
55.9723563483391
20
-33.2635555029922
30
-8E-16
41
1
10
55.9624068736231
20
-33.2760755242745
30
-8E-16
41
1
10
55.9563047531528
20
-33.2826101925357
30
-7E-16
41
1
10
55.9430095212754
20
-33.2943372531549
30
-7E-16
41
1
10
55.9358420874511
20
-33.2995148696966
30
-7E-16
41
1
10
55.9223816934788
20
-33.3077260098765
30
-7E-16
41
1
10
55.9161481604829
20
-33.3108134306011
30
-7E-16
41
1
10
55.8983593352993
20
-33.3183788393058
30
-6E-16
41
1
10
55.8882476950446
20
-33.3210051075471
30
-6E-16
41
1
10
55.869395977171
20
-33.3243819602911
30
-6E-16
41
1
10
55.8609654343859
20
-33.3249809471617
30
-6E-16
41
1
10
55.8530790233729
20
-33.3249809471617
30
-6E-16
0
SPLINE
5
15E
100
AcDbEntity
8
1
62
256
6
ByLayer
370
18
48
1
60
0
100
AcDbSpline
70
4
71
3
72
12
73
8
40
0
40
0
40
0
40
0
40
0.25
40
0.25
40
0.5
40
0.5
40
1
40
1
40
1
40
1
41
1
10
55.6469209766269
20
-33.3249809471617
30
-6E-16
41
1
10
55.6304339677701
20
-33.3249809471617
30
-6E-16
41
1
10
55.6161653400056
20
-33.3223300558945
30
-6E-16
41
1
10
55.5906325384942
20
-33.314356306408
30
-7E-16
41
1
10
55.5793471184238
20
-33.308962541585
30
-7E-16
41
1
10
55.5487289768373
20
-33.2896882006837
30
-7E-16
41
1
10
55.5325154798574
20
-33.2728248140923
30
-8E-16
41
1
10
55.5204812676742
20
-33.2519809471619
30
-8E-16
0
SPLINE
5
15F
100
AcDbEntity
8
1
62
256
6
ByLayer
370
18
48
1
60
0
100
AcDbSpline
70
4
71
3
72
8
73
4
40
0
40
0
40
0
40
0
40
1
40
1
40
1
40
1
41
1
10
55.1338009248845
20
-32.5822309471617
30
1E-15
41
1
10
55.266600300158
20
-32.8122462123487
30
1.6E-15
41
1
10
55.3955454646705
20
-33.0355857886748
30
-1.4E-15
41
1
10
55.5204812676743
20
-33.2519809471617
30
-8E-16
0
SPLINE
5
160
100
AcDbEntity
8
1
62
256
6
ByLayer
370
18
48
1
60
0
100
AcDbSpline
70
4
71
3
72
22
73
18
40
0
40
0
40
0
40
0
40
0.250000000000007
40
0.250000000000007
40
0.500000000000014
40
0.500000000000014
40
0.625000000000015
40
0.625000000000015
40
0.750000000000016
40
0.750000000000016
40
0.812500000000012
40
0.812500000000012
40
0.875000000000008
40
0.875000000000008
40
0.937500000000004
40
0.937500000000004
40
1
40
1
40
1
40
1
41
1
10
55.1338009248847
20
-32.5822309471616
30
1E-15
41
1
10
55.1244328122773
20
-32.5660049001545
30
1E-15
41
1
10
55.1125335315577
20
-32.5519923277671
30
1E-15
41
1
10
55.0837447213314
20
-32.5283153240993
30
9E-16
41
1
10
55.0668232444523
20
-32.5185490587438
30
9E-16
41
1
10
55.0362431349769
20
-32.5089123300441
30
8E-16
41
1
10
55.0252160395074
20
-32.5065521358555
30
8E-16
41
1
10
55.000578257826
20
-32.5044882518698
30
8E-16
41
1
10
54.9871588405186
20
-32.5046972386444
30
8E-16
41
1
10
54.9637248842126
20
-32.5090897026546
30
8E-16
41
1
10
54.9553050094263
20
-32.5112634187714
30
9E-16
41
1
10
54.9369553073956
20
-32.518089841929
30
9E-16
41
1
10
54.9269698884023
20
-32.5227588219541
30
9E-16
41
1
10
54.9059506561052
20
-32.5362695124885
30
9E-16
41
1
10
54.8951555264275
20
-32.5452791305347
30
9E-16
41
1
10
54.8777754775468
20
-32.5641101724416
30
1E-15
41
1
10
54.8712312691631
20
-32.5735149313958
30
1E-15
41
1
10
54.8661990751142
20
-32.5822309471621
30
1E-15
0
SPLINE
5
161
100
AcDbEntity
8
1
62
256
6
ByLayer
370
18
48
1
60
0
100
AcDbSpline
70
4
71
3
72
8
73
4
40
0
40
0
40
0
40
0
40
1
40
1
40
1
40
1
41
1
10
54.4795187323253
20
-33.2519809471618
30
-8E-16
41
1
10
54.6081982260478
20
-33.0291015261421
30
-1.4E-15
41
1
10
54.7370957748366
20
-32.8058444226689
30
1.6E-15
41
1
10
54.866199075115
20
-32.5822309471618
30
1E-15
0
SPLINE
5
162
100
AcDbEntity
8
1
62
256
6
ByLayer
370
18
48
1
60
0
100
AcDbSpline
70
4
71
3
72
14
73
10
40
0
40
0
40
0
40
0
40
0.25
40
0.25
40
0.5
40
0.5
40
0.75
40
0.75
40
1
40
1
40
1
40
1
41
1
10
54.4795187323254
20
-33.2519809471617
30
-8E-16
41
1
10
54.473201855754
20
-33.2629220983287
30
-8E-16
41
1
10
54.4640059973428
20
-33.2754119663018
30
-8E-16
41
1
10
54.4389422782902
20
-33.2982756933223
30
-7E-16
41
1
10
54.4248299889389
20
-33.3068225259339
30
-7E-16
41
1
10
54.4006355011442
20
-33.3176534092608
30
-7E-16
41
1
10
54.3898377796842
20
-33.3206273613561
30
-6E-16
41
1
10
54.3702894918494
20
-33.3243037347571
30
-6E-16
41
1
10
54.3614213515019
20
-33.3249809471617
30
-6E-16
41
1
10
54.3530790233729
20
-33.3249809471617
30
-6E-16
0
SPLINE
5
163
100
AcDbEntity
8
1
62
256
6
ByLayer
370
18
48
1
60
0
100
AcDbSpline
70
4
71
3
72
12
73
8
40
0
40
0
40
0
40
0
40
0.249999999999998
40
0.249999999999998
40
0.499999999999997
40
0.499999999999997
40
1
40
1
40
1
40
1
41
1
10
54.1469209766268
20
-33.3249809471617
30
-6E-16
41
1
10
54.1304589726567
20
-33.3249809471617
30
-6E-16
41
1
10
54.1162884836464
20
-33.3223659893968
30
-6E-16
41
1
10
54.0905591675966
20
-33.3143359117762
30
-7E-16
41
1
10
54.0792347106993
20
-33.3089063033034
30
-7E-16
41
1
10
54.0485745663436
20
-33.2895616807434
30
-7E-16
41
1
10
54.0324391277863
20
-33.2726925684258
30
-8E-16
41
1
10
54.0204812676742
20
-33.2519809471618
30
-8E-16
0
SPLINE
5
164
100
AcDbEntity
8
1
62
256
6
ByLayer
370
18
48
1
60
0
100
AcDbSpline
70
4
71
3
72
8
73
4
40
0
40
0
40
0
40
0
40
1
40
1
40
1
40
1
41
1
10
53.6338009248845
20
-32.5822309471617
30
-2.5E-15
41
1
10
53.7658133823983
20
-32.8108832308075
30
1.6E-15
41
1
10
53.8947474948882
20
-33.034203664469
30
-1.4E-15
41
1
10
54.0204812676743
20
-33.2519809471617
30
-8E-16
0
SPLINE
5
165
100
AcDbEntity
8
1
62
256
6
ByLayer
370
18
48
1
60
0
100
AcDbSpline
70
4
71
3
72
8
73
4
40
0
40
0
40
0
40
0
40
1
40
1
40
1
40
1
41
1
10
53.6338009248848
20
-32.5822309471615
30
-2.5E-15
41
1
10
53.6220877436956
20
-32.5619431222237
30
-2.6E-15
41
1
10
53.6064853936834
20
-32.5450380989398
30
-2.6E-15
41
1
10
53.5868035654748
20
-32.5316709670317
30
-2.6E-15
0
SPLINE
5
166
100
AcDbEntity
8
1
62
256
6
ByLayer
370
18
48
1
60
0
100
AcDbSpline
70
4
71
3
72
8
73
4
40
0
40
0
40
0
40
0
40
1
40
1
40
1
40
1
41
1
10
31.9795187323245
20
-33.2519809471633
30
-8E-16
41
1
10
32.1052525051108
20
-33.03420366447
30
-1.4E-15
41
1
10
32.2341866176011
20
-32.810883230808
30
1.6E-15
41
1
10
32.3661990751152
20
-32.5822309471616
30
-2.5E-15
0
SPLINE
5
167
100
AcDbEntity
8
1
62
256
6
ByLayer
370
18
48
1
60
0
100
AcDbSpline
70
4
71
3
72
12
73
8
40
0
40
0
40
0
40
0
40
0.500000000000017
40
0.500000000000017
40
0.750000000000009
40
0.750000000000009
40
1
40
1
40
1
40
1
41
1
10
31.9795187323245
20
-33.2519809471632
30
-8E-16
41
1
10
31.9676071189894
20
-33.2726124666591
30
-8E-16
41
1
10
31.951484093656
20
-33.2895540670523
30
-7E-16
41
1
10
31.9205463735004
20
-33.3090295912997
30
-7E-16
41
1
10
31.9090838053964
20
-33.3144729790839
30
-7E-16
41
1
10
31.8835527294381
20
-33.3223893833242
30
-6E-16
41
1
10
31.8695236633699
20
-33.3249809471617
30
-6E-16
41
1
10
31.8530790233729
20
-33.3249809471617
30
-6E-16
0
SPLINE
5
168
100
AcDbEntity
8
1
62
256
6
ByLayer
370
18
48
1
60
0
100
AcDbSpline
70
4
71
3
72
14
73
10
40
0
40
0
40
0
40
0
40
0.25
40
0.25
40
0.5
40
0.5
40
0.75
40
0.75
40
1
40
1
40
1
40
1
41
1
10
31.6469209766269
20
-33.3249809471617
30
-6E-16
41
1
10
31.6386068194038
20
-33.3249809471617
30
-6E-16
41
1
10
31.6296425246483
20
-33.3242984211106
30
-6E-16
41
1
10
31.6100180473328
20
-33.3205926943693
30
-6E-16
41
1
10
31.5992317157561
20
-33.3176094276683
30
-7E-16
41
1
10
31.5750178109894
20
-33.3067387491986
30
-7E-16
41
1
10
31.5608826109012
20
-33.2981384016296
30
-7E-16
41
1
10
31.5359564107965
20
-33.2753550332124
30
-8E-16
41
1
10
31.5267837407687
20
-33.2628971508314
30
-8E-16
41
1
10
31.5204812676307
20
-33.2519809471355
30
-8E-16
0
SPLINE
5
169
100
AcDbEntity
8
1
62
256
6
ByLayer
370
18
48
1
60
0
100
AcDbSpline
70
4
71
3
72
8
73
4
40
0
40
0
40
0
40
0
40
1
40
1
40
1
40
1
41
1
10
31.1338009248845
20
-32.5822309471616
30
1E-15
41
1
10
31.2629042680424
20
-32.8058444969381
30
1.6E-15
41
1
10
31.3918018175238
20
-33.029101601611
30
-1.4E-15
41
1
10
31.5204812676688
20
-33.2519809471521
30
-8E-16
0
SPLINE
5
16A
100
AcDbEntity
8
1
62
256
6
ByLayer
370
18
48
1
60
0
100
AcDbSpline
70
4
71
3
72
22
73
18
40
0
40
0
40
0
40
0
40
0.062500000000012
40
0.062500000000012
40
0.125000000000024
40
0.125000000000024
40
0.187500000000036
40
0.187500000000036
40
0.250000000000048
40
0.250000000000048
40
0.375000000000046
40
0.375000000000046
40
0.500000000000044
40
0.500000000000044
40
0.750000000000022
40
0.750000000000022
40
1
40
1
40
1
40
1
41
1
10
31.1338009248863
20
-32.5822309471623
30
1E-15
41
1
10
31.1287301252378
20
-32.573448064536
30
1E-15
41
1
10
31.1222022599194
20
-32.5640538909794
30
1E-15
41
1
10
31.1045117001403
20
-32.5449513880304
30
9E-16
41
1
10
31.093682540504
20
-32.5359811748772
30
9E-16
41
1
10
31.0724618937369
20
-32.5224485199568
30
9E-16
41
1
10
31.0624231334345
20
-32.5178186492452
30
9E-16
41
1
10
31.0441641396185
20
-32.5111085002232
30
9E-16
41
1
10
31.0357176381017
20
-32.5089564994512
30
8E-16
41
1
10
31.0122772061598
20
-32.5046521503268
30
8E-16
41
1
10
30.9989635443996
20
-32.5044945966088
30
8E-16
41
1
10
30.9744303663752
20
-32.5066148720036
30
8E-16
41
1
10
30.963339592142
20
-32.5090186916635
30
8E-16
41
1
10
30.9329961357187
20
-32.5186575275645
30
9E-16
41
1
10
30.9162751930314
20
-32.5283088911404
30
9E-16
41
1
10
30.8875449959777
20
-32.5519178324191
30
1E-15
41
1
10
30.8755719650584
20
-32.5659966255665
30
1E-15
41
1
10
30.8661990751152
20
-32.5822309471617
30
1E-15
0
SPLINE
5
16B
100
AcDbEntity
8
1
62
256
6
ByLayer
370
18
48
1
60
0
100
AcDbSpline
70
4
71
3
72
8
73
4
40
0
40
0
40
0
40
0
40
1
40
1
40
1
40
1
41
1
10
30.4795187323254
20
-33.2519809471617
30
-8E-16
41
1
10
30.6044545353292
20
-33.0355857886747
30
-1.4E-15
41
1
10
30.7333996998418
20
-32.8122462123486
30
1.6E-15
41
1
10
30.8661990751152
20
-32.5822309471616
30
1E-15
0
SPLINE
5
16C
100
AcDbEntity
8
1
62
256
6
ByLayer
370
18
48
1
60
0
100
AcDbSpline
70
4
71
3
72
12
73
8
40
0
40
0
40
0
40
0
40
0.500000000000007
40
0.500000000000007
40
0.750000000000004
40
0.750000000000004
40
1
40
1
40
1
40
1
41
1
10
30.4795187323254
20
-33.2519809471616
30
-8E-16
41
1
10
30.4675532506546
20
-33.2727057693526
30
-8E-16
41
1
10
30.4511645903749
20
-33.2898063352191
30
-7E-16
41
1
10
30.420373093436
20
-33.3091126858244
30
-7E-16
41
1
10
30.4090632435103
20
-33.3144749875917
30
-7E-16
41
1
10
30.3836606121277
20
-33.3223602843259
30
-6E-16
41
1
10
30.3696654824907
20
-33.3249809471617
30
-6E-16
41
1
10
30.3530790233729
20
-33.3249809471617
30
-6E-16
0
SPLINE
5
16D
100
AcDbEntity
8
1
62
256
6
ByLayer
370
18
48
1
60
0
100
AcDbSpline
70
4
71
3
72
14
73
10
40
0
40
0
40
0
40
0
40
0.25
40
0.25
40
0.5
40
0.5
40
0.75
40
0.75
40
1
40
1
40
1
40
1
41
1
10
30.1469209766501
20
-33.3249809471895
30
-6E-16
41
1
10
30.1389732657184
20
-33.3249809471908
30
-6E-16
41
1
10
30.1305187900738
20
-33.324365929315
30
-6E-16
41
1
10
30.1118603152308
20
-33.3210252176619
30
-6E-16
41
1
10
30.101544391782
20
-33.3183381454188
30
-6E-16
41
1
10
30.0780136686948
20
-33.3083302651801
30
-7E-16
41
1
10
30.0637246080378
20
-33.3002877835226
30
-7E-16
41
1
10
30.036862958617
20
-33.2765730419546
30
-8E-16
41
1
10
30.0269511078189
20
-33.2631870390614
30
-8E-16
41
1
10
30.0204812676146
20
-33.2519809470951
30
-8E-16
0
SPLINE
5
16E
100
AcDbEntity
8
1
62
256
6
ByLayer
370
18
48
1
60
0
100
AcDbSpline
70
4
71
3
72
22
73
18
40
0
40
0
40
0
40
0
40
0.062500000000003
40
0.062500000000003
40
0.125000000000006
40
0.125000000000006
40
0.187500000000009
40
0.187500000000009
40
0.250000000000012
40
0.250000000000012
40
0.375000000000005
40
0.375000000000005
40
0.499999999999999
40
0.499999999999999
40
0.749999999999999
40
0.749999999999999
40
1
40
1
40
1
40
1
41
1
10
29.6338009248781
20
-32.5822309471504
30
1E-15
41
1
10
29.6284956772322
20
-32.5730419886828
30
1E-15
41
1
10
29.6213718092059
20
-32.5628108480319
30
1E-15
41
1
10
29.6014890251115
20
-32.5421088809892
30
9E-16
41
1
10
29.5892923502995
20
-32.5327634793331
30
9E-16
41
1
10
29.5674788908022
20
-32.5199207817455
30
9E-16
41
1
10
29.5575657458675
20
-32.5157967000743
30
9E-16
41
1
10
29.5396839847314
20
-32.5098675810669
30
9E-16
41
1
10
29.5314838120668
20
-32.508028472027
30
8E-16
41
1
10
29.5087502060303
20
-32.5044679977631
30
8E-16
41
1
10
29.4958382643466
20
-32.5045759294415
30
8E-16
41
1
10
29.4720813989868
20
-32.5070557646097
30
8E-16
41
1
10
29.4612917271392
20
-32.5095462306887
30
8E-16
41
1
10
29.4316288155031
20
-32.5193751674903
30
9E-16
41
1
10
29.4152615950911
20
-32.5290043688681
30
9E-16
41
1
10
29.3871401568058
20
-32.5523950445232
30
1E-15
41
1
10
29.3754471683748
20
-32.5662127797619
30
1E-15
41
1
10
29.3661990751148
20
-32.5822309471613
30
1E-15
0
SPLINE
5
16F
100
AcDbEntity
8
1
62
256
6
ByLayer
370
18
48
1
60
0
100
AcDbSpline
70
4
71
3
72
8
73
4
40
0
40
0
40
0
40
0
40
1
40
1
40
1
40
1
41
1
10
28.9795187323254
20
-33.2519809471617
30
-8E-16
41
1
10
29.1032316122183
20
-33.0377039536365
30
-1.4E-15
41
1
10
29.2321938275691
20
-32.8143348443923
30
1.6E-15
41
1
10
29.3661990751152
20
-32.5822309471617
30
1E-15
0
SPLINE
5
170
100
AcDbEntity
8
1
62
256
6
ByLayer
370
18
48
1
60
0
100
AcDbSpline
70
4
71
3
72
12
73
8
40
0
40
0
40
0
40
0
40
0.499999999999987
40
0.499999999999987
40
0.749999999999993
40
0.749999999999993
40
1
40
1
40
1
40
1
41
1
10
28.9795187323254
20
-33.2519809471617
30
-8E-16
41
1
10
28.9674477013506
20
-33.2728885861099
30
-8E-16
41
1
10
28.9510296289349
20
-33.2899281855055
30
-7E-16
41
1
10
28.9201980923994
20
-33.3092035768401
30
-7E-16
41
1
10
28.9088856545421
20
-33.3145457511604
30
-7E-16
41
1
10
28.8835224133929
20
-33.3223873492843
30
-6E-16
41
1
10
28.8695647864116
20
-33.3249809471618
30
-6E-16
41
1
10
28.8530790233721
20
-33.3249809471617
30
-6E-16
0
SPLINE
5
171
100
AcDbEntity
8
1
62
256
6
ByLayer
370
18
48
1
60
0
100
AcDbSpline
70
4
71
3
72
18
73
14
40
0
40
0
40
0
40
0
40
0.250000000000004
40
0.250000000000004
40
0.500000000000008
40
0.500000000000008
40
0.625000000000006
40
0.625000000000006
40
0.750000000000004
40
0.750000000000004
40
0.875000000000002
40
0.875000000000002
40
1
40
1
40
1
40
1
41
1
10
28.6469209766269
20
-33.3249809471617
30
-6E-16
41
1
10
28.6394143039372
20
-33.3249809471617
30
-6E-16
41
1
10
28.6314386946083
20
-33.3244298561273
30
-6E-16
41
1
10
28.6138997050257
20
-33.321475444591
30
-6E-16
41
1
10
28.6044501097969
20
-33.3192034903413
30
-6E-16
41
1
10
28.5873669373249
20
-33.3124232584392
30
-7E-16
41
1
10
28.5812373177222
20
-33.3095962200259
30
-7E-16
41
1
10
28.5679280404495
20
-33.3020045570363
30
-7E-16
41
1
10
28.5605807678593
20
-33.2971080807306
30
-7E-16
41
1
10
28.5458196125082
20
-33.2847503449504
30
-7E-16
41
1
10
28.5388779695199
20
-33.2775584169135
30
-8E-16
41
1
10
28.5279948268074
20
-33.2641124913537
30
-8E-16
41
1
10
28.523853705595
20
-33.2578221809861
30
-8E-16
41
1
10
28.520481267674
20
-33.2519809471615
30
-8E-16
0
SPLINE
5
172
100
AcDbEntity
8
1
62
256
6
ByLayer
370
18
48
1
60
0
100
AcDbSpline
70
4
71
3
72
8
73
4
40
0
40
0
40
0
40
0
40
1
40
1
40
1
40
1
41
1
10
28.1338009248852
20
-32.5822309471628
30
1E-15
41
1
10
28.2632655006995
20
-32.8064701702536
30
1.6E-15
41
1
10
28.3921731045879
20
-33.0297446896703
30
-1.4E-15
41
1
10
28.5204812676743
20
-33.2519809471617
30
-8E-16
0
SPLINE
5
173
100
AcDbEntity
8
1
62
256
6
ByLayer
370
18
48
1
60
0
100
AcDbSpline
70
4
71
3
72
26
73
22
40
0
40
0
40
0
40
0
40
0.031250000000008
40
0.031250000000008
40
0.062500000000016
40
0.062500000000016
40
0.0937500000000241
40
0.0937500000000241
40
0.125000000000032
40
0.125000000000032
40
0.18750000000003
40
0.18750000000003
40
0.250000000000028
40
0.250000000000028
40
0.375000000000018
40
0.375000000000018
40
0.500000000000008
40
0.500000000000008
40
0.750000000000004
40
0.750000000000004
40
1
40
1
40
1
40
1
41
1
10
28.1338009248852
20
-32.5822309471628
30
1E-15
41
1
10
28.1309658315442
20
-32.5773204214518
30
1E-15
41
1
10
28.1276609433029
20
-32.5721783984013
30
1E-15
41
1
10
28.1192612560688
20
-32.5610136720602
30
1E-15
41
1
10
28.1141561859629
20
-32.555059033191
30
1E-15
41
1
10
28.102637983519
20
-32.5437181930046
30
9E-16
41
1
10
28.096217087571
20
-32.5383571081972
30
9E-16
41
1
10
28.0837876077507
20
-32.5294488392285
30
9E-16
41
1
10
28.0779425342377
20
-32.5259349090936
30
9E-16
41
1
10
28.0613215785704
20
-32.5171178701017
30
9E-16
41
1
10
28.0518864269233
20
-32.5136732049162
30
9E-16
41
1
10
28.0345140636574
20
-32.508613858612
30
8E-16
41
1
10
28.0267579438491
20
-32.5071394062383
30
8E-16
41
1
10
28.00495299911
20
-32.5043666396344
30
8E-16
41
1
10
27.9923280121325
20
-32.5047345512643
30
8E-16
41
1
10
27.9692654891092
20
-32.5076234604139
30
8E-16
41
1
10
27.9589338244399
20
-32.5101965677781
30
9E-16
41
1
10
27.9303059789678
20
-32.520121626538
30
9E-16
41
1
10
27.9143452759731
20
-32.5296488951873
30
9E-16
41
1
10
27.8868361955113
20
-32.5527708406972
30
1E-15
41
1
10
27.8753182908937
20
-32.5664360021082
30
1E-15
41
1
10
27.8661990751153
20
-32.5822309471617
30
1E-15
0
SPLINE
5
174
100
AcDbEntity
8
1
62
256
6
ByLayer
370
18
48
1
60
0
100
AcDbSpline
70
4
71
3
72
8
73
4
40
0
40
0
40
0
40
0
40
1
40
1
40
1
40
1
41
1
10
27.4795187323254
20
-33.2519809471617
30
-8E-16
41
1
10
27.6011289271817
20
-33.0413459109522
30
-1.4E-15
41
1
10
27.7301206286126
20
-32.8179257303193
30
1.6E-15
41
1
10
27.8661990751152
20
-32.5822309471617
30
1E-15
0
SPLINE
5
175
100
AcDbEntity
8
1
62
256
6
ByLayer
370
18
48
1
60
0
100
AcDbSpline
70
4
71
3
72
12
73
8
40
0
40
0
40
0
40
0
40
0.5
40
0.5
40
0.75
40
0.75
40
1
40
1
40
1
40
1
41
1
10
27.4795187323281
20
-33.2519809471641
30
-8E-16
41
1
10
27.4673329773367
20
-33.2730872939375
30
-8E-16
41
1
10
27.4507936681362
20
-33.2901223989274
30
-7E-16
41
1
10
27.4200103031398
20
-33.3092972827233
30
-7E-16
41
1
10
27.4087224761899
20
-33.3146089607498
30
-7E-16
41
1
10
27.3834272788695
20
-33.3224038717574
30
-6E-16
41
1
10
27.3695137079083
20
-33.3249809471619
30
-6E-16
41
1
10
27.3530790233707
20
-33.3249809471617
30
-6E-16
0
SPLINE
5
176
100
AcDbEntity
8
1
62
256
6
ByLayer
370
18
48
1
60
0
100
AcDbSpline
70
4
71
3
72
18
73
14
40
0
40
0
40
0
40
0
40
0.25
40
0.25
40
0.5
40
0.5
40
0.625
40
0.625
40
0.75
40
0.75
40
0.875
40
0.875
40
1
40
1
40
1
40
1
41
1
10
27.1469209766269
20
-33.3249809471617
30
-6E-16
41
1
10
27.139809034469
20
-33.3249809471617
30
-6E-16
41
1
10
27.1322535620827
20
-33.3244854803127
30
-6E-16
41
1
10
27.1156460943009
20
-33.3218395624161
30
-6E-16
41
1
10
27.1066014759697
20
-33.3197589876157
30
-6E-16
41
1
10
27.0906894505855
20
-33.313836592882
30
-7E-16
41
1
10
27.0849594456463
20
-33.3113766362935
30
-7E-16
41
1
10
27.0722323973484
20
-33.3046370888641
30
-7E-16
41
1
10
27.0650877817392
20
-33.3003225614065
30
-7E-16
41
1
10
27.0489800667221
20
-33.2877377276404
30
-7E-16
41
1
10
27.0406121549261
20
-33.2795171564505
30
-7E-16
41
1
10
27.0283063852097
20
-33.2646528425096
30
-8E-16
41
1
10
27.0239472657237
20
-33.2579842318926
30
-8E-16
41
1
10
27.0204812676657
20
-33.2519809471564
30
-8E-16
0
SPLINE
5
177
100
AcDbEntity
8
1
62
256
6
ByLayer
370
18
48
1
60
0
100
AcDbSpline
70
4
71
3
72
8
73
4
40
0
40
0
40
0
40
0
40
1
40
1
40
1
40
1
41
1
10
26.6338009248805
20
-32.5822309471547
30
1E-15
41
1
10
26.7637932140897
20
-32.8073841966572
30
1.6E-15
41
1
10
26.8927187576768
20
-33.0306897885434
30
-1.4E-15
41
1
10
27.0204812676742
20
-33.2519809471615
30
-8E-16
0
SPLINE
5
178
100
AcDbEntity
8
1
62
256
6
ByLayer
370
18
48
1
60
0
100
AcDbSpline
70
4
71
3
72
24
73
20
40
0
40
0
40
0
40
0
40
0.0312500000000051
40
0.0312500000000051
40
0.0625000000000103
40
0.0625000000000103
40
0.0937500000000154
40
0.0937500000000154
40
0.125000000000021
40
0.125000000000021
40
0.187500000000022
40
0.187500000000022
40
0.250000000000023
40
0.250000000000023
40
0.500000000000016
40
0.500000000000016
40
0.750000000000008
40
0.750000000000008
40
1
40
1
40
1
40
1
41
1
10
26.6338009248806
20
-32.5822309471547
30
1E-15
41
1
10
26.6307209777733
20
-32.576896322281
30
1E-15
41
1
10
26.6269939252322
20
-32.571112726033
30
1E-15
41
1
10
26.6170139122876
20
-32.5582675889401
30
1E-15
41
1
10
26.6105675694026
20
-32.5511453212448
30
1E-15
41
1
10
26.596355903063
20
-32.5383308947832
30
9E-16
41
1
10
26.5891628016954
20
-32.5330736613108
30
9E-16
41
1
10
26.5762353510815
20
-32.5248816218742
30
9E-16
41
1
10
26.5705340764142
20
-32.521894064748
30
9E-16
41
1
10
26.5544523169062
20
-32.5144119298797
30
9E-16
41
1
10
26.5455363898466
20
-32.5116006200036
30
9E-16
41
1
10
26.529079018331
20
-32.5075054075063
30
8E-16
41
1
10
26.5215831636597
20
-32.5063345582235
30
8E-16
41
1
10
26.4865977720772
20
-32.5030168277577
30
8E-16
41
1
10
26.4658176000745
20
-32.5075316287025
30
8E-16
41
1
10
26.4288403389848
20
-32.5209409367347
30
9E-16
41
1
10
26.4131996622418
20
-32.5304552559664
30
9E-16
41
1
10
26.3863302368804
20
-32.5533625577295
30
1E-15
41
1
10
26.3751196342743
20
-32.5667800854662
30
1E-15
41
1
10
26.3661990751152
20
-32.5822309471617
30
1E-15
0
SPLINE
5
179
100
AcDbEntity
8
1
62
256
6
ByLayer
370
18
48
1
60
0
100
AcDbSpline
70
4
71
3
72
8
73
4
40
0
40
0
40
0
40
0
40
1
40
1
40
1
40
1
41
1
10
25.9795187323254
20
-33.2519809471617
30
-8E-16
41
1
10
26.0966750872776
20
-33.049060187955
30
-1.3E-15
41
1
10
26.2257295379798
20
-32.8255313223958
30
1.7E-15
41
1
10
26.3661990751152
20
-32.5822309471616
30
1E-15
0
SPLINE
5
17A
100
AcDbEntity
8
1
62
256
6
ByLayer
370
18
48
1
60
0
100
AcDbSpline
70
4
71
3
72
12
73
8
40
0
40
0
40
0
40
0
40
0.499999999999994
40
0.499999999999994
40
0.749999999999997
40
0.749999999999997
40
1
40
1
40
1
40
1
41
1
10
25.9795187323262
20
-33.2519809471624
30
-8E-16
41
1
10
25.967150608547
20
-33.2734031659421
30
-8E-16
41
1
10
25.950464862161
20
-33.2904062946462
30
-7E-16
41
1
10
25.9196533316484
20
-33.3094790846666
30
-7E-16
41
1
10
25.9083785900323
20
-33.3147435960236
30
-7E-16
41
1
10
25.8831838680224
20
-33.3224495403357
30
-6E-16
41
1
10
25.8693541934692
20
-33.3249809471619
30
-6E-16
41
1
10
25.8530790233705
20
-33.3249809471617
30
-6E-16
0
SPLINE
5
17B
100
AcDbEntity
8
1
62
256
6
ByLayer
370
18
48
1
60
0
100
AcDbSpline
70
4
71
3
72
18
73
14
40
0
40
0
40
0
40
0
40
0.500000000000033
40
0.500000000000033
40
0.625000000000026
40
0.625000000000026
40
0.750000000000019
40
0.750000000000019
40
0.812500000000008
40
0.812500000000008
40
0.874999999999997
40
0.874999999999997
40
1
40
1
40
1
40
1
41
1
10
25.6469209766269
20
-33.3249809471617
30
-6E-16
41
1
10
25.6337481561492
20
-33.3249809471617
30
-6E-16
41
1
10
25.6195253121352
20
-33.3237953314498
30
-6E-16
41
1
10
25.5956575129876
20
-33.3157779329338
30
-7E-16
41
1
10
25.5905290646124
20
-33.3138052165434
30
-7E-16
41
1
10
25.5788554512483
20
-33.3083050192052
30
-7E-16
41
1
10
25.5724202680276
20
-33.3049157651756
30
-7E-16
41
1
10
25.5604256395778
20
-33.296701124537
30
-7E-16
41
1
10
25.5558270695704
20
-33.2932649716238
30
-7E-16
41
1
10
25.5459554358714
20
-33.28464502682
30
-7E-16
41
1
10
25.5408424072467
20
-33.2794853226983
30
-7E-16
41
1
10
25.5287324297879
20
-33.2655756174986
30
-8E-16
41
1
10
25.5241317497768
20
-33.2583037676354
30
-8E-16
41
1
10
25.5204812676742
20
-33.2519809471616
30
-8E-16
0
SPLINE
5
17C
100
AcDbEntity
8
1
62
256
6
ByLayer
370
18
48
1
60
0
100
AcDbSpline
70
4
71
3
72
8
73
4
40
0
40
0
40
0
40
0
40
1
40
1
40
1
40
1
41
1
10
25.1338009248845
20
-32.5822309471616
30
-7E-16
41
1
10
25.2654238614367
20
-32.8102085607114
30
-2E-16
41
1
10
25.3944162242408
20
-33.0336298868764
30
4E-16
41
1
10
25.5204812676743
20
-33.2519809471616
30
-8E-16
0
SPLINE
5
17D
100
AcDbEntity
8
1
62
256
6
ByLayer
370
18
48
1
60
0
100
AcDbSpline
70
4
71
3
72
26
73
22
40
0
40
0
40
0
40
0
40
0.031250000000003
40
0.031250000000003
40
0.0468749999999999
40
0.0468749999999999
40
0.0624999999999968
40
0.0624999999999968
40
0.0937500000000019
40
0.0937500000000019
40
0.125000000000007
40
0.125000000000007
40
0.187500000000007
40
0.187500000000007
40
0.250000000000007
40
0.250000000000007
40
0.500000000000005
40
0.500000000000005
40
0.750000000000002
40
0.750000000000002
40
1
40
1
40
1
40
1
41
1
10
25.1338009248846
20
-32.5822309471617
30
-7E-16
41
1
10
25.1303409240558
20
-32.576238049932
30
-8E-16
41
1
10
25.1260098885221
20
-32.5694530810358
30
-8E-16
41
1
10
25.1158592384624
20
-32.557132515156
30
-8E-16
41
1
10
25.1117690784164
20
-32.5526320128988
30
-8E-16
41
1
10
25.1028080564227
20
-32.5439840849629
30
-8E-16
41
1
10
25.0980981990283
20
-32.5400032364698
30
-8E-16
41
1
10
25.0855078864946
20
-32.5303671548509
30
-9E-16
41
1
10
25.078620152332
20
-32.5262985397115
30
-9E-16
41
1
10
25.0663278983617
20
-32.5197694876966
30
9E-16
41
1
10
25.0610157361683
20
-32.5174401773198
30
9E-16
41
1
10
25.0461572325375
20
-32.511654152181
30
9E-16
41
1
10
25.0377079102682
20
-32.5094429069741
30
8E-16
41
1
10
25.0221276943201
20
-32.506367704285
30
8E-16
41
1
10
25.0150858892442
20
-32.5055769103708
30
8E-16
41
1
10
24.9820500279381
20
-32.5037612180963
30
8E-16
41
1
10
24.9619628833692
20
-32.5085278906026
30
8E-16
41
1
10
24.9264115588201
20
-32.522300814304
30
9E-16
41
1
10
24.9114011366595
20
-32.5317581505219
30
-9E-16
41
1
10
24.885606747202
20
-32.5542333577307
30
-8E-16
41
1
10
24.874822724257
20
-32.5672943487013
30
-8E-16
41
1
10
24.8661990751151
20
-32.5822309471616
30
-7E-16
0
SPLINE
5
17E
100
AcDbEntity
8
1
62
256
6
ByLayer
370
18
48
1
60
0
100
AcDbSpline
70
4
71
3
72
8
73
4
40
0
40
0
40
0
40
0
40
1
40
1
40
1
40
1
41
1
10
24.4795187323254
20
-33.2519809471617
30
-8E-16
41
1
10
24.5806220508292
20
-33.0768648626993
30
5E-16
41
1
10
24.7099034637751
20
-32.8529428870026
30
-1E-16
41
1
10
24.8661990751152
20
-32.5822309471617
30
-7E-16
0
SPLINE
5
17F
100
AcDbEntity
8
1
62
256
6
ByLayer
370
18
48
1
60
0
100
AcDbSpline
70
4
71
3
72
10
73
6
40
0
40
0
40
0
40
0
40
0.5
40
0.5
40
1
40
1
40
1
40
1
41
1
10
24.4795187323254
20
-33.2519809471617
30
-8E-16
41
1
10
24.4664146179045
20
-33.2746779391269
30
-8E-16
41
1
10
24.448932886724
20
-33.2917436344857
30
-7E-16
41
1
10
24.407358481053
20
-33.31666583103
30
-7E-16
41
1
10
24.3836883768958
20
-33.324980947177
30
-6E-16
41
1
10
24.3530790233913
20
-33.3249809471809
30
3E-16
0
SPLINE
5
180
100
AcDbEntity
8
1
62
256
6
ByLayer
370
18
48
1
60
0
100
AcDbSpline
70
4
71
3
72
26
73
22
40
0
40
0
40
0
40
0
40
0.500000000000032
40
0.500000000000032
40
0.750000000000049
40
0.750000000000049
40
0.812500000000049
40
0.812500000000049
40
0.843750000000048
40
0.843750000000048
40
0.859375000000049
40
0.859375000000049
40
0.87500000000005
40
0.87500000000005
40
0.890625000000052
40
0.890625000000052
40
0.906250000000053
40
0.906250000000053
40
0.937500000000035
40
0.937500000000035
40
1
40
1
40
1
40
1
41
1
10
24.1469209766331
20
-33.324980947168
30
3E-16
41
1
10
24.1345439086523
20
-33.3249809471685
30
3E-16
41
1
10
24.1213089543177
20
-33.3237658747726
30
3E-16
41
1
10
24.0963309470112
20
-33.3162118170161
30
2E-16
41
1
10
24.0875835405695
20
-33.3131960967758
30
2E-16
41
1
10
24.0715180132046
20
-33.3040571557859
30
2E-16
41
1
10
24.0680369418948
20
-33.3019500362162
30
2E-16
41
1
10
24.0615058073039
20
-33.2974177269185
30
2E-16
41
1
10
24.0591248948142
20
-33.2956953279152
30
2E-16
41
1
10
24.0546667347248
20
-33.2921567154049
30
2E-16
41
1
10
24.0530225166399
20
-33.290811168421
30
2E-16
41
1
10
24.0490551490823
20
-33.2873562163601
30
2E-16
41
1
10
24.0465542922479
20
-33.2850769256865
30
2E-16
41
1
10
24.0412834287943
20
-33.2798300248981
30
1E-16
41
1
10
24.0389928900319
20
-33.2773394010609
30
1E-16
41
1
10
24.0355351363366
20
-33.273405795122
30
1E-16
41
1
10
24.0341842708779
20
-33.271770887121
30
1E-16
41
1
10
24.0306547867985
20
-33.2673683004761
30
1E-16
41
1
10
24.0289268979112
20
-33.2650058535032
30
1E-16
41
1
10
24.0244038668822
20
-33.2585617633918
30
1E-16
41
1
10
24.0223074929509
20
-33.2551440621268
30
1E-16
41
1
10
24.0204812676742
20
-33.2519809471616
30
1E-16
0
SPLINE
5
181
100
AcDbEntity
8
1
62
256
6
ByLayer
370
18
48
1
60
0
100
AcDbSpline
70
4
71
3
72
8
73
4
40
0
40
0
40
0
40
0
40
1
40
1
40
1
40
1
41
1
10
23.6338009248845
20
-32.5822309471616
30
-7E-16
41
1
10
23.7823562201178
20
-32.8395362662392
30
-1E-16
41
1
10
23.9122169597166
20
-33.0644616651326
30
-4E-16
41
1
10
24.0204812676743
20
-33.2519809471617
30
1E-16
0
SPLINE
5
182
100
AcDbEntity
8
1
62
256
6
ByLayer
370
18
48
1
60
0
100
AcDbSpline
70
4
71
3
72
28
73
24
40
0
40
0
40
0
40
0
40
0.0156249999999983
40
0.0156249999999983
40
0.0234374999999992
40
0.0234374999999992
40
0.0312500000000001
40
0.0312500000000001
40
0.039062500000001
40
0.039062500000001
40
0.0468750000000019
40
0.0468750000000019
40
0.0625000000000021
40
0.0625000000000021
40
0.0937500000000024
40
0.0937500000000024
40
0.125000000000003
40
0.125000000000003
40
0.250000000000003
40
0.250000000000003
40
0.500000000000002
40
0.500000000000002
40
1
40
1
40
1
40
1
41
1
10
23.6338009248846
20
-32.5822309471616
30
-7E-16
41
1
10
23.6316374507677
20
-32.5784837000704
30
-8E-16
41
1
10
23.6291393494116
20
-32.5744272741289
30
-8E-16
41
1
10
23.6235397263431
20
-32.5666456185913
30
-8E-16
41
1
10
23.6213327997746
20
-32.5637167245708
30
-8E-16
41
1
10
23.6152740032492
20
-32.5565035768103
30
-8E-16
41
1
10
23.6108459151283
20
-32.5516685314772
30
-8E-16
41
1
10
23.6016530897358
20
-32.5429606346685
30
-8E-16
41
1
10
23.5978219864872
20
-32.5398252892374
30
-8E-16
41
1
10
23.5914257065273
20
-32.5348697209436
30
-9E-16
41
1
10
23.5887829938151
20
-32.5330038783925
30
-9E-16
41
1
10
23.5814795323346
20
-32.52808151234
30
-9E-16
41
1
10
23.5774685108638
20
-32.5257417191069
30
-9E-16
41
1
10
23.5665063374711
20
-32.5197799727169
30
9E-16
41
1
10
23.5605989802891
20
-32.5172414239207
30
9E-16
41
1
10
23.5496943108623
20
-32.5130746841405
30
9E-16
41
1
10
23.5447843991883
20
-32.5115371149081
30
0
41
1
10
23.5217463077272
20
-32.5053327499807
30
0
41
1
10
23.507827760697
20
-32.5046648377885
30
-1E-16
41
1
10
23.4700111621893
20
-32.5058348413122
30
0
41
1
10
23.4510132416682
20
-32.5118481454332
30
0
41
1
10
23.4020093356112
20
-32.534710492947
30
0
41
1
10
23.3806939455296
20
-32.5571250951548
30
1E-16
41
1
10
23.3661990751152
20
-32.5822309471617
30
1E-16
0
SPLINE
5
183
100
AcDbEntity
8
1
62
256
6
ByLayer
370
18
48
1
60
0
100
AcDbSpline
70
4
71
3
72
8
73
4
40
0
40
0
40
0
40
0
40
1
40
1
40
1
40
1
41
1
10
23.2623258549496
20
-32.7621446420344
30
1E-16
41
1
10
23.262071611475
20
-32.7625850046499
30
1E-16
41
1
10
23.2966970135557
20
-32.7026120490136
30
1E-16
41
1
10
23.3661990751152
20
-32.5822309471617
30
1E-16
0
SPLINE
5
184
100
AcDbEntity
8
1
62
256
6
ByLayer
370
18
48
1
60
0
100
AcDbSpline
70
4
71
3
72
8
73
4
40
0
40
0
40
0
40
0
40
1
40
1
40
1
40
1
41
1
10
32.413196434525
20
-32.5316709670317
30
-2.6E-15
41
1
10
32.3935873062013
20
-32.5449887240067
30
-2.6E-15
41
1
10
32.3778703052612
20
-32.562015783562
30
-2.6E-15
41
1
10
32.3661990751152
20
-32.5822309471617
30
-2.5E-15
0
SPLINE
5
185
100
AcDbEntity
8
1
62
256
6
ByLayer
370
18
48
1
60
0
100
AcDbSpline
70
4
71
3
72
10
73
6
40
0
40
0
40
0
40
0
40
0.5
40
0.5
40
1
40
1
40
1
40
1
41
1
10
52.9795187323068
20
-33.251980947194
30
-8E-16
41
1
10
52.975745341593
20
-33.2585166516233
30
-8E-16
41
1
10
52.9712046416915
20
-33.2652573151026
30
-8E-16
41
1
10
52.9596930108948
20
-33.2791344844578
30
-7E-16
41
1
10
52.9527511843426
20
-33.2861040494029
30
-7E-16
41
1
10
52.9452353838242
20
-33.2922205393032
30
-7E-16
0
SPLINE
5
186
100
AcDbEntity
8
1
62
256
6
ByLayer
370
18
48
1
60
0
100
AcDbSpline
70
4
71
3
72
8
73
4
40
0
40
0
40
0
40
0
40
1
40
1
40
1
40
1
41
1
10
52.9795187323058
20
-33.2519809471956
30
-8E-16
41
1
10
52.9797637269795
20
-33.2515566039731
30
-8E-16
41
1
10
52.9800087221656
20
-33.2511322598633
30
-8E-16
41
1
10
52.9802537178638
20
-33.2507079148663
30
-8E-16
0
SPLINE
5
187
100
AcDbEntity
8
1
62
256
6
ByLayer
370
18
48
1
60
0
100
AcDbSpline
70
4
71
3
72
8
73
4
40
0
40
0
40
0
40
0
40
1
40
1
40
1
40
1
41
1
10
33.0547646161755
20
-33.2922205393031
30
-7E-16
41
1
10
33.0394994057552
20
-33.2797974441007
30
-7E-16
41
1
10
33.0279483747939
20
-33.2649143561282
30
-8E-16
41
1
10
33.0204812676422
20
-33.2519809471506
30
-8E-16
0
SPLINE
5
188
100
AcDbEntity
8
1
62
256
6
ByLayer
370
18
48
1
60
0
100
AcDbSpline
70
4
71
3
72
8
73
4
40
0
40
0
40
0
40
0
40
1
40
1
40
1
40
1
41
1
10
33.0197462821358
20
-33.2507079148662
30
-8E-16
41
1
10
33.0199912778275
20
-33.2511322598519
30
-8E-16
41
1
10
33.020236273007
20
-33.2515566039504
30
-8E-16
41
1
10
33.0204812676743
20
-33.2519809471617
30
-8E-16
0
SPLINE
5
189
100
AcDbEntity
8
1
62
256
6
ByLayer
370
18
48
1
60
0
100
AcDbSpline
70
4
71
3
72
10
73
6
40
0
40
0
40
0
40
0
40
0.5
40
0.5
40
1
40
1
40
1
40
1
41
1
10
20.0000000000001
20
24.9999999999999
30
0
41
1
10
20.1531075740503
20
24.9999999999999
30
0
41
1
10
20.3062712592168
20
24.9999999999999
30
0
41
1
10
20.5953970868123
20
24.9999999999999
30
0
41
1
10
20.73143458436
20
24.9999999999999
30
0
41
1
10
20.8483974421211
20
24.9999999999999
30
-4E-16
0
SPLINE
5
18A
100
AcDbEntity
8
1
62
256
6
ByLayer
370
18
48
1
60
0
100
AcDbSpline
70
4
71
3
72
16
73
12
40
0
40
0
40
0
40
0
40
0.250000000000001
40
0.250000000000001
40
0.500000000000001
40
0.500000000000001
40
0.750000000000002
40
0.750000000000002
40
0.875000000000001
40
0.875000000000001
40
1
40
1
40
1
40
1
41
1
10
8.10566243270264
20
8.05584836782779
30
9E-16
41
1
10
8.12110769698504
20
7.99849169434916
30
1E-15
41
1
10
8.13959628273545
20
7.9421825395126
30
1.1E-15
41
1
10
8.18485781079318
20
7.83248598676809
30
1.4E-15
41
1
10
8.21171210490067
20
7.77870179643031
30
1.6E-15
41
1
10
8.27812666032534
20
7.67767014498895
30
-1.7E-15
41
1
10
8.31777781748551
20
7.63015704912698
30
-1.6E-15
41
1
10
8.39058907041832
20
7.57464889660898
30
-1.5E-15
41
1
10
8.4177007223274
20
7.55854989603588
30
-1.4E-15
41
1
10
8.47563983861085
20
7.53610198950847
30
-1.4E-15
41
1
10
8.50697323176121
20
7.52966679426476
30
-1.4E-15
41
1
10
8.53867513459477
20
7.52966679426476
30
-1.4E-15
0
SPLINE
5
18B
100
AcDbEntity
8
1
62
256
6
ByLayer
370
18
48
1
60
0
100
AcDbSpline
70
4
71
3
72
16
73
12
40
0
40
0
40
0
40
0
40
0.124999999999999
40
0.124999999999999
40
0.249999999999998
40
0.249999999999998
40
0.499999999999999
40
0.499999999999999
40
0.749999999999999
40
0.749999999999999
40
1
40
1
40
1
40
1
41
1
10
11.4613248654052
20
7.52966679426507
30
-1.4E-15
41
1
10
11.4930777586347
20
7.52966679426507
30
-1.4E-15
41
1
10
11.523990670531
20
7.53597576299652
30
-1.4E-15
41
1
10
11.5824040005111
20
7.55857361750108
30
-1.4E-15
41
1
10
11.6089650834003
20
7.57431556968112
30
-1.5E-15
41
1
10
11.6829561422921
20
7.6307034754534
30
-1.6E-15
41
1
10
11.7219265489987
20
7.67774765104235
30
-1.7E-15
41
1
10
11.7882603826482
20
7.77866338250456
30
1.6E-15
41
1
10
11.8148780607233
20
7.83191947486048
30
1.4E-15
41
1
10
11.8602443227468
20
7.94172327888188
30
1.1E-15
41
1
10
11.8788862370739
20
7.9984691682071
30
1E-15
41
1
10
11.8943375672976
20
8.05584836782774
30
9E-16
0
SPLINE
5
18C
100
AcDbEntity
8
1
62
256
6
ByLayer
370
18
48
1
60
0
100
AcDbSpline
70
4
71
3
72
16
73
12
40
0
40
0
40
0
40
0
40
0.249999999999999
40
0.249999999999999
40
0.499999999999999
40
0.499999999999999
40
0.749999999999998
40
0.749999999999998
40
0.874999999999999
40
0.874999999999999
40
1
40
1
40
1
40
1
41
1
10
11.8943375672975
20
23.6665017920809
30
3E-16
41
1
10
11.878892303015
20
23.6860254491252
30
2E-16
41
1
10
11.8604037172646
20
23.7049589195931
30
2E-16
41
1
10
11.8151421892069
20
23.7414301198899
30
1E-16
41
1
10
11.7882878950994
20
23.7590955179201
30
1E-16
41
1
10
11.7218733396747
20
23.7919356634172
30
0
41
1
10
11.6822221825146
20
23.8071882416308
30
-1E-16
41
1
10
11.6094109295818
20
23.8248834464053
30
-1E-16
41
1
10
11.5822992776727
20
23.8299908115613
30
-1E-16
41
1
10
11.5243601613892
20
23.8370993498304
30
-1E-16
41
1
10
11.4930267682389
20
23.8391299750505
30
-1E-16
41
1
10
11.4613248654053
20
23.8391299750505
30
-1E-16
0
SPLINE
5
18D
100
AcDbEntity
8
1
62
256
6
ByLayer
370
18
48
1
60
0
100
AcDbSpline
70
4
71
3
72
16
73
12
40
0
40
0
40
0
40
0
40
0.125
40
0.125
40
0.25
40
0.25
40
0.5
40
0.5
40
0.75
40
0.75
40
1
40
1
40
1
40
1
41
1
10
8.53867513459485
20
23.8391299750504
30
-1E-16
41
1
10
8.50692224136546
20
23.8391299750504
30
-1E-16
41
1
10
8.47600932946906
20
23.8371392949586
30
-1E-16
41
1
10
8.41759599948901
20
23.8299833264009
30
-1E-16
41
1
10
8.39103491659978
20
23.824989671385
30
-1E-16
41
1
10
8.31704385770797
20
23.8070141183761
30
-1E-16
41
1
10
8.27807345100138
20
23.7919105160783
30
0
41
1
10
8.21173961735195
20
23.7591079584198
30
1E-16
41
1
10
8.1851219392768
20
23.7416171457992
30
1E-16
41
1
10
8.13975567725333
20
23.7051129235882
30
2E-16
41
1
10
8.12111376292626
20
23.6860331168061
30
2E-16
41
1
10
8.1056624327025
20
23.6665017920809
30
3E-16
0
SPLINE
5
18E
100
AcDbEntity
8
1
62
256
6
ByLayer
370
18
48
1
60
0
100
AcDbSpline
70
4
71
3
72
16
73
12
40
0
40
0
40
0
40
0
40
0.249999999999999
40
0.249999999999999
40
0.499999999999999
40
0.499999999999999
40
0.749999999999998
40
0.749999999999998
40
0.874999999999999
40
0.874999999999999
40
1
40
1
40
1
40
1
41
1
10
8.10566243270256
20
-23.6665017920809
30
-3E-16
41
1
10
8.12110769698495
20
-23.6860254491252
30
-2E-16
41
1
10
8.13959628273537
20
-23.7049589195931
30
-2E-16
41
1
10
8.18485781079309
20
-23.7414301198899
30
-1E-16
41
1
10
8.21171210490058
20
-23.7590955179201
30
-1E-16
41
1
10
8.27812666032526
20
-23.7919356634172
30
0
41
1
10
8.31777781748542
20
-23.8071882416308
30
1E-16
41
1
10
8.39058907041823
20
-23.8248834464053
30
1E-16
41
1
10
8.41770072232731
20
-23.8299908115613
30
1E-16
41
1
10
8.47563983861076
20
-23.8370993498304
30
1E-16
41
1
10
8.50697323176112
20
-23.8391299750505
30
1E-16
41
1
10
8.53867513459468
20
-23.8391299750505
30
1E-16
0
SPLINE
5
18F
100
AcDbEntity
8
1
62
256
6
ByLayer
370
18
48
1
60
0
100
AcDbSpline
70
4
71
3
72
16
73
12
40
0
40
0
40
0
40
0
40
0.125000000000002
40
0.125000000000002
40
0.250000000000004
40
0.250000000000004
40
0.500000000000002
40
0.500000000000002
40
0.750000000000001
40
0.750000000000001
40
1
40
1
40
1
40
1
41
1
10
11.4613248654051
20
-23.8391299750504
30
1E-16
41
1
10
11.4930777586346
20
-23.8391299750504
30
1E-16
41
1
10
11.5239906705309
20
-23.8371392949586
30
1E-16
41
1
10
11.582404000511
20
-23.8299833264009
30
1E-16
41
1
10
11.6089650834002
20
-23.824989671385
30
1E-16
41
1
10
11.6829561422921
20
-23.8070141183761
30
1E-16
41
1
10
11.7219265489986
20
-23.7919105160783
30
0
41
1
10
11.7882603826481
20
-23.7591079584198
30
-1E-16
41
1
10
11.8148780607232
20
-23.7416171457992
30
-1E-16
41
1
10
11.8602443227467
20
-23.7051129235883
30
-2E-16
41
1
10
11.8788862370738
20
-23.6860331168061
30
-2E-16
41
1
10
11.8943375672975
20
-23.6665017920809
30
-3E-16
0
SPLINE
5
190
100
AcDbEntity
8
1
62
256
6
ByLayer
370
18
48
1
60
0
100
AcDbSpline
70
4
71
3
72
16
73
12
40
0
40
0
40
0
40
0
40
0.249999999999998
40
0.249999999999998
40
0.499999999999996
40
0.499999999999996
40
0.749999999999994
40
0.749999999999994
40
0.874999999999997
40
0.874999999999997
40
1
40
1
40
1
40
1
41
1
10
11.8943375672974
20
-8.05584836782771
30
-9E-16
41
1
10
11.878892303015
20
-7.99849169434907
30
-1E-15
41
1
10
11.8604037172645
20
-7.94218253951252
30
-1.1E-15
41
1
10
11.8151421892068
20
-7.83248598676801
30
-1.4E-15
41
1
10
11.7882878950993
20
-7.77870179643023
30
-1.6E-15
41
1
10
11.7218733396747
20
-7.67767014498887
30
1.7E-15
41
1
10
11.6822221825145
20
-7.63015704912689
30
1.6E-15
41
1
10
11.6094109295817
20
-7.57464889660889
30
1.5E-15
41
1
10
11.5822992776726
20
-7.55854989603583
30
1.4E-15
41
1
10
11.5243601613892
20
-7.53610198950838
30
1.4E-15
41
1
10
11.4930267682388
20
-7.5296667942647
30
1.4E-15
41
1
10
11.4613248654052
20
-7.52966679426467
30
1.4E-15
0
SPLINE
5
191
100
AcDbEntity
8
1
62
256
6
ByLayer
370
18
48
1
60
0
100
AcDbSpline
70
4
71
3
72
16
73
12
40
0
40
0
40
0
40
0
40
0.124999999999998
40
0.124999999999998
40
0.249999999999997
40
0.249999999999997
40
0.499999999999996
40
0.499999999999996
40
0.749999999999998
40
0.749999999999998
40
1
40
1
40
1
40
1
41
1
10
8.53867513459477
20
-7.52966679426498
30
1.4E-15
41
1
10
8.50692224136537
20
-7.52966679426498
30
1.4E-15
41
1
10
8.47600932946898
20
-7.53597576299646
30
1.4E-15
41
1
10
8.41759599948892
20
-7.55857361750103
30
1.4E-15
41
1
10
8.39103491659969
20
-7.57431556968106
30
1.5E-15
41
1
10
8.31704385770789
20
-7.63070347545334
30
1.6E-15
41
1
10
8.27807345100129
20
-7.67774765104227
30
1.7E-15
41
1
10
8.21173961735187
20
-7.7786633825045
30
-1.6E-15
41
1
10
8.18512193927671
20
-7.8319194748604
30
-1.4E-15
41
1
10
8.13975567725325
20
-7.94172327888185
30
-1.1E-15
41
1
10
8.12111376292617
20
-7.99846916820701
30
-1E-15
41
1
10
8.10566243270242
20
-8.05584836782768
30
-9E-16
0
SPLINE
5
192
100
AcDbEntity
8
SK1
62
256
6
ByLayer
370
18
48
1
60
0
100
AcDbSpline
70
4
71
3
72
26
73
22
40
0
40
0
40
0
40
0
40
0.250000000000001
40
0.250000000000001
40
0.500000000000001
40
0.500000000000001
40
0.625000000000002
40
0.625000000000002
40
0.687500000000001
40
0.687500000000001
40
0.750000000000001
40
0.750000000000001
40
0.812500000000001
40
0.812500000000001
40
0.875000000000001
40
0.875000000000001
40
0.90625
40
0.90625
40
0.9375
40
0.9375
40
1
40
1
40
1
40
1
41
1
10
-1.30710678118655
20
3.91806548153787
30
7E-16
41
1
10
-1.27769319780745
20
4.08052093037071
30
3E-16
41
1
10
-1.24421801411859
20
4.24088838641731
30
-1E-16
41
1
10
-1.16485205097931
20
4.55692134673151
30
-9E-16
41
1
10
-1.11915053894168
20
4.71298625674967
30
-1.3E-15
41
1
10
-1.03398506252566
20
4.93920991648994
30
1.7E-15
41
1
10
-1.00279216065923
20
5.01338233454959
30
1.5E-15
41
1
10
-0.948686084795526
20
5.1218088971458
30
1.2E-15
41
1
10
-0.929413948146419
20
5.15747348575951
30
1.1E-15
41
1
10
-0.887192676607185
20
5.22746225617766
30
9E-16
41
1
10
-0.864103743653004
20
5.26201593969395
30
8E-16
41
1
10
-0.81304442525115
20
5.32730624386849
30
7E-16
41
1
10
-0.785168859850671
20
5.35822757002171
30
6E-16
41
1
10
-0.720036760130739
20
5.41334643052011
30
5E-16
41
1
10
-0.681932962873333
20
5.43781069903432
30
4E-16
41
1
10
-0.618164109731566
20
5.45755608765853
30
4E-16
41
1
10
-0.59561546133466
20
5.46126474518059
30
3E-16
41
1
10
-0.550411294006381
20
5.46132444639056
30
3E-16
41
1
10
-0.528101012291188
20
5.45772738244966
30
4E-16
41
1
10
-0.464215280713546
20
5.43805975377182
30
4E-16
41
1
10
-0.427403975867776
20
5.41432955957455
30
5E-16
41
1
10
-0.394976888875391
20
5.38678223323959
30
5E-16
0
SPLINE
5
193
100
AcDbEntity
8
SK1
62
256
6
ByLayer
370
18
48
1
60
0
100
AcDbSpline
70
4
71
3
72
24
73
20
40
0
40
0
40
0
40
0
40
0.0312500000000005
40
0.0312500000000005
40
0.062500000000001
40
0.062500000000001
40
0.0937500000000015
40
0.0937500000000015
40
0.125000000000002
40
0.125000000000002
40
0.187500000000001
40
0.187500000000001
40
0.249999999999999
40
0.249999999999999
40
0.5
40
0.5
40
0.75
40
0.75
40
1
40
1
40
1
40
1
41
1
10
-0.394976888872947
20
5.38678223324212
30
5E-16
41
1
10
-0.388503745329047
20
5.38128319480978
30
5E-16
41
1
10
-0.381388986847952
20
5.37647349151393
30
6E-16
41
1
10
-0.36564513072949
20
5.37003095057881
30
6E-16
41
1
10
-0.356875018489404
20
5.36852559182839
30
6E-16
41
1
10
-0.339464630966916
20
5.37101783691446
30
6E-16
41
1
10
-0.33098524294985
20
5.37503833637234
30
6E-16
41
1
10
-0.31651065282108
20
5.38583151921287
30
5E-16
41
1
10
-0.310292654930208
20
5.39251318392283
30
5E-16
41
1
10
-0.293803612204755
20
5.41390802600515
30
5E-16
41
1
10
-0.285544077573888
20
5.4298903462618
30
4E-16
41
1
10
-0.271326596659975
20
5.46242047093605
30
3E-16
41
1
10
-0.265514310429893
20
5.47895729783249
30
3E-16
41
1
10
-0.239827472074268
20
5.56231823892324
30
1E-16
41
1
10
-0.229021554776949
20
5.63115874840247
30
-1E-16
41
1
10
-0.212565919448878
20
5.76699630063507
30
-4E-16
41
1
10
-0.207636724466027
20
5.8346241685793
30
-6E-16
41
1
10
-0.201310577492023
20
5.96939105744727
30
-9E-16
41
1
10
-0.20000000000033
20
6.03652860978247
30
-1.1E-15
41
1
10
-0.20000000000033
20
6.10344667966004
30
-1.3E-15
0
SPLINE
5
194
100
AcDbEntity
8
SK1
62
256
6
ByLayer
370
18
48
1
60
0
100
AcDbSpline
70
4
71
3
72
12
73
8
40
0
40
0
40
0
40
0
40
0.126470134941612
40
0.126470134941612
40
0.649313632858949
40
0.649313632858949
40
1
40
1
40
1
40
1
41
1
10
-0.217977623526565
20
17.4819936196145
30
0
41
1
10
-0.218881176666088
20
17.4799562169957
30
0
41
1
10
-0.219830372566236
20
17.4778965699182
30
0
41
1
10
-0.224951865426647
20
17.4672042365738
30
0
41
1
10
-0.229904587014602
20
17.4582146929807
30
1E-16
41
1
10
-0.24044462997108
20
17.4423519769951
30
1E-16
41
1
10
-0.245254991418335
20
17.4357582733163
30
1E-16
41
1
10
-0.251041417714987
20
17.4289044410064
30
1E-16
0
SPLINE
5
195
100
AcDbEntity
8
SK1
62
256
6
ByLayer
370
18
48
1
60
0
100
AcDbSpline
70
4
71
3
72
26
73
22
40
0
40
0
40
0
40
0
40
0.25
40
0.25
40
0.5
40
0.5
40
0.624999999999999
40
0.624999999999999
40
0.749999999999998
40
0.749999999999998
40
0.812499999999999
40
0.812499999999999
40
0.874999999999999
40
0.874999999999999
40
0.90625
40
0.90625
40
0.9375
40
0.9375
40
0.96875
40
0.96875
40
1
40
1
40
1
40
1
41
1
10
-0.200000000000017
20
-6.10344849123024
30
1.3E-15
41
1
10
-0.200000000000017
20
-6.03658343849216
30
1.1E-15
41
1
10
-0.201307915401543
20
-5.96945919325961
30
9E-16
41
1
10
-0.207636972094122
20
-5.83460886439374
30
6E-16
41
1
10
-0.212579850553397
20
-5.76680281418166
30
4E-16
41
1
10
-0.224951590332751
20
-5.66479408005196
30
2E-16
41
1
10
-0.229904281870233
20
-5.63080031605764
30
1E-16
41
1
10
-0.242521523471197
20
-5.56290531314934
30
-1E-16
41
1
10
-0.250117086737475
20
-5.52896458934291
30
-2E-16
41
1
10
-0.265414899342119
20
-5.47925984090523
30
-3E-16
41
1
10
-0.271171206812227
20
-5.46286741312704
30
-3E-16
41
1
10
-0.285126828250384
20
-5.43075649789984
30
-4E-16
41
1
10
-0.293370777796014
20
-5.41464883184727
30
-5E-16
41
1
10
-0.309754325583356
20
-5.39312762647253
30
-5E-16
41
1
10
-0.315906755851415
20
-5.38639867120824
30
-5E-16
41
1
10
-0.330433281773452
20
-5.37534138513297
30
-6E-16
41
1
10
-0.338822824507901
20
-5.37123289411574
30
-6E-16
41
1
10
-0.356328976513907
20
-5.36848804676433
30
-6E-16
41
1
10
-0.365355266428679
20
-5.36994612574287
30
-6E-16
41
1
10
-0.381274177460853
20
-5.37639293798037
30
-6E-16
41
1
10
-0.3884397087092
20
-5.38122846522194
30
-5E-16
41
1
10
-0.394976888875334
20
-5.38678189578172
30
-5E-16
0
SPLINE
5
196
100
AcDbEntity
8
SK1
62
256
6
ByLayer
370
18
48
1
60
0
100
AcDbSpline
70
4
71
3
72
30
73
26
40
0
40
0
40
0
40
0
40
0.0312500000000006
40
0.0312500000000006
40
0.0625000000000012
40
0.0625000000000012
40
0.0937500000000018
40
0.0937500000000018
40
0.125000000000002
40
0.125000000000002
40
0.156250000000003
40
0.156250000000003
40
0.187500000000004
40
0.187500000000004
40
0.250000000000004
40
0.250000000000004
40
0.312500000000004
40
0.312500000000004
40
0.375000000000005
40
0.375000000000005
40
0.500000000000003
40
0.500000000000003
40
0.750000000000002
40
0.750000000000002
40
1
40
1
40
1
40
1
41
1
10
-0.394976888875306
20
-5.38678189578286
30
-5E-16
41
1
10
-0.411121004362627
20
-5.40049655899077
30
-5E-16
41
1
10
-0.428233279222752
20
-5.41311535582483
30
-5E-16
41
1
10
-0.465309612185905
20
-5.43514865455282
30
-4E-16
41
1
10
-0.485247093192101
20
-5.44447298609387
30
-4E-16
41
1
10
-0.527143852804016
20
-5.45749158572369
30
-4E-16
41
1
10
-0.549766809572617
20
-5.46123817959716
30
-3E-16
41
1
10
-0.594625996823424
20
-5.46134910310988
30
-3E-16
41
1
10
-0.61736733449905
20
-5.45772890381807
30
-4E-16
41
1
10
-0.660019264070201
20
-5.4446665658256
30
-4E-16
41
1
10
-0.680396026591666
20
-5.43519415358116
30
-4E-16
41
1
10
-0.717834279017893
20
-5.41311904009143
30
-5E-16
41
1
10
-0.735191453829202
20
-5.40043958603147
30
-5E-16
41
1
10
-0.784451320222104
20
-5.35899057781563
30
-6E-16
41
1
10
-0.812480141629834
20
-5.32795417138175
30
-7E-16
41
1
10
-0.863579984272121
20
-5.26275715404714
30
-8E-16
41
1
10
-0.886669998197959
20
-5.22827369564405
30
-9E-16
41
1
10
-0.929038370947666
20
-5.15814871783951
30
-1.1E-15
41
1
10
-0.948360494973514
20
-5.12242801873614
30
-1.2E-15
41
1
10
-1.00258384146318
20
-5.01386242026865
30
-1.5E-15
41
1
10
-1.03381196991217
20
-4.93963585912667
30
-1.7E-15
41
1
10
-1.11904493500299
20
-4.71333034940318
30
1.3E-15
41
1
10
-1.16474908109112
20
-4.55729858564033
30
9E-16
41
1
10
-1.24418351237222
20
-4.24105736808258
30
1E-16
41
1
10
-1.27767890904266
20
-4.08059985762034
30
-3E-16
41
1
10
-1.30710678118655
20
-3.9180654805769
30
-7E-16
0
SPLINE
5
197
100
AcDbEntity
8
SK1
62
256
6
ByLayer
370
18
48
1
60
0
100
AcDbSpline
70
4
71
3
72
290
73
286
40
0
40
0
40
0
40
0
40
0.0031035349451521
40
0.0065783336466086
40
0.0100531323480651
40
0.0135279310495216
40
0.0170027297509781
40
0.0204775284524347
40
0.0239523271538912
40
0.0274271258553477
40
0.0309019245568042
40
0.0343767232582607
40
0.0378515219597172
40
0.0413263206611737
40
0.0448011193626302
40
0.0482759180640867
40
0.0552255154669997
40
0.0587003141684562
40
0.0621751128699127
40
0.0656499115713692
40
0.0691247102728257
40
0.0760743076757387
40
0.0795491063771952
40
0.0830239050786517
40
0.0899735024815647
40
0.0934483011830212
40
0.0969230998844777
40
0.103872697287391
40
0.107347495988847
40
0.110822294690304
40
0.11429709339176
40
0.117771892093217
40
0.121246690794673
40
0.12472148949613
40
0.128196288197586
40
0.131671086899043
40
0.138620684301956
40
0.142095483003412
40
0.145570281704869
40
0.149045080406325
40
0.152519879107782
40
0.159469476510695
40
0.162944275212151
40
0.166419073913608
40
0.169893872615064
40
0.173368671316521
40
0.180318268719434
40
0.18379306742089
40
0.187267866122347
40
0.190742664823803
40
0.19421746352526
40
0.201167060928173
40
0.204641859629629
40
0.208116658331086
40
0.211591457032542
40
0.215066255733999
40
0.222015853136912
40
0.225490651838368
40
0.228965450539825
40
0.232440249241281
40
0.235915047942738
40
0.242864645345651
40
0.246339444047107
40
0.249814242748564
40
0.253289041450021
40
0.256763840151477
40
0.26371343755439
40
0.267188236255846
40
0.270663034957303
40
0.277612632360216
40
0.284562229763129
40
0.288037028464586
40
0.291511827166042
40
0.298461424568955
40
0.301936223270411
40
0.305411021971868
40
0.308885820673324
40
0.312360619374781
40
0.315835418076238
40
0.319310216777694
40
0.326259814180607
40
0.33320941158352
40
0.336684210284977
40
0.340159008986433
40
0.343633807687889
40
0.347108606389346
40
0.350583405090802
40
0.354058203792259
40
0.361007801195172
40
0.367957398598085
40
0.374906996000998
40
0.378381794702455
40
0.381856593403911
40
0.385331392105367
40
0.388806190806824
40
0.392280989508281
40
0.395755788209737
40
0.399230586911194
40
0.40270538561265
40
0.406180184314107
40
0.409654983015563
40
0.41312978171702
40
0.416604580418476
40
0.420079379119933
40
0.423554177821389
40
0.427028976522846
40
0.430503775224302
40
0.433978573925759
40
0.435715973276487
40
0.437453372627215
40
0.439190771977943
40
0.440928171328672
40
0.444402970030128
40
0.447877768731585
40
0.449615168082313
40
0.451352567433041
40
0.453089966783769
40
0.454827366134498
40
0.456564765485226
40
0.458302164835954
40
0.461776963537411
40
0.463514362888139
40
0.465251762238867
40
0.466989161589596
40
0.468726560940324
40
0.470463960291052
40
0.47220135964178
40
0.473938758992508
40
0.475676158343237
40
0.477413557693965
40
0.479150957044693
40
0.480888356395421
40
0.48262575574615
40
0.484363155096878
40
0.486100554447606
40
0.487837953798334
40
0.489575353149063
40
0.491312752499791
40
0.493050151850519
40
0.494787551201248
40
0.496524950551976
40
0.498262349902704
40
0.499999749253432
40
0.501737148604161
40
0.503474547954889
40
0.505211947305617
40
0.506949346656345
40
0.508686746007073
40
0.510424145357802
40
0.51216154470853
40
0.513898944059258
40
0.515636343409987
40
0.517373742760715
40
0.519111142111443
40
0.520848541462171
40
0.522585940812899
40
0.524323340163628
40
0.526060739514356
40
0.527798138865084
40
0.529535538215813
40
0.531272937566541
40
0.533010336917269
40
0.534747736267997
40
0.536485135618726
40
0.538222534969454
40
0.539959934320182
40
0.54169733367091
40
0.543434733021639
40
0.545172132372367
40
0.548646931073823
40
0.550384330424552
40
0.55212172977528
40
0.555596528476736
40
0.559071327178193
40
0.560808726528921
40
0.562546125879649
40
0.564283525230378
40
0.566020924581106
40
0.569495723282562
40
0.572970521984019
40
0.576445320685475
40
0.579920119386932
40
0.583394918088388
40
0.586869716789845
40
0.590344515491301
40
0.593819314192758
40
0.597294112894214
40
0.600768911595671
40
0.604243710297127
40
0.607718508998584
40
0.61119330770004
40
0.614668106401497
40
0.618142905102953
40
0.62161770380441
40
0.625092502505866
40
0.632042099908779
40
0.638991697311692
40
0.645941294714605
40
0.649416093416062
40
0.652890892117519
40
0.656365690818975
40
0.659840489520431
40
0.663315288221888
40
0.666790086923345
40
0.673739684326257
40
0.68068928172917
40
0.684164080430627
40
0.687638879132083
40
0.69111367783354
40
0.694588476534996
40
0.698063275236453
40
0.701538073937909
40
0.708487671340822
40
0.711962470042279
40
0.715437268743735
40
0.722386866146648
40
0.729336463549562
40
0.732811262251018
40
0.736286060952475
40
0.743235658355388
40
0.746710457056844
40
0.750185255758301
40
0.753660054459757
40
0.757134853161214
40
0.764084450564127
40
0.767559249265583
40
0.77103404796704
40
0.774508846668496
40
0.777983645369953
40
0.784933242772866
40
0.788408041474322
40
0.791882840175779
40
0.795357638877235
40
0.798832437578692
40
0.805782034981605
40
0.809256833683061
40
0.812731632384518
40
0.816206431085974
40
0.819681229787431
40
0.826630827190344
40
0.8301056258918
40
0.833580424593257
40
0.835317823943985
40
0.837055223294713
40
0.84053002199617
40
0.847479619399083
40
0.850954418100539
40
0.854429216801996
40
0.857904015503452
40
0.861378814204909
40
0.868328411607822
40
0.871803210309278
40
0.875278009010735
40
0.878752807712191
40
0.882227606413648
40
0.885702405115104
40
0.889177203816561
40
0.892652002518017
40
0.896126801219474
40
0.903076398622387
40
0.906551197323843
40
0.9100259960253
40
0.916975593428213
40
0.920450392129669
40
0.923925190831126
40
0.930874788234039
40
0.934349586935495
40
0.937824385636952
40
0.941299184338408
40
0.944773983039865
40
0.951723580442778
40
0.955198379144234
40
0.958673177845691
40
0.962147976547147
40
0.965622775248604
40
0.96909757395006
40
0.972572372651517
40
0.976047171352973
40
0.97952197005443
40
0.982996768755886
40
0.986471567457343
40
0.989946366158799
40
0.993421164860256
40
0.996895963561712
40
1
40
1
40
1
40
1
41
1
10
-2.19999999999993
20
17.5148285864752
30
-1E-16
41
1
10
-2.19999999999993
20
17.5164189458364
30
-1E-16
41
1
10
-2.19999999999993
20
17.519017062192
30
-1E-16
41
1
10
-2.19999999999993
20
17.5205278865986
30
-1E-16
41
1
10
-2.19999999999993
20
17.5194513910244
30
-1E-16
41
1
10
-2.19999999999993
20
17.5157810842503
30
-1E-16
41
1
10
-2.19999999999993
20
17.509563133145
30
-1E-16
41
1
10
-2.19999999999993
20
17.5008423359265
30
0
41
1
10
-2.19999999999993
20
17.4896606050754
30
0
41
1
10
-2.19999999999993
20
17.4760589345483
30
0
41
1
10
-2.19999999999993
20
17.4600756660117
30
1E-16
41
1
10
-2.19999999999993
20
17.4417480829298
30
-1E-16
41
1
10
-2.19999999999993
20
17.4211116708093
30
-1E-16
41
1
10
-2.19999999999993
20
17.3981999720816
30
0
41
1
10
-2.19999999999993
20
17.373046254225
30
1E-16
41
1
10
-2.19999999999993
20
17.3365615480365
30
0
41
1
10
-2.19999999999993
20
17.2957083393221
30
0
41
1
10
-2.19999999999993
20
17.2506132986913
30
0
41
1
10
-2.19999999999993
20
17.2146924230801
30
0
41
1
10
-2.19999999999993
20
17.1766986759848
30
0
41
1
10
-2.19999999999993
20
17.1233138560684
30
0
41
1
10
-2.19999999999993
20
17.0658713749174
30
0
41
1
10
-2.19999999999993
20
17.0044820563696
30
-1E-16
41
1
10
-2.19999999999993
20
16.940481996521
30
1E-16
41
1
10
-2.19999999999993
20
16.8725984751516
30
0
41
1
10
-2.19999999999993
20
16.8009296734765
30
0
41
1
10
-2.19999999999993
20
16.72675615712
30
2E-16
41
1
10
-2.19999999999993
20
16.6488472996885
30
-1E-16
41
1
10
-2.19999999999993
20
16.567297757363
30
1E-16
41
1
10
-2.19999999999996
20
16.5043209819811
30
-2E-16
41
1
10
-2.19999999999996
20
16.4395493732765
30
0
41
1
10
-2.19999999999996
20
16.3729983406747
30
2E-16
41
1
10
-2.19999999999996
20
16.3046816133433
30
-1E-16
41
1
10
-2.19999999999996
20
16.2346146587631
30
1E-16
41
1
10
-2.19999999999996
20
16.1628111167189
30
-2E-16
41
1
10
-2.19999999999996
20
16.0647793469533
30
1E-16
41
1
10
-2.19999999999996
20
15.9633134995801
30
3E-16
41
1
10
-2.19999999999996
20
15.8584913887799
30
-3E-16
41
1
10
-2.19999999999996
20
15.7781982427732
30
-1E-16
41
1
10
-2.19999999999996
20
15.6962433497342
30
1E-16
41
1
10
-2.19999999999996
20
15.5847743861311
30
4E-16
41
1
10
-2.19999999999996
20
15.4700110710185
30
-2E-16
41
1
10
-2.19999999999996
20
15.3520264687641
30
1E-16
41
1
10
-2.19999999999996
20
15.2619258251736
30
3E-16
41
1
10
-2.19999999999996
20
15.1702262286607
30
-3E-16
41
1
10
-2.19999999999996
20
15.0458463802596
30
0
41
1
10
-2.19999999999996
20
14.9182892137509
30
3E-16
41
1
10
-2.19999999999996
20
14.7876243835494
30
-3E-16
41
1
10
-2.19999999999996
20
14.6880675684927
30
0
41
1
10
-2.19999999999996
20
14.5869647024965
30
3E-16
41
1
10
-2.19999999999996
20
14.4501162009323
30
-3E-16
41
1
10
-2.19999999999996
20
14.3101885785041
30
-8E-16
41
1
10
-2.19999999999996
20
14.1672492498436
30
-5E-16
41
1
10
-2.19999999999996
20
14.0585319196999
30
-2E-16
41
1
10
-2.19999999999996
20
13.9483131149779
30
1E-16
41
1
10
-2.19999999999996
20
13.7993681823229
30
5E-16
41
1
10
-2.19999999999996
20
13.6474264445926
30
9E-16
41
1
10
-2.19999999999996
20
13.4925540283558
30
-5E-16
41
1
10
-2.19999999999996
20
13.3749248852382
30
-2E-16
41
1
10
-2.19999999999996
20
13.2558316845062
30
1E-16
41
1
10
-2.19999999999996
20
13.0951031858018
30
5E-16
41
1
10
-2.19999999999996
20
12.9314463879873
30
-9E-16
41
1
10
-2.19999999999996
20
12.7649271524075
30
-4E-16
41
1
10
-2.19999999999996
20
12.6385945304865
30
-1E-16
41
1
10
-2.19999999999996
20
12.510828990928
30
2E-16
41
1
10
-2.19999999999996
20
12.3385783725546
30
6E-16
41
1
10
-2.19999999999996
20
12.1634558634281
30
-7E-16
41
1
10
-2.19999999999996
20
11.9855279960913
30
-2E-16
41
1
10
-2.19999999999996
20
11.805719384434
30
2E-16
41
1
10
-2.19999999999996
20
11.5774197426994
30
8E-16
41
1
10
-2.19999999999996
20
11.3444552561941
30
-4E-16
41
1
10
-2.19999999999996
20
11.1553144466798
30
1E-16
41
1
10
-2.19999999999996
20
10.96432157968
30
6E-16
41
1
10
-2.19999999999996
20
10.7705258372791
30
-7E-16
41
1
10
-2.19999999999996
20
10.5740001677826
30
-2E-16
41
1
10
-2.19999999999996
20
10.4252200954492
30
2E-16
41
1
10
-2.19999999999996
20
10.2750653600417
30
6E-16
41
1
10
-2.19999999999996
20
10.1235384488298
30
-8E-16
41
1
10
-2.19999999999996
20
9.97064122920813
30
-5E-16
41
1
10
-2.19999999999996
20
9.76496631801305
30
1E-16
41
1
10
-2.19999999999996
20
9.504433927386
30
7E-16
41
1
10
-2.19999999999996
20
9.23936570098888
30
-4E-16
41
1
10
-2.19999999999996
20
9.0246179938022
30
2E-16
41
1
10
-2.19999999999996
20
8.8621930447589
30
6E-16
41
1
10
-2.19999999999996
20
8.69841428000515
30
-8E-16
41
1
10
-2.19999999999996
20
8.53328405958749
30
-4E-16
41
1
10
-2.19999999999996
20
8.3668033986834
30
1E-16
41
1
10
-2.19999999999996
20
8.14304412571013
30
6E-16
41
1
10
-2.19999999999996
20
7.8599470761732
30
-4E-16
41
1
10
-2.19999999999996
20
7.51487111531029
30
5E-16
41
1
10
-2.19999999999996
20
7.22282329277965
30
-6E-16
41
1
10
-2.19999999999996
20
6.98653548716831
30
0
41
1
10
-2.19999999999996
20
6.80797157864478
30
5E-16
41
1
10
-2.19999999999996
20
6.62807270531457
30
9E-16
41
1
10
-2.19999999999996
20
6.44684086969585
30
1.4E-15
41
1
10
-2.19999999999996
20
6.26427776637021
30
-1.7E-15
41
1
10
-2.19999999999996
20
6.08038585927525
30
-1.2E-15
41
1
10
-2.19999999999996
20
5.89516728223873
30
-8E-16
41
1
10
-2.19999999999996
20
5.70862469092606
30
-3E-16
41
1
10
-2.19999999999996
20
5.52076103085636
30
2E-16
41
1
10
-2.19999999999999
20
5.33157993388588
30
7E-16
41
1
10
-2.19999999999999
20
5.14108511996031
30
1.2E-15
41
1
10
-2.19999999999999
20
4.94928086714651
30
1.6E-15
41
1
10
-2.19999999999999
20
4.75617251627349
30
-1.4E-15
41
1
10
-2.19999999999999
20
4.56176620564528
30
-9E-16
41
1
10
-2.19999999999999
20
4.36606873641347
30
-4E-16
41
1
10
-2.19999999999999
20
4.16908849962465
30
1E-16
41
1
10
-2.19999999999999
20
4.0038659060707
30
5E-16
41
1
10
-2.19999999999999
20
3.8710781085415
30
8E-16
41
1
10
-2.19999999999999
20
3.77116418570392
30
1.1E-15
41
1
10
-2.19999999999999
20
3.67093805129477
30
1.3E-15
41
1
10
-2.19999999999999
20
3.53690182548823
30
1.7E-15
41
1
10
-2.19999999999999
20
3.36855658184024
30
-1.4E-15
41
1
10
-2.19999999999999
20
3.19919951970701
30
-1E-15
41
1
10
-2.19999999999999
20
3.06314133422214
30
-7E-16
41
1
10
-2.19999999999999
20
2.96079189341762
30
-4E-16
41
1
10
-2.19999999999999
20
2.85815023786421
30
-2E-16
41
1
10
-2.19999999999999
20
2.75522026664274
30
1E-16
41
1
10
-2.19999999999999
20
2.652005611725
30
4E-16
41
1
10
-2.19999999999999
20
2.51402705629778
30
7E-16
41
1
10
-2.19999999999999
20
2.37545081694603
30
1.1E-15
41
1
10
-2.19999999999999
20
2.23639085040654
30
1.4E-15
41
1
10
-2.19999999999999
20
2.13182395998018
30
1.7E-15
41
1
10
-2.19999999999999
20
2.02700348752296
30
-1.6E-15
41
1
10
-2.19999999999999
20
1.92193653735021
30
-1.3E-15
41
1
10
-2.19999999999999
20
1.81663008016329
30
-1.1E-15
41
1
10
-2.19999999999999
20
1.71109231328523
30
-8E-16
41
1
10
-2.19999999999999
20
1.60533155404704
30
-5E-16
41
1
10
-2.19999999999999
20
1.49935698477984
30
-3E-16
41
1
10
-2.19999999999999
20
1.39317847233167
30
0
41
1
10
-2.19999999999999
20
1.28680633401089
30
3E-16
41
1
10
-2.19999999999999
20
1.18025197439022
30
6E-16
41
1
10
-2.19999999999999
20
1.07352702008706
30
8E-16
41
1
10
-2.19999999999999
20
0.966644343115377
30
1.1E-15
41
1
10
-2.19999999999999
20
0.859616995486363
30
1.4E-15
41
1
10
-2.19999999999999
20
0.752459219961565
30
1.6E-15
41
1
10
-2.19999999999999
20
0.645185453734229
30
-1.6E-15
41
1
10
-2.19999999999999
20
0.537811163545655
30
-1.4E-15
41
1
10
-2.19999999999999
20
0.430352024766023
30
-1.1E-15
41
1
10
-2.19999999999999
20
0.322824496958646
30
-8E-16
41
1
10
-2.19999999999999
20
0.215245213108602
30
-5E-16
41
1
10
-2.19999999999999
20
0.107631302158239
30
-3E-16
41
1
10
-2.19999999999999
20
-5.9909269E-09
30
0
41
1
10
-2.19999999999999
20
-0.10763131371678
30
3E-16
41
1
10
-2.19999999999999
20
-0.215245223931731
30
5E-16
41
1
10
-2.19999999999999
20
-0.322824507999457
30
8E-16
41
1
10
-2.19999999999999
20
-0.430352036900814
30
1.1E-15
41
1
10
-2.19999999999999
20
-0.53781117543852
30
1.4E-15
41
1
10
-2.19999999999999
20
-0.645185463980425
30
1.6E-15
41
1
10
-2.19999999999999
20
-0.752459230354106
30
-1.6E-15
41
1
10
-2.19999999999999
20
-0.859617007920463
30
-1.4E-15
41
1
10
-2.19999999999999
20
-0.96664435526236
30
-1.1E-15
41
1
10
-2.19999999999999
20
-1.07352702949095
30
-8E-16
41
1
10
-2.19999999999999
20
-1.18025198377214
30
-6E-16
41
1
10
-2.19999999999999
20
-1.28680634649675
30
-3E-16
41
1
10
-2.19999999999999
20
-1.39317848503853
30
0
41
1
10
-2.19999999999999
20
-1.49935699380706
30
3E-16
41
1
10
-2.19999999999999
20
-1.60533156181739
30
5E-16
41
1
10
-2.19999999999999
20
-1.71109232444701
30
8E-16
41
1
10
-2.19999999999999
20
-1.81663009373554
30
1.1E-15
41
1
10
-2.19999999999999
20
-1.92193654804356
30
1.3E-15
41
1
10
-2.19999999999999
20
-2.02700349385546
30
1.6E-15
41
1
10
-2.19999999999999
20
-2.13182396747067
30
-1.7E-15
41
1
10
-2.19999999999999
20
-2.23639086291982
30
-1.4E-15
41
1
10
-2.19999999999999
20
-2.34069812940871
30
-1.2E-15
41
1
10
-2.19999999999999
20
-2.44473977839385
30
-9E-16
41
1
10
-2.19999999999999
20
-2.54851063247159
30
-6E-16
41
1
10
-2.19999999999999
20
-2.65200559968275
30
-4E-16
41
1
10
-2.19999999999999
20
-2.78960994504092
30
0
41
1
10
-2.19999999999999
20
-2.92668912429059
30
3E-16
41
1
10
-2.19999999999999
20
-3.06314133551609
30
7E-16
41
1
10
-2.19999999999999
20
-3.1991995233283
30
1E-15
41
1
10
-2.19999999999999
20
-3.36855659963135
30
1.4E-15
41
1
10
-2.19999999999999
20
-3.53690183437422
30
-1.7E-15
41
1
10
-2.19999999999999
20
-3.67093805397224
30
-1.3E-15
41
1
10
-2.19999999999999
20
-3.77116418775415
30
-1.1E-15
41
1
10
-2.19999999999999
20
-3.87107811616193
30
-8E-16
41
1
10
-2.19999999999999
20
-4.00386592221608
30
-5E-16
41
1
10
-2.19999999999999
20
-4.16908851178397
30
-1E-16
41
1
10
-2.19999999999999
20
-4.3660687164377
30
4E-16
41
1
10
-2.19999999999999
20
-4.56176617271478
30
9E-16
41
1
10
-2.19999999999999
20
-4.7561724937965
30
1.4E-15
41
1
10
-2.19999999999999
20
-4.94928076863454
30
-1.6E-15
41
1
10
-2.19999999999999
20
-5.1410850061813
30
-1.2E-15
41
1
10
-2.19999999999999
20
-5.3315799390322
30
-7E-16
41
1
10
-2.20000000000002
20
-5.52076102284175
30
-2E-16
41
1
10
-2.20000000000002
20
-5.70862461825786
30
3E-16
41
1
10
-2.20000000000002
20
-5.89516734859461
30
8E-16
41
1
10
-2.20000000000002
20
-6.08038609680847
30
1.2E-15
41
1
10
-2.20000000000002
20
-6.26427796235186
30
1.7E-15
41
1
10
-2.20000000000002
20
-6.44684092947372
30
-1.4E-15
41
1
10
-2.20000000000002
20
-6.62807271786147
30
-9E-16
41
1
10
-2.20000000000002
20
-6.80797159432126
30
-5E-16
41
1
10
-2.20000000000002
20
-6.98653550324821
30
0
41
1
10
-2.20000000000002
20
-7.22282328452866
30
6E-16
41
1
10
-2.20000000000002
20
-7.51487112820206
30
-5E-16
41
1
10
-2.20000000000002
20
-7.85994708827312
30
4E-16
41
1
10
-2.20000000000002
20
-8.14304411844029
30
-6E-16
41
1
10
-2.20000000000002
20
-8.36680341033818
30
-1E-16
41
1
10
-2.20000000000002
20
-8.53328407858569
30
4E-16
41
1
10
-2.20000000000002
20
-8.6984142887776
30
8E-16
41
1
10
-2.20000000000002
20
-8.86219304073111
30
-6E-16
41
1
10
-2.20000000000002
20
-9.0246179920552
30
-2E-16
41
1
10
-2.20000000000002
20
-9.23936571773669
30
4E-16
41
1
10
-2.20000000000002
20
-9.5044339403992
30
-7E-16
41
1
10
-2.20000000000002
20
-9.76496631110047
30
-1E-16
41
1
10
-2.20000000000002
20
-9.97064123613958
30
5E-16
41
1
10
-2.20000000000002
20
-10.1235384660539
30
8E-16
41
1
10
-2.20000000000002
20
-10.2750653748105
30
-6E-16
41
1
10
-2.20000000000002
20
-10.4252201002358
30
-2E-16
41
1
10
-2.20000000000002
20
-10.5740001651573
30
2E-16
41
1
10
-2.20000000000002
20
-10.7705258416001
30
7E-16
41
1
10
-2.20000000000002
20
-10.9643215989581
30
-6E-16
41
1
10
-2.20000000000002
20
-11.1553144582602
30
-1E-16
41
1
10
-2.20000000000002
20
-11.3444552554371
30
4E-16
41
1
10
-2.20000000000002
20
-11.5774197477568
30
-8E-16
41
1
10
-2.20000000000002
20
-11.8057194023465
30
-2E-16
41
1
10
-2.20000000000002
20
-11.9855280067157
30
2E-16
41
1
10
-2.20000000000002
20
-12.1634558646821
30
7E-16
41
1
10
-2.20000000000002
20
-12.3385783781737
30
-6E-16
41
1
10
-2.20000000000002
20
-12.510829004708
30
-2E-16
41
1
10
-2.20000000000002
20
-12.6385945454976
30
1E-16
41
1
10
-2.20000000000002
20
-12.7649271637091
30
4E-16
41
1
10
-2.20000000000002
20
-12.9314463925932
30
9E-16
41
1
10
-2.20000000000002
20
-13.0951031927998
30
-5E-16
41
1
10
-2.20000000000002
20
-13.2558316973182
30
-1E-16
41
1
10
-2.20000000000002
20
-13.3749248996582
30
2E-16
41
1
10
-2.20000000000002
20
-13.4925540411334
30
5E-16
41
1
10
-2.20000000000002
20
-13.6474264531923
30
-9E-16
41
1
10
-2.20000000000002
20
-13.7993681905532
30
-5E-16
41
1
10
-2.20000000000002
20
-13.9483131264862
30
-1E-16
41
1
10
-2.20000000000002
20
-14.0585319334344
30
2E-16
41
1
10
-2.20000000000002
20
-14.1672492642274
30
5E-16
41
1
10
-2.20000000000002
20
-14.3101885914782
30
8E-16
41
1
10
-2.20000000000002
20
-14.4501162106046
30
3E-16
41
1
10
-2.20000000000002
20
-14.5869647126432
30
-3E-16
41
1
10
-2.20000000000002
20
-14.6880675812843
30
0
41
1
10
-2.20000000000002
20
-14.7876243995297
30
3E-16
41
1
10
-2.20000000000002
20
-14.9182892218294
30
-3E-16
41
1
10
-2.20000000000002
20
-15.0458464314391
30
0
41
1
10
-2.20000000000002
20
-15.1702261509224
30
3E-16
41
1
10
-2.20000000000002
20
-15.2466455133785
30
-4E-16
41
1
10
-2.20000000000002
20
-15.3069761679616
30
-2E-16
41
1
10
-2.20000000000002
20
-15.3667724139347
30
-1E-16
41
1
10
-2.20000000000002
20
-15.4700110929875
30
2E-16
41
1
10
-2.20000000000002
20
-15.5847743990242
30
-4E-16
41
1
10
-2.20000000000002
20
-15.6962433571226
30
-1E-16
41
1
10
-2.20000000000002
20
-15.7781982539187
30
1E-16
41
1
10
-2.20000000000002
20
-15.8584914079188
30
3E-16
41
1
10
-2.20000000000002
20
-15.9633135259672
30
-3E-16
41
1
10
-2.20000000000002
20
-16.0647793597711
30
-1E-16
41
1
10
-2.20000000000002
20
-16.1628111223413
30
2E-16
41
1
10
-2.20000000000002
20
-16.234614670739
30
-1E-16
41
1
10
-2.20000000000002
20
-16.3046816359758
30
1E-16
41
1
10
-2.20000000000002
20
-16.3729983688048
30
-2E-16
41
1
10
-2.20000000000002
20
-16.439549393056
30
0
41
1
10
-2.20000000000002
20
-16.5043209901434
30
2E-16
41
1
10
-2.20000000000005
20
-16.5672977619412
30
-1E-16
41
1
10
-2.20000000000005
20
-16.6488473199257
30
1E-16
41
1
10
-2.20000000000005
20
-16.7267561914694
30
-2E-16
41
1
10
-2.20000000000005
20
-16.8009296884544
30
0
41
1
10
-2.20000000000005
20
-16.8725984731113
30
0
41
1
10
-2.20000000000005
20
-16.9404820184079
30
-1E-16
41
1
10
-2.20000000000005
20
-17.0044820909957
30
1E-16
41
1
10
-2.20000000000005
20
-17.0658713913631
30
0
41
1
10
-2.20000000000005
20
-17.1233138523189
30
0
41
1
10
-2.20000000000005
20
-17.1766986986671
30
0
41
1
10
-2.20000000000005
20
-17.2146924603873
30
0
41
1
10
-2.20000000000005
20
-17.2506133231919
30
0
41
1
10
-2.20000000000005
20
-17.2957083328928
30
0
41
1
10
-2.20000000000005
20
-17.3365615705831
30
0
41
1
10
-2.20000000000005
20
-17.3730462873428
30
-1E-16
41
1
10
-2.20000000000005
20
-17.398199993695
30
0
41
1
10
-2.20000000000005
20
-17.4211116738093
30
1E-16
41
1
10
-2.20000000000005
20
-17.4417480876219
30
1E-16
41
1
10
-2.20000000000005
20
-17.4600756994924
30
-1E-16
41
1
10
-2.20000000000005
20
-17.4760589706817
30
0
41
1
10
-2.20000000000005
20
-17.4896606126055
30
0
41
1
10
-2.20000000000005
20
-17.5008423321234
30
0
41
1
10
-2.20000000000005
20
-17.5095631539496
30
1E-16
41
1
10
-2.20000000000005
20
-17.5157810793246
30
1E-16
41
1
10
-2.20000000000005
20
-17.5194512488001
30
1E-16
41
1
10
-2.20000000000005
20
-17.5205276679154
30
1E-16
41
1
10
-2.20000000000007
20
-17.5190169165827
30
1E-16
41
1
10
-2.20000000000005
20
-17.5164186440214
30
1E-16
41
1
10
-2.20000000000005
20
-17.5148279874525
30
1E-16
0
SPLINE
5
198
100
AcDbEntity
8
SK1
62
256
6
ByLayer
370
18
48
1
60
0
100
AcDbSpline
70
4
71
2
72
6
73
3
40
0
40
0
40
0
40
1
40
1
40
1
41
1
10
-28.5000000000001
20
-16.8542724489281
30
2E-16
41
1
10
-15.3499999999287
20
-17.1845422635703
30
1E-16
41
1
10
-2.20000000000005
20
-17.5148116792767
30
1E-16
0
SPLINE
5
199
100
AcDbEntity
8
SK1
62
256
6
ByLayer
370
18
48
1
60
0
100
AcDbSpline
70
4
71
2
72
6
73
3
40
0
40
0
40
0
40
1
40
1
40
1
41
1
10
-2.19999999999993
20
17.5148117187522
30
-1E-16
41
1
10
-15.3499999999294
20
17.1845422725478
30
-1E-16
41
1
10
-28.4999999999999
20
16.8542724298411
30
-2E-16
0
SPLINE
5
19A
100
AcDbEntity
8
SK1
62
256
6
ByLayer
370
18
48
1
60
0
100
AcDbSpline
70
4
71
3
72
282
73
278
40
0
40
0
40
0
40
0
40
0.0031931413516628
40
0.0067672896643636
40
0.0103414379770644
40
0.0139155862897651
40
0.017489734602466
40
0.0210638829151667
40
0.0246380312278675
40
0.0282121795405683
40
0.0317863278532691
40
0.0353604761659699
40
0.0425087727913714
40
0.0460829211040722
40
0.0496570694167731
40
0.0532312177294738
40
0.0568053660421746
40
0.0639536626675762
40
0.067527810980277
40
0.0711019592929777
40
0.0782502559183793
40
0.0818244042310801
40
0.0853985525437809
40
0.0925468491691825
40
0.0961209974818833
40
0.099695145794584
40
0.103269294107285
40
0.106843442419986
40
0.110417590732686
40
0.113991739045387
40
0.117565887358088
40
0.121140035670789
40
0.12828833229619
40
0.131862480608891
40
0.135436628921592
40
0.139010777234293
40
0.142584925546994
40
0.149733222172395
40
0.153307370485096
40
0.156881518797797
40
0.160455667110497
40
0.164029815423198
40
0.1711781120486
40
0.174752260361301
40
0.178326408674001
40
0.181900556986702
40
0.185474705299403
40
0.192623001924804
40
0.196197150237505
40
0.199771298550206
40
0.203345446862907
40
0.206919595175608
40
0.214067891801009
40
0.21764204011371
40
0.221216188426411
40
0.224790336739112
40
0.228364485051812
40
0.235512781677214
40
0.239086929989915
40
0.242661078302615
40
0.246235226615316
40
0.249809374928017
40
0.256957671553419
40
0.26053181986612
40
0.26410596817882
40
0.271254264804222
40
0.278402561429623
40
0.281976709742324
40
0.285550858055025
40
0.292699154680427
40
0.296273302993127
40
0.299847451305828
40
0.303421599618529
40
0.30699574793123
40
0.31056989624393
40
0.314144044556631
40
0.321292341182033
40
0.328440637807434
40
0.332014786120135
40
0.335588934432836
40
0.339163082745537
40
0.342737231058238
40
0.346311379370938
40
0.349885527683639
40
0.357033824309041
40
0.364182120934442
40
0.371330417559844
40
0.374904565872545
40
0.378478714185245
40
0.382052862497946
40
0.385627010810647
40
0.389201159123348
40
0.392775307436048
40
0.396349455748749
40
0.39992360406145
40
0.403497752374151
40
0.407071900686852
40
0.410646048999552
40
0.414220197312253
40
0.417794345624954
40
0.421368493937655
40
0.424942642250356
40
0.428516790563056
40
0.432090938875757
40
0.433878013032107
40
0.435665087188458
40
0.437452161344808
40
0.439239235501159
40
0.44281338381386
40
0.44638753212656
40
0.448174606282911
40
0.449961680439261
40
0.451748754595611
40
0.453535828751962
40
0.455322902908312
40
0.457109977064663
40
0.460684125377363
40
0.462471199533714
40
0.464258273690064
40
0.466045347846415
40
0.467832422002765
40
0.469619496159115
40
0.471406570315466
40
0.473193644471816
40
0.474980718628166
40
0.476767792784517
40
0.478554866940867
40
0.480341941097218
40
0.482129015253568
40
0.483916089409919
40
0.485703163566269
40
0.487490237722619
40
0.48927731187897
40
0.49106438603532
40
0.49285146019167
40
0.494638534348021
40
0.496425608504371
40
0.498212682660722
40
0.499999756817072
40
0.501786830973422
40
0.503573905129773
40
0.505360979286123
40
0.507148053442474
40
0.508935127598824
40
0.510722201755174
40
0.512509275911525
40
0.514296350067875
40
0.516083424224226
40
0.517870498380576
40
0.519657572536926
40
0.521444646693277
40
0.523231720849627
40
0.525018795005978
40
0.526805869162328
40
0.528592943318678
40
0.530380017475029
40
0.532167091631379
40
0.53395416578773
40
0.53574123994408
40
0.53752831410043
40
0.539315388256781
40
0.541102462413131
40
0.542889536569482
40
0.544676610725832
40
0.546463684882182
40
0.550037833194883
40
0.551824907351234
40
0.553611981507584
40
0.557186129820285
40
0.560760278132985
40
0.562547352289336
40
0.564334426445686
40
0.566121500602037
40
0.567908574758387
40
0.571482723071088
40
0.575056871383789
40
0.57863101969649
40
0.58220516800919
40
0.585779316321891
40
0.589353464634592
40
0.592927612947293
40
0.596501761259993
40
0.600075909572694
40
0.603650057885395
40
0.607224206198096
40
0.610798354510797
40
0.614372502823497
40
0.617946651136198
40
0.621520799448899
40
0.6250949477616
40
0.628669096074301
40
0.635817392699702
40
0.642965689325104
40
0.650113985950505
40
0.653688134263206
40
0.657262282575907
40
0.660836430888608
40
0.664410579201308
40
0.667984727514009
40
0.67155887582671
40
0.678707172452112
40
0.685855469077513
40
0.689429617390214
40
0.693003765702915
40
0.696577914015616
40
0.700152062328316
40
0.703726210641017
40
0.707300358953718
40
0.714448655579119
40
0.71802280389182
40
0.721596952204521
40
0.728745248829923
40
0.735893545455324
40
0.739467693768025
40
0.743041842080726
40
0.750190138706127
40
0.753764287018828
40
0.757338435331529
40
0.76091258364423
40
0.76448673195693
40
0.771635028582332
40
0.775209176895033
40
0.778783325207734
40
0.782357473520434
40
0.785931621833135
40
0.793079918458537
40
0.796654066771238
40
0.800228215083938
40
0.803802363396639
40
0.80737651170934
40
0.814524808334741
40
0.818098956647442
40
0.821673104960143
40
0.825247253272844
40
0.828821401585545
40
0.835969698210946
40
0.839543846523647
40
0.843117994836348
40
0.844905068992698
40
0.846692143149049
40
0.850266291461749
40
0.857414588087151
40
0.860988736399852
40
0.864562884712552
40
0.868137033025253
40
0.871711181337954
40
0.878859477963356
40
0.882433626276056
40
0.886007774588757
40
0.889581922901458
40
0.893156071214159
40
0.89673021952686
40
0.90030436783956
40
0.903878516152261
40
0.907452664464962
40
0.914600961090363
40
0.918175109403064
40
0.921749257715765
40
0.928897554341167
40
0.932471702653867
40
0.936045850966568
40
0.94319414759197
40
0.946768295904671
40
0.950342444217371
40
0.953916592530072
40
0.957490740842773
40
0.964639037468174
40
0.968213185780875
40
0.971787334093576
40
0.975361482406277
40
0.978935630718978
40
0.982509779031678
40
0.986083927344379
40
0.98965807565708
40
0.993232223969781
40
0.996806372282481
40
1
40
1
40
1
40
1
41
1
10
-28.4999999999999
20
16.8542651680585
30
-2E-16
41
1
10
-28.4999999999999
20
16.8527683690305
30
-2E-16
41
1
10
-28.4999999999999
20
16.8489044118252
30
-2E-16
41
1
10
-28.4999999999999
20
16.840792178866
30
-1E-16
41
1
10
-28.4999999999999
20
16.8300011209596
30
-1E-16
41
1
10
-28.4999999999999
20
16.8168672741157
30
-1E-16
41
1
10
-28.4999999999999
20
16.801425522577
30
0
41
1
10
-28.4999999999999
20
16.7837098835211
30
0
41
1
10
-28.4999999999999
20
16.7637529731542
30
1E-16
41
1
10
-28.4999999999999
20
16.7415855338907
30
-1E-16
41
1
10
-28.4999999999999
20
16.7172383450785
30
0
41
1
10
-28.4999999999999
20
16.6818353810987
30
0
41
1
10
-28.4999999999999
20
16.6424115105141
30
0
41
1
10
-28.4999999999999
20
16.5986105790195
30
0
41
1
10
-28.4999999999999
20
16.5637763020887
30
0
41
1
10
-28.4999999999999
20
16.5269199075573
30
0
41
1
10
-28.5
20
16.4750169305148
30
0
41
1
10
-28.5
20
16.4194622625482
30
0
41
1
10
-28.5
20
16.3597331913306
30
0
41
1
10
-28.5
20
16.2974462059126
30
-1E-16
41
1
10
-28.5
20
16.2317181614777
30
1E-16
41
1
10
-28.5
20
16.1619255301563
30
0
41
1
10
-28.5
20
16.0896767577218
30
0
41
1
10
-28.5
20
16.0141701499499
30
2E-16
41
1
10
-28.5
20
15.9346970720352
30
-1E-16
41
1
10
-28.5
20
15.8734193498835
30
1E-16
41
1
10
-28.5
20
15.8103844132608
30
-2E-16
41
1
10
-28.5
20
15.7456081661671
30
0
41
1
10
-28.5
20
15.6791035033832
30
1E-16
41
1
10
-28.5
20
15.6108850520676
30
-1E-16
41
1
10
-28.5
20
15.5409672008417
30
1E-16
41
1
10
-28.5
20
15.4453363897878
30
-1E-16
41
1
10
-28.5
20
15.3468344295443
30
1E-16
41
1
10
-28.5
20
15.2445501023873
30
4E-16
41
1
10
-28.5
20
15.1663215412449
30
-3E-16
41
1
10
-28.5
20
15.0864673138637
30
-1E-16
41
1
10
-28.5
20
14.9776668598205
30
2E-16
41
1
10
-28.5
20
14.8661866472664
30
4E-16
41
1
10
-28.5
20
14.7510047173633
30
-2E-16
41
1
10
-28.5
20
14.6631805593239
30
1E-16
41
1
10
-28.5
20
14.5737935545694
30
3E-16
41
1
10
-28.5
20
14.4523474056542
30
-3E-16
41
1
10
-28.5
20
14.3283920102609
30
0
41
1
10
-28.5
20
14.2007962111627
30
4E-16
41
1
10
-28.5
20
14.1037299196574
30
-3E-16
41
1
10
-28.5
20
14.0051547121626
30
0
41
1
10
-28.5
20
13.8715103774193
30
3E-16
41
1
10
-28.5
20
13.7355116027342
30
-2E-16
41
1
10
-28.5
20
13.5959164295664
30
1E-16
41
1
10
-28.5
20
13.4899116400768
30
-5E-16
41
1
10
-28.5
20
13.3824445287114
30
-2E-16
41
1
10
-28.5
20
13.2369867267197
30
1E-16
41
1
10
-28.5
20
13.0893180063073
30
5E-16
41
1
10
-28.5
20
12.9380809359596
30
-9E-16
41
1
10
-28.5
20
12.8234002792819
30
-6E-16
41
1
10
-28.5
20
12.707297723597
30
-3E-16
41
1
10
-28.5
20
12.5503594035541
30
1E-16
41
1
10
-28.5
20
12.3913462445322
30
5E-16
41
1
10
-28.5
20
12.2287775158426
30
-9E-16
41
1
10
-28.5
20
12.1056498288982
30
-5E-16
41
1
10
-28.5
20
11.9811355431937
30
-2E-16
41
1
10
-28.5
20
11.8130068133242
30
2E-16
41
1
10
-28.5
20
11.6429357680781
30
6E-16
41
1
10
-28.5
20
11.4693068645234
30
-7E-16
41
1
10
-28.5
20
11.2938625434426
30
-3E-16
41
1
10
-28.5
20
11.0718089327866
30
3E-16
41
1
10
-28.5
20
10.8452681360073
30
9E-16
41
1
10
-28.5
20
10.6608198079833
30
-4E-16
41
1
10
-28.5
20
10.4745957683655
30
0
41
1
10
-28.5
20
10.28665185334
30
5E-16
41
1
10
-28.5
20
10.095113535791
30
-8E-16
41
1
10
-28.5
20
9.95038954775922
30
-4E-16
41
1
10
-28.5
20
9.80435457760422
30
0
41
1
10
-28.5
20
9.65701503611834
30
3E-16
41
1
10
-28.5
20
9.50837340526923
30
7E-16
41
1
10
-28.5
20
9.3081099236569
30
-5E-16
41
1
10
-28.5
20
9.05534970701555
30
1E-16
41
1
10
-28.5
20
8.79830464348933
30
7E-16
41
1
10
-28.5
20
8.58944232029066
30
-5E-16
41
1
10
-28.5
20
8.43181572672992
30
-1E-16
41
1
10
-28.5
20
8.27292311790603
30
3E-16
41
1
10
-28.5
20
8.11277014047195
30
7E-16
41
1
10
-28.5
20
7.95136171184501
30
-7E-16
41
1
10
-28.5
20
7.73407184255319
30
-1E-16
41
1
10
-28.5
20
7.46030866767541
30
6E-16
41
1
10
-28.5
20
7.12632140637385
30
-3E-16
41
1
10
-28.5
20
6.84437402550583
30
4E-16
41
1
10
-28.5
20
6.61554359890383
30
-8E-16
41
1
10
-28.5
20
6.44309029411619
30
-4E-16
41
1
10
-28.5
20
6.26944364545901
30
1E-16
41
1
10
-28.5
20
6.09461246091783
30
5E-16
41
1
10
-28.5
20
5.91860523667623
30
-8E-16
41
1
10
-28.5
20
5.74143189937968
30
-4E-16
41
1
10
-28.5
20
5.56310357372013
30
1E-16
41
1
10
-28.5
20
5.38363134733177
30
5E-16
41
1
10
-28.5
20
5.20302692387273
30
1E-15
41
1
10
-28.5
20
5.02130422324731
30
1.5E-15
41
1
10
-28.5
20
4.83847919931276
30
-1.6E-15
41
1
10
-28.5
20
4.65456716028015
30
-1.2E-15
41
1
10
-28.5
20
4.46958486845961
30
-7E-16
41
1
10
-28.5
20
4.2835530280808
30
-2E-16
41
1
10
-28.5
20
4.09649275318193
30
3E-16
41
1
10
-28.5
20
3.90842813226243
30
7E-16
41
1
10
-28.5
20
3.75124940963576
30
1.1E-15
41
1
10
-28.5
20
3.62435497964404
30
1.5E-15
41
1
10
-28.5
20
3.52924315934195
30
1.7E-15
41
1
10
-28.5
20
3.43390158445533
30
-1.6E-15
41
1
10
-28.5
20
3.30608717079312
30
-1.3E-15
41
1
10
-28.5
20
3.14669072023435
30
-9E-16
41
1
10
-28.5
20
2.98656939879135
30
-5E-16
41
1
10
-28.5
20
2.85729421649626
30
-2E-16
41
1
10
-28.5
20
2.76048089001335
30
1E-16
41
1
10
-28.5
20
2.66347976206265
30
3E-16
41
1
10
-28.5
20
2.56629526768603
30
6E-16
41
1
10
-28.5
20
2.46893611478765
30
8E-16
41
1
10
-28.5
20
2.33842740009601
30
1.2E-15
41
1
10
-28.5
20
2.20905952740156
30
1.5E-15
41
1
10
-28.5
20
2.0778803957291
30
-1.7E-15
41
1
10
-28.5
20
1.97974994874627
30
-1.5E-15
41
1
10
-28.5
20
1.88148715614136
30
-1.2E-15
41
1
10
-28.5
20
1.78310090101292
30
-1E-15
41
1
10
-28.5
20
1.68460072925316
30
-7E-16
41
1
10
-28.5
20
1.5859918412811
30
-5E-16
41
1
10
-28.5
20
1.48728649469371
30
-2E-16
41
1
10
-28.5
20
1.38848914320602
30
0
41
1
10
-28.5
20
1.28961139997097
30
3E-16
41
1
10
-28.5
20
1.19065859361001
30
5E-16
41
1
10
-28.5
20
1.09164071478062
30
8E-16
41
1
10
-28.5
20
0.992564090788591
30
1E-15
41
1
10
-28.5
20
0.893436923932654
30
1.3E-15
41
1
10
-28.5
20
0.79426547193728
30
1.5E-15
41
1
10
-28.5
20
0.695056741362976
30
-1.8E-15
41
1
10
-28.5
20
0.595816468507365
30
-1.5E-15
41
1
10
-28.5
20
0.496550613210104
30
-1.3E-15
41
1
10
-28.5
20
0.397263853181926
30
-1E-15
41
1
10
-28.5
20
0.297961366795249
30
-8E-16
41
1
10
-28.5
20
0.198647102840852
30
-5E-16
41
1
10
-28.5
20
0.0993254669348858
30
-3E-16
41
1
10
-28.5
20
5.4726286E-09
30
0
41
1
10
-28.5
20
-0.0993254684404405
30
3E-16
41
1
10
-28.5
20
-0.198647127601106
30
5E-16
41
1
10
-28.5
20
-0.297961388791549
30
8E-16
41
1
10
-28.5
20
-0.397263840423875
30
1E-15
41
1
10
-28.5
20
-0.496550594205445
30
1.3E-15
41
1
10
-28.5
20
-0.595816495503954
30
1.5E-15
41
1
10
-28.5
20
-0.695056784276886
30
1.8E-15
41
1
10
-28.5
20
-0.794265459276062
30
-1.5E-15
41
1
10
-28.5
20
-0.893436883433367
30
-1.3E-15
41
1
10
-28.5
20
-0.992564112169759
30
-1E-15
41
1
10
-28.5
20
-1.09164077920408
30
-8E-16
41
1
10
-28.5
20
-1.19065859620252
30
-5E-16
41
1
10
-28.5
20
-1.2896113418974
30
-3E-16
41
1
10
-28.5
20
-1.38848913588979
30
0
41
1
10
-28.5
20
-1.48728656512966
30
2E-16
41
1
10
-28.5
20
-1.58599188781918
30
5E-16
41
1
10
-28.5
20
-1.68460068701236
30
7E-16
41
1
10
-28.5
20
-1.78310084050685
30
1E-15
41
1
10
-28.5
20
-1.88148718140687
30
1.2E-15
41
1
10
-28.5
20
-1.97975003643609
30
1.5E-15
41
1
10
-28.5
20
-2.07788042653615
30
1.7E-15
41
1
10
-28.5
20
-2.17587292609071
30
-1.6E-15
41
1
10
-28.5
20
-2.27371679621305
30
-1.3E-15
41
1
10
-28.5
20
-2.37140757120341
30
-1.1E-15
41
1
10
-28.5
20
-2.46893613943021
30
-8E-16
41
1
10
-28.5
20
-2.59923374131688
30
-5E-16
41
1
10
-28.5
20
-2.72777279716695
30
-2E-16
41
1
10
-28.5
20
-2.85729428823916
30
2E-16
41
1
10
-28.5
20
-2.98656948332373
30
5E-16
41
1
10
-28.5
20
-3.14669074057858
30
9E-16
41
1
10
-28.5
20
-3.30608709676787
30
1.3E-15
41
1
10
-28.5
20
-3.43390157548924
30
1.6E-15
41
1
10
-28.5
20
-3.52924322184177
30
-1.7E-15
41
1
10
-28.5
20
-3.6243550685482
30
-1.5E-15
41
1
10
-28.5
20
-3.75124942106044
30
-1.1E-15
41
1
10
-28.5
20
-3.90842799420614
30
-7E-16
41
1
10
-28.5
20
-4.09649259176135
30
-3E-16
41
1
10
-28.5
20
-4.28355297730491
30
2E-16
41
1
10
-28.5
20
-4.46958461745535
30
7E-16
41
1
10
-28.5
20
-4.65456683421024
30
1.2E-15
41
1
10
-28.5
20
-4.83847943804483
30
1.6E-15
41
1
10
-28.5
20
-5.02130448518966
30
-1.5E-15
41
1
10
-28.5
20
-5.20302670032998
30
-1E-15
41
1
10
-28.5
20
-5.38363156234226
30
-5E-16
41
1
10
-28.5
20
-5.56310445504431
30
-1E-16
41
1
10
-28.5
20
-5.7414323774797
30
4E-16
41
1
10
-28.5
20
-5.9186049544856
30
8E-16
41
1
10
-28.5
20
-6.09461208825516
30
-5E-16
41
1
10
-28.5
20
-6.26944357118285
30
-1E-16
41
1
10
-28.5
20
-6.44309032655619
30
4E-16
41
1
10
-28.5
20
-6.61554357091558
30
8E-16
41
1
10
-28.5
20
-6.8443740080285
30
-4E-16
41
1
10
-28.5
20
-7.1263214451229
30
3E-16
41
1
10
-28.5
20
-7.46030865505747
30
-6E-16
41
1
10
-28.5
20
-7.73407184285267
30
1E-16
41
1
10
-28.5
20
-7.95136176299593
30
7E-16
41
1
10
-28.5
20
-8.1127701493707
30
-7E-16
41
1
10
-28.5
20
-8.27292308432638
30
-3E-16
41
1
10
-28.5
20
-8.43181570788778
30
1E-16
41
1
10
-28.5
20
-8.58944234887969
30
5E-16
41
1
10
-28.5
20
-8.7983046782692
30
-7E-16
41
1
10
-28.5
20
-9.0553496958378
30
-1E-16
41
1
10
-28.5
20
-9.30810991622673
30
5E-16
41
1
10
-28.5
20
-9.50837344479839
30
-7E-16
41
1
10
-28.5
20
-9.65701506287482
30
-3E-16
41
1
10
-28.5
20
-9.80435457188463
30
0
41
1
10
-28.5
20
-9.95038952754777
30
4E-16
41
1
10
-28.5
20
-10.0951135319108
30
8E-16
41
1
10
-28.5
20
-10.2866518813935
30
-5E-16
41
1
10
-28.5
20
-10.4745957936972
30
0
41
1
10
-28.5
20
-10.6608197986607
30
4E-16
41
1
10
-28.5
20
-10.8452681286136
30
-9E-16
41
1
10
-28.5
20
-11.0718089525804
30
-3E-16
41
1
10
-28.5
20
-11.2938625632928
30
3E-16
41
1
10
-28.5
20
-11.4693068596264
30
7E-16
41
1
10
-28.5
20
-11.642935765638
30
-6E-16
41
1
10
-28.5
20
-11.8130068303032
30
-2E-16
41
1
10
-28.5
20
-11.9811355648907
30
2E-16
41
1
10
-28.5
20
-12.1056498404807
30
5E-16
41
1
10
-28.5
20
-12.2287775174237
30
9E-16
41
1
10
-28.5
20
-12.3913462461041
30
-5E-16
41
1
10
-28.5
20
-12.5503594172969
30
-1E-16
41
1
10
-28.5
20
-12.7072977423402
30
3E-16
41
1
10
-28.5
20
-12.823400293314
30
6E-16
41
1
10
-28.5
20
-12.9380809438715
30
9E-16
41
1
10
-28.5
20
-13.0893180117673
30
-5E-16
41
1
10
-28.5
20
-13.2369867372072
30
-1E-16
41
1
10
-28.5
20
-13.3824445445541
30
2E-16
41
1
10
-28.5
20
-13.4899116562854
30
5E-16
41
1
10
-28.5
20
-13.5959164434403
30
-1E-16
41
1
10
-28.5
20
-13.7355116125919
30
2E-16
41
1
10
-28.5
20
-13.8715103854274
30
-3E-16
41
1
10
-28.5
20
-14.0051547249396
30
0
41
1
10
-28.5
20
-14.10372993707
30
3E-16
41
1
10
-28.5
20
-14.2007962250067
30
-4E-16
41
1
10
-28.5
20
-14.3283920393089
30
0
41
1
10
-28.5
20
-14.4523474054458
30
3E-16
41
1
10
-28.5
20
-14.57379350627
30
-3E-16
41
1
10
-28.5
20
-14.648189652593
30
-1E-16
41
1
10
-28.5
20
-14.7070919001428
30
0
41
1
10
-28.5
20
-14.7654709460417
30
2E-16
41
1
10
-28.5
20
-14.8661866667288
30
-4E-16
41
1
10
-28.5
20
-14.9776668655464
30
-2E-16
41
1
10
-28.5
20
-15.0864673213159
30
1E-16
41
1
10
-28.5
20
-15.166321559936
30
3E-16
41
1
10
-28.5
20
-15.2445501295775
30
-4E-16
41
1
10
-28.5
20
-15.3468344527491
30
-1E-16
41
1
10
-28.5
20
-15.4453363938052
30
1E-16
41
1
10
-28.5
20
-15.5409672073329
30
-1E-16
41
1
10
-28.5
20
-15.6108850733397
30
1E-16
41
1
10
-28.5
20
-15.6791035342518
30
-1E-16
41
1
10
-28.5
20
-15.7456081924761
30
0
41
1
10
-28.5
20
-15.810384423087
30
2E-16
41
1
10
-28.5
20
-15.8734193510278
30
-1E-16
41
1
10
-28.5
20
-15.934697080719
30
1E-16
41
1
10
-28.5
20
-16.0141701800501
30
-2E-16
41
1
10
-28.5
20
-16.0896767899467
30
0
41
1
10
-28.5
20
-16.1619255341457
30
0
41
1
10
-28.5
20
-16.2317181619346
30
-1E-16
41
1
10
-28.5
20
-16.2974462376792
30
1E-16
41
1
10
-28.5
20
-16.3597332242325
30
0
41
1
10
-28.5
20
-16.4194622696318
30
0
41
1
10
-28.5
20
-16.475016928696
30
0
41
1
10
-28.5000000000001
20
-16.526919939948
30
0
41
1
10
-28.5000000000001
20
-16.5637763395247
30
0
41
1
10
-28.5000000000001
20
-16.5986105943247
30
0
41
1
10
-28.5000000000001
20
-16.6424115043339
30
0
41
1
10
-28.5000000000001
20
-16.6818354096896
30
0
41
1
10
-28.5000000000001
20
-16.7172383773104
30
0
41
1
10
-28.5000000000001
20
-16.7415855502289
30
1E-16
41
1
10
-28.5000000000001
20
-16.7637529737166
30
-1E-16
41
1
10
-28.5000000000001
20
-16.783709892727
30
0
41
1
10
-28.5000000000001
20
-16.8014255596808
30
0
41
1
10
-28.5000000000001
20
-16.816867307208
30
1E-16
41
1
10
-28.5000000000001
20
-16.830001125108
30
1E-16
41
1
10
-28.5000000000001
20
-16.8407921763223
30
1E-16
41
1
10
-28.5000000000001
20
-16.848904812832
30
2E-16
41
1
10
-28.5
20
-16.852768925554
30
2E-16
41
1
10
-28.5
20
-16.8542658316028
30
2E-16
0
SPLINE
5
19B
100
AcDbEntity
8
SK1
62
256
6
ByLayer
370
18
48
1
60
0
100
AcDbSpline
70
4
71
3
72
290
73
286
40
0
40
0
40
0
40
0
40
0.0031057476012785
40
0.0065805323663005
40
0.0100553171313225
40
0.0135301018963445
40
0.0170048866613665
40
0.0204796714263885
40
0.0239544561914105
40
0.0274292409564325
40
0.0309040257214545
40
0.0343788104864765
40
0.0378535952514985
40
0.0413283800165204
40
0.0448031647815424
40
0.0482779495465644
40
0.0552275190766084
40
0.0587023038416304
40
0.0621770886066524
40
0.0656518733716744
40
0.0691266581366964
40
0.0760762276667404
40
0.0795510124317624
40
0.0830257971967844
40
0.0899753667268283
40
0.0934501514918503
40
0.0969249362568723
40
0.103874505786916
40
0.107349290551938
40
0.11082407531696
40
0.114298860081982
40
0.117773644847004
40
0.121248429612026
40
0.124723214377048
40
0.12819799914207
40
0.131672783907092
40
0.138622353437136
40
0.142097138202158
40
0.14557192296718
40
0.149046707732202
40
0.152521492497224
40
0.159471062027268
40
0.16294584679229
40
0.166420631557312
40
0.169895416322334
40
0.173370201087356
40
0.1803197706174
40
0.183794555382422
40
0.187269340147444
40
0.190744124912466
40
0.194218909677488
40
0.201168479207532
40
0.204643263972554
40
0.208118048737576
40
0.211592833502598
40
0.21506761826762
40
0.222017187797664
40
0.225491972562686
40
0.228966757327708
40
0.23244154209273
40
0.235916326857752
40
0.242865896387796
40
0.246340681152818
40
0.24981546591784
40
0.253290250682862
40
0.256765035447884
40
0.263714604977928
40
0.26718938974295
40
0.270664174507972
40
0.277613744038016
40
0.28456331356806
40
0.288038098333082
40
0.291512883098104
40
0.298462452628148
40
0.30193723739317
40
0.305412022158192
40
0.308886806923214
40
0.312361591688236
40
0.315836376453258
40
0.31931116121828
40
0.326260730748324
40
0.333210300278368
40
0.33668508504339
40
0.340159869808412
40
0.343634654573434
40
0.347109439338456
40
0.350584224103478
40
0.3540590088685
40
0.361008578398544
40
0.367958147928588
40
0.374907717458632
40
0.378382502223654
40
0.381857286988676
40
0.385332071753698
40
0.38880685651872
40
0.392281641283742
40
0.395756426048764
40
0.399231210813786
40
0.402705995578808
40
0.40618078034383
40
0.409655565108852
40
0.413130349873874
40
0.416605134638896
40
0.420079919403918
40
0.42355470416894
40
0.427029488933962
40
0.430504273698984
40
0.433979058464006
40
0.435716450846517
40
0.437453843229028
40
0.439191235611539
40
0.44092862799405
40
0.444403412759072
40
0.447878197524094
40
0.449615589906605
40
0.451352982289116
40
0.453090374671627
40
0.454827767054138
40
0.456565159436648
40
0.45830255181916
40
0.461777336584182
40
0.463514728966692
40
0.465252121349204
40
0.466989513731714
40
0.468726906114226
40
0.470464298496736
40
0.472201690879248
40
0.473939083261758
40
0.47567647564427
40
0.47741386802678
40
0.479151260409292
40
0.480888652791802
40
0.482626045174314
40
0.484363437556824
40
0.486100829939335
40
0.487838222321846
40
0.489575614704357
40
0.491313007086868
40
0.49305039946938
40
0.49478779185189
40
0.496525184234402
40
0.498262576616912
40
0.499999968999423
40
0.501737361381934
40
0.503474753764446
40
0.505212146146956
40
0.506949538529467
40
0.508686930911978
40
0.510424323294489
40
0.512161715677
40
0.513899108059511
40
0.515636500442022
40
0.517373892824533
40
0.519111285207044
40
0.520848677589555
40
0.522586069972066
40
0.524323462354577
40
0.526060854737088
40
0.527798247119599
40
0.52953563950211
40
0.531273031884621
40
0.533010424267132
40
0.534747816649643
40
0.536485209032154
40
0.538222601414665
40
0.539959993797176
40
0.541697386179687
40
0.543434778562198
40
0.545172170944709
40
0.548646955709731
40
0.550384348092242
40
0.552121740474753
40
0.555596525239775
40
0.559071310004797
40
0.560808702387308
40
0.562546094769819
40
0.56428348715233
40
0.566020879534841
40
0.569495664299863
40
0.572970449064885
40
0.576445233829907
40
0.579920018594929
40
0.583394803359951
40
0.586869588124973
40
0.590344372889995
40
0.593819157655017
40
0.597293942420039
40
0.600768727185061
40
0.604243511950083
40
0.607718296715105
40
0.611193081480127
40
0.614667866245149
40
0.618142651010171
40
0.621617435775193
40
0.625092220540215
40
0.632041790070259
40
0.638991359600303
40
0.645940929130347
40
0.649415713895369
40
0.652890498660391
40
0.656365283425413
40
0.659840068190435
40
0.663314852955457
40
0.666789637720479
40
0.673739207250523
40
0.680688776780567
40
0.684163561545589
40
0.687638346310611
40
0.691113131075633
40
0.694587915840655
40
0.698062700605677
40
0.701537485370699
40
0.708487054900743
40
0.711961839665765
40
0.715436624430787
40
0.722386193960831
40
0.729335763490875
40
0.732810548255897
40
0.736285333020919
40
0.743234902550963
40
0.746709687315985
40
0.750184472081007
40
0.753659256846029
40
0.757134041611051
40
0.764083611141095
40
0.767558395906117
40
0.771033180671139
40
0.774507965436161
40
0.777982750201183
40
0.784932319731227
40
0.788407104496249
40
0.791881889261271
40
0.795356674026293
40
0.798831458791315
40
0.805781028321359
40
0.809255813086381
40
0.812730597851403
40
0.816205382616425
40
0.819680167381447
40
0.826629736911491
40
0.830104521676513
40
0.833579306441535
40
0.835316698824046
40
0.837054091206557
40
0.840528875971579
40
0.847478445501623
40
0.850953230266645
40
0.854428015031667
40
0.857902799796689
40
0.861377584561711
40
0.868327154091755
40
0.871801938856776
40
0.875276723621799
40
0.87875150838682
40
0.882226293151843
40
0.885701077916865
40
0.889175862681887
40
0.892650647446909
40
0.896125432211931
40
0.903075001741975
40
0.906549786506997
40
0.910024571272019
40
0.916974140802063
40
0.920448925567085
40
0.923923710332106
40
0.93087327986215
40
0.934348064627172
40
0.937822849392194
40
0.941297634157216
40
0.944772418922238
40
0.951721988452282
40
0.955196773217304
40
0.958671557982326
40
0.962146342747348
40
0.96562112751237
40
0.969095912277392
40
0.972570697042414
40
0.976045481807436
40
0.979520266572458
40
0.98299505133748
40
0.986469836102502
40
0.989944620867524
40
0.993419405632546
40
0.996894190397568
40
1
40
1
40
1
40
1
41
1
10
-1.99503997793923
20
17.3199730980048
30
0
41
1
10
-1.99503997793923
20
17.3215466562492
30
0
41
1
10
-1.99503997793923
20
17.324116377187
30
0
41
1
10
-1.99503997793923
20
17.3256105313787
30
0
41
1
10
-1.99503997793923
20
17.3245459215017
30
0
41
1
10
-1.99503997793923
20
17.3209154078929
30
0
41
1
10
-1.99503997793923
20
17.3147637003649
30
0
41
1
10
-1.99503997793923
20
17.3061342577567
30
0
41
1
10
-1.99503997793923
20
17.295067771448
30
0
41
1
10
-1.99503997793923
20
17.2816041041457
30
1E-16
41
1
10
-1.99503997793923
20
17.2657805776117
30
-1E-16
41
1
10
-1.99503997793923
20
17.2476335117891
30
-1E-16
41
1
10
-1.99503997793923
20
17.2271975457697
30
0
41
1
10
-1.99503997793923
20
17.2045053960088
30
0
41
1
10
-1.99503997793923
20
17.1795895960111
30
-1E-16
41
1
10
-1.99503997793923
20
17.143423992764
30
0
41
1
10
-1.99503997793923
20
17.1029924242496
30
0
41
1
10
-1.99503997793923
20
17.0582791326422
30
0
41
1
10
-1.99503997793923
20
17.0226787925821
30
0
41
1
10
-1.99503997793923
20
16.9850205529168
30
0
41
1
10
-1.99503997793923
20
16.9320728615657
30
0
41
1
10
-1.99503997793923
20
16.8751872660894
30
0
41
1
10
-1.99503997793923
20
16.8142877036056
30
-1E-16
41
1
10
-1.99503997793923
20
16.7507929832779
30
1E-16
41
1
10
-1.99503997793923
20
16.6835453056651
30
0
41
1
10
-1.99503997793923
20
16.6124299551483
30
0
41
1
10
-1.99503997793923
20
16.5388242186582
30
2E-16
41
1
10
-1.99503997793926
20
16.4616240004255
30
-1E-16
41
1
10
-1.99503997793926
20
16.3806869939664
30
1E-16
41
1
10
-1.99503997793926
20
16.3182114219941
30
-1E-16
41
1
10
-1.99503997793926
20
16.2539521138774
30
0
41
1
10
-1.99503997793926
20
16.1879246249362
30
2E-16
41
1
10
-1.99503997793926
20
16.1201424382026
30
-1E-16
41
1
10
-1.99503997793926
20
16.0506207732709
30
1E-16
41
1
10
-1.99503997793926
20
15.9793734908251
30
-2E-16
41
1
10
-1.99503997793926
20
15.8820499794418
30
-4E-16
41
1
10
-1.99503997793926
20
15.7814584486047
30
-1E-16
41
1
10
-1.99503997793926
20
15.6773849581491
30
2E-16
41
1
10
-1.99503997793926
20
15.5977008436634
30
4E-16
41
1
10
-1.99503997793926
20
15.5163656256123
30
-3E-16
41
1
10
-1.99503997793926
20
15.4056838451686
30
0
41
1
10
-1.99503997793926
20
15.2918890118945
30
2E-16
41
1
10
-1.99503997793926
20
15.1747311694574
30
-3E-16
41
1
10
-1.99503997793926
20
15.0853020659338
30
-1E-16
41
1
10
-1.99503997793926
20
14.9942846604514
30
1E-16
41
1
10
-1.99503997793926
20
14.8707702235387
30
4E-16
41
1
10
-1.99503997793926
20
14.7442755428493
30
-1E-16
41
1
10
-1.99503997793926
20
14.6145160455858
30
2E-16
41
1
10
-1.99503997793926
20
14.5156939096276
30
4E-16
41
1
10
-1.99503997793926
20
14.4153366771621
30
-2E-16
41
1
10
-1.99503997793926
20
14.2794333721973
30
2E-16
41
1
10
-1.99503997793926
20
14.1406647198644
30
-4E-16
41
1
10
-1.99503997793926
20
13.9987118830366
30
0
41
1
10
-1.99503997793926
20
13.8907947247769
30
2E-16
41
1
10
-1.99503997793926
20
13.7813876415877
30
5E-16
41
1
10
-1.99503997793926
20
13.6334713769854
30
-9E-16
41
1
10
-1.99503997793926
20
13.482790135872
30
-5E-16
41
1
10
-1.99503997793926
20
13.3289901096711
30
-1E-16
41
1
10
-1.99503997793926
20
13.2122307400427
30
2E-16
41
1
10
-1.99503997793926
20
13.09401974916
30
5E-16
41
1
10
-1.99503997793926
20
12.9344093145834
30
-9E-16
41
1
10
-1.99503997793926
20
12.7721223429485
30
-5E-16
41
1
10
-1.99503997793926
20
12.606768466692
30
0
41
1
10
-1.99503997793926
20
12.4813812679685
30
3E-16
41
1
10
-1.99503997793926
20
12.3545748152048
30
6E-16
41
1
10
-1.99503997793926
20
12.1835401119864
30
-7E-16
41
1
10
-1.99503997793926
20
12.0099077332894
30
-3E-16
41
1
10
-1.99503997793926
20
11.8332480165124
30
1E-16
41
1
10
-1.99503997793926
20
11.6547268261542
30
6E-16
41
1
10
-1.99503997793926
20
11.4282697000141
30
-6E-16
41
1
10
-1.99503997793926
20
11.197200136596
30
0
41
1
10
-1.99503997793926
20
11.00944356136
30
5E-16
41
1
10
-1.99503997793926
20
10.8198574498996
30
-8E-16
41
1
10
-1.99503997793926
20
10.627787937013
30
-3E-16
41
1
10
-1.99503997793926
20
10.4327334855784
30
2E-16
41
1
10
-1.99503997793926
20
10.2851499168301
30
5E-16
41
1
10
-1.99503997793926
20
10.1362104702401
30
-9E-16
41
1
10
-1.99503997793926
20
9.98591879047717
30
-5E-16
41
1
10
-1.99503997793926
20
9.83427692622888
30
-1E-16
41
1
10
-1.99503997793926
20
9.63019833168181
30
4E-16
41
1
10
-1.99503997793926
20
9.37195865327331
30
-7E-16
41
1
10
-1.99503997793926
20
9.10925717826123
30
0
41
1
10
-1.99503997793926
20
8.89624559944806
30
5E-16
41
1
10
-1.99503997793926
20
8.73523611643319
30
-9E-16
41
1
10
-1.99503997793926
20
8.5728987179462
30
-5E-16
41
1
10
-1.99503997793926
20
8.40923673354899
30
0
41
1
10
-1.99503997793926
20
8.24425232954016
30
4E-16
41
1
10
-1.99503997793926
20
8.02240146480563
30
-8E-16
41
1
10
-1.99503997793926
20
7.74205781329053
30
-1E-16
41
1
10
-1.99503997793926
20
7.40025290593454
30
7E-16
41
1
10
-1.99503997793926
20
7.11118461088944
30
-3E-16
41
1
10
-1.99503997793926
20
6.87709665618269
30
3E-16
41
1
10
-1.99503997793926
20
6.70033531356594
30
7E-16
41
1
10
-1.99503997793926
20
6.52228078287749
30
1.2E-15
41
1
10
-1.99503997793926
20
6.34293707417916
30
1.7E-15
41
1
10
-1.99503997793926
20
6.16230788845584
30
-1.4E-15
41
1
10
-1.99503997793926
20
5.98039789106804
30
-1E-15
41
1
10
-1.99503997793926
20
5.79721186805696
30
-5E-16
41
1
10
-1.99503997793926
20
5.61275496243294
30
0
41
1
10
-1.99503997793928
20
5.42703270327698
30
4E-16
41
1
10
-1.99503997793928
20
5.2400517573148
30
9E-16
41
1
10
-1.99503997793928
20
5.05181945337142
30
1.4E-15
41
1
10
-1.99503997793928
20
4.86234332329408
30
-1.7E-15
41
1
10
-1.99503997793928
20
4.67163207713239
30
-1.2E-15
41
1
10
-1.99503997793928
20
4.47969614999022
30
-7E-16
41
1
10
-1.99503997793928
20
4.28654656517497
30
-2E-16
41
1
10
-1.99503997793928
20
4.09219634432213
30
3E-16
41
1
10
-1.99503997793928
20
3.9293466108191
30
7E-16
41
1
10
-1.99503997793928
20
3.79829729672923
30
1E-15
41
1
10
-1.99503997793928
20
3.69979994526258
30
1.3E-15
41
1
10
-1.99503997793928
20
3.60101470619625
30
1.5E-15
41
1
10
-1.99503997793928
20
3.46881385164505
30
-1.7E-15
41
1
10
-1.99503997793928
20
3.30310841087521
30
-1.3E-15
41
1
10
-1.99503997793928
20
3.13647579824183
30
-9E-16
41
1
10
-1.99503997793928
20
3.00241852965874
30
-5E-16
41
1
10
-1.99503997793928
20
2.90170218623109
30
-3E-16
41
1
10
-1.99503997793928
20
2.80072442890972
30
0
41
1
10
-1.99503997793928
20
2.69948931487852
30
2E-16
41
1
10
-1.99503997793928
20
2.59800197345766
30
5E-16
41
1
10
-1.99503997793928
20
2.46222694501745
30
9E-16
41
1
10
-1.99503997793928
20
2.32636708010443
30
1.2E-15
41
1
10
-1.99503997793928
20
2.18963187963752
30
1.5E-15
41
1
10
-1.99503997793928
20
2.0869636745152
30
-1.7E-15
41
1
10
-1.99503997793928
20
1.98407765086864
30
-1.5E-15
41
1
10
-1.99503997793928
20
1.88098143773607
30
-1.2E-15
41
1
10
-1.99503997793928
20
1.77768276547403
30
-1E-15
41
1
10
-1.99503997793928
20
1.67418894734931
30
-7E-16
41
1
10
-1.99503997793928
20
1.57050946303124
30
-4E-16
41
1
10
-1.99503997793928
20
1.46665209995743
30
-2E-16
41
1
10
-1.99503997793928
20
1.36262724011797
30
1E-16
41
1
10
-1.99503997793928
20
1.25844372920943
30
4E-16
41
1
10
-1.99503997793928
20
1.15411255471392
30
6E-16
41
1
10
-1.99503997793928
20
1.04964378000582
30
9E-16
41
1
10
-1.99503997793928
20
0.945048899580684
30
1.2E-15
41
1
10
-1.99503997793928
20
0.840338961204253
30
1.4E-15
41
1
10
-1.99503997793928
20
0.735526073032389
30
1.7E-15
41
1
10
-1.99503997793928
20
0.630622105582717
30
-1.6E-15
41
1
10
-1.99503997793928
20
0.525639721157319
30
-1.3E-15
41
1
10
-1.99503997793928
20
0.42059135092876
30
-1.1E-15
41
1
10
-1.99503997793928
20
0.315490126623871
30
-8E-16
41
1
10
-1.99503997793928
20
0.210348939519491
30
-5E-16
41
1
10
-1.99503997793928
20
0.105181165306277
30
-3E-16
41
1
10
-1.99503997793928
20
-2.6093119E-09
30
0
41
1
10
-1.99503997793928
20
-0.105181173899354
30
3E-16
41
1
10
-1.99503997793928
20
-0.210348954453991
30
5E-16
41
1
10
-1.99503997793928
20
-0.315490140896486
30
8E-16
41
1
10
-1.99503997793928
20
-0.420591355720461
30
1.1E-15
41
1
10
-1.99503997793928
20
-0.525639723935768
30
1.3E-15
41
1
10
-1.99503997793928
20
-0.63062212077017
30
1.6E-15
41
1
10
-1.99503997793928
20
-0.73552609301845
30
-1.7E-15
41
1
10
-1.99503997793928
20
-0.840338966235521
30
-1.4E-15
41
1
10
-1.99503997793928
20
-0.945048896197619
30
-1.2E-15
41
1
10
-1.99503997793928
20
-1.04964379294296
30
-9E-16
41
1
10
-1.99503997793928
20
-1.15411258033259
30
-6E-16
41
1
10
-1.99503997793928
20
-1.25844373877692
30
-4E-16
41
1
10
-1.99503997793928
20
-1.36262723194537
30
-1E-16
41
1
10
-1.99503997793928
20
-1.46665210416353
30
2E-16
41
1
10
-1.99503997793928
20
-1.57050948928739
30
4E-16
41
1
10
-1.99503997793928
20
-1.67418896894677
30
7E-16
41
1
10
-1.99503997793928
20
-1.77768276258206
30
1E-15
41
1
10
-1.99503997793928
20
-1.88098142742638
30
1.2E-15
41
1
10
-1.99503997793928
20
-1.98407766278623
30
1.5E-15
41
1
10
-1.99503997793928
20
-2.08696370566372
30
1.7E-15
41
1
10
-1.99503997793928
20
-2.18963189754734
30
-1.5E-15
41
1
10
-1.99503997793928
20
-2.29207637206395
30
-1.3E-15
41
1
10
-1.99503997793928
20
-2.39428973936717
30
-1E-15
41
1
10
-1.99503997793928
20
-2.49626703199877
30
-8E-16
41
1
10
-1.99503997793928
20
-2.59800197223711
30
-5E-16
41
1
10
-1.99503997793928
20
-2.73345090264115
30
-2E-16
41
1
10
-1.99503997793928
20
-2.86801083241153
30
2E-16
41
1
10
-1.99503997793928
20
-3.00241855173451
30
5E-16
41
1
10
-1.99503997793928
20
-3.13647582573111
30
9E-16
41
1
10
-1.99503997793928
20
-3.30310842941952
30
1.3E-15
41
1
10
-1.99503997793928
20
-3.46881383607311
30
1.7E-15
41
1
10
-1.99503997793928
20
-3.60101470543904
30
-1.5E-15
41
1
10
-1.99503997793928
20
-3.69979996514488
30
-1.3E-15
41
1
10
-1.99503997793928
20
-3.79829732832758
30
-1E-15
41
1
10
-1.99503997793928
20
-3.92934662557198
30
-7E-16
41
1
10
-1.99503997793928
20
-4.09219631216942
30
-3E-16
41
1
10
-1.99503997793928
20
-4.28654650347448
30
2E-16
41
1
10
-1.99503997793928
20
-4.47969611179553
30
7E-16
41
1
10
-1.99503997793928
20
-4.67163198724222
30
1.2E-15
41
1
10
-1.99503997793928
20
-4.86234315765486
30
1.7E-15
41
1
10
-1.99503997793928
20
-5.05181944357966
30
-1.4E-15
41
1
10
-1.99503997793928
20
-5.24005183821339
30
-9E-16
41
1
10
-1.99503997793928
20
-5.42703263168383
30
-4E-16
41
1
10
-1.99503997793931
20
-5.61275497462708
30
0
41
1
10
-1.99503997793931
20
-5.79721217482023
30
5E-16
41
1
10
-1.99503997793931
20
-5.98039819956608
30
1E-15
41
1
10
-1.99503997793931
20
-6.16230794338159
30
1.4E-15
41
1
10
-1.99503997793931
20
-6.34293700639151
30
-1.7E-15
41
1
10
-1.99503997793931
20
-6.52228076981254
30
-1.2E-15
41
1
10
-1.99503997793931
20
-6.70033533418751
30
-7E-16
41
1
10
-1.99503997793931
20
-6.877096659263
30
-3E-16
41
1
10
-1.99503997793931
20
-7.11118459991681
30
3E-16
41
1
10
-1.99503997793931
20
-7.40025292645399
30
-7E-16
41
1
10
-1.99503997793931
20
-7.742057818099
30
1E-16
41
1
10
-1.99503997793931
20
-8.02240145976873
30
8E-16
41
1
10
-1.99503997793931
20
-8.24425235284593
30
-4E-16
41
1
10
-1.99503997793931
20
-8.40923674956801
30
0
41
1
10
-1.99503997793931
20
-8.57289871422523
30
5E-16
41
1
10
-1.99503997793931
20
-8.73523610803537
30
9E-16
41
1
10
-1.99503997793931
20
-8.89624560664993
30
-5E-16
41
1
10
-1.99503997793931
20
-9.10925720032839
30
0
41
1
10
-1.99503997793931
20
-9.37195865915047
30
7E-16
41
1
10
-1.99503997793931
20
-9.63019832461657
30
-4E-16
41
1
10
-1.99503997793931
20
-9.8342769427764
30
1E-16
41
1
10
-1.99503997793931
20
-9.98591881051328
30
5E-16
41
1
10
-1.99503997793931
20
-10.136210478965
30
9E-16
41
1
10
-1.99503997793931
20
-10.2851499142426
30
-5E-16
41
1
10
-1.99503997793931
20
-10.432733482583
30
-2E-16
41
1
10
-1.99503997793931
20
-10.6277879483349
30
3E-16
41
1
10
-1.99503997793931
20
-10.8198574709635
30
8E-16
41
1
10
-1.99503997793931
20
-11.0094435667743
30
-5E-16
41
1
10
-1.99503997793931
20
-11.1972001338813
30
0
41
1
10
-1.99503997793931
20
-11.4282697094186
30
6E-16
41
1
10
-1.99503997793931
20
-11.6547268446384
30
-6E-16
41
1
10
-1.99503997793931
20
-11.8332480225582
30
-1E-16
41
1
10
-1.99503997793931
20
-12.0099077334538
30
3E-16
41
1
10
-1.99503997793931
20
-12.1835401209565
30
7E-16
41
1
10
-1.99503997793931
20
-12.3545748313202
30
-6E-16
41
1
10
-1.99503997793931
20
-12.4813812819682
30
-3E-16
41
1
10
-1.99503997793931
20
-12.6067684751262
30
0
41
1
10
-1.99503997793931
20
-12.7721223466594
30
5E-16
41
1
10
-1.99503997793931
20
-12.9344093235711
30
9E-16
41
1
10
-1.99503997793931
20
-13.0940197637218
30
-5E-16
41
1
10
-1.99503997793931
20
-13.2122307543483
30
-2E-16
41
1
10
-1.99503997793931
20
-13.3289901210133
30
1E-16
41
1
10
-1.99503997793931
20
-13.4827901435456
30
5E-16
41
1
10
-1.99503997793931
20
-13.6334713858817
30
9E-16
41
1
10
-1.99503997793931
20
-13.7813876543746
30
-5E-16
41
1
10
-1.99503997793931
20
-13.8907947392413
30
-2E-16
41
1
10
-1.99503997793931
20
-13.99871189727
30
0
41
1
10
-1.99503997793931
20
-14.1406647319193
30
4E-16
41
1
10
-1.99503997793931
20
-14.2794333813788
30
-2E-16
41
1
10
-1.99503997793931
20
-14.4153366880848
30
2E-16
41
1
10
-1.99503997793931
20
-14.5156939237825
30
-4E-16
41
1
10
-1.99503997793931
20
-14.614516060936
30
-2E-16
41
1
10
-1.99503997793931
20
-14.7442755571137
30
1E-16
41
1
10
-1.99503997793931
20
-14.8707702595594
30
-4E-16
41
1
10
-1.99503997793931
20
-14.9942845913974
30
-1E-16
41
1
10
-1.99503997793931
20
-15.070107125687
30
1E-16
41
1
10
-1.99503997793931
20
-15.130016414734
30
2E-16
41
1
10
-1.99503997793931
20
-15.1893946011098
30
4E-16
41
1
10
-1.99503997793931
20
-15.2918890331241
30
-2E-16
41
1
10
-1.99503997793931
20
-15.4056838559475
30
0
41
1
10
-1.99503997793931
20
-15.5163656330196
30
3E-16
41
1
10
-1.99503997793931
20
-15.5977008570348
30
-4E-16
41
1
10
-1.99503997793931
20
-15.677384979663
30
-2E-16
41
1
10
-1.99503997793931
20
-15.781458474053
30
1E-16
41
1
10
-1.99503997793931
20
-15.8820499896636
30
4E-16
41
1
10
-1.99503997793931
20
-15.9793734967038
30
2E-16
41
1
10
-1.99503997793931
20
-16.0506207879892
30
-1E-16
41
1
10
-1.99503997793931
20
-16.1201424632647
30
1E-16
41
1
10
-1.99503997793931
20
-16.1879246525291
30
-2E-16
41
1
10
-1.99503997793931
20
-16.2539521307207
30
0
41
1
10
-1.99503997793931
20
-16.3182114280861
30
1E-16
41
1
10
-1.99503997793931
20
-16.3806869997558
30
-1E-16
41
1
10
-1.99503997793931
20
-16.4616240235723
30
1E-16
41
1
10
-1.99503997793934
20
-16.538824252381
30
-2E-16
41
1
10
-1.99503997793934
20
-16.6124299668847
30
0
41
1
10
-1.99503997793934
20
-16.6835453043615
30
0
41
1
10
-1.99503997793934
20
-16.7507930080793
30
-1E-16
41
1
10
-1.99503997793934
20
-16.8142877377231
30
1E-16
41
1
10
-1.99503997793934
20
-16.8751872797735
30
0
41
1
10
-1.99503997793934
20
-16.9320728583858
30
0
41
1
10
-1.99503997793934
20
-16.9850205784632
30
0
41
1
10
-1.99503997793934
20
-17.0226788299273
30
0
41
1
10
-1.99503997793934
20
-17.0582791544303
30
0
41
1
10
-1.99503997793934
20
-17.1029924178939
30
0
41
1
10
-1.99503997793934
20
-17.1434240170937
30
0
41
1
10
-1.99503997793934
20
-17.1795896288677
30
1E-16
41
1
10
-1.99503997793934
20
-17.2045054160661
30
0
41
1
10
-1.99503997793934
20
-17.2271975480506
30
0
41
1
10
-1.99503997793934
20
-17.2476335178127
30
1E-16
41
1
10
-1.99503997793934
20
-17.2657806121613
30
1E-16
41
1
10
-1.99503997793934
20
-17.2816041393821
30
-1E-16
41
1
10
-1.99503997793934
20
-17.2950677779804
30
0
41
1
10
-1.99503997793934
20
-17.3061342543252
30
0
41
1
10
-1.99503997793934
20
-17.3147637210185
30
0
41
1
10
-1.99503997793934
20
-17.3209154009657
30
0
41
1
10
-1.99503997793934
20
-17.3245457783747
30
0
41
1
10
-1.99503997793934
20
-17.3256103132969
30
0
41
1
10
-1.99503997793937
20
-17.3241162955957
30
0
41
1
10
-1.99503997793934
20
-17.3215466976175
30
0
41
1
10
-1.99503997793934
20
-17.3199731705226
30
0
0
SPLINE
5
19C
100
AcDbEntity
8
SK1
62
256
6
ByLayer
370
18
48
1
60
0
100
AcDbSpline
70
4
71
3
72
13
73
9
40
0
40
0
40
0
40
0
40
0.239456135732881
40
0.368359721896441
40
0.499998983985197
40
0.63163841525605
40
0.760542467762399
40
1
40
1
40
1
40
1
41
1
10
-2.20000000000005
20
-17.520098551796
30
1E-16
41
1
10
-2.19909198642205
20
-17.4940410756899
30
0
41
1
10
-2.1910328410687
20
-17.4566684913668
30
-1E-16
41
1
10
-2.16563592203272
20
-17.410449317548
30
-2E-16
41
1
10
-2.13886378679192
20
-17.3791677636995
30
2E-16
41
1
10
-2.10627712749817
20
-17.3540003935064
30
1E-16
41
1
10
-2.05884064234178
20
-17.3309565910454
30
0
41
1
10
-2.0211103087307
20
-17.3247843360228
30
0
41
1
10
-1.99503997793934
20
-17.3251859759625
30
0
0
SPLINE
5
19D
100
AcDbEntity
8
SK1
62
256
6
ByLayer
370
18
48
1
60
0
100
AcDbSpline
70
4
71
3
72
13
73
9
40
0
40
0
40
0
40
0
40
0.239457532283017
40
0.368361584804943
40
0.500001016081791
40
0.631640278165394
40
0.760543864313798
40
1
40
1
40
1
40
1
41
1
10
-1.99503997793923
20
17.3251861589552
30
0
41
1
10
-2.02111030872962
20
17.324784519015
30
0
41
1
10
-2.05884064233982
20
17.3309567740351
30
0
41
1
10
-2.1062771274967
20
17.3540005764861
30
-1E-16
41
1
10
-2.13886378679052
20
17.3791679466685
30
-2E-16
41
1
10
-2.16563592203164
20
17.4104495005038
30
2E-16
41
1
10
-2.19103284106788
20
17.4566686743028
30
1E-16
41
1
10
-2.19909198642122
20
17.4940412586114
30
0
41
1
10
-2.19999999999993
20
17.5200987347078
30
-1E-16
0
SPLINE
5
19E
100
AcDbEntity
8
SK1
62
256
6
ByLayer
370
18
48
1
60
0
100
AcDbSpline
70
4
71
3
72
20
73
16
40
0
40
0
40
0
40
0
40
0.25
40
0.25
40
0.375
40
0.375
40
0.4375
40
0.4375
40
0.5
40
0.5
40
0.75
40
0.75
40
0.875
40
0.875
40
1
40
1
40
1
40
1
41
1
10
-1.30710678118655
20
3.91806548153787
30
7E-16
41
1
10
-1.41969318564742
20
3.29623458683108
30
-1.3E-15
41
1
10
-1.52084354897511
20
2.66117243128363
30
3E-16
41
1
10
-1.6328468131714
20
1.680123660585
30
-7E-16
41
1
10
-1.66339462407876
20
1.3482892409412
30
1E-16
41
1
10
-1.69495092810294
20
0.84157669307848
30
1.4E-15
41
1
10
-1.70306621291687
20
0.670912483956272
30
-1.7E-15
41
1
10
-1.71379105874197
20
0.332128346739779
30
-8E-16
41
1
10
-1.71645137733404
20
0.163332447807619
30
-4E-16
41
1
10
-1.71619101064627
20
-0.677685636180911
30
1.7E-15
41
1
10
-1.6712581001311
20
-1.3408719165775
30
-1E-16
41
1
10
-1.559438988941
20
-2.32447859217891
30
-1.2E-15
41
1
10
-1.51483394489833
20
-2.65120399662453
30
-4E-16
41
1
10
-1.41687703207163
20
-3.29188260724433
30
1.3E-15
41
1
10
-1.36340682815234
20
-3.60711221095693
30
-1.5E-15
41
1
10
-1.30710678118655
20
-3.91806548057693
30
-7E-16
0
SPLINE
5
19F
100
AcDbEntity
8
SK1
62
256
6
ByLayer
370
18
48
1
60
0
100
AcDbSpline
70
4
71
2
72
6
73
3
40
0
40
0
40
0
40
1
40
1
40
1
41
1
10
-1.99503997793934
20
-17.3199593099743
30
0
41
1
10
-1.19500843340708
20
-17.340052552406
30
1E-16
41
1
10
-0.394976888875334
20
-17.3601457933935
30
1E-16
0
SPLINE
5
1A0
100
AcDbEntity
8
SK1
62
256
6
ByLayer
370
18
48
1
60
0
100
AcDbSpline
70
4
71
2
72
6
73
3
40
0
40
0
40
0
40
1
40
1
40
1
41
1
10
-0.39497688887522
20
17.3601458189993
30
-1E-16
41
1
10
-1.19500843340697
20
17.3400525762132
30
-1E-16
41
1
10
-1.99503997793923
20
17.3199593319919
30
0
0
SPLINE
5
1A1
100
AcDbEntity
8
SK1
62
256
6
ByLayer
370
18
48
1
60
0
100
AcDbSpline
70
4
71
3
72
107
73
103
40
0
40
0
40
0
40
0
40
0.0027086601192677
40
0.0112403334207036
40
0.0197720067221395
40
0.0283036800235754
40
0.0368353533250113
40
0.0453670266264472
40
0.0538986999278831
40
0.0624303732293189
40
0.0709620465307548
40
0.0794937198321907
40
0.0965570664350625
40
0.113620413037934
40
0.130683759640806
40
0.139215432942242
40
0.147747106243678
40
0.156278779545114
40
0.16481045284655
40
0.173342126147985
40
0.181873799449421
40
0.198937146052293
40
0.216000492655165
40
0.224532165956601
40
0.233063839258037
40
0.241595512559473
40
0.250127185860908
40
0.258658859162344
40
0.26719053246378
40
0.284253879066652
40
0.292785552368088
40
0.301317225669524
40
0.318380572272396
40
0.335443918875267
40
0.343975592176703
40
0.352507265478139
40
0.369570612081011
40
0.378102285382447
40
0.386633958683883
40
0.395165631985319
40
0.403697305286754
40
0.420760651889626
40
0.429292325191062
40
0.437823998492498
40
0.446355671793934
40
0.45488734509537
40
0.471950691698241
40
0.480482364999677
40
0.489014038301113
40
0.497545711602549
40
0.506077384903985
40
0.523140731506857
40
0.531672404808293
40
0.540204078109728
40
0.548735751411164
40
0.5572674247126
40
0.574330771315472
40
0.582862444616908
40
0.591394117918344
40
0.595659954569062
40
0.59992579121978
40
0.608457464521216
40
0.625520811124087
40
0.634052484425523
40
0.642584157726959
40
0.651115831028395
40
0.659647504329831
40
0.676710850932703
40
0.685242524234139
40
0.693774197535575
40
0.70230587083701
40
0.710837544138446
40
0.719369217439882
40
0.727900890741318
40
0.736432564042754
40
0.74496423734419
40
0.762027583947062
40
0.770559257248498
40
0.779090930549933
40
0.796154277152805
40
0.804685950454241
40
0.813217623755677
40
0.830280970358549
40
0.838812643659985
40
0.847344316961421
40
0.855875990262856
40
0.864407663564292
40
0.881471010167164
40
0.8900026834686
40
0.898534356770036
40
0.907066030071472
40
0.915597703372907
40
0.924129376674343
40
0.932661049975779
40
0.941192723277215
40
0.949724396578651
40
0.958256069880087
40
0.966787743181523
40
0.975319416482959
40
0.983851089784395
40
0.99238276308583
40
1
40
1
40
1
40
1
41
1
10
-0.394976888875277
20
-5.38678189578283
30
-5E-16
41
1
10
-0.394976888875277
20
-5.40659307656725
30
-5E-16
41
1
10
-0.394976888875277
20
-5.48871660168976
30
-3E-16
41
1
10
-0.394976888875306
20
-5.63252719489222
30
1E-16
41
1
10
-0.394976888875306
20
-5.81741451623534
30
6E-16
41
1
10
-0.394976888875306
20
-6.00101977124666
30
1E-15
41
1
10
-0.394976888875306
20
-6.18333830919042
30
1.5E-15
41
1
10
-0.394976888875306
20
-6.36436622189484
30
-1.6E-15
41
1
10
-0.394976888875306
20
-6.54409937286437
30
-1.1E-15
41
1
10
-0.394976888875306
20
-6.72253430941345
30
-7E-16
41
1
10
-0.394976888875306
20
-6.89966740060393
30
-2E-16
41
1
10
-0.394976888875306
20
-7.13420903787923
30
4E-16
41
1
10
-0.394976888875306
20
-7.42389186204952
30
-7E-16
41
1
10
-0.394976888875306
20
-7.76637138106324
30
2E-16
41
1
10
-0.394976888875306
20
-8.04728288344242
30
-9E-16
41
1
10
-0.394976888875306
20
-8.26952736598557
30
-3E-16
41
1
10
-0.394976888875306
20
-8.43482035476097
30
1E-16
41
1
10
-0.394976888875306
20
-8.59878513137215
30
5E-16
41
1
10
-0.394976888875306
20
-8.76141979186247
30
-8E-16
41
1
10
-0.394976888875306
20
-8.92272121440297
30
-4E-16
41
1
10
-0.394976888875306
20
-9.13609086912217
30
1E-16
41
1
10
-0.394976888875306
20
-9.39928045092245
30
8E-16
41
1
10
-0.394976888875306
20
-9.65799296546982
30
-3E-16
41
1
10
-0.394976888875306
20
-9.86240080704215
30
2E-16
41
1
10
-0.394976888875306
20
-10.0143015815251
30
6E-16
41
1
10
-0.394976888875306
20
-10.1648480067744
30
-8E-16
41
1
10
-0.394976888875306
20
-10.3140380843155
30
-5E-16
41
1
10
-0.394976888875306
20
-10.4618684189216
30
-1E-16
41
1
10
-0.394976888875306
20
-10.6572263081632
30
4E-16
41
1
10
-0.394976888875306
20
-10.8496518506122
30
-9E-16
41
1
10
-0.394976888875306
20
-11.0395280782787
30
-4E-16
41
1
10
-0.394976888875306
20
-11.2275701299333
30
1E-16
41
1
10
-0.394976888875306
20
-11.4590305143918
30
7E-16
41
1
10
-0.394976888875306
20
-11.685867652055
30
-5E-16
41
1
10
-0.394976888875306
20
-11.864654349678
30
-1E-16
41
1
10
-0.394976888875306
20
-12.0415756040848
30
4E-16
41
1
10
-0.394976888875306
20
-12.2155153161813
30
8E-16
41
1
10
-0.394976888875306
20
-12.3868007979199
30
-5E-16
41
1
10
-0.394976888875306
20
-12.5138050519686
30
-2E-16
41
1
10
-0.394976888875306
20
-12.6393872302302
30
1E-16
41
1
10
-0.394976888875306
20
-12.8049814458532
30
5E-16
41
1
10
-0.394976888875306
20
-12.9675509360494
30
-8E-16
41
1
10
-0.394976888875306
20
-13.1273919665529
30
-4E-16
41
1
10
-0.394976888875306
20
-13.245784905121
30
-1E-16
41
1
10
-0.394976888875306
20
-13.3627236547322
30
2E-16
41
1
10
-0.394976888875306
20
-13.5167448476072
30
6E-16
41
1
10
-0.394976888875306
20
-13.6676860552913
30
-8E-16
41
1
10
-0.394976888875306
20
-13.8158144768541
30
-4E-16
41
1
10
-0.394976888875306
20
-13.9253889718329
30
-2E-16
41
1
10
-0.394976888875306
20
-14.0334711580348
30
1E-16
41
1
10
-0.394976888875306
20
-14.1756274475866
30
-4E-16
41
1
10
-0.394976888875306
20
-14.3146351237356
30
-1E-16
41
1
10
-0.394976888875306
20
-14.4507333681675
30
3E-16
41
1
10
-0.394976888875306
20
-14.5512443837086
30
-3E-16
41
1
10
-0.394976888875306
20
-14.6502180419884
30
-1E-16
41
1
10
-0.394976888875306
20
-14.7801642532389
30
2E-16
41
1
10
-0.394976888875306
20
-14.9068780878821
30
-3E-16
41
1
10
-0.394976888875306
20
-15.0305708978544
30
0
41
1
10
-0.394976888875306
20
-15.1065165223896
30
2E-16
41
1
10
-0.394976888875306
20
-15.1665127141503
30
3E-16
41
1
10
-0.394976888875306
20
-15.2259771214207
30
-4E-16
41
1
10
-0.394976888875306
20
-15.3286250474484
30
-2E-16
41
1
10
-0.394976888875306
20
-15.442619610906
30
1E-16
41
1
10
-0.394976888875306
20
-15.5534637367264
30
4E-16
41
1
10
-0.394976888875306
20
-15.6349267624759
30
-3E-16
41
1
10
-0.394976888875306
20
-15.7147364921469
30
-1E-16
41
1
10
-0.394976888875306
20
-15.8189643831875
30
2E-16
41
1
10
-0.394976888875306
20
-15.9197362187748
30
-4E-16
41
1
10
-0.394976888875306
20
-16.0172057969154
30
-2E-16
41
1
10
-0.394976888875306
20
-16.0885678110445
30
0
41
1
10
-0.394976888875306
20
-16.1582019472912
30
2E-16
41
1
10
-0.394976888875306
20
-16.2260943811825
30
-1E-16
41
1
10
-0.394976888875306
20
-16.2922298358683
30
1E-16
41
1
10
-0.394976888875306
20
-16.3565947902754
30
-2E-16
41
1
10
-0.394976888875306
20
-16.4191737297992
30
0
41
1
10
-0.394976888875306
20
-16.5002370830775
30
2E-16
41
1
10
-0.394976888875334
20
-16.5775834628441
30
-1E-16
41
1
10
-0.394976888875334
20
-16.6513062771914
30
1E-16
41
1
10
-0.394976888875334
20
-16.7225357579898
30
1E-16
41
1
10
-0.394976888875334
20
-16.7899145981056
30
0
41
1
10
-0.394976888875334
20
-16.8535135500206
30
-1E-16
41
1
10
-0.394976888875334
20
-16.9145141001581
30
0
41
1
10
-0.394976888875334
20
-16.9715145305624
30
0
41
1
10
-0.394976888875334
20
-17.024552403858
30
0
41
1
10
-0.394976888875334
20
-17.0622798511847
30
0
41
1
10
-0.394976888875334
20
-17.0979462837243
30
0
41
1
10
-0.394976888875334
20
-17.1427382787905
30
0
41
1
10
-0.394976888875334
20
-17.1832568369983
30
0
41
1
10
-0.394976888875334
20
-17.2194882612007
30
0
41
1
10
-0.394976888875334
20
-17.2444531170066
30
1E-16
41
1
10
-0.394976888875334
20
-17.2671905287463
30
1E-16
41
1
10
-0.394976888875334
20
-17.2876678382251
30
-1E-16
41
1
10
-0.394976888875334
20
-17.3058521626298
30
0
41
1
10
-0.394976888875334
20
-17.3217086355549
30
0
41
1
10
-0.394976888875334
20
-17.3352007360526
30
1E-16
41
1
10
-0.394976888875334
20
-17.3462909802274
30
1E-16
41
1
10
-0.394976888875334
20
-17.3549392880652
30
1E-16
41
1
10
-0.394976888875334
20
-17.3611046305144
30
1E-16
41
1
10
-0.394976888875334
20
-17.3647432146661
30
1E-16
41
1
10
-0.394976888875334
20
-17.3658102005923
30
1E-16
41
1
10
-0.394976888875334
20
-17.3643131912409
30
1E-16
41
1
10
-0.394976888875334
20
-17.3617396347926
30
1E-16
41
1
10
-0.394976888875334
20
-17.3601648595246
30
1E-16
0
SPLINE
5
1A2
100
AcDbEntity
8
SK1
62
256
6
ByLayer
370
18
48
1
60
0
100
AcDbSpline
70
4
71
3
72
106
73
102
40
0
40
0
40
0
40
0
40
0.0076169230552339
40
0.01614859918288
40
0.0246802753105261
40
0.0332119514381722
40
0.0417436275658182
40
0.0502753036934643
40
0.0588069798211104
40
0.0673386559487564
40
0.0758703320764025
40
0.0844020082040486
40
0.0929336843316947
40
0.101465360459341
40
0.109997036586987
40
0.118528712714633
40
0.135592064969925
40
0.144123741097571
40
0.152655417225217
40
0.161187093352863
40
0.169718769480509
40
0.186782121735801
40
0.195313797863447
40
0.203845473991094
40
0.220908826246386
40
0.229440502374032
40
0.237972178501678
40
0.25503553075697
40
0.263567206884616
40
0.272098883012262
40
0.280630559139908
40
0.289162235267554
40
0.2976939113952
40
0.306225587522846
40
0.314757263650493
40
0.323288939778139
40
0.340352292033431
40
0.348883968161077
40
0.357415644288723
40
0.365947320416369
40
0.374478996544015
40
0.391542348799307
40
0.400074024926953
40
0.408605701054599
40
0.417137377182245
40
0.425669053309891
40
0.442732405565184
40
0.45126408169283
40
0.459795757820476
40
0.468327433948122
40
0.476859110075768
40
0.49392246233106
40
0.502454138458706
40
0.510985814586352
40
0.519517490713998
40
0.528049166841644
40
0.545112519096936
40
0.553644195224583
40
0.562175871352229
40
0.570707547479875
40
0.579239223607521
40
0.596302575862813
40
0.604834251990459
40
0.613365928118105
40
0.621897604245751
40
0.630429280373397
40
0.647492632628689
40
0.656024308756335
40
0.664555984883981
40
0.681619337139273
40
0.698682689394566
40
0.707214365522212
40
0.715746041649858
40
0.73280939390515
40
0.741341070032796
40
0.749872746160442
40
0.758404422288088
40
0.766936098415734
40
0.77546777454338
40
0.783999450671026
40
0.801062802926318
40
0.818126155181611
40
0.826657831309257
40
0.835189507436903
40
0.843721183564549
40
0.852252859692195
40
0.860784535819841
40
0.869316211947487
40
0.886379564202779
40
0.903442916458071
40
0.920506268713364
40
0.929037944841009
40
0.937569620968656
40
0.946101297096302
40
0.954632973223948
40
0.963164649351594
40
0.97169632547924
40
0.980228001606886
40
0.988759677734532
40
0.997291353862178
40
1
40
1
40
1
40
1
41
1
10
-0.394976888875164
20
17.3601648881569
30
-1E-16
41
1
10
-0.394976888875249
20
17.3617396450641
30
-1E-16
41
1
10
-0.39497688887522
20
17.3643132824158
30
-1E-16
41
1
10
-0.39497688887522
20
17.3658104187982
30
-1E-16
41
1
10
-0.39497688887522
20
17.364743357607
30
-1E-16
41
1
10
-0.39497688887522
20
17.3611046370287
30
-1E-16
41
1
10
-0.39497688887522
20
17.3549392673805
30
-1E-16
41
1
10
-0.39497688887522
20
17.3462909837355
30
-1E-16
41
1
10
-0.39497688887522
20
17.3352007293143
30
-1E-16
41
1
10
-0.39497688887522
20
17.3217086001334
30
0
41
1
10
-0.39497688887522
20
17.3058521283006
30
0
41
1
10
-0.39497688887522
20
17.2876678324761
30
1E-16
41
1
10
-0.39497688887522
20
17.2671905263171
30
-1E-16
41
1
10
-0.39497688887522
20
17.2444530966284
30
-1E-16
41
1
10
-0.39497688887522
20
17.2194882282903
30
0
41
1
10
-0.39497688887522
20
17.1832568130363
30
0
41
1
10
-0.39497688887522
20
17.1427382851614
30
0
41
1
10
-0.39497688887522
20
17.0979462613767
30
0
41
1
10
-0.39497688887522
20
17.0622798138473
30
0
41
1
10
-0.39497688887522
20
17.0245523789023
30
0
41
1
10
-0.39497688887522
20
16.9715145338598
30
0
41
1
10
-0.39497688887522
20
16.9145140859044
30
0
41
1
10
-0.39497688887522
20
16.8535135157982
30
1E-16
41
1
10
-0.39497688887522
20
16.7899145739052
30
0
41
1
10
-0.39497688887522
20
16.7225357594453
30
-1E-16
41
1
10
-0.39497688887522
20
16.6513062647865
30
-1E-16
41
1
10
-0.39497688887522
20
16.5775834289921
30
1E-16
41
1
10
-0.394976888875249
20
16.5002370605308
30
-2E-16
41
1
10
-0.394976888875249
20
16.4191737242596
30
0
41
1
10
-0.394976888875249
20
16.3565947837565
30
2E-16
41
1
10
-0.394976888875249
20
16.2922298184193
30
-1E-16
41
1
10
-0.394976888875249
20
16.2260943534788
30
1E-16
41
1
10
-0.394976888875249
20
16.1582019227301
30
-2E-16
41
1
10
-0.394976888875249
20
16.0885677968918
30
0
41
1
10
-0.394976888875249
20
16.0172057910894
30
2E-16
41
1
10
-0.394976888875249
20
15.9197362080176
30
4E-16
41
1
10
-0.394976888875249
20
15.8189643575456
30
-2E-16
41
1
10
-0.394976888875249
20
15.7147364711228
30
1E-16
41
1
10
-0.394976888875249
20
15.6349267495635
30
3E-16
41
1
10
-0.394976888875249
20
15.553463729323
30
-4E-16
41
1
10
-0.394976888875249
20
15.4426195996912
30
-1E-16
41
1
10
-0.394976888875249
20
15.3286250260664
30
2E-16
41
1
10
-0.394976888875249
20
15.2112966721244
30
-4E-16
41
1
10
-0.394976888875249
20
15.1217290697223
30
-2E-16
41
1
10
-0.394976888875249
20
15.0305709686996
30
0
41
1
10
-0.394976888875249
20
14.906878048735
30
3E-16
41
1
10
-0.394976888875249
20
14.7801642402503
30
-2E-16
41
1
10
-0.394976888875249
20
14.6502180265083
30
1E-16
41
1
10
-0.394976888875249
20
14.5512443698349
30
3E-16
41
1
10
-0.394976888875249
20
14.4507333574048
30
-3E-16
41
1
10
-0.394976888875249
20
14.3146351144528
30
1E-16
41
1
10
-0.394976888875249
20
14.1756274353422
30
4E-16
41
1
10
-0.394976888875249
20
14.0334711437704
30
-1E-16
41
1
10
-0.394976888875249
20
13.9253889575191
30
2E-16
41
1
10
-0.394976888875249
20
13.8158144643309
30
4E-16
41
1
10
-0.394976888875249
20
13.6676860465324
30
8E-16
41
1
10
-0.394976888875249
20
13.5167448397426
30
-6E-16
41
1
10
-0.394976888875249
20
13.362723643094
30
-2E-16
41
1
10
-0.394976888875249
20
13.2457848907918
30
1E-16
41
1
10
-0.394976888875249
20
13.127391952352
30
4E-16
41
1
10
-0.394976888875249
20
12.9675509274721
30
8E-16
41
1
10
-0.394976888875249
20
12.8049814419576
30
-5E-16
41
1
10
-0.394976888875249
20
12.6393872212047
30
-1E-16
41
1
10
-0.394976888875249
20
12.5138050377602
30
2E-16
41
1
10
-0.394976888875249
20
12.3868007822861
30
5E-16
41
1
10
-0.394976888875249
20
12.2155153079022
30
-8E-16
41
1
10
-0.394976888875249
20
12.0415756036957
30
-4E-16
41
1
10
-0.394976888875249
20
11.8646543426879
30
1E-16
41
1
10
-0.394976888875249
20
11.6858676336887
30
5E-16
41
1
10
-0.394976888875249
20
11.4590305058839
30
-7E-16
41
1
10
-0.394976888875249
20
11.2275701322442
30
-1E-16
41
1
10
-0.394976888875249
20
11.0395280715927
30
4E-16
41
1
10
-0.394976888875249
20
10.8496518299165
30
9E-16
41
1
10
-0.394976888875249
20
10.6572262982852
30
-4E-16
41
1
10
-0.394976888875249
20
10.4618684218406
30
1E-16
41
1
10
-0.394976888875249
20
10.3140380853821
30
5E-16
41
1
10
-0.394976888875249
20
10.1648479968029
30
8E-16
41
1
10
-0.394976888875249
20
10.014301562069
30
-6E-16
41
1
10
-0.394976888875249
20
9.86240079247781
30
-2E-16
41
1
10
-0.394976888875249
20
9.65799297250356
30
3E-16
41
1
10
-0.394976888875249
20
9.39928044357356
30
-8E-16
41
1
10
-0.394976888875249
20
9.13609084815209
30
-1E-16
41
1
10
-0.394976888875249
20
8.92272120904673
30
4E-16
41
1
10
-0.394976888875249
20
8.761419799359
30
8E-16
41
1
10
-0.394976888875249
20
8.59878513251647
30
-5E-16
41
1
10
-0.394976888875249
20
8.43482033812751
30
-1E-16
41
1
10
-0.394976888875249
20
8.26952734508271
30
3E-16
41
1
10
-0.394976888875249
20
8.04728288893986
30
9E-16
41
1
10
-0.394976888875249
20
7.766371374751
30
-2E-16
41
1
10
-0.394976888875249
20
7.42389184310321
30
7E-16
41
1
10
-0.394976888875249
20
7.13420904829053
30
-4E-16
41
1
10
-0.394976888875249
20
6.89966739484257
30
2E-16
41
1
10
-0.394976888875249
20
6.72253428981173
30
7E-16
41
1
10
-0.394976888875249
20
6.54409938064711
30
1.1E-15
41
1
10
-0.394976888875249
20
6.36436626337328
30
1.6E-15
41
1
10
-0.394976888875249
20
6.1833382251732
30
-1.5E-15
41
1
10
-0.394976888875249
20
6.00101947738443
30
-1E-15
41
1
10
-0.394976888875249
20
5.81741425905386
30
-6E-16
41
1
10
-0.394976888875249
20
5.63252720020014
30
-1E-16
41
1
10
-0.394976888875277
20
5.4887167562928
30
3E-16
41
1
10
-0.394976888875277
20
5.40659331253008
30
5E-16
41
1
10
-0.394976888875277
20
5.38678223324206
30
5E-16
0
SPLINE
5
1A3
100
AcDbEntity
8
SK1
62
256
6
ByLayer
370
18
48
1
60
0
100
AcDbSpline
70
4
71
3
72
288
73
284
40
0
40
0
40
0
40
0
40
0.0026004035733152
40
0.0061032169974615
40
0.0096060304216078
40
0.013108843845754
40
0.0166116572699003
40
0.0201144706940466
40
0.0236172841181929
40
0.0271200975423392
40
0.0306229109664854
40
0.0341257243906317
40
0.037628537814778
40
0.0411313512389243
40
0.0446341646630706
40
0.0516397915113631
40
0.0551426049355094
40
0.0586454183596556
40
0.0621482317838019
40
0.0656510452079482
40
0.0726566720562407
40
0.076159485480387
40
0.0796622989045333
40
0.0866679257528258
40
0.0901707391769721
40
0.0936735526011184
40
0.100679179449411
40
0.104181992873557
40
0.107684806297703
40
0.11118761972185
40
0.114690433145996
40
0.118193246570142
40
0.121696059994288
40
0.125198873418435
40
0.128701686842581
40
0.135707313690874
40
0.13921012711502
40
0.142712940539166
40
0.146215753963312
40
0.149718567387459
40
0.156724194235751
40
0.160227007659898
40
0.163729821084044
40
0.16723263450819
40
0.170735447932336
40
0.177741074780629
40
0.181243888204775
40
0.184746701628922
40
0.188249515053068
40
0.191752328477214
40
0.198757955325507
40
0.202260768749653
40
0.205763582173799
40
0.209266395597945
40
0.212769209022092
40
0.219774835870384
40
0.223277649294531
40
0.226780462718677
40
0.230283276142823
40
0.233786089566969
40
0.240791716415262
40
0.244294529839408
40
0.247797343263554
40
0.251300156687701
40
0.254802970111847
40
0.26180859696014
40
0.265311410384286
40
0.268814223808432
40
0.275819850656725
40
0.282825477505017
40
0.286328290929164
40
0.28983110435331
40
0.296836731201602
40
0.300339544625749
40
0.303842358049895
40
0.307345171474041
40
0.310847984898187
40
0.314350798322334
40
0.31785361174648
40
0.324859238594773
40
0.331864865443065
40
0.335367678867211
40
0.338870492291358
40
0.342373305715504
40
0.34587611913965
40
0.349378932563796
40
0.352881745987943
40
0.359887372836235
40
0.366892999684528
40
0.37389862653282
40
0.377401439956967
40
0.380904253381113
40
0.384407066805259
40
0.387909880229405
40
0.391412693653552
40
0.394915507077698
40
0.398418320501844
40
0.401921133925991
40
0.405423947350137
40
0.408926760774283
40
0.412429574198429
40
0.415932387622576
40
0.419435201046722
40
0.422938014470868
40
0.426440827895014
40
0.429943641319161
40
0.433446454743307
40
0.43519786145538
40
0.436949268167453
40
0.438700674879527
40
0.4404520815916
40
0.443954895015746
40
0.447457708439892
40
0.449209115151965
40
0.450960521864039
40
0.452711928576112
40
0.454463335288185
40
0.456214742000258
40
0.457966148712331
40
0.461468962136477
40
0.463220368848551
40
0.464971775560624
40
0.466723182272697
40
0.46847458898477
40
0.470225995696843
40
0.471977402408916
40
0.473728809120989
40
0.475480215833062
40
0.477231622545136
40
0.478983029257209
40
0.480734435969282
40
0.482485842681355
40
0.484237249393428
40
0.485988656105501
40
0.487740062817574
40
0.489491469529648
40
0.491242876241721
40
0.492994282953794
40
0.494745689665867
40
0.49649709637794
40
0.498248503090013
40
0.499999909802086
40
0.501751316514159
40
0.503502723226233
40
0.505254129938306
40
0.507005536650379
40
0.508756943362452
40
0.510508350074525
40
0.512259756786598
40
0.514011163498671
40
0.515762570210745
40
0.517513976922818
40
0.519265383634891
40
0.521016790346964
40
0.522768197059037
40
0.52451960377111
40
0.526271010483183
40
0.528022417195257
40
0.52977382390733
40
0.531525230619403
40
0.533276637331476
40
0.535028044043549
40
0.536779450755622
40
0.538530857467695
40
0.540282264179768
40
0.542033670891842
40
0.543785077603915
40
0.545536484315988
40
0.549039297740134
40
0.550790704452207
40
0.552542111164281
40
0.556044924588427
40
0.559547738012573
40
0.561299144724646
40
0.563050551436719
40
0.564801958148792
40
0.566553364860865
40
0.570056178285012
40
0.573558991709158
40
0.577061805133304
40
0.580564618557451
40
0.584067431981597
40
0.587570245405743
40
0.591073058829889
40
0.594575872254036
40
0.598078685678182
40
0.601581499102328
40
0.605084312526475
40
0.608587125950621
40
0.612089939374767
40
0.615592752798913
40
0.61909556622306
40
0.622598379647206
40
0.626101193071352
40
0.633106819919645
40
0.640112446767937
40
0.64711807361623
40
0.650620887040376
40
0.654123700464522
40
0.657626513888669
40
0.661129327312815
40
0.664632140736961
40
0.668134954161107
40
0.6751405810094
40
0.682146207857693
40
0.685649021281839
40
0.689151834705985
40
0.692654648130131
40
0.696157461554278
40
0.699660274978424
40
0.70316308840257
40
0.710168715250863
40
0.713671528675009
40
0.717174342099155
40
0.724179968947448
40
0.731185595795741
40
0.734688409219887
40
0.738191222644033
40
0.745196849492326
40
0.748699662916472
40
0.752202476340618
40
0.755705289764764
40
0.759208103188911
40
0.766213730037203
40
0.76971654346135
40
0.773219356885496
40
0.776722170309642
40
0.780224983733788
40
0.787230610582081
40
0.790733424006227
40
0.794236237430374
40
0.79773905085452
40
0.801241864278666
40
0.808247491126958
40
0.811750304551105
40
0.815253117975251
40
0.818755931399397
40
0.822258744823544
40
0.829264371671836
40
0.832767185095982
40
0.836269998520129
40
0.838021405232202
40
0.839772811944275
40
0.843275625368421
40
0.850281252216714
40
0.85378406564086
40
0.857286879065006
40
0.860789692489153
40
0.864292505913299
40
0.871298132761591
40
0.874800946185738
40
0.878303759609884
40
0.88180657303403
40
0.885309386458177
40
0.888812199882323
40
0.892315013306469
40
0.895817826730616
40
0.899320640154762
40
0.906326267003054
40
0.9098290804272
40
0.913331893851347
40
0.920337520699639
40
0.923840334123786
40
0.927343147547932
40
0.934348774396224
40
0.937851587820371
40
0.941354401244517
40
0.944857214668663
40
0.94836002809281
40
0.955365654941102
40
0.958868468365248
40
0.962371281789394
40
0.965874095213541
40
0.969376908637687
40
0.972879722061834
40
0.97638253548598
40
0.979885348910126
40
0.983388162334272
40
0.986890975758419
40
0.990393789182565
40
0.993896602606711
40
0.997399416030857
40
1
40
1
40
1
40
1
41
1
10
-30
20
15.9924926767269
30
-2E-16
41
1
10
-30
20
15.992993405121
30
-2E-16
41
1
10
-30
20
15.9936426417013
30
-2E-16
41
1
10
-30
20
15.9927436963341
30
-2E-16
41
1
10
-30
20
15.989385092109
30
-2E-16
41
1
10
-30
20
15.9836860314147
30
-2E-16
41
1
10
-30
20
15.975680821023
30
-2E-16
41
1
10
-30
20
15.9654018084482
30
-1E-16
41
1
10
-30
20
15.9528811264941
30
-1E-16
41
1
10
-30
20
15.9381491278439
30
-1E-16
41
1
10
-30
20
15.9212355486336
30
0
41
1
10
-30
20
15.9021692443495
30
0
41
1
10
-30
20
15.8809772874924
30
1E-16
41
1
10
-30
20
15.8576871962801
30
-1E-16
41
1
10
-30
20
15.8237020449635
30
0
41
1
10
-30
20
15.7861515723881
30
0
41
1
10
-30
20
15.7440467976175
30
0
41
1
10
-30
20
15.7106366986068
30
0
41
1
10
-30
20
15.6752710038508
30
0
41
1
10
-30
20
15.6253102414824
30
0
41
1
10
-30
20
15.5722298833997
30
0
41
1
10
-30
20
15.5146768571488
30
0
41
1
10
-30
20
15.4546351558671
30
1E-16
41
1
10
-30
20
15.3917322415495
30
0
41
1
10
-30
20
15.3243986601425
30
-1E-16
41
1
10
-30
20
15.2546726017928
30
-1E-16
41
1
10
-30
20
15.1823145630237
30
1E-16
41
1
10
-30
20
15.1055630554726
30
-2E-16
41
1
10
-30
20
15.0465122402177
30
0
41
1
10
-30
20
14.9857535165871
30
1E-16
41
1
10
-30
20
14.923303436807
30
-2E-16
41
1
10
-30
20
14.8591738020486
30
0
41
1
10
-30
20
14.7933781380805
30
2E-16
41
1
10
-30
20
14.7259318150056
30
-1E-16
41
1
10
-30
20
14.6334478809414
30
1E-16
41
1
10
-30
20
14.5388306139924
30
-1E-16
41
1
10
-30
20
14.4398724968666
30
-3E-16
41
1
10
-30
20
14.3643499358608
30
-1E-16
41
1
10
-30
20
14.2872489988172
30
1E-16
41
1
10
-30
20
14.1819460940195
30
4E-16
41
1
10
-30
20
14.0747689624994
30
-2E-16
41
1
10
-30
20
13.9632604256823
30
1E-16
41
1
10
-30
20
13.8784200007503
30
3E-16
41
1
10
-30
20
13.792064052613
30
-4E-16
41
1
10
-30
20
13.6744630307971
30
-1E-16
41
1
10
-30
20
13.5552283874057
30
2E-16
41
1
10
-30
20
13.4316550911985
30
-4E-16
41
1
10
-30
20
13.3378530670951
30
-1E-16
41
1
10
-30
20
13.2425907988596
30
1E-16
41
1
10
-30
20
13.1131460860382
30
-4E-16
41
1
10
-30
20
12.9822967545725
30
-1E-16
41
1
10
-30
20
12.8470846830041
30
2E-16
41
1
10
-30
20
12.7446351532222
30
-4E-16
41
1
10
-30
20
12.64077461804
30
-1E-16
41
1
10
-30
20
12.4998873116551
30
2E-16
41
1
10
-30
20
12.3578191289813
30
6E-16
41
1
10
-30
20
12.2113468162578
30
-8E-16
41
1
10
-30
20
12.1005306675731
30
-5E-16
41
1
10
-30
20
11.9883478761208
30
-2E-16
41
1
10
-30
20
11.8363772491741
30
1E-16
41
1
10
-30
20
11.6834503922586
30
5E-16
41
1
10
-30
20
11.5260594948949
30
-9E-16
41
1
10
-30
20
11.4071324366751
30
-5E-16
41
1
10
-30
20
11.2868794886982
30
-2E-16
41
1
10
-30
20
11.1241532157819
30
2E-16
41
1
10
-30
20
10.960702998862
30
6E-16
41
1
10
-30
20
10.7927086404327
30
-8E-16
41
1
10
-30
20
10.622984486685
30
-3E-16
41
1
10
-30
20
10.4091173939316
30
2E-16
41
1
10
-30
20
10.1909959678347
30
8E-16
41
1
10
-30
20
10.0126979588288
30
-6E-16
41
1
10
-30
20
9.83272430289395
30
-1E-16
41
1
10
-30
20
9.65245023276208
30
4E-16
41
1
10
-30
20
9.4674487136202
30
8E-16
41
1
10
-30
20
9.32804093460703
30
-6E-16
41
1
10
-30
20
9.18740563851236
30
-2E-16
41
1
10
-30
20
9.04555437859221
30
1E-16
41
1
10
-30
20
8.90249044231993
30
5E-16
41
1
10
-30
20
8.70931958714533
30
-8E-16
41
1
10
-30
20
8.46674616603494
30
-2E-16
41
1
10
-30
20
8.22021686294178
30
4E-16
41
1
10
-30
20
8.01906836645588
30
-8E-16
41
1
10
-30
20
7.86773085832681
30
-4E-16
41
1
10
-30
20
7.71524241280153
30
-1E-16
41
1
10
-30
20
7.56161298420656
30
3E-16
41
1
10
-30
20
7.4068526045281
30
7E-16
41
1
10
-30
20
7.19804202206535
30
-5E-16
41
1
10
-30
20
6.93651252502846
30
1E-16
41
1
10
-30
20
6.61705894701083
30
-8E-16
41
1
10
-30
20
6.34834996432826
30
-1E-16
41
1
10
-30
20
6.12929373929526
30
4E-16
41
1
10
-30
20
5.96484945115378
30
8E-16
41
1
10
-30
20
5.79939743818991
30
-5E-16
41
1
10
-30
20
5.63295542814635
30
-1E-16
41
1
10
-30
20
5.46554083189761
30
3E-16
41
1
10
-30
20
5.29717335727511
30
8E-16
41
1
10
-30
20
5.12787591307338
30
-6E-16
41
1
10
-30
20
4.95767063849871
30
-2E-16
41
1
10
-30
20
4.78658071628473
30
3E-16
41
1
10
-30
20
4.61463355062494
30
7E-16
41
1
10
-30
20
4.4418611300608
30
-6E-16
41
1
10
-30
20
4.2682932197396
30
-2E-16
41
1
10
-30
20
4.09396155182333
30
3E-16
41
1
10
-30
20
3.9189059217388
30
7E-16
41
1
10
-30
20
3.74316620306948
30
1.2E-15
41
1
10
-30
20
3.56678705857661
30
1.6E-15
41
1
10
-30
20
3.42015123791847
30
-1.6E-15
41
1
10
-30
20
3.30098109847961
30
-1.3E-15
41
1
10
-30
20
3.21216327477845
30
-1.1E-15
41
1
10
-30
20
3.12322377081904
30
-8E-16
41
1
10
-30
20
3.00356413190363
30
-5E-16
41
1
10
-30
20
2.85589664233012
30
-1E-16
41
1
10
-30
20
2.70788037697071
30
2E-16
41
1
10
-30
20
2.58749550859645
30
5E-16
41
1
10
-30
20
2.4979382297438
30
8E-16
41
1
10
-30
20
2.40833000131917
30
1E-15
41
1
10
-30
20
2.31867596083538
30
1.2E-15
41
1
10
-30
20
2.22899146909515
30
1.4E-15
41
1
10
-30
20
2.10827328924768
30
1.8E-15
41
1
10
-30
20
1.99097459417135
30
-1.5E-15
41
1
10
-30
20
1.87012467714999
30
-1.2E-15
41
1
10
-30
20
1.78043031683049
30
-1E-15
41
1
10
-30
20
1.69076251244067
30
-7E-16
41
1
10
-30
20
1.60113247848616
30
-5E-16
41
1
10
-30
20
1.51155313609795
30
-3E-16
41
1
10
-30
20
1.42202575772714
30
-1E-16
41
1
10
-30
20
1.33256776537971
30
2E-16
41
1
10
-30
20
1.24317741509088
30
4E-16
41
1
10
-30
20
1.15386860885204
30
6E-16
41
1
10
-30
20
1.06464013673661
30
8E-16
41
1
10
-30
20
0.975500136218386
30
1.1E-15
41
1
10
-30
20
0.88644798892696
30
1.3E-15
41
1
10
-30
20
0.79748577668127
30
1.5E-15
41
1
10
-30
20
0.708610852102765
30
1.8E-15
41
1
10
-30
20
0.619820737442893
30
-1.6E-15
41
1
10
-30
20
0.531109764951367
30
-1.3E-15
41
1
10
-30
20
0.442471434007785
30
-1.1E-15
41
1
10
-30
20
0.353896007963613
30
-9E-16
41
1
10
-30
20
0.265373879214366
30
-7E-16
41
1
10
-30
20
0.176892371692276
30
-4E-16
41
1
10
-30
20
0.0884392148655309
30
-2E-16
41
1
10
-30
20
2.04975095E-08
30
0
41
1
10
-30
20
-0.0884392031951506
30
2E-16
41
1
10
-30
20
-0.176892414719788
30
4E-16
41
1
10
-30
20
-0.265373915569995
30
7E-16
41
1
10
-30
20
-0.353895962579372
30
9E-16
41
1
10
-30
20
-0.442471374506709
30
1.1E-15
41
1
10
-30
20
-0.531109813902503
30
1.3E-15
41
1
10
-30
20
-0.619820822982007
30
1.6E-15
41
1
10
-30
20
-0.708610806549956
30
-1.8E-15
41
1
10
-30
20
-0.797485667180041
30
-1.5E-15
41
1
10
-30
20
-0.886448026006718
30
-1.3E-15
41
1
10
-30
20
-0.975500272783648
30
-1.1E-15
41
1
10
-30
20
-1.06464012636238
30
-8E-16
41
1
10
-30
20
-1.15386845800856
30
-6E-16
41
1
10
-30
20
-1.24317738635395
30
-4E-16
41
1
10
-30
20
-1.33256791795012
30
-2E-16
41
1
10
-30
20
-1.42202585063231
30
1E-16
41
1
10
-30
20
-1.51155302070458
30
3E-16
41
1
10
-30
20
-1.60113232466102
30
5E-16
41
1
10
-30
20
-1.69076256252143
30
7E-16
41
1
10
-30
20
-1.78043050963578
30
1E-15
41
1
10
-30
20
-1.87012473193445
30
1.2E-15
41
1
10
-30
20
-1.9598406232061
30
1.4E-15
41
1
10
-30
20
-2.04956121840723
30
1.7E-15
41
1
10
-30
20
-2.13928298465058
30
-1.7E-15
41
1
10
-30
20
-2.22899154181974
30
-1.4E-15
41
1
10
-30
20
-2.349712376398
30
-1.1E-15
41
1
10
-30
20
-2.46705810448148
30
-8E-16
41
1
10
-30
20
-2.58749567267529
30
-5E-16
41
1
10
-30
20
-2.70788056755151
30
-2E-16
41
1
10
-30
20
-2.85589666602087
30
1E-16
41
1
10
-30
20
-3.00356394920888
30
5E-16
41
1
10
-30
20
-3.12322374659223
30
8E-16
41
1
10
-30
20
-3.2121634165083
30
1.1E-15
41
1
10
-30
20
-3.30098129392059
30
1.3E-15
41
1
10
-30
20
-3.42015124315606
30
1.6E-15
41
1
10
-30
20
-3.56678672363665
30
-1.6E-15
41
1
10
-30
20
-3.74316585626087
30
-1.2E-15
41
1
10
-30
20
-3.91890584757363
30
-7E-16
41
1
10
-30
20
-4.09396100129433
30
-3E-16
41
1
10
-30
20
-4.2682925954154
30
2E-16
41
1
10
-30
20
-4.44186183082056
30
6E-16
41
1
10
-30
20
-4.61463414914371
30
-7E-16
41
1
10
-30
20
-4.78658021025478
30
-3E-16
41
1
10
-30
20
-4.95767123056271
30
2E-16
41
1
10
-30
20
-5.12787786255649
30
6E-16
41
1
10
-30
20
-5.29717415068029
30
-8E-16
41
1
10
-30
20
-5.46553992297865
30
-3E-16
41
1
10
-30
20
-5.63295448869479
30
1E-16
41
1
10
-30
20
-5.79939725011712
30
5E-16
41
1
10
-30
20
-5.9648495055655
30
-8E-16
41
1
10
-30
20
-6.12929365354819
30
-4E-16
41
1
10
-30
20
-6.3483499347584
30
1E-16
41
1
10
-30
20
-6.61705901965058
30
8E-16
41
1
10
-30
20
-6.93651248001367
30
-1E-16
41
1
10
-30
20
-7.19804203228597
30
5E-16
41
1
10
-30
20
-7.40685270744584
30
-7E-16
41
1
10
-30
20
-7.56161297986844
30
-3E-16
41
1
10
-30
20
-7.7152423237122
30
1E-16
41
1
10
-30
20
-7.86773082006801
30
4E-16
41
1
10
-30
20
-8.0190684348058
30
8E-16
41
1
10
-30
20
-8.22021692135604
30
-4E-16
41
1
10
-30
20
-8.46674612315095
30
2E-16
41
1
10
-30
20
-8.70931957903699
30
8E-16
41
1
10
-30
20
-8.90249052457426
30
-5E-16
41
1
10
-30
20
-9.04555441784271
30
-1E-16
41
1
10
-30
20
-9.18740560593932
30
2E-16
41
1
10
-30
20
-9.32804088163141
30
6E-16
41
1
10
-30
20
-9.46744870809553
30
-8E-16
41
1
10
-30
20
-9.65245029192144
30
-4E-16
41
1
10
-30
20
-9.8327243361602
30
1E-16
41
1
10
-30
20
-10.0126979221091
30
6E-16
41
1
10
-30
20
-10.1909959517428
30
-8E-16
41
1
10
-30
20
-10.4091174330403
30
-2E-16
41
1
10
-30
20
-10.622984509075
30
3E-16
41
1
10
-30
20
-10.7927086151921
30
8E-16
41
1
10
-30
20
-10.9607029915803
30
-6E-16
41
1
10
-30
20
-11.1241532476501
30
-2E-16
41
1
10
-30
20
-11.2868795207719
30
2E-16
41
1
10
-30
20
-11.4071324437641
30
5E-16
41
1
10
-30
20
-11.5260594837359
30
9E-16
41
1
10
-30
20
-11.683450389854
30
-5E-16
41
1
10
-30
20
-11.8363772717574
30
-1E-16
41
1
10
-30
20
-11.9883479026382
30
2E-16
41
1
10
-30
20
-12.1005306810969
30
5E-16
41
1
10
-30
20
-12.2113468177928
30
8E-16
41
1
10
-30
20
-12.3578191303264
30
-6E-16
41
1
10
-30
20
-12.4998873251012
30
-2E-16
41
1
10
-30
20
-12.6407746395639
30
1E-16
41
1
10
-30
20
-12.7446351726737
30
4E-16
41
1
10
-30
20
-12.8470846962098
30
-2E-16
41
1
10
-30
20
-12.9822967603459
30
1E-16
41
1
10
-30
20
-13.113146091865
30
4E-16
41
1
10
-30
20
-13.2425908150842
30
-1E-16
41
1
10
-30
20
-13.3378530905646
30
1E-16
41
1
10
-30
20
-13.4316551022428
30
4E-16
41
1
10
-30
20
-13.555228443938
30
-2E-16
41
1
10
-30
20
-13.674462963236
30
1E-16
41
1
10
-30
20
-13.7920640428986
30
4E-16
41
1
10
-30
20
-13.8638084100539
30
-3E-16
41
1
10
-30
20
-13.9208384799594
30
-2E-16
41
1
10
-30
20
-13.9773600368972
30
0
41
1
10
-30
20
-14.0747689786765
30
2E-16
41
1
10
-30
20
-14.1819460903517
30
-4E-16
41
1
10
-30
20
-14.287249006353
30
-1E-16
41
1
10
-30
20
-14.3643499644421
30
1E-16
41
1
10
-30
20
-14.4398725346096
30
3E-16
41
1
10
-30
20
-14.5388306330264
30
1E-16
41
1
10
-30
20
-14.6334478734243
30
-1E-16
41
1
10
-30
20
-14.7259318226355
30
1E-16
41
1
10
-30
20
-14.7933781715369
30
-2E-16
41
1
10
-30
20
-14.8591738437124
30
0
41
1
10
-30
20
-14.9233034607295
30
2E-16
41
1
10
-30
20
-14.9857535133677
30
-1E-16
41
1
10
-30
20
-15.0465122321639
30
0
41
1
10
-30
20
-15.1055630695374
30
2E-16
41
1
10
-30
20
-15.1823146060512
30
-1E-16
41
1
10
-30
20
-15.2546726312331
30
1E-16
41
1
10
-30
20
-15.3243986497296
30
1E-16
41
1
10
-30
20
-15.3917322452795
30
0
41
1
10
-30
20
-15.4546352005828
30
-1E-16
41
1
10
-30
20
-15.514676887791
30
0
41
1
10
-30
20
-15.5722298782126
30
0
41
1
10
-30
20
-15.6253102421942
30
0
41
1
10
-30
20
-15.6752710489661
30
0
41
1
10
-30
20
-15.7106367362117
30
0
41
1
10
-30
20
-15.7440468008704
30
0
41
1
10
-30
20
-15.7861515665345
30
0
41
1
10
-30
20
-15.8237020814765
30
0
41
1
10
-30
20
-15.8576872273508
30
1E-16
41
1
10
-30
20
-15.8809772969168
30
-1E-16
41
1
10
-30
20
-15.9021692417172
30
0
41
1
10
-30
20
-15.9212355637559
30
0
41
1
10
-30
20
-15.9381491696965
30
1E-16
41
1
10
-30
20
-15.9528811556007
30
1E-16
41
1
10
-30
20
-15.9654018081647
30
1E-16
41
1
10
-30
20
-15.97568082013
30
2E-16
41
1
10
-30
20
-15.9836860510364
30
2E-16
41
1
10
-30
20
-15.9893850715049
30
2E-16
41
1
10
-30
20
-15.992743547039
30
2E-16
41
1
10
-30
20
-15.9936424501632
30
2E-16
41
1
10
-30
20
-15.9929932200107
30
2E-16
41
1
10
-30
20
-15.9924924638267
30
2E-16
0
SPLINE
5
1A4
100
AcDbEntity
8
SK1
62
256
6
ByLayer
370
18
48
1
60
0
100
AcDbSpline
70
4
71
2
72
6
73
3
40
0
40
0
40
0
40
1
40
1
40
1
41
1
10
-30
20
-15.9924794145162
30
2E-16
41
1
10
-29.2499999991495
20
-16.4254650261933
30
0
41
1
10
-28.5000000000001
20
-16.8584504491481
30
2E-16
0
SPLINE
5
1A5
100
AcDbEntity
8
SK1
62
256
6
ByLayer
370
18
48
1
60
0
100
AcDbSpline
70
4
71
2
72
6
73
3
40
0
40
0
40
0
40
1
40
1
40
1
41
1
10
-28.4999999999999
20
16.8584505716143
30
-2E-16
41
1
10
-29.2499999991495
20
16.4254651505507
30
0
41
1
10
-30
20
15.9924795407902
30
-2E-16
0
SPLINE
5
1A6
100
AcDbEntity
8
SK1
62
256
6
ByLayer
370
18
48
1
60
0
100
AcDbSpline
70
4
71
2
72
6
73
3
40
0
40
0
40
0
40
1
40
1
40
1
41
1
10
-0.394976888875334
20
-17.359696795897
30
1E-16
41
1
10
-0.305277226309812
20
-17.3671842624703
30
1E-16
41
1
10
-0.258658740615744
20
-17.4310145299901
30
-1E-16
0
SPLINE
5
1A7
100
AcDbEntity
8
SK1
62
256
6
ByLayer
370
18
48
1
60
0
100
AcDbSpline
70
4
71
2
72
6
73
3
40
0
40
0
40
0
40
1
40
1
40
1
41
1
10
-0.258442643302374
20
17.4312381196178
30
1E-16
41
1
10
-0.305123774552556
20
17.3672404580573
30
-1E-16
41
1
10
-0.39497688887522
20
17.3596982935394
30
-1E-16
0
LINE
5
77
100
AcDbEntity
8
1
62
256
6
ByLayer
370
18
48
1
60
0
100
AcDbLine
10
41.633801
20
-32.582231
30
0
11
42.020481
21
-33.251981
31
0
39
0
210
0
220
0
230
1
0
LINE
5
78
100
AcDbEntity
8
1
62
256
6
ByLayer
370
18
48
1
60
0
100
AcDbLine
10
40.979519
20
-33.251981
30
0
11
41.366199
21
-32.582231
31
0
39
0
210
0
220
0
230
1
0
LINE
5
79
100
AcDbEntity
8
1
62
256
6
ByLayer
370
18
48
1
60
0
100
AcDbLine
10
42.353079
20
-33.324981
30
0
11
42.146921
21
-33.324981
31
0
39
0
210
0
220
0
230
1
0
LINE
5
7A
100
AcDbEntity
8
1
62
256
6
ByLayer
370
18
48
1
60
0
100
AcDbLine
10
48.689167
20
-6
30
0
11
24.505874
21
-6
31
0
39
0
210
0
220
0
230
1
0
LINE
5
7B
100
AcDbEntity
8
1
62
256
6
ByLayer
370
18
48
1
60
0
100
AcDbLine
10
20.848397
20
25
30
0
11
30.75
21
25
31
0
39
0
210
0
220
0
230
1
0
LINE
5
7C
100
AcDbEntity
8
1
62
256
6
ByLayer
370
18
48
1
60
0
100
AcDbLine
10
48.75
20
7
30
0
11
48.75
21
8
31
0
39
0
210
0
220
0
230
1
0
LINE
5
7D
100
AcDbEntity
8
1
62
256
6
ByLayer
370
18
48
1
60
0
100
AcDbLine
10
23.367495
20
-0.460689
30
0
11
23.367495
21
-32.3
31
0
39
0
210
0
220
0
230
1
0
LINE
5
7E
100
AcDbEntity
8
1
62
256
6
ByLayer
370
18
48
1
60
0
100
AcDbLine
10
48.689167
20
-32.3
30
0
11
48.689167
21
-6
31
0
39
0
210
0
220
0
230
1
0
LINE
5
7F
100
AcDbEntity
8
1
62
256
6
ByLayer
370
18
48
1
60
0
100
AcDbLine
10
48.689167
20
-32.3
30
0
11
32.945893
21
-32.3
31
0
39
0
210
0
220
0
230
1
0
LINE
5
80
100
AcDbEntity
8
1
62
256
6
ByLayer
370
18
48
1
60
0
100
AcDbLine
10
53.742347
20
-4.033963
30
0
11
53.742347
21
-32.3
31
0
39
0
210
0
220
0
230
1
0
LINE
5
81
100
AcDbEntity
8
1
62
256
6
ByLayer
370
18
48
1
60
0
100
AcDbLine
10
53.742347
20
-32.3
30
0
11
48.689167
21
-32.3
31
0
39
0
210
0
220
0
230
1
0
LINE
5
82
100
AcDbEntity
8
1
62
256
6
ByLayer
370
18
48
1
60
0
100
AcDbLine
10
52.980254
20
-33.250708
30
0
11
52.945235
21
-33.292221
31
0
39
0
210
0
220
0
230
1
0
LINE
5
83
100
AcDbEntity
8
1
62
256
6
ByLayer
370
18
48
1
60
0
100
AcDbLine
10
52.853079
20
-33.324981
30
0
11
52.646921
21
-33.324981
31
0
39
0
210
0
220
0
230
1
0
LINE
5
84
100
AcDbEntity
8
1
62
256
6
ByLayer
370
18
48
1
60
0
100
AcDbLine
10
51.353079
20
-33.324981
30
0
11
51.146921
21
-33.324981
31
0
39
0
210
0
220
0
230
1
0
LINE
5
85
100
AcDbEntity
8
1
62
256
6
ByLayer
370
18
48
1
60
0
100
AcDbLine
10
49.853079
20
-33.324981
30
0
11
49.646921
21
-33.324981
31
0
39
0
210
0
220
0
230
1
0
LINE
5
86
100
AcDbEntity
8
1
62
256
6
ByLayer
370
18
48
1
60
0
100
AcDbLine
10
48.552168
20
-32.5
30
0
11
48.552168
21
-33.126149
31
0
39
0
210
0
220
0
230
1
0
LINE
5
87
100
AcDbEntity
8
1
62
256
6
ByLayer
370
18
48
1
60
0
100
AcDbLine
10
53.61352
20
-32.5
30
0
11
48.552168
21
-32.5
31
0
39
0
210
0
220
0
230
1
0
LINE
5
88
100
AcDbEntity
8
1
62
256
6
ByLayer
370
18
48
1
60
0
100
AcDbLine
10
53.61352
20
-32.5
30
0
11
53.586804
21
-32.531671
31
0
39
0
210
0
220
0
230
1
0
LINE
5
89
100
AcDbEntity
8
1
62
256
6
ByLayer
370
18
48
1
60
0
100
AcDbLine
10
32.38648
20
-32.3
30
0
11
32.38648
21
-32.5
31
0
39
0
210
0
220
0
230
1
0
LINE
5
8A
100
AcDbEntity
8
1
62
256
6
ByLayer
370
18
48
1
60
0
100
AcDbLine
10
37.447832
20
-32.3
30
0
11
37.447832
21
-32.5
31
0
39
0
210
0
220
0
230
1
0
LINE
5
8B
100
AcDbEntity
8
1
62
256
6
ByLayer
370
18
48
1
60
0
100
AcDbLine
10
37.447832
20
-32.5
30
0
11
32.38648
21
-32.5
31
0
39
0
210
0
220
0
230
1
0
LINE
5
8C
100
AcDbEntity
8
1
62
256
6
ByLayer
370
18
48
1
60
0
100
AcDbLine
10
43.133801
20
-32.582231
30
0
11
43.520481
21
-33.251981
31
0
39
0
210
0
220
0
230
1
0
LINE
5
8D
100
AcDbEntity
8
1
62
256
6
ByLayer
370
18
48
1
60
0
100
AcDbLine
10
42.479519
20
-33.251981
30
0
11
42.866199
21
-32.582231
31
0
39
0
210
0
220
0
230
1
0
LINE
5
8E
100
AcDbEntity
8
1
62
256
6
ByLayer
370
18
48
1
60
0
100
AcDbLine
10
40.853079
20
-33.324981
30
0
11
40.646921
21
-33.324981
31
0
39
0
210
0
220
0
230
1
0
LINE
5
8F
100
AcDbEntity
8
1
62
256
6
ByLayer
370
18
48
1
60
0
100
AcDbLine
10
40.133801
20
-32.582231
30
0
11
40.520481
21
-33.251981
31
0
39
0
210
0
220
0
230
1
0
LINE
5
90
100
AcDbEntity
8
1
62
256
6
ByLayer
370
18
48
1
60
0
100
AcDbLine
10
39.479519
20
-33.251981
30
0
11
39.866199
21
-32.582231
31
0
39
0
210
0
220
0
230
1
0
LINE
5
91
100
AcDbEntity
8
1
62
256
6
ByLayer
370
18
48
1
60
0
100
AcDbLine
10
39.353079
20
-33.324981
30
0
11
39.146921
21
-33.324981
31
0
39
0
210
0
220
0
230
1
0
LINE
5
92
100
AcDbEntity
8
1
62
256
6
ByLayer
370
18
48
1
60
0
100
AcDbLine
10
38.633801
20
-32.582231
30
0
11
39.020481
21
-33.251981
31
0
39
0
210
0
220
0
230
1
0
LINE
5
93
100
AcDbEntity
8
1
62
256
6
ByLayer
370
18
48
1
60
0
100
AcDbLine
10
37.979519
20
-33.251981
30
0
11
38.366199
21
-32.582231
31
0
39
0
210
0
220
0
230
1
0
LINE
5
94
100
AcDbEntity
8
1
62
256
6
ByLayer
370
18
48
1
60
0
100
AcDbLine
10
37.853079
20
-33.324981
30
0
11
37.646921
21
-33.324981
31
0
39
0
210
0
220
0
230
1
0
LINE
5
95
100
AcDbEntity
8
1
62
256
6
ByLayer
370
18
48
1
60
0
100
AcDbLine
10
37.447832
20
-33.126149
30
0
11
37.520481
21
-33.251981
31
0
39
0
210
0
220
0
230
1
0
LINE
5
96
100
AcDbEntity
8
1
62
256
6
ByLayer
370
18
48
1
60
0
100
AcDbLine
10
37.447832
20
-32.5
30
0
11
37.447832
21
-33.126149
31
0
39
0
210
0
220
0
230
1
0
LINE
5
97
100
AcDbEntity
8
1
62
256
6
ByLayer
370
18
48
1
60
0
100
AcDbLine
10
48.552168
20
-32.5
30
0
11
37.447832
21
-32.5
31
0
39
0
210
0
220
0
230
1
0
LINE
5
98
100
AcDbEntity
8
1
62
256
6
ByLayer
370
18
48
1
60
0
100
AcDbLine
10
48.479519
20
-33.251981
30
0
11
48.552168
21
-33.126149
31
0
39
0
210
0
220
0
230
1
0
LINE
5
99
100
AcDbEntity
8
1
62
256
6
ByLayer
370
18
48
1
60
0
100
AcDbLine
10
48.353079
20
-33.324981
30
0
11
48.146921
21
-33.324981
31
0
39
0
210
0
220
0
230
1
0
LINE
5
9A
100
AcDbEntity
8
1
62
256
6
ByLayer
370
18
48
1
60
0
100
AcDbLine
10
47.633801
20
-32.582231
30
0
11
48.020481
21
-33.251981
31
0
39
0
210
0
220
0
230
1
0
LINE
5
9B
100
AcDbEntity
8
1
62
256
6
ByLayer
370
18
48
1
60
0
100
AcDbLine
10
46.979519
20
-33.251981
30
0
11
47.366199
21
-32.582231
31
0
39
0
210
0
220
0
230
1
0
LINE
5
9C
100
AcDbEntity
8
1
62
256
6
ByLayer
370
18
48
1
60
0
100
AcDbLine
10
46.853079
20
-33.324981
30
0
11
46.646921
21
-33.324981
31
0
39
0
210
0
220
0
230
1
0
LINE
5
9D
100
AcDbEntity
8
1
62
256
6
ByLayer
370
18
48
1
60
0
100
AcDbLine
10
46.133801
20
-32.582231
30
0
11
46.520481
21
-33.251981
31
0
39
0
210
0
220
0
230
1
0
LINE
5
9E
100
AcDbEntity
8
1
62
256
6
ByLayer
370
18
48
1
60
0
100
AcDbLine
10
45.479519
20
-33.251981
30
0
11
45.866199
21
-32.582231
31
0
39
0
210
0
220
0
230
1
0
LINE
5
9F
100
AcDbEntity
8
1
62
256
6
ByLayer
370
18
48
1
60
0
100
AcDbLine
10
45.353079
20
-33.324981
30
0
11
45.146921
21
-33.324981
31
0
39
0
210
0
220
0
230
1
0
LINE
5
A0
100
AcDbEntity
8
1
62
256
6
ByLayer
370
18
48
1
60
0
100
AcDbLine
10
44.633801
20
-32.582231
30
0
11
45.020481
21
-33.251981
31
0
39
0
210
0
220
0
230
1
0
LINE
5
A1
100
AcDbEntity
8
1
62
256
6
ByLayer
370
18
48
1
60
0
100
AcDbLine
10
43.979519
20
-33.251981
30
0
11
44.366199
21
-32.582231
31
0
39
0
210
0
220
0
230
1
0
LINE
5
A2
100
AcDbEntity
8
1
62
256
6
ByLayer
370
18
48
1
60
0
100
AcDbLine
10
43.853079
20
-33.324981
30
0
11
43.646921
21
-33.324981
31
0
39
0
210
0
220
0
230
1
0
LINE
5
A3
100
AcDbEntity
8
1
62
256
6
ByLayer
370
18
48
1
60
0
100
AcDbLine
10
48.552168
20
-32.3
30
0
11
48.552168
21
-32.5
31
0
39
0
210
0
220
0
230
1
0
LINE
5
A4
100
AcDbEntity
8
1
62
256
6
ByLayer
370
18
48
1
60
0
100
AcDbLine
10
53.61352
20
-32.3
30
0
11
53.61352
21
-32.5
31
0
39
0
210
0
220
0
230
1
0
LINE
5
A5
100
AcDbEntity
8
1
62
256
6
ByLayer
370
18
48
1
60
0
100
AcDbLine
10
32.38648
20
-32.5
30
0
11
32.413196
21
-32.531671
31
0
39
0
210
0
220
0
230
1
0
LINE
5
A6
100
AcDbEntity
8
1
62
256
6
ByLayer
370
18
48
1
60
0
100
AcDbLine
10
36.353079
20
-33.324981
30
0
11
36.146921
21
-33.324981
31
0
39
0
210
0
220
0
230
1
0
LINE
5
A7
100
AcDbEntity
8
1
62
256
6
ByLayer
370
18
48
1
60
0
100
AcDbLine
10
34.853079
20
-33.324981
30
0
11
34.646921
21
-33.324981
31
0
39
0
210
0
220
0
230
1
0
LINE
5
A8
100
AcDbEntity
8
1
62
256
6
ByLayer
370
18
48
1
60
0
100
AcDbLine
10
33.353079
20
-33.324981
30
0
11
33.146921
21
-33.324981
31
0
39
0
210
0
220
0
230
1
0
LINE
5
A9
100
AcDbEntity
8
1
62
256
6
ByLayer
370
18
48
1
60
0
100
AcDbLine
10
33.019746
20
-33.250708
30
0
11
33.054765
21
-33.292221
31
0
39
0
210
0
220
0
230
1
0
LINE
5
AA
100
AcDbEntity
8
1
62
256
6
ByLayer
370
18
48
1
60
0
100
AcDbLine
10
21.159111
20
-25.889417
30
0
11
22.876821
21
-32.3
31
0
39
0
210
0
220
0
230
1
0
LINE
5
AB
100
AcDbEntity
8
1
62
256
6
ByLayer
370
18
48
1
60
0
100
AcDbLine
10
21.159111
20
-25.889417
30
0
11
21.159111
21
23.65584
31
0
39
0
210
0
220
0
230
1
0
LINE
5
AC
100
AcDbEntity
8
1
62
256
6
ByLayer
370
18
48
1
60
0
100
AcDbLine
10
63.25
20
-32.3
30
0
11
63.25
21
-20.368116
31
0
39
0
210
0
220
0
230
1
0
LINE
5
AD
100
AcDbEntity
8
1
62
256
6
ByLayer
370
18
48
1
60
0
100
AcDbLine
10
63.25
20
-32.3
30
0
11
53.742347
21
-32.3
31
0
39
0
210
0
220
0
230
1
0
LINE
5
AE
100
AcDbEntity
8
1
62
256
6
ByLayer
370
18
48
1
60
0
100
AcDbLine
10
23
20
-32.5
30
0
11
32.38648
21
-32.5
31
0
39
0
210
0
220
0
230
1
0
LINE
5
AF
100
AcDbEntity
8
1
62
256
6
ByLayer
370
18
48
1
60
0
100
AcDbLine
10
23
20
-32.3
30
0
11
23
21
-32.5
31
0
39
0
210
0
220
0
230
1
0
LINE
5
B0
100
AcDbEntity
8
1
62
256
6
ByLayer
370
18
48
1
60
0
100
AcDbLine
10
62.737837
20
-32.762163
30
0
11
63
21
-32.5
31
0
39
0
210
0
220
0
230
1
0
LINE
5
B1
100
AcDbEntity
8
1
62
256
6
ByLayer
370
18
48
1
60
0
100
AcDbLine
10
61.853079
20
-33.324981
30
0
11
61.646921
21
-33.324981
31
0
39
0
210
0
220
0
230
1
0
LINE
5
B2
100
AcDbEntity
8
1
62
256
6
ByLayer
370
18
48
1
60
0
100
AcDbLine
10
60.353079
20
-33.324981
30
0
11
60.146921
21
-33.324981
31
0
39
0
210
0
220
0
230
1
0
LINE
5
B3
100
AcDbEntity
8
1
62
256
6
ByLayer
370
18
48
1
60
0
100
AcDbLine
10
58.853079
20
-33.324981
30
0
11
58.646921
21
-33.324981
31
0
39
0
210
0
220
0
230
1
0
LINE
5
B4
100
AcDbEntity
8
1
62
256
6
ByLayer
370
18
48
1
60
0
100
AcDbLine
10
57.353079
20
-33.324981
30
0
11
57.146921
21
-33.324981
31
0
39
0
210
0
220
0
230
1
0
LINE
5
B5
100
AcDbEntity
8
1
62
256
6
ByLayer
370
18
48
1
60
0
100
AcDbLine
10
55.853079
20
-33.324981
30
0
11
55.646921
21
-33.324981
31
0
39
0
210
0
220
0
230
1
0
LINE
5
B6
100
AcDbEntity
8
1
62
256
6
ByLayer
370
18
48
1
60
0
100
AcDbLine
10
54.353079
20
-33.324981
30
0
11
54.146921
21
-33.324981
31
0
39
0
210
0
220
0
230
1
0
LINE
5
B7
100
AcDbEntity
8
1
62
256
6
ByLayer
370
18
48
1
60
0
100
AcDbLine
10
63
20
-32.5
30
0
11
53.61352
21
-32.5
31
0
39
0
210
0
220
0
230
1
0
LINE
5
B8
100
AcDbEntity
8
1
62
256
6
ByLayer
370
18
48
1
60
0
100
AcDbLine
10
63
20
-32.5
30
0
11
63
21
-32.3
31
0
39
0
210
0
220
0
230
1
0
LINE
5
B9
100
AcDbEntity
8
1
62
256
6
ByLayer
370
18
48
1
60
0
100
AcDbLine
10
23
20
-32.5
30
0
11
23.262163
21
-32.762163
31
0
39
0
210
0
220
0
230
1
0
LINE
5
BA
100
AcDbEntity
8
1
62
256
6
ByLayer
370
18
48
1
60
0
100
AcDbLine
10
31.853079
20
-33.324981
30
0
11
31.646921
21
-33.324981
31
0
39
0
210
0
220
0
230
1
0
LINE
5
BB
100
AcDbEntity
8
1
62
256
6
ByLayer
370
18
48
1
60
0
100
AcDbLine
10
30.353079
20
-33.324981
30
0
11
30.146921
21
-33.324981
31
0
39
0
210
0
220
0
230
1
0
LINE
5
BC
100
AcDbEntity
8
1
62
256
6
ByLayer
370
18
48
1
60
0
100
AcDbLine
10
28.853079
20
-33.324981
30
0
11
28.646921
21
-33.324981
31
0
39
0
210
0
220
0
230
1
0
LINE
5
BD
100
AcDbEntity
8
1
62
256
6
ByLayer
370
18
48
1
60
0
100
AcDbLine
10
27.353079
20
-33.324981
30
0
11
27.146921
21
-33.324981
31
0
39
0
210
0
220
0
230
1
0
LINE
5
BE
100
AcDbEntity
8
1
62
256
6
ByLayer
370
18
48
1
60
0
100
AcDbLine
10
25.853079
20
-33.324981
30
0
11
25.646921
21
-33.324981
31
0
39
0
210
0
220
0
230
1
0
LINE
5
BF
100
AcDbEntity
8
1
62
256
6
ByLayer
370
18
48
1
60
0
100
AcDbLine
10
24.353079
20
-33.324981
30
0
11
24.146921
21
-33.324981
31
0
39
0
210
0
220
0
230
1
0
LINE
5
C0
100
AcDbEntity
8
1
62
256
6
ByLayer
370
18
48
1
60
0
100
AcDbLine
10
20
20
-25
30
0
11
20
21
25
31
0
39
0
210
0
220
0
230
1
0
LINE
5
C1
100
AcDbEntity
8
1
62
256
6
ByLayer
370
18
48
1
60
0
100
AcDbLine
10
0.3
20
-25
30
0
11
0.3
21
25
31
0
39
0
210
0
220
0
230
1
0
LINE
5
C2
100
AcDbEntity
8
1
62
256
6
ByLayer
370
18
48
1
60
0
100
AcDbLine
10
0.3
20
25
30
0
11
0
21
24.7
31
0
39
0
210
0
220
0
230
1
0
LINE
5
C3
100
AcDbEntity
8
1
62
256
6
ByLayer
370
18
48
1
60
0
100
AcDbLine
10
0
20
-24.7
30
0
11
0.3
21
-25
31
0
39
0
210
0
220
0
230
1
0
LINE
5
C4
100
AcDbEntity
8
1
62
256
6
ByLayer
370
18
48
1
60
0
100
AcDbLine
10
0
20
-24.7
30
0
11
0
21
24.7
31
0
39
0
210
0
220
0
230
1
0
LINE
5
C5
100
AcDbEntity
8
1
62
256
6
ByLayer
370
18
48
1
60
0
100
AcDbLine
10
0.3
20
-25
30
0
11
20
21
-25
31
0
39
0
210
0
220
0
230
1
0
LINE
5
C6
100
AcDbEntity
8
1
62
256
6
ByLayer
370
18
48
1
60
0
100
AcDbLine
10
20
20
25
30
0
11
0.3
21
25
31
0
39
0
210
0
220
0
230
1
0
LINE
5
C7
100
AcDbEntity
8
1
62
256
6
ByLayer
370
18
48
1
60
0
100
AcDbLine
10
8.538675
20
7.529667
30
0
11
11.461325
21
7.529667
31
0
39
0
210
0
220
0
230
1
0
LINE
5
C8
100
AcDbEntity
8
1
62
256
6
ByLayer
370
18
48
1
60
0
100
AcDbLine
10
11.461325
20
23.83913
30
0
11
8.538675
21
23.83913
31
0
39
0
210
0
220
0
230
1
0
LINE
5
C9
100
AcDbEntity
8
1
62
256
6
ByLayer
370
18
48
1
60
0
100
AcDbLine
10
8.538675
20
-23.83913
30
0
11
11.461325
21
-23.83913
31
0
39
0
210
0
220
0
230
1
0
LINE
5
CA
100
AcDbEntity
8
1
62
256
6
ByLayer
370
18
48
1
60
0
100
AcDbLine
10
11.461325
20
-7.529667
30
0
11
8.538675
21
-7.529667
31
0
39
0
210
0
220
0
230
1
0
LINE
5
CB
100
AcDbEntity
8
1
62
256
6
ByLayer
370
18
48
1
60
0
100
AcDbLine
10
11.461325
20
-23.83913
30
0
11
11.461325
21
-7.529667
31
0
39
0
210
0
220
0
230
1
0
LINE
5
CC
100
AcDbEntity
8
1
62
256
6
ByLayer
370
18
48
1
60
0
100
AcDbLine
10
11.894338
20
-23.666502
30
0
11
11.894338
21
-8.055848
31
0
39
0
210
0
220
0
230
1
0
LINE
5
CD
100
AcDbEntity
8
1
62
256
6
ByLayer
370
18
48
1
60
0
100
AcDbLine
10
8.105662
20
8.055848
30
0
11
8.105662
21
23.666502
31
0
39
0
210
0
220
0
230
1
0
LINE
5
CE
100
AcDbEntity
8
1
62
256
6
ByLayer
370
18
48
1
60
0
100
AcDbLine
10
8.538675
20
7.529667
30
0
11
8.538675
21
23.83913
31
0
39
0
210
0
220
0
230
1
0
LINE
5
CF
100
AcDbEntity
8
1
62
256
6
ByLayer
370
18
48
1
60
0
100
AcDbLine
10
8.105662
20
-23.666502
30
0
11
8.105662
21
-8.055848
31
0
39
0
210
0
220
0
230
1
0
LINE
5
D0
100
AcDbEntity
8
1
62
256
6
ByLayer
370
18
48
1
60
0
100
AcDbLine
10
8.538675
20
-23.83913
30
0
11
8.538675
21
-7.529667
31
0
39
0
210
0
220
0
230
1
0
LINE
5
D1
100
AcDbEntity
8
1
62
256
6
ByLayer
370
18
48
1
60
0
100
AcDbLine
10
11.461325
20
7.529667
30
0
11
11.461325
21
23.83913
31
0
39
0
210
0
220
0
230
1
0
LINE
5
D2
100
AcDbEntity
8
1
62
256
6
ByLayer
370
18
48
1
60
0
100
AcDbLine
10
11.894338
20
8.055848
30
0
11
11.894338
21
23.666502
31
0
39
0
210
0
220
0
230
1
0
LINE
5
D3
100
AcDbEntity
8
SK1
62
256
6
ByLayer
370
18
48
1
60
0
100
AcDbLine
10
-1.307107
20
-3.918065
30
0
11
-1.307107
21
3.918065
31
0
39
0
210
0
220
0
230
1
0
LINE
5
D5
100
AcDbEntity
8
SK1
62
256
6
ByLayer
370
18
48
1
60
0
100
AcDbLine
10
-0.2
20
6.103447
30
0
11
-0.2
21
17.833485
31
0
39
0
210
0
220
0
230
1
0
LINE
5
D6
100
AcDbEntity
8
SK1
62
256
6
ByLayer
370
18
48
1
60
0
100
AcDbLine
10
-0.2
20
-17.833485
30
0
11
-0.2
21
-6.103448
31
0
39
0
210
0
220
0
230
1
0
LINE
5
D7
100
AcDbEntity
8
1
62
256
6
ByLayer
370
18
48
1
60
0
100
AcDbLine
10
56.867292
20
-48.824981
30
0
11
56.867292
21
-48.678965
31
0
39
0
210
0
220
0
230
1
0
LINE
5
D8
100
AcDbEntity
8
1
62
256
6
ByLayer
370
18
48
1
60
0
100
AcDbLine
10
43.867292
20
-48.824981
30
0
11
43.889068
21
-48.824981
31
0
39
0
210
0
220
0
230
1
0
LINE
5
D9
100
AcDbEntity
8
1
62
256
6
ByLayer
370
18
48
1
60
0
100
AcDbLine
10
56.845464
20
-48.824981
30
0
11
56.867292
21
-48.824981
31
0
39
0
210
0
220
0
230
1
0
LINE
5
DA
100
AcDbEntity
8
1
62
256
6
ByLayer
370
18
48
1
60
0
100
AcDbLine
10
43.867292
20
-48.678965
30
0
11
43.867292
21
-48.824981
31
0
39
0
210
0
220
0
230
1
0
LINE
5
DB
100
AcDbEntity
8
1
62
256
6
ByLayer
370
18
48
1
60
0
100
AcDbLine
10
56.367292
20
-49.324981
30
0
11
44.367292
21
-49.324981
31
0
39
0
210
0
220
0
230
1
0
LINE
5
DC
100
AcDbEntity
8
1
62
256
6
ByLayer
370
18
48
1
60
0
100
AcDbLine
10
56.867292
20
-48.678981
30
0
11
56.842337
21
-48.678981
31
0
39
0
210
0
220
0
230
1
0
LINE
5
DD
100
AcDbEntity
8
1
62
256
6
ByLayer
370
18
48
1
60
0
100
AcDbLine
10
56.842337
20
-48.678981
30
0
11
43.867292
21
-48.678981
31
0
39
0
210
0
220
0
230
1
0
LINE
5
DE
100
AcDbEntity
8
1
62
256
6
ByLayer
370
18
48
1
60
0
100
AcDbLine
10
44.367292
20
-49.178981
30
0
11
56.344257
21
-49.178981
31
0
39
0
210
0
220
0
230
1
0
LINE
5
DF
100
AcDbEntity
8
1
62
256
6
ByLayer
370
18
48
1
60
0
100
AcDbLine
10
56.344257
20
-49.178981
30
0
11
56.367292
21
-49.178981
31
0
39
0
210
0
220
0
230
1
0
LINE
5
E0
100
AcDbEntity
8
1
62
256
6
ByLayer
370
18
48
1
60
0
100
AcDbLine
10
43.867292
20
-41.178981
30
0
11
56.842337
21
-41.178981
31
0
39
0
210
0
220
0
230
1
0
LINE
5
E1
100
AcDbEntity
8
1
62
256
6
ByLayer
370
18
48
1
60
0
100
AcDbLine
10
56.842337
20
-41.178981
30
0
11
56.867292
21
-41.178981
31
0
39
0
210
0
220
0
230
1
0
LINE
5
E2
100
AcDbEntity
8
1
62
256
6
ByLayer
370
18
48
1
60
0
100
AcDbLine
10
56.867292
20
-48.678981
30
0
11
56.867292
21
-41.178981
31
0
39
0
210
0
220
0
230
1
0
LINE
5
E3
100
AcDbEntity
8
1
62
256
6
ByLayer
370
18
48
1
60
0
100
AcDbLine
10
43.867292
20
-41.178981
30
0
11
43.867292
21
-48.678981
31
0
39
0
210
0
220
0
230
1
0
LINE
5
E4
100
AcDbEntity
8
1
62
256
6
ByLayer
370
18
48
1
60
0
100
AcDbLine
10
46.367292
20
-32.986747
30
0
11
46.367292
21
-41.178981
31
0
39
0
210
0
220
0
230
1
0
LINE
5
E5
100
AcDbEntity
8
1
62
256
6
ByLayer
370
18
48
1
60
0
100
AcDbLine
10
54.367292
20
-41.178981
30
0
11
54.367292
21
-33.322903
31
0
39
0
210
0
220
0
230
1
0
LINE
5
E6
100
AcDbEntity
8
1
62
256
6
ByLayer
370
18
48
1
60
0
100
AcDbLine
10
29.132708
20
-48.824981
30
0
11
42.132708
21
-48.824981
31
0
39
0
210
0
220
0
230
1
0
LINE
5
E7
100
AcDbEntity
8
1
62
256
6
ByLayer
370
18
48
1
60
0
100
AcDbLine
10
41.632708
20
-49.324981
30
0
11
29.632708
21
-49.324981
31
0
39
0
210
0
220
0
230
1
0
LINE
5
E8
100
AcDbEntity
8
1
62
256
6
ByLayer
370
18
48
1
60
0
100
AcDbLine
10
42.132708
20
-41.324981
30
0
11
29.132708
21
-41.324981
31
0
39
0
210
0
220
0
230
1
0
LINE
5
E9
100
AcDbEntity
8
1
62
256
6
ByLayer
370
18
48
1
60
0
100
AcDbLine
10
42.132708
20
-48.824981
30
0
11
42.132708
21
-41.324981
31
0
39
0
210
0
220
0
230
1
0
LINE
5
EA
100
AcDbEntity
8
1
62
256
6
ByLayer
370
18
48
1
60
0
100
AcDbLine
10
29.132708
20
-41.324981
30
0
11
29.132708
21
-48.824981
31
0
39
0
210
0
220
0
230
1
0
LINE
5
EB
100
AcDbEntity
8
1
62
256
6
ByLayer
370
18
48
1
60
0
100
AcDbLine
10
31.632708
20
-33.324317
30
0
11
31.632708
21
-41.324981
31
0
39
0
210
0
220
0
230
1
0
LINE
5
EC
100
AcDbEntity
8
1
62
256
6
ByLayer
370
18
48
1
60
0
100
AcDbLine
10
39.632708
20
-41.324981
30
0
11
39.632708
21
-32.986708
31
0
39
0
210
0
220
0
230
1
0
LINE
5
ED
100
AcDbEntity
8
SK4
62
256
6
ByLayer
370
13
48
0.05
60
0
100
AcDbLine
10
57.3
20
0
30
0
11
-32.7
21
0
31
0
39
0
210
0
220
0
230
1
0
LINE
5
EF
100
AcDbEntity
8
80
62
256
6
ByLayer
370
13
48
1
60
0
100
AcDbLine
10
0
20
0
30
0
11
-10.4691
21
0
31
0
39
0
210
0
220
0
230
1
0
LINE
5
F0
100
AcDbEntity
8
81
62
256
6
ByLayer
370
13
48
1
60
0
100
AcDbLine
10
43
20
-32.999981
30
0
11
43
21
-45.908681
31
0
39
0
210
0
220
0
230
1
0
LINE
5
F1
100
AcDbEntity
8
4
62
256
6
ByLayer
370
13
48
0.05
60
0
100
AcDbLine
10
0
20
0
30
0
11
53.3
21
0
31
0
39
0
210
0
220
0
230
1
0
MTEXT
5
1A8
100
AcDbEntity
8
SK6
62
256
6
ByLayer
370
18
48
1
60
0
100
AcDbMText
10
1.776366
20
31.316037
30
0
210
0
220
0
230
1
1
\W0.7428;C5-SL70-LF-043
40
3.5
41
0
44
1.084337
50
0
71
7
72
5
7
iso_b_vert
0
DIMENSION
5
1BB
100
AcDbEntity
8
SK2
62
256
6
ByLayer
370
13
48
1
60
0
100
AcDbDimension
2
DimnDraft3D1
10
-41.729655
20
25
30
0
11
-41.179745
21
0.629829
31
0
70
33
71
5
72
1
41
1
210
0
220
0
230
1
3
Standard
100
AcDbAlignedDimension
13
-1.2875
23
-25
33
0
14
-1.2875
24
25
34
0
1001
ACAD
1000
DSTYLE
1002
{
1070
   279
1070
     0
1070
    74
1070
     0
1070
   173
1070
     1
1070
   340
1005
1A9
1070
   271
1070
     1
1070
   272
1070
     2
1070
    77
1070
     1
1070
    73
1070
     0
1070
   171
1070
     3
1070
   274
1070
     4
1070
   177
1070
     7
1070
   176
1070
     7
1070
   178
1070
     7
1070
    78
1070
     8
1070
    48
1040
-0.005
1070
    41
1041
3.175
1070
   147
1041
1.75006
1070
    42
1041
1.5875
1070
    44
1041
3.175
1070
   140
1041
3.50012
1070
   343
1005
0
1070
   344
1005
0
1002
}
0
DIMENSION
5
1C9
100
AcDbEntity
8
SK2
62
256
6
ByLayer
370
13
48
1
60
0
100
AcDbDimension
2
DimnDraft3D2
10
0
20
-71.271107
30
0
11
-18.264717
21
-71.271107
31
0
70
32
71
5
72
1
41
1
210
0
220
0
230
1
3
Standard
100
AcDbAlignedDimension
13
-32.917106
23
-44.914641
33
0
14
0
24
-58.8875
34
0
50
0
100
AcDbRotatedDimension
1001
ACAD
1000
DSTYLE
1002
{
1070
   279
1070
     0
1070
   172
1070
     1
1070
   173
1070
     1
1070
   340
1005
1A9
1070
   271
1070
     0
1070
   272
1070
     2
1070
    77
1070
     1
1070
    73
1070
     0
1070
   171
1070
     3
1070
   274
1070
     4
1070
   177
1070
     7
1070
   176
1070
     7
1070
   178
1070
     7
1070
    78
1070
     8
1070
    48
1040
-0.005
1070
    41
1041
3.175
1070
   147
1041
1.75006
1070
    42
1041
1.5875
1070
    44
1041
3.175
1070
   140
1041
3.50012
1070
   343
1005
1CA
1070
   344
1005
1CA
1002
}
0
DIMENSION
5
1DF
100
AcDbEntity
8
2
62
256
6
ByLayer
370
13
48
1
60
0
100
AcDbDimension
2
DimnDraft3D3
10
43
20
-70.463875
30
0
11
21.5
21
-70.463875
31
0
70
32
71
5
72
1
41
1
210
0
220
0
230
1
3
Standard
100
AcDbAlignedDimension
13
0
23
-26.2875
33
0
14
43
24
-47.496181
34
0
50
0
100
AcDbRotatedDimension
1001
ACAD
1000
DSTYLE
1002
{
1070
   279
1070
     0
1070
   172
1070
     1
1070
   173
1070
     1
1070
   340
1005
1A9
1070
   271
1070
     1
1070
   272
1070
     2
1070
    77
1070
     1
1070
    73
1070
     0
1070
   171
1070
     3
1070
   274
1070
     4
1070
   177
1070
     7
1070
   176
1070
     7
1070
   178
1070
     7
1070
    78
1070
     8
1070
    48
1040
-0.005
1070
    41
1041
3.175
1070
   147
1041
1.75006
1070
    42
1041
1.5875
1070
    44
1041
3.175
1070
   140
1041
3.50012
1070
   343
1005
0
1070
   344
1005
0
1002
}
0
DIMENSION
5
1ED
100
AcDbEntity
8
SK2
62
256
6
ByLayer
370
13
48
1
60
0
100
AcDbDimension
2
DimnDraft3D4
10
63
20
-60.166188
30
0
11
36.010173
21
-60.166188
31
0
70
32
71
5
72
1
41
1
210
0
220
0
230
1
3
Standard
100
AcDbAlignedDimension
13
23
23
-34.0875
33
0
14
63
24
-34.0875
34
0
50
0
100
AcDbRotatedDimension
1001
ACAD
1000
DSTYLE
1002
{
1070
   279
1070
     0
1070
   172
1070
     1
1070
   173
1070
     1
1070
   340
1005
1A9
1070
   271
1070
     1
1070
   272
1070
     2
1070
    77
1070
     1
1070
    73
1070
     0
1070
   171
1070
     3
1070
   274
1070
     4
1070
   177
1070
     7
1070
   176
1070
     7
1070
   178
1070
     7
1070
    78
1070
     8
1070
    48
1040
-0.005
1070
    41
1041
3.175
1070
   147
1041
1.75006
1070
    42
1041
1.5875
1070
    44
1041
3.175
1070
   140
1041
3.50012
1070
   343
1005
0
1070
   344
1005
0
1002
}
0
ENDSEC
0
SECTION
2
OBJECTS
0
DICTIONARY
5
258
330
0
100
AcDbDictionary
280
0
281
1
3
ACAD_GROUP
350
259
3
ACAD_MLINESTYLE
350
25a
0
DICTIONARY
5
259
330
0
100
AcDbDictionary
280
0
281
1
0
DICTIONARY
5
25a
330
0
100
AcDbDictionary
280
0
281
1
3
Standard
350
18
0
MLINESTYLE
5
18
330
25a
100
AcDbMlineStyle
2
Standard
70
0
3

62
256
51
90
52
90
71
2
49
-0.5
62
256
6
ByLayer
49
0.5
62
256
6
ByLayer
0
RASTERVARIABLES
5
246
330

100
AcDbRasterVariables
90
0
70
1
71
1
72
1
0
ENDSEC
0
EOF
