0
SECTION
2
HEADER
9
$ACADVER
1
AC1015
9
$DWGCODEPAGE
3
ANSI_1252
9
$HANDSEED
5
1c7
9
$ANGBASE
50
0
9
$ANGDIR
70
0
9
$ATTMODE
70
1
9
$AUNITS
70
0
9
$AUPREC
70
0
9
$CECOLOR
62
256
9
$CELTSCALE
40
1
9
$CELTYPE
6
ByLayer
9
$CELWEIGHT
370
-1
9
$CLAYER
8
0
9
$CMLJUST
70
0
9
$CMLSCALE
40
1
9
$CMLSTYLE
2
Standard
9
$DIMSTYLE
2
Standard
9
$TEXTSIZE
40
0.2
9
$TEXTSTYLE
7
Standard
9
$LUNITS
70
2
9
$LUPREC
70
4
9
$EXTNAMES
290
1
9
$INSUNITS
70
4
9
$LTSCALE
40
1
9
$LWDISPLAY
290
0
9
$PDMODE
70
0
9
$PDSIZE
40
0
9
$PLINEGEN
70
0
0
ENDSEC
0
SECTION
2
CLASSES
0
CLASS
1
RASTERVARIABLES
2
AcDbRasterVariables
3
ISM
90
0
280
0
281
0
0
ENDSEC
0
SECTION
2
TABLES
0
TABLE
2
VPORT
5
1bd
100
AcDbSymbolTable
0
VPORT
5
1
100
AcDbSymbolTableRecord
100
AcDbViewportTableRecord
2
*Active
70
0
10
0
20
0
11
1
21
1
12
-1
22
1
13
0
23
0
14
0.5
24
0.5
15
10
25
10
16
0
26
0
36
1
17
0
27
0
37
0
0
ENDTAB
0
TABLE
2
LTYPE
5
1be
100
AcDbSymbolTable
0
LTYPE
5
14
100
AcDbSymbolTableRecord
100
AcDbLinetypeTableRecord
70
0
2
ByBlock
3

72
65
73
0
40
0
0
LTYPE
5
15
100
AcDbSymbolTableRecord
100
AcDbLinetypeTableRecord
70
0
2
ByLayer
3

72
65
73
0
40
0
0
LTYPE
5
16
100
AcDbSymbolTableRecord
100
AcDbLinetypeTableRecord
70
0
2
CONTINUOUS
3
Solid line
72
65
73
0
40
0
0
LTYPE
5
3B
100
AcDbSymbolTableRecord
100
AcDbLinetypeTableRecord
70
0
2
DASHED
3
__ __ __ __ __ __ __ __ __
72
65
73
2
40
25.72
49
12.86
74
0
49
-12.86
74
0
0
LTYPE
5
3C
100
AcDbSymbolTableRecord
100
AcDbLinetypeTableRecord
70
0
2
HIDDEN
3
_ _ _ _ _ _ _ _ _ _ _ _ _ _ _
72
65
73
2
40
0.5
49
0.25
74
0
49
-0.25
74
0
0
LTYPE
5
3D
100
AcDbSymbolTableRecord
100
AcDbLinetypeTableRecord
70
0
2
PHANTOM
3
____ _ _ ____ _ _ _____ _ _ ____
72
65
73
6
40
50.5
49
18
74
0
49
-6.5
74
0
49
6.5
74
0
49
-6.5
74
0
49
6.5
74
0
49
-6.5
74
0
0
LTYPE
5
3E
100
AcDbSymbolTableRecord
100
AcDbLinetypeTableRecord
70
0
2
CENTER
3
____ _ ____ _ ____ _ ____
72
65
73
4
40
47.5
49
22
74
0
49
-8.5
74
0
49
8.5
74
0
49
-8.5
74
0
0
LTYPE
5
3F
100
AcDbSymbolTableRecord
100
AcDbLinetypeTableRecord
70
0
2
DOT
3
.........................
72
65
73
2
40
10
49
0
74
0
49
-10
74
0
0
LTYPE
5
40
100
AcDbSymbolTableRecord
100
AcDbLinetypeTableRecord
70
0
2
DASHDOT
3
_._._._._._._._._._._._._._._._.
72
65
73
4
40
70
49
31
74
0
49
-13
74
0
49
13
74
0
49
-13
74
0
0
ENDTAB
0
TABLE
2
LAYER
5
1bf
100
AcDbSymbolTable
0
LAYER
5
10
100
AcDbSymbolTableRecord
100
AcDbLayerTableRecord
2
0
70
0
62
7
6
CONTINUOUS
290
1
370
-3
390
0
0
LAYER
5
42
100
AcDbSymbolTableRecord
100
AcDbLayerTableRecord
2
80
70
0
62
-6
6
CONTINUOUS
290
1
370
-3
390
0
0
LAYER
5
44
100
AcDbSymbolTableRecord
100
AcDbLayerTableRecord
2
81
70
0
62
-3
6
CONTINUOUS
290
1
370
-3
390
0
0
LAYER
5
46
100
AcDbSymbolTableRecord
100
AcDbLayerTableRecord
2
1
70
0
62
4
6
CONTINUOUS
290
1
370
-3
390
0
0
LAYER
5
48
100
AcDbSymbolTableRecord
100
AcDbLayerTableRecord
2
2
70
0
62
7
6
CONTINUOUS
290
1
370
-3
390
0
0
LAYER
5
60
100
AcDbSymbolTableRecord
100
AcDbLayerTableRecord
2
4
70
0
62
-2
6
CENTER
290
1
370
-3
390
0
0
LAYER
5
1a9
100
AcDbSymbolTableRecord
100
AcDbLayerTableRecord
2
SK4
70
0
62
2
6
CENTER
290
1
370
-3
390
0
0
LAYER
5
1aa
100
AcDbSymbolTableRecord
100
AcDbLayerTableRecord
2
SK1
70
0
62
4
6
CONTINUOUS
290
1
370
-3
390
0
0
LAYER
5
1ab
100
AcDbSymbolTableRecord
100
AcDbLayerTableRecord
2
SK6
70
0
62
5
6
CONTINUOUS
290
1
370
-3
390
0
0
LAYER
5
1ac
100
AcDbSymbolTableRecord
100
AcDbLayerTableRecord
2
SK2
70
0
62
7
6
CONTINUOUS
290
1
370
-3
390
0
0
ENDTAB
0
TABLE
2
STYLE
5
1c0
100
AcDbSymbolTable
0
STYLE
5
11
100
AcDbSymbolTableRecord
100
AcDbTextStyleTableRecord
2
Standard
3
txt
70
0
71
0
40
0
41
1
42
0
50
0
0
STYLE
5
10B
100
AcDbSymbolTableRecord
100
AcDbTextStyleTableRecord
2
DEFAULT
3
simplex.shx
70
0
71
0
40
0
41
1
42
0
50
0
0
STYLE
5
12E
100
AcDbSymbolTableRecord
100
AcDbTextStyleTableRecord
2
DWGDirectTextStyle
3
SIMPLEX
70
0
71
0
40
0
41
1
42
0
50
0
0
ENDTAB
0
TABLE
2
DIMSTYLE
5
1c1
100
AcDbSymbolTable
100
AcDbDimStyleTable
0
DIMSTYLE
105
27
100
AcDbSymbolTableRecord
100
AcDbDimStyleTableRecord
2
Standard
70
0
3
<>
41
0.18
42
0.0625
44
0.18
140
0.18
147
0.09
73
0
74
0
77
1
271
2
275
0
278
52
280
0
340
11
0
ENDTAB
0
TABLE
2
VIEW
5
1c2
100
AcDbSymbolTable
0
ENDTAB
0
TABLE
2
UCS
5
1c3
100
AcDbSymbolTable
0
ENDTAB
0
TABLE
2
APPID
5
1c4
100
AcDbSymbolTable
0
APPID
5
12
100
AcDbSymbolTableRecord
100
AcDbRegAppTableRecord
2
ACAD
70
0
0
ENDTAB
0
TABLE
2
BLOCK_RECORD
5
1c5
100
AcDbSymbolTable
0
BLOCK_RECORD
5
1F
100
AcDbSymbolTableRecord
100
AcDbBlockTableRecord
2
*Model_Space
340
0
70
0
0
BLOCK_RECORD
5
1B
100
AcDbSymbolTableRecord
100
AcDbBlockTableRecord
2
*Paper_Space
340
0
70
0
0
BLOCK_RECORD
5
23
100
AcDbSymbolTableRecord
100
AcDbBlockTableRecord
2
*Paper_Space0
340
0
70
0
0
BLOCK_RECORD
5
130
100
AcDbSymbolTableRecord
100
AcDbBlockTableRecord
2
DimnDraft3D1
340
0
70
0
0
BLOCK_RECORD
5
13F
100
AcDbSymbolTableRecord
100
AcDbBlockTableRecord
2
_CLOSED
340
0
70
0
0
BLOCK_RECORD
5
146
100
AcDbSymbolTableRecord
100
AcDbBlockTableRecord
2
DimnDraft3D2
340
0
70
0
0
BLOCK_RECORD
5
152
100
AcDbSymbolTableRecord
100
AcDbBlockTableRecord
2
DimnDraft3D3
340
0
70
0
0
BLOCK_RECORD
5
160
100
AcDbSymbolTableRecord
100
AcDbBlockTableRecord
2
DimnDraft3D4
340
0
70
0
0
BLOCK_RECORD
5
16E
100
AcDbSymbolTableRecord
100
AcDbBlockTableRecord
2
DimnDraft3D5
340
0
70
0
0
BLOCK_RECORD
5
17C
100
AcDbSymbolTableRecord
100
AcDbBlockTableRecord
2
DimnDraft3D6
340
0
70
0
0
ENDTAB
0
ENDSEC
0
SECTION
2
BLOCKS
0
BLOCK
5
20
100
AcDbEntity
8
0
100
AcDbBlockBegin
2
*Model_Space
70
0
10
0
20
0
30
0
3
*Model_Space
0
ENDBLK
5
21
100
AcDbEntity
8
0
100
AcDbBlockEnd
0
BLOCK
5
1C
100
AcDbEntity
8
0
100
AcDbBlockBegin
2
*Paper_Space
70
0
10
0
20
0
30
0
3
*Paper_Space
0
ENDBLK
5
1D
100
AcDbEntity
8
0
100
AcDbBlockEnd
0
BLOCK
5
24
100
AcDbEntity
8
0
100
AcDbBlockBegin
2
*Paper_Space0
70
0
10
0
20
0
30
0
3
*Paper_Space0
0
ENDBLK
5
25
100
AcDbEntity
8
0
100
AcDbBlockEnd
0
BLOCK
5
13C
100
AcDbEntity
8
0
100
AcDbBlockBegin
2
DimnDraft3D1
70
0
10
0
20
0
30
0
3
DimnDraft3D1
0
MTEXT
5
131
100
AcDbEntity
8
SK2
62
256
6
ByLayer
370
-1
48
1
60
0
100
AcDbMText
10
-43.875
20
-3.659211
30
0
210
0
220
0
230
1
1
\W01.000;\fsimplex.shx,bigfont.shx;%%c50 
40
4.5
41
0
44
1.084337
50
90
71
7
72
5
7
DEFAULT
0
LINE
5
133
100
AcDbEntity
8
SK2
62
256
6
ByLayer
370
-1
48
1
60
0
100
AcDbLine
10
-2
20
25
30
0
11
-44.75
21
25
31
0
39
0
210
0
220
0
230
1
0
LINE
5
134
100
AcDbEntity
8
SK2
62
256
6
ByLayer
370
-1
48
1
60
0
100
AcDbLine
10
-2
20
-25
30
0
11
-44.75
21
-25
31
0
39
0
210
0
220
0
230
1
0
LINE
5
135
100
AcDbEntity
8
SK2
62
256
6
ByLayer
370
-1
48
1
60
0
100
AcDbLine
10
-42.75
20
25
30
0
11
-42.75
21
-25
31
0
39
0
210
0
220
0
230
1
0
LINE
5
136
100
AcDbEntity
8
SK2
62
256
6
ByLayer
370
-1
48
1
60
0
100
AcDbLine
10
-42.75
20
25
30
0
11
-42.332003
21
21.825002
31
0
39
0
210
0
220
0
230
1
0
LINE
5
137
100
AcDbEntity
8
SK2
62
256
6
ByLayer
370
-1
48
1
60
0
100
AcDbLine
10
-42.75
20
25
30
0
11
-43.167997
21
21.824998
31
0
39
0
210
0
220
0
230
1
0
LINE
5
138
100
AcDbEntity
8
SK2
62
256
6
ByLayer
370
-1
48
1
60
0
100
AcDbLine
10
-42.332003
20
21.825002
30
0
11
-43.167997
21
21.824998
31
0
39
0
210
0
220
0
230
1
0
LINE
5
139
100
AcDbEntity
8
SK2
62
256
6
ByLayer
370
-1
48
1
60
0
100
AcDbLine
10
-42.75
20
-25
30
0
11
-43.167997
21
-21.825002
31
0
39
0
210
0
220
0
230
1
0
LINE
5
13A
100
AcDbEntity
8
SK2
62
256
6
ByLayer
370
-1
48
1
60
0
100
AcDbLine
10
-42.75
20
-25
30
0
11
-42.332003
21
-21.824998
31
0
39
0
210
0
220
0
230
1
0
LINE
5
13B
100
AcDbEntity
8
SK2
62
256
6
ByLayer
370
-1
48
1
60
0
100
AcDbLine
10
-43.167997
20
-21.825002
30
0
11
-42.332003
21
-21.824998
31
0
39
0
210
0
220
0
230
1
0
ENDBLK
5
13D
100
AcDbEntity
8
0
100
AcDbBlockEnd
0
BLOCK
5
140
100
AcDbEntity
8
0
100
AcDbBlockBegin
2
_CLOSED
70
0
10
0
20
0
30
0
3
_CLOSED
0
LINE
5
142
100
AcDbEntity
8
0
62
256
6
ByLayer
370
-2
48
1
60
0
100
AcDbLine
10
-1
20
0.166667
30
0
11
0
21
0
31
0
39
0
210
0
220
0
230
1
0
LINE
5
143
100
AcDbEntity
8
0
62
256
6
ByLayer
370
-2
48
1
60
0
100
AcDbLine
10
0
20
0
30
0
11
-1
21
-0.166667
31
0
39
0
210
0
220
0
230
1
0
LINE
5
144
100
AcDbEntity
8
0
62
256
6
ByLayer
370
-2
48
1
60
0
100
AcDbLine
10
-1
20
0.166667
30
0
11
-1
21
-0.166667
31
0
39
0
210
0
220
0
230
1
0
LINE
5
145
100
AcDbEntity
8
0
62
256
6
ByLayer
370
-2
48
1
60
0
100
AcDbLine
10
0
20
0
30
0
11
-1
21
0
31
0
39
0
210
0
220
0
230
1
0
ENDBLK
5
141
100
AcDbEntity
8
0
100
AcDbBlockEnd
0
BLOCK
5
14F
100
AcDbEntity
8
0
100
AcDbBlockBegin
2
DimnDraft3D2
70
0
10
0
20
0
30
0
3
DimnDraft3D2
0
MTEXT
5
147
100
AcDbEntity
8
2
62
256
6
ByLayer
370
-1
48
1
60
0
100
AcDbMText
10
36.025
20
-6.193421
30
0
210
0
220
0
230
1
1
\W01.000;\fsimplex.shx,bigfont.shx;%%c32.0 
40
4.5
41
0
44
1.084337
50
90
71
7
72
5
7
DEFAULT
0
LINE
5
148
100
AcDbEntity
8
2
62
256
6
ByLayer
370
-1
48
1
60
0
100
AcDbLine
10
37.15
20
-16
30
0
11
37.15
21
16
31
0
39
0
210
0
220
0
230
1
0
LINE
5
149
100
AcDbEntity
8
2
62
256
6
ByLayer
370
-1
48
1
60
0
100
AcDbLine
10
37.15
20
-16
30
0
11
36.732003
21
-12.825002
31
0
39
0
210
0
220
0
230
1
0
LINE
5
14A
100
AcDbEntity
8
2
62
256
6
ByLayer
370
-1
48
1
60
0
100
AcDbLine
10
37.15
20
-16
30
0
11
37.567997
21
-12.824998
31
0
39
0
210
0
220
0
230
1
0
LINE
5
14B
100
AcDbEntity
8
2
62
256
6
ByLayer
370
-1
48
1
60
0
100
AcDbLine
10
36.732003
20
-12.825002
30
0
11
37.567997
21
-12.824998
31
0
39
0
210
0
220
0
230
1
0
LINE
5
14C
100
AcDbEntity
8
2
62
256
6
ByLayer
370
-1
48
1
60
0
100
AcDbLine
10
37.15
20
16
30
0
11
37.567997
21
12.825002
31
0
39
0
210
0
220
0
230
1
0
LINE
5
14D
100
AcDbEntity
8
2
62
256
6
ByLayer
370
-1
48
1
60
0
100
AcDbLine
10
37.15
20
16
30
0
11
36.732003
21
12.824998
31
0
39
0
210
0
220
0
230
1
0
LINE
5
14E
100
AcDbEntity
8
2
62
256
6
ByLayer
370
-1
48
1
60
0
100
AcDbLine
10
37.567997
20
12.825002
30
0
11
36.732003
21
12.824998
31
0
39
0
210
0
220
0
230
1
0
ENDBLK
5
150
100
AcDbEntity
8
0
100
AcDbBlockEnd
0
BLOCK
5
15D
100
AcDbEntity
8
0
100
AcDbBlockBegin
2
DimnDraft3D3
70
0
10
0
20
0
30
0
3
DimnDraft3D3
0
MTEXT
5
153
100
AcDbEntity
8
2
62
256
6
ByLayer
370
-1
48
1
60
0
100
AcDbMText
10
121.125
20
-14.988158
30
0
210
0
220
0
230
1
1
\W01.000;\fsimplex.shx,bigfont.shx;22.0 
40
4.5
41
0
44
1.084337
50
90
71
7
72
5
7
DEFAULT
0
LINE
5
154
100
AcDbEntity
8
2
62
256
6
ByLayer
370
-1
48
1
60
0
100
AcDbLine
10
112
20
0
30
0
11
124.25
21
0
31
0
39
0
210
0
220
0
230
1
0
LINE
5
155
100
AcDbEntity
8
2
62
256
6
ByLayer
370
-1
48
1
60
0
100
AcDbLine
10
112
20
-21.9
30
0
11
124.25
21
-21.9
31
0
39
0
210
0
220
0
230
1
0
LINE
5
156
100
AcDbEntity
8
2
62
256
6
ByLayer
370
-1
48
1
60
0
100
AcDbLine
10
122.25
20
0
30
0
11
122.25
21
-21.9
31
0
39
0
210
0
220
0
230
1
0
LINE
5
157
100
AcDbEntity
8
2
62
256
6
ByLayer
370
-1
48
1
60
0
100
AcDbLine
10
122.25
20
0
30
0
11
122.667997
21
-3.174998
31
0
39
0
210
0
220
0
230
1
0
LINE
5
158
100
AcDbEntity
8
2
62
256
6
ByLayer
370
-1
48
1
60
0
100
AcDbLine
10
122.25
20
0
30
0
11
121.832003
21
-3.175002
31
0
39
0
210
0
220
0
230
1
0
LINE
5
159
100
AcDbEntity
8
2
62
256
6
ByLayer
370
-1
48
1
60
0
100
AcDbLine
10
122.667997
20
-3.174998
30
0
11
121.832003
21
-3.175002
31
0
39
0
210
0
220
0
230
1
0
LINE
5
15A
100
AcDbEntity
8
2
62
256
6
ByLayer
370
-1
48
1
60
0
100
AcDbLine
10
122.25
20
-21.9
30
0
11
121.832003
21
-18.725002
31
0
39
0
210
0
220
0
230
1
0
LINE
5
15B
100
AcDbEntity
8
2
62
256
6
ByLayer
370
-1
48
1
60
0
100
AcDbLine
10
122.25
20
-21.9
30
0
11
122.667997
21
-18.724998
31
0
39
0
210
0
220
0
230
1
0
LINE
5
15C
100
AcDbEntity
8
2
62
256
6
ByLayer
370
-1
48
1
60
0
100
AcDbLine
10
121.832003
20
-18.725002
30
0
11
122.667997
21
-18.724998
31
0
39
0
210
0
220
0
230
1
0
ENDBLK
5
15E
100
AcDbEntity
8
0
100
AcDbBlockEnd
0
BLOCK
5
16B
100
AcDbEntity
8
0
100
AcDbBlockBegin
2
DimnDraft3D4
70
0
10
0
20
0
30
0
3
DimnDraft3D4
0
MTEXT
5
161
100
AcDbEntity
8
2
62
256
6
ByLayer
370
-1
48
1
60
0
100
AcDbMText
10
50.434868
20
-53.025
30
0
210
0
220
0
230
1
1
\W01.000;\fsimplex.shx,bigfont.shx;110.0 
40
4.5
41
0
44
1.084337
50
0
71
7
72
5
7
DEFAULT
0
LINE
5
162
100
AcDbEntity
8
2
62
256
6
ByLayer
370
-1
48
1
60
0
100
AcDbLine
10
0
20
-27
30
0
11
0
21
-56.15
31
0
39
0
210
0
220
0
230
1
0
LINE
5
163
100
AcDbEntity
8
2
62
256
6
ByLayer
370
-1
48
1
60
0
100
AcDbLine
10
110
20
-23.9
30
0
11
110
21
-56.15
31
0
39
0
210
0
220
0
230
1
0
LINE
5
164
100
AcDbEntity
8
2
62
256
6
ByLayer
370
-1
48
1
60
0
100
AcDbLine
10
0
20
-54.15
30
0
11
110
21
-54.15
31
0
39
0
210
0
220
0
230
1
0
LINE
5
165
100
AcDbEntity
8
2
62
256
6
ByLayer
370
-1
48
1
60
0
100
AcDbLine
10
0
20
-54.15
30
0
11
3.174998
21
-53.732003
31
0
39
0
210
0
220
0
230
1
0
LINE
5
166
100
AcDbEntity
8
2
62
256
6
ByLayer
370
-1
48
1
60
0
100
AcDbLine
10
0
20
-54.15
30
0
11
3.175002
21
-54.567997
31
0
39
0
210
0
220
0
230
1
0
LINE
5
167
100
AcDbEntity
8
2
62
256
6
ByLayer
370
-1
48
1
60
0
100
AcDbLine
10
3.174998
20
-53.732003
30
0
11
3.175002
21
-54.567997
31
0
39
0
210
0
220
0
230
1
0
LINE
5
168
100
AcDbEntity
8
2
62
256
6
ByLayer
370
-1
48
1
60
0
100
AcDbLine
10
110
20
-54.15
30
0
11
106.825002
21
-54.567997
31
0
39
0
210
0
220
0
230
1
0
LINE
5
169
100
AcDbEntity
8
2
62
256
6
ByLayer
370
-1
48
1
60
0
100
AcDbLine
10
110
20
-54.15
30
0
11
106.824998
21
-53.732003
31
0
39
0
210
0
220
0
230
1
0
LINE
5
16A
100
AcDbEntity
8
2
62
256
6
ByLayer
370
-1
48
1
60
0
100
AcDbLine
10
106.825002
20
-54.567997
30
0
11
106.824998
21
-53.732003
31
0
39
0
210
0
220
0
230
1
0
ENDBLK
5
16C
100
AcDbEntity
8
0
100
AcDbBlockEnd
0
BLOCK
5
179
100
AcDbEntity
8
0
100
AcDbBlockBegin
2
DimnDraft3D5
70
0
10
0
20
0
30
0
3
DimnDraft3D5
0
MTEXT
5
16F
100
AcDbEntity
8
2
62
256
6
ByLayer
370
-1
48
1
60
0
100
AcDbMText
10
62.474342
20
-38.025
30
0
210
0
220
0
230
1
1
\W01.000;\fsimplex.shx,bigfont.shx;88.1 
40
4.5
41
0
44
1.084337
50
0
71
7
72
5
7
DEFAULT
0
LINE
5
170
100
AcDbEntity
8
2
62
256
6
ByLayer
370
-1
48
1
60
0
100
AcDbLine
10
21.9
20
-18
30
0
11
21.9
21
-41.15
31
0
39
0
210
0
220
0
230
1
0
LINE
5
171
100
AcDbEntity
8
2
62
256
6
ByLayer
370
-1
48
1
60
0
100
AcDbLine
10
110
20
-23.9
30
0
11
110
21
-41.15
31
0
39
0
210
0
220
0
230
1
0
LINE
5
172
100
AcDbEntity
8
2
62
256
6
ByLayer
370
-1
48
1
60
0
100
AcDbLine
10
21.9
20
-39.15
30
0
11
110
21
-39.15
31
0
39
0
210
0
220
0
230
1
0
LINE
5
173
100
AcDbEntity
8
2
62
256
6
ByLayer
370
-1
48
1
60
0
100
AcDbLine
10
21.9
20
-39.15
30
0
11
25.074998
21
-38.732003
31
0
39
0
210
0
220
0
230
1
0
LINE
5
174
100
AcDbEntity
8
2
62
256
6
ByLayer
370
-1
48
1
60
0
100
AcDbLine
10
21.9
20
-39.15
30
0
11
25.075002
21
-39.567997
31
0
39
0
210
0
220
0
230
1
0
LINE
5
175
100
AcDbEntity
8
2
62
256
6
ByLayer
370
-1
48
1
60
0
100
AcDbLine
10
25.074998
20
-38.732003
30
0
11
25.075002
21
-39.567997
31
0
39
0
210
0
220
0
230
1
0
LINE
5
176
100
AcDbEntity
8
2
62
256
6
ByLayer
370
-1
48
1
60
0
100
AcDbLine
10
110
20
-39.15
30
0
11
106.825002
21
-39.567997
31
0
39
0
210
0
220
0
230
1
0
LINE
5
177
100
AcDbEntity
8
2
62
256
6
ByLayer
370
-1
48
1
60
0
100
AcDbLine
10
110
20
-39.15
30
0
11
106.824998
21
-38.732003
31
0
39
0
210
0
220
0
230
1
0
LINE
5
178
100
AcDbEntity
8
2
62
256
6
ByLayer
370
-1
48
1
60
0
100
AcDbLine
10
106.825002
20
-39.567997
30
0
11
106.824998
21
-38.732003
31
0
39
0
210
0
220
0
230
1
0
ENDBLK
5
17A
100
AcDbEntity
8
0
100
AcDbBlockEnd
0
BLOCK
5
187
100
AcDbEntity
8
0
100
AcDbBlockBegin
2
DimnDraft3D6
70
0
10
0
20
0
30
0
3
DimnDraft3D6
0
MTEXT
5
17D
100
AcDbEntity
8
2
62
256
6
ByLayer
370
-1
48
1
60
0
100
AcDbMText
10
131.928132
20
31.938034
30
0
210
0
220
0
230
1
1
\W01.000;\fsimplex.shx,bigfont.shx;93%%d0' 
40
4.5
41
0
44
1.084337
50
316.5
71
7
72
5
7
DEFAULT
0
LINE
5
17E
100
AcDbEntity
8
2
62
256
6
ByLayer
370
-1
48
1
60
0
100
AcDbLine
10
109.319633
20
-8.917816
30
0
11
106.762683
21
39.871689
31
0
39
0
210
0
220
0
230
1
0
LINE
5
17F
100
AcDbEntity
8
2
62
256
6
ByLayer
370
-1
48
1
60
0
100
AcDbLine
10
112
20
0
30
0
11
148.778676
21
0
31
0
39
0
210
0
220
0
230
1
0
ARC
5
180
100
AcDbEntity
8
2
62
256
6
ByLayer
370
-1
48
1
60
0
100
AcDbCircle
39
0
10
108.85227
20
0
30
0
40
37.9264068640928
210
0
220
0
230
1
100
AcDbArc
50
0
51
93
0
LINE
5
181
100
AcDbEntity
8
2
62
256
6
ByLayer
370
-1
48
1
60
0
100
AcDbLine
10
106.867355
20
37.87443
30
0
11
110.027643
21
38.392036
31
0
39
0
210
0
220
0
230
1
0
LINE
5
182
100
AcDbEntity
8
2
62
256
6
ByLayer
370
-1
48
1
60
0
100
AcDbLine
10
106.867355
20
37.87443
30
0
11
110.053928
21
37.556456
31
0
39
0
210
0
220
0
230
1
0
LINE
5
183
100
AcDbEntity
8
2
62
256
6
ByLayer
370
-1
48
1
60
0
100
AcDbLine
10
110.027643
20
38.392036
30
0
11
110.053928
21
37.556456
31
0
39
0
210
0
220
0
230
1
0
LINE
5
184
100
AcDbEntity
8
2
62
256
6
ByLayer
370
-1
48
1
60
0
100
AcDbLine
10
146.778676
20
0
30
0
11
146.294366
21
3.165562
31
0
39
0
210
0
220
0
230
1
0
LINE
5
185
100
AcDbEntity
8
2
62
256
6
ByLayer
370
-1
48
1
60
0
100
AcDbLine
10
146.778676
20
0
30
0
11
147.130177
21
3.183049
31
0
39
0
210
0
220
0
230
1
0
LINE
5
186
100
AcDbEntity
8
2
62
256
6
ByLayer
370
-1
48
1
60
0
100
AcDbLine
10
146.294366
20
3.165562
30
0
11
147.130177
21
3.183049
31
0
39
0
210
0
220
0
230
1
0
ENDBLK
5
188
100
AcDbEntity
8
0
100
AcDbBlockEnd
0
ENDSEC
0
SECTION
2
ENTITIES
0
ARC
5
91
100
AcDbEntity
8
SK1
62
256
6
ByLayer
370
-1
48
1
60
0
100
AcDbCircle
39
0
10
0.6
20
18.75
30
0
40
1
210
0
220
0
230
-1
100
AcDbArc
50
233.130102
51
246.421822
0
ARC
5
92
100
AcDbEntity
8
SK1
62
256
6
ByLayer
370
-1
48
1
60
0
100
AcDbCircle
39
0
10
0.6
20
-18.75
30
0
40
1
210
0
220
0
230
-1
100
AcDbArc
50
113.578178
51
126.869898
0
ARC
5
93
100
AcDbEntity
8
1
62
256
6
ByLayer
370
-1
48
1
60
0
100
AcDbCircle
39
0
10
-26.50967
20
-22
30
0
40
6
210
0
220
0
230
-1
100
AcDbArc
50
14.931417
51
90
0
ARC
5
94
100
AcDbEntity
8
1
62
256
6
ByLayer
370
-1
48
1
60
0
100
AcDbCircle
39
0
10
-26.50967
20
22
30
0
40
6
210
0
220
0
230
-1
100
AcDbArc
50
270
51
345.068583
0
ELLIPSE
5
95
100
AcDbEntity
8
1
62
256
6
ByLayer
370
-1
48
1
60
0
100
AcDbEllipse
10
100.653191
20
-6.929257
30
0
11
-1.62277299397618
21
-0.0850459288947803
31
0
210
0
220
0
230
1
40
0.991306
41
0.190355609290303
42
0.959931088596878
0
ELLIPSE
5
96
100
AcDbEntity
8
1
62
256
6
ByLayer
370
-1
48
1
60
0
100
AcDbEllipse
10
112.835972
20
-12.772386
30
0
11
-4.19424404596919
21
-0.219811016220353
31
0
210
0
220
0
230
1
40
0.991306
41
-0.598484333631433
42
-0.532681598706801
0
ELLIPSE
5
97
100
AcDbEntity
8
1
62
256
6
ByLayer
370
-1
48
1
60
0
100
AcDbEllipse
10
100.132547
20
-4.977963
30
0
11
1.49794430213186
21
0.0785039343644126
31
0
210
0
220
0
230
1
40
0.991306
41
-2.27270539834229
42
-1.91826326833603
0
ELLIPSE
5
98
100
AcDbEntity
8
1
62
256
6
ByLayer
370
-1
48
1
60
0
100
AcDbEllipse
10
100.132547
20
-4.977963
30
0
11
1.49794430213186
21
0.0785039343644126
31
0
210
0
220
0
230
1
40
0.991306
41
-0.55313396842386
42
-0.455636651382867
0
ELLIPSE
5
99
100
AcDbEntity
8
1
62
256
6
ByLayer
370
-1
48
1
60
0
100
AcDbEllipse
10
-1.056258
20
0
30
0
11
11.7092723497276
21
-24.6771864409378
31
0
210
0
220
0
230
-1
40
0.341999
41
-1.08183270048927
42
-0.167213071908978
0
ELLIPSE
5
9A
100
AcDbEntity
8
1
62
256
6
ByLayer
370
-1
48
1
60
0
100
AcDbEllipse
10
470.26176
20
0.019682
30
0
11
2324.91044391158
21
2.10689504700941
31
0
210
0
220
0
230
-1
40
0.006831
41
1.73107979193584
42
1.73271820256343
0
ELLIPSE
5
9B
100
AcDbEntity
8
1
62
256
6
ByLayer
370
-1
48
1
60
0
100
AcDbEllipse
10
100.133911
20
-20.193563
30
0
11
-4.19424404596923
21
-0.219811016220355
31
0
210
0
220
0
230
1
40
0.991306
41
-1.63764179744346
42
-1.4453693081908
0
ELLIPSE
5
9C
100
AcDbEntity
8
1
62
256
6
ByLayer
370
-1
48
1
60
0
100
AcDbEllipse
10
21.056258
20
0
30
0
11
11.7092723497262
21
-24.6771864409362
31
0
210
0
220
0
230
-1
40
0.341999
41
2.05975995310048
42
2.9743795816808
0
ELLIPSE
5
9D
100
AcDbEntity
8
1
62
256
6
ByLayer
370
-1
48
1
60
0
100
AcDbEllipse
10
-1.056258
20
0
30
0
11
11.709272349728
21
24.6771864409383
31
0
210
0
220
0
230
-1
40
0.341999
41
0.167213071908973
42
1.08183270048925
0
ELLIPSE
5
9E
100
AcDbEntity
8
1
62
256
6
ByLayer
370
-1
48
1
60
0
100
AcDbEllipse
10
21.056258
20
0
30
0
11
11.7092723497262
21
24.6771864409363
31
0
210
0
220
0
230
-1
40
0.341999
41
-2.97437958168081
42
-2.05975995310048
0
ELLIPSE
5
9F
100
AcDbEntity
8
1
62
256
6
ByLayer
370
-1
48
1
60
0
100
AcDbEllipse
10
100.128071
20
-4.892555
30
0
11
1.49794430213186
21
0.0785039343644126
31
0
210
0
220
0
230
1
40
0.991306
41
-2.80799486851016
42
-1.90959777686842
0
ELLIPSE
5
A0
100
AcDbEntity
8
1
62
256
6
ByLayer
370
-1
48
1
60
0
100
AcDbEllipse
10
100.128071
20
-4.892555
30
0
11
1.49794430213186
21
0.0785039343644126
31
0
210
0
220
0
230
1
40
0.991306
41
-0.600240657675354
42
-0.333499867873815
0
ELLIPSE
5
A1
100
AcDbEntity
8
1
62
256
6
ByLayer
370
-1
48
1
60
0
100
AcDbEllipse
10
100.179029
20
-5.864898
30
0
11
-1.49794430213186
21
-0.0785039343644126
31
0
210
0
220
0
230
1
40
0.991306
41
2.84659733752789
42
0.708245919926559
0
ELLIPSE
5
A2
100
AcDbEntity
8
1
62
256
6
ByLayer
370
-1
48
1
60
0
100
AcDbEllipse
10
100.685093
20
-7.537974
30
0
11
-1.62277299397618
21
-0.0850459288947803
31
0
210
0
220
0
230
1
40
0.991306
41
-0.548856081328371
42
0.959931088596878
0
ELLIPSE
5
A3
100
AcDbEntity
8
1
62
256
6
ByLayer
370
-1
48
1
60
0
100
AcDbEllipse
10
100.699674
20
-7.816193
30
0
11
1.85746201842602
21
0.0973454594882989
31
0
210
0
220
0
230
1
40
0.991306
41
2.56280474161286
42
-2.1816615649929
0
ELLIPSE
5
A4
100
AcDbEntity
8
1
62
256
6
ByLayer
370
-1
48
1
60
0
100
AcDbEllipse
10
100.488851
20
-6.434493
30
0
11
0.792911850595119
21
0.0415547492568951
31
0
210
0
220
0
230
1
40
0.991306
41
0.959931088596822
42
3.14159265358966
0
ELLIPSE
5
A5
100
AcDbEntity
8
1
62
256
6
ByLayer
370
-1
48
1
60
0
100
AcDbEllipse
10
100.991541
20
-16.02638
30
0
11
0.792911850595143
21
0.0415547492568963
31
0
210
0
220
0
230
1
40
0.991306
41
-3.14159265358978
42
-2.18166156499293
0
ELLIPSE
5
A6
100
AcDbEntity
8
1
62
256
6
ByLayer
370
-1
48
1
60
0
100
AcDbEllipse
10
104.847423
20
-13.773581
30
0
11
3.0671162035353
21
0.160740749030311
31
0
210
0
220
0
230
1
40
0.991306
41
0
42
6.28318530717959
0
ELLIPSE
5
A7
100
AcDbEntity
8
1
62
256
6
ByLayer
370
-1
48
1
60
0
100
AcDbEllipse
10
109.205994
20
-21.112669
30
0
11
0.792911850595119
21
0.0415547492568951
31
0
210
0
220
0
230
1
40
0.991306
41
-2.18166156499286
42
3.61095401587709E-14
0
ELLIPSE
5
A8
100
AcDbEntity
8
1
62
256
6
ByLayer
370
-1
48
1
60
0
100
AcDbEllipse
10
104.839342
20
-13.619398
30
0
11
2.94083001014413
21
0.154122370080571
31
0
210
0
220
0
230
1
40
0.991306
41
3.08877446459218
42
0
0
ELLIPSE
5
A9
100
AcDbEntity
8
1
62
256
6
ByLayer
370
-1
48
1
60
0
100
AcDbEllipse
10
104.839342
20
-13.619398
30
0
11
2.94083001014413
21
0.154122370080571
31
0
210
0
220
0
230
1
40
0.991306
41
0
42
0.932169381558993
0
ELLIPSE
5
AA
100
AcDbEntity
8
1
62
256
6
ByLayer
370
-1
48
1
60
0
100
AcDbEllipse
10
104.839342
20
-13.619398
30
0
11
2.94083001014413
21
0.154122370080571
31
0
210
0
220
0
230
1
40
0.991306
41
2.20932467289956
42
3.08877412204842
0
ELLIPSE
5
AB
100
AcDbEntity
8
1
62
256
6
ByLayer
370
-1
48
1
60
0
100
AcDbEllipse
10
100.461513
20
-5.912852
30
0
11
0.30612518354521
21
0.0160433410522172
31
0
210
0
220
0
230
1
40
0.991306
41
1.18123433986741
42
1.96039327801579
0
ELLIPSE
5
AC
100
AcDbEntity
8
1
62
256
6
ByLayer
370
-1
48
1
60
0
100
AcDbEllipse
10
104.840399
20
-13.639558
30
0
11
2.99588860426372
21
0.157007868728825
31
0
210
0
220
0
230
1
40
0.991306
41
3.08877437438921
42
0
0
ELLIPSE
5
AD
100
AcDbEntity
8
1
62
256
6
ByLayer
370
-1
48
1
60
0
100
AcDbEllipse
10
104.840399
20
-13.639558
30
0
11
2.99588860426372
21
0.157007868728825
31
0
210
0
220
0
230
1
40
0.991306
41
0
42
0.535739414883096
0
ELLIPSE
5
AE
100
AcDbEntity
8
1
62
256
6
ByLayer
370
-1
48
1
60
0
100
AcDbEllipse
10
104.840399
20
-13.639558
30
0
11
2.99588860426372
21
0.157007868728825
31
0
210
0
220
0
230
1
40
0.991306
41
2.60575442846797
42
3.08877437438921
0
ELLIPSE
5
AF
100
AcDbEntity
8
1
62
256
6
ByLayer
370
-1
48
1
60
0
100
AcDbEllipse
10
108.703305
20
-11.520783
30
0
11
0.792911850595143
21
0.0415547492568963
31
0
210
0
220
0
230
1
40
0.991306
41
0
42
0.959931088596756
0
ELLIPSE
5
B0
100
AcDbEntity
8
1
62
256
6
ByLayer
370
-1
48
1
60
0
100
AcDbEllipse
10
104.836438
20
-13.563982
30
0
11
-1.20484653368139
21
-0.0631433312071086
31
0
210
0
220
0
230
1
40
0.991306
41
2.57296537285096
42
-2.90890896936038
0
ELLIPSE
5
B1
100
AcDbEntity
8
1
62
256
6
ByLayer
370
-1
48
1
60
0
100
AcDbEllipse
10
104.836438
20
-13.563982
30
0
11
1.20484653368139
21
0.0631433312071091
31
0
210
0
220
0
230
1
40
0.991306
41
-2.73065974270344
42
-2.59259447587928
0
ELLIPSE
5
B2
100
AcDbEntity
8
1
62
256
6
ByLayer
370
-1
48
1
60
0
100
AcDbEllipse
10
104.844382
20
-13.715566
30
0
11
1.20484653368139
21
0.063143331207109
31
0
210
0
220
0
230
1
40
0.991306
41
-2.73065974270344
42
-2.59259447587927
0
ELLIPSE
5
B3
100
AcDbEntity
8
1
62
256
6
ByLayer
370
-1
48
1
60
0
100
AcDbEllipse
10
104.83661
20
-13.567267
30
0
11
2.62140252873075
21
0.137381885137722
31
0
210
0
220
0
230
1
40
0.991306
41
3.08877456653118
42
-3.14149435575458
0
ELLIPSE
5
B4
100
AcDbEntity
8
1
62
256
6
ByLayer
370
-1
48
1
60
0
100
AcDbEllipse
10
104.83661
20
-13.567267
30
0
11
2.62140252873075
21
0.137381885137722
31
0
210
0
220
0
230
1
40
0.991306
41
0
42
3.08877434479511
0
ELLIPSE
5
B5
100
AcDbEntity
8
1
62
256
6
ByLayer
370
-1
48
1
60
0
100
AcDbEllipse
10
104.836438
20
-13.563982
30
0
11
1.20484653368139
21
0.0631433312071091
31
0
210
0
220
0
230
1
40
0.991306
41
-1.61303428425406
42
-0.568627280738835
0
ELLIPSE
5
B6
100
AcDbEntity
8
1
62
256
6
ByLayer
370
-1
48
1
60
0
100
AcDbEllipse
10
103.451992
20
-13.572758
30
0
11
-0.291599824148336
21
-0.0152820992229389
31
0
210
0
220
0
230
1
40
0.991306
41
0.317583549611803
42
1.27122687921963
0
ELLIPSE
5
B7
100
AcDbEntity
8
1
62
256
6
ByLayer
370
-1
48
1
60
0
100
AcDbEllipse
10
104.846251
20
-13.751221
30
0
11
1.79753316255823
21
0.0942047212372948
31
0
210
0
220
0
230
1
40
0.991306
41
0
42
6.28318530717959
0
ELLIPSE
5
B8
100
AcDbEntity
8
1
62
256
6
ByLayer
370
-1
48
1
60
0
100
AcDbEllipse
10
104.836438
20
-13.563982
30
0
11
-1.20484653368139
21
-0.0631433312071086
31
0
210
0
220
0
230
1
40
0.991306
41
-1.32218353804422
42
-0.681505059644041
0
ELLIPSE
5
B9
100
AcDbEntity
8
1
62
256
6
ByLayer
370
-1
48
1
60
0
100
AcDbEllipse
10
103.212251
20
-14.512913
30
0
11
-0.685059860841638
21
-0.0359024659826581
31
0
210
0
220
0
230
1
40
0.991306
41
-2.54001306807413
42
-1.87036577437012
0
ELLIPSE
5
BA
100
AcDbEntity
8
1
62
256
6
ByLayer
370
-1
48
1
60
0
100
AcDbEllipse
10
106.220885
20
-13.555205
30
0
11
-0.291599824148336
21
-0.0152820992229389
31
0
210
0
220
0
230
1
40
0.991306
41
1.78897472923006
42
2.79722698167896
0
ELLIPSE
5
BB
100
AcDbEntity
8
1
62
256
6
ByLayer
370
-1
48
1
60
0
100
AcDbEllipse
10
104.836438
20
-13.563982
30
0
11
-1.20484653368139
21
-0.0631433312071086
31
0
210
0
220
0
230
1
40
0.991306
41
0.54899817771052
42
1.52855836933572
0
ELLIPSE
5
BC
100
AcDbEntity
8
1
62
256
6
ByLayer
370
-1
48
1
60
0
100
AcDbEllipse
10
104.844354
20
-13.715029
30
0
11
2.62140252873075
21
0.137381885137722
31
0
210
0
220
0
230
1
40
0.991306
41
0
42
6.28318530717959
0
ELLIPSE
5
BD
100
AcDbEntity
8
1
62
256
6
ByLayer
370
-1
48
1
60
0
100
AcDbEllipse
10
104.846251
20
-13.751221
30
0
11
1.67420241501604
21
0.0877412306412919
31
0
210
0
220
0
230
1
40
0.991306
41
-2.13523778601168
42
-1.09083078249644
0
ELLIPSE
5
BE
100
AcDbEntity
8
1
62
256
6
ByLayer
370
-1
48
1
60
0
100
AcDbEllipse
10
104.846251
20
-13.751221
30
0
11
1.67420241501604
21
0.0877412306412919
31
0
210
0
220
0
230
1
40
0.991306
41
-0.0464237789812131
42
1.00635486757808
0
ELLIPSE
5
BF
100
AcDbEntity
8
1
62
256
6
ByLayer
370
-1
48
1
60
0
100
AcDbEllipse
10
104.846251
20
-13.751221
30
0
11
1.67420241501604
21
0.0877412306412919
31
0
210
0
220
0
230
1
40
0.991306
41
2.05076187109331
42
3.09516887460859
0
ELLIPSE
5
C0
100
AcDbEntity
8
1
62
256
6
ByLayer
370
-1
48
1
60
0
100
AcDbEllipse
10
104.157511
20
-14.760731
30
0
11
-0.291599824148336
21
-0.0152820992229389
31
0
210
0
220
0
230
1
40
0.991306
41
0.304281854755826
42
2.31254901295651
0
ELLIPSE
5
C1
100
AcDbEntity
8
1
62
256
6
ByLayer
370
-1
48
1
60
0
100
AcDbEllipse
10
104.844382
20
-13.715566
30
0
11
1.20484653368139
21
0.063143331207109
31
0
210
0
220
0
230
1
40
0.991306
41
0.410932910886639
42
0.548998177710206
0
ELLIPSE
5
C2
100
AcDbEntity
8
1
62
256
6
ByLayer
370
-1
48
1
60
0
100
AcDbEllipse
10
104.846251
20
-13.751221
30
0
11
1.67420241501604
21
0.0877412306412919
31
0
210
0
220
0
230
1
40
0.991306
41
3.09516887460859
42
-2.13523778601168
0
ELLIPSE
5
C3
100
AcDbEntity
8
1
62
256
6
ByLayer
370
-1
48
1
60
0
100
AcDbEllipse
10
106.460626
20
-12.61505
30
0
11
-0.685059860841638
21
-0.0359024659826581
31
0
210
0
220
0
230
1
40
0.991306
41
-0.311295790622775
42
6.77290883555604E-06
0
ELLIPSE
5
C4
100
AcDbEntity
8
1
62
256
6
ByLayer
370
-1
48
1
60
0
100
AcDbEllipse
10
104.836438
20
-13.563982
30
0
11
-1.20484653368139
21
-0.0631433312071086
31
0
210
0
220
0
230
1
40
0.991306
41
-0.305982706885609
42
0.410932910886352
0
ELLIPSE
5
C5
100
AcDbEntity
8
1
62
256
6
ByLayer
370
-1
48
1
60
0
100
AcDbEllipse
10
104.854733
20
-15.439969
30
0
11
-0.685059860841638
21
-0.0359024659826581
31
0
210
0
220
0
230
1
40
0.991306
41
-1.61303428425403
42
-0.829043640633267
0
ELLIPSE
5
C6
100
AcDbEntity
8
1
62
256
6
ByLayer
370
-1
48
1
60
0
100
AcDbEllipse
10
104.854733
20
-15.439969
30
0
11
-0.685059860841638
21
-0.0359024659826581
31
0
210
0
220
0
230
1
40
0.991306
41
-2.39702492787488
42
-1.61303428425403
0
ELLIPSE
5
C7
100
AcDbEntity
8
1
62
256
6
ByLayer
370
-1
48
1
60
0
100
AcDbEllipse
10
104.836438
20
-13.563982
30
0
11
-1.20484653368139
21
-0.0631433312071086
31
0
210
0
220
0
230
1
40
0.991306
41
-2.54223875446129
42
-1.90563151511942
0
ELLIPSE
5
C8
100
AcDbEntity
8
1
62
256
6
ByLayer
370
-1
48
1
60
0
100
AcDbEllipse
10
106.481821
20
-14.489343
30
0
11
-0.685059860841638
21
-0.0359024659826581
31
0
210
0
220
0
230
1
40
0.991306
41
-0.568627280738826
42
-1.21114763685967E-06
0
ELLIPSE
5
C9
100
AcDbEntity
8
1
62
256
6
ByLayer
370
-1
48
1
60
0
100
AcDbEllipse
10
103.212251
20
-14.512913
30
0
11
-0.685059860841638
21
-0.0359024659826581
31
0
210
0
220
0
230
1
40
0.991306
41
-3.14158613407339
42
-2.78324115050856
0
ELLIPSE
5
CA
100
AcDbEntity
8
1
62
256
6
ByLayer
370
-1
48
1
60
0
100
AcDbEllipse
10
106.481821
20
-14.489343
30
0
11
-0.685059860841638
21
-0.0359024659826581
31
0
210
0
220
0
230
1
40
0.991306
41
-1.3526179243596
42
-0.568627280738826
0
ELLIPSE
5
CB
100
AcDbEntity
8
1
62
256
6
ByLayer
370
-1
48
1
60
0
100
AcDbEllipse
10
104.846251
20
-13.751221
30
0
11
1.67420241501604
21
0.0877412306412919
31
0
210
0
220
0
230
1
40
0.991306
41
-1.09083078249644
42
-0.0464237789812131
0
ELLIPSE
5
CC
100
AcDbEntity
8
1
62
256
6
ByLayer
370
-1
48
1
60
0
100
AcDbEllipse
10
104.846251
20
-13.751221
30
0
11
1.67420241501604
21
0.0877412306412919
31
0
210
0
220
0
230
1
40
0.991306
41
1.00635486757808
42
2.05076187109331
0
ELLIPSE
5
CD
100
AcDbEntity
8
1
62
256
6
ByLayer
370
-1
48
1
60
0
100
AcDbEllipse
10
105.538566
20
-14.746245
30
0
11
-0.291599824148336
21
-0.0152820992229389
31
0
210
0
220
0
230
1
40
0.991306
41
0.74456772571488
42
2.75912898755162
0
ELLIPSE
5
CE
100
AcDbEntity
8
1
62
256
6
ByLayer
370
-1
48
1
60
0
100
AcDbEllipse
10
100.371037
20
-5.857643
30
0
11
-0.39945181390183
21
-0.0209343824971766
31
0
210
0
220
0
230
1
40
0.991306
41
-2.18166156499295
42
-0.102845918632758
0
ELLIPSE
5
CF
100
AcDbEntity
8
1
62
256
6
ByLayer
370
-1
48
1
60
0
100
AcDbEllipse
10
100.35124
20
-5.47988
30
0
11
-0.39945181390183
21
-0.0209343824971766
31
0
210
0
220
0
230
1
40
0.991306
41
-2.18166156499295
42
2.68790389556841E-14
0
POINT
5
41
100
AcDbEntity
8
80
62
256
6
ByLayer
370
-1
48
1
60
0
100
AcDbPoint
10
0
20
0
30
0
39
0
210
0
220
0
230
1
50
360
0
POINT
5
43
100
AcDbEntity
8
81
62
256
6
ByLayer
370
-1
48
1
60
0
100
AcDbPoint
10
110
20
-21.9
30
0
39
0
210
0
220
0
230
1
50
360
0
POINT
5
45
100
AcDbEntity
8
1
62
256
6
ByLayer
370
-1
48
1
60
0
100
AcDbPoint
10
0
20
0
30
0
39
0
210
0
220
0
230
1
50
360
0
POINT
5
47
100
AcDbEntity
8
2
62
256
6
ByLayer
370
-1
48
1
60
0
100
AcDbPoint
10
110
20
21.9
30
0
39
0
210
0
220
0
230
1
50
360
0
POINT
5
49
100
AcDbEntity
8
2
62
256
6
ByLayer
370
-1
48
1
60
0
100
AcDbPoint
10
109.735612
20
19.916395
30
0
39
0
210
0
220
0
230
1
50
360
0
SPLINE
5
D0
100
AcDbEntity
8
SK1
62
256
6
ByLayer
370
-1
48
1
60
0
100
AcDbSpline
70
4
71
2
72
6
73
3
40
0
40
0
40
0
40
1
40
1
40
1
41
1
10
-2.19492113517947
20
17.5202263833491
30
0
41
1
10
-2.59746056758974
20
17.5101131916847
30
0
41
1
10
-3
20
17.5000000000204
30
0
0
SPLINE
5
D1
100
AcDbEntity
8
SK1
62
256
6
ByLayer
370
-1
48
1
60
0
100
AcDbSpline
70
4
71
2
72
6
73
3
40
0
40
0
40
0
40
1
40
1
40
1
41
1
10
-3
20
-17.5000000000527
30
0
41
1
10
-2.59746056758974
20
-17.510113191717
30
0
41
1
10
-2.19492113517947
20
-17.5202263833814
30
0
0
SPLINE
5
D2
100
AcDbEntity
8
SK1
62
256
6
ByLayer
370
-1
48
1
60
0
100
AcDbSpline
70
4
71
2
72
6
73
3
40
0
40
0
40
0
40
1
40
1
40
1
41
1
10
-3
20
17.5000000000204
30
0
41
1
10
-15.7502365839532
20
17.1796696771814
30
0
41
1
10
-28.5004731679065
20
16.8593393543424
30
0
0
SPLINE
5
D3
100
AcDbEntity
8
SK1
62
256
6
ByLayer
370
-1
48
1
60
0
100
AcDbSpline
70
4
71
2
72
6
73
3
40
0
40
0
40
0
40
1
40
1
40
1
41
1
10
-28.5004731679065
20
-16.8593393543735
30
0
41
1
10
-15.7502365839533
20
-17.1796696772131
30
0
41
1
10
-3
20
-17.5000000000527
30
0
0
SPLINE
5
D4
100
AcDbEntity
8
SK1
62
256
6
ByLayer
370
-1
48
1
60
0
100
AcDbSpline
70
4
71
2
72
6
73
3
40
0
40
0
40
0
40
1
40
1
40
1
41
1
10
-30
20
-15.9423013487186
30
0
41
1
10
-29.2501952787077
20
-16.4010253845871
30
0
41
1
10
-28.5003904504266
20
-16.8597456617469
30
0
0
SPLINE
5
D5
100
AcDbEntity
8
SK1
62
256
6
ByLayer
370
-1
48
1
60
0
100
AcDbSpline
70
4
71
2
72
6
73
3
40
0
40
0
40
0
40
1
40
1
40
1
41
1
10
-28.5004032853135
20
16.8579102610954
30
0
41
1
10
-29.250201613525
20
16.3993636736336
30
0
41
1
10
-30
20
15.9408160639395
30
0
0
SPLINE
5
D6
100
AcDbEntity
8
SK1
62
256
6
ByLayer
370
-1
48
1
60
0
100
AcDbSpline
70
4
71
2
72
6
73
3
40
0
40
0
40
0
40
1
40
1
40
1
41
1
10
-0.400000000000006
20
17.3251501414068
30
0
41
1
10
-1.20000000000002
20
17.3251501414068
30
0
41
1
10
-2
20
17.3251501414068
30
0
0
SPLINE
5
D7
100
AcDbEntity
8
SK1
62
256
6
ByLayer
370
-1
48
1
60
0
100
AcDbSpline
70
4
71
2
72
6
73
3
40
0
40
0
40
0
40
1
40
1
40
1
41
1
10
-2
20
-17.3251501409626
30
0
41
1
10
-1.20000000000002
20
-17.3251501409626
30
0
41
1
10
-0.400000000000006
20
-17.3251501409626
30
0
0
SPLINE
5
D8
100
AcDbEntity
8
SK1
62
256
6
ByLayer
370
-1
48
1
60
0
100
AcDbSpline
70
4
71
3
72
11
73
7
40
0
40
0
40
0
40
0
40
0.243046129741601
40
0.498205801788989
40
0.754244992255907
40
1
40
1
40
1
40
1
41
1
10
-0.400000000000006
20
-17.3241476526065
30
0
41
1
10
-0.373991067023667
20
-17.3239685556465
30
0
41
1
10
-0.3244207367608
20
-17.33275982811
30
0
41
1
10
-0.254178184246655
20
-17.3766360753193
30
0
41
1
10
-0.20935024226452
20
-17.445622853432
30
0
41
1
10
-0.199994647676391
20
-17.493844966999
30
0
41
1
10
-0.200000000000017
20
-17.5191731511753
30
0
0
SPLINE
5
D9
100
AcDbEntity
8
SK1
62
256
6
ByLayer
370
-1
48
1
60
0
100
AcDbSpline
70
4
71
3
72
11
73
7
40
0
40
0
40
0
40
0
40
0.245757530295202
40
0.501795331807361
40
0.756953049144814
40
1
40
1
40
1
40
1
41
1
10
-0.200000000000017
20
17.5191688355708
30
0
41
1
10
-0.199994500672233
20
17.4938412312526
30
0
41
1
10
-0.209350044376066
20
17.4456203921356
30
0
41
1
10
-0.254178044541106
20
17.3766339294131
30
0
41
1
10
-0.324421202647557
20
17.332758304075
30
0
41
1
10
-0.373991174653753
20
17.323967489369
30
0
41
1
10
-0.400000000000006
20
17.3241468641747
30
0
0
SPLINE
5
DA
100
AcDbEntity
8
1
62
256
6
ByLayer
370
-1
48
1
60
0
100
AcDbSpline
70
4
71
3
72
16
73
12
40
0
40
0
40
0
40
0
40
0.0773436766578803
40
0.0773436766578803
40
0.181588290672623
40
0.181588290672623
40
0.353924998170025
40
0.353924998170025
40
0.659870482236126
40
0.659870482236126
40
1
40
1
40
1
40
1
41
1
10
11.4613248654052
20
-7.52966679426498
30
0
41
1
10
11.4806912734381
20
-7.52966679426498
30
0
41
1
10
11.5001920479834
20
-7.53205286469702
30
0
41
1
10
11.5443643455559
20
-7.54265601007381
30
0
41
1
10
11.5688999660418
20
-7.55272636772358
30
0
41
1
10
11.6286300521075
20
-7.58609718460602
30
0
41
1
10
11.66158714279
20
-7.61407037421822
30
0
41
1
10
11.7407360052433
20
-7.69895209889256
30
0
41
1
10
11.7798892743244
20
-7.76300791758413
30
0
41
1
10
11.8468244213921
20
-7.90167589305847
30
0
41
1
10
11.8734747805012
20
-7.97837348437852
30
0
41
1
10
11.8943375672974
20
-8.05584836782771
30
0
0
SPLINE
5
DB
100
AcDbEntity
8
1
62
256
6
ByLayer
370
-1
48
1
60
0
100
AcDbSpline
70
4
71
3
72
16
73
12
40
0
40
0
40
0
40
0
40
0.077343676657827
40
0.077343676657827
40
0.181588290672556
40
0.181588290672556
40
0.353924998169922
40
0.353924998169922
40
0.659870482235914
40
0.659870482235914
40
1
40
1
40
1
40
1
41
1
10
8.53867513459483
20
-23.8391299750503
30
0
41
1
10
8.51930872656192
20
-23.8391299750503
30
0
41
1
10
8.49980795201657
20
-23.8383766644784
30
0
41
1
10
8.45563565444411
20
-23.8350242537625
30
0
41
1
10
8.43110003395827
20
-23.8318379431383
30
0
41
1
10
8.37136994789256
20
-23.8212426939765
30
0
41
1
10
8.33841285720996
20
-23.812328084785
30
0
41
1
10
8.25926399475679
20
-23.7850663392819
30
0
41
1
10
8.22011072567562
20
-23.7642694363116
30
0
41
1
10
8.15317557860794
20
-23.7185457490814
30
0
41
1
10
8.12652521949877
20
-23.692873493267
30
0
41
1
10
8.10566243270262
20
-23.6665017920809
30
0
0
SPLINE
5
DC
100
AcDbEntity
8
1
62
256
6
ByLayer
370
-1
48
1
60
0
100
AcDbSpline
70
4
71
3
72
34
73
30
40
-0.125000000000003
40
-0.125000000000003
40
0
40
0
40
0.124999999999996
40
0.124999999999996
40
0.187499999999994
40
0.187499999999994
40
0.218749999999994
40
0.218749999999994
40
0.249999999999994
40
0.249999999999994
40
0.312499999999993
40
0.312499999999993
40
0.374999999999992
40
0.374999999999992
40
0.499999999999992
40
0.499999999999992
40
0.624999999999992
40
0.624999999999992
40
0.687499999999991
40
0.687499999999991
40
0.703124999999992
40
0.703124999999992
40
0.718749999999993
40
0.718749999999993
40
0.749999999999994
40
0.749999999999994
40
0.874999999999997
40
0.874999999999997
40
1
40
1
40
1.125
40
1.125
41
1
10
86.2022873635609
20
-8.7034316370075
30
0
41
1
10
84.0322218183576
20
-7.66881064466494
30
0
41
1
10
82.9344723376141
20
-7.23746428461661
30
0
41
1
10
81.1737661484396
20
-6.99129882249281
30
0
41
1
10
80.554905708296
20
-6.96018583723745
30
0
41
1
10
79.7028944827014
20
-7.31867022966736
30
0
41
1
10
79.4303339872779
20
-7.54305182235819
30
0
41
1
10
79.2213543300699
20
-8.14491888119903
30
0
41
1
10
79.2807902201242
20
-8.47135269968555
30
0
41
1
10
79.6263376156317
20
-9.30188339879589
30
0
41
1
10
80.049338108964
20
-9.72999654435608
30
0
41
1
10
80.9412778627999
20
-10.4767366123876
30
0
41
1
10
81.4358099352143
20
-10.7951901682568
30
0
41
1
10
82.9892061268644
20
-11.6546659999098
30
0
41
1
10
84.097119581557
20
-12.0920596964108
30
0
41
1
10
86.4023884669207
20
-12.8343990871514
30
0
41
1
10
87.6046610807256
20
-13.1420925780264
30
0
41
1
10
89.4450898877242
20
-13.4498431364686
30
0
41
1
10
90.0720943098528
20
-13.5442247517722
30
0
41
1
10
90.862259567454
20
-13.5030442093229
30
0
41
1
10
91.0215312398961
20
-13.4864283883043
30
0
41
1
10
91.3251582411818
20
-13.3909225712577
30
0
41
1
10
91.4814259239869
20
-13.2903383715876
30
0
41
1
10
91.5533887935912
20
-12.8164002945825
30
0
41
1
10
91.2978037964714
20
-12.5511721730293
30
0
41
1
10
90.2847362626229
20
-11.3787981473999
30
0
41
1
10
89.262556393845
20
-10.6735718688909
30
0
41
1
10
87.2410688581966
20
-9.31270449637742
30
0
41
1
10
86.2022873635609
20
-8.7034316370075
30
0
41
1
10
84.0322218183576
20
-7.66881064466494
30
0
0
SPLINE
5
DD
100
AcDbEntity
8
1
62
256
6
ByLayer
370
-1
48
1
60
0
100
AcDbSpline
70
4
71
3
72
16
73
12
40
0
40
0
40
0
40
0
40
0.0773436766578767
40
0.0773436766578767
40
0.181588290672618
40
0.181588290672618
40
0.353924998170011
40
0.353924998170011
40
0.659870482236094
40
0.659870482236094
40
1
40
1
40
1
40
1
41
1
10
11.4613248654052
20
23.8391299750503
30
0
41
1
10
11.4806912734381
20
23.8391299750503
30
0
41
1
10
11.5001920479834
20
23.8383766644784
30
0
41
1
10
11.5443643455559
20
23.8350242537625
30
0
41
1
10
11.5688999660418
20
23.8318379431383
30
0
41
1
10
11.6286300521075
20
23.8212426939765
30
0
41
1
10
11.66158714279
20
23.812328084785
30
0
41
1
10
11.7407360052433
20
23.7850663392819
30
0
41
1
10
11.7798892743244
20
23.7642694363116
30
0
41
1
10
11.8468244213921
20
23.7185457490814
30
0
41
1
10
11.8734747805012
20
23.692873493267
30
0
41
1
10
11.8943375672974
20
23.6665017920809
30
0
0
SPLINE
5
DE
100
AcDbEntity
8
1
62
256
6
ByLayer
370
-1
48
1
60
0
100
AcDbSpline
70
4
71
3
72
18
73
14
40
0
40
0
40
0
40
0
40
0.0809805960320615
40
0.0809805960320615
40
0.544227292213941
40
0.544227292213941
40
0.699318265621571
40
0.699318265621571
40
0.856346274356429
40
0.856346274356429
40
0.966571999538782
40
0.966571999538782
40
1
40
1
40
1
40
1
41
1
10
11.8943375672974
20
8.05584836782771
30
0
41
1
10
11.8893471011257
20
8.03731605051115
30
0
41
1
10
11.8840209914239
20
8.01885383673363
30
0
41
1
10
11.845998279105
20
7.89611164850155
30
0
41
1
10
11.8022255638175
20
7.79219397274093
30
0
41
1
10
11.7151274219928
20
7.67169814060131
30
0
41
1
10
11.6903249195398
20
7.64266520230271
30
0
41
1
10
11.6339533178058
20
7.59122859579532
30
0
41
1
10
11.6016224931834
20
7.56839473241365
30
0
41
1
10
11.5411042357638
20
7.54154007085771
30
0
41
1
10
11.5139568123411
20
7.53384342094336
30
0
41
1
10
11.4781693033538
20
7.53010833377257
30
0
41
1
10
11.4697409388397
20
7.52966679426501
30
0
41
1
10
11.4613248654052
20
7.52966679426501
30
0
0
SPLINE
5
DF
100
AcDbEntity
8
1
62
256
6
ByLayer
370
-1
48
1
60
0
100
AcDbSpline
70
4
71
3
72
18
73
14
40
0
40
0
40
0
40
0
40
0.0809805960320918
40
0.0809805960320918
40
0.544227292214085
40
0.544227292214085
40
0.699318265621671
40
0.699318265621671
40
0.856346274356483
40
0.856346274356483
40
0.966571999538831
40
0.966571999538831
40
1
40
1
40
1
40
1
41
1
10
8.10566243270262
20
-8.05584836782774
30
0
41
1
10
8.11065289887432
20
-8.03731605051118
30
0
41
1
10
8.11597900857612
20
-8.01885383673363
30
0
41
1
10
8.15400172089505
20
-7.89611164850155
30
0
41
1
10
8.1977744361825
20
-7.7921939727409
30
0
41
1
10
8.28487257800725
20
-7.67169814060125
30
0
41
1
10
8.30967508046024
20
-7.64266520230268
30
0
41
1
10
8.36604668219428
20
-7.59122859579529
30
0
41
1
10
8.3983775068167
20
-7.56839473241365
30
0
41
1
10
8.45889576423616
20
-7.54154007085771
30
0
41
1
10
8.48604318765894
20
-7.53384342094336
30
0
41
1
10
8.52183069664625
20
-7.53010833377257
30
0
41
1
10
8.53025906116034
20
-7.52966679426501
30
0
41
1
10
8.53867513459483
20
-7.52966679426501
30
0
0
SPLINE
5
E0
100
AcDbEntity
8
1
62
256
6
ByLayer
370
-1
48
1
60
0
100
AcDbSpline
70
4
71
3
72
18
73
14
40
0
40
0
40
0
40
0
40
0.0809805960321051
40
0.0809805960321051
40
0.544227292214096
40
0.544227292214096
40
0.69931826562168
40
0.69931826562168
40
0.856346274356486
40
0.856346274356486
40
0.966571999538835
40
0.966571999538835
40
1
40
1
40
1
40
1
41
1
10
11.8943375672974
20
-23.6665017920809
30
0
41
1
10
11.8893471011256
20
-23.672810013698
30
0
41
1
10
11.8840209914239
20
-23.6790700603507
30
0
41
1
10
11.845998279105
20
-23.7205303134149
30
0
41
1
10
11.8022255638174
20
-23.7548029562659
30
0
41
1
10
11.7151274219928
20
-23.7938243006291
30
0
41
1
10
11.6903249195398
20
-23.8031592998669
30
0
41
1
10
11.6339533178057
20
-23.8196134016841
30
0
41
1
10
11.6016224931833
20
-23.8268687494612
30
0
41
1
10
11.5411042357638
20
-23.8353793525422
30
0
41
1
10
11.5139568123411
20
-23.8378105604685
30
0
41
1
10
11.4781693033538
20
-23.8389905264494
30
0
41
1
10
11.4697409388397
20
-23.8391299750503
30
0
41
1
10
11.4613248654052
20
-23.8391299750503
30
0
0
SPLINE
5
E1
100
AcDbEntity
8
1
62
256
6
ByLayer
370
-1
48
1
60
0
100
AcDbSpline
70
4
71
3
72
26
73
22
40
0
40
0
40
0
40
0
40
0.125
40
0.125
40
0.25
40
0.25
40
0.375
40
0.375
40
0.4375
40
0.4375
40
0.5
40
0.5
40
0.5625
40
0.5625
40
0.625
40
0.625
40
0.75
40
0.75
40
0.875
40
0.875
40
1
40
1
40
1
40
1
41
1
10
95.4649695765205
20
-15.9927817901081
30
0
41
1
10
92.1448287882457
20
-15.9920860035602
30
0
41
1
10
88.8837877519867
20
-15.9921031694403
30
0
41
1
10
82.4859391447395
20
-15.8584367407235
30
0
41
1
10
79.3027626394722
20
-15.7310670648967
30
0
41
1
10
73.3878423229926
20
-14.855470998467
30
0
41
1
10
70.6323613181974
20
-14.1282052453128
30
0
41
1
10
67.5290045095742
20
-11.6674849369646
30
0
41
1
10
66.6994026664846
20
-10.6060572363611
30
0
41
1
10
65.6783542915142
20
-8.02784857095239
30
0
41
1
10
65.4899490886017
20
-6.50946299007754
30
0
41
1
10
65.7189950262941
20
-3.35240818883446
30
0
41
1
10
66.1252023733454
20
-1.71470098472301
30
0
41
1
10
67.3559034061425
20
1.41591364444463
30
0
41
1
10
68.1650476136439
20
2.88022366684132
30
0
41
1
10
70.988362283905
20
6.8607269680048
30
0
41
1
10
73.3805763500969
20
8.92508687171835
30
0
41
1
10
78.6286857686914
20
11.961265110859
30
0
41
1
10
81.5453548908195
20
12.9774211096783
30
0
41
1
10
87.5688699797898
20
14.3586024187673
30
0
41
1
10
90.7341959141579
20
14.7484038769947
30
0
41
1
10
93.982998041654
20
14.9894657478068
30
0
0
SPLINE
5
E2
100
AcDbEntity
8
1
62
256
6
ByLayer
370
-1
48
1
60
0
100
AcDbSpline
70
4
71
3
72
16
73
12
40
0
40
0
40
0
40
0
40
0.0773436766578125
40
0.0773436766578125
40
0.181588290672542
40
0.181588290672542
40
0.353924998169895
40
0.353924998169895
40
0.659870482235859
40
0.659870482235859
40
1
40
1
40
1
40
1
41
1
10
8.53867513459483
20
7.52966679426501
30
0
41
1
10
8.51930872656197
20
7.52966679426501
30
0
41
1
10
8.49980795201662
20
7.53205286469702
30
0
41
1
10
8.45563565444411
20
7.54265601007379
30
0
41
1
10
8.43110003395827
20
7.55272636772355
30
0
41
1
10
8.37136994789256
20
7.58609718460599
30
0
41
1
10
8.33841285721002
20
7.61407037421819
30
0
41
1
10
8.25926399475679
20
7.69895209889248
30
0
41
1
10
8.22011072567562
20
7.76300791758402
30
0
41
1
10
8.15317557860794
20
7.90167589305835
30
0
41
1
10
8.12652521949877
20
7.97837348437849
30
0
41
1
10
8.10566243270262
20
8.05584836782774
30
0
0
SPLINE
5
E3
100
AcDbEntity
8
1
62
256
6
ByLayer
370
-1
48
1
60
0
100
AcDbSpline
70
4
71
3
72
8
73
4
40
0
40
0
40
0
40
0
40
1
40
1
40
1
40
1
41
1
10
99.2566859461652
20
-6.77126914089206
30
0
41
1
10
99.1984384807571
20
-6.81651919735609
30
0
41
1
10
99.1433096827161
20
-6.85630934332014
30
0
41
1
10
99.0919573717233
20
-6.89046673557428
30
0
0
SPLINE
5
E4
100
AcDbEntity
8
1
62
256
6
ByLayer
370
-1
48
1
60
0
100
AcDbSpline
70
4
71
3
72
8
73
4
40
0
40
0
40
0
40
0
40
1
40
1
40
1
40
1
41
1
10
99.3119106452382
20
-16.0527758706884
30
0
41
1
10
99.3362478875836
20
-16.0675107770203
30
0
41
1
10
99.3632610091271
20
-16.0818684436938
30
0
41
1
10
99.3930295144675
20
-16.0959437490515
30
0
0
SPLINE
5
E5
100
AcDbEntity
8
1
62
256
6
ByLayer
370
-1
48
1
60
0
100
AcDbSpline
70
4
71
3
72
8
73
4
40
0
40
0
40
0
40
0
40
1
40
1
40
1
40
1
41
1
10
99.2248061605862
20
-15.993548124409
30
0
41
1
10
99.2808791557151
20
-16.0276823481121
30
0
41
1
10
99.3369536165076
20
-16.0618142078914
30
0
41
1
10
99.3930295144675
20
-16.0959437490515
30
0
0
SPLINE
5
E6
100
AcDbEntity
8
1
62
256
6
ByLayer
370
-1
48
1
60
0
100
AcDbSpline
70
4
71
3
72
18
73
14
40
0
40
0
40
0
40
0
40
0.0809805960320801
40
0.0809805960320801
40
0.544227292214068
40
0.544227292214068
40
0.699318265621658
40
0.699318265621658
40
0.856346274356475
40
0.856346274356475
40
0.966571999538822
40
0.966571999538822
40
1
40
1
40
1
40
1
41
1
10
8.10566243270262
20
23.6665017920809
30
0
41
1
10
8.11065289887432
20
23.672810013698
30
0
41
1
10
8.11597900857612
20
23.6790700603507
30
0
41
1
10
8.15400172089505
20
23.7205303134149
30
0
41
1
10
8.1977744361825
20
23.7548029562659
30
0
41
1
10
8.28487257800725
20
23.7938243006291
30
0
41
1
10
8.30967508046024
20
23.8031592998669
30
0
41
1
10
8.36604668219428
20
23.8196134016841
30
0
41
1
10
8.3983775068167
20
23.8268687494612
30
0
41
1
10
8.45889576423616
20
23.8353793525422
30
0
41
1
10
8.48604318765894
20
23.8378105604685
30
0
41
1
10
8.52183069664625
20
23.8389905264494
30
0
41
1
10
8.53025906116034
20
23.8391299750503
30
0
41
1
10
8.53867513459483
20
23.8391299750503
30
0
0
SPLINE
5
E7
100
AcDbEntity
8
SK1
62
256
6
ByLayer
370
-1
48
1
60
0
100
AcDbSpline
70
4
71
3
72
22
73
18
40
0
40
0
40
0
40
0
40
0.352684316750051
40
0.352684316750051
40
0.750046292484899
40
0.750046292484899
40
0.835479263400861
40
0.835479263400861
40
0.86935277413835
40
0.86935277413835
40
0.903637365464604
40
0.903637365464604
40
0.934112944215775
40
0.934112944215775
40
0.983611230456553
40
0.983611230456553
40
1
40
1
40
1
40
1
41
1
10
-1.30710678118655
20
-3.80474436172742
30
0
41
1
10
-1.26637440296074
20
-4.02584957204775
30
0
41
1
10
-1.21786346361694
20
-4.24386265362048
30
0
41
1
10
-1.08311917044625
20
-4.69265802851214
30
0
41
1
10
-1.00360006874376
20
-4.93633956823067
30
0
41
1
10
-0.8033447497628
20
-5.16879396055813
30
0
41
1
10
-0.76102131187784
20
-5.20853400127967
30
0
41
1
10
-0.689167148695731
20
-5.24561851051851
30
0
41
1
10
-0.666676206231415
20
-5.25408214518689
30
0
41
1
10
-0.619919785859764
20
-5.26355270960357
30
0
41
1
10
-0.595012690956537
20
-5.26445496143654
30
0
41
1
10
-0.54992619516284
20
-5.25839930645884
30
0
41
1
10
-0.529028206588009
20
-5.25231844804927
30
0
41
1
10
-0.478237300450644
20
-5.2307965704984
30
0
41
1
10
-0.449806665426394
20
-5.21177878736736
30
0
41
1
10
-0.416050679082105
20
-5.18357602352128
30
0
41
1
10
-0.407890864165267
20
-5.17622805658175
30
0
41
1
10
-0.400000000000006
20
-5.16866682996363
30
0
0
SPLINE
5
E8
100
AcDbEntity
8
SK1
62
256
6
ByLayer
370
-1
48
1
60
0
100
AcDbSpline
70
4
71
3
72
22
73
18
40
0
40
0
40
0
40
0
40
0.0434921783994969
40
0.0434921783994969
40
0.0876860403067026
40
0.0876860403067026
40
0.118952127699588
40
0.118952127699588
40
0.1501558424283
40
0.1501558424283
40
0.196307791916001
40
0.196307791916001
40
0.283435745194102
40
0.283435745194102
40
0.579041181948967
40
0.579041181948967
40
1
40
1
40
1
40
1
41
1
10
-0.400000000000034
20
5.16866679574528
30
0
41
1
10
-0.420550053748514
20
5.18835839085108
30
0
41
1
10
-0.443027188827415
20
5.20675192843447
30
0
41
1
10
-0.492732016073376
20
5.23775963373393
30
0
41
1
10
-0.520750465867962
20
5.25056923469424
30
0
41
1
10
-0.571323171411422
20
5.26230651341535
30
0
41
1
10
-0.593569294960218
20
5.26418855716773
30
0
41
1
10
-0.636876257397915
20
5.26111275520464
30
0
41
1
10
-0.658413974519078
20
5.25617334660447
30
0
41
1
10
-0.70801905917827
20
5.23795018495881
30
0
41
1
10
-0.735222931334562
20
5.22174262348992
30
0
41
1
10
-0.805307091704577
20
5.16870577827882
30
0
41
1
10
-0.843008552736933
20
5.12565182749091
30
0
41
1
10
-0.98697835479976
20
4.93030734845306
30
0
41
1
10
-1.05565821402414
20
4.75512394253201
30
0
41
1
10
-1.19912511806339
20
4.32976589005261
30
0
41
1
10
-1.25838015422249
20
4.06924736884375
30
0
41
1
10
-1.30710678118655
20
3.80474664113271
30
0
0
SPLINE
5
E9
100
AcDbEntity
8
SK1
62
256
6
ByLayer
370
-1
48
1
60
0
100
AcDbSpline
70
4
71
3
72
30
73
26
40
0
40
0
40
0
40
0
40
0.0056618333711474
40
0.0508667583350147
40
0.0960716832988821
40
0.141276608262749
40
0.186481533226617
40
0.231686458190484
40
0.276891383154352
40
0.322096308118219
40
0.367301233082087
40
0.412506158045954
40
0.457711083009821
40
0.502916007973689
40
0.548120932937556
40
0.593325857901423
40
0.638530782865291
40
0.683735707829158
40
0.728940632793026
40
0.774145557756893
40
0.81935048272076
40
0.864555407684628
40
0.909760332648495
40
0.954965257612362
40
1
40
1
40
1
40
1
41
1
10
-0.400000000000034
20
5.16866679574528
30
0
41
1
10
-0.400000000000034
20
5.1981823917107
30
0
41
1
10
-0.400000000000034
20
5.46426938707833
30
0
41
1
10
-0.400000000000034
20
5.98219146197602
30
0
41
1
10
-0.400000000000034
20
6.74713361247495
30
0
41
1
10
-0.400000000000034
20
7.53968849279406
30
0
41
1
10
-0.400000000000034
20
8.35230648563555
30
0
41
1
10
-0.400000000000034
20
9.17636769820604
30
0
41
1
10
-0.400000000000034
20
10.0024728331477
30
0
41
1
10
-0.400000000000034
20
10.8207538150476
30
0
41
1
10
-0.400000000000034
20
11.6212070931939
30
0
41
1
10
-0.400000000000034
20
12.3940190774915
30
0
41
1
10
-0.400000000000034
20
13.1298916243886
30
0
41
1
10
-0.400000000000034
20
13.8203332490725
30
0
41
1
10
-0.400000000000034
20
14.4579281585871
30
0
41
1
10
-0.400000000000034
20
15.0365497976464
30
0
41
1
10
-0.400000000000034
20
15.5515337877379
30
0
41
1
10
-0.400000000000034
20
15.9997825456108
30
0
41
1
10
-0.400000000000034
20
16.379817481596
30
0
41
1
10
-0.400000000000034
20
16.6917603323907
30
0
41
1
10
-0.400000000000034
20
16.9372586651848
30
0
41
1
10
-0.400000000000034
20
17.1193485969266
30
0
41
1
10
-0.400000000000006
20
17.2422669751987
30
0
41
1
10
-0.399999999999977
20
17.3111334447875
30
0
41
1
10
-0.400000000000006
20
17.3250933707986
30
0
41
1
10
-0.400000000000006
20
17.3251497957926
30
0
0
SPLINE
5
EA
100
AcDbEntity
8
SK1
62
256
6
ByLayer
370
-1
48
1
60
0
100
AcDbSpline
70
4
71
3
72
79
73
75
40
0
40
0
40
0
40
0
40
0.0074030720038205
40
0.0214772710298318
40
0.0355514700558431
40
0.0496256690818545
40
0.0636998681078658
40
0.0777740671338771
40
0.0918482661598885
40
0.1059224651859
40
0.119996664211911
40
0.134070863237923
40
0.148145062263934
40
0.162219261289945
40
0.176293460315956
40
0.190367659341968
40
0.204441858367979
40
0.21851605739399
40
0.232590256420002
40
0.246664455446013
40
0.260738654472024
40
0.274812853498036
40
0.288887052524047
40
0.302961251550058
40
0.31703545057607
40
0.331109649602081
40
0.345183848628092
40
0.359258047654104
40
0.373332246680115
40
0.387406445706126
40
0.401480644732138
40
0.415554843758149
40
0.42962904278416
40
0.443703241810172
40
0.457777440836183
40
0.471851639862195
40
0.485925838888206
40
0.500000037914217
40
0.514074236940228
40
0.52814843596624
40
0.542222634992251
40
0.556296834018262
40
0.570371033044274
40
0.584445232070285
40
0.598519431096296
40
0.612593630122308
40
0.626667829148319
40
0.64074202817433
40
0.654816227200342
40
0.668890426226353
40
0.682964625252364
40
0.697038824278376
40
0.711113023304387
40
0.725187222330398
40
0.73926142135641
40
0.753335620382421
40
0.767409819408432
40
0.781484018434444
40
0.795558217460455
40
0.809632416486467
40
0.823706615512478
40
0.837780814538489
40
0.851855013564501
40
0.865929212590512
40
0.880003411616523
40
0.894077610642535
40
0.908151809668546
40
0.922226008694557
40
0.936300207720569
40
0.95037440674658
40
0.964448605772591
40
0.978522804798603
40
0.992597003824614
40
1
40
1
40
1
40
1
41
1
10
-2
20
-17.1116144539657
30
0
41
1
10
-2.00000000000003
20
-17.1306737733626
30
0
41
1
10
-2.00000000000003
20
-17.1831798973208
30
0
41
1
10
-2
20
-17.2550395308993
30
0
41
1
10
-2
20
-17.3112459497451
30
0
41
1
10
-2
20
-17.3321089735132
30
0
41
1
10
-2
20
-17.3112189889209
30
0
41
1
10
-2
20
-17.2422674474922
30
0
41
1
10
-2
20
-17.1193484069474
30
0
41
1
10
-2
20
-16.9372587367204
30
0
41
1
10
-2
20
-16.6917602356259
30
0
41
1
10
-2
20
-16.3798174953022
30
0
41
1
10
-2
20
-15.9997825770269
30
0
41
1
10
-2
20
-15.5515337348698
30
0
41
1
10
-2
20
-15.0365499649754
30
0
41
1
10
-2
20
-14.4579280405673
30
0
41
1
10
-2
20
-13.8203335391023
30
0
41
1
10
-2.00000000000003
20
-13.1298914527523
30
0
41
1
10
-2.00000000000003
20
-12.39401945775
30
0
41
1
10
-2.00000000000003
20
-11.6212068879994
30
0
41
1
10
-2.00000000000003
20
-10.8207542384819
30
0
41
1
10
-2.00000000000003
20
-10.00247262006
30
0
41
1
10
-2.00000000000003
20
-9.17636811026827
30
0
41
1
10
-2.00000000000003
20
-8.35230629219913
30
0
41
1
10
-2.00000000000003
20
-7.53968883941312
30
0
41
1
10
-2.00000000000003
20
-6.74713346409783
30
0
41
1
10
-2.00000000000003
20
-5.98219169787032
30
0
41
1
10
-2.00000000000003
20
-5.25109264883253
30
0
41
1
10
-2.00000000000003
20
-4.55854550233684
30
0
41
1
10
-2.00000000000003
20
-3.90758262960779
30
0
41
1
10
-2.00000000000003
20
-3.29948777527221
30
0
41
1
10
-2.00000000000003
20
-2.73375387844547
30
0
41
1
10
-2.00000000000003
20
-2.20813463136872
30
0
41
1
10
-2.00000000000003
20
-1.71876156390923
30
0
41
1
10
-2.00000000000003
20
-1.26029526086333
30
0
41
1
10
-2.00000000000003
20
-0.826158476850765
30
0
41
1
10
-2.00000000000003
20
-0.408799134273892
30
0
41
1
10
-2.00000000000003
20
-2.402494488E-07
30
0
41
1
10
-2.00000000000003
20
0.408799553455736
30
0
41
1
10
-2.00000000000003
20
0.82615842677356
30
0
41
1
10
-2.00000000000003
20
1.26029551010325
30
0
41
1
10
-2.00000000000003
20
1.71876142586774
30
0
41
1
10
-2.00000000000003
20
2.20813448047156
30
0
41
1
10
-2.00000000000003
20
2.7337537633878
30
0
41
1
10
-2.00000000000003
20
3.29948825001514
30
0
41
1
10
-2.00000000000003
20
3.90758266192117
30
0
41
1
10
-2.00000000000003
20
4.55854530449344
30
0
41
1
10
-2.00000000000003
20
5.25109273249788
30
0
41
1
10
-2.00000000000003
20
5.98219146197602
30
0
41
1
10
-2.00000000000003
20
6.74713361247495
30
0
41
1
10
-2.00000000000003
20
7.53968849279406
30
0
41
1
10
-2.00000000000003
20
8.35230648563552
30
0
41
1
10
-2.00000000000003
20
9.17636769820604
30
0
41
1
10
-2.00000000000003
20
10.0024728331477
30
0
41
1
10
-2.00000000000003
20
10.8207538150476
30
0
41
1
10
-2.00000000000003
20
11.6212070931939
30
0
41
1
10
-2.00000000000003
20
12.3940190774915
30
0
41
1
10
-2.00000000000003
20
13.1298916243886
30
0
41
1
10
-2
20
13.8203332490725
30
0
41
1
10
-2
20
14.4579281585871
30
0
41
1
10
-2
20
15.0365497976464
30
0
41
1
10
-2
20
15.5515337877379
30
0
41
1
10
-2
20
15.9997825456108
30
0
41
1
10
-2
20
16.379817481596
30
0
41
1
10
-2
20
16.6917603323907
30
0
41
1
10
-2
20
16.9372586651848
30
0
41
1
10
-2
20
17.1193485969266
30
0
41
1
10
-2
20
17.2422669751987
30
0
41
1
10
-2
20
17.3112199736996
30
0
41
1
10
-2
20
17.3321088799281
30
0
41
1
10
-2
20
17.3112453434672
30
0
41
1
10
-2
20
17.2550397180126
30
0
41
1
10
-1.99999999999997
20
17.1831802768059
30
0
41
1
10
-1.99999999999997
20
17.1306742510805
30
0
41
1
10
-1.99999999999997
20
17.1116151107528
30
0
0
SPLINE
5
EB
100
AcDbEntity
8
1
62
256
6
ByLayer
370
-1
48
1
60
0
100
AcDbSpline
70
4
71
3
72
16
73
12
40
0
40
0
40
0
40
0
40
0.131527116956868
40
0.131527116956868
40
0.441331270680463
40
0.441331270680463
40
0.716640960621697
40
0.716640960621697
40
0.960110237372101
40
0.960110237372101
40
1
40
1
40
1
40
1
41
1
10
105.829254889136
20
-14.8424666730754
30
0
41
1
10
105.833423508854
20
-14.8584150825448
30
0
41
1
10
105.836426462406
20
-14.8748215491163
30
0
41
1
10
105.842186309302
20
-14.9302772093948
30
0
41
1
10
105.839104856237
20
-14.9712572003332
30
0
41
1
10
105.818522434441
20
-15.044414087225
30
0
41
1
10
105.80226943633
20
-15.0781775514167
30
0
41
1
10
105.761253447927
20
-15.1332917440315
30
0
41
1
10
105.737064550345
20
-15.1564002643761
30
0
41
1
10
105.705646628786
20
-15.1772852037921
30
0
41
1
10
105.701091273886
20
-15.1801268851636
30
0
41
1
10
105.69646235476
20
-15.1828313304387
30
0
0
SPLINE
5
EC
100
AcDbEntity
8
1
62
256
6
ByLayer
370
-1
48
1
60
0
100
AcDbSpline
70
4
71
3
72
12
73
8
40
0
40
0
40
0
40
0
40
0.479385004666737
40
0.479385004666737
40
0.887122551727333
40
0.887122551727333
40
1
40
1
40
1
40
1
41
1
10
103.389463216811
20
-14.0261545354408
30
0
41
1
10
103.456129681468
20
-14.0381404661326
30
0
41
1
10
103.522339993223
20
-14.0610582507218
30
0
41
1
10
103.636157961448
20
-14.1248240562914
30
0
41
1
10
103.686282379029
20
-14.1633749301592
30
0
41
1
10
103.742012442067
20
-14.2227970262153
30
0
41
1
10
103.753705551568
20
-14.2363956071902
30
0
41
1
10
103.764845245406
20
-14.2505619141322
30
0
0
SPLINE
5
ED
100
AcDbEntity
8
1
62
256
6
ByLayer
370
-1
48
1
60
0
100
AcDbSpline
70
4
71
3
72
12
73
8
40
0
40
0
40
0
40
0
40
0.494226213069239
40
0.494226213069239
40
0.899372122846424
40
0.899372122846424
40
1
40
1
40
1
40
1
41
1
10
106.301514252301
20
-13.4472005886228
30
0
41
1
10
106.232282228613
20
-13.4251002130178
30
0
41
1
10
106.163523408421
20
-13.3918849430369
30
0
41
1
10
106.047932854151
20
-13.3123409329658
30
0
41
1
10
105.998165220284
20
-13.2684472397324
30
0
41
1
10
105.944289083193
20
-13.2064676498026
30
0
41
1
10
105.933881210958
20
-13.1936776049565
30
0
41
1
10
105.923919401217
20
-13.1805700415402
30
0
0
SPLINE
5
EE
100
AcDbEntity
8
1
62
256
6
ByLayer
370
-1
48
1
60
0
100
AcDbSpline
70
4
71
3
72
14
73
10
40
0
40
0
40
0
40
0
40
0.281090832172722
40
0.281090832172722
40
0.567774824687398
40
0.567774824687398
40
0.827230532924246
40
0.827230532924246
40
1
40
1
40
1
40
1
41
1
10
104.374741999446
20
-15.1364544935579
30
0
41
1
10
104.351587981952
20
-15.1621925297001
30
0
41
1
10
104.323572882361
20
-15.1845251324463
30
0
41
1
10
104.260916593068
20
-15.2180813766892
30
0
41
1
10
104.2251519381
20
-15.229537216794
30
0
41
1
10
104.155499281105
20
-15.2371802171242
30
0
41
1
10
104.120698751701
20
-15.2347676189099
30
0
41
1
10
104.065782545583
20
-15.2202396259251
30
0
41
1
10
104.044198781139
20
-15.2115474181297
30
0
41
1
10
104.024133363499
20
-15.2003725362222
30
0
0
SPLINE
5
EF
100
AcDbEntity
8
1
62
256
6
ByLayer
370
-1
48
1
60
0
100
AcDbSpline
70
4
71
3
72
12
73
8
40
0
40
0
40
0
40
0
40
0.320828357801651
40
0.320828357801651
40
0.789223938528177
40
0.789223938528177
40
1
40
1
40
1
40
1
41
1
10
105.839510129098
20
-13.0384392805211
30
0
41
1
10
105.818830659759
20
-12.9919807930407
30
0
41
1
10
105.8037868366
20
-12.9439762865196
30
0
41
1
10
105.781278872991
20
-12.828768129106
30
0
41
1
10
105.779932777724
20
-12.7609335385793
30
0
41
1
10
105.792691363887
20
-12.6689753337897
30
0
41
1
10
105.798723163321
20
-12.6410118759677
30
0
41
1
10
105.806641011467
20
-12.6139187872029
30
0
0
SPLINE
5
F0
100
AcDbEntity
8
1
62
256
6
ByLayer
370
-1
48
1
60
0
100
AcDbSpline
70
4
71
3
72
16
73
12
40
0
40
0
40
0
40
0
40
0.0603972396089835
40
0.0603972396089835
40
0.281176237421111
40
0.281176237421111
40
0.504613315576577
40
0.504613315576577
40
0.74227875161656
40
0.74227875161656
40
1
40
1
40
1
40
1
41
1
10
104.024133363499
20
-15.2003725362222
30
0
41
1
10
104.017022532573
20
-15.1964123547153
30
0
41
1
10
104.01007108784
20
-15.1921300711001
30
0
41
1
10
103.978826296233
20
-15.1709407722169
30
0
41
1
10
103.956679700144
20
-15.1500638427225
30
0
41
1
10
103.920142252247
20
-15.1031410886331
30
0
41
1
10
103.905364378036
20
-15.0764540665032
30
0
41
1
10
103.883836272596
20
-15.0194418340084
30
0
41
1
10
103.877357843192
20
-14.9882915760113
30
0
41
1
10
103.873371024921
20
-14.924385752912
30
0
41
1
10
103.876579501634
20
-14.8909333385415
30
0
41
1
10
103.884336457646
20
-14.8594363368609
30
0
0
SPLINE
5
F1
100
AcDbEntity
8
1
62
256
6
ByLayer
370
-1
48
1
60
0
100
AcDbSpline
70
4
71
3
72
16
73
12
40
0
40
0
40
0
40
0
40
0.034039743521677
40
0.034039743521677
40
0.257380186331483
40
0.257380186331483
40
0.481852086005791
40
0.481852086005791
40
0.719421732069871
40
0.719421732069871
40
1
40
1
40
1
40
1
41
1
10
103.99603947692
20
-12.3196103641302
30
0
41
1
10
103.999978728851
20
-12.317308856806
30
0
41
1
10
104.003973428391
20
-12.3150915613517
30
0
41
1
10
104.034274749261
20
-12.2991338809035
30
0
41
1
10
104.062997078672
20
-12.2889520134419
30
0
41
1
10
104.120743074923
20
-12.2771894309208
30
0
41
1
10
104.15050119558
20
-12.2754814127444
30
0
41
1
10
104.208881923018
20
-12.2801097625112
30
0
41
1
10
104.238072531892
20
-12.2869495678074
30
0
41
1
10
104.295754550258
20
-12.3095004070578
30
0
41
1
10
104.324027323222
20
-12.326875981909
30
0
41
1
10
104.347543624998
20
-12.3475186147093
30
0
0
SPLINE
5
F2
100
AcDbEntity
8
1
62
256
6
ByLayer
370
-1
48
1
60
0
100
AcDbSpline
70
4
71
3
72
18
73
14
40
0
40
0
40
0
40
0
40
0.20268287465185
40
0.20268287465185
40
0.37855499609956
40
0.37855499609956
40
0.556223347576206
40
0.556223347576206
40
0.709563425974085
40
0.709563425974085
40
0.91070960126364
40
0.91070960126364
40
1
40
1
40
1
40
1
41
1
10
104.374741999446
20
-15.1364544935578
30
0
41
1
10
104.421969555213
20
-15.0839562807703
30
0
41
1
10
104.477936411181
20
-15.0372628840522
30
0
41
1
10
104.595090739447
20
-14.9684344980537
30
0
41
1
10
104.656037449786
20
-14.9432480984547
30
0
41
1
10
104.783844215362
20
-14.9130447589441
30
0
41
1
10
104.852731955009
20
-14.9080220660954
30
0
41
1
10
104.976479271348
20
-14.9193492302705
30
0
41
1
10
105.033452989853
20
-14.9329013412352
30
0
41
1
10
105.155051400061
20
-14.9790545621671
30
0
41
1
10
105.218694145015
20
-15.0167982017215
30
0
41
1
10
105.298539684822
20
-15.0816964649572
30
0
41
1
10
105.321803931928
20
-15.1033674383198
30
0
41
1
10
105.343457796517
20
-15.1262935484121
30
0
0
SPLINE
5
F3
100
AcDbEntity
8
1
62
256
6
ByLayer
370
-1
48
1
60
0
100
AcDbSpline
70
4
71
3
72
18
73
14
40
0
40
0
40
0
40
0
40
0.202089814051678
40
0.202089814051678
40
0.378069390339191
40
0.378069390339191
40
0.555852100565641
40
0.555852100565641
40
0.709217634860785
40
0.709217634860785
40
0.910262382312821
40
0.910262382312821
40
1
40
1
40
1
40
1
41
1
10
105.829254889129
20
-14.8424666730777
30
0
41
1
10
105.811188561199
20
-14.7733480642983
30
0
41
1
10
105.802317649122
20
-14.6998157835403
30
0
41
1
10
105.806755537213
20
-14.5614352862413
30
0
41
1
10
105.8175684098
20
-14.495128407427
30
0
41
1
10
105.858035852693
20
-14.3686661882846
30
0
41
1
10
105.888691352034
20
-14.3067765877148
30
0
41
1
10
105.959668429768
20
-14.20702268172
30
0
41
1
10
105.998864554834
20
-14.1657677452856
30
0
41
1
10
106.096133465389
20
-14.0872814219352
30
0
41
1
10
106.157797948741
20
-14.0537103679882
30
0
41
1
10
106.24949116509
20
-14.0210447822347
30
0
41
1
10
106.278554218674
20
-14.0130082346943
30
0
41
1
10
106.307854423132
20
-14.0070338625508
30
0
0
SPLINE
5
F4
100
AcDbEntity
8
1
62
256
6
ByLayer
370
-1
48
1
60
0
100
AcDbSpline
70
4
71
3
72
18
73
14
40
0
40
0
40
0
40
0
40
0.0391112628843687
40
0.0391112628843687
40
0.2603743697587
40
0.2603743697587
40
0.483071124727028
40
0.483071124727028
40
0.719005128699164
40
0.719005128699164
40
0.977496761617927
40
0.977496761617927
40
1
40
1
40
1
40
1
41
1
10
105.668368468181
20
-12.3020691583468
30
0
41
1
10
105.672982654326
20
-12.304638902281
30
0
41
1
10
105.677527764117
20
-12.3073253911439
30
0
41
1
10
105.707011936203
20
-12.3257924031612
30
0
41
1
10
105.729788725539
20
-12.3452511787254
30
0
41
1
10
105.767526928086
20
-12.388478168868
30
0
41
1
10
105.782935719127
20
-12.4128116637298
30
0
41
1
10
105.80573082091
20
-12.4643073458892
30
0
41
1
10
105.812900431813
20
-12.4921858779933
30
0
41
1
10
105.818356616268
20
-12.5492275120072
30
0
41
1
10
105.815832590275
20
-12.5789725415363
30
0
41
1
10
105.808013483878
20
-12.6090871386644
30
0
41
1
10
105.807344984034
20
-12.6115099520113
30
0
41
1
10
105.806641011466
20
-12.6139187872028
30
0
0
SPLINE
5
F5
100
AcDbEntity
8
1
62
256
6
ByLayer
370
-1
48
1
60
0
100
AcDbSpline
70
4
71
3
72
14
73
10
40
0
40
0
40
0
40
0
40
0.25951573416176
40
0.25951573416176
40
0.547082470912096
40
0.547082470912096
40
0.807038011106473
40
0.807038011106473
40
1
40
1
40
1
40
1
41
1
10
106.301514252301
20
-13.4472005886228
30
0
41
1
10
106.33158430084
20
-13.4567996055482
30
0
41
1
10
106.361243617368
20
-13.471325371835
30
0
41
1
10
106.418141144849
20
-13.5112458546985
30
0
41
1
10
106.445639541031
20
-13.5383539042026
30
0
41
1
10
106.487040147228
20
-13.5976921591744
30
0
41
1
10
106.502571624442
20
-13.6301182272572
30
0
41
1
10
106.518843518482
20
-13.6886914564909
30
0
41
1
10
106.522543765184
20
-13.7148750772011
30
0
41
1
10
106.522685978178
20
-13.7405935621203
30
0
0
SPLINE
5
F6
100
AcDbEntity
8
1
62
256
6
ByLayer
370
-1
48
1
60
0
100
AcDbSpline
70
4
71
3
72
14
73
10
40
0
40
0
40
0
40
0
40
0.250963161347365
40
0.250963161347365
40
0.541426544344412
40
0.541426544344412
40
0.803987131347547
40
0.803987131347547
40
1
40
1
40
1
40
1
41
1
10
105.316259422067
20
-12.3373576695659
30
0
41
1
10
105.337151206026
20
-12.3184091465977
30
0
41
1
10
105.361858669915
20
-12.3020213800028
30
0
41
1
10
105.420589386663
20
-12.2752664110336
30
0
41
1
10
105.456465977889
20
-12.2658936149953
30
0
41
1
10
105.526779147986
20
-12.2608977189161
30
0
41
1
10
105.56209941916
20
-12.2640257715444
30
0
41
1
10
105.620850641207
20
-12.279472682523
30
0
41
1
10
105.645615106447
20
-12.2893972999816
30
0
41
1
10
105.668368468181
20
-12.3020691583468
30
0
0
SPLINE
5
F7
100
AcDbEntity
8
1
62
256
6
ByLayer
370
-1
48
1
60
0
100
AcDbSpline
70
4
71
3
72
18
73
14
40
0
40
0
40
0
40
0
40
0.0406221937795103
40
0.0406221937795103
40
0.263926194415066
40
0.263926194415066
40
0.488743650799573
40
0.488743650799573
40
0.726976021326747
40
0.726976021326747
40
0.98801689803314
40
0.98801689803314
40
1
40
1
40
1
40
1
41
1
10
106.522685978178
20
-13.7405935621203
30
0
41
1
10
106.522715839264
20
-13.7459937852507
30
0
41
1
10
106.522592601088
20
-13.7513880048064
30
0
41
1
10
106.520814311517
20
-13.7860272704468
30
0
41
1
10
106.514620620833
20
-13.81509653477
30
0
41
1
10
106.494133473054
20
-13.86839947858
30
0
41
1
10
106.479545136781
20
-13.8932878769452
30
0
41
1
10
106.443502388744
20
-13.9373357155906
30
0
41
1
10
106.421263471685
20
-13.9566365436851
30
0
41
1
10
106.370858712016
20
-13.988003860683
30
0
41
1
10
106.341716538252
20
-13.999624688564
30
0
41
1
10
106.310618864646
20
-14.0064592599049
30
0
41
1
10
106.309237556545
20
-14.0067518387941
30
0
41
1
10
106.307854423132
20
-14.0070338625508
30
0
0
SPLINE
5
F8
100
AcDbEntity
8
1
62
256
6
ByLayer
370
-1
48
1
60
0
100
AcDbSpline
70
4
71
3
72
18
73
14
40
0
40
0
40
0
40
0
40
0.211637290846679
40
0.211637290846679
40
0.385904996431105
40
0.385904996431105
40
0.561864068677691
40
0.561864068677691
40
0.714849307748646
40
0.714849307748646
40
0.917551286367468
40
0.917551286367468
40
1
40
1
40
1
40
1
41
1
10
105.316259422067
20
-12.337357669566
30
0
41
1
10
105.266437020189
20
-12.382545812816
30
0
41
1
10
105.207057297344
20
-12.421973258347
30
0
41
1
10
105.08569947616
20
-12.4771775677729
30
0
41
1
10
105.024587090886
20
-12.496408606776
30
0
41
1
10
104.897121798405
20
-12.5189874582935
30
0
41
1
10
104.828796416887
20
-12.5223692242557
30
0
41
1
10
104.706139720865
20
-12.5127811004993
30
0
41
1
10
104.649674261805
20
-12.5018397692363
30
0
41
1
10
104.528755724791
20
-12.4644319618812
30
0
41
1
10
104.465489072521
20
-12.4336127286306
30
0
41
1
10
104.388497430659
20
-12.3812891664903
30
0
41
1
10
104.367333641405
20
-12.3648903105528
30
0
41
1
10
104.347543624998
20
-12.3475186147093
30
0
0
SPLINE
5
F9
100
AcDbEntity
8
1
62
256
6
ByLayer
370
-1
48
1
60
0
100
AcDbSpline
70
4
71
3
72
14
73
10
40
0
40
0
40
0
40
0
40
0.243315902051526
40
0.243315902051526
40
0.534735444505822
40
0.534735444505822
40
0.79810167545302
40
0.79810167545302
40
1
40
1
40
1
40
1
41
1
10
103.861746532385
20
-12.6313454900411
30
0
41
1
10
103.854258551777
20
-12.6058292895484
30
0
41
1
10
103.850743726763
20
-12.578412664914
30
0
41
1
10
103.853138870397
20
-12.5175133204125
30
0
41
1
10
103.86118475725
20
-12.4828977412674
30
0
41
1
10
103.889461894102
20
-12.4212119089713
30
0
41
1
10
103.90893624858
20
-12.3928198715858
30
0
41
1
10
103.951356613969
20
-12.3498586831222
30
0
41
1
10
103.97286519273
20
-12.3331499360414
30
0
41
1
10
103.99603947692
20
-12.3196103641302
30
0
0
SPLINE
5
FA
100
AcDbEntity
8
1
62
256
6
ByLayer
370
-1
48
1
60
0
100
AcDbSpline
70
4
71
3
72
20
73
16
40
0
40
0
40
0
40
0
40
0.0844820000066652
40
0.0844820000066652
40
0.284784703172657
40
0.284784703172657
40
0.446885589668593
40
0.446885589668593
40
0.609810498594348
40
0.609810498594348
40
0.762194132785561
40
0.762194132785561
40
0.978497389295584
40
0.978497389295584
40
1
40
1
40
1
40
1
41
1
10
103.861746532385
20
-12.631345490041
30
0
41
1
10
103.86912680698
20
-12.6564946692557
30
0
41
1
10
103.874885728437
20
-12.68241568272
30
0
41
1
10
103.888315454557
20
-12.771531155841
30
0
41
1
10
103.887912008222
20
-12.8386998759254
30
0
41
1
10
103.866074870699
20
-12.961563398571
30
0
41
1
10
103.84826398597
20
-13.0183659012409
30
0
41
1
10
103.797491781946
20
-13.1271194462816
30
0
41
1
10
103.763722305962
20
-13.1804429262586
30
0
41
1
10
103.688496998643
20
-13.272163385229
30
0
41
1
10
103.646880582116
20
-13.3124279778375
30
0
41
1
10
103.54109198723
20
-13.3950591889167
30
0
41
1
10
103.472996304755
20
-13.43289632704
30
0
41
1
10
103.397086641293
20
-13.4618200846008
30
0
41
1
10
103.390124807273
20
-13.4643545705891
30
0
41
1
10
103.383146998382
20
-13.4667783005709
30
0
0
SPLINE
5
FB
100
AcDbEntity
8
1
62
256
6
ByLayer
370
-1
48
1
60
0
100
AcDbSpline
70
4
71
3
72
14
73
10
40
0
40
0
40
0
40
0
40
0.280421614560989
40
0.280421614560989
40
0.565372880538693
40
0.565372880538693
40
0.823172349752627
40
0.823172349752627
40
1
40
1
40
1
40
1
41
1
10
103.389463216811
20
-14.0261545354408
30
0
41
1
10
103.35721797046
20
-14.0203571785553
30
0
41
1
10
103.325403203517
20
-14.0085641658351
30
0
41
1
10
103.267859436526
20
-13.9734146041141
30
0
41
1
10
103.241378381536
20
-13.9492733706075
30
0
41
1
10
103.201907841463
20
-13.8944623321877
30
0
41
1
10
103.187326714492
20
-13.8637677254581
30
0
41
1
10
103.173035310618
20
-13.8090017186829
30
0
41
1
10
103.169946217394
20
-13.7854237684992
30
0
41
1
10
103.169815853502
20
-13.7618481324486
30
0
0
SPLINE
5
FC
100
AcDbEntity
8
1
62
256
6
ByLayer
370
-1
48
1
60
0
100
AcDbSpline
70
4
71
3
72
16
73
12
40
0
40
0
40
0
40
0
40
0.18605587210123
40
0.18605587210123
40
0.408861842185263
40
0.408861842185263
40
0.64116108256268
40
0.64116108256268
40
0.893269343968187
40
0.893269343968187
40
1
40
1
40
1
40
1
41
1
10
105.69646235476
20
-15.1828313304387
30
0
41
1
10
105.675156275124
20
-15.1952794041316
30
0
41
1
10
105.652009793814
20
-15.204901583064
30
0
41
1
10
105.600074577366
20
-15.2187566733701
30
0
41
1
10
105.570406101209
20
-15.2216967780739
30
0
41
1
10
105.511691206243
20
-15.2184660512887
30
0
41
1
10
105.481985701256
20
-15.2118905832398
30
0
41
1
10
105.424778509886
20
-15.1898202584072
30
0
41
1
10
105.396953467788
20
-15.1733696653236
30
0
41
1
10
105.362362277931
20
-15.1450797115552
30
0
41
1
10
105.352583179161
20
-15.1359550814053
30
0
41
1
10
105.343457796517
20
-15.1262935484121
30
0
0
SPLINE
5
FD
100
AcDbEntity
8
1
62
256
6
ByLayer
370
-1
48
1
60
0
100
AcDbSpline
70
4
71
3
72
12
73
8
40
0
40
0
40
0
40
0
40
0.312514722033352
40
0.312514722033352
40
0.779016504277248
40
0.779016504277248
40
1
40
1
40
1
40
1
41
1
10
103.849254517525
20
-14.3926926751519
30
0
41
1
10
103.869446592506
20
-14.4393379542826
30
0
41
1
10
103.884378598426
20
-14.4887661408033
30
0
41
1
10
103.9077983161
20
-14.6116034771048
30
0
41
1
10
103.910024393424
20
-14.686828178239
30
0
41
1
10
103.898474356021
20
-14.792714438376
30
0
41
1
10
103.892448649982
20
-14.8264969035004
30
0
41
1
10
103.884336457646
20
-14.8594363368609
30
0
0
SPLINE
5
FE
100
AcDbEntity
8
1
62
256
6
ByLayer
370
-1
48
1
60
0
100
AcDbSpline
70
4
71
3
72
16
73
12
40
0
40
0
40
0
40
0
40
0.05565315049105
40
0.05565315049105
40
0.278532528191526
40
0.278532528191526
40
0.503791663155093
40
0.503791663155093
40
0.743163105463607
40
0.743163105463607
40
1
40
1
40
1
40
1
41
1
10
103.169815853502
20
-13.7618481324486
30
0
41
1
10
103.169774989313
20
-13.7544580550992
30
0
41
1
10
103.170019234108
20
-13.747041622156
30
0
41
1
10
103.172643511888
20
-13.7102108731084
30
0
41
1
10
103.179382845505
20
-13.68051696459
30
0
41
1
10
103.200800737504
20
-13.6249899792929
30
0
41
1
10
103.215814461861
20
-13.598486506339
30
0
41
1
10
103.252596377946
20
-13.5503450835501
30
0
41
1
10
103.275164750933
20
-13.528494233224
30
0
41
1
10
103.325480101869
20
-13.4916952906074
30
0
41
1
10
103.354067339178
20
-13.4768790704509
30
0
41
1
10
103.383146998382
20
-13.4667783005709
30
0
0
SPLINE
5
FF
100
AcDbEntity
8
SK1
62
256
6
ByLayer
370
-1
48
1
60
0
100
AcDbSpline
70
4
71
3
72
24
73
20
40
0
40
0
40
0
40
0
40
0.0299003298961631
40
0.0299003298961631
40
0.0528622635029669
40
0.0528622635029669
40
0.0709275158044995
40
0.0709275158044995
40
0.0890039000876294
40
0.0890039000876294
40
0.11362248491787
40
0.11362248491787
40
0.157577258657195
40
0.157577258657195
40
0.29602514002948
40
0.29602514002948
40
0.878150828056824
40
0.878150828056824
40
1
40
1
40
1
40
1
41
1
10
-0.400000000000034
20
-5.16866682996297
30
0
41
1
10
-0.394094307655593
20
-5.16300784544387
30
0
41
1
10
-0.38760623850834
20
-5.15782429554133
30
0
41
1
10
-0.374945775641891
20
-5.1507540726119
30
0
41
1
10
-0.368929355824321
20
-5.14835070696066
30
0
41
1
10
-0.35770867701234
20
-5.14629827954846
30
0
41
1
10
-0.352495529695631
20
-5.14618209741417
30
0
41
1
10
-0.342356257615734
20
-5.14777530545462
30
0
41
1
10
-0.337316914191916
20
-5.1495007928761
30
0
41
1
10
-0.326353738404208
20
-5.15512166080455
30
0
41
1
10
-0.320571087776045
20
-5.15961290941803
30
0
41
1
10
-0.306345382412019
20
-5.17348963231112
30
0
41
1
10
-0.298929389281341
20
-5.1841444040335
30
0
41
1
10
-0.272649182798801
20
-5.22929437458617
30
0
41
1
10
-0.260939846150848
20
-5.26761390191822
30
0
41
1
10
-0.21079653079866
20
-5.46289223314824
30
0
41
1
10
-0.20436648289828
20
-5.62478131775705
30
0
41
1
10
-0.200325121553277
20
-5.8154278903541
30
0
41
1
10
-0.200000000000046
20
-5.8484679854401
30
0
41
1
10
-0.200000000000046
20
-5.88142452370542
30
0
0
SPLINE
5
100
100
AcDbEntity
8
SK1
62
256
6
ByLayer
370
-1
48
1
60
0
100
AcDbSpline
70
4
71
3
72
26
73
22
40
0
40
0
40
0
40
0
40
0.466011607458034
40
0.466011607458034
40
0.67024046630168
40
0.67024046630168
40
0.77456727018221
40
0.77456727018221
40
0.857070717706419
40
0.857070717706419
40
0.898538406950324
40
0.898538406950324
40
0.918045307993239
40
0.918045307993239
40
0.937772855809251
40
0.937772855809251
40
0.955553297254221
40
0.955553297254221
40
0.984230712729842
40
0.984230712729842
40
1
40
1
40
1
40
1
41
1
10
-0.200000000000046
20
5.88142397393347
30
0
41
1
10
-0.200000000000046
20
5.75538988127934
30
0
41
1
10
-0.204053336884698
20
5.62782146467677
30
0
41
1
10
-0.224291300237979
20
5.44372978251536
30
0
41
1
10
-0.232375898168357
20
5.3873284499669
30
0
41
1
10
-0.251389677244674
20
5.30297629006839
30
0
41
1
10
-0.25900395291697
20
5.27447755328694
30
0
41
1
10
-0.277073232762461
20
5.22483382882945
30
0
41
1
10
-0.286541211569755
20
5.20296176881411
30
0
41
1
10
-0.306529791401147
20
5.17375294403038
30
0
41
1
10
-0.314426911926432
20
5.1643717298173
30
0
41
1
10
-0.328481919155991
20
5.15398148698225
30
0
41
1
10
-0.333472930985607
20
5.15114386616668
30
0
41
1
10
-0.343977733072507
20
5.14732547572157
30
0
41
1
10
-0.349636276202261
20
5.14634920679938
30
0
41
1
10
-0.360093315739704
20
5.1465317925306
30
0
41
1
10
-0.365036235354097
20
5.14747094480913
30
0
41
1
10
-0.377122372198727
20
5.15149960910935
30
0
41
1
10
-0.384002450469694
20
5.1555505154767
30
0
41
1
10
-0.393629001799496
20
5.16285427826699
30
0
41
1
10
-0.396890469609758
20
5.16568716298278
30
0
41
1
10
-0.400000000000063
20
5.16866679574503
30
0
0
SPLINE
5
101
100
AcDbEntity
8
SK1
62
256
6
ByLayer
370
-1
48
1
60
0
100
AcDbSpline
70
4
71
3
72
10
73
6
40
0
40
0
40
0
40
0
40
0.5
40
0.5
40
1
40
1
40
1
40
1
41
1
10
-1.30710678118655
20
-3.80474436172742
30
0
41
1
10
-1.52921682270321
20
-2.59907728352434
30
0
41
1
10
-1.70909405340865
20
-1.31281235086666
30
0
41
1
10
-1.7096317930087
20
1.30649832374493
30
0
41
1
10
-1.52966155970611
20
2.5966617696443
30
0
41
1
10
-1.30710678118663
20
3.80474664113297
30
0
0
SPLINE
5
102
100
AcDbEntity
8
SK1
62
256
6
ByLayer
370
-1
48
1
60
0
100
AcDbSpline
70
4
71
3
72
14
73
10
40
0
40
0
40
0
40
0
40
0.103084720937158
40
0.255613416256898
40
0.408142111576637
40
0.560670806896377
40
0.713199502216117
40
0.865728197535857
40
1
40
1
40
1
40
1
41
1
10
-2.20000000000002
20
15.0247808648858
30
0
41
1
10
-2.20000000000002
20
14.8960266306386
30
0
41
1
10
-2.20000000000002
20
14.564952857959
30
0
41
1
10
-2.20000000000002
20
13.9919277482646
30
0
41
1
10
-2.20000000000002
20
13.2962224496515
30
0
41
1
10
-2.20000000000002
20
12.5546840468425
30
0
41
1
10
-2.20000000000002
20
11.7758177229786
30
0
41
1
10
-2.20000000000002
20
11.0011294486509
30
0
41
1
10
-2.20000000000002
20
10.4846854347648
30
0
41
1
10
-2.20000000000002
20
10.2416915117918
30
0
0
SPLINE
5
103
100
AcDbEntity
8
SK1
62
256
6
ByLayer
370
-1
48
1
60
0
100
AcDbSpline
70
4
71
3
72
17
73
13
40
0
40
0
40
0
40
0
40
0.110194179073642
40
0.207159350519493
40
0.289521354065322
40
0.357566577979378
40
0.413195246897405
40
0.459692315386429
40
0.501341811377897
40
0.74942055556068
40
0.882505839912813
40
1
40
1
40
1
40
1
41
1
10
-2.20000000000002
20
10.2416915117918
30
0
41
1
10
-2.19999987208661
20
9.61581012386935
30
0
41
1
10
-2.19999963161601
20
8.43918552432854
30
0
41
1
10
-2.19999709569768
20
6.58740471337407
30
0
41
1
10
-2.19999227726785
20
4.89775372844778
30
0
41
1
10
-2.1999848960788
20
3.4082650609613
30
0
41
1
10
-2.19997337349054
20
2.12754037920914
30
0
41
1
10
-2.19995947696654
20
1.01624689806425
30
0
41
1
10
-2.19989354341638
20
-1.61912962424546
30
0
41
1
10
-2.20000234091825
20
-4.9046933627387
30
0
41
1
10
-2.19999748284147
20
-8.14219717433133
30
0
41
1
10
-2.19999919648836
20
-9.5715043461004
30
0
41
1
10
-2.20000000000002
20
-10.2416919827174
30
0
0
SPLINE
5
104
100
AcDbEntity
8
SK1
62
256
6
ByLayer
370
-1
48
1
60
0
100
AcDbSpline
70
4
71
3
72
20
73
16
40
0
40
0
40
0
40
0
40
0.0482625705635243
40
0.0482625705635243
40
0.325220898603851
40
0.325220898603851
40
0.463381471379487
40
0.463381471379487
40
0.601551524434535
40
0.601551524434535
40
0.739735425204153
40
0.739735425204153
40
0.877939603517083
40
0.877939603517083
40
1
40
1
40
1
40
1
41
1
10
-2.20000000000002
20
-15.024780913897
30
0
41
1
10
-2.20000000000002
20
-15.0987632316058
30
0
41
1
10
-2.19999999163144
20
-15.1713153633957
30
0
41
1
10
-2.19999985652709
20
-15.6498272161843
30
0
41
1
10
-2.19999939887509
20
-16.0101821224506
30
0
41
1
10
-2.19999683011551
20
-16.4712024133173
30
0
41
1
10
-2.19999564996832
20
-16.6117543332689
30
0
41
1
10
-2.19999230715834
20
-16.8650200442632
30
0
41
1
10
-2.19999013861343
20
-16.9778482087754
30
0
41
1
10
-2.19998437020209
20
-17.1737303581388
30
0
41
1
10
-2.19998076728288
20
-17.2568757984567
30
0
41
1
10
-2.19997155592219
20
-17.390896629152
30
0
41
1
10
-2.19996594630393
20
-17.4418577268988
30
0
41
1
10
-2.19995283284752
20
-17.5043876537353
30
0
41
1
10
-2.19994561248382
20
-17.5199107584738
30
0
41
1
10
-2.19993704319944
20
-17.5200998959623
30
0
0
SPLINE
5
105
100
AcDbEntity
8
SK1
62
256
6
ByLayer
370
-1
48
1
60
0
100
AcDbSpline
70
4
71
3
72
20
73
16
40
0
40
0
40
0
40
0
40
0.107709859712448
40
0.107709859712448
40
0.254805889930755
40
0.254805889930755
40
0.401872722902776
40
0.401872722902776
40
0.548920274139869
40
0.548920274139869
40
0.695955076709578
40
0.695955076709578
40
0.842981467916519
40
0.842981467916519
40
1
40
1
40
1
40
1
41
1
10
-2.19993655780448
20
17.5200998571237
30
0
41
1
10
-2.19994418187713
20
17.5204461970836
30
0
41
1
10
-2.19995074650436
20
17.5087568436244
30
0
41
1
10
-2.19996422500265
20
17.4552443316022
30
0
41
1
10
-2.19997041029708
20
17.4038992989506
30
0
41
1
10
-2.19998045819511
20
17.2645372816575
30
0
41
1
10
-2.19998432672412
20
17.1764163911093
30
0
41
1
10
-2.19999043378135
20
16.9665639550929
30
0
41
1
10
-2.19999267824221
20
16.8447172876608
30
0
41
1
10
-2.19999607391784
20
16.569798663462
30
0
41
1
10
-2.1999972302832
20
16.4165791409565
30
0
41
1
10
-2.1999988585969
20
16.0808080953317
30
0
41
1
10
-2.1999993308427
20
15.8980848535623
30
0
41
1
10
-2.19999991533382
20
15.4916218225697
30
0
41
1
10
-2.20000000000002
20
15.2657541717873
30
0
41
1
10
-2.20000000000002
20
15.0247808645654
30
0
0
SPLINE
5
106
100
AcDbEntity
8
SK1
62
256
6
ByLayer
370
-1
48
1
60
0
100
AcDbSpline
70
4
71
3
72
14
73
10
40
0
40
0
40
0
40
0
40
0.134271728867906
40
0.286800437365241
40
0.439329145862575
40
0.591857854359909
40
0.744386562857243
40
0.896915271354578
40
1
40
1
40
1
40
1
41
1
10
-2.20000000000002
20
-10.2416919827174
30
0
41
1
10
-2.20000000000002
20
-10.4846857903794
30
0
41
1
10
-2.20000000000002
20
-11.0011299966239
30
0
41
1
10
-2.20000000000002
20
-11.7758175215927
30
0
41
1
10
-2.20000000000002
20
-12.5546844263156
30
0
41
1
10
-2.20000000000002
20
-13.296222281691
30
0
41
1
10
-2.20000000000002
20
-13.9919280373692
30
0
41
1
10
-2.20000000000002
20
-14.5649527853411
30
0
41
1
10
-2.20000000000002
20
-14.896026651443
30
0
41
1
10
-2.20000000000002
20
-15.0247809138965
30
0
0
SPLINE
5
107
100
AcDbEntity
8
SK1
62
256
6
ByLayer
370
-1
48
1
60
0
100
AcDbSpline
70
4
71
3
72
30
73
26
40
0
40
0
40
0
40
0
40
0.0497716373189241
40
0.0497716373189241
40
0.162165060350991
40
0.162165060350991
40
0.274558483383058
40
0.274558483383058
40
0.386951906415125
40
0.386951906415125
40
0.443148617931158
40
0.443148617931158
40
0.499345329447191
40
0.499345329447191
40
0.555542040963225
40
0.555542040963225
40
0.611738752479258
40
0.611738752479258
40
0.724132175511325
40
0.724132175511325
40
0.836525598543391
40
0.836525598543391
40
0.948919021575458
40
0.948919021575458
40
1
40
1
40
1
40
1
41
1
10
-30
20
15.9403409240788
30
0
41
1
10
-30
20
15.9313679672385
30
0
41
1
10
-30
20
15.841212574255
30
0
41
1
10
-30
20
15.3551226444405
30
0
41
1
10
-30
20
14.7035612713569
30
0
41
1
10
-30
20
12.913904143316
30
0
41
1
10
-30
20
11.8006404644985
30
0
41
1
10
-30
20
9.09737074779505
30
0
41
1
10
-30
20
7.56524038449703
30
0
41
1
10
-30
20
4.91120745530117
30
0
41
1
10
-30
20
3.98120598160401
30
0
41
1
10
-30
20
2.00408086722498
30
0
41
1
10
-30
20
0.965918145527041
30
0
41
1
10
-30
20
-1.14866982454436
30
0
41
1
10
-30
20
-2.16166354374221
30
0
41
1
10
-30
20
-4.13146551345224
30
0
41
1
10
-30
20
-5.04792648915179
30
0
41
1
10
-30
20
-7.66128536670072
30
0
41
1
10
-30
20
-9.21076433484396
30
0
41
1
10
-30
20
-11.849267368353
30
0
41
1
10
-30
20
-12.9852614660311
30
0
41
1
10
-30
20
-14.7262518878428
30
0
41
1
10
-30
20
-15.3817060642258
30
0
41
1
10
-30
20
-15.855784689269
30
0
41
1
10
-30
20
-15.9426612636439
30
0
41
1
10
-30
20
-15.9428910476841
30
0
0
SPLINE
5
108
100
AcDbEntity
8
SK1
62
256
6
ByLayer
370
-1
48
1
60
0
100
AcDbSpline
70
4
71
3
72
30
73
26
40
0
40
0
40
0
40
0
40
0.0455741138316487
40
0.0455741138316487
40
0.159049671875509
40
0.159049671875509
40
0.27252522991937
40
0.27252522991937
40
0.38600078796323
40
0.38600078796323
40
0.442738566985161
40
0.442738566985161
40
0.499476346007091
40
0.499476346007091
40
0.556214125029021
40
0.556214125029021
40
0.612951904050951
40
0.612951904050951
40
0.726427462094812
40
0.726427462094812
40
0.839903020138673
40
0.839903020138673
40
0.953378578182533
40
0.953378578182533
40
1
40
1
40
1
40
1
41
1
10
-28.5003225413339
20
-16.8565967863167
30
0
41
1
10
-28.5000340669831
20
-16.8376459225045
30
0
41
1
10
-28.4997859155402
20
-16.7493118007676
30
0
41
1
10
-28.4990096724341
20
-16.2729938374631
30
0
41
1
10
-28.4986372996478
20
-15.5898791582816
30
0
41
1
10
-28.4982166150499
20
-13.7831948847497
30
0
41
1
10
-28.4981553816128
20
-12.6061661210532
30
0
41
1
10
-28.4983351299001
20
-9.86418151693283
30
0
41
1
10
-28.4986074380835
20
-8.25375111866762
30
0
41
1
10
-28.4992036819074
20
-5.50138802951523
30
0
41
1
10
-28.4994883437258
20
-4.53085409634477
30
0
41
1
10
-28.5000751939889
20
-2.41173377014363
30
0
41
1
10
-28.5004477674112
20
-1.29663162177331
30
0
41
1
10
-28.5004967455741
20
1.09102073027188
30
0
41
1
10
-28.5001241479799
20
2.2401723307652
30
0
41
1
10
-28.4995330545162
20
4.37057072068765
30
0
41
1
10
-28.4992388617691
20
5.35704789398332
30
0
41
1
10
-28.4986284127516
20
8.15325541572716
30
0
41
1
10
-28.4983486589648
20
9.7461643015493
30
0
41
1
10
-28.4981532155241
20
12.5558253675992
30
0
41
1
10
-28.4982075437695
20
13.7091738077836
30
0
41
1
10
-28.4986240668147
20
15.5662992382396
30
0
41
1
10
-28.4989853639464
20
16.2452515155336
30
0
41
1
10
-28.499764166073
20
16.7407877219605
30
0
41
1
10
-28.5000170119363
20
16.8337365666551
30
0
41
1
10
-28.5003124431511
20
16.8540125120957
30
0
0
SPLINE
5
109
100
AcDbEntity
8
SK1
62
256
6
ByLayer
370
-1
48
1
60
0
100
AcDbSpline
70
4
71
3
72
79
73
75
40
0
40
0
40
0
40
0
40
0.0067087492537887
40
0.0208027851155881
40
0.0348968209773875
40
0.0489908568391869
40
0.0630848927009864
40
0.0771789285627858
40
0.0912729644245852
40
0.105367000286385
40
0.119461036148184
40
0.133555072009984
40
0.147649107871783
40
0.161743143733582
40
0.175837179595382
40
0.189931215457181
40
0.204025251318981
40
0.21811928718078
40
0.232213323042579
40
0.246307358904379
40
0.260401394766178
40
0.274495430627978
40
0.288589466489777
40
0.302683502351576
40
0.316777538213376
40
0.330871574075175
40
0.344965609936975
40
0.359059645798774
40
0.373153681660574
40
0.387247717522373
40
0.401341753384172
40
0.415435789245972
40
0.429529825107771
40
0.443623860969571
40
0.45771789683137
40
0.47181193269317
40
0.485905968554969
40
0.500000004416768
40
0.514094040278568
40
0.528188076140367
40
0.542282112002167
40
0.556376147863966
40
0.570470183725766
40
0.584564219587565
40
0.598658255449364
40
0.612752291311164
40
0.626846327172963
40
0.640940363034763
40
0.655034398896562
40
0.669128434758361
40
0.683222470620161
40
0.69731650648196
40
0.71141054234376
40
0.725504578205559
40
0.739598614067359
40
0.753692649929158
40
0.767786685790957
40
0.781880721652757
40
0.795974757514556
40
0.810068793376356
40
0.824162829238155
40
0.838256865099955
40
0.852350900961754
40
0.866444936823553
40
0.880538972685353
40
0.894633008547152
40
0.908727044408952
40
0.922821080270751
40
0.936915116132551
40
0.95100915199435
40
0.965103187856149
40
0.979197223717949
40
0.993291259579748
40
1
40
1
40
1
40
1
41
1
10
-2.99999999999994
20
17.2891030035319
30
0
41
1
10
-2.99999999999994
20
17.3064425253598
30
0
41
1
10
-2.99999999999994
20
17.3576824679414
30
0
41
1
10
-2.99999999999997
20
17.4290648746259
30
0
41
1
10
-2.99999999999997
20
17.4859427971309
30
0
41
1
10
-3
20
17.5070292572437
30
0
41
1
10
-3
20
17.4859401738945
30
0
41
1
10
-3
20
17.4163913620312
30
0
41
1
10
-3
20
17.2925088911448
30
0
41
1
10
-3
20
17.1091123896189
30
0
41
1
10
-3
20
16.8619882313057
30
0
41
1
10
-3
20
16.5481197778907
30
0
41
1
10
-3
20
16.1658744357057
30
0
41
1
10
-3
20
15.7151402778227
30
0
41
1
10
-3
20
15.1974002275414
30
0
41
1
10
-3
20
14.6157505856349
30
0
41
1
10
-3
20
13.9748490556261
30
0
41
1
10
-3
20
13.2808105172309
30
0
41
1
10
-3
20
12.5410348198394
30
0
41
1
10
-3
20
11.763994099502
30
0
41
1
10
-3
20
10.9589648821141
30
0
41
1
10
-3
20
10.1357380738661
30
0
41
1
10
-3
20
9.30429484700929
30
0
41
1
10
-3
20
8.47448256671282
30
0
41
1
10
-3
20
7.6556828892094
30
0
41
1
10
-3
20
6.85650245921596
30
0
41
1
10
-3
20
6.08448325445985
30
0
41
1
10
-3
20
5.34585503158101
30
0
41
1
10
-3
20
4.64533193812392
30
0
41
1
10
-3
20
3.9859646700211
30
0
41
1
10
-3
20
3.36905464097902
30
0
41
1
10
-3
20
2.79412899561987
30
0
41
1
10
-3
20
2.25898609800083
30
0
41
1
10
-3
20
1.75979816383233
30
0
41
1
10
-3
20
1.29128215780307
30
0
41
1
10
-3
20
0.846915650735156
30
0
41
1
10
-3
20
0.41920838047011
30
0
41
1
10
-3
20
-8.85488021E-08
30
0
41
1
10
-3
20
-0.419208026274788
30
0
41
1
10
-3
20
-0.84691581376515
30
0
41
1
10
-3
20
-1.29128185987813
30
0
41
1
10
-3
20
-1.75979828673439
30
0
41
1
10
-3
20
-2.25898590431717
30
0
41
1
10
-3
20
-2.79412905823773
30
0
41
1
10
-3
20
-3.36905458419105
30
0
41
1
10
-3
20
-3.98596466105747
30
0
41
1
10
-3
20
-4.64533203076618
30
0
41
1
10
-3
20
-5.34585495020943
30
0
41
1
10
-3
20
-6.08448348730366
30
0
41
1
10
-3
20
-6.85650231512167
30
0
41
1
10
-3
20
-7.65568323274246
30
0
41
1
10
-3
20
-8.47448237855718
30
0
41
1
10
-3
20
-9.30429525609867
30
0
41
1
10
-3
20
-10.1357378664365
30
0
41
1
10
-3
20
-10.9589653027428
30
0
41
1
10
-3
20
-11.7639938999324
30
0
41
1
10
-3
20
-12.5410351974886
30
0
41
1
10
-3
20
-13.2808103509102
30
0
41
1
10
-3
20
-13.9748493432595
30
0
41
1
10
-3
20
-14.6157504724401
30
0
41
1
10
-3
20
-15.197400392687
30
0
41
1
10
-3
20
-15.7151402291805
30
0
41
1
10
-3
20
-16.1658744651289
30
0
41
1
10
-3
20
-16.5481197951877
30
0
41
1
10
-3
20
-16.8619881326948
30
0
41
1
10
-3
20
-17.1091124641426
30
0
41
1
10
-3
20
-17.2925086916609
30
0
41
1
10
-3
20
-17.4163918494222
30
0
41
1
10
-3
20
-17.4859391868839
30
0
41
1
10
-3
20
-17.5070293524766
30
0
41
1
10
-2.99999999999997
20
-17.4859434032096
30
0
41
1
10
-2.99999999999997
20
-17.4290646714908
30
0
41
1
10
-2.99999999999997
20
-17.3576822644971
30
0
41
1
10
-2.99999999999997
20
-17.3064424596398
30
0
41
1
10
-2.99999999999997
20
-17.2891029958214
30
0
0
LINE
5
4A
100
AcDbEntity
8
80
62
256
6
ByLayer
370
-1
48
1
60
0
100
AcDbLine
10
0
20
0
30
0
11
-10
21
0
31
0
39
0
210
0
220
0
230
1
0
LINE
5
4B
100
AcDbEntity
8
81
62
256
6
ByLayer
370
-1
48
1
60
0
100
AcDbLine
10
110
20
-21.9
30
0
11
120
21
-21.9
31
0
39
0
210
0
220
0
230
1
0
LINE
5
4C
100
AcDbEntity
8
1
62
256
6
ByLayer
370
-1
48
1
60
0
100
AcDbLine
10
103.884717
20
-12.766853
30
0
11
103.876115
21
-12.602718
31
0
39
0
210
0
220
0
230
1
0
LINE
5
4D
100
AcDbEntity
8
1
62
256
6
ByLayer
370
-1
48
1
60
0
100
AcDbLine
10
102.215208
20
-13.704649
30
0
11
102.222952
21
-13.852411
31
0
39
0
210
0
220
0
230
1
0
LINE
5
4E
100
AcDbEntity
8
1
62
256
6
ByLayer
370
-1
48
1
60
0
100
AcDbLine
10
107.465757
20
-13.577647
30
0
11
107.458013
21
-13.429885
31
0
39
0
210
0
220
0
230
1
0
LINE
5
4F
100
AcDbEntity
8
1
62
256
6
ByLayer
370
-1
48
1
60
0
100
AcDbLine
10
105.775566
20
-12.650953
30
0
11
105.783973
21
-12.811377
31
0
39
0
210
0
220
0
230
1
0
LINE
5
50
100
AcDbEntity
8
1
62
256
6
ByLayer
370
-1
48
1
60
0
100
AcDbLine
10
105.796761
20
-14.525246
30
0
11
105.805357
21
-14.689275
31
0
39
0
210
0
220
0
230
1
0
LINE
5
51
100
AcDbEntity
8
1
62
256
6
ByLayer
370
-1
48
1
60
0
100
AcDbLine
10
103.905718
20
-14.637441
30
0
11
103.897311
21
-14.477011
31
0
39
0
210
0
220
0
230
1
0
LINE
5
52
100
AcDbEntity
8
1
62
256
6
ByLayer
370
-1
48
1
60
0
100
AcDbLine
10
19.5
20
-25
30
0
11
20.71226
21
-20.454024
31
0
39
0
210
0
220
0
230
1
0
LINE
5
53
100
AcDbEntity
8
1
62
256
6
ByLayer
370
-1
48
1
60
0
100
AcDbLine
10
20.71226
20
20.454024
30
0
11
19.5
21
25
31
0
39
0
210
0
220
0
230
1
0
LINE
5
54
100
AcDbEntity
8
1
62
256
6
ByLayer
370
-1
48
1
60
0
100
AcDbLine
10
0.3
20
25
30
0
11
0
21
24.7
31
0
39
0
210
0
220
0
230
1
0
LINE
5
55
100
AcDbEntity
8
1
62
256
6
ByLayer
370
-1
48
1
60
0
100
AcDbLine
10
0
20
-24.7
30
0
11
0.3
21
-25
31
0
39
0
210
0
220
0
230
1
0
LINE
5
56
100
AcDbEntity
8
1
62
256
6
ByLayer
370
-1
48
1
60
0
100
AcDbLine
10
19.5
20
25
30
0
11
0.3
21
25
31
0
39
0
210
0
220
0
230
1
0
LINE
5
57
100
AcDbEntity
8
1
62
256
6
ByLayer
370
-1
48
1
60
0
100
AcDbLine
10
0.3
20
-25
30
0
11
19.5
21
-25
31
0
39
0
210
0
220
0
230
1
0
LINE
5
58
100
AcDbEntity
8
1
62
256
6
ByLayer
370
-1
48
1
60
0
100
AcDbLine
10
93.224806
20
16
30
0
11
26.50967
21
16
31
0
39
0
210
0
220
0
230
1
0
LINE
5
59
100
AcDbEntity
8
1
62
256
6
ByLayer
370
-1
48
1
60
0
100
AcDbLine
10
26.50967
20
-16
30
0
11
99.224806
21
-16
31
0
39
0
210
0
220
0
230
1
0
LINE
5
5A
100
AcDbEntity
8
1
62
256
6
ByLayer
370
-1
48
1
60
0
100
AcDbLine
10
99.224806
20
-16
30
0
11
99.319405
21
-16.057328
31
0
39
0
210
0
220
0
230
1
0
LINE
5
5B
100
AcDbEntity
8
1
62
256
6
ByLayer
370
-1
48
1
60
0
100
AcDbLine
10
100.751891
20
-5.69159
30
0
11
100.563067
21
-5.626034
31
0
39
0
210
0
220
0
230
1
0
LINE
5
5C
100
AcDbEntity
8
1
62
256
6
ByLayer
370
-1
48
1
60
0
100
AcDbLine
10
100.330535
20
-5.63822
30
0
11
100.149598
21
-5.723154
31
0
39
0
210
0
220
0
230
1
0
LINE
5
5D
100
AcDbEntity
8
SK4
62
256
6
ByLayer
370
-1
48
0.05
60
0
100
AcDbLine
10
-35
20
0
30
0
11
114.735612
21
0
31
0
39
0
210
0
220
0
230
1
0
LINE
5
5F
100
AcDbEntity
8
4
62
256
6
ByLayer
370
-1
48
0.05
60
0
100
AcDbLine
10
0
20
0
30
0
11
144.735612
21
0
31
0
39
0
210
0
220
0
230
1
0
LINE
5
61
100
AcDbEntity
8
1
62
256
6
ByLayer
370
-1
48
1
60
0
100
AcDbLine
10
19.5
20
25
30
0
11
19.5
21
-25
31
0
39
0
210
0
220
0
230
1
0
LINE
5
62
100
AcDbEntity
8
1
62
256
6
ByLayer
370
-1
48
1
60
0
100
AcDbLine
10
11.894338
20
-8.055848
30
0
11
11.894338
21
-23.666502
31
0
39
0
210
0
220
0
230
1
0
LINE
5
63
100
AcDbEntity
8
1
62
256
6
ByLayer
370
-1
48
1
60
0
100
AcDbLine
10
11.461325
20
-7.529667
30
0
11
11.461325
21
-23.83913
31
0
39
0
210
0
220
0
230
1
0
LINE
5
64
100
AcDbEntity
8
1
62
256
6
ByLayer
370
-1
48
1
60
0
100
AcDbLine
10
101.227761
20
5.333492
30
0
11
108.951851
21
-4.961339
31
0
39
0
210
0
220
0
230
1
0
LINE
5
65
100
AcDbEntity
8
1
62
256
6
ByLayer
370
-1
48
1
60
0
100
AcDbLine
10
8.538675
20
23.83913
30
0
11
8.538675
21
7.529667
31
0
39
0
210
0
220
0
230
1
0
LINE
5
66
100
AcDbEntity
8
1
62
256
6
ByLayer
370
-1
48
1
60
0
100
AcDbLine
10
93.982998
20
14.989466
30
0
11
101.227761
21
5.333492
31
0
39
0
210
0
220
0
230
1
0
LINE
5
67
100
AcDbEntity
8
1
62
256
6
ByLayer
370
-1
48
1
60
0
100
AcDbLine
10
8.538675
20
-23.83913
30
0
11
11.461325
21
-23.83913
31
0
39
0
210
0
220
0
230
1
0
LINE
5
68
100
AcDbEntity
8
1
62
256
6
ByLayer
370
-1
48
1
60
0
100
AcDbLine
10
0
20
24.7
30
0
11
0
21
-24.7
31
0
39
0
210
0
220
0
230
1
0
LINE
5
69
100
AcDbEntity
8
1
62
256
6
ByLayer
370
-1
48
1
60
0
100
AcDbLine
10
11.461325
20
23.83913
30
0
11
11.461325
21
7.529667
31
0
39
0
210
0
220
0
230
1
0
LINE
5
6A
100
AcDbEntity
8
1
62
256
6
ByLayer
370
-1
48
1
60
0
100
AcDbLine
10
8.538675
20
7.529667
30
0
11
11.461325
21
7.529667
31
0
39
0
210
0
220
0
230
1
0
LINE
5
6B
100
AcDbEntity
8
1
62
256
6
ByLayer
370
-1
48
1
60
0
100
AcDbLine
10
101.511917
20
-5.560884
30
0
11
101.54326
21
-6.158957
31
0
39
0
210
0
220
0
230
1
0
LINE
5
6C
100
AcDbEntity
8
1
62
256
6
ByLayer
370
-1
48
1
60
0
100
AcDbLine
10
0.3
20
25
30
0
11
0.3
21
-25
31
0
39
0
210
0
220
0
230
1
0
LINE
5
6D
100
AcDbEntity
8
1
62
256
6
ByLayer
370
-1
48
1
60
0
100
AcDbLine
10
99.713325
20
-9.380343
30
0
11
99.852667
21
-9.466622
31
0
39
0
210
0
220
0
230
1
0
LINE
5
6E
100
AcDbEntity
8
1
62
256
6
ByLayer
370
-1
48
1
60
0
100
AcDbLine
10
99.224806
20
-16
30
0
11
99.224806
21
-15.993548
31
0
39
0
210
0
220
0
230
1
0
LINE
5
6F
100
AcDbEntity
8
1
62
256
6
ByLayer
370
-1
48
1
60
0
100
AcDbLine
10
20.71226
20
20.454024
30
0
11
20.71226
21
-20.454024
31
0
39
0
210
0
220
0
230
1
0
LINE
5
70
100
AcDbEntity
8
1
62
256
6
ByLayer
370
-1
48
1
60
0
100
AcDbLine
10
11.894338
20
23.666502
30
0
11
11.894338
21
8.055848
31
0
39
0
210
0
220
0
230
1
0
LINE
5
71
100
AcDbEntity
8
1
62
256
6
ByLayer
370
-1
48
1
60
0
100
AcDbLine
10
93.224806
20
16
30
0
11
93.982998
21
14.989466
31
0
39
0
210
0
220
0
230
1
0
LINE
5
72
100
AcDbEntity
8
1
62
256
6
ByLayer
370
-1
48
1
60
0
100
AcDbLine
10
95.46497
20
-15.992782
30
0
11
101.227761
21
5.333492
31
0
39
0
210
0
220
0
230
1
0
LINE
5
73
100
AcDbEntity
8
1
62
256
6
ByLayer
370
-1
48
1
60
0
100
AcDbLine
10
109.247965
20
-10.611537
30
0
11
108.951851
21
-4.961339
31
0
39
0
210
0
220
0
230
1
0
LINE
5
74
100
AcDbEntity
8
1
62
256
6
ByLayer
370
-1
48
1
60
0
100
AcDbLine
10
8.105662
20
-8.055848
30
0
11
8.105662
21
-23.666502
31
0
39
0
210
0
220
0
230
1
0
LINE
5
75
100
AcDbEntity
8
1
62
256
6
ByLayer
370
-1
48
1
60
0
100
AcDbLine
10
11.461325
20
23.83913
30
0
11
8.538675
21
23.83913
31
0
39
0
210
0
220
0
230
1
0
LINE
5
76
100
AcDbEntity
8
1
62
256
6
ByLayer
370
-1
48
1
60
0
100
AcDbLine
10
99.256686
20
-6.771269
30
0
11
99.224784
21
-6.162553
31
0
39
0
210
0
220
0
230
1
0
LINE
5
77
100
AcDbEntity
8
1
62
256
6
ByLayer
370
-1
48
1
60
0
100
AcDbLine
10
99.713325
20
-9.380343
30
0
11
99.823238
21
-8.90506
31
0
39
0
210
0
220
0
230
1
0
LINE
5
78
100
AcDbEntity
8
1
62
256
6
ByLayer
370
-1
48
1
60
0
100
AcDbLine
10
8.538675
20
-7.529667
30
0
11
8.538675
21
-23.83913
31
0
39
0
210
0
220
0
230
1
0
LINE
5
79
100
AcDbEntity
8
1
62
256
6
ByLayer
370
-1
48
1
60
0
100
AcDbLine
10
26.50967
20
-16
30
0
11
26.50967
21
16
31
0
39
0
210
0
220
0
230
1
0
LINE
5
7A
100
AcDbEntity
8
1
62
256
6
ByLayer
370
-1
48
1
60
0
100
AcDbLine
10
8.105662
20
23.666502
30
0
11
8.105662
21
8.055848
31
0
39
0
210
0
220
0
230
1
0
LINE
5
7B
100
AcDbEntity
8
1
62
256
6
ByLayer
370
-1
48
1
60
0
100
AcDbLine
10
11.461325
20
-7.529667
30
0
11
8.538675
21
-7.529667
31
0
39
0
210
0
220
0
230
1
0
LINE
5
7C
100
AcDbEntity
8
SK1
62
256
6
ByLayer
370
-1
48
1
60
0
100
AcDbLine
10
-0.4
20
-17.32515
30
0
11
-0.4
21
-5.168667
31
0
39
0
210
0
220
0
230
1
0
LINE
5
7E
100
AcDbEntity
8
1
62
256
6
ByLayer
370
-1
48
1
60
0
100
AcDbLine
10
108.784942
20
-21.780373
30
0
11
100.570489
21
-16.694083
31
0
39
0
210
0
220
0
230
1
0
LINE
5
7F
100
AcDbEntity
8
1
62
256
6
ByLayer
370
-1
48
1
60
0
100
AcDbLine
10
100.198629
20
-16.067935
30
0
11
99.695939
21
-6.476048
31
0
39
0
210
0
220
0
230
1
0
LINE
5
80
100
AcDbEntity
8
1
62
256
6
ByLayer
370
-1
48
1
60
0
100
AcDbLine
10
100.909903
20
-5.76679
30
0
11
109.124357
21
-10.85308
31
0
39
0
210
0
220
0
230
1
0
LINE
5
81
100
AcDbEntity
8
1
62
256
6
ByLayer
370
-1
48
1
60
0
100
AcDbLine
10
109.496217
20
-11.479228
30
0
11
109.998906
21
-21.071115
31
0
39
0
210
0
220
0
230
1
0
LINE
5
82
100
AcDbEntity
8
1
62
256
6
ByLayer
370
-1
48
1
60
0
100
AcDbLine
10
103.764845
20
-14.250562
30
0
11
103.756901
21
-14.098978
31
0
39
0
210
0
220
0
230
1
0
LINE
5
83
100
AcDbEntity
8
1
62
256
6
ByLayer
370
-1
48
1
60
0
100
AcDbLine
10
106.298792
20
-13.83411
30
0
11
106.307854
21
-14.007034
31
0
39
0
210
0
220
0
230
1
0
LINE
5
84
100
AcDbEntity
8
1
62
256
6
ByLayer
370
-1
48
1
60
0
100
AcDbLine
10
105.334395
20
-14.953369
30
0
11
105.343458
21
-15.126294
31
0
39
0
210
0
220
0
230
1
0
LINE
5
85
100
AcDbEntity
8
1
62
256
6
ByLayer
370
-1
48
1
60
0
100
AcDbLine
10
103.856505
20
-12.53133
30
0
11
103.861747
21
-12.631345
31
0
39
0
210
0
220
0
230
1
0
LINE
5
86
100
AcDbEntity
8
1
62
256
6
ByLayer
370
-1
48
1
60
0
100
AcDbLine
10
103.380413
20
-13.853459
30
0
11
103.389463
21
-14.026155
31
0
39
0
210
0
220
0
230
1
0
LINE
5
87
100
AcDbEntity
8
1
62
256
6
ByLayer
370
-1
48
1
60
0
100
AcDbLine
10
104.365679
20
-14.96353
30
0
11
104.374742
21
-15.136454
31
0
39
0
210
0
220
0
230
1
0
LINE
5
88
100
AcDbEntity
8
1
62
256
6
ByLayer
370
-1
48
1
60
0
100
AcDbLine
10
103.84131
20
-14.241108
30
0
11
103.849255
21
-14.392693
31
0
39
0
210
0
220
0
230
1
0
LINE
5
89
100
AcDbEntity
8
1
62
256
6
ByLayer
370
-1
48
1
60
0
100
AcDbLine
10
99.96954
20
-5.83955
30
0
11
99.951788
21
-5.500814
31
0
39
0
210
0
220
0
230
1
0
LINE
5
8A
100
AcDbEntity
8
1
62
256
6
ByLayer
370
-1
48
1
60
0
100
AcDbLine
10
100.563356
20
-5.143505
30
0
11
101.521151
21
-5.73656
31
0
39
0
210
0
220
0
230
1
0
LINE
5
8B
100
AcDbEntity
8
1
62
256
6
ByLayer
370
-1
48
1
60
0
100
AcDbLine
10
100.583154
20
-5.521268
30
0
11
101.540949
21
-6.114323
31
0
39
0
210
0
220
0
230
1
0
LINE
5
8C
100
AcDbEntity
8
1
62
256
6
ByLayer
370
-1
48
1
60
0
100
AcDbLine
10
100.583154
20
-5.521268
30
0
11
100.563356
21
-5.143505
31
0
39
0
210
0
220
0
230
1
0
LINE
5
8D
100
AcDbEntity
8
SK1
62
256
6
ByLayer
370
-1
48
1
60
0
100
AcDbLine
10
-0.2
20
5.881424
30
0
11
-0.2
21
17.833485
31
0
39
0
210
0
220
0
230
1
0
LINE
5
8E
100
AcDbEntity
8
SK1
62
256
6
ByLayer
370
-1
48
1
60
0
100
AcDbLine
10
-0.2
20
-17.833485
30
0
11
-0.2
21
-5.881425
31
0
39
0
210
0
220
0
230
1
0
LINE
5
8F
100
AcDbEntity
8
SK1
62
256
6
ByLayer
370
-1
48
1
60
0
100
AcDbLine
10
-1.307107
20
-3.804744
30
0
11
-1.307107
21
3.804747
31
0
39
0
210
0
220
0
230
1
0
LINE
5
90
100
AcDbEntity
8
2
62
256
6
ByLayer
370
-1
48
1
60
1
100
AcDbLine
10
110
20
0
30
0
11
110.001
21
0.001
31
0
39
0
210
0
220
0
230
1
0
MTEXT
5
10A
100
AcDbEntity
8
SK6
62
256
6
ByLayer
370
-1
48
1
60
0
100
AcDbMText
10
-0.257194
20
34.125
30
0
210
0
220
0
230
1
1
\W00.687;\fsimplex.shx,bigfont.shx;C5-SDUCL-22110-11 
40
3.5
41
0
44
1.084337
50
0
71
7
72
5
7
DEFAULT
0
DIMENSION
5
13E
100
AcDbEntity
8
SK2
62
256
6
ByLayer
370
-3
48
1
60
0
100
AcDbDimension
2
DimnDraft3D1
10
-42.75
20
-25
30
0
11
-42.75
21
-4.784211
31
0
70
32
71
5
72
1
41
1
210
0
220
0
230
1
3
Standard
100
AcDbAlignedDimension
13
-2
23
25
33
0
14
-2
24
-25
34
0
50
90
100
AcDbRotatedDimension
1001
ACAD
1000
DSTYLE
1002
{
1070
    74
1070
     0
1070
   279
1070
     0
1070
   172
1070
     1
1070
   173
1070
     1
1070
   340
1005
10B
1070
    77
1070
     1
1070
    73
1070
     0
1070
   171
1070
     4
1070
   274
1070
     4
1070
   177
1070
     2
1070
   176
1070
     2
1070
   178
1070
     7
1070
    78
1070
     8
1070
    41
1041
3.175
1070
   147
1041
2.25
1070
    42
1041
2.0
1070
    44
1041
2.0
1070
   140
1041
4.5
1070
   343
1005
13F
1070
   344
1005
13F
1002
}
0
DIMENSION
5
151
100
AcDbEntity
8
2
62
256
6
ByLayer
370
-3
48
1
60
0
100
AcDbDimension
2
DimnDraft3D2
10
37.15
20
16
30
0
11
37.15
21
-7.318421
31
0
70
32
71
5
72
1
41
1
210
0
220
0
230
1
3
Standard
100
AcDbAlignedDimension
13
21.9
23
16
33
0
14
0
24
0
34
0
50
90
100
AcDbRotatedDimension
1001
ACAD
1000
DSTYLE
1002
{
1070
    74
1070
     0
1070
   279
1070
     0
1070
   172
1070
     1
1070
   173
1070
     1
1070
   340
1005
10B
1070
    75
1070
     1
1070
    76
1070
     1
1070
    77
1070
     1
1070
    73
1070
     0
1070
   171
1070
     4
1070
   274
1070
     4
1070
   177
1070
     2
1070
   176
1070
     2
1070
   178
1070
     7
1070
    78
1070
     8
1070
    41
1041
3.175
1070
   147
1041
2.25
1070
    42
1041
2.0
1070
    44
1041
2.0
1070
   140
1041
4.5
1070
   343
1005
13F
1070
   344
1005
13F
1002
}
0
DIMENSION
5
15F
100
AcDbEntity
8
2
62
256
6
ByLayer
370
-3
48
1
60
0
100
AcDbDimension
2
DimnDraft3D3
10
122.25
20
-21.9
30
0
11
122.25
21
-16.113158
31
0
70
32
71
5
72
1
41
1
210
0
220
0
230
1
3
Standard
100
AcDbAlignedDimension
13
112
23
0
33
0
14
112
24
-21.9
34
0
50
90
100
AcDbRotatedDimension
1001
ACAD
1000
DSTYLE
1002
{
1070
    74
1070
     0
1070
   279
1070
     0
1070
   172
1070
     1
1070
   173
1070
     1
1070
   340
1005
10B
1070
    77
1070
     1
1070
    73
1070
     0
1070
   171
1070
     4
1070
   274
1070
     4
1070
   177
1070
     2
1070
   176
1070
     2
1070
   178
1070
     7
1070
    78
1070
     8
1070
    41
1041
3.175
1070
   147
1041
2.25
1070
    42
1041
2.0
1070
    44
1041
2.0
1070
   140
1041
4.5
1070
   343
1005
13F
1070
   344
1005
13F
1002
}
0
DIMENSION
5
16D
100
AcDbEntity
8
2
62
256
6
ByLayer
370
-3
48
1
60
0
100
AcDbDimension
2
DimnDraft3D4
10
110
20
-54.15
30
0
11
49.309868
21
-54.15
31
0
70
32
71
5
72
1
41
1
210
0
220
0
230
1
3
Standard
100
AcDbAlignedDimension
13
0
23
-27
33
0
14
110
24
-23.9
34
0
50
0
100
AcDbRotatedDimension
1001
ACAD
1000
DSTYLE
1002
{
1070
   279
1070
     0
1070
   172
1070
     1
1070
   173
1070
     1
1070
   340
1005
10B
1070
    77
1070
     1
1070
    73
1070
     0
1070
   171
1070
     4
1070
   274
1070
     4
1070
   177
1070
     2
1070
   176
1070
     2
1070
   178
1070
     7
1070
    78
1070
     8
1070
    41
1041
3.175
1070
   147
1041
2.25
1070
    42
1041
2.0
1070
    44
1041
2.0
1070
   140
1041
4.5
1070
   343
1005
13F
1070
   344
1005
13F
1002
}
0
DIMENSION
5
17B
100
AcDbEntity
8
2
62
256
6
ByLayer
370
-3
48
1
60
0
100
AcDbDimension
2
DimnDraft3D5
10
110
20
-39.15
30
0
11
61.349342
21
-39.15
31
0
70
32
71
5
72
1
41
1
210
0
220
0
230
1
3
Standard
100
AcDbAlignedDimension
13
21.9
23
-18
33
0
14
110
24
-23.9
34
0
50
0
100
AcDbRotatedDimension
1001
ACAD
1000
DSTYLE
1002
{
1070
   279
1070
     0
1070
   172
1070
     1
1070
   173
1070
     1
1070
   340
1005
10B
1070
    77
1070
     1
1070
    73
1070
     0
1070
   171
1070
     4
1070
   274
1070
     4
1070
   177
1070
     2
1070
   176
1070
     2
1070
   178
1070
     7
1070
    78
1070
     8
1070
    41
1041
3.175
1070
   147
1041
2.25
1070
    42
1041
2.0
1070
    44
1041
2.0
1070
   140
1041
4.5
1070
   343
1005
13F
1070
   344
1005
13F
1002
}
0
DIMENSION
5
189
100
AcDbEntity
8
2
62
256
6
ByLayer
370
-3
48
1
60
0
100
AcDbDimension
2
DimnDraft3D6
10
148.778676
20
0
30
0
11
131.886485
21
33.528479
31
0
70
34
71
5
72
1
41
1
210
0
220
0
230
1
3
Standard
100
AcDb2LineAngularDimension
13
109.319633
23
-8.917816
33
0
14
106.762683
24
39.871689
34
0
15
112
25
0
35
0
16
138.056681
26
30.775028
36
0
40
0
0
ENDSEC
0
SECTION
2
OBJECTS
0
DICTIONARY
5
1ba
330
0
100
AcDbDictionary
280
0
281
1
3
ACAD_GROUP
350
1bb
3
ACAD_MLINESTYLE
350
1bc
0
DICTIONARY
5
1bb
330
0
100
AcDbDictionary
280
0
281
1
0
DICTIONARY
5
1bc
330
0
100
AcDbDictionary
280
0
281
1
3
Standard
350
18
0
MLINESTYLE
5
18
330
1bc
100
AcDbMlineStyle
2
Standard
70
0
3

62
256
51
90
52
90
71
2
49
-0.5
62
256
6
ByLayer
49
0.5
62
256
6
ByLayer
0
RASTERVARIABLES
5
1a8
330

100
AcDbRasterVariables
90
0
70
1
71
1
72
1
0
ENDSEC
0
EOF
