0
SECTION
2
HEADER
9
$ACADVER
1
AC1015
9
$DWGCODEPAGE
3
ANSI_1252
9
$HANDSEED
5
1cf
9
$ANGBASE
50
0
9
$ANGDIR
70
0
9
$ATTMODE
70
1
9
$AUNITS
70
0
9
$AUPREC
70
0
9
$CECOLOR
62
256
9
$CELTSCALE
40
1
9
$CELTYPE
6
ByLayer
9
$CELWEIGHT
370
-1
9
$CLAYER
8
0
9
$CMLJUST
70
0
9
$CMLSCALE
40
1
9
$CMLSTYLE
2
Standard
9
$DIMSTYLE
2
Standard
9
$TEXTSIZE
40
0.2
9
$TEXTSTYLE
7
Standard
9
$LUNITS
70
2
9
$LUPREC
70
4
9
$EXTNAMES
290
1
9
$INSUNITS
70
4
9
$LTSCALE
40
1
9
$LWDISPLAY
290
0
9
$PDMODE
70
0
9
$PDSIZE
40
0
9
$PLINEGEN
70
0
0
ENDSEC
0
SECTION
2
CLASSES
0
CLASS
1
RASTERVARIABLES
2
AcDbRasterVariables
3
ISM
90
0
280
0
281
0
0
ENDSEC
0
SECTION
2
TABLES
0
TABLE
2
VPORT
5
1c5
100
AcDbSymbolTable
0
VPORT
5
1
100
AcDbSymbolTableRecord
100
AcDbViewportTableRecord
2
*Active
70
0
10
0
20
0
11
1
21
1
12
-1
22
1
13
0
23
0
14
0.5
24
0.5
15
10
25
10
16
0
26
0
36
1
17
0
27
0
37
0
0
ENDTAB
0
TABLE
2
LTYPE
5
1c6
100
AcDbSymbolTable
0
LTYPE
5
14
100
AcDbSymbolTableRecord
100
AcDbLinetypeTableRecord
70
0
2
ByBlock
3

72
65
73
0
40
0
0
LTYPE
5
15
100
AcDbSymbolTableRecord
100
AcDbLinetypeTableRecord
70
0
2
ByLayer
3

72
65
73
0
40
0
0
LTYPE
5
16
100
AcDbSymbolTableRecord
100
AcDbLinetypeTableRecord
70
0
2
CONTINUOUS
3
Solid line
72
65
73
0
40
0
0
LTYPE
5
3B
100
AcDbSymbolTableRecord
100
AcDbLinetypeTableRecord
70
0
2
DASHED
3
__ __ __ __ __ __ __ __ __
72
65
73
2
40
25.72
49
12.86
74
0
49
-12.86
74
0
0
LTYPE
5
3C
100
AcDbSymbolTableRecord
100
AcDbLinetypeTableRecord
70
0
2
HIDDEN
3
_ _ _ _ _ _ _ _ _ _ _ _ _ _ _
72
65
73
2
40
0.5
49
0.25
74
0
49
-0.25
74
0
0
LTYPE
5
3D
100
AcDbSymbolTableRecord
100
AcDbLinetypeTableRecord
70
0
2
PHANTOM
3
____ _ _ ____ _ _ _____ _ _ ____
72
65
73
6
40
50.5
49
18
74
0
49
-6.5
74
0
49
6.5
74
0
49
-6.5
74
0
49
6.5
74
0
49
-6.5
74
0
0
LTYPE
5
3E
100
AcDbSymbolTableRecord
100
AcDbLinetypeTableRecord
70
0
2
CENTER
3
____ _ ____ _ ____ _ ____
72
65
73
4
40
47.5
49
22
74
0
49
-8.5
74
0
49
8.5
74
0
49
-8.5
74
0
0
LTYPE
5
3F
100
AcDbSymbolTableRecord
100
AcDbLinetypeTableRecord
70
0
2
DOT
3
.........................
72
65
73
2
40
10
49
0
74
0
49
-10
74
0
0
LTYPE
5
40
100
AcDbSymbolTableRecord
100
AcDbLinetypeTableRecord
70
0
2
DASHDOT
3
_._._._._._._._._._._._._._._._.
72
65
73
4
40
70
49
31
74
0
49
-13
74
0
49
13
74
0
49
-13
74
0
0
ENDTAB
0
TABLE
2
LAYER
5
1c7
100
AcDbSymbolTable
0
LAYER
5
10
100
AcDbSymbolTableRecord
100
AcDbLayerTableRecord
2
0
70
0
62
7
6
CONTINUOUS
290
1
370
-3
390
0
0
LAYER
5
42
100
AcDbSymbolTableRecord
100
AcDbLayerTableRecord
2
80
70
0
62
-6
6
CONTINUOUS
290
1
370
-3
390
0
0
LAYER
5
44
100
AcDbSymbolTableRecord
100
AcDbLayerTableRecord
2
81
70
0
62
-3
6
CONTINUOUS
290
1
370
-3
390
0
0
LAYER
5
46
100
AcDbSymbolTableRecord
100
AcDbLayerTableRecord
2
1
70
0
62
4
6
CONTINUOUS
290
1
370
-3
390
0
0
LAYER
5
48
100
AcDbSymbolTableRecord
100
AcDbLayerTableRecord
2
2
70
0
62
7
6
CONTINUOUS
290
1
370
-3
390
0
0
LAYER
5
4E
100
AcDbSymbolTableRecord
100
AcDbLayerTableRecord
2
4
70
0
62
-2
6
CENTER
290
1
370
-3
390
0
0
LAYER
5
1b1
100
AcDbSymbolTableRecord
100
AcDbLayerTableRecord
2
SK4
70
0
62
2
6
CENTER
290
1
370
-3
390
0
0
LAYER
5
1b2
100
AcDbSymbolTableRecord
100
AcDbLayerTableRecord
2
SK1
70
0
62
4
6
CONTINUOUS
290
1
370
-3
390
0
0
LAYER
5
1b3
100
AcDbSymbolTableRecord
100
AcDbLayerTableRecord
2
SK6
70
0
62
5
6
CONTINUOUS
290
1
370
-3
390
0
0
LAYER
5
1b4
100
AcDbSymbolTableRecord
100
AcDbLayerTableRecord
2
SK2
70
0
62
7
6
CONTINUOUS
290
1
370
-3
390
0
0
ENDTAB
0
TABLE
2
STYLE
5
1c8
100
AcDbSymbolTable
0
STYLE
5
11
100
AcDbSymbolTableRecord
100
AcDbTextStyleTableRecord
2
Standard
3
txt
70
0
71
0
40
0
41
1
42
0
50
0
0
STYLE
5
113
100
AcDbSymbolTableRecord
100
AcDbTextStyleTableRecord
2
DEFAULT
3
simplex.shx
70
0
71
0
40
0
41
1
42
0
50
0
0
STYLE
5
136
100
AcDbSymbolTableRecord
100
AcDbTextStyleTableRecord
2
DWGDirectTextStyle
3
SIMPLEX
70
0
71
0
40
0
41
1
42
0
50
0
0
ENDTAB
0
TABLE
2
DIMSTYLE
5
1c9
100
AcDbSymbolTable
100
AcDbDimStyleTable
0
DIMSTYLE
105
27
100
AcDbSymbolTableRecord
100
AcDbDimStyleTableRecord
2
Standard
70
0
3
<>
41
0.18
42
0.0625
44
0.18
140
0.18
147
0.09
73
0
74
0
77
1
271
2
275
0
278
52
280
0
340
11
0
ENDTAB
0
TABLE
2
VIEW
5
1ca
100
AcDbSymbolTable
0
ENDTAB
0
TABLE
2
UCS
5
1cb
100
AcDbSymbolTable
0
ENDTAB
0
TABLE
2
APPID
5
1cc
100
AcDbSymbolTable
0
APPID
5
12
100
AcDbSymbolTableRecord
100
AcDbRegAppTableRecord
2
ACAD
70
0
0
ENDTAB
0
TABLE
2
BLOCK_RECORD
5
1cd
100
AcDbSymbolTable
0
BLOCK_RECORD
5
1F
100
AcDbSymbolTableRecord
100
AcDbBlockTableRecord
2
*Model_Space
340
0
70
0
0
BLOCK_RECORD
5
1B
100
AcDbSymbolTableRecord
100
AcDbBlockTableRecord
2
*Paper_Space
340
0
70
0
0
BLOCK_RECORD
5
23
100
AcDbSymbolTableRecord
100
AcDbBlockTableRecord
2
*Paper_Space0
340
0
70
0
0
BLOCK_RECORD
5
138
100
AcDbSymbolTableRecord
100
AcDbBlockTableRecord
2
DimnDraft3D1
340
0
70
0
0
BLOCK_RECORD
5
147
100
AcDbSymbolTableRecord
100
AcDbBlockTableRecord
2
_CLOSED
340
0
70
0
0
BLOCK_RECORD
5
14E
100
AcDbSymbolTableRecord
100
AcDbBlockTableRecord
2
DimnDraft3D2
340
0
70
0
0
BLOCK_RECORD
5
15A
100
AcDbSymbolTableRecord
100
AcDbBlockTableRecord
2
DimnDraft3D3
340
0
70
0
0
BLOCK_RECORD
5
168
100
AcDbSymbolTableRecord
100
AcDbBlockTableRecord
2
DimnDraft3D4
340
0
70
0
0
BLOCK_RECORD
5
176
100
AcDbSymbolTableRecord
100
AcDbBlockTableRecord
2
DimnDraft3D5
340
0
70
0
0
BLOCK_RECORD
5
184
100
AcDbSymbolTableRecord
100
AcDbBlockTableRecord
2
DimnDraft3D6
340
0
70
0
0
ENDTAB
0
ENDSEC
0
SECTION
2
BLOCKS
0
BLOCK
5
20
100
AcDbEntity
8
0
100
AcDbBlockBegin
2
*Model_Space
70
0
10
0
20
0
30
0
3
*Model_Space
0
ENDBLK
5
21
100
AcDbEntity
8
0
100
AcDbBlockEnd
0
BLOCK
5
1C
100
AcDbEntity
8
0
100
AcDbBlockBegin
2
*Paper_Space
70
0
10
0
20
0
30
0
3
*Paper_Space
0
ENDBLK
5
1D
100
AcDbEntity
8
0
100
AcDbBlockEnd
0
BLOCK
5
24
100
AcDbEntity
8
0
100
AcDbBlockBegin
2
*Paper_Space0
70
0
10
0
20
0
30
0
3
*Paper_Space0
0
ENDBLK
5
25
100
AcDbEntity
8
0
100
AcDbBlockEnd
0
BLOCK
5
144
100
AcDbEntity
8
0
100
AcDbBlockBegin
2
DimnDraft3D1
70
0
10
0
20
0
30
0
3
DimnDraft3D1
0
MTEXT
5
139
100
AcDbEntity
8
SK2
62
256
6
ByLayer
370
-1
48
1
60
0
100
AcDbMText
10
-43.875
20
-3.659211
30
0
210
0
220
0
230
1
1
\W01.000;\fsimplex.shx,bigfont.shx;%%c50 
40
4.5
41
0
44
1.084337
50
90
71
7
72
5
7
DEFAULT
0
LINE
5
13B
100
AcDbEntity
8
SK2
62
256
6
ByLayer
370
-1
48
1
60
0
100
AcDbLine
10
-2
20
-25
30
0
11
-44.75
21
-25
31
0
39
0
210
0
220
0
230
1
0
LINE
5
13C
100
AcDbEntity
8
SK2
62
256
6
ByLayer
370
-1
48
1
60
0
100
AcDbLine
10
-2
20
25
30
0
11
-44.75
21
25
31
0
39
0
210
0
220
0
230
1
0
LINE
5
13D
100
AcDbEntity
8
SK2
62
256
6
ByLayer
370
-1
48
1
60
0
100
AcDbLine
10
-42.75
20
-25
30
0
11
-42.75
21
25
31
0
39
0
210
0
220
0
230
1
0
LINE
5
13E
100
AcDbEntity
8
SK2
62
256
6
ByLayer
370
-1
48
1
60
0
100
AcDbLine
10
-42.75
20
-25
30
0
11
-43.167997
21
-21.825002
31
0
39
0
210
0
220
0
230
1
0
LINE
5
13F
100
AcDbEntity
8
SK2
62
256
6
ByLayer
370
-1
48
1
60
0
100
AcDbLine
10
-42.75
20
-25
30
0
11
-42.332003
21
-21.824998
31
0
39
0
210
0
220
0
230
1
0
LINE
5
140
100
AcDbEntity
8
SK2
62
256
6
ByLayer
370
-1
48
1
60
0
100
AcDbLine
10
-43.167997
20
-21.825002
30
0
11
-42.332003
21
-21.824998
31
0
39
0
210
0
220
0
230
1
0
LINE
5
141
100
AcDbEntity
8
SK2
62
256
6
ByLayer
370
-1
48
1
60
0
100
AcDbLine
10
-42.75
20
25
30
0
11
-42.332003
21
21.825002
31
0
39
0
210
0
220
0
230
1
0
LINE
5
142
100
AcDbEntity
8
SK2
62
256
6
ByLayer
370
-1
48
1
60
0
100
AcDbLine
10
-42.75
20
25
30
0
11
-43.167997
21
21.824998
31
0
39
0
210
0
220
0
230
1
0
LINE
5
143
100
AcDbEntity
8
SK2
62
256
6
ByLayer
370
-1
48
1
60
0
100
AcDbLine
10
-42.332003
20
21.825002
30
0
11
-43.167997
21
21.824998
31
0
39
0
210
0
220
0
230
1
0
ENDBLK
5
145
100
AcDbEntity
8
0
100
AcDbBlockEnd
0
BLOCK
5
148
100
AcDbEntity
8
0
100
AcDbBlockBegin
2
_CLOSED
70
0
10
0
20
0
30
0
3
_CLOSED
0
LINE
5
14A
100
AcDbEntity
8
0
62
256
6
ByLayer
370
-2
48
1
60
0
100
AcDbLine
10
-1
20
0.166667
30
0
11
0
21
0
31
0
39
0
210
0
220
0
230
1
0
LINE
5
14B
100
AcDbEntity
8
0
62
256
6
ByLayer
370
-2
48
1
60
0
100
AcDbLine
10
0
20
0
30
0
11
-1
21
-0.166667
31
0
39
0
210
0
220
0
230
1
0
LINE
5
14C
100
AcDbEntity
8
0
62
256
6
ByLayer
370
-2
48
1
60
0
100
AcDbLine
10
-1
20
0.166667
30
0
11
-1
21
-0.166667
31
0
39
0
210
0
220
0
230
1
0
LINE
5
14D
100
AcDbEntity
8
0
62
256
6
ByLayer
370
-2
48
1
60
0
100
AcDbLine
10
0
20
0
30
0
11
-1
21
0
31
0
39
0
210
0
220
0
230
1
0
ENDBLK
5
149
100
AcDbEntity
8
0
100
AcDbBlockEnd
0
BLOCK
5
157
100
AcDbEntity
8
0
100
AcDbBlockBegin
2
DimnDraft3D2
70
0
10
0
20
0
30
0
3
DimnDraft3D2
0
MTEXT
5
14F
100
AcDbEntity
8
2
62
256
6
ByLayer
370
-1
48
1
60
0
100
AcDbMText
10
36.025
20
-6.193421
30
0
210
0
220
0
230
1
1
\W01.000;\fsimplex.shx,bigfont.shx;%%c32.0 
40
4.5
41
0
44
1.084337
50
90
71
7
72
5
7
DEFAULT
0
LINE
5
150
100
AcDbEntity
8
2
62
256
6
ByLayer
370
-1
48
1
60
0
100
AcDbLine
10
37.15
20
-16
30
0
11
37.15
21
16
31
0
39
0
210
0
220
0
230
1
0
LINE
5
151
100
AcDbEntity
8
2
62
256
6
ByLayer
370
-1
48
1
60
0
100
AcDbLine
10
37.15
20
-16
30
0
11
36.732003
21
-12.825002
31
0
39
0
210
0
220
0
230
1
0
LINE
5
152
100
AcDbEntity
8
2
62
256
6
ByLayer
370
-1
48
1
60
0
100
AcDbLine
10
37.15
20
-16
30
0
11
37.567997
21
-12.824998
31
0
39
0
210
0
220
0
230
1
0
LINE
5
153
100
AcDbEntity
8
2
62
256
6
ByLayer
370
-1
48
1
60
0
100
AcDbLine
10
36.732003
20
-12.825002
30
0
11
37.567997
21
-12.824998
31
0
39
0
210
0
220
0
230
1
0
LINE
5
154
100
AcDbEntity
8
2
62
256
6
ByLayer
370
-1
48
1
60
0
100
AcDbLine
10
37.15
20
16
30
0
11
37.567997
21
12.825002
31
0
39
0
210
0
220
0
230
1
0
LINE
5
155
100
AcDbEntity
8
2
62
256
6
ByLayer
370
-1
48
1
60
0
100
AcDbLine
10
37.15
20
16
30
0
11
36.732003
21
12.824998
31
0
39
0
210
0
220
0
230
1
0
LINE
5
156
100
AcDbEntity
8
2
62
256
6
ByLayer
370
-1
48
1
60
0
100
AcDbLine
10
37.567997
20
12.825002
30
0
11
36.732003
21
12.824998
31
0
39
0
210
0
220
0
230
1
0
ENDBLK
5
158
100
AcDbEntity
8
0
100
AcDbBlockEnd
0
BLOCK
5
165
100
AcDbEntity
8
0
100
AcDbBlockBegin
2
DimnDraft3D3
70
0
10
0
20
0
30
0
3
DimnDraft3D3
0
MTEXT
5
15B
100
AcDbEntity
8
2
62
256
6
ByLayer
370
-1
48
1
60
0
100
AcDbMText
10
121.125
20
6.911842
30
0
210
0
220
0
230
1
1
\W01.000;\fsimplex.shx,bigfont.shx;22.0 
40
4.5
41
0
44
1.084337
50
90
71
7
72
5
7
DEFAULT
0
LINE
5
15C
100
AcDbEntity
8
2
62
256
6
ByLayer
370
-1
48
1
60
0
100
AcDbLine
10
112
20
21.9
30
0
11
124.25
21
21.9
31
0
39
0
210
0
220
0
230
1
0
LINE
5
15D
100
AcDbEntity
8
2
62
256
6
ByLayer
370
-1
48
1
60
0
100
AcDbLine
10
112
20
0
30
0
11
124.25
21
0
31
0
39
0
210
0
220
0
230
1
0
LINE
5
15E
100
AcDbEntity
8
2
62
256
6
ByLayer
370
-1
48
1
60
0
100
AcDbLine
10
122.25
20
21.9
30
0
11
122.25
21
0
31
0
39
0
210
0
220
0
230
1
0
LINE
5
15F
100
AcDbEntity
8
2
62
256
6
ByLayer
370
-1
48
1
60
0
100
AcDbLine
10
122.25
20
21.9
30
0
11
122.667997
21
18.725002
31
0
39
0
210
0
220
0
230
1
0
LINE
5
160
100
AcDbEntity
8
2
62
256
6
ByLayer
370
-1
48
1
60
0
100
AcDbLine
10
122.25
20
21.9
30
0
11
121.832003
21
18.724998
31
0
39
0
210
0
220
0
230
1
0
LINE
5
161
100
AcDbEntity
8
2
62
256
6
ByLayer
370
-1
48
1
60
0
100
AcDbLine
10
122.667997
20
18.725002
30
0
11
121.832003
21
18.724998
31
0
39
0
210
0
220
0
230
1
0
LINE
5
162
100
AcDbEntity
8
2
62
256
6
ByLayer
370
-1
48
1
60
0
100
AcDbLine
10
122.25
20
0
30
0
11
121.832003
21
3.174998
31
0
39
0
210
0
220
0
230
1
0
LINE
5
163
100
AcDbEntity
8
2
62
256
6
ByLayer
370
-1
48
1
60
0
100
AcDbLine
10
122.25
20
0
30
0
11
122.667997
21
3.175002
31
0
39
0
210
0
220
0
230
1
0
LINE
5
164
100
AcDbEntity
8
2
62
256
6
ByLayer
370
-1
48
1
60
0
100
AcDbLine
10
121.832003
20
3.174998
30
0
11
122.667997
21
3.175002
31
0
39
0
210
0
220
0
230
1
0
ENDBLK
5
166
100
AcDbEntity
8
0
100
AcDbBlockEnd
0
BLOCK
5
173
100
AcDbEntity
8
0
100
AcDbBlockBegin
2
DimnDraft3D4
70
0
10
0
20
0
30
0
3
DimnDraft3D4
0
MTEXT
5
169
100
AcDbEntity
8
2
62
256
6
ByLayer
370
-1
48
1
60
0
100
AcDbMText
10
50.434868
20
50.775
30
0
210
0
220
0
230
1
1
\W01.000;\fsimplex.shx,bigfont.shx;110.0 
40
4.5
41
0
44
1.084337
50
0
71
7
72
5
7
DEFAULT
0
LINE
5
16A
100
AcDbEntity
8
2
62
256
6
ByLayer
370
-1
48
1
60
0
100
AcDbLine
10
0
20
27
30
0
11
0
21
51.65
31
0
39
0
210
0
220
0
230
1
0
LINE
5
16B
100
AcDbEntity
8
2
62
256
6
ByLayer
370
-1
48
1
60
0
100
AcDbLine
10
110
20
23.9
30
0
11
110
21
51.65
31
0
39
0
210
0
220
0
230
1
0
LINE
5
16C
100
AcDbEntity
8
2
62
256
6
ByLayer
370
-1
48
1
60
0
100
AcDbLine
10
0
20
49.65
30
0
11
110
21
49.65
31
0
39
0
210
0
220
0
230
1
0
LINE
5
16D
100
AcDbEntity
8
2
62
256
6
ByLayer
370
-1
48
1
60
0
100
AcDbLine
10
0
20
49.65
30
0
11
3.174998
21
50.067997
31
0
39
0
210
0
220
0
230
1
0
LINE
5
16E
100
AcDbEntity
8
2
62
256
6
ByLayer
370
-1
48
1
60
0
100
AcDbLine
10
0
20
49.65
30
0
11
3.175002
21
49.232003
31
0
39
0
210
0
220
0
230
1
0
LINE
5
16F
100
AcDbEntity
8
2
62
256
6
ByLayer
370
-1
48
1
60
0
100
AcDbLine
10
3.174998
20
50.067997
30
0
11
3.175002
21
49.232003
31
0
39
0
210
0
220
0
230
1
0
LINE
5
170
100
AcDbEntity
8
2
62
256
6
ByLayer
370
-1
48
1
60
0
100
AcDbLine
10
110
20
49.65
30
0
11
106.825002
21
49.232003
31
0
39
0
210
0
220
0
230
1
0
LINE
5
171
100
AcDbEntity
8
2
62
256
6
ByLayer
370
-1
48
1
60
0
100
AcDbLine
10
110
20
49.65
30
0
11
106.824998
21
50.067997
31
0
39
0
210
0
220
0
230
1
0
LINE
5
172
100
AcDbEntity
8
2
62
256
6
ByLayer
370
-1
48
1
60
0
100
AcDbLine
10
106.825002
20
49.232003
30
0
11
106.824998
21
50.067997
31
0
39
0
210
0
220
0
230
1
0
ENDBLK
5
174
100
AcDbEntity
8
0
100
AcDbBlockEnd
0
BLOCK
5
181
100
AcDbEntity
8
0
100
AcDbBlockBegin
2
DimnDraft3D5
70
0
10
0
20
0
30
0
3
DimnDraft3D5
0
MTEXT
5
177
100
AcDbEntity
8
2
62
256
6
ByLayer
370
-1
48
1
60
0
100
AcDbMText
10
62.474342
20
35.775
30
0
210
0
220
0
230
1
1
\W01.000;\fsimplex.shx,bigfont.shx;88.1 
40
4.5
41
0
44
1.084337
50
0
71
7
72
5
7
DEFAULT
0
LINE
5
178
100
AcDbEntity
8
2
62
256
6
ByLayer
370
-1
48
1
60
0
100
AcDbLine
10
21.9
20
18
30
0
11
21.9
21
36.65
31
0
39
0
210
0
220
0
230
1
0
LINE
5
179
100
AcDbEntity
8
2
62
256
6
ByLayer
370
-1
48
1
60
0
100
AcDbLine
10
110
20
23.9
30
0
11
110
21
36.65
31
0
39
0
210
0
220
0
230
1
0
LINE
5
17A
100
AcDbEntity
8
2
62
256
6
ByLayer
370
-1
48
1
60
0
100
AcDbLine
10
21.9
20
34.65
30
0
11
110
21
34.65
31
0
39
0
210
0
220
0
230
1
0
LINE
5
17B
100
AcDbEntity
8
2
62
256
6
ByLayer
370
-1
48
1
60
0
100
AcDbLine
10
21.9
20
34.65
30
0
11
25.074998
21
35.067997
31
0
39
0
210
0
220
0
230
1
0
LINE
5
17C
100
AcDbEntity
8
2
62
256
6
ByLayer
370
-1
48
1
60
0
100
AcDbLine
10
21.9
20
34.65
30
0
11
25.075002
21
34.232003
31
0
39
0
210
0
220
0
230
1
0
LINE
5
17D
100
AcDbEntity
8
2
62
256
6
ByLayer
370
-1
48
1
60
0
100
AcDbLine
10
25.074998
20
35.067997
30
0
11
25.075002
21
34.232003
31
0
39
0
210
0
220
0
230
1
0
LINE
5
17E
100
AcDbEntity
8
2
62
256
6
ByLayer
370
-1
48
1
60
0
100
AcDbLine
10
110
20
34.65
30
0
11
106.825002
21
34.232003
31
0
39
0
210
0
220
0
230
1
0
LINE
5
17F
100
AcDbEntity
8
2
62
256
6
ByLayer
370
-1
48
1
60
0
100
AcDbLine
10
110
20
34.65
30
0
11
106.824998
21
35.067997
31
0
39
0
210
0
220
0
230
1
0
LINE
5
180
100
AcDbEntity
8
2
62
256
6
ByLayer
370
-1
48
1
60
0
100
AcDbLine
10
106.825002
20
34.232003
30
0
11
106.824998
21
35.067997
31
0
39
0
210
0
220
0
230
1
0
ENDBLK
5
182
100
AcDbEntity
8
0
100
AcDbBlockEnd
0
BLOCK
5
18F
100
AcDbEntity
8
0
100
AcDbBlockBegin
2
DimnDraft3D6
70
0
10
0
20
0
30
0
3
DimnDraft3D6
0
MTEXT
5
185
100
AcDbEntity
8
2
62
256
6
ByLayer
370
-1
48
1
60
0
100
AcDbMText
10
135.159185
20
-37.312521
30
0
210
0
220
0
230
1
1
\W01.000;\fsimplex.shx,bigfont.shx;95%%d0' 
40
4.5
41
0
44
1.084337
50
42.5
71
7
72
5
7
DEFAULT
0
LINE
5
186
100
AcDbEntity
8
2
62
256
6
ByLayer
370
-1
48
1
60
0
100
AcDbLine
10
108.77982
20
7.953274
30
0
11
103.819781
21
-48.740227
31
0
39
0
210
0
220
0
230
1
0
LINE
5
187
100
AcDbEntity
8
2
62
256
6
ByLayer
370
-1
48
1
60
0
100
AcDbLine
10
112
20
0
30
0
11
157.010405
21
0
31
0
39
0
210
0
220
0
230
1
0
ARC
5
188
100
AcDbEntity
8
2
62
256
6
ByLayer
370
-1
48
1
60
0
100
AcDbCircle
39
0
10
108.083998
20
0
30
0
40
46.9264068782929
210
0
220
0
230
1
100
AcDbArc
50
265
51
0
0
LINE
5
189
100
AcDbEntity
8
2
62
256
6
ByLayer
370
-1
48
1
60
0
100
AcDbLine
10
103.994092
20
-46.747838
30
0
11
107.190621
21
-46.554078
31
0
39
0
210
0
220
0
230
1
0
LINE
5
18A
100
AcDbEntity
8
2
62
256
6
ByLayer
370
-1
48
1
60
0
100
AcDbLine
10
103.994092
20
-46.747838
30
0
11
107.131853
21
-47.388003
31
0
39
0
210
0
220
0
230
1
0
LINE
5
18B
100
AcDbEntity
8
2
62
256
6
ByLayer
370
-1
48
1
60
0
100
AcDbLine
10
107.190621
20
-46.554078
30
0
11
107.131853
21
-47.388003
31
0
39
0
210
0
220
0
230
1
0
LINE
5
18C
100
AcDbEntity
8
2
62
256
6
ByLayer
370
-1
48
1
60
0
100
AcDbLine
10
155.010405
20
0
30
0
11
155.374661
21
-3.181612
31
0
39
0
210
0
220
0
230
1
0
LINE
5
18D
100
AcDbEntity
8
2
62
256
6
ByLayer
370
-1
48
1
60
0
100
AcDbLine
10
155.010405
20
0
30
0
11
154.538787
21
-3.16748
31
0
39
0
210
0
220
0
230
1
0
LINE
5
18E
100
AcDbEntity
8
2
62
256
6
ByLayer
370
-1
48
1
60
0
100
AcDbLine
10
155.374661
20
-3.181612
30
0
11
154.538787
21
-3.16748
31
0
39
0
210
0
220
0
230
1
0
ENDBLK
5
190
100
AcDbEntity
8
0
100
AcDbBlockEnd
0
ENDSEC
0
SECTION
2
ENTITIES
0
ARC
5
98
100
AcDbEntity
8
1
62
256
6
ByLayer
370
-1
48
1
60
0
100
AcDbCircle
39
0
10
-26.50967
20
-22
30
0
40
6
210
0
220
0
230
-1
100
AcDbArc
50
14.931417
51
90
0
ARC
5
99
100
AcDbEntity
8
1
62
256
6
ByLayer
370
-1
48
1
60
0
100
AcDbCircle
39
0
10
-26.50967
20
22
30
0
40
6
210
0
220
0
230
-1
100
AcDbArc
50
270
51
345.068583
0
ARC
5
9A
100
AcDbEntity
8
SK1
62
256
6
ByLayer
370
-1
48
1
60
0
100
AcDbCircle
39
0
10
0.6
20
18.75
30
0
40
1
210
0
220
0
230
-1
100
AcDbArc
50
233.130102
51
246.421822
0
ARC
5
9B
100
AcDbEntity
8
SK1
62
256
6
ByLayer
370
-1
48
1
60
0
100
AcDbCircle
39
0
10
0.6
20
-18.75
30
0
40
1
210
0
220
0
230
-1
100
AcDbArc
50
113.578178
51
126.869898
0
ELLIPSE
5
9C
100
AcDbEntity
8
1
62
256
6
ByLayer
370
-1
48
1
60
0
100
AcDbEllipse
10
96.994927
20
9.812818
30
0
11
-1.49429204713762
21
0.130733614121488
31
0
210
0
220
0
230
1
40
0.985433
41
-1.06511568586819
42
-0.00436332312999031
0
ELLIPSE
5
9D
100
AcDbEntity
8
1
62
256
6
ByLayer
370
-1
48
1
60
0
100
AcDbEllipse
10
96.688824
20
7.431648
30
0
11
1.74334072166055
21
-0.152522549808402
31
0
210
0
220
0
230
1
40
0.985433
41
1.93688773822456
42
2.48941641776592
0
ELLIPSE
5
9E
100
AcDbEntity
8
1
62
256
6
ByLayer
370
-1
48
1
60
0
100
AcDbEllipse
10
21.056258
20
0
30
0
11
11.7092723497262
21
24.6771864409362
31
0
210
0
220
0
230
-1
40
0.341999
41
-2.97437958168081
42
-2.05975995310048
0
ELLIPSE
5
9F
100
AcDbEntity
8
1
62
256
6
ByLayer
370
-1
48
1
60
0
100
AcDbEllipse
10
97.01368
20
10.037652
30
0
11
1.77523000875775
21
-0.15531250091733
31
0
210
0
220
0
230
1
40
0.985433
41
3.13722933045975
42
-2.82972345804643
0
ELLIPSE
5
A0
100
AcDbEntity
8
1
62
256
6
ByLayer
370
-1
48
1
60
0
100
AcDbEllipse
10
-1.056258
20
0
30
0
11
11.709272349728
21
-24.6771864409383
31
0
210
0
220
0
230
-1
40
0.341999
41
-1.08183270048925
42
-0.167213071908975
0
ELLIPSE
5
A1
100
AcDbEntity
8
1
62
256
6
ByLayer
370
-1
48
1
60
0
100
AcDbEllipse
10
21.056258
20
0
30
0
11
11.7092723497262
21
-24.6771864409363
31
0
210
0
220
0
230
-1
40
0.341999
41
2.05975995310048
42
2.97437958168081
0
ELLIPSE
5
A2
100
AcDbEntity
8
1
62
256
6
ByLayer
370
-1
48
1
60
0
100
AcDbEllipse
10
96.67919
20
7.321526
30
0
11
-1.74334072166055
21
0.152522549808403
31
0
210
0
220
0
230
1
40
0.985433
41
-1.21451714706586
42
-0.448754007757899
0
ELLIPSE
5
A3
100
AcDbEntity
8
1
62
256
6
ByLayer
370
-1
48
1
60
0
100
AcDbEllipse
10
-1.056258
20
0
30
0
11
11.7092723497275
21
24.6771864409378
31
0
210
0
220
0
230
-1
40
0.341999
41
0.167213071908977
42
1.08183270048927
0
ELLIPSE
5
A4
100
AcDbEntity
8
1
62
256
6
ByLayer
370
-1
48
1
60
0
100
AcDbEllipse
10
96.976019
20
9.607182
30
0
11
-1.49429204713762
21
0.130733614121488
31
0
210
0
220
0
230
1
40
0.985433
41
-0.00436332312998671
42
0.13006720729211
0
ELLIPSE
5
A5
100
AcDbEntity
8
1
62
256
6
ByLayer
370
-1
48
1
60
0
100
AcDbEllipse
10
96.911786
20
8.862512
30
0
11
-1.49429204713762
21
0.130733614121488
31
0
210
0
220
0
230
1
40
0.985433
41
-1.0651156858682
42
-0.125282524454333
0
ELLIPSE
5
A6
100
AcDbEntity
8
1
62
256
6
ByLayer
370
-1
48
1
60
0
100
AcDbEllipse
10
97.032589
20
10.243287
30
0
11
1.77523000875775
21
-0.15531250091733
31
0
210
0
220
0
230
1
40
0.985433
41
1.99077646067372
42
3.13722933045986
0
ELLIPSE
5
A7
100
AcDbEntity
8
1
62
256
6
ByLayer
370
-1
48
1
60
0
100
AcDbEllipse
10
96.809627
20
8.812423
30
0
11
1.74334072166055
21
-0.152522549808402
31
0
210
0
220
0
230
1
40
0.985433
41
2.72391523167024
42
-0.151921250830858
0
ELLIPSE
5
A8
100
AcDbEntity
8
1
62
256
6
ByLayer
370
-1
48
1
60
0
100
AcDbEllipse
10
109.206063
20
21.117454
30
0
11
0.790978590284825
21
-0.0692016597416382
31
0
210
0
220
0
230
1
40
0.985433
41
0
42
1.74532925199434
0
ELLIPSE
5
A9
100
AcDbEntity
8
1
62
256
6
ByLayer
370
-1
48
1
60
0
100
AcDbEllipse
10
97.968066
20
20.162472
30
0
11
0.790978590284834
21
-0.0692016597416389
31
0
210
0
220
0
230
1
40
0.985433
41
1.74532925199434
42
3.14159265358978
0
ELLIPSE
5
AA
100
AcDbEntity
8
1
62
256
6
ByLayer
370
-1
48
1
60
0
100
AcDbEllipse
10
103.10252
20
15.101592
30
0
11
4.05583272606583
21
-0.354839384688201
31
0
210
0
220
0
230
1
40
0.985433
41
0
42
6.28318530717959
0
ELLIPSE
5
AB
100
AcDbEntity
8
1
62
256
6
ByLayer
370
-1
48
1
60
0
100
AcDbEllipse
10
96.998977
20
9.085731
30
0
11
0.790978590284839
21
-0.0692016597416394
31
0
210
0
220
0
230
1
40
0.985433
41
3.14159265358979
42
-1.39626340159545
0
ELLIPSE
5
AC
100
AcDbEntity
8
1
62
256
6
ByLayer
370
-1
48
1
60
0
100
AcDbEllipse
10
103.086313
20
14.916348
30
0
11
-3.92153120152561
21
0.343089523796688
31
0
210
0
220
0
230
1
40
0.985433
41
0.0885498271667157
42
0.779205119587039
0
ELLIPSE
5
AD
100
AcDbEntity
8
1
62
256
6
ByLayer
370
-1
48
1
60
0
100
AcDbEllipse
10
103.086313
20
14.916348
30
0
11
-3.92153120152561
21
0.343089523796688
31
0
210
0
220
0
230
1
40
0.985433
41
2.36237137331268
42
-1.37376648405982E-15
0
ELLIPSE
5
AE
100
AcDbEntity
8
1
62
256
6
ByLayer
370
-1
48
1
60
0
100
AcDbEllipse
10
103.086313
20
14.916348
30
0
11
-3.92153120152561
21
0.343089523796688
31
0
210
0
220
0
230
1
40
0.985433
41
0
42
0.088549852829064
0
ELLIPSE
5
AF
100
AcDbEntity
8
1
62
256
6
ByLayer
370
-1
48
1
60
0
100
AcDbEllipse
10
103.088879
20
14.945674
30
0
11
3.99172294436722
21
-0.349230505568451
31
0
210
0
220
0
230
1
40
0.985433
41
-0.399088515799978
42
-4.49869910473353E-16
0
ELLIPSE
5
B0
100
AcDbEntity
8
1
62
256
6
ByLayer
370
-1
48
1
60
0
100
AcDbEllipse
10
103.088879
20
14.945674
30
0
11
3.99172294436722
21
-0.349230505568451
31
0
210
0
220
0
230
1
40
0.985433
41
0
42
0.0885497106180218
0
ELLIPSE
5
B1
100
AcDbEntity
8
1
62
256
6
ByLayer
370
-1
48
1
60
0
100
AcDbEllipse
10
103.088879
20
14.945674
30
0
11
3.99172294436722
21
-0.349230505568451
31
0
210
0
220
0
230
1
40
0.985433
41
0.0885498762550257
42
-2.74252035344433
0
ELLIPSE
5
B2
100
AcDbEntity
8
1
62
256
6
ByLayer
370
-1
48
1
60
0
100
AcDbEllipse
10
108.236973
20
10.040712
30
0
11
0.790978590284817
21
-0.0692016597416375
31
0
210
0
220
0
230
1
40
0.985433
41
-1.39626340159543
42
2.27029664983763E-14
0
ELLIPSE
5
B3
100
AcDbEntity
8
1
62
256
6
ByLayer
370
-1
48
1
60
0
100
AcDbEllipse
10
96.928424
20
8.2793
30
0
11
-0.239934989128108
21
0.0209915915319254
31
0
210
0
220
0
230
1
40
0.985433
41
0.762674584977342
42
1.22977468662361
0
ELLIPSE
5
B4
100
AcDbEntity
8
1
62
256
6
ByLayer
370
-1
48
1
60
0
100
AcDbEllipse
10
97.227656
20
8.106869
30
0
11
0.796955758473397
21
-0.069724594198126
31
0
210
0
220
0
230
1
40
0.985433
41
3.14159265358978
42
-1.39626340159547
0
ELLIPSE
5
B5
100
AcDbEntity
8
1
62
256
6
ByLayer
370
-1
48
1
60
0
100
AcDbEllipse
10
97.281683
20
8.724398
30
0
11
-0.796955758473396
21
0.0697245941981269
31
0
210
0
220
0
230
1
40
0.985433
41
1.07937693920128
42
1.74532925199432
0
ELLIPSE
5
B6
100
AcDbEntity
8
1
62
256
6
ByLayer
370
-1
48
1
60
0
100
AcDbEllipse
10
101.242746
20
14.238385
30
0
11
-0.683389562890938
21
0.0597888395248939
31
0
210
0
220
0
230
1
40
0.985433
41
2.82212128356956
42
3.14158525291364
0
ELLIPSE
5
B7
100
AcDbEntity
8
1
62
256
6
ByLayer
370
-1
48
1
60
0
100
AcDbEllipse
10
101.730631
20
15.072489
30
0
11
-0.29088885184279
21
0.0254494768823164
31
0
210
0
220
0
230
1
40
0.985433
41
-1.4893930357189
42
-0.6427925339492
0
ELLIPSE
5
B8
100
AcDbEntity
8
1
62
256
6
ByLayer
370
-1
48
1
60
0
100
AcDbEllipse
10
101.735128
20
16.036327
30
0
11
-0.683389562890938
21
0.0597888395248939
31
0
210
0
220
0
230
1
40
0.985433
41
1.65219961787075
42
2.32184691157494
0
ELLIPSE
5
B9
100
AcDbEntity
8
1
62
256
6
ByLayer
370
-1
48
1
60
0
100
AcDbEllipse
10
102.712995
20
16.040741
30
0
11
-0.29088885184279
21
0.0254494768823164
31
0
210
0
220
0
230
1
40
0.985433
41
-2.53071516945576
42
-0.170609261048645
0
ELLIPSE
5
BA
100
AcDbEntity
8
1
62
256
6
ByLayer
370
-1
48
1
60
0
100
AcDbEllipse
10
103.55925
20
16.521611
30
0
11
-0.683389562890938
21
0.0597888395248939
31
0
210
0
220
0
230
1
40
0.985433
41
0.610877484133994
42
1.39486812775476
0
ELLIPSE
5
BB
100
AcDbEntity
8
1
62
256
6
ByLayer
370
-1
48
1
60
0
100
AcDbEllipse
10
104.046893
20
15.68492
30
0
11
-0.29088885184279
21
0.0254494768823164
31
0
210
0
220
0
230
1
40
0.985433
41
-2.47795865757451
42
-0.962733882214129
0
ELLIPSE
5
BC
100
AcDbEntity
8
1
62
256
6
ByLayer
370
-1
48
1
60
0
100
AcDbEllipse
10
104.895755
20
15.204257
30
0
11
-0.683389562890938
21
0.0597888395248939
31
0
210
0
220
0
230
1
40
0.985433
41
-7.40067614091288E-06
42
0.350461124239534
0
ELLIPSE
5
BD
100
AcDbEntity
8
1
62
256
6
ByLayer
370
-1
48
1
60
0
100
AcDbEllipse
10
104.40787
20
14.370153
30
0
11
-0.29088885184279
21
0.0254494768823164
31
0
210
0
220
0
230
1
40
0.985433
41
-2.48541982967911
42
-2.00714088572953
0
ELLIPSE
5
BE
100
AcDbEntity
8
1
62
256
6
ByLayer
370
-1
48
1
60
0
100
AcDbEllipse
10
103.06925
20
14.721321
30
0
11
-1.20190890324769
21
0.10515340362505
31
0
210
0
220
0
230
1
40
0.985433
41
-0.629099067385761
42
0.00109458142330805
0
ELLIPSE
5
BF
100
AcDbEntity
8
1
62
256
6
ByLayer
370
-1
48
1
60
0
100
AcDbEllipse
10
103.095614
20
15.022656
30
0
11
1.20190890324769
21
-0.10515340362505
31
0
210
0
220
0
230
1
40
0.985433
41
2.37442831938005
42
2.51249358620402
0
ELLIPSE
5
C0
100
AcDbEntity
8
1
62
256
6
ByLayer
370
-1
48
1
60
0
100
AcDbEllipse
10
103.099636
20
15.068629
30
0
11
1.67012041135081
21
-0.146116602716449
31
0
210
0
220
0
230
1
40
0.985433
41
2.96985027607169
42
-2.2689280275926
0
ELLIPSE
5
C1
100
AcDbEntity
8
1
62
256
6
ByLayer
370
-1
48
1
60
0
100
AcDbEllipse
10
103.099636
20
15.068629
30
0
11
1.67012041135081
21
-0.146116602716449
31
0
210
0
220
0
230
1
40
0.985433
41
-2.2689280275926
42
-1.22452102407736
0
ELLIPSE
5
C2
100
AcDbEntity
8
1
62
256
6
ByLayer
370
-1
48
1
60
0
100
AcDbEllipse
10
103.06925
20
14.721321
30
0
11
-1.20190890324769
21
0.10515340362505
31
0
210
0
220
0
230
1
40
0.985433
41
0.440247852395943
42
0.923922848436443
0
ELLIPSE
5
C3
100
AcDbEntity
8
1
62
256
6
ByLayer
370
-1
48
1
60
0
100
AcDbEllipse
10
103.095614
20
15.022656
30
0
11
1.20190890324769
21
-0.10515340362505
31
0
210
0
220
0
230
1
40
0.985433
41
-0.767164334209696
42
-0.629099067385739
0
ELLIPSE
5
C4
100
AcDbEntity
8
1
62
256
6
ByLayer
370
-1
48
1
60
0
100
AcDbEllipse
10
103.06925
20
14.721321
30
0
11
1.2019089032477
21
-0.105153403625049
31
0
210
0
220
0
230
1
40
0.985433
41
0.350461124239543
42
1.39486812775479
0
ELLIPSE
5
C5
100
AcDbEntity
8
1
62
256
6
ByLayer
370
-1
48
1
60
0
100
AcDbEllipse
10
103.06925
20
14.721321
30
0
11
-1.20190890324769
21
0.10515340362505
31
0
210
0
220
0
230
1
40
0.985433
41
-1.746724525835
42
-0.767164334209752
0
ELLIPSE
5
C6
100
AcDbEntity
8
1
62
256
6
ByLayer
370
-1
48
1
60
0
100
AcDbEllipse
10
103.099636
20
15.068629
30
0
11
1.67012041135081
21
-0.146116602716449
31
0
210
0
220
0
230
1
40
0.985433
41
-1.22452102407736
42
-0.171742377518072
0
ELLIPSE
5
C7
100
AcDbEntity
8
1
62
256
6
ByLayer
370
-1
48
1
60
0
100
AcDbEllipse
10
103.55925
20
16.521611
30
0
11
-0.683389562890938
21
0.0597888395248939
31
0
210
0
220
0
230
1
40
0.985433
41
1.39486812775476
42
2.17885877137558
0
ELLIPSE
5
C8
100
AcDbEntity
8
1
62
256
6
ByLayer
370
-1
48
1
60
0
100
AcDbEllipse
10
103.099636
20
15.068629
30
0
11
1.67012041135081
21
-0.146116602716449
31
0
210
0
220
0
230
1
40
0.985433
41
1.91707162951241
42
2.96985027607169
0
ELLIPSE
5
C9
100
AcDbEntity
8
1
62
256
6
ByLayer
370
-1
48
1
60
0
100
AcDbEllipse
10
103.06925
20
14.721321
30
0
11
1.2019089032477
21
-0.105153403625049
31
0
210
0
220
0
230
1
40
0.985433
41
2.37442831938004
42
2.51249358620403
0
ELLIPSE
5
CA
100
AcDbEntity
8
1
62
256
6
ByLayer
370
-1
48
1
60
0
100
AcDbEllipse
10
103.099636
20
15.068629
30
0
11
1.67012041135081
21
-0.146116602716449
31
0
210
0
220
0
230
1
40
0.985433
41
0.872664625997154
42
1.91707162951241
0
ELLIPSE
5
CB
100
AcDbEntity
8
1
62
256
6
ByLayer
370
-1
48
1
60
0
100
AcDbEllipse
10
101.735128
20
16.036327
30
0
11
-0.683389562890938
21
0.0597888395248939
31
0
210
0
220
0
230
1
40
0.985433
41
2.5650749940091
42
3.14158867355769
0
ELLIPSE
5
CC
100
AcDbEntity
8
1
62
256
6
ByLayer
370
-1
48
1
60
0
100
AcDbEllipse
10
103.06925
20
14.721321
30
0
11
-1.20190890324769
21
0.10515340362505
31
0
210
0
220
0
230
1
40
0.985433
41
1.80055918162301
42
2.24974916365433
0
ELLIPSE
5
CD
100
AcDbEntity
8
1
62
256
6
ByLayer
370
-1
48
1
60
0
100
AcDbEllipse
10
103.099636
20
15.068629
30
0
11
1.67012041135081
21
-0.146116602716449
31
0
210
0
220
0
230
1
40
0.985433
41
-0.171742377518072
42
0.872664625997154
0
ELLIPSE
5
CE
100
AcDbEntity
8
1
62
256
6
ByLayer
370
-1
48
1
60
0
100
AcDbEllipse
10
103.06925
20
14.721321
30
0
11
-1.20190890324769
21
0.10515340362505
31
0
210
0
220
0
230
1
40
0.985433
41
2.92191898670955
42
-2.79113152935026
0
ELLIPSE
5
CF
100
AcDbEntity
8
1
62
256
6
ByLayer
370
-1
48
1
60
0
100
AcDbEllipse
10
104.895755
20
15.204257
30
0
11
-0.683389562890938
21
0.0597888395248939
31
0
210
0
220
0
230
1
40
0.985433
41
0.350461124239534
42
1.13445176786039
0
ELLIPSE
5
D0
100
AcDbEntity
8
1
62
256
6
ByLayer
370
-1
48
1
60
0
100
AcDbEllipse
10
103.099636
20
15.068629
30
0
11
2.3908672754202
21
-0.209173782594379
31
0
210
0
220
0
230
1
40
0.985433
41
0
42
6.28318530717959
0
ELLIPSE
5
D1
100
AcDbEntity
8
1
62
256
6
ByLayer
370
-1
48
1
60
0
100
AcDbEllipse
10
103.07592
20
14.797559
30
0
11
3.41196684096423
21
-0.298508418910727
31
0
210
0
220
0
230
1
40
0.985433
41
3.14158445244474
42
0
0
ELLIPSE
5
D2
100
AcDbEntity
8
1
62
256
6
ByLayer
370
-1
48
1
60
0
100
AcDbEllipse
10
103.093681
20
15.000564
30
0
11
3.41196684096423
21
-0.298508418910727
31
0
210
0
220
0
230
1
40
0.985433
41
0
42
6.28318530717959
0
POINT
5
41
100
AcDbEntity
8
80
62
256
6
ByLayer
370
-1
48
1
60
0
100
AcDbPoint
10
0
20
0
30
0
39
0
210
0
220
0
230
1
50
360
0
POINT
5
43
100
AcDbEntity
8
81
62
256
6
ByLayer
370
-1
48
1
60
0
100
AcDbPoint
10
110
20
21.9
30
0
39
0
210
0
220
0
230
1
50
360
0
POINT
5
45
100
AcDbEntity
8
1
62
256
6
ByLayer
370
-1
48
1
60
0
100
AcDbPoint
10
0
20
0
30
0
39
0
210
0
220
0
230
1
50
360
0
POINT
5
47
100
AcDbEntity
8
2
62
256
6
ByLayer
370
-1
48
1
60
0
100
AcDbPoint
10
110
20
21.9
30
0
39
0
210
0
220
0
230
1
50
360
0
SPLINE
5
D3
100
AcDbEntity
8
1
62
256
6
ByLayer
370
-1
48
1
60
0
100
AcDbSpline
70
4
71
3
72
15
73
11
40
0
40
0
40
0
40
0
40
0.212633690319115
40
0.410757275544228
40
0.580206559380129
40
0.715163785428428
40
0.819040886079695
40
0.895728299708808
40
0.968295647156051
40
1
40
1
40
1
40
1
41
1
10
96.3868444817855
20
8.58896357709355
30
0
41
1
10
96.4098018230363
20
8.56164046402986
30
0
41
1
10
96.4558101890905
20
8.50631058020446
30
0
41
1
10
96.5261564159274
20
8.42069532311007
30
0
41
1
10
96.5892662001928
20
8.34196763282645
30
0
41
1
10
96.64157410753
20
8.2746830707562
30
0
41
1
10
96.6809445276953
20
8.22207875874201
30
0
41
1
10
96.7139179104768
20
8.17604065176693
30
0
41
1
10
96.7294160595434
20
8.1518470299784
30
0
41
1
10
96.7446757403114
20
8.12789134796247
30
0
41
1
10
96.7416857739835
20
8.1302452150662
30
0
0
SPLINE
5
D4
100
AcDbEntity
8
1
62
256
6
ByLayer
370
-1
48
1
60
0
100
AcDbSpline
70
4
71
3
72
10
73
6
40
0
40
0
40
0
40
0
40
0.192130572503058
40
0.581084284912419
40
1
40
1
40
1
40
1
41
1
10
108.529599214875
20
9.25304239551042
30
0
41
1
10
108.542913824376
20
9.26482659197919
30
0
41
1
10
108.583675079017
20
9.30058312719481
30
0
41
1
10
108.65682034026
20
9.36347636366483
30
0
41
1
10
108.719858394158
20
9.41689827374711
30
0
41
1
10
108.753556923915
20
9.44520742096375
30
0
0
SPLINE
5
D5
100
AcDbEntity
8
SK1
62
256
6
ByLayer
370
-1
48
1
60
0
100
AcDbSpline
70
4
71
2
72
6
73
3
40
0
40
0
40
0
40
1
40
1
40
1
41
1
10
-2.19492113517947
20
17.5202263833814
30
0
41
1
10
-2.59746056758974
20
17.510113191717
30
0
41
1
10
-3
20
17.5000000000527
30
0
0
SPLINE
5
D6
100
AcDbEntity
8
SK1
62
256
6
ByLayer
370
-1
48
1
60
0
100
AcDbSpline
70
4
71
2
72
6
73
3
40
0
40
0
40
0
40
1
40
1
40
1
41
1
10
-3
20
-17.5000000000204
30
0
41
1
10
-2.59746056758974
20
-17.5101131916847
30
0
41
1
10
-2.19492113517947
20
-17.5202263833491
30
0
0
SPLINE
5
D7
100
AcDbEntity
8
SK1
62
256
6
ByLayer
370
-1
48
1
60
0
100
AcDbSpline
70
4
71
2
72
6
73
3
40
0
40
0
40
0
40
1
40
1
40
1
41
1
10
-3
20
17.5000000000527
30
0
41
1
10
-15.7502365839532
20
17.1796696772131
30
0
41
1
10
-28.5004731679065
20
16.8593393543735
30
0
0
SPLINE
5
D8
100
AcDbEntity
8
SK1
62
256
6
ByLayer
370
-1
48
1
60
0
100
AcDbSpline
70
4
71
2
72
6
73
3
40
0
40
0
40
0
40
1
40
1
40
1
41
1
10
-28.5004731679065
20
-16.8593393543424
30
0
41
1
10
-15.7502365839532
20
-17.1796696771814
30
0
41
1
10
-3
20
-17.5000000000204
30
0
0
SPLINE
5
D9
100
AcDbEntity
8
SK1
62
256
6
ByLayer
370
-1
48
1
60
0
100
AcDbSpline
70
4
71
2
72
6
73
3
40
0
40
0
40
0
40
1
40
1
40
1
41
1
10
-0.400000000000006
20
17.3251501409626
30
0
41
1
10
-1.20000000000002
20
17.3251501409626
30
0
41
1
10
-2
20
17.3251501409626
30
0
0
SPLINE
5
DA
100
AcDbEntity
8
SK1
62
256
6
ByLayer
370
-1
48
1
60
0
100
AcDbSpline
70
4
71
2
72
6
73
3
40
0
40
0
40
0
40
1
40
1
40
1
41
1
10
-2
20
-17.3251501414068
30
0
41
1
10
-1.20000000000002
20
-17.3251501414068
30
0
41
1
10
-0.400000000000006
20
-17.3251501414068
30
0
0
SPLINE
5
DB
100
AcDbEntity
8
SK1
62
256
6
ByLayer
370
-1
48
1
60
0
100
AcDbSpline
70
4
71
2
72
6
73
3
40
0
40
0
40
0
40
1
40
1
40
1
41
1
10
-28.5003904504266
20
16.8597456617469
30
0
41
1
10
-29.2501952787077
20
16.4010253845871
30
0
41
1
10
-30
20
15.9423013487186
30
0
0
SPLINE
5
DC
100
AcDbEntity
8
SK1
62
256
6
ByLayer
370
-1
48
1
60
0
100
AcDbSpline
70
4
71
2
72
6
73
3
40
0
40
0
40
0
40
1
40
1
40
1
41
1
10
-30
20
-15.9408160639395
30
0
41
1
10
-29.250201613525
20
-16.3993636736336
30
0
41
1
10
-28.5004032853135
20
-16.8579102610954
30
0
0
SPLINE
5
DD
100
AcDbEntity
8
SK1
62
256
6
ByLayer
370
-1
48
1
60
0
100
AcDbSpline
70
4
71
3
72
11
73
7
40
0
40
0
40
0
40
0
40
0.245755007744093
40
0.50179419821101
40
0.756953870258399
40
1
40
1
40
1
40
1
41
1
10
-0.200000000000017
20
17.5191731511753
30
0
41
1
10
-0.199994647676391
20
17.493844966999
30
0
41
1
10
-0.20935024226452
20
17.445622853432
30
0
41
1
10
-0.254178184246655
20
17.3766360753193
30
0
41
1
10
-0.3244207367608
20
17.33275982811
30
0
41
1
10
-0.373991067023667
20
17.3239685556464
30
0
41
1
10
-0.400000000000006
20
17.3241476526065
30
0
0
SPLINE
5
DE
100
AcDbEntity
8
SK1
62
256
6
ByLayer
370
-1
48
1
60
0
100
AcDbSpline
70
4
71
3
72
11
73
7
40
0
40
0
40
0
40
0
40
0.243046950855206
40
0.49820466819262
40
0.754242469704742
40
1
40
1
40
1
40
1
41
1
10
-0.400000000000006
20
-17.3241468641747
30
0
41
1
10
-0.373991174653753
20
-17.323967489369
30
0
41
1
10
-0.324421202647557
20
-17.332758304075
30
0
41
1
10
-0.254178044541106
20
-17.3766339294131
30
0
41
1
10
-0.209350044376066
20
-17.4456203921356
30
0
41
1
10
-0.199994500672233
20
-17.4938412312525
30
0
41
1
10
-0.200000000000017
20
-17.5191688355708
30
0
0
SPLINE
5
DF
100
AcDbEntity
8
1
62
256
6
ByLayer
370
-1
48
1
60
0
100
AcDbSpline
70
4
71
3
72
36
73
32
40
-0.125000000000007
40
-0.125000000000007
40
0
40
0
40
0.124999999999996
40
0.124999999999996
40
0.187499999999993
40
0.187499999999993
40
0.218749999999993
40
0.218749999999993
40
0.249999999999992
40
0.249999999999992
40
0.312499999999991
40
0.312499999999991
40
0.374999999999989
40
0.374999999999989
40
0.499999999999987
40
0.499999999999987
40
0.624999999999984
40
0.624999999999984
40
0.687499999999984
40
0.687499999999984
40
0.718749999999984
40
0.718749999999984
40
0.734374999999985
40
0.734374999999985
40
0.749999999999985
40
0.749999999999985
40
0.812499999999989
40
0.812499999999989
40
0.874999999999992
40
0.874999999999992
40
1
40
1
40
1.125
40
1.125
41
1
10
84.8039048803152
20
8.14000499962526
30
0
41
1
10
82.8323337601552
20
7.19015441225358
30
0
41
1
10
81.8321281862978
20
6.80462473672105
30
0
41
1
10
80.2380101271391
20
6.57049255137406
30
0
41
1
10
79.6711620146559
20
6.54522465594204
30
0
41
1
10
78.8733265353061
20
6.78177535024358
30
0
41
1
10
78.6018241753083
20
6.9176989479094
30
0
41
1
10
78.2204353483448
20
7.36111223843307
30
0
41
1
10
78.1392536689734
20
7.66822306358142
30
0
41
1
10
78.2202488651641
20
8.50512672433865
30
0
41
1
10
78.5624425974502
20
8.95193835495002
30
0
41
1
10
79.3063831429106
20
9.71029921106776
30
0
41
1
10
79.7352015396207
20
10.0221209200764
30
0
41
1
10
81.0998695047383
20
10.8568179667523
30
0
41
1
10
82.1155308156139
20
11.2748312412848
30
0
41
1
10
84.2048538341552
20
11.9554704506234
30
0
41
1
10
85.2988448144355
20
12.2261246009051
30
0
41
1
10
86.9901960964831
20
12.4845635376499
30
0
41
1
10
87.564049689839
20
12.5531459926022
30
0
41
1
10
88.4312151113517
20
12.52451131165
30
0
41
1
10
88.737612622768
20
12.5070591839688
30
0
41
1
10
89.1122316733897
20
12.2855243983738
30
0
41
1
10
89.2048778620295
20
12.1502344332437
30
0
41
1
10
89.2062298620976
20
11.8645750605815
30
0
41
1
10
89.1472792115944
20
11.7278149917572
30
0
41
1
10
88.8066574677134
20
11.1101605270492
30
0
41
1
10
88.3752487917649
20
10.7288520184708
30
0
41
1
10
87.5375667520046
20
9.99766970322372
30
0
41
1
10
87.0974442761662
20
9.66065321968139
30
0
41
1
10
85.7425061217801
20
8.70238893834269
30
0
41
1
10
84.8039048803152
20
8.14000499962526
30
0
41
1
10
82.8323337601552
20
7.19015441225358
30
0
0
SPLINE
5
E0
100
AcDbEntity
8
1
62
256
6
ByLayer
370
-1
48
1
60
0
100
AcDbSpline
70
4
71
3
72
16
73
12
40
0
40
0
40
0
40
0
40
0.0773436766578803
40
0.0773436766578803
40
0.181588290672623
40
0.181588290672623
40
0.353924998170025
40
0.353924998170025
40
0.659870482236126
40
0.659870482236126
40
1
40
1
40
1
40
1
41
1
10
11.4613248654052
20
7.52966679426498
30
0
41
1
10
11.4806912734381
20
7.52966679426498
30
0
41
1
10
11.5001920479834
20
7.53205286469702
30
0
41
1
10
11.5443643455559
20
7.54265601007381
30
0
41
1
10
11.5688999660418
20
7.55272636772358
30
0
41
1
10
11.6286300521075
20
7.58609718460602
30
0
41
1
10
11.66158714279
20
7.61407037421822
30
0
41
1
10
11.7407360052433
20
7.69895209889256
30
0
41
1
10
11.7798892743244
20
7.76300791758413
30
0
41
1
10
11.8468244213921
20
7.90167589305847
30
0
41
1
10
11.8734747805012
20
7.97837348437852
30
0
41
1
10
11.8943375672974
20
8.05584836782771
30
0
0
SPLINE
5
E1
100
AcDbEntity
8
1
62
256
6
ByLayer
370
-1
48
1
60
0
100
AcDbSpline
70
4
71
3
72
8
73
4
40
0
40
0
40
0
40
0
40
1
40
1
40
1
40
1
41
1
10
95.2771224812162
20
9.64869869333188
30
0
41
1
10
95.3325838703941
20
9.62679014296251
30
0
41
1
10
95.400413738382
20
9.59234407688797
30
0
41
1
10
95.4776394934229
20
9.54582370334276
30
0
0
SPLINE
5
E2
100
AcDbEntity
8
1
62
256
6
ByLayer
370
-1
48
1
60
0
100
AcDbSpline
70
4
71
3
72
18
73
14
40
0
40
0
40
0
40
0
40
0.0809805960320801
40
0.0809805960320801
40
0.544227292214068
40
0.544227292214068
40
0.699318265621658
40
0.699318265621658
40
0.856346274356475
40
0.856346274356475
40
0.966571999538822
40
0.966571999538822
40
1
40
1
40
1
40
1
41
1
10
8.10566243270262
20
-23.6665017920809
30
0
41
1
10
8.11065289887432
20
-23.672810013698
30
0
41
1
10
8.11597900857612
20
-23.6790700603507
30
0
41
1
10
8.15400172089505
20
-23.7205303134149
30
0
41
1
10
8.1977744361825
20
-23.7548029562659
30
0
41
1
10
8.28487257800725
20
-23.7938243006291
30
0
41
1
10
8.30967508046024
20
-23.8031592998669
30
0
41
1
10
8.36604668219428
20
-23.8196134016841
30
0
41
1
10
8.3983775068167
20
-23.8268687494612
30
0
41
1
10
8.45889576423616
20
-23.8353793525422
30
0
41
1
10
8.48604318765894
20
-23.8378105604685
30
0
41
1
10
8.52183069664625
20
-23.8389905264494
30
0
41
1
10
8.53025906116034
20
-23.8391299750503
30
0
41
1
10
8.53867513459483
20
-23.8391299750503
30
0
0
SPLINE
5
E3
100
AcDbEntity
8
1
62
256
6
ByLayer
370
-1
48
1
60
0
100
AcDbSpline
70
4
71
3
72
8
73
4
40
0
40
0
40
0
40
0
40
1
40
1
40
1
40
1
41
1
10
87.534776145152
20
-14.0486691542527
30
0
41
1
10
87.4947928703641
20
-14.0121470978414
30
0
41
1
10
87.454840010118
20
-13.9755936210972
30
0
41
1
10
87.4149181238743
20
-13.9390082522153
30
0
0
SPLINE
5
E4
100
AcDbEntity
8
1
62
256
6
ByLayer
370
-1
48
1
60
0
100
AcDbSpline
70
4
71
3
72
8
73
4
40
0
40
0
40
0
40
0
40
1
40
1
40
1
40
1
41
1
10
97.1446259186186
20
19.8614638521907
30
0
41
1
10
95.4019893625077
20
19.7051654909633
30
0
41
1
10
93.6593726523746
20
19.5486578135364
30
0
41
1
10
91.91677744
20
19.3919243235306
30
0
0
SPLINE
5
E5
100
AcDbEntity
8
1
62
256
6
ByLayer
370
-1
48
1
60
0
100
AcDbSpline
70
4
71
3
72
16
73
12
40
0
40
0
40
0
40
0
40
0.077343676657827
40
0.077343676657827
40
0.181588290672556
40
0.181588290672556
40
0.353924998169922
40
0.353924998169922
40
0.659870482235914
40
0.659870482235914
40
1
40
1
40
1
40
1
41
1
10
8.53867513459483
20
23.8391299750503
30
0
41
1
10
8.51930872656192
20
23.8391299750503
30
0
41
1
10
8.49980795201657
20
23.8383766644784
30
0
41
1
10
8.45563565444411
20
23.8350242537625
30
0
41
1
10
8.43110003395827
20
23.8318379431383
30
0
41
1
10
8.37136994789256
20
23.8212426939765
30
0
41
1
10
8.33841285720996
20
23.812328084785
30
0
41
1
10
8.25926399475679
20
23.7850663392819
30
0
41
1
10
8.22011072567562
20
23.7642694363116
30
0
41
1
10
8.15317557860794
20
23.7185457490814
30
0
41
1
10
8.12652521949877
20
23.692873493267
30
0
41
1
10
8.10566243270262
20
23.6665017920809
30
0
0
SPLINE
5
E6
100
AcDbEntity
8
1
62
256
6
ByLayer
370
-1
48
1
60
0
100
AcDbSpline
70
4
71
3
72
18
73
14
40
0
40
0
40
0
40
0
40
0.0809805960320918
40
0.0809805960320918
40
0.544227292214085
40
0.544227292214085
40
0.699318265621671
40
0.699318265621671
40
0.856346274356483
40
0.856346274356483
40
0.966571999538831
40
0.966571999538831
40
1
40
1
40
1
40
1
41
1
10
8.10566243270262
20
8.05584836782774
30
0
41
1
10
8.11065289887432
20
8.03731605051118
30
0
41
1
10
8.11597900857612
20
8.01885383673363
30
0
41
1
10
8.15400172089505
20
7.89611164850155
30
0
41
1
10
8.1977744361825
20
7.7921939727409
30
0
41
1
10
8.28487257800725
20
7.67169814060125
30
0
41
1
10
8.30967508046024
20
7.64266520230268
30
0
41
1
10
8.36604668219428
20
7.59122859579529
30
0
41
1
10
8.3983775068167
20
7.56839473241365
30
0
41
1
10
8.45889576423616
20
7.54154007085771
30
0
41
1
10
8.48604318765894
20
7.53384342094336
30
0
41
1
10
8.52183069664625
20
7.53010833377257
30
0
41
1
10
8.53025906116034
20
7.52966679426501
30
0
41
1
10
8.53867513459483
20
7.52966679426501
30
0
0
SPLINE
5
E7
100
AcDbEntity
8
1
62
256
6
ByLayer
370
-1
48
1
60
0
100
AcDbSpline
70
4
71
3
72
18
73
14
40
0
40
0
40
0
40
0
40
0.0809805960321051
40
0.0809805960321051
40
0.544227292214096
40
0.544227292214096
40
0.69931826562168
40
0.69931826562168
40
0.856346274356486
40
0.856346274356486
40
0.966571999538835
40
0.966571999538835
40
1
40
1
40
1
40
1
41
1
10
11.8943375672974
20
23.6665017920809
30
0
41
1
10
11.8893471011256
20
23.672810013698
30
0
41
1
10
11.8840209914239
20
23.6790700603507
30
0
41
1
10
11.845998279105
20
23.7205303134149
30
0
41
1
10
11.8022255638174
20
23.7548029562659
30
0
41
1
10
11.7151274219928
20
23.7938243006291
30
0
41
1
10
11.6903249195398
20
23.8031592998669
30
0
41
1
10
11.6339533178057
20
23.8196134016841
30
0
41
1
10
11.6016224931833
20
23.8268687494612
30
0
41
1
10
11.5411042357638
20
23.8353793525422
30
0
41
1
10
11.5139568123411
20
23.8378105604685
30
0
41
1
10
11.4781693033538
20
23.8389905264494
30
0
41
1
10
11.4697409388397
20
23.8391299750503
30
0
41
1
10
11.4613248654052
20
23.8391299750503
30
0
0
SPLINE
5
E8
100
AcDbEntity
8
1
62
256
6
ByLayer
370
-1
48
1
60
0
100
AcDbSpline
70
4
71
3
72
16
73
12
40
0
40
0
40
0
40
0
40
0.0773436766578767
40
0.0773436766578767
40
0.181588290672618
40
0.181588290672618
40
0.353924998170011
40
0.353924998170011
40
0.659870482236094
40
0.659870482236094
40
1
40
1
40
1
40
1
41
1
10
11.4613248654052
20
-23.8391299750503
30
0
41
1
10
11.4806912734381
20
-23.8391299750503
30
0
41
1
10
11.5001920479834
20
-23.8383766644784
30
0
41
1
10
11.5443643455559
20
-23.8350242537625
30
0
41
1
10
11.5688999660418
20
-23.8318379431383
30
0
41
1
10
11.6286300521075
20
-23.8212426939765
30
0
41
1
10
11.66158714279
20
-23.812328084785
30
0
41
1
10
11.7407360052433
20
-23.7850663392819
30
0
41
1
10
11.7798892743244
20
-23.7642694363116
30
0
41
1
10
11.8468244213921
20
-23.7185457490814
30
0
41
1
10
11.8734747805012
20
-23.692873493267
30
0
41
1
10
11.8943375672974
20
-23.6665017920809
30
0
0
SPLINE
5
E9
100
AcDbEntity
8
1
62
256
6
ByLayer
370
-1
48
1
60
0
100
AcDbSpline
70
4
71
3
72
22
73
18
40
0
40
0
40
0
40
0
40
0.125
40
0.125
40
0.25
40
0.25
40
0.375
40
0.375
40
0.5
40
0.5
40
0.625
40
0.625
40
0.75
40
0.75
40
0.875
40
0.875
40
1
40
1
40
1
40
1
41
1
10
87.4149181238743
20
15.966321330594
30
0
41
1
10
84.7215177649703
20
15.9447293032338
30
0
41
1
10
82.1028687717403
20
15.9040995392312
30
0
41
1
10
77.0373876192263
20
15.6020320100228
30
0
41
1
10
74.5462767554543
20
15.3431243029536
30
0
41
1
10
70.0959440215591
20
14.1393218803813
30
0
41
1
10
68.1265708422808
20
13.179965372145
30
0
41
1
10
65.5556847637619
20
9.82019917848268
30
0
41
1
10
65.0951156536788
20
7.40728463539185
30
0
41
1
10
65.7558204193915
20
2.26160837960686
30
0
41
1
10
66.805981462867
20
-0.419558195032238
30
0
41
1
10
69.6104317003055
20
-4.98080805997319
30
0
41
1
10
71.4008899139465
20
-6.9352491635847
30
0
41
1
10
75.3975360203138
20
-10.0254937153754
30
0
41
1
10
77.6335451845675
20
-11.1933103783816
30
0
41
1
10
82.3246471012158
20
-12.9299020241059
30
0
41
1
10
84.8285748596981
20
-13.5234100176917
30
0
41
1
10
87.4149181238743
20
-13.9390082522153
30
0
0
SPLINE
5
EA
100
AcDbEntity
8
1
62
256
6
ByLayer
370
-1
48
1
60
0
100
AcDbSpline
70
4
71
3
72
16
73
12
40
0
40
0
40
0
40
0
40
0.0773436766578125
40
0.0773436766578125
40
0.181588290672542
40
0.181588290672542
40
0.353924998169895
40
0.353924998169895
40
0.659870482235859
40
0.659870482235859
40
1
40
1
40
1
40
1
41
1
10
8.53867513459483
20
-7.52966679426501
30
0
41
1
10
8.51930872656197
20
-7.52966679426501
30
0
41
1
10
8.49980795201662
20
-7.53205286469702
30
0
41
1
10
8.45563565444411
20
-7.54265601007379
30
0
41
1
10
8.43110003395827
20
-7.55272636772355
30
0
41
1
10
8.37136994789256
20
-7.58609718460599
30
0
41
1
10
8.33841285721002
20
-7.61407037421819
30
0
41
1
10
8.25926399475679
20
-7.69895209889248
30
0
41
1
10
8.22011072567562
20
-7.76300791758402
30
0
41
1
10
8.15317557860794
20
-7.90167589305835
30
0
41
1
10
8.12652521949877
20
-7.97837348437849
30
0
41
1
10
8.10566243270262
20
-8.05584836782774
30
0
0
SPLINE
5
EB
100
AcDbEntity
8
1
62
256
6
ByLayer
370
-1
48
1
60
0
100
AcDbSpline
70
4
71
3
72
8
73
4
40
0
40
0
40
0
40
0
40
1
40
1
40
1
40
1
41
1
10
91.2570772148023
20
18.893867810039
30
0
41
1
10
91.4769336909252
20
19.0599426597785
30
0
41
1
10
91.6968349215451
20
19.2259600417406
30
0
41
1
10
91.91677744
20
19.3919243235306
30
0
0
SPLINE
5
EC
100
AcDbEntity
8
1
62
256
6
ByLayer
370
-1
48
1
60
0
100
AcDbSpline
70
4
71
3
72
18
73
14
40
0
40
0
40
0
40
0
40
0.0809805960320615
40
0.0809805960320615
40
0.544227292213941
40
0.544227292213941
40
0.699318265621571
40
0.699318265621571
40
0.856346274356429
40
0.856346274356429
40
0.966571999538782
40
0.966571999538782
40
1
40
1
40
1
40
1
41
1
10
11.8943375672974
20
-8.05584836782771
30
0
41
1
10
11.8893471011257
20
-8.03731605051115
30
0
41
1
10
11.8840209914239
20
-8.01885383673363
30
0
41
1
10
11.845998279105
20
-7.89611164850155
30
0
41
1
10
11.8022255638175
20
-7.79219397274093
30
0
41
1
10
11.7151274219928
20
-7.67169814060131
30
0
41
1
10
11.6903249195398
20
-7.64266520230271
30
0
41
1
10
11.6339533178058
20
-7.59122859579532
30
0
41
1
10
11.6016224931834
20
-7.56839473241365
30
0
41
1
10
11.5411042357638
20
-7.54154007085771
30
0
41
1
10
11.5139568123411
20
-7.53384342094336
30
0
41
1
10
11.4781693033538
20
-7.53010833377257
30
0
41
1
10
11.4697409388397
20
-7.52966679426501
30
0
41
1
10
11.4613248654052
20
-7.52966679426501
30
0
0
SPLINE
5
ED
100
AcDbEntity
8
1
62
256
6
ByLayer
370
-1
48
1
60
0
100
AcDbSpline
70
4
71
3
72
8
73
4
40
0
40
0
40
0
40
0
40
1
40
1
40
1
40
1
41
1
10
87.4149181238743
20
15.966321330594
30
0
41
1
10
88.6786070704001
20
16.9433425623887
30
0
41
1
10
89.9620149718004
20
17.915605667378
30
0
41
1
10
91.2570772148023
20
18.893867810039
30
0
0
SPLINE
5
EE
100
AcDbEntity
8
SK1
62
256
6
ByLayer
370
-1
48
1
60
0
100
AcDbSpline
70
4
71
3
72
41
73
37
40
0
40
0
40
0
40
0
40
0.003586261541826
40
0.0346121196535795
40
0.065637977765333
40
0.0966638358770865
40
0.12768969398884
40
0.158715552100593
40
0.189741410212347
40
0.220767268324101
40
0.251793126435854
40
0.282818984547608
40
0.313844842659361
40
0.344870700771115
40
0.375896558882868
40
0.406922416994622
40
0.437948275106375
40
0.468974133218129
40
0.499999991329882
40
0.531025849441636
40
0.562051707553389
40
0.593077565665143
40
0.624103423776896
40
0.65512928188865
40
0.686155140000403
40
0.717180998112157
40
0.74820685622391
40
0.779232714335664
40
0.810258572447417
40
0.841284430559171
40
0.872310288670924
40
0.903336146782678
40
0.934362004894431
40
0.965387863006185
40
0.996413721117938
40
1
40
1
40
1
40
1
41
1
10
-2.20000000000002
20
-10.2416915120114
30
0
41
1
10
-2.20000000000002
20
-10.2098170446198
30
0
41
1
10
-2.20000000000002
20
-9.90198508683847
30
0
41
1
10
-2.20000000000002
20
-9.3149808480191
30
0
41
1
10
-2.20000000000002
20
-8.48421552667966
30
0
41
1
10
-2.20000000000002
20
-7.66447545612931
30
0
41
1
10
-2.20000000000002
20
-6.86437716583347
30
0
41
1
10
-2.20000000000002
20
-6.09147129549578
30
0
41
1
10
-2.20000000000002
20
-5.35199475664402
30
0
41
1
10
-2.20000000000002
20
-4.6506671110304
30
0
41
1
10
-2.20000000000002
20
-3.99054255831777
30
0
41
1
10
-2.20000000000002
20
-3.37292400688881
30
0
41
1
10
-2.20000000000002
20
-2.79733805829036
30
0
41
1
10
-2.20000000000002
20
-2.26158054799637
30
0
41
1
10
-2.20000000000002
20
-1.76181929549949
30
0
41
1
10
-2.20000000000002
20
-1.29276519791185
30
0
41
1
10
-2.20000000000002
20
-0.847888335032877
30
0
41
1
10
-2.20000000000002
20
-0.419689842123091
30
0
41
1
10
-2.20000000000002
20
8.86504949E-08
30
0
41
1
10
-2.20000000000002
20
0.419689487520998
30
0
41
1
10
-2.20000000000002
20
0.847888498250114
30
0
41
1
10
-2.20000000000002
20
1.29276489964477
30
0
41
1
10
-2.20000000000002
20
1.7618194185427
30
0
41
1
10
-2.20000000000002
20
2.26158035409029
30
0
41
1
10
-2.20000000000002
20
2.79733812098013
30
0
41
1
10
-2.20000000000002
20
3.37292395003561
30
0
41
1
10
-2.20000000000002
20
3.99054254934384
30
0
41
1
10
-2.20000000000002
20
4.65066720377908
30
0
41
1
10
-2.20000000000002
20
5.35199467517899
30
0
41
1
10
-2.20000000000002
20
6.091471528607
30
0
41
1
10
-2.20000000000002
20
6.86437702157369
30
0
41
1
10
-2.20000000000002
20
7.66447580005692
30
0
41
1
10
-2.20000000000002
20
8.48421533830793
30
0
41
1
10
-2.20000000000002
20
9.31498125757835
30
0
41
1
10
-2.20000000000002
20
9.90198521620599
30
0
41
1
10
-2.20000000000002
20
10.2098173562794
30
0
41
1
10
-2.20000000000002
20
10.2416919827174
30
0
0
SPLINE
5
EF
100
AcDbEntity
8
SK1
62
256
6
ByLayer
370
-1
48
1
60
0
100
AcDbSpline
70
4
71
3
72
10
73
6
40
0
40
0
40
0
40
0
40
0.5
40
0.5
40
1
40
1
40
1
40
1
41
1
10
-1.30710678118655
20
3.80474436172742
30
0
41
1
10
-1.52921682270321
20
2.59907728352434
30
0
41
1
10
-1.70909405340865
20
1.31281235086666
30
0
41
1
10
-1.7096317930087
20
-1.30649832374493
30
0
41
1
10
-1.52966155970611
20
-2.5966617696443
30
0
41
1
10
-1.30710678118663
20
-3.80474664113297
30
0
0
SPLINE
5
F0
100
AcDbEntity
8
SK1
62
256
6
ByLayer
370
-1
48
1
60
0
100
AcDbSpline
70
4
71
3
72
73
73
69
40
0
40
0
40
0
40
0
40
0.0018466561169312
40
0.0173088925234934
40
0.0327711289300555
40
0.0482333653366177
40
0.0636956017431799
40
0.0791578381497421
40
0.0946200745563043
40
0.110082310962866
40
0.125544547369429
40
0.141006783775991
40
0.156469020182553
40
0.171931256589115
40
0.187393492995678
40
0.20285572940224
40
0.218317965808802
40
0.233780202215364
40
0.249242438621926
40
0.264704675028488
40
0.280166911435051
40
0.295629147841613
40
0.311091384248175
40
0.326553620654737
40
0.3420158570613
40
0.357478093467862
40
0.372940329874424
40
0.388402566280986
40
0.403864802687548
40
0.41932703909411
40
0.434789275500673
40
0.450251511907235
40
0.465713748313797
40
0.481175984720359
40
0.496638221126921
40
0.512100457533484
40
0.527562693940046
40
0.543024930346608
40
0.55848716675317
40
0.573949403159732
40
0.589411639566295
40
0.604873875972857
40
0.620336112379419
40
0.635798348785981
40
0.651260585192543
40
0.666722821599105
40
0.682185058005668
40
0.69764729441223
40
0.713109530818792
40
0.728571767225354
40
0.744034003631916
40
0.759496240038479
40
0.774958476445041
40
0.790420712851603
40
0.805882949258165
40
0.821345185664727
40
0.83680742207129
40
0.852269658477852
40
0.867731894884414
40
0.883194131290976
40
0.898656367697538
40
0.9141186041041
40
0.929580840510663
40
0.945043076917225
40
0.960505313323787
40
0.975967549730349
40
0.991429786136912
40
1
40
1
40
1
40
1
41
1
10
-28.5004731679065
20
16.5843275748057
30
0
41
1
10
-28.5004731679065
20
16.5890126478705
30
0
41
1
10
-28.5004731679065
20
16.6325284262555
30
0
41
1
10
-28.5004731679065
20
16.7076779742402
30
0
41
1
10
-28.5004731679065
20
16.7910009100058
30
0
41
1
10
-28.5004731679065
20
16.845797358011
30
0
41
1
10
-28.5004731679065
20
16.866111367971
30
0
41
1
10
-28.5004731679065
20
16.8457932960415
30
0
41
1
10
-28.5004731679065
20
16.7787920295583
30
0
41
1
10
-28.5004731679065
20
16.6594441325878
30
0
41
1
10
-28.5004731679065
20
16.4827618905288
30
0
41
1
10
-28.5004731679065
20
16.2446845781523
30
0
41
1
10
-28.5004731679065
20
15.9423067030317
30
0
41
1
10
-28.5004731679065
20
15.5740550609708
30
0
41
1
10
-28.5004731679065
20
15.1398218356871
30
0
41
1
10
-28.5004731679065
20
14.6410360299331
30
0
41
1
10
-28.5004731679065
20
14.0806798361698
30
0
41
1
10
-28.5004731679065
20
13.4632415716312
30
0
41
1
10
-28.5004731679065
20
12.7946107775085
30
0
41
1
10
-28.5004731679065
20
12.0819181856553
30
0
41
1
10
-28.5004731679065
20
11.3333237326368
30
0
41
1
10
-28.5004731679065
20
10.557766572068
30
0
41
1
10
-28.5004731679065
20
9.76467681695499
30
0
41
1
10
-28.5004731679065
20
8.96367263859332
30
0
41
1
10
-28.5004731679065
20
8.1642385298471
30
0
41
1
10
-28.5004731679065
20
7.37541494914308
30
0
41
1
10
-28.5004731679065
20
6.60549138939064
30
0
41
1
10
-28.5004731679065
20
5.86173553761287
30
0
41
1
10
-28.5004731679065
20
5.15014758540383
30
0
41
1
10
-28.5004731679065
20
4.47527023543958
30
0
41
1
10
-28.5004731679065
20
3.84004176429178
30
0
41
1
10
-28.5004731679065
20
3.2457162593208
30
0
41
1
10
-28.5004731679065
20
2.69183828529165
30
0
41
1
10
-28.5004731679065
20
2.17628628328657
30
0
41
1
10
-28.5004731679065
20
1.69537351492636
30
0
41
1
10
-28.5004731679065
20
1.2440090901581
30
0
41
1
10
-28.5004731679065
20
0.815910920503399
30
0
41
1
10
-28.5004731679065
20
0.403861164287008
30
0
41
1
10
-28.5004731679065
20
8.53071072E-08
30
0
41
1
10
-28.5004731679065
20
-0.403861505515522
30
0
41
1
10
-28.5004731679065
20
-0.815910763441792
30
0
41
1
10
-28.5004731679065
20
-1.24400937717621
30
0
41
1
10
-28.5004731679065
20
-1.69537339652362
30
0
41
1
10
-28.5004731679065
20
-2.17628646987961
30
0
41
1
10
-28.5004731679065
20
-2.69183822496621
30
0
41
1
10
-28.5004731679065
20
-3.24571631402981
30
0
41
1
10
-28.5004731679065
20
-3.84004177292727
30
0
41
1
10
-28.5004731679065
20
-4.47527014618885
30
0
41
1
10
-28.5004731679065
20
-5.15014766379647
30
0
41
1
10
-28.5004731679065
20
-5.86173531329331
30
0
41
1
10
-28.5004731679065
20
-6.60549152820974
30
0
41
1
10
-28.5004731679065
20
-7.37541461818648
30
0
41
1
10
-28.5004731679065
20
-8.16423871111451
30
0
41
1
10
-28.5004731679065
20
-8.96367224448036
30
0
41
1
10
-28.5004731679065
20
-9.76467701679073
30
0
41
1
10
-28.5004731679065
20
-10.5577661668381
30
0
41
1
10
-28.5004731679065
20
-11.3333239249003
30
0
41
1
10
-28.5004731679065
20
-12.0819178218315
30
0
41
1
10
-28.5004731679065
20
-12.7946109377403
30
0
41
1
10
-28.5004731679065
20
-13.4632412945279
30
0
41
1
10
-28.5004731679065
20
-14.0806799452206
30
0
41
1
10
-28.5004731679065
20
-14.6410358708333
30
0
41
1
10
-28.5004731679065
20
-15.1398218825485
30
0
41
1
10
-28.5004731679065
20
-15.5740550326248
30
0
41
1
10
-28.5004731679065
20
-15.942306686368
30
0
41
1
10
-28.5004731679065
20
-16.2446846731531
30
0
41
1
10
-28.5004731679065
20
-16.4473889051978
30
0
41
1
10
-28.5004731679065
20
-16.546015100524
30
0
41
1
10
-28.5004731679065
20
-16.5781578665788
30
0
0
SPLINE
5
F1
100
AcDbEntity
8
SK1
62
256
6
ByLayer
370
-1
48
1
60
0
100
AcDbSpline
70
4
71
3
72
22
73
18
40
0
40
0
40
0
40
0
40
0.0434921783994969
40
0.0434921783994969
40
0.0876860403067026
40
0.0876860403067026
40
0.118952127699588
40
0.118952127699588
40
0.1501558424283
40
0.1501558424283
40
0.196307791916001
40
0.196307791916001
40
0.283435745194102
40
0.283435745194102
40
0.579041181948967
40
0.579041181948967
40
1
40
1
40
1
40
1
41
1
10
-0.400000000000034
20
-5.16866679574528
30
0
41
1
10
-0.420550053748514
20
-5.18835839085108
30
0
41
1
10
-0.443027188827415
20
-5.20675192843447
30
0
41
1
10
-0.492732016073376
20
-5.23775963373393
30
0
41
1
10
-0.520750465867962
20
-5.25056923469424
30
0
41
1
10
-0.571323171411422
20
-5.26230651341535
30
0
41
1
10
-0.593569294960218
20
-5.26418855716773
30
0
41
1
10
-0.636876257397915
20
-5.26111275520464
30
0
41
1
10
-0.658413974519078
20
-5.25617334660447
30
0
41
1
10
-0.70801905917827
20
-5.23795018495881
30
0
41
1
10
-0.735222931334562
20
-5.22174262348992
30
0
41
1
10
-0.805307091704577
20
-5.16870577827882
30
0
41
1
10
-0.843008552736933
20
-5.12565182749091
30
0
41
1
10
-0.98697835479976
20
-4.93030734845306
30
0
41
1
10
-1.05565821402414
20
-4.75512394253201
30
0
41
1
10
-1.19912511806339
20
-4.32976589005261
30
0
41
1
10
-1.25838015422249
20
-4.06924736884375
30
0
41
1
10
-1.30710678118655
20
-3.80474664113271
30
0
0
SPLINE
5
F2
100
AcDbEntity
8
SK1
62
256
6
ByLayer
370
-1
48
1
60
0
100
AcDbSpline
70
4
71
3
72
79
73
75
40
0
40
0
40
0
40
0
40
0.0074030719680451
40
0.0214772709933054
40
0.0355514700185658
40
0.0496256690438261
40
0.0636998680690865
40
0.0777740670943468
40
0.0918482661196071
40
0.105922465144868
40
0.119996664170128
40
0.134070863195388
40
0.148145062220648
40
0.162219261245909
40
0.176293460271169
40
0.190367659296429
40
0.20444185832169
40
0.21851605734695
40
0.232590256372211
40
0.246664455397471
40
0.260738654422731
40
0.274812853447992
40
0.288887052473252
40
0.302961251498512
40
0.317035450523773
40
0.331109649549033
40
0.345183848574293
40
0.359258047599553
40
0.373332246624814
40
0.387406445650074
40
0.401480644675335
40
0.415554843700595
40
0.429629042725855
40
0.443703241751115
40
0.457777440776376
40
0.471851639801636
40
0.485925838826897
40
0.500000037852157
40
0.514074236877417
40
0.528148435902678
40
0.542222634927938
40
0.556296833953198
40
0.570371032978459
40
0.584445232003719
40
0.598519431028979
40
0.61259363005424
40
0.6266678290795
40
0.64074202810476
40
0.654816227130021
40
0.668890426155281
40
0.682964625180541
40
0.697038824205802
40
0.711113023231062
40
0.725187222256322
40
0.739261421281583
40
0.753335620306843
40
0.767409819332103
40
0.781484018357364
40
0.795558217382624
40
0.809632416407884
40
0.823706615433145
40
0.837780814458405
40
0.851855013483665
40
0.865929212508926
40
0.880003411534186
40
0.894077610559446
40
0.908151809584707
40
0.922226008609967
40
0.936300207635227
40
0.950374406660488
40
0.964448605685748
40
0.978522804711008
40
0.992597003736269
40
1
40
1
40
1
40
1
41
1
10
-2
20
17.1116144542389
30
0
41
1
10
-2
20
17.1306737735355
30
0
41
1
10
-2.00000000000003
20
17.1831798973923
30
0
41
1
10
-2
20
17.2550395308993
30
0
41
1
10
-2
20
17.3112459497451
30
0
41
1
10
-2
20
17.3321089735132
30
0
41
1
10
-2
20
17.3112189889209
30
0
41
1
10
-2
20
17.2422674474922
30
0
41
1
10
-2
20
17.1193484069474
30
0
41
1
10
-2
20
16.9372587367204
30
0
41
1
10
-2
20
16.6917602356259
30
0
41
1
10
-2
20
16.3798174953022
30
0
41
1
10
-2
20
15.9997825770269
30
0
41
1
10
-2
20
15.5515337348698
30
0
41
1
10
-2
20
15.0365499649754
30
0
41
1
10
-2
20
14.4579280405673
30
0
41
1
10
-2
20
13.8203335391023
30
0
41
1
10
-2.00000000000003
20
13.1298914527523
30
0
41
1
10
-2.00000000000003
20
12.39401945775
30
0
41
1
10
-2.00000000000003
20
11.6212068879994
30
0
41
1
10
-2.00000000000003
20
10.8207542384819
30
0
41
1
10
-2.00000000000003
20
10.00247262006
30
0
41
1
10
-2.00000000000003
20
9.17636811026827
30
0
41
1
10
-2.00000000000003
20
8.35230629219913
30
0
41
1
10
-2.00000000000003
20
7.53968883941312
30
0
41
1
10
-2.00000000000003
20
6.74713346409783
30
0
41
1
10
-2.00000000000003
20
5.98219169787032
30
0
41
1
10
-2.00000000000003
20
5.25109264883253
30
0
41
1
10
-2.00000000000003
20
4.55854550233684
30
0
41
1
10
-2.00000000000003
20
3.90758262960779
30
0
41
1
10
-2.00000000000003
20
3.29948777527221
30
0
41
1
10
-2.00000000000003
20
2.73375387844547
30
0
41
1
10
-2.00000000000003
20
2.20813463136872
30
0
41
1
10
-2.00000000000003
20
1.71876156390923
30
0
41
1
10
-2.00000000000003
20
1.26029526086333
30
0
41
1
10
-2.00000000000003
20
0.826158476850765
30
0
41
1
10
-2.00000000000003
20
0.408799134273892
30
0
41
1
10
-2.00000000000003
20
2.402494488E-07
30
0
41
1
10
-2.00000000000003
20
-0.408799553455736
30
0
41
1
10
-2.00000000000003
20
-0.82615842677356
30
0
41
1
10
-2.00000000000003
20
-1.26029551010325
30
0
41
1
10
-2.00000000000003
20
-1.71876142586774
30
0
41
1
10
-2.00000000000003
20
-2.20813448047156
30
0
41
1
10
-2.00000000000003
20
-2.7337537633878
30
0
41
1
10
-2.00000000000003
20
-3.29948825001514
30
0
41
1
10
-2.00000000000003
20
-3.90758266192117
30
0
41
1
10
-2.00000000000003
20
-4.55854530449344
30
0
41
1
10
-2.00000000000003
20
-5.25109273249788
30
0
41
1
10
-2.00000000000003
20
-5.98219146197602
30
0
41
1
10
-2.00000000000003
20
-6.74713361247495
30
0
41
1
10
-2.00000000000003
20
-7.53968849279406
30
0
41
1
10
-2.00000000000003
20
-8.35230648563552
30
0
41
1
10
-2.00000000000003
20
-9.17636769820604
30
0
41
1
10
-2.00000000000003
20
-10.0024728331477
30
0
41
1
10
-2.00000000000003
20
-10.8207538150476
30
0
41
1
10
-2.00000000000003
20
-11.6212070931939
30
0
41
1
10
-2.00000000000003
20
-12.3940190774915
30
0
41
1
10
-2.00000000000003
20
-13.1298916243886
30
0
41
1
10
-2
20
-13.8203332490725
30
0
41
1
10
-2
20
-14.4579281585871
30
0
41
1
10
-2
20
-15.0365497976464
30
0
41
1
10
-2
20
-15.5515337877379
30
0
41
1
10
-2
20
-15.9997825456108
30
0
41
1
10
-2
20
-16.379817481596
30
0
41
1
10
-2
20
-16.6917603323907
30
0
41
1
10
-2
20
-16.9372586651848
30
0
41
1
10
-2
20
-17.1193485969266
30
0
41
1
10
-2
20
-17.2422669751987
30
0
41
1
10
-2
20
-17.3112199736996
30
0
41
1
10
-2
20
-17.3321088799281
30
0
41
1
10
-2
20
-17.3112453434672
30
0
41
1
10
-2
20
-17.2550397180126
30
0
41
1
10
-2
20
-17.1831802766266
30
0
41
1
10
-2
20
-17.1306742506466
30
0
41
1
10
-2
20
-17.1116151100673
30
0
0
SPLINE
5
F3
100
AcDbEntity
8
SK1
62
256
6
ByLayer
370
-1
48
1
60
0
100
AcDbSpline
70
4
71
3
72
20
73
16
40
0
40
0
40
0
40
0
40
0.0482625705630821
40
0.0482625705630821
40
0.325220898600871
40
0.325220898600871
40
0.463381471375242
40
0.463381471375242
40
0.601551524429024
40
0.601551524429024
40
0.739735425197376
40
0.739735425197376
40
0.87793960350904
40
0.87793960350904
40
1
40
1
40
1
40
1
41
1
10
-2.20000000000002
20
15.024780913897
30
0
41
1
10
-2.20000000000002
20
15.0987632316058
30
0
41
1
10
-2.19999999163144
20
15.1713153633957
30
0
41
1
10
-2.19999985652709
20
15.6498272161843
30
0
41
1
10
-2.19999939887509
20
16.0101821224506
30
0
41
1
10
-2.19999683011551
20
16.4712024133173
30
0
41
1
10
-2.19999564996832
20
16.6117543332689
30
0
41
1
10
-2.19999230715834
20
16.8650200442632
30
0
41
1
10
-2.19999013861343
20
16.9778482087754
30
0
41
1
10
-2.19998437020209
20
17.1737303581388
30
0
41
1
10
-2.19998076728288
20
17.2568757984567
30
0
41
1
10
-2.19997155592219
20
17.390896629152
30
0
41
1
10
-2.19996594630393
20
17.4418577268988
30
0
41
1
10
-2.19995283284749
20
17.5043876537375
30
0
41
1
10
-2.19994561248382
20
17.5199107584762
30
0
41
1
10
-2.19993704319944
20
17.5200998959624
30
0
0
SPLINE
5
F4
100
AcDbEntity
8
SK1
62
256
6
ByLayer
370
-1
48
1
60
0
100
AcDbSpline
70
4
71
3
72
20
73
16
40
0
40
0
40
0
40
0
40
0.107709859730122
40
0.107709859730122
40
0.254805889945515
40
0.254805889945515
40
0.401872722914623
40
0.401872722914623
40
0.548920274148804
40
0.548920274148804
40
0.6959550767156
40
0.6959550767156
40
0.842981467919629
40
0.842981467919629
40
1
40
1
40
1
40
1
41
1
10
-2.19993655780448
20
-17.5200998571235
30
0
41
1
10
-2.19994418187713
20
-17.5204461970879
30
0
41
1
10
-2.19995074650436
20
-17.5087568436285
30
0
41
1
10
-2.19996422500265
20
-17.4552443316022
30
0
41
1
10
-2.19997041029708
20
-17.4038992989506
30
0
41
1
10
-2.19998045819511
20
-17.2645372816575
30
0
41
1
10
-2.19998432672412
20
-17.1764163911093
30
0
41
1
10
-2.19999043378135
20
-16.9665639550929
30
0
41
1
10
-2.19999267824221
20
-16.8447172876608
30
0
41
1
10
-2.19999607391784
20
-16.569798663462
30
0
41
1
10
-2.1999972302832
20
-16.4165791409565
30
0
41
1
10
-2.1999988585969
20
-16.0808080953317
30
0
41
1
10
-2.1999993308427
20
-15.8980848535623
30
0
41
1
10
-2.19999991533382
20
-15.4916218225697
30
0
41
1
10
-2.20000000000002
20
-15.2657541717873
30
0
41
1
10
-2.20000000000002
20
-15.0247808645654
30
0
0
SPLINE
5
F5
100
AcDbEntity
8
SK1
62
256
6
ByLayer
370
-1
48
1
60
0
100
AcDbSpline
70
4
71
3
72
24
73
20
40
0
40
0
40
0
40
0
40
0.0299003298961631
40
0.0299003298961631
40
0.0528622635029669
40
0.0528622635029669
40
0.0709275158044995
40
0.0709275158044995
40
0.0890039000876294
40
0.0890039000876294
40
0.11362248491787
40
0.11362248491787
40
0.157577258657195
40
0.157577258657195
40
0.29602514002948
40
0.29602514002948
40
0.878150828056824
40
0.878150828056824
40
1
40
1
40
1
40
1
41
1
10
-0.400000000000034
20
5.16866682996297
30
0
41
1
10
-0.394094307655593
20
5.16300784544387
30
0
41
1
10
-0.38760623850834
20
5.15782429554133
30
0
41
1
10
-0.374945775641891
20
5.1507540726119
30
0
41
1
10
-0.368929355824321
20
5.14835070696066
30
0
41
1
10
-0.35770867701234
20
5.14629827954846
30
0
41
1
10
-0.352495529695631
20
5.14618209741417
30
0
41
1
10
-0.342356257615734
20
5.14777530545462
30
0
41
1
10
-0.337316914191916
20
5.1495007928761
30
0
41
1
10
-0.326353738404208
20
5.15512166080455
30
0
41
1
10
-0.320571087776045
20
5.15961290941803
30
0
41
1
10
-0.306345382412019
20
5.17348963231112
30
0
41
1
10
-0.298929389281341
20
5.1841444040335
30
0
41
1
10
-0.272649182798801
20
5.22929437458617
30
0
41
1
10
-0.260939846150848
20
5.26761390191822
30
0
41
1
10
-0.21079653079866
20
5.46289223314824
30
0
41
1
10
-0.20436648289828
20
5.62478131775705
30
0
41
1
10
-0.200325121553277
20
5.8154278903541
30
0
41
1
10
-0.200000000000046
20
5.8484679854401
30
0
41
1
10
-0.200000000000046
20
5.88142452370542
30
0
0
SPLINE
5
F6
100
AcDbEntity
8
SK1
62
256
6
ByLayer
370
-1
48
1
60
0
100
AcDbSpline
70
4
71
3
72
22
73
18
40
0
40
0
40
0
40
0
40
0.352684316750051
40
0.352684316750051
40
0.750046292484899
40
0.750046292484899
40
0.835479263400861
40
0.835479263400861
40
0.86935277413835
40
0.86935277413835
40
0.903637365464604
40
0.903637365464604
40
0.934112944215775
40
0.934112944215775
40
0.983611230456553
40
0.983611230456553
40
1
40
1
40
1
40
1
41
1
10
-1.30710678118655
20
3.80474436172742
30
0
41
1
10
-1.26637440296074
20
4.02584957204775
30
0
41
1
10
-1.21786346361694
20
4.24386265362048
30
0
41
1
10
-1.08311917044625
20
4.69265802851214
30
0
41
1
10
-1.00360006874376
20
4.93633956823067
30
0
41
1
10
-0.8033447497628
20
5.16879396055813
30
0
41
1
10
-0.76102131187784
20
5.20853400127967
30
0
41
1
10
-0.689167148695731
20
5.24561851051851
30
0
41
1
10
-0.666676206231415
20
5.25408214518689
30
0
41
1
10
-0.619919785859764
20
5.26355270960357
30
0
41
1
10
-0.595012690956537
20
5.26445496143654
30
0
41
1
10
-0.54992619516284
20
5.25839930645884
30
0
41
1
10
-0.529028206588009
20
5.25231844804927
30
0
41
1
10
-0.478237300450644
20
5.2307965704984
30
0
41
1
10
-0.449806665426394
20
5.21177878736736
30
0
41
1
10
-0.416050679082105
20
5.18357602352128
30
0
41
1
10
-0.407890864165267
20
5.17622805658175
30
0
41
1
10
-0.400000000000006
20
5.16866682996363
30
0
0
SPLINE
5
F7
100
AcDbEntity
8
SK1
62
256
6
ByLayer
370
-1
48
1
60
0
100
AcDbSpline
70
4
71
3
72
79
73
75
40
0
40
0
40
0
40
0
40
0.0067087497327157
40
0.0208027855950757
40
0.0348968214574358
40
0.0489908573197958
40
0.0630848931821558
40
0.0771789290445158
40
0.0912729649068758
40
0.105367000769236
40
0.119461036631596
40
0.133555072493956
40
0.147649108356316
40
0.161743144218676
40
0.175837180081036
40
0.189931215943396
40
0.204025251805756
40
0.218119287668116
40
0.232213323530476
40
0.246307359392836
40
0.260401395255196
40
0.274495431117556
40
0.288589466979916
40
0.302683502842276
40
0.316777538704636
40
0.330871574566996
40
0.344965610429356
40
0.359059646291716
40
0.373153682154076
40
0.387247718016436
40
0.401341753878796
40
0.415435789741156
40
0.429529825603516
40
0.443623861465876
40
0.457717897328236
40
0.471811933190596
40
0.485905969052956
40
0.500000004915316
40
0.514094040777676
40
0.528188076640036
40
0.542282112502396
40
0.556376148364756
40
0.570470184227116
40
0.584564220089477
40
0.598658255951837
40
0.612752291814197
40
0.626846327676556
40
0.640940363538917
40
0.655034399401277
40
0.669128435263637
40
0.683222471125997
40
0.697316506988357
40
0.711410542850717
40
0.725504578713077
40
0.739598614575437
40
0.753692650437797
40
0.767786686300157
40
0.781880722162517
40
0.795974758024877
40
0.810068793887237
40
0.824162829749597
40
0.838256865611957
40
0.852350901474317
40
0.866444937336677
40
0.880538973199037
40
0.894633009061397
40
0.908727044923757
40
0.922821080786117
40
0.936915116648477
40
0.951009152510837
40
0.965103188373197
40
0.979197224235557
40
0.993291260097917
40
1
40
1
40
1
40
1
41
1
10
-3
20
-17.2891029998204
30
0
41
1
10
-3
20
-17.3064425230017
30
0
41
1
10
-2.99999999999997
20
-17.3576824669623
30
0
41
1
10
-2.99999999999997
20
-17.4290648746259
30
0
41
1
10
-2.99999999999997
20
-17.4859427971309
30
0
41
1
10
-2.99999999999997
20
-17.5070292572437
30
0
41
1
10
-2.99999999999997
20
-17.4859401738945
30
0
41
1
10
-3
20
-17.4163913620312
30
0
41
1
10
-3
20
-17.2925088911448
30
0
41
1
10
-3
20
-17.1091123896189
30
0
41
1
10
-3
20
-16.8619882313057
30
0
41
1
10
-3
20
-16.5481197778907
30
0
41
1
10
-3
20
-16.1658744357057
30
0
41
1
10
-3
20
-15.7151402778227
30
0
41
1
10
-3
20
-15.1974002275414
30
0
41
1
10
-3
20
-14.6157505856349
30
0
41
1
10
-3
20
-13.9748490556261
30
0
41
1
10
-3
20
-13.2808105172309
30
0
41
1
10
-3
20
-12.5410348198394
30
0
41
1
10
-3
20
-11.763994099502
30
0
41
1
10
-3
20
-10.9589648821141
30
0
41
1
10
-3
20
-10.1357380738661
30
0
41
1
10
-3
20
-9.30429484700929
30
0
41
1
10
-3
20
-8.47448256671282
30
0
41
1
10
-3
20
-7.6556828892094
30
0
41
1
10
-3
20
-6.85650245921596
30
0
41
1
10
-3
20
-6.08448325445985
30
0
41
1
10
-3
20
-5.34585503158101
30
0
41
1
10
-3
20
-4.64533193812392
30
0
41
1
10
-3
20
-3.9859646700211
30
0
41
1
10
-3
20
-3.36905464097902
30
0
41
1
10
-3
20
-2.79412899561987
30
0
41
1
10
-3
20
-2.25898609800083
30
0
41
1
10
-3
20
-1.75979816383233
30
0
41
1
10
-3
20
-1.29128215780307
30
0
41
1
10
-3
20
-0.846915650735156
30
0
41
1
10
-3
20
-0.41920838047011
30
0
41
1
10
-3
20
8.85488021E-08
30
0
41
1
10
-3
20
0.419208026274788
30
0
41
1
10
-3
20
0.84691581376515
30
0
41
1
10
-3
20
1.29128185987813
30
0
41
1
10
-3
20
1.75979828673439
30
0
41
1
10
-3
20
2.25898590431717
30
0
41
1
10
-3
20
2.79412905823773
30
0
41
1
10
-3
20
3.36905458419105
30
0
41
1
10
-3
20
3.98596466105747
30
0
41
1
10
-3
20
4.64533203076618
30
0
41
1
10
-3
20
5.34585495020943
30
0
41
1
10
-3
20
6.08448348730366
30
0
41
1
10
-3
20
6.85650231512167
30
0
41
1
10
-3
20
7.65568323274246
30
0
41
1
10
-3
20
8.47448237855718
30
0
41
1
10
-3
20
9.30429525609867
30
0
41
1
10
-3
20
10.1357378664365
30
0
41
1
10
-3
20
10.9589653027428
30
0
41
1
10
-3
20
11.7639938999324
30
0
41
1
10
-3
20
12.5410351974886
30
0
41
1
10
-3
20
13.2808103509102
30
0
41
1
10
-3
20
13.9748493432595
30
0
41
1
10
-3
20
14.6157504724401
30
0
41
1
10
-3
20
15.197400392687
30
0
41
1
10
-3
20
15.7151402291805
30
0
41
1
10
-3
20
16.1658744651289
30
0
41
1
10
-3
20
16.5481197951877
30
0
41
1
10
-3
20
16.8619881326948
30
0
41
1
10
-3
20
17.1091124641426
30
0
41
1
10
-3
20
17.2925086916609
30
0
41
1
10
-3
20
17.4163918494222
30
0
41
1
10
-3
20
17.4859391868839
30
0
41
1
10
-2.99999999999997
20
17.5070293524766
30
0
41
1
10
-2.99999999999997
20
17.4859434032096
30
0
41
1
10
-2.99999999999997
20
17.4290646714908
30
0
41
1
10
-2.99999999999994
20
17.3576822655576
30
0
41
1
10
-2.99999999999994
20
17.3064424621938
30
0
41
1
10
-2.99999999999994
20
17.2891029998414
30
0
0
SPLINE
5
F8
100
AcDbEntity
8
SK1
62
256
6
ByLayer
370
-1
48
1
60
0
100
AcDbSpline
70
4
71
3
72
14
73
10
40
0
40
0
40
0
40
0
40
0.10357574079845
40
0.255914577449822
40
0.408253414101195
40
0.560592250752568
40
0.712931087403941
40
0.865269924055314
40
1
40
1
40
1
40
1
41
1
10
-2.20000000000005
20
-15.0247808645648
30
0
41
1
10
-2.20000000000005
20
-14.8954704310019
30
0
41
1
10
-2.20000000000005
20
-14.5640748657279
30
0
41
1
10
-2.20000000000005
20
-13.9908991973699
30
0
41
1
10
-2.20000000000005
20
-13.2960635543425
30
0
41
1
10
-2.20000000000005
20
-12.5554382231013
30
0
41
1
10
-2.20000000000005
20
-11.7775050699617
30
0
41
1
10
-2.20000000000005
20
-11.0026045240078
30
0
41
1
10
-2.20000000000005
20
-10.4855729233102
30
0
41
1
10
-2.20000000000005
20
-10.2416915120114
30
0
0
SPLINE
5
F9
100
AcDbEntity
8
SK1
62
256
6
ByLayer
370
-1
48
1
60
0
100
AcDbSpline
70
4
71
3
72
14
73
10
40
0
40
0
40
0
40
0
40
0.134730002443746
40
0.287068852257179
40
0.439407702070613
40
0.591746551884047
40
0.744085401697481
40
0.896424251510915
40
1
40
1
40
1
40
1
41
1
10
-2.20000000000005
20
10.2416919827174
30
0
41
1
10
-2.20000000000005
20
10.4855732775987
30
0
41
1
10
-2.20000000000005
20
11.0026050713442
30
0
41
1
10
-2.20000000000005
20
11.777504870163
30
0
41
1
10
-2.20000000000005
20
12.5554386011843
30
0
41
1
10
-2.20000000000005
20
13.2960633878308
30
0
41
1
10
-2.20000000000005
20
13.9908994853336
30
0
41
1
10
-2.20000000000005
20
14.5640747934535
30
0
41
1
10
-2.20000000000005
20
14.8954704523378
30
0
41
1
10
-2.20000000000005
20
15.0247809138972
30
0
0
SPLINE
5
FA
100
AcDbEntity
8
SK1
62
256
6
ByLayer
370
-1
48
1
60
0
100
AcDbSpline
70
4
71
3
72
30
73
26
40
0
40
0
40
0
40
0
40
0.0056618333773669
40
0.0508667583908923
40
0.0960716834044178
40
0.141276608417943
40
0.186481533431469
40
0.231686458444994
40
0.276891383458519
40
0.322096308472045
40
0.36730123348557
40
0.412506158499096
40
0.457711083512621
40
0.502916008526146
40
0.548120933539672
40
0.593325858553197
40
0.638530783566723
40
0.683735708580248
40
0.728940633593774
40
0.774145558607299
40
0.819350483620824
40
0.86455540863435
40
0.909760333647875
40
0.954965258661401
40
1
40
1
40
1
40
1
41
1
10
-0.400000000000034
20
-5.16866679574528
30
0
41
1
10
-0.400000000000034
20
-5.1981823917107
30
0
41
1
10
-0.400000000000034
20
-5.46426938707833
30
0
41
1
10
-0.400000000000034
20
-5.98219146197602
30
0
41
1
10
-0.400000000000034
20
-6.74713361247495
30
0
41
1
10
-0.400000000000034
20
-7.53968849279406
30
0
41
1
10
-0.400000000000034
20
-8.35230648563555
30
0
41
1
10
-0.400000000000034
20
-9.17636769820604
30
0
41
1
10
-0.400000000000034
20
-10.0024728331477
30
0
41
1
10
-0.400000000000034
20
-10.8207538150476
30
0
41
1
10
-0.400000000000034
20
-11.6212070931939
30
0
41
1
10
-0.400000000000034
20
-12.3940190774915
30
0
41
1
10
-0.400000000000034
20
-13.1298916243886
30
0
41
1
10
-0.400000000000034
20
-13.8203332490725
30
0
41
1
10
-0.400000000000034
20
-14.4579281585871
30
0
41
1
10
-0.400000000000034
20
-15.0365497976464
30
0
41
1
10
-0.400000000000034
20
-15.5515337877379
30
0
41
1
10
-0.400000000000034
20
-15.9997825456108
30
0
41
1
10
-0.400000000000034
20
-16.379817481596
30
0
41
1
10
-0.400000000000034
20
-16.6917603323907
30
0
41
1
10
-0.400000000000034
20
-16.9372586651848
30
0
41
1
10
-0.400000000000034
20
-17.1193485969266
30
0
41
1
10
-0.400000000000006
20
-17.2422669751987
30
0
41
1
10
-0.400000000000006
20
-17.311133444229
30
0
41
1
10
-0.400000000000063
20
-17.3250933704586
30
0
41
1
10
-0.400000000000006
20
-17.3251497957884
30
0
0
SPLINE
5
FB
100
AcDbEntity
8
SK1
62
256
6
ByLayer
370
-1
48
1
60
0
100
AcDbSpline
70
4
71
3
72
26
73
22
40
0
40
0
40
0
40
0
40
0.466011607458034
40
0.466011607458034
40
0.67024046630168
40
0.67024046630168
40
0.77456727018221
40
0.77456727018221
40
0.857070717706419
40
0.857070717706419
40
0.898538406950324
40
0.898538406950324
40
0.918045307993239
40
0.918045307993239
40
0.937772855809251
40
0.937772855809251
40
0.955553297254221
40
0.955553297254221
40
0.984230712729842
40
0.984230712729842
40
1
40
1
40
1
40
1
41
1
10
-0.200000000000046
20
-5.88142397393347
30
0
41
1
10
-0.200000000000046
20
-5.75538988127934
30
0
41
1
10
-0.204053336884698
20
-5.62782146467677
30
0
41
1
10
-0.224291300237979
20
-5.44372978251536
30
0
41
1
10
-0.232375898168357
20
-5.3873284499669
30
0
41
1
10
-0.251389677244674
20
-5.30297629006839
30
0
41
1
10
-0.25900395291697
20
-5.27447755328694
30
0
41
1
10
-0.277073232762461
20
-5.22483382882945
30
0
41
1
10
-0.286541211569755
20
-5.20296176881411
30
0
41
1
10
-0.306529791401147
20
-5.17375294403038
30
0
41
1
10
-0.314426911926432
20
-5.1643717298173
30
0
41
1
10
-0.328481919155991
20
-5.15398148698225
30
0
41
1
10
-0.333472930985607
20
-5.15114386616668
30
0
41
1
10
-0.343977733072507
20
-5.14732547572157
30
0
41
1
10
-0.349636276202261
20
-5.14634920679938
30
0
41
1
10
-0.360093315739704
20
-5.1465317925306
30
0
41
1
10
-0.365036235354097
20
-5.14747094480913
30
0
41
1
10
-0.377122372198727
20
-5.15149960910935
30
0
41
1
10
-0.384002450469694
20
-5.1555505154767
30
0
41
1
10
-0.393629001799496
20
-5.16285427826699
30
0
41
1
10
-0.396890469609758
20
-5.16568716298278
30
0
41
1
10
-0.400000000000063
20
-5.16866679574503
30
0
0
SPLINE
5
FC
100
AcDbEntity
8
1
62
256
6
ByLayer
370
-1
48
1
60
0
100
AcDbSpline
70
4
71
3
72
22
73
18
40
0
40
0
40
0
40
0
40
0.0009064581437538
40
0.0009064581437538
40
0.0021049163152389
40
0.0021049163152389
40
0.0043270336235958
40
0.0043270336235958
40
0.0139089940976126
40
0.0139089940976126
40
0.0517514337943766
40
0.0517514337943766
40
0.202429681210787
40
0.202429681210787
40
0.804474773807111
40
0.804474773807111
40
1
40
1
40
1
40
1
41
1
10
108.307167697534
20
9.26108108901121
30
0
41
1
10
108.307346057244
20
9.26109624564481
30
0
41
1
10
108.307525615885
20
9.26110990675093
30
0
41
1
10
108.307911570361
20
9.26113618736468
30
0
41
1
10
108.308115037417
20
9.26114765379842
30
0
41
1
10
108.308633941173
20
9.26117256002252
30
0
41
1
10
108.308913599911
20
9.26118056465972
30
0
41
1
10
108.310207686696
20
9.26120410684513
30
0
41
1
10
108.310806352645
20
9.26117141087289
30
0
41
1
10
108.313512762042
20
9.2609965139265
30
0
41
1
10
108.314512523403
20
9.26074202795752
30
0
41
1
10
108.319423644867
20
9.25948310087838
30
0
41
1
10
108.320998455201
20
9.25826102103841
30
0
41
1
10
108.328874523679
20
9.25217162963304
30
0
41
1
10
108.330514165059
20
9.24688940286472
30
0
41
1
10
108.332693479446
20
9.23989612054601
30
0
41
1
10
108.333166598562
20
9.23817640994997
30
0
41
1
10
108.333583543734
20
9.23645183234996
30
0
0
SPLINE
5
FD
100
AcDbEntity
8
1
62
256
6
ByLayer
370
-1
48
1
60
0
100
AcDbSpline
70
4
71
3
72
54
73
50
40
0
40
0
40
0
40
0
40
0.0009395303204549
40
0.0009395303204549
40
0.159630091142255
40
0.159630091142255
40
0.332733218111873
40
0.332733218111873
40
0.508295793690168
40
0.508295793690168
40
0.683858757023846
40
0.683858757023846
40
0.788351756030397
40
0.788351756030397
40
0.858267149343915
40
0.858267149343915
40
0.905050321338027
40
0.905050321338027
40
0.936358172019292
40
0.936358172019292
40
0.957313127290205
40
0.957313127290205
40
0.971342065463173
40
0.971342065463173
40
0.980737554986865
40
0.980737554986865
40
0.987033320347479
40
0.987033320347479
40
0.991255428201513
40
0.991255428201513
40
0.994090331890932
40
0.994090331890932
40
0.995997295926803
40
0.995997295926803
40
0.997283613169094
40
0.997283613169094
40
0.998154934131006
40
0.998154934131006
40
0.998748952771057
40
0.998748952771057
40
0.999157969516558
40
0.999157969516558
40
0.999574166282937
40
0.999574166282937
40
0.999745122499277
40
0.999745122499277
40
0.999919706758789
40
0.999919706758789
40
1
40
1
40
1
40
1
41
1
10
96.8286828157255
20
8.06349705806144
30
0
41
1
10
96.8287396563304
20
8.06357151975038
30
0
41
1
10
96.8287965012898
20
8.06364598180681
30
0
41
1
10
96.8384554347683
20
8.07629745421261
30
0
41
1
10
96.84818067745
20
8.08888486128362
30
0
41
1
10
96.8688486817146
20
8.11523107636333
30
0
41
1
10
96.8798199823318
20
8.1289922988324
30
0
41
1
10
96.9024565984447
20
8.15675560374274
30
0
41
1
10
96.9141246223757
20
8.17075793193322
30
0
41
1
10
96.9383205240422
20
8.19883495541148
30
0
41
1
10
96.9508277743286
20
8.21290797065845
30
0
41
1
10
96.9720759496603
20
8.23546593289768
30
0
41
1
10
96.9802895171448
20
8.24390665304048
30
0
41
1
10
96.9948845780016
20
8.25806914201371
30
0
41
1
10
97.0009689419584
20
8.26376607936069
30
0
41
1
10
97.0118493000832
20
8.27333552194372
30
0
41
1
10
97.0164022662118
20
8.27718779333438
30
0
41
1
10
97.0245950746476
20
8.28366731019156
30
0
41
1
10
97.0280361304688
20
8.28627808169097
30
0
41
1
10
97.0342655938859
20
8.29067639969165
30
0
41
1
10
97.0368913900879
20
8.29245054679365
30
0
41
1
10
97.0416723390649
20
8.29544507625491
30
0
41
1
10
97.0436944555744
20
8.29665457317191
30
0
41
1
10
97.0473961775048
20
8.29870061005789
30
0
41
1
10
97.0489669209691
20
8.29952831995087
30
0
41
1
10
97.0518568712709
20
8.30093218706492
30
0
41
1
10
97.0530869701747
20
8.30150119448814
30
0
41
1
10
97.0553608431773
20
8.30246924263761
30
0
41
1
10
97.056331645002
20
8.3028625071708
30
0
41
1
10
97.0581341732326
20
8.30353395420673
30
0
41
1
10
97.0589061009687
20
8.3038074836245
30
0
41
1
10
97.0603455339781
20
8.30427643084593
30
0
41
1
10
97.0609639903852
20
8.30446811452623
30
0
41
1
10
97.0621222517434
20
8.3047983144331
30
0
41
1
10
97.0626217777973
20
8.30493385000059
30
0
41
1
10
97.0635616588285
20
8.30516861787942
30
0
41
1
10
97.0639688968187
20
8.30526549047903
30
0
41
1
10
97.0647392155429
20
8.30543436141284
30
0
41
1
10
97.065075056827
20
8.30550451802728
30
0
41
1
10
97.0657144203209
20
8.3056277209736
30
0
41
1
10
97.0659956056335
20
8.30567936978218
30
0
41
1
10
97.0666353323614
20
8.30578780467314
30
0
41
1
10
97.0669946305264
20
8.30584507589973
30
0
41
1
10
97.0676204922595
20
8.30593124258027
30
0
41
1
10
97.0678199017235
20
8.30595728745038
30
0
41
1
10
97.0682642076729
20
8.3060105472108
30
0
41
1
10
97.0685180939477
20
8.30603865757024
30
0
41
1
10
97.0689123559264
20
8.30607693310338
30
0
41
1
10
97.0690426813028
20
8.3060888247727
30
0
41
1
10
97.0691716245186
20
8.3060997820964
30
0
0
SPLINE
5
FE
100
AcDbEntity
8
1
62
256
6
ByLayer
370
-1
48
1
60
0
100
AcDbSpline
70
4
71
3
72
18
73
14
40
0
40
0
40
0
40
0
40
0.19802179075337
40
0.19802179075337
40
0.374740307012499
40
0.374740307012499
40
0.553309129734504
40
0.553309129734504
40
0.706854063785888
40
0.706854063785888
40
0.907206785014851
40
0.907206785014851
40
1
40
1
40
1
40
1
41
1
10
102.994430967773
20
16.5131640753104
30
0
41
1
10
103.027061302288
20
16.4508626035362
30
0
41
1
10
103.069100776571
20
16.3919296310964
30
0
41
1
10
103.164727977138
20
16.2947749872502
30
0
41
1
10
103.217816857672
20
16.2540336839706
30
0
41
1
10
103.334656938123
20
16.1912157472392
30
0
41
1
10
103.400393043955
20
16.1686258981155
30
0
41
1
10
103.523168687574
20
16.1485984621108
30
0
41
1
10
103.58158950948
20
16.147738471769
30
0
41
1
10
103.709992220467
20
16.1630624149101
30
0
41
1
10
103.780284598583
20
16.1844884186751
30
0
41
1
10
103.873942661205
20
16.2291837251317
30
0
41
1
10
103.902684626401
20
16.2455045243299
30
0
41
1
10
103.930069002384
20
16.2635794970955
30
0
0
SPLINE
5
FF
100
AcDbEntity
8
1
62
256
6
ByLayer
370
-1
48
1
60
0
100
AcDbSpline
70
4
71
3
72
18
73
14
40
0
40
0
40
0
40
0
40
0.0063941242663588
40
0.0063941242663588
40
0.230661331471362
40
0.230661331471362
40
0.454430954932742
40
0.454430954932742
40
0.689978230537729
40
0.689978230537729
40
0.947101262788508
40
0.947101262788508
40
1
40
1
40
1
40
1
41
1
10
104.720578873425
20
14.6433968320809
30
0
41
1
10
104.720798343437
20
14.6442168974006
30
0
41
1
10
104.721014106245
20
14.6450376310377
30
0
41
1
10
104.72856314386
20
14.6742790151864
30
0
41
1
10
104.731397361706
20
14.7038459027601
30
0
41
1
10
104.727881755247
20
14.7603269984293
30
0
41
1
10
104.72152794753
20
14.7879731287017
30
0
41
1
10
104.700717561046
20
14.8394862371263
30
0
41
1
10
104.685619504154
20
14.8637358210717
30
0
41
1
10
104.647867411579
20
14.9068900280019
30
0
41
1
10
104.624202487432
20
14.9256650936967
30
0
41
1
10
104.593229432749
20
14.9427390583706
30
0
41
1
10
104.587810047059
20
14.9454851609224
30
0
41
1
10
104.582307698351
20
14.9480406107121
30
0
0
SPLINE
5
100
100
AcDbEntity
8
1
62
256
6
ByLayer
370
-1
48
1
60
0
100
AcDbSpline
70
4
71
3
72
12
73
8
40
0
40
0
40
0
40
0
40
0.292896216946468
40
0.292896216946468
40
0.753728814279653
40
0.753728814279653
40
1
40
1
40
1
40
1
41
1
10
102.302304947295
20
15.920442558707
30
0
41
1
10
102.331512158167
20
15.9580509538412
30
0
41
1
10
102.356750178296
20
15.9993358771207
30
0
41
1
10
102.409328952331
20
16.108995821117
30
0
41
1
10
102.430536738552
20
16.1810511778306
30
0
41
1
10
102.446950639903
20
16.290902721631
30
0
41
1
10
102.449758336083
20
16.3296168015022
30
0
41
1
10
102.449779698926
20
16.3679788945042
30
0
0
SPLINE
5
101
100
AcDbEntity
8
1
62
256
6
ByLayer
370
-1
48
1
60
0
100
AcDbSpline
70
4
71
3
72
18
73
14
40
0
40
0
40
0
40
0
40
0.197800683592767
40
0.197800683592767
40
0.374559654147791
40
0.374559654147791
40
0.553171489692026
40
0.553171489692026
40
0.70672656252877
40
0.70672656252877
40
0.907042009953994
40
0.907042009953994
40
1
40
1
40
1
40
1
41
1
10
104.329107304397
20
15.8702591607484
30
0
41
1
10
104.295803823435
20
15.8080191574805
30
0
41
1
10
104.269928925435
20
15.739638272373
30
0
41
1
10
104.240102019575
20
15.6046847037427
30
0
41
1
10
104.233934675444
20
15.5371186568686
30
0
41
1
10
104.24113577911
20
15.4037586390894
30
0
41
1
10
104.255035959341
20
15.3360286541287
30
0
41
1
10
104.298023932021
20
15.2222942652033
30
0
41
1
10
104.325145557128
20
15.1731624172064
30
0
41
1
10
104.398189441919
20
15.0749449618356
30
0
41
1
10
104.448368706456
20
15.0285530012558
30
0
41
1
10
104.528239977704
20
14.9756059281892
30
0
41
1
10
104.554879274107
20
14.9607791637722
30
0
41
1
10
104.582307698351
20
14.948040610712
30
0
0
SPLINE
5
102
100
AcDbEntity
8
1
62
256
6
ByLayer
370
-1
48
1
60
0
100
AcDbSpline
70
4
71
3
72
18
73
14
40
0
40
0
40
0
40
0
40
0.0187922474318311
40
0.0187922474318311
40
0.242700629847017
40
0.242700629847017
40
0.466846175061047
40
0.466846175061047
40
0.703369868299208
40
0.703369868299208
40
0.961926899344379
40
0.961926899344379
40
1
40
1
40
1
40
1
41
1
10
101.915801940013
20
13.901801100661
30
0
41
1
10
101.917590389061
20
13.9000382789527
30
0
41
1
10
101.919401948161
20
13.8982954505707
30
0
41
1
10
101.942824869873
20
13.8763004990745
30
0
41
1
10
101.967874012875
20
13.8587501236953
30
0
41
1
10
102.020648704615
20
13.8317059562281
30
0
41
1
10
102.049043253611
20
13.8218566159791
30
0
41
1
10
102.106946937734
20
13.8100084459333
30
0
41
1
10
102.137152735206
20
13.80829583444
30
0
41
1
10
102.196989525242
20
13.8130986720174
30
0
41
1
10
102.227061181249
20
13.8204220072547
30
0
41
1
10
102.258106701825
20
13.8331986971835
30
0
41
1
10
102.262071370112
20
13.8349400142822
30
0
41
1
10
102.265973277987
20
13.8367634214879
30
0
0
SPLINE
5
103
100
AcDbEntity
8
1
62
256
6
ByLayer
370
-1
48
1
60
0
100
AcDbSpline
70
4
71
3
72
16
73
12
40
0
40
0
40
0
40
0
40
0.0541442886633733
40
0.0541442886633733
40
0.277130698392647
40
0.277130698392647
40
0.502410122771023
40
0.502410122771023
40
0.741735747785538
40
0.741735747785538
40
1
40
1
40
1
40
1
41
1
10
101.478692975039
20
15.4938602186932
30
0
41
1
10
101.476844811334
20
15.4869544234929
30
0
41
1
10
101.475254856427
20
15.4799522628762
30
0
41
1
10
101.468518589409
20
15.4440222423317
30
0
41
1
10
101.467589790954
20
15.4136382983839
30
0
41
1
10
101.47449929851
20
15.3544363061566
30
0
41
1
10
101.482492889991
20
15.3248815985272
30
0
41
1
10
101.506339861484
20
15.2686115383126
30
0
41
1
10
101.522922064597
20
15.2414717523367
30
0
41
1
10
101.563073065541
20
15.1922126125869
30
0
41
1
10
101.587553033857
20
15.1700356591042
30
0
41
1
10
101.61373458202
20
15.1523023078733
30
0
0
SPLINE
5
104
100
AcDbEntity
8
1
62
256
6
ByLayer
370
-1
48
1
60
0
100
AcDbSpline
70
4
71
3
72
18
73
14
40
0
40
0
40
0
40
0
40
0.20996763219366
40
0.20996763219366
40
0.384514405470865
40
0.384514405470865
40
0.56077183982355
40
0.56077183982355
40
0.713805678821643
40
0.713805678821643
40
0.91620037982665
40
0.91620037982665
40
1
40
1
40
1
40
1
41
1
10
103.2016113126
20
13.5871788432739
30
0
41
1
10
103.165929919192
20
13.6409234475711
30
0
41
1
10
103.119667814486
20
13.6916240320102
30
0
41
1
10
103.01794093526
20
13.7724007999876
30
0
41
1
10
102.964085327741
20
13.8053431558497
30
0
41
1
10
102.846819773107
20
13.8579409973828
30
0
41
1
10
102.781495506325
20
13.8781275991161
30
0
41
1
10
102.659889813068
20
13.8999749769256
30
0
41
1
10
102.602111850079
20
13.9040446066596
30
0
41
1
10
102.47466161468
20
13.8998614591873
30
0
41
1
10
102.404930777803
20
13.8873223511932
30
0
41
1
10
102.315626716074
20
13.8581497658566
30
0
41
1
10
102.290244664743
20
13.8481057245158
30
0
41
1
10
102.265973277987
20
13.8367634214879
30
0
0
SPLINE
5
105
100
AcDbEntity
8
1
62
256
6
ByLayer
370
-1
48
1
60
0
100
AcDbSpline
70
4
71
3
72
20
73
16
40
0
40
0
40
0
40
0
40
0.0886746722087125
40
0.0886746722087125
40
0.288024069119854
40
0.288024069119854
40
0.449707236219444
40
0.449707236219444
40
0.612177771465496
40
0.612177771465496
40
0.764639312024064
40
0.764639312024064
40
0.981625503040762
40
0.981625503040762
40
1
40
1
40
1
40
1
41
1
10
101.866934975976
20
14.2300837578363
30
0
41
1
10
101.88146350781
20
14.2528665057157
30
0
41
1
10
101.8944673408
20
14.2769308134686
30
0
41
1
10
101.930944629231
20
14.358563972375
30
0
41
1
10
101.947738965393
20
14.4218907481969
30
0
41
1
10
101.957796412646
20
14.5435770583761
30
0
41
1
10
101.954857062774
20
14.6020130283107
30
0
41
1
10
101.932803674065
20
14.7184987798168
30
0
41
1
10
101.913253641513
20
14.7780606183324
30
0
41
1
10
101.86269584832
20
14.8854636204086
30
0
41
1
10
101.831973226458
20
14.9350793411036
30
0
41
1
10
101.748692106808
20
15.0426787139445
30
0
41
1
10
101.691062887202
20
15.0973940176531
30
0
41
1
10
101.624368281011
20
15.1450040885449
30
0
41
1
10
101.619067541486
20
15.1486901745217
30
0
41
1
10
101.61373458202
20
15.1523023078732
30
0
0
SPLINE
5
106
100
AcDbEntity
8
1
62
256
6
ByLayer
370
-1
48
1
60
0
100
AcDbSpline
70
4
71
3
72
12
73
8
40
0
40
0
40
0
40
0
40
0.319995300322691
40
0.319995300322691
40
0.788180704132663
40
0.788180704132663
40
1
40
1
40
1
40
1
41
1
10
103.88892277171
20
14.1248696716337
30
0
41
1
10
103.857142640795
20
14.0856524709706
30
0
41
1
10
103.830271698764
20
14.0438064072887
30
0
41
1
10
103.778570581011
20
13.9403070104882
30
0
41
1
10
103.759416454013
20
13.8767292558515
30
0
41
1
10
103.747358296485
20
13.7870894301468
30
0
41
1
10
103.745756460294
20
13.7592348213068
30
0
41
1
10
103.746211024936
20
13.7317747304613
30
0
0
SPLINE
5
107
100
AcDbEntity
8
1
62
256
6
ByLayer
370
-1
48
1
60
0
100
AcDbSpline
70
4
71
3
72
14
73
10
40
0
40
0
40
0
40
0
40
0.275245812807328
40
0.275245812807328
40
0.562663853595319
40
0.562663853595319
40
0.822712949251931
40
0.822712949251931
40
1
40
1
40
1
40
1
41
1
10
102.994430967773
20
16.5131640753106
30
0
41
1
10
102.978396468269
20
16.5437789290375
30
0
41
1
10
102.957055883658
20
16.5723630312609
30
0
41
1
10
102.904956017583
20
16.6213838324277
30
0
41
1
10
102.872958323708
20
16.6421182172638
30
0
41
1
10
102.806995621256
20
16.6680824495464
30
0
41
1
10
102.772489854261
20
16.6749336964143
30
0
41
1
10
102.714826336343
20
16.6752171284679
30
0
41
1
10
102.691070222333
20
16.6722571258173
30
0
41
1
10
102.668244250581
20
16.6663228020646
30
0
0
SPLINE
5
108
100
AcDbEntity
8
1
62
256
6
ByLayer
370
-1
48
1
60
0
100
AcDbSpline
70
4
71
3
72
14
73
10
40
0
40
0
40
0
40
0
40
0.278307352353434
40
0.278307352353434
40
0.563523371436319
40
0.563523371436319
40
0.821538329835244
40
0.821538329835244
40
1
40
1
40
1
40
1
41
1
10
101.760718444793
20
15.6888164618014
30
0
41
1
10
101.727844939653
20
15.6919755072892
30
0
41
1
10
101.693919505266
20
15.6893144458462
30
0
41
1
10
101.628780666404
20
15.6713065534955
30
0
41
1
10
101.596661431393
20
15.6553016781129
30
0
41
1
10
101.544010426735
20
15.6133159249536
30
0
41
1
10
101.521908941325
20
15.587747588014
30
0
41
1
10
101.493883996392
20
15.5387685895261
30
0
41
1
10
101.484810224842
20
15.5167177578946
30
0
41
1
10
101.478692975039
20
15.4938602186932
30
0
0
SPLINE
5
109
100
AcDbEntity
8
1
62
256
6
ByLayer
370
-1
48
1
60
0
100
AcDbSpline
70
4
71
3
72
16
73
12
40
0
40
0
40
0
40
0
40
0.158367664275343
40
0.158367664275343
40
0.378735531522257
40
0.378735531522257
40
0.607145454994231
40
0.607145454994231
40
0.854104509972062
40
0.854104509972062
40
1
40
1
40
1
40
1
41
1
10
103.531027597882
20
13.4709342487095
30
0
41
1
10
103.551567432628
20
13.4762742197972
30
0
41
1
10
103.571628185062
20
13.4837116470401
30
0
41
1
10
103.616426189237
20
13.5056713879393
30
0
41
1
10
103.640469333534
20
13.5221503261202
30
0
41
1
10
103.681923293395
20
13.5602257355899
30
0
41
1
10
103.699602426255
20
13.5824486311831
30
0
41
1
10
103.727425769267
20
13.6308051695231
30
0
41
1
10
103.737219908291
20
13.6577001549978
30
0
41
1
10
103.745153091758
20
13.7001961248242
30
0
41
1
10
103.746470272504
20
13.7161136756374
30
0
41
1
10
103.746211024936
20
13.7317747304613
30
0
0
SPLINE
5
10A
100
AcDbEntity
8
1
62
256
6
ByLayer
370
-1
48
1
60
0
100
AcDbSpline
70
4
71
3
72
14
73
10
40
0
40
0
40
0
40
0
40
0.304105542701271
40
0.304105542701271
40
0.595689218791886
40
0.595689218791886
40
0.85216900618828
40
0.85216900618828
40
1
40
1
40
1
40
1
41
1
10
104.329107304397
20
15.8702591607483
30
0
41
1
10
104.347155945636
20
15.9039897936199
30
0
41
1
10
104.359930648752
20
15.9419656946293
30
0
41
1
10
104.370741344713
20
16.0183990230248
30
0
41
1
10
104.369437355479
20
16.0580153452338
30
0
41
1
10
104.353144949631
20
16.1286707029153
30
0
41
1
10
104.339519695072
20
16.1612124919263
30
0
41
1
10
104.310061396433
20
16.2062385491817
30
0
41
1
10
104.297447532574
20
16.2216786164745
30
0
41
1
10
104.283469908451
20
16.2354559501131
30
0
0
SPLINE
5
10B
100
AcDbEntity
8
1
62
256
6
ByLayer
370
-1
48
1
60
0
100
AcDbSpline
70
4
71
3
72
12
73
8
40
0
40
0
40
0
40
0
40
0.492778677287531
40
0.492778677287531
40
0.898175068833415
40
0.898175068833415
40
1
40
1
40
1
40
1
41
1
10
104.435272279068
20
14.410937163164
30
0
41
1
10
104.363791084816
20
14.4051726692495
30
0
41
1
10
104.289938831126
20
14.388750564272
30
0
41
1
10
104.159403315051
20
14.3387229919607
30
0
41
1
10
104.100574426252
20
14.3079964381361
30
0
41
1
10
104.032913361611
20
14.261001070603
30
0
41
1
10
104.019510040278
20
14.2510579435682
30
0
41
1
10
104.00645420018
20
14.2407126832673
30
0
0
SPLINE
5
10C
100
AcDbEntity
8
1
62
256
6
ByLayer
370
-1
48
1
60
0
100
AcDbSpline
70
4
71
3
72
16
73
12
40
0
40
0
40
0
40
0
40
0.0984050026851053
40
0.0984050026851053
40
0.406694287525253
40
0.406694287525253
40
0.686010043750558
40
0.686010043750558
40
0.932678607120601
40
0.932678607120601
40
1
40
1
40
1
40
1
41
1
10
103.201611312597
20
13.5871788432729
30
0
41
1
10
103.207554408352
20
13.578227137659
30
0
41
1
10
103.214146567584
20
13.5695281602369
30
0
41
1
10
103.24371006436
20
13.5352500223772
30
0
41
1
10
103.272668698362
20
13.5121730832339
30
0
41
1
10
103.336098599962
20
13.4794709661817
30
0
41
1
10
103.370829457599
20
13.468337101649
30
0
41
1
10
103.438522941805
20
13.4591806696868
30
0
41
1
10
103.472216136272
20
13.4596857894298
30
0
41
1
10
103.513442788357
20
13.466758468191
30
0
41
1
10
103.522296552069
20
13.4686643408556
30
0
41
1
10
103.531027597882
20
13.4709342487095
30
0
0
SPLINE
5
10D
100
AcDbEntity
8
1
62
256
6
ByLayer
370
-1
48
1
60
0
100
AcDbSpline
70
4
71
3
72
18
73
14
40
0
40
0
40
0
40
0
40
0.0562491611422329
40
0.0562491611422329
40
0.277113892240208
40
0.277113892240208
40
0.500399708821016
40
0.500399708821016
40
0.737722352217412
40
0.737722352217412
40
0.998189834256314
40
0.998189834256314
40
1
40
1
40
1
40
1
41
1
10
102.668244250581
20
16.6663228020646
30
0
41
1
10
102.660899222604
20
16.6644132328047
30
0
41
1
10
102.653621805347
20
16.6621943267161
30
0
41
1
10
102.618506914021
20
16.6498747865164
30
0
41
1
10
102.591788571677
20
16.6352736263954
30
0
41
1
10
102.544651360657
20
16.5989715931063
30
0
41
1
10
102.523690432448
20
16.5767518051529
30
0
41
1
10
102.488699211998
20
16.5266424286242
30
0
41
1
10
102.474723550837
20
16.4978762840942
30
0
41
1
10
102.454982577585
20
16.4359992893852
30
0
41
1
10
102.449868506104
20
16.40197218662
30
0
41
1
10
102.449780202301
20
16.3684467030961
30
0
41
1
10
102.449779829177
20
16.3682127906903
30
0
41
1
10
102.449779698926
20
16.3679788945042
30
0
0
SPLINE
5
10E
100
AcDbEntity
8
1
62
256
6
ByLayer
370
-1
48
1
60
0
100
AcDbSpline
70
4
71
3
72
14
73
10
40
0
40
0
40
0
40
0
40
0.211396684744278
40
0.211396684744278
40
0.504926748461873
40
0.504926748461873
40
0.770040751504433
40
0.770040751504433
40
1
40
1
40
1
40
1
41
1
10
104.435272279068
20
14.4109371631627
30
0
41
1
10
104.46065541306
20
14.4129841480089
30
0
41
1
10
104.486553899954
20
14.4181998677926
30
0
41
1
10
104.546683528204
20
14.4383042070121
30
0
41
1
10
104.58126738979
20
14.4566172037445
30
0
41
1
10
104.639049141801
20
14.5021649586377
30
0
41
1
10
104.663871258631
20
14.5291167905023
30
0
41
1
10
104.699771202004
20
14.5850058071838
30
0
41
1
10
104.712704283113
20
14.613972865013
30
0
41
1
10
104.720578873425
20
14.6433968320809
30
0
0
SPLINE
5
10F
100
AcDbEntity
8
1
62
256
6
ByLayer
370
-1
48
1
60
0
100
AcDbSpline
70
4
71
3
72
14
73
10
40
0
40
0
40
0
40
0
40
0.221657415528474
40
0.221657415528474
40
0.51577204324804
40
0.51577204324804
40
0.781455574487206
40
0.781455574487206
40
1
40
1
40
1
40
1
41
1
10
101.866934975975
20
14.2300837578369
30
0
41
1
10
101.854133402096
20
14.2100091189484
30
0
41
1
10
101.844146451219
20
14.187602460741
30
0
41
1
10
101.829305806686
20
14.1324058926912
30
0
41
1
10
101.82704640067
20
14.0976368644132
30
0
41
1
10
101.836709759658
20
14.0316870929189
30
0
41
1
10
101.847497538563
20
13.9994808084295
30
0
41
1
10
101.877478260297
20
13.9454283524302
30
0
41
1
10
101.895204057495
20
13.9221038285924
30
0
41
1
10
101.915801940013
20
13.901801100661
30
0
0
SPLINE
5
110
100
AcDbEntity
8
1
62
256
6
ByLayer
370
-1
48
1
60
0
100
AcDbSpline
70
4
71
3
72
12
73
8
40
0
40
0
40
0
40
0
40
0.445095469627897
40
0.445095469627897
40
0.859015871486671
40
0.859015871486671
40
1
40
1
40
1
40
1
41
1
10
101.760718444793
20
15.6888164618005
30
0
41
1
10
101.824324311248
20
15.6827041283402
30
0
41
1
10
101.889805222222
20
15.6858222130117
30
0
41
1
10
102.013654751788
20
15.7124945517378
30
0
41
1
10
102.073609580818
20
15.735110031521
30
0
41
1
10
102.148197051003
20
15.7788112227996
30
0
41
1
10
102.166807181241
20
15.7911527096563
30
0
41
1
10
102.184773518825
20
15.8045995470734
30
0
0
SPLINE
5
111
100
AcDbEntity
8
1
62
256
6
ByLayer
370
-1
48
1
60
0
100
AcDbSpline
70
4
71
3
72
16
73
12
40
0
40
0
40
0
40
0
40
0.083966157101615
40
0.083966157101615
40
0.306437453958912
40
0.306437453958912
40
0.532891941401107
40
0.532891941401107
40
0.774757583960877
40
0.774757583960877
40
1
40
1
40
1
40
1
41
1
10
104.283469908451
20
16.2354559501131
30
0
41
1
10
104.275528969951
20
16.2432831000031
30
0
41
1
10
104.267108801328
20
16.2506215755862
30
0
41
1
10
104.235119240845
20
16.2752192758644
30
0
41
1
10
104.20882864443
20
16.2892707020264
30
0
41
1
10
104.153949215654
20
16.3081417444033
30
0
41
1
10
104.124639751018
20
16.3130550049478
30
0
41
1
10
104.065234748032
20
16.313765748221
30
0
41
1
10
104.034480130262
20
16.308962142504
30
0
41
1
10
103.978920917584
20
16.2913175757377
30
0
41
1
10
103.953324829352
20
16.2789294338385
30
0
41
1
10
103.930069002384
20
16.2635794970957
30
0
0
LINE
5
49
100
AcDbEntity
8
80
62
256
6
ByLayer
370
-1
48
1
60
0
100
AcDbLine
10
0
20
0
30
0
11
-10
21
0
31
0
39
0
210
0
220
0
230
1
0
LINE
5
4A
100
AcDbEntity
8
81
62
256
6
ByLayer
370
-1
48
1
60
0
100
AcDbLine
10
110
20
21.9
30
0
11
120
21
21.9
31
0
39
0
210
0
220
0
230
1
0
LINE
5
4B
100
AcDbEntity
8
SK4
62
256
6
ByLayer
370
-1
48
0.05
60
0
100
AcDbLine
10
-35
20
0
30
0
11
114.826023
21
0
31
0
39
0
210
0
220
0
230
1
0
LINE
5
4D
100
AcDbEntity
8
4
62
256
6
ByLayer
370
-1
48
0.05
60
0
100
AcDbLine
10
0
20
0
30
0
11
144.826023
21
0
31
0
39
0
210
0
220
0
230
1
0
LINE
5
4F
100
AcDbEntity
8
1
62
256
6
ByLayer
370
-1
48
1
60
0
100
AcDbLine
10
106.487887
20
14.499051
30
0
11
106.505648
21
14.702055
31
0
39
0
210
0
220
0
230
1
0
LINE
5
50
100
AcDbEntity
8
1
62
256
6
ByLayer
370
-1
48
1
60
0
100
AcDbLine
10
99.681714
20
15.299072
30
0
11
99.663954
21
15.096068
31
0
39
0
210
0
220
0
230
1
0
LINE
5
51
100
AcDbEntity
8
1
62
256
6
ByLayer
370
-1
48
1
60
0
100
AcDbLine
10
103.748257
20
13.789266
30
0
11
103.738118
21
13.673382
31
0
39
0
210
0
220
0
230
1
0
LINE
5
52
100
AcDbEntity
8
1
62
256
6
ByLayer
370
-1
48
1
60
0
100
AcDbLine
10
101.926136
20
14.178596
30
0
11
101.953048
21
14.486213
31
0
39
0
210
0
220
0
230
1
0
LINE
5
53
100
AcDbEntity
8
1
62
256
6
ByLayer
370
-1
48
1
60
0
100
AcDbLine
10
104.239347
20
15.572444
30
0
11
104.212365
21
15.264046
31
0
39
0
210
0
220
0
230
1
0
LINE
5
54
100
AcDbEntity
8
1
62
256
6
ByLayer
370
-1
48
1
60
0
100
AcDbLine
10
102.418517
20
15.976538
30
0
11
102.446794
21
16.299748
31
0
39
0
210
0
220
0
230
1
0
LINE
5
55
100
AcDbEntity
8
1
62
256
6
ByLayer
370
-1
48
1
60
0
100
AcDbLine
10
19.5
20
25
30
0
11
0.3
21
25
31
0
39
0
210
0
220
0
230
1
0
LINE
5
56
100
AcDbEntity
8
1
62
256
6
ByLayer
370
-1
48
1
60
0
100
AcDbLine
10
0.3
20
-25
30
0
11
19.5
21
-25
31
0
39
0
210
0
220
0
230
1
0
LINE
5
57
100
AcDbEntity
8
1
62
256
6
ByLayer
370
-1
48
1
60
0
100
AcDbLine
10
0.3
20
25
30
0
11
0
21
24.7
31
0
39
0
210
0
220
0
230
1
0
LINE
5
58
100
AcDbEntity
8
1
62
256
6
ByLayer
370
-1
48
1
60
0
100
AcDbLine
10
0
20
-24.7
30
0
11
0.3
21
-25
31
0
39
0
210
0
220
0
230
1
0
LINE
5
59
100
AcDbEntity
8
1
62
256
6
ByLayer
370
-1
48
1
60
0
100
AcDbLine
10
19.5
20
-25
30
0
11
20.71226
21
-20.454024
31
0
39
0
210
0
220
0
230
1
0
LINE
5
5A
100
AcDbEntity
8
1
62
256
6
ByLayer
370
-1
48
1
60
0
100
AcDbLine
10
20.71226
20
20.454024
30
0
11
19.5
21
25
31
0
39
0
210
0
220
0
230
1
0
LINE
5
5B
100
AcDbEntity
8
1
62
256
6
ByLayer
370
-1
48
1
60
0
100
AcDbLine
10
87.414918
20
16
30
0
11
26.50967
21
16
31
0
39
0
210
0
220
0
230
1
0
LINE
5
5C
100
AcDbEntity
8
1
62
256
6
ByLayer
370
-1
48
1
60
0
100
AcDbLine
10
26.50967
20
-16
30
0
11
85.414918
21
-16
31
0
39
0
210
0
220
0
230
1
0
LINE
5
5D
100
AcDbEntity
8
1
62
256
6
ByLayer
370
-1
48
1
60
0
100
AcDbLine
10
91.916777
20
19.392394
30
0
11
87.414918
21
16
31
0
39
0
210
0
220
0
230
1
0
LINE
5
5E
100
AcDbEntity
8
1
62
256
6
ByLayer
370
-1
48
1
60
0
100
AcDbLine
10
96.132891
20
19.770698
30
0
11
91.916777
21
19.392394
31
0
39
0
210
0
220
0
230
1
0
LINE
5
5F
100
AcDbEntity
8
1
62
256
6
ByLayer
370
-1
48
1
60
0
100
AcDbLine
10
95.258043
20
10.406231
30
0
11
95.501212
21
9.949975
31
0
39
0
210
0
220
0
230
1
0
LINE
5
60
100
AcDbEntity
8
1
62
256
6
ByLayer
370
-1
48
1
60
0
100
AcDbLine
10
91.916777
20
19.392394
30
0
11
91.916777
21
19.391924
31
0
39
0
210
0
220
0
230
1
0
LINE
5
61
100
AcDbEntity
8
1
62
256
6
ByLayer
370
-1
48
1
60
0
100
AcDbLine
10
26.50967
20
16
30
0
11
26.50967
21
-16
31
0
39
0
210
0
220
0
230
1
0
LINE
5
62
100
AcDbEntity
8
1
62
256
6
ByLayer
370
-1
48
1
60
0
100
AcDbLine
10
11.461325
20
-23.83913
30
0
11
8.538675
21
-23.83913
31
0
39
0
210
0
220
0
230
1
0
LINE
5
63
100
AcDbEntity
8
1
62
256
6
ByLayer
370
-1
48
1
60
0
100
AcDbLine
10
8.105662
20
-23.666502
30
0
11
8.105662
21
-8.055848
31
0
39
0
210
0
220
0
230
1
0
LINE
5
64
100
AcDbEntity
8
1
62
256
6
ByLayer
370
-1
48
1
60
0
100
AcDbLine
10
11.461325
20
-23.83913
30
0
11
11.461325
21
-7.529667
31
0
39
0
210
0
220
0
230
1
0
LINE
5
65
100
AcDbEntity
8
1
62
256
6
ByLayer
370
-1
48
1
60
0
100
AcDbLine
10
11.461325
20
7.529667
30
0
11
8.538675
21
7.529667
31
0
39
0
210
0
220
0
230
1
0
LINE
5
66
100
AcDbEntity
8
1
62
256
6
ByLayer
370
-1
48
1
60
0
100
AcDbLine
10
11.461325
20
7.529667
30
0
11
11.461325
21
23.83913
31
0
39
0
210
0
220
0
230
1
0
LINE
5
67
100
AcDbEntity
8
1
62
256
6
ByLayer
370
-1
48
1
60
0
100
AcDbLine
10
95.239135
20
10.200596
30
0
11
95.258043
21
10.406231
31
0
39
0
210
0
220
0
230
1
0
LINE
5
68
100
AcDbEntity
8
1
62
256
6
ByLayer
370
-1
48
1
60
0
100
AcDbLine
10
97.671533
20
-4.717777
30
0
11
108.352755
21
5.114295
31
0
39
0
210
0
220
0
230
1
0
LINE
5
69
100
AcDbEntity
8
1
62
256
6
ByLayer
370
-1
48
1
60
0
100
AcDbLine
10
19.5
20
-25
30
0
11
19.5
21
25
31
0
39
0
210
0
220
0
230
1
0
LINE
5
6A
100
AcDbEntity
8
1
62
256
6
ByLayer
370
-1
48
1
60
0
100
AcDbLine
10
8.538675
20
7.529667
30
0
11
8.538675
21
23.83913
31
0
39
0
210
0
220
0
230
1
0
LINE
5
6B
100
AcDbEntity
8
1
62
256
6
ByLayer
370
-1
48
1
60
0
100
AcDbLine
10
108.716241
20
9.268961
30
0
11
98.510142
21
8.401668
31
0
39
0
210
0
220
0
230
1
0
LINE
5
6C
100
AcDbEntity
8
1
62
256
6
ByLayer
370
-1
48
1
60
0
100
AcDbLine
10
95.394499
20
8.595518
30
0
11
95.477639
21
9.545824
31
0
39
0
210
0
220
0
230
1
0
LINE
5
6D
100
AcDbEntity
8
1
62
256
6
ByLayer
370
-1
48
1
60
0
100
AcDbLine
10
108.716241
20
9.268961
30
0
11
108.352755
21
5.114295
31
0
39
0
210
0
220
0
230
1
0
LINE
5
6E
100
AcDbEntity
8
1
62
256
6
ByLayer
370
-1
48
1
60
0
100
AcDbLine
10
87.534776
20
-14.048669
30
0
11
97.671533
21
-4.717777
31
0
39
0
210
0
220
0
230
1
0
LINE
5
6F
100
AcDbEntity
8
1
62
256
6
ByLayer
370
-1
48
1
60
0
100
AcDbLine
10
8.105662
20
8.055848
30
0
11
8.105662
21
23.666502
31
0
39
0
210
0
220
0
230
1
0
LINE
5
70
100
AcDbEntity
8
1
62
256
6
ByLayer
370
-1
48
1
60
0
100
AcDbLine
10
95.478118
20
9.686013
30
0
11
95.501212
21
9.949975
31
0
39
0
210
0
220
0
230
1
0
LINE
5
71
100
AcDbEntity
8
1
62
256
6
ByLayer
370
-1
48
1
60
0
100
AcDbLine
10
95.239135
20
10.200596
30
0
11
95.482303
21
9.744339
31
0
39
0
210
0
220
0
230
1
0
LINE
5
72
100
AcDbEntity
8
1
62
256
6
ByLayer
370
-1
48
1
60
0
100
AcDbLine
10
87.414918
20
16
30
0
11
87.414918
21
15.966321
31
0
39
0
210
0
220
0
230
1
0
LINE
5
73
100
AcDbEntity
8
1
62
256
6
ByLayer
370
-1
48
1
60
0
100
AcDbLine
10
8.538675
20
-23.83913
30
0
11
8.538675
21
-7.529667
31
0
39
0
210
0
220
0
230
1
0
LINE
5
74
100
AcDbEntity
8
1
62
256
6
ByLayer
370
-1
48
1
60
0
100
AcDbLine
10
11.894338
20
8.055848
30
0
11
11.894338
21
23.666502
31
0
39
0
210
0
220
0
230
1
0
LINE
5
75
100
AcDbEntity
8
1
62
256
6
ByLayer
370
-1
48
1
60
0
100
AcDbLine
10
87.414918
20
-13.939008
30
0
11
87.414918
21
-14.158999
31
0
39
0
210
0
220
0
230
1
0
LINE
5
76
100
AcDbEntity
8
1
62
256
6
ByLayer
370
-1
48
1
60
0
100
AcDbLine
10
11.894338
20
-23.666502
30
0
11
11.894338
21
-8.055848
31
0
39
0
210
0
220
0
230
1
0
LINE
5
77
100
AcDbEntity
8
1
62
256
6
ByLayer
370
-1
48
1
60
0
100
AcDbLine
10
87.414918
20
-14.158999
30
0
11
87.534776
21
-14.048669
31
0
39
0
210
0
220
0
230
1
0
LINE
5
78
100
AcDbEntity
8
1
62
256
6
ByLayer
370
-1
48
1
60
0
100
AcDbLine
10
0
20
-24.7
30
0
11
0
21
24.7
31
0
39
0
210
0
220
0
230
1
0
LINE
5
79
100
AcDbEntity
8
1
62
256
6
ByLayer
370
-1
48
1
60
0
100
AcDbLine
10
85.414918
20
-16
30
0
11
87.414918
21
-14.158999
31
0
39
0
210
0
220
0
230
1
0
LINE
5
7A
100
AcDbEntity
8
1
62
256
6
ByLayer
370
-1
48
1
60
0
100
AcDbLine
10
95.501212
20
9.949975
30
0
11
95.482303
21
9.744339
31
0
39
0
210
0
220
0
230
1
0
LINE
5
7B
100
AcDbEntity
8
1
62
256
6
ByLayer
370
-1
48
1
60
0
100
AcDbLine
10
20.71226
20
-20.454024
30
0
11
20.71226
21
20.454024
31
0
39
0
210
0
220
0
230
1
0
LINE
5
7C
100
AcDbEntity
8
1
62
256
6
ByLayer
370
-1
48
1
60
0
100
AcDbLine
10
0.3
20
-25
30
0
11
0.3
21
25
31
0
39
0
210
0
220
0
230
1
0
LINE
5
7D
100
AcDbEntity
8
1
62
256
6
ByLayer
370
-1
48
1
60
0
100
AcDbLine
10
8.538675
20
23.83913
30
0
11
11.461325
21
23.83913
31
0
39
0
210
0
220
0
230
1
0
LINE
5
7E
100
AcDbEntity
8
1
62
256
6
ByLayer
370
-1
48
1
60
0
100
AcDbLine
10
8.538675
20
-7.529667
30
0
11
11.461325
21
-7.529667
31
0
39
0
210
0
220
0
230
1
0
LINE
5
7F
100
AcDbEntity
8
1
62
256
6
ByLayer
370
-1
48
1
60
0
100
AcDbLine
10
91.257077
20
18.893868
30
0
11
97.671533
21
-4.717777
31
0
39
0
210
0
220
0
230
1
0
LINE
5
80
100
AcDbEntity
8
SK1
62
256
6
ByLayer
370
-1
48
1
60
0
100
AcDbLine
10
-30
20
-15.939791
30
0
11
-30
21
15.941288
31
0
39
0
210
0
220
0
230
1
0
LINE
5
82
100
AcDbEntity
8
SK1
62
256
6
ByLayer
370
-1
48
1
60
0
100
AcDbLine
10
-0.4
20
17.32515
30
0
11
-0.4
21
5.168667
31
0
39
0
210
0
220
0
230
1
0
LINE
5
83
100
AcDbEntity
8
SK1
62
256
6
ByLayer
370
-1
48
1
60
0
100
AcDbLine
10
-0.2
20
17.833485
30
0
11
-0.2
21
5.881425
31
0
39
0
210
0
220
0
230
1
0
LINE
5
84
100
AcDbEntity
8
SK1
62
256
6
ByLayer
370
-1
48
1
60
0
100
AcDbLine
10
-0.2
20
-5.881424
30
0
11
-0.2
21
-17.833485
31
0
39
0
210
0
220
0
230
1
0
LINE
5
85
100
AcDbEntity
8
SK1
62
256
6
ByLayer
370
-1
48
1
60
0
100
AcDbLine
10
-1.307107
20
3.804744
30
0
11
-1.307107
21
-3.804747
31
0
39
0
210
0
220
0
230
1
0
LINE
5
86
100
AcDbEntity
8
1
62
256
6
ByLayer
370
-1
48
1
60
0
100
AcDbLine
10
96.828683
20
8.063497
30
0
11
98.447488
21
8.20106
31
0
39
0
210
0
220
0
230
1
0
LINE
5
87
100
AcDbEntity
8
1
62
256
6
ByLayer
370
-1
48
1
60
0
100
AcDbLine
10
97.177088
20
20.231674
30
0
11
96.207999
21
9.154933
31
0
39
0
210
0
220
0
230
1
0
LINE
5
88
100
AcDbEntity
8
1
62
256
6
ByLayer
370
-1
48
1
60
0
100
AcDbLine
10
109.135868
20
21.897085
30
0
11
97.897872
21
20.942104
31
0
39
0
210
0
220
0
230
1
0
LINE
5
89
100
AcDbEntity
8
1
62
256
6
ByLayer
370
-1
48
1
60
0
100
AcDbLine
10
109.027952
20
9.971511
30
0
11
109.997041
21
21.048252
31
0
39
0
210
0
220
0
230
1
0
LINE
5
8A
100
AcDbEntity
8
1
62
256
6
ByLayer
370
-1
48
1
60
0
100
AcDbLine
10
97.069172
20
8.3061
30
0
11
108.307168
21
9.261081
31
0
39
0
210
0
220
0
230
1
0
LINE
5
8B
100
AcDbEntity
8
1
62
256
6
ByLayer
370
-1
48
1
60
0
100
AcDbLine
10
97.7577
20
7.360378
30
0
11
97.298381
21
7.321346
31
0
39
0
210
0
220
0
230
1
0
LINE
5
8C
100
AcDbEntity
8
1
62
256
6
ByLayer
370
-1
48
1
60
0
100
AcDbLine
10
96.459174
20
8.502051
30
0
11
96.430701
21
8.176594
31
0
39
0
210
0
220
0
230
1
0
LINE
5
8D
100
AcDbEntity
8
1
62
256
6
ByLayer
370
-1
48
1
60
0
100
AcDbLine
10
97.352408
20
7.938876
30
0
11
97.298381
21
7.321346
31
0
39
0
210
0
220
0
230
1
0
LINE
5
8E
100
AcDbEntity
8
1
62
256
6
ByLayer
370
-1
48
1
60
0
100
AcDbLine
10
97.352408
20
7.938876
30
0
11
98.368608
21
8.02523
31
0
39
0
210
0
220
0
230
1
0
LINE
5
8F
100
AcDbEntity
8
1
62
256
6
ByLayer
370
-1
48
1
60
0
100
AcDbLine
10
103.742021
20
13.683888
30
0
11
103.746211
21
13.731775
31
0
39
0
210
0
220
0
230
1
0
LINE
5
90
100
AcDbEntity
8
1
62
256
6
ByLayer
370
-1
48
1
60
0
100
AcDbLine
10
104.553537
20
14.61919
30
0
11
104.582308
21
14.948041
31
0
39
0
210
0
220
0
230
1
0
LINE
5
91
100
AcDbEntity
8
1
62
256
6
ByLayer
370
-1
48
1
60
0
100
AcDbLine
10
103.901298
20
15.934729
30
0
11
103.930069
21
16.263579
31
0
39
0
210
0
220
0
230
1
0
LINE
5
92
100
AcDbEntity
8
1
62
256
6
ByLayer
370
-1
48
1
60
0
100
AcDbLine
10
102.96566
20
16.184314
30
0
11
102.994431
21
16.513164
31
0
39
0
210
0
220
0
230
1
0
LINE
5
93
100
AcDbEntity
8
1
62
256
6
ByLayer
370
-1
48
1
60
0
100
AcDbLine
10
101.731974
20
15.360261
30
0
11
101.760718
21
15.688816
31
0
39
0
210
0
220
0
230
1
0
LINE
5
94
100
AcDbEntity
8
1
62
256
6
ByLayer
370
-1
48
1
60
0
100
AcDbLine
10
101.848199
20
14.015925
30
0
11
101.866935
21
14.230084
31
0
39
0
210
0
220
0
230
1
0
LINE
5
95
100
AcDbEntity
8
1
62
256
6
ByLayer
370
-1
48
1
60
0
100
AcDbLine
10
102.184774
20
15.8046
30
0
11
102.15841
21
15.503265
31
0
39
0
210
0
220
0
230
1
0
LINE
5
96
100
AcDbEntity
8
1
62
256
6
ByLayer
370
-1
48
1
60
0
100
AcDbLine
10
102.275942
20
15.619108
30
0
11
102.302305
21
15.920443
31
0
39
0
210
0
220
0
230
1
0
LINE
5
97
100
AcDbEntity
8
2
62
256
6
ByLayer
370
-1
48
1
60
1
100
AcDbLine
10
110
20
0
30
0
11
110.001
21
0.001
31
0
39
0
210
0
220
0
230
1
0
MTEXT
5
112
100
AcDbEntity
8
SK6
62
256
6
ByLayer
370
-1
48
1
60
0
100
AcDbMText
10
-0.211989
20
-35.875
30
0
210
0
220
0
230
1
1
\W00.687;\fsimplex.shx,bigfont.shx;C5-SCLCR-22110-12 
40
3.5
41
0
44
1.084337
50
0
71
7
72
5
7
DEFAULT
0
DIMENSION
5
146
100
AcDbEntity
8
SK2
62
256
6
ByLayer
370
-3
48
1
60
0
100
AcDbDimension
2
DimnDraft3D1
10
-42.75
20
25
30
0
11
-42.75
21
-4.784211
31
0
70
32
71
5
72
1
41
1
210
0
220
0
230
1
3
Standard
100
AcDbAlignedDimension
13
-2
23
-25
33
0
14
-2
24
25
34
0
50
90
100
AcDbRotatedDimension
1001
ACAD
1000
DSTYLE
1002
{
1070
    74
1070
     0
1070
   279
1070
     0
1070
   172
1070
     1
1070
   173
1070
     1
1070
   340
1005
113
1070
    77
1070
     1
1070
    73
1070
     0
1070
   171
1070
     4
1070
   274
1070
     4
1070
   177
1070
     2
1070
   176
1070
     2
1070
   178
1070
     7
1070
    78
1070
     8
1070
    41
1041
3.175
1070
   147
1041
2.25
1070
    42
1041
2.0
1070
    44
1041
2.0
1070
   140
1041
4.5
1070
   343
1005
147
1070
   344
1005
147
1002
}
0
DIMENSION
5
159
100
AcDbEntity
8
2
62
256
6
ByLayer
370
-3
48
1
60
0
100
AcDbDimension
2
DimnDraft3D2
10
37.15
20
16
30
0
11
37.15
21
0
31
0
70
32
71
5
72
1
41
1
210
0
220
0
230
1
3
Standard
100
AcDbAlignedDimension
13
21.9
23
16
33
0
14
0
24
0
34
0
50
90
100
AcDbRotatedDimension
1001
ACAD
1000
DSTYLE
1002
{
1070
    74
1070
     0
1070
   279
1070
     0
1070
   172
1070
     1
1070
   173
1070
     1
1070
   340
1005
113
1070
    75
1070
     1
1070
    76
1070
     1
1070
    77
1070
     1
1070
    73
1070
     0
1070
   171
1070
     4
1070
   274
1070
     4
1070
   177
1070
     2
1070
   176
1070
     2
1070
   178
1070
     7
1070
    78
1070
     8
1070
    41
1041
3.175
1070
   147
1041
2.25
1070
    42
1041
2.0
1070
    44
1041
2.0
1070
   140
1041
4.5
1070
   343
1005
147
1070
   344
1005
147
1002
}
0
DIMENSION
5
167
100
AcDbEntity
8
2
62
256
6
ByLayer
370
-3
48
1
60
0
100
AcDbDimension
2
DimnDraft3D3
10
122.25
20
0
30
0
11
122.25
21
5.786842
31
0
70
32
71
5
72
1
41
1
210
0
220
0
230
1
3
Standard
100
AcDbAlignedDimension
13
112
23
21.9
33
0
14
112
24
0
34
0
50
90
100
AcDbRotatedDimension
1001
ACAD
1000
DSTYLE
1002
{
1070
    74
1070
     0
1070
   279
1070
     0
1070
   172
1070
     1
1070
   173
1070
     1
1070
   340
1005
113
1070
    77
1070
     1
1070
    73
1070
     0
1070
   171
1070
     4
1070
   274
1070
     4
1070
   177
1070
     2
1070
   176
1070
     2
1070
   178
1070
     7
1070
    78
1070
     8
1070
    41
1041
3.175
1070
   147
1041
2.25
1070
    42
1041
2.0
1070
    44
1041
2.0
1070
   140
1041
4.5
1070
   343
1005
147
1070
   344
1005
147
1002
}
0
DIMENSION
5
175
100
AcDbEntity
8
2
62
256
6
ByLayer
370
-3
48
1
60
0
100
AcDbDimension
2
DimnDraft3D4
10
110
20
49.65
30
0
11
49.309868
21
49.65
31
0
70
32
71
5
72
1
41
1
210
0
220
0
230
1
3
Standard
100
AcDbAlignedDimension
13
0
23
27
33
0
14
110
24
23.9
34
0
50
0
100
AcDbRotatedDimension
1001
ACAD
1000
DSTYLE
1002
{
1070
   279
1070
     0
1070
   172
1070
     1
1070
   173
1070
     1
1070
   340
1005
113
1070
    77
1070
     1
1070
    73
1070
     0
1070
   171
1070
     4
1070
   274
1070
     4
1070
   177
1070
     2
1070
   176
1070
     2
1070
   178
1070
     7
1070
    78
1070
     8
1070
    41
1041
3.175
1070
   147
1041
2.25
1070
    42
1041
2.0
1070
    44
1041
2.0
1070
   140
1041
4.5
1070
   343
1005
147
1070
   344
1005
147
1002
}
0
DIMENSION
5
183
100
AcDbEntity
8
2
62
256
6
ByLayer
370
-3
48
1
60
0
100
AcDbDimension
2
DimnDraft3D5
10
110
20
34.65
30
0
11
61.349342
21
34.65
31
0
70
32
71
5
72
1
41
1
210
0
220
0
230
1
3
Standard
100
AcDbAlignedDimension
13
21.9
23
18
33
0
14
110
24
23.9
34
0
50
0
100
AcDbRotatedDimension
1001
ACAD
1000
DSTYLE
1002
{
1070
   279
1070
     0
1070
   172
1070
     1
1070
   173
1070
     1
1070
   340
1005
113
1070
    77
1070
     1
1070
    73
1070
     0
1070
   171
1070
     4
1070
   274
1070
     4
1070
   177
1070
     2
1070
   176
1070
     2
1070
   178
1070
     7
1070
    78
1070
     8
1070
    41
1041
3.175
1070
   147
1041
2.25
1070
    42
1041
2.0
1070
    44
1041
2.0
1070
   140
1041
4.5
1070
   343
1005
147
1070
   344
1005
147
1002
}
0
DIMENSION
5
191
100
AcDbEntity
8
2
62
256
6
ByLayer
370
-3
48
1
60
0
100
AcDbDimension
2
DimnDraft3D6
10
157.010405
20
0
30
0
11
133.569709
21
-37.243123
31
0
70
34
71
5
72
1
41
1
210
0
220
0
230
1
3
Standard
100
AcDb2LineAngularDimension
13
108.77982
23
7.953274
33
0
14
103.819781
24
-48.740227
34
0
15
112
25
0
35
0
16
136.746863
26
-31.280028
36
0
40
0
0
ENDSEC
0
SECTION
2
OBJECTS
0
DICTIONARY
5
1c2
330
0
100
AcDbDictionary
280
0
281
1
3
ACAD_GROUP
350
1c3
3
ACAD_MLINESTYLE
350
1c4
0
DICTIONARY
5
1c3
330
0
100
AcDbDictionary
280
0
281
1
0
DICTIONARY
5
1c4
330
0
100
AcDbDictionary
280
0
281
1
3
Standard
350
18
0
MLINESTYLE
5
18
330
1c4
100
AcDbMlineStyle
2
Standard
70
0
3

62
256
51
90
52
90
71
2
49
-0.5
62
256
6
ByLayer
49
0.5
62
256
6
ByLayer
0
RASTERVARIABLES
5
1b0
330

100
AcDbRasterVariables
90
0
70
1
71
1
72
1
0
ENDSEC
0
EOF
