0
SECTION
2
HEADER
9
$ACADVER
1
AC1015
9
$DWGCODEPAGE
3
ANSI_1252
9
$HANDSEED
5
1e1
9
$ANGBASE
50
0
9
$ANGDIR
70
0
9
$ATTMODE
70
1
9
$AUNITS
70
0
9
$AUPREC
70
0
9
$CECOLOR
62
256
9
$CELTSCALE
40
1
9
$CELTYPE
6
ByLayer
9
$CELWEIGHT
370
-1
9
$CLAYER
8
0
9
$CMLJUST
70
0
9
$CMLSCALE
40
1
9
$CMLSTYLE
2
Standard
9
$DIMSTYLE
2
Standard
9
$TEXTSIZE
40
0.2
9
$TEXTSTYLE
7
Standard
9
$LUNITS
70
2
9
$LUPREC
70
4
9
$EXTNAMES
290
1
9
$INSUNITS
70
4
9
$LTSCALE
40
1
9
$LWDISPLAY
290
0
9
$PDMODE
70
0
9
$PDSIZE
40
0
9
$PLINEGEN
70
0
0
ENDSEC
0
SECTION
2
CLASSES
0
CLASS
1
RASTERVARIABLES
2
AcDbRasterVariables
3
ISM
90
0
280
0
281
0
0
ENDSEC
0
SECTION
2
TABLES
0
TABLE
2
VPORT
5
1d7
100
AcDbSymbolTable
0
VPORT
5
1
100
AcDbSymbolTableRecord
100
AcDbViewportTableRecord
2
*Active
70
0
10
0
20
0
11
1
21
1
12
-1
22
1
13
0
23
0
14
0.5
24
0.5
15
10
25
10
16
0
26
0
36
1
17
0
27
0
37
0
0
ENDTAB
0
TABLE
2
LTYPE
5
1d8
100
AcDbSymbolTable
0
LTYPE
5
14
100
AcDbSymbolTableRecord
100
AcDbLinetypeTableRecord
70
0
2
ByBlock
3

72
65
73
0
40
0
0
LTYPE
5
15
100
AcDbSymbolTableRecord
100
AcDbLinetypeTableRecord
70
0
2
ByLayer
3

72
65
73
0
40
0
0
LTYPE
5
16
100
AcDbSymbolTableRecord
100
AcDbLinetypeTableRecord
70
0
2
CONTINUOUS
3
Solid line
72
65
73
0
40
0
0
LTYPE
5
3B
100
AcDbSymbolTableRecord
100
AcDbLinetypeTableRecord
70
0
2
DASHED
3
__ __ __ __ __ __ __ __ __
72
65
73
2
40
25.72
49
12.86
74
0
49
-12.86
74
0
0
LTYPE
5
3C
100
AcDbSymbolTableRecord
100
AcDbLinetypeTableRecord
70
0
2
HIDDEN
3
_ _ _ _ _ _ _ _ _ _ _ _ _ _ _
72
65
73
2
40
0.5
49
0.25
74
0
49
-0.25
74
0
0
LTYPE
5
3D
100
AcDbSymbolTableRecord
100
AcDbLinetypeTableRecord
70
0
2
PHANTOM
3
____ _ _ ____ _ _ _____ _ _ ____
72
65
73
6
40
50.5
49
18
74
0
49
-6.5
74
0
49
6.5
74
0
49
-6.5
74
0
49
6.5
74
0
49
-6.5
74
0
0
LTYPE
5
3E
100
AcDbSymbolTableRecord
100
AcDbLinetypeTableRecord
70
0
2
CENTER
3
____ _ ____ _ ____ _ ____
72
65
73
4
40
47.5
49
22
74
0
49
-8.5
74
0
49
8.5
74
0
49
-8.5
74
0
0
LTYPE
5
3F
100
AcDbSymbolTableRecord
100
AcDbLinetypeTableRecord
70
0
2
DOT
3
.........................
72
65
73
2
40
10
49
0
74
0
49
-10
74
0
0
LTYPE
5
40
100
AcDbSymbolTableRecord
100
AcDbLinetypeTableRecord
70
0
2
DASHDOT
3
_._._._._._._._._._._._._._._._.
72
65
73
4
40
70
49
31
74
0
49
-13
74
0
49
13
74
0
49
-13
74
0
0
ENDTAB
0
TABLE
2
LAYER
5
1d9
100
AcDbSymbolTable
0
LAYER
5
10
100
AcDbSymbolTableRecord
100
AcDbLayerTableRecord
2
0
70
0
62
7
6
CONTINUOUS
290
1
370
-3
390
0
0
LAYER
5
42
100
AcDbSymbolTableRecord
100
AcDbLayerTableRecord
2
80
70
0
62
-6
6
CONTINUOUS
290
1
370
-3
390
0
0
LAYER
5
44
100
AcDbSymbolTableRecord
100
AcDbLayerTableRecord
2
81
70
0
62
-3
6
CONTINUOUS
290
1
370
-3
390
0
0
LAYER
5
46
100
AcDbSymbolTableRecord
100
AcDbLayerTableRecord
2
1
70
0
62
4
6
CONTINUOUS
290
1
370
-3
390
0
0
LAYER
5
48
100
AcDbSymbolTableRecord
100
AcDbLayerTableRecord
2
2
70
0
62
7
6
CONTINUOUS
290
1
370
-3
390
0
0
LAYER
5
4E
100
AcDbSymbolTableRecord
100
AcDbLayerTableRecord
2
4
70
0
62
-2
6
CENTER
290
1
370
-3
390
0
0
LAYER
5
1c3
100
AcDbSymbolTableRecord
100
AcDbLayerTableRecord
2
SK4
70
0
62
2
6
CENTER
290
1
370
-3
390
0
0
LAYER
5
1c4
100
AcDbSymbolTableRecord
100
AcDbLayerTableRecord
2
SK1
70
0
62
4
6
CONTINUOUS
290
1
370
-3
390
0
0
LAYER
5
1c5
100
AcDbSymbolTableRecord
100
AcDbLayerTableRecord
2
SK6
70
0
62
5
6
CONTINUOUS
290
1
370
-3
390
0
0
LAYER
5
1c6
100
AcDbSymbolTableRecord
100
AcDbLayerTableRecord
2
SK2
70
0
62
7
6
CONTINUOUS
290
1
370
-3
390
0
0
ENDTAB
0
TABLE
2
STYLE
5
1da
100
AcDbSymbolTable
0
STYLE
5
11
100
AcDbSymbolTableRecord
100
AcDbTextStyleTableRecord
2
Standard
3
txt
70
0
71
0
40
0
41
1
42
0
50
0
0
STYLE
5
125
100
AcDbSymbolTableRecord
100
AcDbTextStyleTableRecord
2
DEFAULT
3
simplex.shx
70
0
71
0
40
0
41
1
42
0
50
0
0
STYLE
5
148
100
AcDbSymbolTableRecord
100
AcDbTextStyleTableRecord
2
DWGDirectTextStyle
3
SIMPLEX
70
0
71
0
40
0
41
1
42
0
50
0
0
ENDTAB
0
TABLE
2
DIMSTYLE
5
1db
100
AcDbSymbolTable
100
AcDbDimStyleTable
0
DIMSTYLE
105
27
100
AcDbSymbolTableRecord
100
AcDbDimStyleTableRecord
2
Standard
70
0
3
<>
41
0.18
42
0.0625
44
0.18
140
0.18
147
0.09
73
0
74
0
77
1
271
2
275
0
278
52
280
0
340
11
0
ENDTAB
0
TABLE
2
VIEW
5
1dc
100
AcDbSymbolTable
0
ENDTAB
0
TABLE
2
UCS
5
1dd
100
AcDbSymbolTable
0
ENDTAB
0
TABLE
2
APPID
5
1de
100
AcDbSymbolTable
0
APPID
5
12
100
AcDbSymbolTableRecord
100
AcDbRegAppTableRecord
2
ACAD
70
0
0
ENDTAB
0
TABLE
2
BLOCK_RECORD
5
1df
100
AcDbSymbolTable
0
BLOCK_RECORD
5
1F
100
AcDbSymbolTableRecord
100
AcDbBlockTableRecord
2
*Model_Space
340
0
70
0
0
BLOCK_RECORD
5
1B
100
AcDbSymbolTableRecord
100
AcDbBlockTableRecord
2
*Paper_Space
340
0
70
0
0
BLOCK_RECORD
5
23
100
AcDbSymbolTableRecord
100
AcDbBlockTableRecord
2
*Paper_Space0
340
0
70
0
0
BLOCK_RECORD
5
14A
100
AcDbSymbolTableRecord
100
AcDbBlockTableRecord
2
DimnDraft3D1
340
0
70
0
0
BLOCK_RECORD
5
159
100
AcDbSymbolTableRecord
100
AcDbBlockTableRecord
2
_CLOSED
340
0
70
0
0
BLOCK_RECORD
5
160
100
AcDbSymbolTableRecord
100
AcDbBlockTableRecord
2
DimnDraft3D2
340
0
70
0
0
BLOCK_RECORD
5
16C
100
AcDbSymbolTableRecord
100
AcDbBlockTableRecord
2
DimnDraft3D3
340
0
70
0
0
BLOCK_RECORD
5
17A
100
AcDbSymbolTableRecord
100
AcDbBlockTableRecord
2
DimnDraft3D4
340
0
70
0
0
BLOCK_RECORD
5
188
100
AcDbSymbolTableRecord
100
AcDbBlockTableRecord
2
DimnDraft3D5
340
0
70
0
0
BLOCK_RECORD
5
196
100
AcDbSymbolTableRecord
100
AcDbBlockTableRecord
2
DimnDraft3D6
340
0
70
0
0
ENDTAB
0
ENDSEC
0
SECTION
2
BLOCKS
0
BLOCK
5
20
100
AcDbEntity
8
0
100
AcDbBlockBegin
2
*Model_Space
70
0
10
0
20
0
30
0
3
*Model_Space
0
ENDBLK
5
21
100
AcDbEntity
8
0
100
AcDbBlockEnd
0
BLOCK
5
1C
100
AcDbEntity
8
0
100
AcDbBlockBegin
2
*Paper_Space
70
0
10
0
20
0
30
0
3
*Paper_Space
0
ENDBLK
5
1D
100
AcDbEntity
8
0
100
AcDbBlockEnd
0
BLOCK
5
24
100
AcDbEntity
8
0
100
AcDbBlockBegin
2
*Paper_Space0
70
0
10
0
20
0
30
0
3
*Paper_Space0
0
ENDBLK
5
25
100
AcDbEntity
8
0
100
AcDbBlockEnd
0
BLOCK
5
156
100
AcDbEntity
8
0
100
AcDbBlockBegin
2
DimnDraft3D1
70
0
10
0
20
0
30
0
3
DimnDraft3D1
0
MTEXT
5
14B
100
AcDbEntity
8
SK2
62
256
6
ByLayer
370
-1
48
1
60
0
100
AcDbMText
10
-43.875
20
-3.659211
30
0
210
0
220
0
230
1
1
\W01.000;\fsimplex.shx,bigfont.shx;%%c50 
40
4.5
41
0
44
1.084337
50
90
71
7
72
5
7
DEFAULT
0
LINE
5
14D
100
AcDbEntity
8
SK2
62
256
6
ByLayer
370
-1
48
1
60
0
100
AcDbLine
10
-2
20
-25
30
0
11
-44.75
21
-25
31
0
39
0
210
0
220
0
230
1
0
LINE
5
14E
100
AcDbEntity
8
SK2
62
256
6
ByLayer
370
-1
48
1
60
0
100
AcDbLine
10
-2
20
25
30
0
11
-44.75
21
25
31
0
39
0
210
0
220
0
230
1
0
LINE
5
14F
100
AcDbEntity
8
SK2
62
256
6
ByLayer
370
-1
48
1
60
0
100
AcDbLine
10
-42.75
20
-25
30
0
11
-42.75
21
25
31
0
39
0
210
0
220
0
230
1
0
LINE
5
150
100
AcDbEntity
8
SK2
62
256
6
ByLayer
370
-1
48
1
60
0
100
AcDbLine
10
-42.75
20
-25
30
0
11
-43.167997
21
-21.825002
31
0
39
0
210
0
220
0
230
1
0
LINE
5
151
100
AcDbEntity
8
SK2
62
256
6
ByLayer
370
-1
48
1
60
0
100
AcDbLine
10
-42.75
20
-25
30
0
11
-42.332003
21
-21.824998
31
0
39
0
210
0
220
0
230
1
0
LINE
5
152
100
AcDbEntity
8
SK2
62
256
6
ByLayer
370
-1
48
1
60
0
100
AcDbLine
10
-43.167997
20
-21.825002
30
0
11
-42.332003
21
-21.824998
31
0
39
0
210
0
220
0
230
1
0
LINE
5
153
100
AcDbEntity
8
SK2
62
256
6
ByLayer
370
-1
48
1
60
0
100
AcDbLine
10
-42.75
20
25
30
0
11
-42.332003
21
21.825002
31
0
39
0
210
0
220
0
230
1
0
LINE
5
154
100
AcDbEntity
8
SK2
62
256
6
ByLayer
370
-1
48
1
60
0
100
AcDbLine
10
-42.75
20
25
30
0
11
-43.167997
21
21.824998
31
0
39
0
210
0
220
0
230
1
0
LINE
5
155
100
AcDbEntity
8
SK2
62
256
6
ByLayer
370
-1
48
1
60
0
100
AcDbLine
10
-42.332003
20
21.825002
30
0
11
-43.167997
21
21.824998
31
0
39
0
210
0
220
0
230
1
0
ENDBLK
5
157
100
AcDbEntity
8
0
100
AcDbBlockEnd
0
BLOCK
5
15A
100
AcDbEntity
8
0
100
AcDbBlockBegin
2
_CLOSED
70
0
10
0
20
0
30
0
3
_CLOSED
0
LINE
5
15C
100
AcDbEntity
8
0
62
256
6
ByLayer
370
-2
48
1
60
0
100
AcDbLine
10
-1
20
0.166667
30
0
11
0
21
0
31
0
39
0
210
0
220
0
230
1
0
LINE
5
15D
100
AcDbEntity
8
0
62
256
6
ByLayer
370
-2
48
1
60
0
100
AcDbLine
10
0
20
0
30
0
11
-1
21
-0.166667
31
0
39
0
210
0
220
0
230
1
0
LINE
5
15E
100
AcDbEntity
8
0
62
256
6
ByLayer
370
-2
48
1
60
0
100
AcDbLine
10
-1
20
0.166667
30
0
11
-1
21
-0.166667
31
0
39
0
210
0
220
0
230
1
0
LINE
5
15F
100
AcDbEntity
8
0
62
256
6
ByLayer
370
-2
48
1
60
0
100
AcDbLine
10
0
20
0
30
0
11
-1
21
0
31
0
39
0
210
0
220
0
230
1
0
ENDBLK
5
15B
100
AcDbEntity
8
0
100
AcDbBlockEnd
0
BLOCK
5
169
100
AcDbEntity
8
0
100
AcDbBlockBegin
2
DimnDraft3D2
70
0
10
0
20
0
30
0
3
DimnDraft3D2
0
MTEXT
5
161
100
AcDbEntity
8
2
62
256
6
ByLayer
370
-1
48
1
60
0
100
AcDbMText
10
36.925
20
-6.193421
30
0
210
0
220
0
230
1
1
\W01.000;\fsimplex.shx,bigfont.shx;%%c25.0 
40
4.5
41
0
44
1.084337
50
90
71
7
72
5
7
DEFAULT
0
LINE
5
162
100
AcDbEntity
8
2
62
256
6
ByLayer
370
-1
48
1
60
0
100
AcDbLine
10
38.05
20
-12.5
30
0
11
38.05
21
12.5
31
0
39
0
210
0
220
0
230
1
0
LINE
5
163
100
AcDbEntity
8
2
62
256
6
ByLayer
370
-1
48
1
60
0
100
AcDbLine
10
38.05
20
-12.5
30
0
11
37.632003
21
-9.325002
31
0
39
0
210
0
220
0
230
1
0
LINE
5
164
100
AcDbEntity
8
2
62
256
6
ByLayer
370
-1
48
1
60
0
100
AcDbLine
10
38.05
20
-12.5
30
0
11
38.467997
21
-9.324998
31
0
39
0
210
0
220
0
230
1
0
LINE
5
165
100
AcDbEntity
8
2
62
256
6
ByLayer
370
-1
48
1
60
0
100
AcDbLine
10
37.632003
20
-9.325002
30
0
11
38.467997
21
-9.324998
31
0
39
0
210
0
220
0
230
1
0
LINE
5
166
100
AcDbEntity
8
2
62
256
6
ByLayer
370
-1
48
1
60
0
100
AcDbLine
10
38.05
20
12.5
30
0
11
38.467997
21
9.325002
31
0
39
0
210
0
220
0
230
1
0
LINE
5
167
100
AcDbEntity
8
2
62
256
6
ByLayer
370
-1
48
1
60
0
100
AcDbLine
10
38.05
20
12.5
30
0
11
37.632003
21
9.324998
31
0
39
0
210
0
220
0
230
1
0
LINE
5
168
100
AcDbEntity
8
2
62
256
6
ByLayer
370
-1
48
1
60
0
100
AcDbLine
10
38.467997
20
9.325002
30
0
11
37.632003
21
9.324998
31
0
39
0
210
0
220
0
230
1
0
ENDBLK
5
16A
100
AcDbEntity
8
0
100
AcDbBlockEnd
0
BLOCK
5
177
100
AcDbEntity
8
0
100
AcDbBlockBegin
2
DimnDraft3D3
70
0
10
0
20
0
30
0
3
DimnDraft3D3
0
MTEXT
5
16D
100
AcDbEntity
8
2
62
256
6
ByLayer
370
-1
48
1
60
0
100
AcDbMText
10
101.125
20
4.974342
30
0
210
0
220
0
230
1
1
\W01.000;\fsimplex.shx,bigfont.shx;17.0 
40
4.5
41
0
44
1.084337
50
90
71
7
72
5
7
DEFAULT
0
LINE
5
16E
100
AcDbEntity
8
2
62
256
6
ByLayer
370
-1
48
1
60
0
100
AcDbLine
10
92
20
16.9
30
0
11
104.25
21
16.9
31
0
39
0
210
0
220
0
230
1
0
LINE
5
16F
100
AcDbEntity
8
2
62
256
6
ByLayer
370
-1
48
1
60
0
100
AcDbLine
10
92
20
0
30
0
11
104.25
21
0
31
0
39
0
210
0
220
0
230
1
0
LINE
5
170
100
AcDbEntity
8
2
62
256
6
ByLayer
370
-1
48
1
60
0
100
AcDbLine
10
102.25
20
28.15
30
0
11
102.25
21
-11.25
31
0
39
0
210
0
220
0
230
1
0
LINE
5
171
100
AcDbEntity
8
2
62
256
6
ByLayer
370
-1
48
1
60
0
100
AcDbLine
10
102.25
20
16.9
30
0
11
101.832003
21
20.074998
31
0
39
0
210
0
220
0
230
1
0
LINE
5
172
100
AcDbEntity
8
2
62
256
6
ByLayer
370
-1
48
1
60
0
100
AcDbLine
10
102.25
20
16.9
30
0
11
102.667997
21
20.075002
31
0
39
0
210
0
220
0
230
1
0
LINE
5
173
100
AcDbEntity
8
2
62
256
6
ByLayer
370
-1
48
1
60
0
100
AcDbLine
10
101.832003
20
20.074998
30
0
11
102.667997
21
20.075002
31
0
39
0
210
0
220
0
230
1
0
LINE
5
174
100
AcDbEntity
8
2
62
256
6
ByLayer
370
-1
48
1
60
0
100
AcDbLine
10
102.25
20
0
30
0
11
102.667997
21
-3.174998
31
0
39
0
210
0
220
0
230
1
0
LINE
5
175
100
AcDbEntity
8
2
62
256
6
ByLayer
370
-1
48
1
60
0
100
AcDbLine
10
102.25
20
0
30
0
11
101.832003
21
-3.175002
31
0
39
0
210
0
220
0
230
1
0
LINE
5
176
100
AcDbEntity
8
2
62
256
6
ByLayer
370
-1
48
1
60
0
100
AcDbLine
10
102.667997
20
-3.174998
30
0
11
101.832003
21
-3.175002
31
0
39
0
210
0
220
0
230
1
0
ENDBLK
5
178
100
AcDbEntity
8
0
100
AcDbBlockEnd
0
BLOCK
5
185
100
AcDbEntity
8
0
100
AcDbBlockBegin
2
DimnDraft3D4
70
0
10
0
20
0
30
0
3
DimnDraft3D4
0
MTEXT
5
17B
100
AcDbEntity
8
2
62
256
6
ByLayer
370
-1
48
1
60
0
100
AcDbMText
10
40.961842
20
45.775
30
0
210
0
220
0
230
1
1
\W01.000;\fsimplex.shx,bigfont.shx;90.0 
40
4.5
41
0
44
1.084337
50
0
71
7
72
5
7
DEFAULT
0
LINE
5
17C
100
AcDbEntity
8
2
62
256
6
ByLayer
370
-1
48
1
60
0
100
AcDbLine
10
0
20
27
30
0
11
0
21
46.65
31
0
39
0
210
0
220
0
230
1
0
LINE
5
17D
100
AcDbEntity
8
2
62
256
6
ByLayer
370
-1
48
1
60
0
100
AcDbLine
10
90
20
18.9
30
0
11
90
21
46.65
31
0
39
0
210
0
220
0
230
1
0
LINE
5
17E
100
AcDbEntity
8
2
62
256
6
ByLayer
370
-1
48
1
60
0
100
AcDbLine
10
0
20
44.65
30
0
11
90
21
44.65
31
0
39
0
210
0
220
0
230
1
0
LINE
5
17F
100
AcDbEntity
8
2
62
256
6
ByLayer
370
-1
48
1
60
0
100
AcDbLine
10
0
20
44.65
30
0
11
3.174998
21
45.067997
31
0
39
0
210
0
220
0
230
1
0
LINE
5
180
100
AcDbEntity
8
2
62
256
6
ByLayer
370
-1
48
1
60
0
100
AcDbLine
10
0
20
44.65
30
0
11
3.175002
21
44.232003
31
0
39
0
210
0
220
0
230
1
0
LINE
5
181
100
AcDbEntity
8
2
62
256
6
ByLayer
370
-1
48
1
60
0
100
AcDbLine
10
3.174998
20
45.067997
30
0
11
3.175002
21
44.232003
31
0
39
0
210
0
220
0
230
1
0
LINE
5
182
100
AcDbEntity
8
2
62
256
6
ByLayer
370
-1
48
1
60
0
100
AcDbLine
10
90
20
44.65
30
0
11
86.825002
21
44.232003
31
0
39
0
210
0
220
0
230
1
0
LINE
5
183
100
AcDbEntity
8
2
62
256
6
ByLayer
370
-1
48
1
60
0
100
AcDbLine
10
90
20
44.65
30
0
11
86.824998
21
45.067997
31
0
39
0
210
0
220
0
230
1
0
LINE
5
184
100
AcDbEntity
8
2
62
256
6
ByLayer
370
-1
48
1
60
0
100
AcDbLine
10
86.825002
20
44.232003
30
0
11
86.824998
21
45.067997
31
0
39
0
210
0
220
0
230
1
0
ENDBLK
5
186
100
AcDbEntity
8
0
100
AcDbBlockEnd
0
BLOCK
5
193
100
AcDbEntity
8
0
100
AcDbBlockBegin
2
DimnDraft3D5
70
0
10
0
20
0
30
0
3
DimnDraft3D5
0
MTEXT
5
189
100
AcDbEntity
8
2
62
256
6
ByLayer
370
-1
48
1
60
0
100
AcDbMText
10
52.361842
20
30.775
30
0
210
0
220
0
230
1
1
\W01.000;\fsimplex.shx,bigfont.shx;67.2 
40
4.5
41
0
44
1.084337
50
0
71
7
72
5
7
DEFAULT
0
LINE
5
18A
100
AcDbEntity
8
2
62
256
6
ByLayer
370
-1
48
1
60
0
100
AcDbLine
10
22.8
20
14.5
30
0
11
22.8
21
31.65
31
0
39
0
210
0
220
0
230
1
0
LINE
5
18B
100
AcDbEntity
8
2
62
256
6
ByLayer
370
-1
48
1
60
0
100
AcDbLine
10
90
20
18.9
30
0
11
90
21
31.65
31
0
39
0
210
0
220
0
230
1
0
LINE
5
18C
100
AcDbEntity
8
2
62
256
6
ByLayer
370
-1
48
1
60
0
100
AcDbLine
10
22.8
20
29.65
30
0
11
90
21
29.65
31
0
39
0
210
0
220
0
230
1
0
LINE
5
18D
100
AcDbEntity
8
2
62
256
6
ByLayer
370
-1
48
1
60
0
100
AcDbLine
10
22.8
20
29.65
30
0
11
25.974998
21
30.067997
31
0
39
0
210
0
220
0
230
1
0
LINE
5
18E
100
AcDbEntity
8
2
62
256
6
ByLayer
370
-1
48
1
60
0
100
AcDbLine
10
22.8
20
29.65
30
0
11
25.975002
21
29.232003
31
0
39
0
210
0
220
0
230
1
0
LINE
5
18F
100
AcDbEntity
8
2
62
256
6
ByLayer
370
-1
48
1
60
0
100
AcDbLine
10
25.974998
20
30.067997
30
0
11
25.975002
21
29.232003
31
0
39
0
210
0
220
0
230
1
0
LINE
5
190
100
AcDbEntity
8
2
62
256
6
ByLayer
370
-1
48
1
60
0
100
AcDbLine
10
90
20
29.65
30
0
11
86.825002
21
29.232003
31
0
39
0
210
0
220
0
230
1
0
LINE
5
191
100
AcDbEntity
8
2
62
256
6
ByLayer
370
-1
48
1
60
0
100
AcDbLine
10
90
20
29.65
30
0
11
86.824998
21
30.067997
31
0
39
0
210
0
220
0
230
1
0
LINE
5
192
100
AcDbEntity
8
2
62
256
6
ByLayer
370
-1
48
1
60
0
100
AcDbLine
10
86.825002
20
29.232003
30
0
11
86.824998
21
30.067997
31
0
39
0
210
0
220
0
230
1
0
ENDBLK
5
194
100
AcDbEntity
8
0
100
AcDbBlockEnd
0
BLOCK
5
1A1
100
AcDbEntity
8
0
100
AcDbBlockBegin
2
DimnDraft3D6
70
0
10
0
20
0
30
0
3
DimnDraft3D6
0
MTEXT
5
197
100
AcDbEntity
8
2
62
256
6
ByLayer
370
-1
48
1
60
0
100
AcDbMText
10
115.596628
20
-37.312521
30
0
210
0
220
0
230
1
1
\W01.000;\fsimplex.shx,bigfont.shx;95%%d0' 
40
4.5
41
0
44
1.084337
50
42.5
71
7
72
5
7
DEFAULT
0
LINE
5
198
100
AcDbEntity
8
2
62
256
6
ByLayer
370
-1
48
1
60
0
100
AcDbLine
10
88.77982
20
2.953274
30
0
11
84.257224
21
-48.740227
31
0
39
0
210
0
220
0
230
1
0
LINE
5
199
100
AcDbEntity
8
2
62
256
6
ByLayer
370
-1
48
1
60
0
100
AcDbLine
10
92
20
0
30
0
11
137.447848
21
0
31
0
39
0
210
0
220
0
230
1
0
ARC
5
19A
100
AcDbEntity
8
2
62
256
6
ByLayer
370
-1
48
1
60
0
100
AcDbCircle
39
0
10
88.521442
20
0
30
0
40
46.9264068782929
210
0
220
0
230
1
100
AcDbArc
50
265
51
0
0
LINE
5
19B
100
AcDbEntity
8
2
62
256
6
ByLayer
370
-1
48
1
60
0
100
AcDbLine
10
84.431536
20
-46.747838
30
0
11
87.628064
21
-46.554078
31
0
39
0
210
0
220
0
230
1
0
LINE
5
19C
100
AcDbEntity
8
2
62
256
6
ByLayer
370
-1
48
1
60
0
100
AcDbLine
10
84.431536
20
-46.747838
30
0
11
87.569297
21
-47.388003
31
0
39
0
210
0
220
0
230
1
0
LINE
5
19D
100
AcDbEntity
8
2
62
256
6
ByLayer
370
-1
48
1
60
0
100
AcDbLine
10
87.628064
20
-46.554078
30
0
11
87.569297
21
-47.388003
31
0
39
0
210
0
220
0
230
1
0
LINE
5
19E
100
AcDbEntity
8
2
62
256
6
ByLayer
370
-1
48
1
60
0
100
AcDbLine
10
135.447848
20
0
30
0
11
135.812104
21
-3.181612
31
0
39
0
210
0
220
0
230
1
0
LINE
5
19F
100
AcDbEntity
8
2
62
256
6
ByLayer
370
-1
48
1
60
0
100
AcDbLine
10
135.447848
20
0
30
0
11
134.97623
21
-3.16748
31
0
39
0
210
0
220
0
230
1
0
LINE
5
1A0
100
AcDbEntity
8
2
62
256
6
ByLayer
370
-1
48
1
60
0
100
AcDbLine
10
135.812104
20
-3.181612
30
0
11
134.97623
21
-3.16748
31
0
39
0
210
0
220
0
230
1
0
ENDBLK
5
1A2
100
AcDbEntity
8
0
100
AcDbBlockEnd
0
ENDSEC
0
SECTION
2
ENTITIES
0
ARC
5
A0
100
AcDbEntity
8
1
62
256
6
ByLayer
370
-1
48
1
60
0
100
AcDbCircle
39
0
10
-27.421567
20
-18.5
30
0
40
6
210
0
220
0
230
-1
100
AcDbArc
50
14.788678
51
90
0
ARC
5
A1
100
AcDbEntity
8
1
62
256
6
ByLayer
370
-1
48
1
60
0
100
AcDbCircle
39
0
10
-27.421567
20
18.5
30
0
40
6
210
0
220
0
230
-1
100
AcDbArc
50
270
51
345.211322
0
ARC
5
A2
100
AcDbEntity
8
SK1
62
256
6
ByLayer
370
-1
48
1
60
0
100
AcDbCircle
39
0
10
0.6
20
18.75
30
0
40
1
210
0
220
0
230
-1
100
AcDbArc
50
233.130102
51
246.421822
0
ARC
5
A3
100
AcDbEntity
8
SK1
62
256
6
ByLayer
370
-1
48
1
60
0
100
AcDbCircle
39
0
10
0.6
20
-18.75
30
0
40
1
210
0
220
0
230
-1
100
AcDbArc
50
113.578178
51
126.869898
0
ELLIPSE
5
A4
100
AcDbEntity
8
1
62
256
6
ByLayer
370
-1
48
1
60
0
100
AcDbEllipse
10
72.236298
20
0.993386
30
0
11
-3.18782303389359
21
0.278898376792502
31
0
210
0
220
0
230
1
40
0.996768
41
2.68122617945279
42
-2.47836753783195
0
ELLIPSE
5
A5
100
AcDbEntity
8
1
62
256
6
ByLayer
370
-1
48
1
60
0
100
AcDbEllipse
10
53.752409
20
12.956961
30
0
11
2.48039755583393
21
0.216763622567679
31
0
210
0
220
0
230
-1
40
0.050846
41
1.57975643339553
42
1.83982626642479
0
ELLIPSE
5
A6
100
AcDbEntity
8
1
62
256
6
ByLayer
370
-1
48
1
60
0
100
AcDbEllipse
10
77.051417
20
4.496026
30
0
11
-1.49429204713762
21
0.130733614121485
31
0
210
0
220
0
230
1
40
0.996768
41
-0.00436332312998517
42
0.00307150572505918
0
ELLIPSE
5
A7
100
AcDbEntity
8
1
62
256
6
ByLayer
370
-1
48
1
60
0
100
AcDbEllipse
10
76.7667
20
3.313615
30
0
11
-1.74334072166055
21
0.1525225498084
31
0
210
0
220
0
230
1
40
0.996768
41
-1.20307023991306
42
-0.113035828717195
0
ELLIPSE
5
A8
100
AcDbEntity
8
1
62
256
6
ByLayer
370
-1
48
1
60
0
100
AcDbEllipse
10
69.218818
20
0
30
0
11
18.009864158891
21
-12.5794465156996
31
0
210
0
220
0
230
-1
40
0.039944
41
-2.73619001237377
42
-2.53190473486595
0
ELLIPSE
5
A9
100
AcDbEntity
8
1
62
256
6
ByLayer
370
-1
48
1
60
0
100
AcDbEllipse
10
72.247501
20
1.12144
30
0
11
1.59391151694679
21
-0.139449188396253
31
0
210
0
220
0
230
1
40
0.996768
41
-0.460366474136997
42
7.63476404030335E-06
0
ELLIPSE
5
AA
100
AcDbEntity
8
1
62
256
6
ByLayer
370
-1
48
1
60
0
100
AcDbEllipse
10
77.084921
20
4.876923
30
0
11
1.6656718005339
21
-0.145727399701529
31
0
210
0
220
0
230
1
40
0.996768
41
2.07649903002328
42
3.13722933045982
0
ELLIPSE
5
AB
100
AcDbEntity
8
1
62
256
6
ByLayer
370
-1
48
1
60
0
100
AcDbEllipse
10
60.542673
20
18.544361
30
0
11
8.56727440358901
21
-0.749539387629854
31
0
210
0
220
0
230
1
40
0.996768
41
-2.0941135440805
42
-1.48324830588248
0
ELLIPSE
5
AC
100
AcDbEntity
8
1
62
256
6
ByLayer
370
-1
48
1
60
0
100
AcDbEllipse
10
68.473448
20
10.100003
30
0
11
-2.93905524917371E-16
21
-1.6
31
0
210
0
220
0
230
1
40
0.007025
41
-1.49067667138602
42
-0.809564454754711
0
ELLIPSE
5
AD
100
AcDbEntity
8
1
62
256
6
ByLayer
370
-1
48
1
60
0
100
AcDbEllipse
10
-1.056258
20
0
30
0
11
11.709272349728
21
-24.6771864409383
31
0
210
0
220
0
230
-1
40
0.341999
41
-1.08183270048925
42
-0.167213071908975
0
ELLIPSE
5
AE
100
AcDbEntity
8
1
62
256
6
ByLayer
370
-1
48
1
60
0
100
AcDbEllipse
10
77.081176
20
4.836171
30
0
11
1.6656718005339
21
-0.145727399701529
31
0
210
0
220
0
230
1
40
0.996768
41
3.13722933045982
42
-3.0118786105896
0
ELLIPSE
5
AF
100
AcDbEntity
8
1
62
256
6
ByLayer
370
-1
48
1
60
0
100
AcDbEllipse
10
96.212631
20
0
30
0
11
35.7164903603951
21
-3.07258901465245
31
0
210
0
220
0
230
-1
40
0.342128
41
2.39088259809777
42
-2.5862427376459
0
ELLIPSE
5
B0
100
AcDbEntity
8
1
62
256
6
ByLayer
370
-1
48
1
60
0
100
AcDbEllipse
10
68.464043
20
6.782213
30
0
11
-3.18782303389359
21
0.278898376792502
31
0
210
0
220
0
230
1
40
0.996768
41
-2.47836753783195
42
-1.48324830588249
0
ELLIPSE
5
B1
100
AcDbEntity
8
1
62
256
6
ByLayer
370
-1
48
1
60
0
100
AcDbEllipse
10
69.218818
20
0
30
0
11
17.8669287112746
21
-12.4796096257662
31
0
210
0
220
0
230
-1
40
0.039944
41
-2.94603734376026
42
-2.77260734915531
0
ELLIPSE
5
B2
100
AcDbEntity
8
1
62
256
6
ByLayer
370
-1
48
1
60
0
100
AcDbEllipse
10
55.625201
20
11.650306
30
0
11
0.915516594202248
21
1.31218495866258
31
0
210
0
220
0
230
1
40
0.04015
41
-2.47768169575995
42
-1.6404964187303
0
ELLIPSE
5
B3
100
AcDbEntity
8
1
62
256
6
ByLayer
370
-1
48
1
60
0
100
AcDbEllipse
10
77.070322
20
4.712118
30
0
11
-1.49429204713762
21
0.130733614121485
31
0
210
0
220
0
230
1
40
0.996768
41
-0.00436332312998517
42
0.00307150572505205
0
ELLIPSE
5
B4
100
AcDbEntity
8
1
62
256
6
ByLayer
370
-1
48
1
60
0
100
AcDbEllipse
10
73.543238
20
0
30
0
11
7.67037204162049
21
12.5978276601536
31
0
210
0
220
0
230
-1
40
0.030506
41
-2.16383356382822
42
-2.09373815837069
0
ELLIPSE
5
B5
100
AcDbEntity
8
1
62
256
6
ByLayer
370
-1
48
1
60
0
100
AcDbEllipse
10
77.055162
20
4.536779
30
0
11
-1.49429204713762
21
0.130733614121485
31
0
210
0
220
0
230
1
40
0.996768
41
-1.00038384691699
42
-0.00436332312998636
0
ELLIPSE
5
B6
100
AcDbEntity
8
1
62
256
6
ByLayer
370
-1
48
1
60
0
100
AcDbEllipse
10
77.074068
20
4.75287
30
0
11
-1.49429204713762
21
0.130733614121485
31
0
210
0
220
0
230
1
40
0.996768
41
-1.00038384691698
42
-0.00436332312998636
0
ELLIPSE
5
B7
100
AcDbEntity
8
1
62
256
6
ByLayer
370
-1
48
1
60
0
100
AcDbEllipse
10
74.930692
20
2.857941
30
0
11
-1.34050192350224
21
-0.873529961184392
31
0
210
0
220
0
230
1
40
0.063309
41
0.522531736990451
42
1.52121454652684
0
ELLIPSE
5
B8
100
AcDbEntity
8
1
62
256
6
ByLayer
370
-1
48
1
60
0
100
AcDbEllipse
10
21.056258
20
0
30
0
11
11.7092723497262
21
-24.6771864409363
31
0
210
0
220
0
230
-1
40
0.341999
41
2.05975995310048
42
2.97437958168081
0
ELLIPSE
5
B9
100
AcDbEntity
8
1
62
256
6
ByLayer
370
-1
48
1
60
0
100
AcDbEllipse
10
72.288271
20
1.587446
30
0
11
1.32845412366492
21
-0.913338150894162
31
0
210
0
220
0
230
-1
40
0.968601
41
-1.16469687601342
42
-0.0411052861169628
0
ELLIPSE
5
BA
100
AcDbEntity
8
1
62
256
6
ByLayer
370
-1
48
1
60
0
100
AcDbEllipse
10
76.80101
20
3.705781
30
0
11
1.74334072166055
21
-0.1525225498084
31
0
210
0
220
0
230
1
40
0.996768
41
2.57592909000895
42
-0.155234520685173
0
ELLIPSE
5
BB
100
AcDbEntity
8
1
62
256
6
ByLayer
370
-1
48
1
60
0
100
AcDbEllipse
10
71.158437
20
8.646769
30
0
11
-1.34050192350224
21
-0.873529961184392
31
0
210
0
220
0
230
1
40
0.063309
41
0.606618079999091
42
1.52121454652684
0
ELLIPSE
5
BC
100
AcDbEntity
8
1
62
256
6
ByLayer
370
-1
48
1
60
0
100
AcDbEllipse
10
68.519629
20
7.417565
30
0
11
1.32845412368933
21
-0.913338150866071
31
0
210
0
220
0
230
-1
40
0.968601
41
-2.15981610793891
42
-1.16469687598974
0
ELLIPSE
5
BD
100
AcDbEntity
8
1
62
256
6
ByLayer
370
-1
48
1
60
0
100
AcDbEllipse
10
74.979931
20
-0.540118
30
0
11
-1.36493924394226
21
0.83482983915665
31
0
210
0
220
0
230
1
40
0.071975
41
0.0357934862779193
42
1.60658981307292
0
ELLIPSE
5
BE
100
AcDbEntity
8
1
62
256
6
ByLayer
370
-1
48
1
60
0
100
AcDbEllipse
10
76.771251
20
3.365637
30
0
11
1.74334072166055
21
-0.1525225498084
31
0
210
0
220
0
230
1
40
0.996768
41
1.93854597549062
42
2.42485141957022
0
ELLIPSE
5
BF
100
AcDbEntity
8
1
62
256
6
ByLayer
370
-1
48
1
60
0
100
AcDbEllipse
10
-1.056258
20
0
30
0
11
11.7092723497275
21
24.6771864409378
31
0
210
0
220
0
230
-1
40
0.341999
41
0.167213071908977
42
1.08183270048927
0
ELLIPSE
5
C0
100
AcDbEntity
8
1
62
256
6
ByLayer
370
-1
48
1
60
0
100
AcDbEllipse
10
21.056258
20
0
30
0
11
11.7092723497262
21
24.6771864409362
31
0
210
0
220
0
230
-1
40
0.341999
41
-2.97437958168081
42
-2.05975995310048
0
ELLIPSE
5
C1
100
AcDbEntity
8
1
62
256
6
ByLayer
370
-1
48
1
60
0
100
AcDbEllipse
10
60.558711
20
10.100003
30
0
11
-2.93905524917371E-16
21
-1.6
31
0
210
0
220
0
230
1
40
0.007025
41
-1.49067667138602
42
-0.841913370589224
0
ELLIPSE
5
C2
100
AcDbEntity
8
1
62
256
6
ByLayer
370
-1
48
1
60
0
100
AcDbEllipse
10
83.088255
20
9.930385
30
0
11
-3.92153120152561
21
0.343089523796681
31
0
210
0
220
0
230
1
40
0.996768
41
0
42
6.28318530717959
0
ELLIPSE
5
C3
100
AcDbEntity
8
1
62
256
6
ByLayer
370
-1
48
1
60
0
100
AcDbEllipse
10
83.089467
20
9.944238
30
0
11
3.99172294436721
21
-0.349230505568451
31
0
210
0
220
0
230
1
40
0.996768
41
-1.05022618752105
42
-4.44754100741083E-16
0
ELLIPSE
5
C4
100
AcDbEntity
8
1
62
256
6
ByLayer
370
-1
48
1
60
0
100
AcDbEllipse
10
83.089467
20
9.944238
30
0
11
3.99172294436721
21
-0.349230505568451
31
0
210
0
220
0
230
1
40
0.996768
41
0
42
0.0875479466518456
0
ELLIPSE
5
C5
100
AcDbEntity
8
1
62
256
6
ByLayer
370
-1
48
1
60
0
100
AcDbEllipse
10
83.089467
20
9.944238
30
0
11
3.99172294436721
21
-0.349230505568451
31
0
210
0
220
0
230
1
40
0.996768
41
0.0875481266229581
42
-2.09136962323959
0
ELLIPSE
5
C6
100
AcDbEntity
8
1
62
256
6
ByLayer
370
-1
48
1
60
0
100
AcDbEllipse
10
76.985827
20
3.927267
30
0
11
0.790978590284844
21
-0.0692016597416398
31
0
210
0
220
0
230
1
40
0.996768
41
3.14159265358979
42
-1.39626340159545
0
ELLIPSE
5
C7
100
AcDbEntity
8
1
62
256
6
ByLayer
370
-1
48
1
60
0
100
AcDbEllipse
10
83.080194
20
9.838253
30
0
11
-1.20190890324769
21
0.105153403625048
31
0
210
0
220
0
230
1
40
0.996768
41
-0.629099067385853
42
0.131361314654655
0
ELLIPSE
5
C8
100
AcDbEntity
8
1
62
256
6
ByLayer
370
-1
48
1
60
0
100
AcDbEllipse
10
83.092648
20
9.980605
30
0
11
1.20190890324769
21
-0.105153403625049
31
0
210
0
220
0
230
1
40
0.996768
41
2.37442831938018
42
2.51249358620392
0
ELLIPSE
5
C9
100
AcDbEntity
8
1
62
256
6
ByLayer
370
-1
48
1
60
0
100
AcDbEllipse
10
83.094548
20
10.002323
30
0
11
1.67012041135081
21
-0.146116602716448
31
0
210
0
220
0
230
1
40
0.996768
41
2.9698502760717
42
-2.26892802759261
0
ELLIPSE
5
CA
100
AcDbEntity
8
1
62
256
6
ByLayer
370
-1
48
1
60
0
100
AcDbEllipse
10
83.094548
20
10.002323
30
0
11
1.67012041135081
21
-0.146116602716448
31
0
210
0
220
0
230
1
40
0.996768
41
-2.26892802759261
42
-1.22452102407732
0
ELLIPSE
5
CB
100
AcDbEntity
8
1
62
256
6
ByLayer
370
-1
48
1
60
0
100
AcDbEllipse
10
83.080194
20
9.838253
30
0
11
-1.20190890324769
21
0.105153403625048
31
0
210
0
220
0
230
1
40
0.996768
41
0.44024759949251
42
1.1034625710218
0
ELLIPSE
5
CC
100
AcDbEntity
8
1
62
256
6
ByLayer
370
-1
48
1
60
0
100
AcDbEllipse
10
83.092648
20
9.980605
30
0
11
1.20190890324769
21
-0.105153403625049
31
0
210
0
220
0
230
1
40
0.996768
41
-0.767164334209477
42
-0.629099067385957
0
ELLIPSE
5
CD
100
AcDbEntity
8
1
62
256
6
ByLayer
370
-1
48
1
60
0
100
AcDbEllipse
10
83.080194
20
9.838253
30
0
11
1.20190890324769
21
-0.105153403625049
31
0
210
0
220
0
230
1
40
0.996768
41
0.350461124239525
42
1.39486812775479
0
ELLIPSE
5
CE
100
AcDbEntity
8
1
62
256
6
ByLayer
370
-1
48
1
60
0
100
AcDbEllipse
10
83.080194
20
9.838253
30
0
11
-1.20190890324769
21
0.105153403625048
31
0
210
0
220
0
230
1
40
0.996768
41
-1.74672452583499
42
-0.767164334209629
0
ELLIPSE
5
CF
100
AcDbEntity
8
1
62
256
6
ByLayer
370
-1
48
1
60
0
100
AcDbEllipse
10
83.094548
20
10.002323
30
0
11
1.67012041135081
21
-0.146116602716448
31
0
210
0
220
0
230
1
40
0.996768
41
-1.22452102407732
42
-0.171742377518096
0
ELLIPSE
5
D0
100
AcDbEntity
8
1
62
256
6
ByLayer
370
-1
48
1
60
0
100
AcDbEllipse
10
83.572034
20
11.659582
30
0
11
-0.683389562890938
21
0.0597888395248927
31
0
210
0
220
0
230
1
40
0.996768
41
1.39486812775476
42
2.17885877137558
0
ELLIPSE
5
D1
100
AcDbEntity
8
1
62
256
6
ByLayer
370
-1
48
1
60
0
100
AcDbEllipse
10
83.094548
20
10.002323
30
0
11
1.67012041135081
21
-0.146116602716448
31
0
210
0
220
0
230
1
40
0.996768
41
1.9170716295124
42
2.9698502760717
0
ELLIPSE
5
D2
100
AcDbEntity
8
1
62
256
6
ByLayer
370
-1
48
1
60
0
100
AcDbEllipse
10
83.080194
20
9.838253
30
0
11
1.20190890324769
21
-0.105153403625049
31
0
210
0
220
0
230
1
40
0.996768
41
2.37442831938016
42
2.51249358620394
0
ELLIPSE
5
D3
100
AcDbEntity
8
1
62
256
6
ByLayer
370
-1
48
1
60
0
100
AcDbEllipse
10
83.094548
20
10.002323
30
0
11
1.67012041135081
21
-0.146116602716448
31
0
210
0
220
0
230
1
40
0.996768
41
0.872664625997152
42
1.9170716295124
0
ELLIPSE
5
D4
100
AcDbEntity
8
1
62
256
6
ByLayer
370
-1
48
1
60
0
100
AcDbEllipse
10
81.747268
20
11.166937
30
0
11
-0.683389562890938
21
0.0597888395248927
31
0
210
0
220
0
230
1
40
0.996768
41
2.56507499400895
42
3.14158915015561
0
ELLIPSE
5
D5
100
AcDbEntity
8
1
62
256
6
ByLayer
370
-1
48
1
60
0
100
AcDbEllipse
10
83.080194
20
9.838253
30
0
11
-1.20190890324769
21
0.105153403625048
31
0
210
0
220
0
230
1
40
0.996768
41
1.65035005696018
42
2.28005430795398
0
ELLIPSE
5
D6
100
AcDbEntity
8
1
62
256
6
ByLayer
370
-1
48
1
60
0
100
AcDbEllipse
10
83.094548
20
10.002323
30
0
11
1.67012041135081
21
-0.146116602716448
31
0
210
0
220
0
230
1
40
0.996768
41
-0.171742377518096
42
0.872664625997152
0
ELLIPSE
5
D7
100
AcDbEntity
8
1
62
256
6
ByLayer
370
-1
48
1
60
0
100
AcDbEllipse
10
83.080194
20
9.838253
30
0
11
-1.20190890324769
21
0.105153403625048
31
0
210
0
220
0
230
1
40
0.996768
41
2.70904878535814
42
-2.79113152935027
0
ELLIPSE
5
D8
100
AcDbEntity
8
1
62
256
6
ByLayer
370
-1
48
1
60
0
100
AcDbEllipse
10
84.90734
20
10.328526
30
0
11
-0.683389562890938
21
0.0597888395248927
31
0
210
0
220
0
230
1
40
0.996768
41
0.350461124239536
42
1.13445176786035
0
ELLIPSE
5
D9
100
AcDbEntity
8
1
62
256
6
ByLayer
370
-1
48
1
60
0
100
AcDbEllipse
10
81.253048
20
9.34798
30
0
11
-0.683389562890938
21
0.0597888395248927
31
0
210
0
220
0
230
1
40
0.996768
41
2.7080631342085
42
3.14158534011346
0
ELLIPSE
5
DA
100
AcDbEntity
8
1
62
256
6
ByLayer
370
-1
48
1
60
0
100
AcDbEllipse
10
81.741808
20
10.192093
30
0
11
-0.29088885184279
21
0.0254494768823158
31
0
210
0
220
0
230
1
40
0.996768
41
-1.4893930357189
42
-0.296608901818008
0
ELLIPSE
5
DB
100
AcDbEntity
8
1
62
256
6
ByLayer
370
-1
48
1
60
0
100
AcDbEllipse
10
81.747268
20
11.166937
30
0
11
-0.683389562890938
21
0.0597888395248927
31
0
210
0
220
0
230
1
40
0.996768
41
1.65219961787081
42
2.32184691157517
0
ELLIPSE
5
DC
100
AcDbEntity
8
1
62
256
6
ByLayer
370
-1
48
1
60
0
100
AcDbEllipse
10
82.725225
20
11.172378
30
0
11
-0.29088885184279
21
0.0254494768823158
31
0
210
0
220
0
230
1
40
0.996768
41
-2.53071516945585
42
-0.371986559605786
0
ELLIPSE
5
DD
100
AcDbEntity
8
1
62
256
6
ByLayer
370
-1
48
1
60
0
100
AcDbEllipse
10
83.572034
20
11.659582
30
0
11
-0.683389562890938
21
0.0597888395248927
31
0
210
0
220
0
230
1
40
0.996768
41
0.610877484133959
42
1.39486812775476
0
ELLIPSE
5
DE
100
AcDbEntity
8
1
62
256
6
ByLayer
370
-1
48
1
60
0
100
AcDbEllipse
10
84.058885
20
10.813827
30
0
11
-0.29088885184279
21
0.0254494768823158
31
0
210
0
220
0
230
1
40
0.996768
41
-2.86867679885934
42
-0.96273388221413
0
ELLIPSE
5
DF
100
AcDbEntity
8
1
62
256
6
ByLayer
370
-1
48
1
60
0
100
AcDbEllipse
10
84.90734
20
10.328526
30
0
11
-0.683389562890938
21
0.0597888395248927
31
0
210
0
220
0
230
1
40
0.996768
41
-6.89283241842263E-06
42
0.350461124239536
0
ELLIPSE
5
E0
100
AcDbEntity
8
1
62
256
6
ByLayer
370
-1
48
1
60
0
100
AcDbEllipse
10
84.41858
20
9.484413
30
0
11
-0.29088885184279
21
0.0254494768823158
31
0
210
0
220
0
230
1
40
0.996768
41
-2.71414485988813
42
-2.00714088572937
0
ELLIPSE
5
E1
100
AcDbEntity
8
1
62
256
6
ByLayer
370
-1
48
1
60
0
100
AcDbEllipse
10
83.094548
20
10.002323
30
0
11
2.39086727542019
21
-0.209173782594378
31
0
210
0
220
0
230
1
40
0.996768
41
0
42
6.28318530717959
0
ELLIPSE
5
E2
100
AcDbEntity
8
1
62
256
6
ByLayer
370
-1
48
1
60
0
100
AcDbEllipse
10
83.091735
20
9.970168
30
0
11
3.41196684096423
21
-0.298508418910727
31
0
210
0
220
0
230
1
40
0.996768
41
0
42
6.28318530717959
0
ELLIPSE
5
E3
100
AcDbEntity
8
1
62
256
6
ByLayer
370
-1
48
1
60
0
100
AcDbEllipse
10
83.083345
20
9.874268
30
0
11
3.41196684096423
21
-0.298508418910727
31
0
210
0
220
0
230
1
40
0.996768
41
3.14154207625821
42
0
0
ELLIPSE
5
E4
100
AcDbEntity
8
1
62
256
6
ByLayer
370
-1
48
1
60
0
100
AcDbEllipse
10
88.225758
20
4.904373
30
0
11
0.79097859028483
21
-0.0692016597416386
31
0
210
0
220
0
230
1
40
0.996768
41
-1.39626340159547
42
2.24447939594711E-14
0
ELLIPSE
5
E5
100
AcDbEntity
8
1
62
256
6
ByLayer
370
-1
48
1
60
0
100
AcDbEllipse
10
89.205995
20
16.108522
30
0
11
0.790978590284875
21
-0.0692016597416426
31
0
210
0
220
0
230
1
40
0.996768
41
0
42
1.74532925199435
0
ELLIPSE
5
E6
100
AcDbEntity
8
1
62
256
6
ByLayer
370
-1
48
1
60
0
100
AcDbEllipse
10
83.095911
20
10.017895
30
0
11
4.0558327260658
21
-0.354839384688199
31
0
210
0
220
0
230
1
40
0.996768
41
0
42
6.28318530717959
0
ELLIPSE
5
E7
100
AcDbEntity
8
1
62
256
6
ByLayer
370
-1
48
1
60
0
100
AcDbEllipse
10
77.966063
20
15.131417
30
0
11
0.790978590284873
21
-0.0692016597416424
31
0
210
0
220
0
230
1
40
0.996768
41
1.74532925199433
42
3.14159265358979
0
POINT
5
41
100
AcDbEntity
8
80
62
256
6
ByLayer
370
-1
48
1
60
0
100
AcDbPoint
10
0
20
0
30
0
39
0
210
0
220
0
230
1
50
360
0
POINT
5
43
100
AcDbEntity
8
81
62
256
6
ByLayer
370
-1
48
1
60
0
100
AcDbPoint
10
90
20
16.9
30
0
39
0
210
0
220
0
230
1
50
360
0
POINT
5
45
100
AcDbEntity
8
1
62
256
6
ByLayer
370
-1
48
1
60
0
100
AcDbPoint
10
0
20
0
30
0
39
0
210
0
220
0
230
1
50
360
0
POINT
5
47
100
AcDbEntity
8
2
62
256
6
ByLayer
370
-1
48
1
60
0
100
AcDbPoint
10
90
20
16.9
30
0
39
0
210
0
220
0
230
1
50
360
0
SPLINE
5
E8
100
AcDbEntity
8
SK1
62
256
6
ByLayer
370
-1
48
1
60
0
100
AcDbSpline
70
4
71
2
72
6
73
3
40
0
40
0
40
0
40
1
40
1
40
1
41
1
10
-2.19492113517947
20
17.5202263833814
30
0
41
1
10
-2.59746056758974
20
17.510113191717
30
0
41
1
10
-3
20
17.5000000000527
30
0
0
SPLINE
5
E9
100
AcDbEntity
8
SK1
62
256
6
ByLayer
370
-1
48
1
60
0
100
AcDbSpline
70
4
71
2
72
6
73
3
40
0
40
0
40
0
40
1
40
1
40
1
41
1
10
-3
20
-17.5000000000204
30
0
41
1
10
-2.59746056758974
20
-17.5101131916847
30
0
41
1
10
-2.19492113517947
20
-17.5202263833491
30
0
0
SPLINE
5
EA
100
AcDbEntity
8
SK1
62
256
6
ByLayer
370
-1
48
1
60
0
100
AcDbSpline
70
4
71
2
72
6
73
3
40
0
40
0
40
0
40
1
40
1
40
1
41
1
10
-3
20
17.5000000000527
30
0
41
1
10
-15.7502365839532
20
17.1796696772131
30
0
41
1
10
-28.5004731679065
20
16.8593393543735
30
0
0
SPLINE
5
EB
100
AcDbEntity
8
SK1
62
256
6
ByLayer
370
-1
48
1
60
0
100
AcDbSpline
70
4
71
2
72
6
73
3
40
0
40
0
40
0
40
1
40
1
40
1
41
1
10
-28.5004731679065
20
-16.8593393543424
30
0
41
1
10
-15.7502365839532
20
-17.1796696771814
30
0
41
1
10
-3
20
-17.5000000000204
30
0
0
SPLINE
5
EC
100
AcDbEntity
8
SK1
62
256
6
ByLayer
370
-1
48
1
60
0
100
AcDbSpline
70
4
71
2
72
6
73
3
40
0
40
0
40
0
40
1
40
1
40
1
41
1
10
-0.400000000000034
20
17.3251501409626
30
0
41
1
10
-1.19999999999999
20
17.3251501409626
30
0
41
1
10
-2
20
17.3251501409626
30
0
0
SPLINE
5
ED
100
AcDbEntity
8
SK1
62
256
6
ByLayer
370
-1
48
1
60
0
100
AcDbSpline
70
4
71
2
72
6
73
3
40
0
40
0
40
0
40
1
40
1
40
1
41
1
10
-2
20
-17.3251501414068
30
0
41
1
10
-1.19999999999999
20
-17.3251501414068
30
0
41
1
10
-0.400000000000034
20
-17.3251501414068
30
0
0
SPLINE
5
EE
100
AcDbEntity
8
SK1
62
256
6
ByLayer
370
-1
48
1
60
0
100
AcDbSpline
70
4
71
2
72
6
73
3
40
0
40
0
40
0
40
1
40
1
40
1
41
1
10
-28.5003904504266
20
16.8597456617469
30
0
41
1
10
-29.2501952787077
20
16.4010253845871
30
0
41
1
10
-30
20
15.9423013487186
30
0
0
SPLINE
5
EF
100
AcDbEntity
8
SK1
62
256
6
ByLayer
370
-1
48
1
60
0
100
AcDbSpline
70
4
71
2
72
6
73
3
40
0
40
0
40
0
40
1
40
1
40
1
41
1
10
-30
20
-15.9408160639395
30
0
41
1
10
-29.250201613525
20
-16.3993636736336
30
0
41
1
10
-28.5004032853135
20
-16.8579102610954
30
0
0
SPLINE
5
F0
100
AcDbEntity
8
SK1
62
256
6
ByLayer
370
-1
48
1
60
0
100
AcDbSpline
70
4
71
3
72
11
73
7
40
0
40
0
40
0
40
0
40
0.245755007744093
40
0.50179419821101
40
0.756953870258399
40
1
40
1
40
1
40
1
41
1
10
-0.199999999999989
20
17.5191731511753
30
0
41
1
10
-0.199994647676419
20
17.493844966999
30
0
41
1
10
-0.20935024226452
20
17.445622853432
30
0
41
1
10
-0.254178184246655
20
17.3766360753193
30
0
41
1
10
-0.324420736760771
20
17.33275982811
30
0
41
1
10
-0.373991067023667
20
17.3239685556464
30
0
41
1
10
-0.400000000000034
20
17.3241476526065
30
0
0
SPLINE
5
F1
100
AcDbEntity
8
SK1
62
256
6
ByLayer
370
-1
48
1
60
0
100
AcDbSpline
70
4
71
3
72
11
73
7
40
0
40
0
40
0
40
0
40
0.243046950855206
40
0.49820466819262
40
0.754242469704742
40
1
40
1
40
1
40
1
41
1
10
-0.400000000000034
20
-17.3241468641747
30
0
41
1
10
-0.373991174653781
20
-17.323967489369
30
0
41
1
10
-0.324421202647557
20
-17.332758304075
30
0
41
1
10
-0.254178044541106
20
-17.3766339294131
30
0
41
1
10
-0.209350044376038
20
-17.4456203921356
30
0
41
1
10
-0.199994500672233
20
-17.4938412312525
30
0
41
1
10
-0.199999999999989
20
-17.5191688355708
30
0
0
SPLINE
5
F2
100
AcDbEntity
8
1
62
256
6
ByLayer
370
-1
48
1
60
0
100
AcDbSpline
70
4
71
3
72
8
73
4
40
0
40
0
40
0
40
0
40
1
40
1
40
1
40
1
41
1
10
52.8669392464498
20
11.8435231238651
30
0
41
1
10
52.8210280845639
20
11.86262423837
30
0
41
1
10
52.7767691710769
20
11.8804872319485
30
0
41
1
10
52.7342347642877
20
11.8970579574692
30
0
0
SPLINE
5
F3
100
AcDbEntity
8
1
62
256
6
ByLayer
370
-1
48
1
60
0
100
AcDbSpline
70
4
71
2
72
6
73
3
40
0
40
0
40
0
40
1
40
1
40
1
41
0.498606841836179
10
60.6073226699701
20
9.05048402907212
30
0
41
0.501393158163821
10
63.5131040969434
20
9.05199748251018
30
0
41
0.498606841836179
10
66.4180031832166
20
9.0535103963442
30
0
0
SPLINE
5
F4
100
AcDbEntity
8
1
62
256
6
ByLayer
370
-1
48
1
60
0
100
AcDbSpline
70
4
71
3
72
16
73
12
40
0
40
0
40
0
40
0
40
0.077343676657827
40
0.077343676657827
40
0.181588290672556
40
0.181588290672556
40
0.353924998169922
40
0.353924998169922
40
0.659870482235914
40
0.659870482235914
40
1
40
1
40
1
40
1
41
1
10
8.53867513459483
20
23.8391299750503
30
0
41
1
10
8.51930872656192
20
23.8391299750503
30
0
41
1
10
8.49980795201657
20
23.8383766644784
30
0
41
1
10
8.45563565444411
20
23.8350242537625
30
0
41
1
10
8.43110003395827
20
23.8318379431383
30
0
41
1
10
8.37136994789256
20
23.8212426939765
30
0
41
1
10
8.33841285720996
20
23.812328084785
30
0
41
1
10
8.25926399475679
20
23.7850663392819
30
0
41
1
10
8.22011072567562
20
23.7642694363116
30
0
41
1
10
8.15317557860794
20
23.7185457490814
30
0
41
1
10
8.12652521949877
20
23.692873493267
30
0
41
1
10
8.10566243270262
20
23.6665017920809
30
0
0
SPLINE
5
F5
100
AcDbEntity
8
1
62
256
6
ByLayer
370
-1
48
1
60
0
100
AcDbSpline
70
4
71
3
72
8
73
4
40
0
40
0
40
0
40
0
40
1
40
1
40
1
40
1
41
1
10
60.607322669968
20
9.05048402907209
30
0
41
1
10
58.3623036956967
20
9.04931472856873
30
0
41
1
10
56.1968065446345
20
9.82752587257306
30
0
41
1
10
54.7415744673249
20
10.7248993542767
30
0
0
SPLINE
5
F6
100
AcDbEntity
8
1
62
256
6
ByLayer
370
-1
48
1
60
0
100
AcDbSpline
70
4
71
3
72
18
73
14
40
0
40
0
40
0
40
0
40
0.0809805960321051
40
0.0809805960321051
40
0.544227292214096
40
0.544227292214096
40
0.69931826562168
40
0.69931826562168
40
0.856346274356486
40
0.856346274356486
40
0.966571999538835
40
0.966571999538835
40
1
40
1
40
1
40
1
41
1
10
11.8943375672974
20
23.6665017920809
30
0
41
1
10
11.8893471011256
20
23.672810013698
30
0
41
1
10
11.8840209914239
20
23.6790700603507
30
0
41
1
10
11.845998279105
20
23.7205303134149
30
0
41
1
10
11.8022255638174
20
23.7548029562659
30
0
41
1
10
11.7151274219928
20
23.7938243006291
30
0
41
1
10
11.6903249195398
20
23.8031592998669
30
0
41
1
10
11.6339533178057
20
23.8196134016841
30
0
41
1
10
11.6016224931833
20
23.8268687494612
30
0
41
1
10
11.5411042357638
20
23.8353793525422
30
0
41
1
10
11.5139568123411
20
23.8378105604685
30
0
41
1
10
11.4781693033538
20
23.8389905264494
30
0
41
1
10
11.4697409388397
20
23.8391299750503
30
0
41
1
10
11.4613248654052
20
23.8391299750503
30
0
0
SPLINE
5
F7
100
AcDbEntity
8
1
62
256
6
ByLayer
370
-1
48
1
60
0
100
AcDbSpline
70
4
71
3
72
16
73
12
40
0
40
0
40
0
40
0
40
0.167025581291567
40
0.167025581291567
40
0.334842805765325
40
0.334842805765325
40
0.522729442932641
40
0.522729442932641
40
0.806373537947797
40
0.806373537947797
40
1
40
1
40
1
40
1
41
1
10
51.7892969680863
20
12.3804239111672
30
0
41
1
10
51.7584469576399
20
12.3938586930898
30
0
41
1
10
51.7427499898612
20
12.4070216125656
30
0
41
1
10
51.7510790705938
20
12.4303084531724
30
0
41
1
10
51.7755780254521
20
12.4407221316953
30
0
41
1
10
51.8618915911717
20
12.4586919062846
30
0
41
1
10
51.9284271842124
20
12.4661173263341
30
0
41
1
10
52.1213516733017
20
12.4804551844591
30
0
41
1
10
52.2635483384709
20
12.4856676570516
30
0
41
1
10
52.5160897929389
20
12.491740209932
30
0
41
1
10
52.6239760370869
20
12.4934609430958
30
0
41
1
10
52.7342347642888
20
12.4947555804092
30
0
0
SPLINE
5
F8
100
AcDbEntity
8
1
62
256
6
ByLayer
370
-1
48
1
60
0
100
AcDbSpline
70
4
71
3
72
8
73
4
40
0
40
0
40
0
40
0
40
1
40
1
40
1
40
1
41
1
10
75.4107082112876
20
4.76591471381289
30
0
41
1
10
75.4614220716906
20
4.79540245663338
30
0
41
1
10
75.5166112991002
20
4.81947899367236
30
0
41
1
10
75.5756371195253
20
4.83827623245395
30
0
0
SPLINE
5
F9
100
AcDbEntity
8
1
62
256
6
ByLayer
370
-1
48
1
60
0
100
AcDbSpline
70
4
71
3
72
16
73
12
40
0
40
0
40
0
40
0
40
0.0773436766578803
40
0.0773436766578803
40
0.181588290672623
40
0.181588290672623
40
0.353924998170025
40
0.353924998170025
40
0.659870482236126
40
0.659870482236126
40
1
40
1
40
1
40
1
41
1
10
11.4613248654052
20
7.52966679426498
30
0
41
1
10
11.4806912734381
20
7.52966679426498
30
0
41
1
10
11.5001920479834
20
7.53205286469702
30
0
41
1
10
11.5443643455559
20
7.54265601007381
30
0
41
1
10
11.5688999660418
20
7.55272636772358
30
0
41
1
10
11.6286300521075
20
7.58609718460602
30
0
41
1
10
11.66158714279
20
7.61407037421822
30
0
41
1
10
11.7407360052433
20
7.69895209889256
30
0
41
1
10
11.7798892743244
20
7.76300791758413
30
0
41
1
10
11.8468244213921
20
7.90167589305847
30
0
41
1
10
11.8734747805012
20
7.97837348437852
30
0
41
1
10
11.8943375672974
20
8.05584836782771
30
0
0
SPLINE
5
FA
100
AcDbEntity
8
1
62
256
6
ByLayer
370
-1
48
1
60
0
100
AcDbSpline
70
4
71
3
72
16
73
12
40
0
40
0
40
0
40
0
40
0.0773436766578125
40
0.0773436766578125
40
0.181588290672542
40
0.181588290672542
40
0.353924998169895
40
0.353924998169895
40
0.659870482235859
40
0.659870482235859
40
1
40
1
40
1
40
1
41
1
10
8.53867513459483
20
-7.52966679426501
30
0
41
1
10
8.51930872656192
20
-7.52966679426501
30
0
41
1
10
8.49980795201662
20
-7.53205286469702
30
0
41
1
10
8.45563565444411
20
-7.54265601007379
30
0
41
1
10
8.43110003395827
20
-7.55272636772355
30
0
41
1
10
8.37136994789256
20
-7.58609718460599
30
0
41
1
10
8.33841285721002
20
-7.61407037421819
30
0
41
1
10
8.25926399475679
20
-7.69895209889248
30
0
41
1
10
8.22011072567562
20
-7.76300791758402
30
0
41
1
10
8.15317557860794
20
-7.90167589305835
30
0
41
1
10
8.12652521949877
20
-7.97837348437849
30
0
41
1
10
8.10566243270262
20
-8.05584836782774
30
0
0
SPLINE
5
FB
100
AcDbEntity
8
1
62
256
6
ByLayer
370
-1
48
1
60
0
100
AcDbSpline
70
4
71
3
72
10
73
6
40
0
40
0
40
0
40
0
40
0.10933948952085
40
0.10933948952085
40
1
40
1
40
1
40
1
41
1
10
53.1037529710478
20
12.7777649567164
30
0
41
1
10
53.0892627924868
20
12.766786137158
30
0
41
1
10
53.0748497643562
20
12.7558583553394
30
0
41
1
10
52.9446480160169
20
12.6570608753825
30
0
41
1
10
52.833468505414
20
12.5721442270881
30
0
41
1
10
52.7342347642882
20
12.4947555804095
30
0
0
SPLINE
5
FC
100
AcDbEntity
8
1
62
256
6
ByLayer
370
-1
48
1
60
0
100
AcDbSpline
70
4
71
3
72
8
73
4
40
0
40
0
40
0
40
0
40
1
40
1
40
1
40
1
41
1
10
52.7342347642877
20
-11.8788729803831
30
0
41
1
10
52.7765773029172
20
-11.8657229329721
30
0
41
1
10
52.8208473506802
20
-11.8519742715594
30
0
41
1
10
52.8669392464497
20
-11.8376598106355
30
0
0
SPLINE
5
FD
100
AcDbEntity
8
1
62
256
6
ByLayer
370
-1
48
1
60
0
100
AcDbSpline
70
4
71
3
72
18
73
14
40
0
40
0
40
0
40
0
40
0.0809805960320918
40
0.0809805960320918
40
0.544227292214085
40
0.544227292214085
40
0.699318265621671
40
0.699318265621671
40
0.856346274356483
40
0.856346274356483
40
0.966571999538831
40
0.966571999538831
40
1
40
1
40
1
40
1
41
1
10
8.10566243270262
20
8.05584836782774
30
0
41
1
10
8.11065289887438
20
8.03731605051118
30
0
41
1
10
8.11597900857612
20
8.01885383673363
30
0
41
1
10
8.15400172089505
20
7.89611164850155
30
0
41
1
10
8.1977744361825
20
7.7921939727409
30
0
41
1
10
8.28487257800725
20
7.67169814060125
30
0
41
1
10
8.30967508046024
20
7.64266520230268
30
0
41
1
10
8.36604668219428
20
7.59122859579529
30
0
41
1
10
8.3983775068167
20
7.56839473241365
30
0
41
1
10
8.45889576423616
20
7.54154007085771
30
0
41
1
10
8.48604318765894
20
7.53384342094336
30
0
41
1
10
8.52183069664625
20
7.53010833377257
30
0
41
1
10
8.53025906116034
20
7.52966679426501
30
0
41
1
10
8.53867513459483
20
7.52966679426501
30
0
0
SPLINE
5
FE
100
AcDbEntity
8
1
62
256
6
ByLayer
370
-1
48
1
60
0
100
AcDbSpline
70
4
71
3
72
8
73
4
40
0
40
0
40
0
40
0
40
1
40
1
40
1
40
1
41
1
10
53.1037529710478
20
12.7777649567164
30
0
41
1
10
53.0977647940711
20
12.7737112667543
30
0
41
1
10
53.0921613174007
20
12.7696902346851
30
0
41
1
10
53.0869384394554
20
12.7657017368314
30
0
0
SPLINE
5
FF
100
AcDbEntity
8
1
62
256
6
ByLayer
370
-1
48
1
60
0
100
AcDbSpline
70
4
71
3
72
16
73
12
40
0
40
0
40
0
40
0
40
0.0773436766578767
40
0.0773436766578767
40
0.181588290672618
40
0.181588290672618
40
0.353924998170011
40
0.353924998170011
40
0.659870482236094
40
0.659870482236094
40
1
40
1
40
1
40
1
41
1
10
11.4613248654052
20
-23.8391299750503
30
0
41
1
10
11.4806912734381
20
-23.8391299750503
30
0
41
1
10
11.5001920479834
20
-23.8383766644784
30
0
41
1
10
11.5443643455559
20
-23.8350242537625
30
0
41
1
10
11.5688999660418
20
-23.8318379431383
30
0
41
1
10
11.6286300521075
20
-23.8212426939765
30
0
41
1
10
11.66158714279
20
-23.812328084785
30
0
41
1
10
11.7407360052433
20
-23.7850663392819
30
0
41
1
10
11.7798892743244
20
-23.7642694363116
30
0
41
1
10
11.8468244213921
20
-23.7185457490814
30
0
41
1
10
11.8734747805012
20
-23.692873493267
30
0
41
1
10
11.8943375672974
20
-23.6665017920809
30
0
0
SPLINE
5
100
100
AcDbEntity
8
1
62
256
6
ByLayer
370
-1
48
1
60
0
100
AcDbSpline
70
4
71
3
72
18
73
14
40
0
40
0
40
0
40
0
40
0.0809805960320801
40
0.0809805960320801
40
0.544227292214068
40
0.544227292214068
40
0.699318265621658
40
0.699318265621658
40
0.856346274356475
40
0.856346274356475
40
0.966571999538822
40
0.966571999538822
40
1
40
1
40
1
40
1
41
1
10
8.10566243270262
20
-23.6665017920809
30
0
41
1
10
8.11065289887438
20
-23.672810013698
30
0
41
1
10
8.11597900857612
20
-23.6790700603507
30
0
41
1
10
8.15400172089505
20
-23.7205303134149
30
0
41
1
10
8.1977744361825
20
-23.7548029562659
30
0
41
1
10
8.28487257800725
20
-23.7938243006291
30
0
41
1
10
8.30967508046024
20
-23.8031592998669
30
0
41
1
10
8.36604668219428
20
-23.8196134016841
30
0
41
1
10
8.3983775068167
20
-23.8268687494612
30
0
41
1
10
8.45889576423616
20
-23.8353793525422
30
0
41
1
10
8.48604318765894
20
-23.8378105604685
30
0
41
1
10
8.52183069664625
20
-23.8389905264494
30
0
41
1
10
8.53025906116034
20
-23.8391299750503
30
0
41
1
10
8.53867513459483
20
-23.8391299750503
30
0
0
SPLINE
5
101
100
AcDbEntity
8
1
62
256
6
ByLayer
370
-1
48
1
60
0
100
AcDbSpline
70
4
71
3
72
18
73
14
40
0
40
0
40
0
40
0
40
0.0809805960320615
40
0.0809805960320615
40
0.544227292213941
40
0.544227292213941
40
0.699318265621571
40
0.699318265621571
40
0.856346274356429
40
0.856346274356429
40
0.966571999538782
40
0.966571999538782
40
1
40
1
40
1
40
1
41
1
10
11.8943375672974
20
-8.05584836782771
30
0
41
1
10
11.8893471011256
20
-8.03731605051115
30
0
41
1
10
11.8840209914239
20
-8.01885383673363
30
0
41
1
10
11.845998279105
20
-7.89611164850155
30
0
41
1
10
11.8022255638175
20
-7.79219397274093
30
0
41
1
10
11.7151274219928
20
-7.67169814060131
30
0
41
1
10
11.6903249195398
20
-7.64266520230271
30
0
41
1
10
11.6339533178058
20
-7.59122859579532
30
0
41
1
10
11.6016224931834
20
-7.56839473241365
30
0
41
1
10
11.5411042357638
20
-7.54154007085771
30
0
41
1
10
11.5139568123411
20
-7.53384342094336
30
0
41
1
10
11.4781693033538
20
-7.53010833377257
30
0
41
1
10
11.4697409388397
20
-7.52966679426501
30
0
41
1
10
11.4613248654052
20
-7.52966679426501
30
0
0
SPLINE
5
102
100
AcDbEntity
8
SK1
62
256
6
ByLayer
370
-1
48
1
60
0
100
AcDbSpline
70
4
71
3
72
22
73
18
40
0
40
0
40
0
40
0
40
0.0434921783994969
40
0.0434921783994969
40
0.0876860403067026
40
0.0876860403067026
40
0.118952127699588
40
0.118952127699588
40
0.1501558424283
40
0.1501558424283
40
0.196307791916001
40
0.196307791916001
40
0.283435745194102
40
0.283435745194102
40
0.579041181948967
40
0.579041181948967
40
1
40
1
40
1
40
1
41
1
10
-0.400000000000034
20
-5.16866679574528
30
0
41
1
10
-0.420550053748514
20
-5.18835839085108
30
0
41
1
10
-0.443027188827387
20
-5.20675192843447
30
0
41
1
10
-0.492732016073376
20
-5.23775963373393
30
0
41
1
10
-0.520750465867991
20
-5.25056923469424
30
0
41
1
10
-0.57132317141145
20
-5.26230651341535
30
0
41
1
10
-0.593569294960218
20
-5.26418855716773
30
0
41
1
10
-0.636876257397887
20
-5.26111275520464
30
0
41
1
10
-0.658413974519078
20
-5.25617334660447
30
0
41
1
10
-0.708019059178241
20
-5.23795018495881
30
0
41
1
10
-0.73522293133459
20
-5.22174262348992
30
0
41
1
10
-0.805307091704549
20
-5.16870577827882
30
0
41
1
10
-0.843008552736933
20
-5.12565182749091
30
0
41
1
10
-0.98697835479976
20
-4.93030734845306
30
0
41
1
10
-1.05565821402411
20
-4.75512394253201
30
0
41
1
10
-1.19912511806342
20
-4.32976589005261
30
0
41
1
10
-1.25838015422249
20
-4.06924736884375
30
0
41
1
10
-1.30710678118658
20
-3.80474664113271
30
0
0
SPLINE
5
103
100
AcDbEntity
8
SK1
62
256
6
ByLayer
370
-1
48
1
60
0
100
AcDbSpline
70
4
71
3
72
14
73
10
40
0
40
0
40
0
40
0
40
0.134730002443746
40
0.287068852257179
40
0.439407702070613
40
0.591746551884047
40
0.744085401697481
40
0.896424251510915
40
1
40
1
40
1
40
1
41
1
10
-2.20000000000005
20
10.2416919827174
30
0
41
1
10
-2.20000000000005
20
10.4855732775987
30
0
41
1
10
-2.20000000000005
20
11.0026050713442
30
0
41
1
10
-2.20000000000005
20
11.777504870163
30
0
41
1
10
-2.20000000000005
20
12.5554386011843
30
0
41
1
10
-2.20000000000005
20
13.2960633878308
30
0
41
1
10
-2.20000000000005
20
13.9908994853336
30
0
41
1
10
-2.20000000000005
20
14.5640747934535
30
0
41
1
10
-2.20000000000005
20
14.8954704523378
30
0
41
1
10
-2.20000000000005
20
15.0247809138972
30
0
0
SPLINE
5
104
100
AcDbEntity
8
SK1
62
256
6
ByLayer
370
-1
48
1
60
0
100
AcDbSpline
70
4
71
3
72
30
73
26
40
0
40
0
40
0
40
0
40
0.0056618333773669
40
0.0508667583908923
40
0.0960716834044178
40
0.141276608417943
40
0.186481533431469
40
0.231686458444994
40
0.276891383458519
40
0.322096308472045
40
0.36730123348557
40
0.412506158499096
40
0.457711083512621
40
0.502916008526146
40
0.548120933539672
40
0.593325858553197
40
0.638530783566723
40
0.683735708580248
40
0.728940633593774
40
0.774145558607299
40
0.819350483620824
40
0.86455540863435
40
0.909760333647875
40
0.954965258661401
40
1
40
1
40
1
40
1
41
1
10
-0.400000000000034
20
-5.16866679574528
30
0
41
1
10
-0.400000000000034
20
-5.1981823917107
30
0
41
1
10
-0.400000000000034
20
-5.46426938707833
30
0
41
1
10
-0.400000000000034
20
-5.98219146197602
30
0
41
1
10
-0.400000000000034
20
-6.74713361247495
30
0
41
1
10
-0.400000000000034
20
-7.53968849279406
30
0
41
1
10
-0.400000000000034
20
-8.35230648563555
30
0
41
1
10
-0.400000000000034
20
-9.17636769820604
30
0
41
1
10
-0.400000000000034
20
-10.0024728331477
30
0
41
1
10
-0.400000000000034
20
-10.8207538150476
30
0
41
1
10
-0.400000000000034
20
-11.6212070931939
30
0
41
1
10
-0.400000000000034
20
-12.3940190774915
30
0
41
1
10
-0.400000000000034
20
-13.1298916243886
30
0
41
1
10
-0.400000000000034
20
-13.8203332490725
30
0
41
1
10
-0.400000000000034
20
-14.4579281585871
30
0
41
1
10
-0.400000000000034
20
-15.0365497976464
30
0
41
1
10
-0.400000000000034
20
-15.5515337877379
30
0
41
1
10
-0.400000000000034
20
-15.9997825456108
30
0
41
1
10
-0.400000000000034
20
-16.379817481596
30
0
41
1
10
-0.400000000000034
20
-16.6917603323907
30
0
41
1
10
-0.400000000000034
20
-16.9372586651848
30
0
41
1
10
-0.400000000000034
20
-17.1193485969266
30
0
41
1
10
-0.400000000000034
20
-17.2422669751987
30
0
41
1
10
-0.400000000000034
20
-17.311133444229
30
0
41
1
10
-0.400000000000034
20
-17.3250933704586
30
0
41
1
10
-0.400000000000034
20
-17.3251497957884
30
0
0
SPLINE
5
105
100
AcDbEntity
8
SK1
62
256
6
ByLayer
370
-1
48
1
60
0
100
AcDbSpline
70
4
71
3
72
14
73
10
40
0
40
0
40
0
40
0
40
0.10357574079845
40
0.255914577449822
40
0.408253414101195
40
0.560592250752568
40
0.712931087403941
40
0.865269924055314
40
1
40
1
40
1
40
1
41
1
10
-2.20000000000005
20
-15.0247808645648
30
0
41
1
10
-2.20000000000005
20
-14.8954704310019
30
0
41
1
10
-2.20000000000005
20
-14.5640748657279
30
0
41
1
10
-2.20000000000005
20
-13.9908991973699
30
0
41
1
10
-2.20000000000005
20
-13.2960635543425
30
0
41
1
10
-2.20000000000005
20
-12.5554382231013
30
0
41
1
10
-2.20000000000005
20
-11.7775050699617
30
0
41
1
10
-2.20000000000005
20
-11.0026045240078
30
0
41
1
10
-2.20000000000005
20
-10.4855729233102
30
0
41
1
10
-2.20000000000005
20
-10.2416915120114
30
0
0
SPLINE
5
106
100
AcDbEntity
8
SK1
62
256
6
ByLayer
370
-1
48
1
60
0
100
AcDbSpline
70
4
71
3
72
73
73
69
40
0
40
0
40
0
40
0
40
0.0018466561169312
40
0.0173088925234934
40
0.0327711289300555
40
0.0482333653366177
40
0.0636956017431799
40
0.0791578381497421
40
0.0946200745563043
40
0.110082310962866
40
0.125544547369429
40
0.141006783775991
40
0.156469020182553
40
0.171931256589115
40
0.187393492995678
40
0.20285572940224
40
0.218317965808802
40
0.233780202215364
40
0.249242438621926
40
0.264704675028488
40
0.280166911435051
40
0.295629147841613
40
0.311091384248175
40
0.326553620654737
40
0.3420158570613
40
0.357478093467862
40
0.372940329874424
40
0.388402566280986
40
0.403864802687548
40
0.41932703909411
40
0.434789275500673
40
0.450251511907235
40
0.465713748313797
40
0.481175984720359
40
0.496638221126921
40
0.512100457533484
40
0.527562693940046
40
0.543024930346608
40
0.55848716675317
40
0.573949403159732
40
0.589411639566295
40
0.604873875972857
40
0.620336112379419
40
0.635798348785981
40
0.651260585192543
40
0.666722821599105
40
0.682185058005668
40
0.69764729441223
40
0.713109530818792
40
0.728571767225354
40
0.744034003631916
40
0.759496240038479
40
0.774958476445041
40
0.790420712851603
40
0.805882949258165
40
0.821345185664727
40
0.83680742207129
40
0.852269658477852
40
0.867731894884414
40
0.883194131290976
40
0.898656367697538
40
0.9141186041041
40
0.929580840510663
40
0.945043076917225
40
0.960505313323787
40
0.975967549730349
40
0.991429786136912
40
1
40
1
40
1
40
1
41
1
10
-28.5004731679065
20
16.5843275748057
30
0
41
1
10
-28.5004731679065
20
16.5890126478705
30
0
41
1
10
-28.5004731679065
20
16.6325284262555
30
0
41
1
10
-28.5004731679065
20
16.7076779742402
30
0
41
1
10
-28.5004731679065
20
16.7910009100058
30
0
41
1
10
-28.5004731679065
20
16.845797358011
30
0
41
1
10
-28.5004731679065
20
16.866111367971
30
0
41
1
10
-28.5004731679065
20
16.8457932960415
30
0
41
1
10
-28.5004731679065
20
16.7787920295583
30
0
41
1
10
-28.5004731679065
20
16.6594441325878
30
0
41
1
10
-28.5004731679065
20
16.4827618905288
30
0
41
1
10
-28.5004731679065
20
16.2446845781523
30
0
41
1
10
-28.5004731679065
20
15.9423067030317
30
0
41
1
10
-28.5004731679065
20
15.5740550609708
30
0
41
1
10
-28.5004731679065
20
15.1398218356871
30
0
41
1
10
-28.5004731679065
20
14.6410360299331
30
0
41
1
10
-28.5004731679065
20
14.0806798361698
30
0
41
1
10
-28.5004731679065
20
13.4632415716312
30
0
41
1
10
-28.5004731679065
20
12.7946107775085
30
0
41
1
10
-28.5004731679065
20
12.0819181856553
30
0
41
1
10
-28.5004731679065
20
11.3333237326368
30
0
41
1
10
-28.5004731679065
20
10.557766572068
30
0
41
1
10
-28.5004731679065
20
9.76467681695499
30
0
41
1
10
-28.5004731679065
20
8.96367263859332
30
0
41
1
10
-28.5004731679065
20
8.1642385298471
30
0
41
1
10
-28.5004731679065
20
7.37541494914308
30
0
41
1
10
-28.5004731679065
20
6.60549138939064
30
0
41
1
10
-28.5004731679065
20
5.86173553761287
30
0
41
1
10
-28.5004731679065
20
5.15014758540383
30
0
41
1
10
-28.5004731679065
20
4.47527023543958
30
0
41
1
10
-28.5004731679065
20
3.84004176429178
30
0
41
1
10
-28.5004731679065
20
3.2457162593208
30
0
41
1
10
-28.5004731679065
20
2.69183828529165
30
0
41
1
10
-28.5004731679065
20
2.17628628328657
30
0
41
1
10
-28.5004731679065
20
1.69537351492636
30
0
41
1
10
-28.5004731679065
20
1.2440090901581
30
0
41
1
10
-28.5004731679065
20
0.815910920503399
30
0
41
1
10
-28.5004731679065
20
0.403861164287008
30
0
41
1
10
-28.5004731679065
20
8.53071072E-08
30
0
41
1
10
-28.5004731679065
20
-0.403861505515522
30
0
41
1
10
-28.5004731679065
20
-0.815910763441792
30
0
41
1
10
-28.5004731679065
20
-1.24400937717621
30
0
41
1
10
-28.5004731679065
20
-1.69537339652362
30
0
41
1
10
-28.5004731679065
20
-2.17628646987961
30
0
41
1
10
-28.5004731679065
20
-2.69183822496621
30
0
41
1
10
-28.5004731679065
20
-3.24571631402981
30
0
41
1
10
-28.5004731679065
20
-3.84004177292727
30
0
41
1
10
-28.5004731679065
20
-4.47527014618885
30
0
41
1
10
-28.5004731679065
20
-5.15014766379647
30
0
41
1
10
-28.5004731679065
20
-5.86173531329331
30
0
41
1
10
-28.5004731679065
20
-6.60549152820974
30
0
41
1
10
-28.5004731679065
20
-7.37541461818648
30
0
41
1
10
-28.5004731679065
20
-8.16423871111451
30
0
41
1
10
-28.5004731679065
20
-8.96367224448036
30
0
41
1
10
-28.5004731679065
20
-9.76467701679073
30
0
41
1
10
-28.5004731679065
20
-10.5577661668381
30
0
41
1
10
-28.5004731679065
20
-11.3333239249003
30
0
41
1
10
-28.5004731679065
20
-12.0819178218315
30
0
41
1
10
-28.5004731679065
20
-12.7946109377403
30
0
41
1
10
-28.5004731679065
20
-13.4632412945279
30
0
41
1
10
-28.5004731679065
20
-14.0806799452206
30
0
41
1
10
-28.5004731679065
20
-14.6410358708333
30
0
41
1
10
-28.5004731679065
20
-15.1398218825485
30
0
41
1
10
-28.5004731679065
20
-15.5740550326248
30
0
41
1
10
-28.5004731679065
20
-15.942306686368
30
0
41
1
10
-28.5004731679065
20
-16.2446846731531
30
0
41
1
10
-28.5004731679065
20
-16.4473889051978
30
0
41
1
10
-28.5004731679065
20
-16.546015100524
30
0
41
1
10
-28.5004731679065
20
-16.5781578665788
30
0
0
SPLINE
5
107
100
AcDbEntity
8
SK1
62
256
6
ByLayer
370
-1
48
1
60
0
100
AcDbSpline
70
4
71
3
72
26
73
22
40
0
40
0
40
0
40
0
40
0.466011607458034
40
0.466011607458034
40
0.67024046630168
40
0.67024046630168
40
0.77456727018221
40
0.77456727018221
40
0.857070717706419
40
0.857070717706419
40
0.898538406950324
40
0.898538406950324
40
0.918045307993239
40
0.918045307993239
40
0.937772855809251
40
0.937772855809251
40
0.955553297254221
40
0.955553297254221
40
0.984230712729842
40
0.984230712729842
40
1
40
1
40
1
40
1
41
1
10
-0.200000000000046
20
-5.88142397393347
30
0
41
1
10
-0.200000000000046
20
-5.75538988127934
30
0
41
1
10
-0.204053336884726
20
-5.62782146467677
30
0
41
1
10
-0.224291300237951
20
-5.44372978251536
30
0
41
1
10
-0.232375898168357
20
-5.3873284499669
30
0
41
1
10
-0.251389677244674
20
-5.30297629006839
30
0
41
1
10
-0.259003952916999
20
-5.27447755328694
30
0
41
1
10
-0.277073232762461
20
-5.22483382882945
30
0
41
1
10
-0.286541211569727
20
-5.20296176881411
30
0
41
1
10
-0.306529791401147
20
-5.17375294403038
30
0
41
1
10
-0.314426911926432
20
-5.1643717298173
30
0
41
1
10
-0.328481919155991
20
-5.15398148698225
30
0
41
1
10
-0.333472930985636
20
-5.15114386616668
30
0
41
1
10
-0.343977733072507
20
-5.14732547572157
30
0
41
1
10
-0.349636276202261
20
-5.14634920679938
30
0
41
1
10
-0.360093315739675
20
-5.1465317925306
30
0
41
1
10
-0.365036235354125
20
-5.14747094480913
30
0
41
1
10
-0.377122372198698
20
-5.15149960910935
30
0
41
1
10
-0.384002450469666
20
-5.1555505154767
30
0
41
1
10
-0.393629001799525
20
-5.16285427826699
30
0
41
1
10
-0.39689046960973
20
-5.16568716298278
30
0
41
1
10
-0.400000000000034
20
-5.16866679574503
30
0
0
SPLINE
5
108
100
AcDbEntity
8
SK1
62
256
6
ByLayer
370
-1
48
1
60
0
100
AcDbSpline
70
4
71
3
72
10
73
6
40
0
40
0
40
0
40
0
40
0.5
40
0.5
40
1
40
1
40
1
40
1
41
1
10
-1.30710678118658
20
3.80474436172742
30
0
41
1
10
-1.52921682270318
20
2.59907728352434
30
0
41
1
10
-1.70909405340865
20
1.31281235086666
30
0
41
1
10
-1.70963179300867
20
-1.30649832374493
30
0
41
1
10
-1.52966155970608
20
-2.5966617696443
30
0
41
1
10
-1.30710678118663
20
-3.80474664113297
30
0
0
SPLINE
5
109
100
AcDbEntity
8
SK1
62
256
6
ByLayer
370
-1
48
1
60
0
100
AcDbSpline
70
4
71
3
72
79
73
75
40
0
40
0
40
0
40
0
40
0.0067087497327157
40
0.0208027855950757
40
0.0348968214574358
40
0.0489908573197958
40
0.0630848931821558
40
0.0771789290445158
40
0.0912729649068758
40
0.105367000769236
40
0.119461036631596
40
0.133555072493956
40
0.147649108356316
40
0.161743144218676
40
0.175837180081036
40
0.189931215943396
40
0.204025251805756
40
0.218119287668116
40
0.232213323530476
40
0.246307359392836
40
0.260401395255196
40
0.274495431117556
40
0.288589466979916
40
0.302683502842276
40
0.316777538704636
40
0.330871574566996
40
0.344965610429356
40
0.359059646291716
40
0.373153682154076
40
0.387247718016436
40
0.401341753878796
40
0.415435789741156
40
0.429529825603516
40
0.443623861465876
40
0.457717897328236
40
0.471811933190596
40
0.485905969052956
40
0.500000004915316
40
0.514094040777676
40
0.528188076640036
40
0.542282112502396
40
0.556376148364756
40
0.570470184227116
40
0.584564220089477
40
0.598658255951837
40
0.612752291814197
40
0.626846327676556
40
0.640940363538917
40
0.655034399401277
40
0.669128435263637
40
0.683222471125997
40
0.697316506988357
40
0.711410542850717
40
0.725504578713077
40
0.739598614575437
40
0.753692650437797
40
0.767786686300157
40
0.781880722162517
40
0.795974758024877
40
0.810068793887237
40
0.824162829749597
40
0.838256865611957
40
0.852350901474317
40
0.866444937336677
40
0.880538973199037
40
0.894633009061397
40
0.908727044923757
40
0.922821080786117
40
0.936915116648477
40
0.951009152510837
40
0.965103188373197
40
0.979197224235557
40
0.993291260097917
40
1
40
1
40
1
40
1
41
1
10
-3
20
-17.2891029998204
30
0
41
1
10
-3
20
-17.3064425230017
30
0
41
1
10
-3.00000000000006
20
-17.3576824669623
30
0
41
1
10
-3
20
-17.4290648746259
30
0
41
1
10
-3
20
-17.4859427971309
30
0
41
1
10
-3
20
-17.5070292572437
30
0
41
1
10
-3
20
-17.4859401738945
30
0
41
1
10
-3
20
-17.4163913620312
30
0
41
1
10
-3
20
-17.2925088911448
30
0
41
1
10
-3
20
-17.1091123896189
30
0
41
1
10
-3
20
-16.8619882313057
30
0
41
1
10
-3
20
-16.5481197778907
30
0
41
1
10
-3
20
-16.1658744357057
30
0
41
1
10
-3
20
-15.7151402778227
30
0
41
1
10
-3
20
-15.1974002275414
30
0
41
1
10
-3
20
-14.6157505856349
30
0
41
1
10
-3
20
-13.9748490556261
30
0
41
1
10
-3
20
-13.2808105172309
30
0
41
1
10
-3
20
-12.5410348198394
30
0
41
1
10
-3
20
-11.763994099502
30
0
41
1
10
-3
20
-10.9589648821141
30
0
41
1
10
-3
20
-10.1357380738661
30
0
41
1
10
-3
20
-9.30429484700929
30
0
41
1
10
-3
20
-8.47448256671282
30
0
41
1
10
-3
20
-7.6556828892094
30
0
41
1
10
-3
20
-6.85650245921596
30
0
41
1
10
-3
20
-6.08448325445985
30
0
41
1
10
-3
20
-5.34585503158101
30
0
41
1
10
-3
20
-4.64533193812392
30
0
41
1
10
-3
20
-3.9859646700211
30
0
41
1
10
-3
20
-3.36905464097902
30
0
41
1
10
-3
20
-2.79412899561987
30
0
41
1
10
-3
20
-2.25898609800083
30
0
41
1
10
-3
20
-1.75979816383233
30
0
41
1
10
-3
20
-1.29128215780307
30
0
41
1
10
-3
20
-0.846915650735156
30
0
41
1
10
-3
20
-0.41920838047011
30
0
41
1
10
-3
20
8.85488021E-08
30
0
41
1
10
-3
20
0.419208026274788
30
0
41
1
10
-3
20
0.84691581376515
30
0
41
1
10
-3
20
1.29128185987813
30
0
41
1
10
-3
20
1.75979828673439
30
0
41
1
10
-3
20
2.25898590431717
30
0
41
1
10
-3
20
2.79412905823773
30
0
41
1
10
-3
20
3.36905458419105
30
0
41
1
10
-3
20
3.98596466105747
30
0
41
1
10
-3
20
4.64533203076618
30
0
41
1
10
-3
20
5.34585495020943
30
0
41
1
10
-3
20
6.08448348730366
30
0
41
1
10
-3
20
6.85650231512167
30
0
41
1
10
-3
20
7.65568323274246
30
0
41
1
10
-3
20
8.47448237855718
30
0
41
1
10
-3
20
9.30429525609867
30
0
41
1
10
-3
20
10.1357378664365
30
0
41
1
10
-3
20
10.9589653027428
30
0
41
1
10
-3
20
11.7639938999324
30
0
41
1
10
-3
20
12.5410351974886
30
0
41
1
10
-3
20
13.2808103509102
30
0
41
1
10
-3
20
13.9748493432595
30
0
41
1
10
-3
20
14.6157504724401
30
0
41
1
10
-3
20
15.197400392687
30
0
41
1
10
-3
20
15.7151402291805
30
0
41
1
10
-3
20
16.1658744651289
30
0
41
1
10
-3
20
16.5481197951877
30
0
41
1
10
-3
20
16.8619881326948
30
0
41
1
10
-3
20
17.1091124641426
30
0
41
1
10
-3
20
17.2925086916609
30
0
41
1
10
-3
20
17.4163918494222
30
0
41
1
10
-3
20
17.4859391868839
30
0
41
1
10
-3
20
17.5070293524766
30
0
41
1
10
-3
20
17.4859434032096
30
0
41
1
10
-3
20
17.4290646714908
30
0
41
1
10
-3
20
17.3576822655576
30
0
41
1
10
-3
20
17.3064424621938
30
0
41
1
10
-3
20
17.2891029998414
30
0
0
SPLINE
5
10A
100
AcDbEntity
8
SK1
62
256
6
ByLayer
370
-1
48
1
60
0
100
AcDbSpline
70
4
71
3
72
41
73
37
40
0
40
0
40
0
40
0
40
0.003586261541826
40
0.0346121196535795
40
0.065637977765333
40
0.0966638358770865
40
0.12768969398884
40
0.158715552100593
40
0.189741410212347
40
0.220767268324101
40
0.251793126435854
40
0.282818984547608
40
0.313844842659361
40
0.344870700771115
40
0.375896558882868
40
0.406922416994622
40
0.437948275106375
40
0.468974133218129
40
0.499999991329882
40
0.531025849441636
40
0.562051707553389
40
0.593077565665143
40
0.624103423776896
40
0.65512928188865
40
0.686155140000403
40
0.717180998112157
40
0.74820685622391
40
0.779232714335664
40
0.810258572447417
40
0.841284430559171
40
0.872310288670924
40
0.903336146782678
40
0.934362004894431
40
0.965387863006185
40
0.996413721117938
40
1
40
1
40
1
40
1
41
1
10
-2.20000000000005
20
-10.2416915120114
30
0
41
1
10
-2.20000000000005
20
-10.2098170446198
30
0
41
1
10
-2.20000000000005
20
-9.90198508683847
30
0
41
1
10
-2.20000000000005
20
-9.3149808480191
30
0
41
1
10
-2.20000000000005
20
-8.48421552667966
30
0
41
1
10
-2.20000000000005
20
-7.66447545612931
30
0
41
1
10
-2.20000000000005
20
-6.86437716583347
30
0
41
1
10
-2.20000000000005
20
-6.09147129549578
30
0
41
1
10
-2.20000000000005
20
-5.35199475664402
30
0
41
1
10
-2.20000000000005
20
-4.6506671110304
30
0
41
1
10
-2.20000000000005
20
-3.99054255831777
30
0
41
1
10
-2.20000000000005
20
-3.37292400688881
30
0
41
1
10
-2.20000000000005
20
-2.79733805829036
30
0
41
1
10
-2.20000000000005
20
-2.26158054799637
30
0
41
1
10
-2.20000000000005
20
-1.76181929549949
30
0
41
1
10
-2.20000000000005
20
-1.29276519791185
30
0
41
1
10
-2.20000000000005
20
-0.847888335032877
30
0
41
1
10
-2.20000000000005
20
-0.419689842123091
30
0
41
1
10
-2.20000000000005
20
8.86504949E-08
30
0
41
1
10
-2.20000000000005
20
0.419689487520998
30
0
41
1
10
-2.20000000000005
20
0.847888498250114
30
0
41
1
10
-2.20000000000005
20
1.29276489964477
30
0
41
1
10
-2.20000000000005
20
1.7618194185427
30
0
41
1
10
-2.20000000000005
20
2.26158035409029
30
0
41
1
10
-2.20000000000005
20
2.79733812098013
30
0
41
1
10
-2.20000000000005
20
3.37292395003561
30
0
41
1
10
-2.20000000000005
20
3.99054254934384
30
0
41
1
10
-2.20000000000005
20
4.65066720377908
30
0
41
1
10
-2.20000000000005
20
5.35199467517899
30
0
41
1
10
-2.20000000000005
20
6.091471528607
30
0
41
1
10
-2.20000000000005
20
6.86437702157369
30
0
41
1
10
-2.20000000000005
20
7.66447580005692
30
0
41
1
10
-2.20000000000005
20
8.48421533830793
30
0
41
1
10
-2.20000000000005
20
9.31498125757835
30
0
41
1
10
-2.20000000000005
20
9.90198521620599
30
0
41
1
10
-2.20000000000005
20
10.2098173562794
30
0
41
1
10
-2.20000000000005
20
10.2416919827174
30
0
0
SPLINE
5
10B
100
AcDbEntity
8
SK1
62
256
6
ByLayer
370
-1
48
1
60
0
100
AcDbSpline
70
4
71
3
72
20
73
16
40
0
40
0
40
0
40
0
40
0.0482625705630821
40
0.0482625705630821
40
0.325220898600871
40
0.325220898600871
40
0.463381471375242
40
0.463381471375242
40
0.601551524429024
40
0.601551524429024
40
0.739735425197376
40
0.739735425197376
40
0.87793960350904
40
0.87793960350904
40
1
40
1
40
1
40
1
41
1
10
-2.19999999999999
20
15.024780913897
30
0
41
1
10
-2.19999999999999
20
15.0987632316058
30
0
41
1
10
-2.19999999163144
20
15.1713153633957
30
0
41
1
10
-2.19999985652709
20
15.6498272161843
30
0
41
1
10
-2.19999939887509
20
16.0101821224506
30
0
41
1
10
-2.19999683011554
20
16.4712024133173
30
0
41
1
10
-2.19999564996834
20
16.6117543332689
30
0
41
1
10
-2.19999230715831
20
16.8650200442632
30
0
41
1
10
-2.19999013861343
20
16.9778482087754
30
0
41
1
10
-2.19998437020206
20
17.1737303581388
30
0
41
1
10
-2.19998076728285
20
17.2568757984567
30
0
41
1
10
-2.19997155592222
20
17.390896629152
30
0
41
1
10
-2.19996594630391
20
17.4418577268988
30
0
41
1
10
-2.19995283284743
20
17.5043876537375
30
0
41
1
10
-2.19994561248387
20
17.5199107584762
30
0
41
1
10
-2.19993704319944
20
17.5200998959624
30
0
0
SPLINE
5
10C
100
AcDbEntity
8
SK1
62
256
6
ByLayer
370
-1
48
1
60
0
100
AcDbSpline
70
4
71
3
72
20
73
16
40
0
40
0
40
0
40
0
40
0.107709859730122
40
0.107709859730122
40
0.254805889945515
40
0.254805889945515
40
0.401872722914623
40
0.401872722914623
40
0.548920274148804
40
0.548920274148804
40
0.6959550767156
40
0.6959550767156
40
0.842981467919629
40
0.842981467919629
40
1
40
1
40
1
40
1
41
1
10
-2.19993655780445
20
-17.5200998571235
30
0
41
1
10
-2.19994418187713
20
-17.5204461970879
30
0
41
1
10
-2.19995074650438
20
-17.5087568436285
30
0
41
1
10
-2.19996422500265
20
-17.4552443316022
30
0
41
1
10
-2.19997041029711
20
-17.4038992989506
30
0
41
1
10
-2.19998045819511
20
-17.2645372816575
30
0
41
1
10
-2.19998432672412
20
-17.1764163911093
30
0
41
1
10
-2.19999043378135
20
-16.9665639550929
30
0
41
1
10
-2.19999267824221
20
-16.8447172876608
30
0
41
1
10
-2.19999607391787
20
-16.569798663462
30
0
41
1
10
-2.1999972302832
20
-16.4165791409565
30
0
41
1
10
-2.19999885859687
20
-16.0808080953317
30
0
41
1
10
-2.19999933084273
20
-15.8980848535623
30
0
41
1
10
-2.19999991533382
20
-15.4916218225697
30
0
41
1
10
-2.19999999999999
20
-15.2657541717873
30
0
41
1
10
-2.19999999999999
20
-15.0247808645654
30
0
0
SPLINE
5
10D
100
AcDbEntity
8
SK1
62
256
6
ByLayer
370
-1
48
1
60
0
100
AcDbSpline
70
4
71
3
72
22
73
18
40
0
40
0
40
0
40
0
40
0.352684316750051
40
0.352684316750051
40
0.750046292484899
40
0.750046292484899
40
0.835479263400861
40
0.835479263400861
40
0.86935277413835
40
0.86935277413835
40
0.903637365464604
40
0.903637365464604
40
0.934112944215775
40
0.934112944215775
40
0.983611230456553
40
0.983611230456553
40
1
40
1
40
1
40
1
41
1
10
-1.30710678118658
20
3.80474436172742
30
0
41
1
10
-1.26637440296071
20
4.02584957204775
30
0
41
1
10
-1.21786346361694
20
4.24386265362048
30
0
41
1
10
-1.08311917044625
20
4.69265802851214
30
0
41
1
10
-1.00360006874376
20
4.93633956823067
30
0
41
1
10
-0.8033447497628
20
5.16879396055813
30
0
41
1
10
-0.761021311877812
20
5.20853400127967
30
0
41
1
10
-0.689167148695731
20
5.24561851051851
30
0
41
1
10
-0.666676206231386
20
5.25408214518689
30
0
41
1
10
-0.619919785859736
20
5.26355270960357
30
0
41
1
10
-0.595012690956537
20
5.26445496143654
30
0
41
1
10
-0.549926195162811
20
5.25839930645884
30
0
41
1
10
-0.529028206588009
20
5.25231844804927
30
0
41
1
10
-0.478237300450644
20
5.2307965704984
30
0
41
1
10
-0.449806665426422
20
5.21177878736736
30
0
41
1
10
-0.416050679082105
20
5.18357602352128
30
0
41
1
10
-0.407890864165267
20
5.17622805658175
30
0
41
1
10
-0.400000000000034
20
5.16866682996363
30
0
0
SPLINE
5
10E
100
AcDbEntity
8
SK1
62
256
6
ByLayer
370
-1
48
1
60
0
100
AcDbSpline
70
4
71
3
72
24
73
20
40
0
40
0
40
0
40
0
40
0.0299003298961631
40
0.0299003298961631
40
0.0528622635029669
40
0.0528622635029669
40
0.0709275158044995
40
0.0709275158044995
40
0.0890039000876294
40
0.0890039000876294
40
0.11362248491787
40
0.11362248491787
40
0.157577258657195
40
0.157577258657195
40
0.29602514002948
40
0.29602514002948
40
0.878150828056824
40
0.878150828056824
40
1
40
1
40
1
40
1
41
1
10
-0.400000000000034
20
5.16866682996297
30
0
41
1
10
-0.394094307655564
20
5.16300784544387
30
0
41
1
10
-0.38760623850834
20
5.15782429554133
30
0
41
1
10
-0.374945775641891
20
5.1507540726119
30
0
41
1
10
-0.368929355824321
20
5.14835070696066
30
0
41
1
10
-0.35770867701234
20
5.14629827954846
30
0
41
1
10
-0.352495529695602
20
5.14618209741417
30
0
41
1
10
-0.342356257615734
20
5.14777530545462
30
0
41
1
10
-0.337316914191888
20
5.1495007928761
30
0
41
1
10
-0.32635373840418
20
5.15512166080455
30
0
41
1
10
-0.320571087776045
20
5.15961290941803
30
0
41
1
10
-0.306345382412019
20
5.17348963231112
30
0
41
1
10
-0.298929389281341
20
5.1841444040335
30
0
41
1
10
-0.27264918279883
20
5.22929437458617
30
0
41
1
10
-0.260939846150848
20
5.26761390191822
30
0
41
1
10
-0.210796530798689
20
5.46289223314824
30
0
41
1
10
-0.204366482898251
20
5.62478131775705
30
0
41
1
10
-0.200325121553306
20
5.8154278903541
30
0
41
1
10
-0.200000000000046
20
5.8484679854401
30
0
41
1
10
-0.200000000000046
20
5.88142452370542
30
0
0
SPLINE
5
10F
100
AcDbEntity
8
SK1
62
256
6
ByLayer
370
-1
48
1
60
0
100
AcDbSpline
70
4
71
3
72
79
73
75
40
0
40
0
40
0
40
0
40
0.0074030719680451
40
0.0214772709933054
40
0.0355514700185658
40
0.0496256690438261
40
0.0636998680690865
40
0.0777740670943468
40
0.0918482661196071
40
0.105922465144868
40
0.119996664170128
40
0.134070863195388
40
0.148145062220648
40
0.162219261245909
40
0.176293460271169
40
0.190367659296429
40
0.20444185832169
40
0.21851605734695
40
0.232590256372211
40
0.246664455397471
40
0.260738654422731
40
0.274812853447992
40
0.288887052473252
40
0.302961251498512
40
0.317035450523773
40
0.331109649549033
40
0.345183848574293
40
0.359258047599553
40
0.373332246624814
40
0.387406445650074
40
0.401480644675335
40
0.415554843700595
40
0.429629042725855
40
0.443703241751115
40
0.457777440776376
40
0.471851639801636
40
0.485925838826897
40
0.500000037852157
40
0.514074236877417
40
0.528148435902678
40
0.542222634927938
40
0.556296833953198
40
0.570371032978459
40
0.584445232003719
40
0.598519431028979
40
0.61259363005424
40
0.6266678290795
40
0.64074202810476
40
0.654816227130021
40
0.668890426155281
40
0.682964625180541
40
0.697038824205802
40
0.711113023231062
40
0.725187222256322
40
0.739261421281583
40
0.753335620306843
40
0.767409819332103
40
0.781484018357364
40
0.795558217382624
40
0.809632416407884
40
0.823706615433145
40
0.837780814458405
40
0.851855013483665
40
0.865929212508926
40
0.880003411534186
40
0.894077610559446
40
0.908151809584707
40
0.922226008609967
40
0.936300207635227
40
0.950374406660488
40
0.964448605685748
40
0.978522804711008
40
0.992597003736269
40
1
40
1
40
1
40
1
41
1
10
-2
20
17.1116144542389
30
0
41
1
10
-2
20
17.1306737735355
30
0
41
1
10
-1.99999999999994
20
17.1831798973923
30
0
41
1
10
-2
20
17.2550395308993
30
0
41
1
10
-2
20
17.3112459497451
30
0
41
1
10
-2
20
17.3321089735132
30
0
41
1
10
-2
20
17.3112189889209
30
0
41
1
10
-2
20
17.2422674474922
30
0
41
1
10
-2
20
17.1193484069474
30
0
41
1
10
-2
20
16.9372587367204
30
0
41
1
10
-2
20
16.6917602356259
30
0
41
1
10
-2
20
16.3798174953022
30
0
41
1
10
-2
20
15.9997825770269
30
0
41
1
10
-2
20
15.5515337348698
30
0
41
1
10
-2
20
15.0365499649754
30
0
41
1
10
-2
20
14.4579280405673
30
0
41
1
10
-2
20
13.8203335391023
30
0
41
1
10
-2
20
13.1298914527523
30
0
41
1
10
-2
20
12.39401945775
30
0
41
1
10
-2
20
11.6212068879994
30
0
41
1
10
-2
20
10.8207542384819
30
0
41
1
10
-2
20
10.00247262006
30
0
41
1
10
-2
20
9.17636811026827
30
0
41
1
10
-2
20
8.35230629219913
30
0
41
1
10
-2
20
7.53968883941312
30
0
41
1
10
-2
20
6.74713346409783
30
0
41
1
10
-2
20
5.98219169787032
30
0
41
1
10
-2
20
5.25109264883253
30
0
41
1
10
-2
20
4.55854550233684
30
0
41
1
10
-2
20
3.90758262960779
30
0
41
1
10
-2
20
3.29948777527221
30
0
41
1
10
-2
20
2.73375387844547
30
0
41
1
10
-2
20
2.20813463136872
30
0
41
1
10
-2
20
1.71876156390923
30
0
41
1
10
-2
20
1.26029526086333
30
0
41
1
10
-2
20
0.826158476850765
30
0
41
1
10
-2
20
0.408799134273892
30
0
41
1
10
-2
20
2.402494488E-07
30
0
41
1
10
-2
20
-0.408799553455736
30
0
41
1
10
-2
20
-0.82615842677356
30
0
41
1
10
-2
20
-1.26029551010325
30
0
41
1
10
-2
20
-1.71876142586774
30
0
41
1
10
-2
20
-2.20813448047156
30
0
41
1
10
-2
20
-2.7337537633878
30
0
41
1
10
-2
20
-3.29948825001514
30
0
41
1
10
-2
20
-3.90758266192117
30
0
41
1
10
-2
20
-4.55854530449344
30
0
41
1
10
-2
20
-5.25109273249788
30
0
41
1
10
-2
20
-5.98219146197602
30
0
41
1
10
-2
20
-6.74713361247495
30
0
41
1
10
-2
20
-7.53968849279406
30
0
41
1
10
-2
20
-8.35230648563552
30
0
41
1
10
-2
20
-9.17636769820604
30
0
41
1
10
-2
20
-10.0024728331477
30
0
41
1
10
-2
20
-10.8207538150476
30
0
41
1
10
-2
20
-11.6212070931939
30
0
41
1
10
-2
20
-12.3940190774915
30
0
41
1
10
-2
20
-13.1298916243886
30
0
41
1
10
-2
20
-13.8203332490725
30
0
41
1
10
-2
20
-14.4579281585871
30
0
41
1
10
-2
20
-15.0365497976464
30
0
41
1
10
-2
20
-15.5515337877379
30
0
41
1
10
-2
20
-15.9997825456108
30
0
41
1
10
-2
20
-16.379817481596
30
0
41
1
10
-2
20
-16.6917603323907
30
0
41
1
10
-2
20
-16.9372586651848
30
0
41
1
10
-2
20
-17.1193485969266
30
0
41
1
10
-2
20
-17.2422669751987
30
0
41
1
10
-2
20
-17.3112199736996
30
0
41
1
10
-2
20
-17.3321088799281
30
0
41
1
10
-2
20
-17.3112453434672
30
0
41
1
10
-2
20
-17.2550397180126
30
0
41
1
10
-2
20
-17.1831802766266
30
0
41
1
10
-2
20
-17.1306742506466
30
0
41
1
10
-2
20
-17.1116151100673
30
0
0
SPLINE
5
110
100
AcDbEntity
8
1
62
256
6
ByLayer
370
-1
48
1
60
0
100
AcDbSpline
70
4
71
3
72
18
73
14
40
0
40
0
40
0
40
0
40
0.205361784934566
40
0.205361784934566
40
0.380752218672147
40
0.380752218672147
40
0.557907668224735
40
0.557907668224735
40
0.711137164815683
40
0.711137164815683
40
0.912745438779964
40
0.912745438779964
40
1
40
1
40
1
40
1
41
1
10
82.9916472653345
20
11.4731924565294
30
0
41
1
10
83.0257096437625
20
11.4111266758534
30
0
41
1
10
83.0699145853341
20
11.3525206208732
30
0
41
1
10
83.1686611914454
20
11.2584680625462
30
0
41
1
10
83.2219970807112
20
11.219951235843
30
0
41
1
10
83.3388315130235
20
11.1603360351679
30
0
41
1
10
83.404272585342
20
11.1387265434072
30
0
41
1
10
83.5264360366517
20
11.1188228129715
30
0
41
1
10
83.5845863925513
20
11.1174417688177
30
0
41
1
10
83.7128168352498
20
11.1306747580562
30
0
41
1
10
83.7830964161036
20
11.1504344086977
30
0
41
1
10
83.8746162104785
20
11.191577197651
30
0
41
1
10
83.9014663832515
20
11.2058695284293
30
0
41
1
10
83.9271177948656
20
11.2216932864685
30
0
0
SPLINE
5
111
100
AcDbEntity
8
1
62
256
6
ByLayer
370
-1
48
1
60
0
100
AcDbSpline
70
4
71
3
72
18
73
14
40
0
40
0
40
0
40
0
40
0.0330518444002201
40
0.0330518444002201
40
0.256551710887967
40
0.256551710887967
40
0.481124949327861
40
0.481124949327861
40
0.718756003702342
40
0.718756003702342
40
0.97893027589583
40
0.97893027589583
40
1
40
1
40
1
40
1
41
1
10
84.7152081686438
20
9.57385564121958
30
0
41
1
10
84.7163430864397
20
9.57812956097368
30
0
41
1
10
84.7173802365154
20
9.58242683444524
30
0
41
1
10
84.724593821669
20
9.61560961236543
30
0
41
1
10
84.7263576117031
20
9.64562194993522
30
0
41
1
10
84.7209027310307
20
9.7031814610915
30
0
41
1
10
84.713593309285
20
9.73145390333173
30
0
41
1
10
84.6909747731483
20
9.7843456301365
30
0
41
1
10
84.6749705522983
20
9.80933234298737
30
0
41
1
10
84.6354909066977
20
9.85397438181272
30
0
41
1
10
84.6109823840203
20
9.87348297437362
30
0
41
1
10
84.5824584435042
20
9.88946086527338
30
0
41
1
10
84.5802857840957
20
9.89063997325408
30
0
41
1
10
84.5780996794441
20
9.89178898018142
30
0
0
SPLINE
5
112
100
AcDbEntity
8
1
62
256
6
ByLayer
370
-1
48
1
60
0
100
AcDbSpline
70
4
71
3
72
12
73
8
40
0
40
0
40
0
40
0
40
0.30821607829163
40
0.30821607829163
40
0.773498116591282
40
0.773498116591282
40
1
40
1
40
1
40
1
41
1
10
82.3001665929867
20
10.8878473028074
30
0
41
1
10
82.330895913504
20
10.9274018091072
30
0
41
1
10
82.3571945831229
20
10.9706360213319
30
0
41
1
10
82.4097441283243
20
11.0818253297751
30
0
41
1
10
82.430143964702
20
11.1529272824279
30
0
41
1
10
82.4446174480163
20
11.2573295920876
30
0
41
1
10
82.4468993254671
20
11.2918178543974
30
0
41
1
10
82.4468173124643
20
11.3259649079903
30
0
0
SPLINE
5
113
100
AcDbEntity
8
1
62
256
6
ByLayer
370
-1
48
1
60
0
100
AcDbSpline
70
4
71
3
72
18
73
14
40
0
40
0
40
0
40
0
40
0.205313076973711
40
0.205313076973711
40
0.380712238966451
40
0.380712238966451
40
0.557876985195572
40
0.557876985195572
40
0.711108446262449
40
0.711108446262449
40
0.912708279684535
40
0.912708279684535
40
1
40
1
40
1
40
1
41
1
10
84.3257981617706
20
10.8242817331384
30
0
41
1
10
84.2914465493679
20
10.7621539033054
30
0
41
1
10
84.2650651131714
20
10.693113518597
30
0
41
1
10
84.2364863248264
20
10.5584860497912
30
0
41
1
10
84.2311627610392
20
10.492299912905
30
0
41
1
10
84.2396995083822
20
10.3606311816452
30
0
41
1
10
84.2540841310921
20
10.2932239942126
30
0
41
1
10
84.2975558163775
20
10.178421543305
30
0
41
1
10
84.324834032792
20
10.1281404286018
30
0
41
1
10
84.3983356129202
20
10.0259721089601
30
0
41
1
10
84.4488856627399
20
9.97665908531621
30
0
41
1
10
84.5275394131194
20
9.92055301833383
30
0
41
1
10
84.5524704876306
20
9.90525956994117
30
0
41
1
10
84.578099679444
20
9.89178898018142
30
0
0
SPLINE
5
114
100
AcDbEntity
8
1
62
256
6
ByLayer
370
-1
48
1
60
0
100
AcDbSpline
70
4
71
3
72
16
73
12
40
0
40
0
40
0
40
0
40
0.0438869497865816
40
0.0438869497865816
40
0.267049744144958
40
0.267049744144958
40
0.491915196407124
40
0.491915196407124
40
0.730345629454179
40
0.730345629454179
40
1
40
1
40
1
40
1
41
1
10
81.9094455583419
20
8.82099357139398
30
0
41
1
10
81.913607947702
20
8.81684442897694
30
0
41
1
10
81.9178980008803
20
8.81281169793422
30
0
41
1
10
81.9444965365694
20
8.78923491250592
30
0
41
1
10
81.9700071641442
20
8.77264771557861
30
0
41
1
10
82.0235480747842
20
8.74792935642554
30
0
41
1
10
82.0522699013051
20
8.73952812890747
30
0
41
1
10
82.1107004322494
20
8.73101098454666
30
0
41
1
10
82.141092576398
20
8.73128815306981
30
0
41
1
10
82.202072182349
20
8.74069750982159
30
0
41
1
10
82.2329875804621
20
8.75106783966368
30
0
41
1
10
82.2604530662172
20
8.76551335792524
30
0
0
SPLINE
5
115
100
AcDbEntity
8
1
62
256
6
ByLayer
370
-1
48
1
60
0
100
AcDbSpline
70
4
71
3
72
16
73
12
40
0
40
0
40
0
40
0
40
0.0557021013967215
40
0.0557021013967215
40
0.278655044857435
40
0.278655044857435
40
0.503990280278853
40
0.503990280278853
40
0.743443931231292
40
0.743443931231292
40
1
40
1
40
1
40
1
41
1
10
81.4738883558879
20
10.4307894161911
30
0
41
1
10
81.4719800298213
20
10.423602964007
30
0
41
1
10
81.4703459039415
20
10.4163259402526
30
0
41
1
10
81.463623988557
20
10.3798823521227
30
0
41
1
10
81.462754944791
20
10.3494527354773
30
0
41
1
10
81.4698084810512
20
10.2905512280129
30
0
41
1
10
81.477891827028
20
10.2613510654945
30
0
41
1
10
81.5019463321329
20
10.2061669867597
30
0
41
1
10
81.518652314812
20
10.1797956092178
30
0
41
1
10
81.5589245355739
20
10.1326296700667
30
0
41
1
10
81.5833523050498
20
10.1117748287997
30
0
41
1
10
81.6094711816387
20
10.0954176642124
30
0
0
SPLINE
5
116
100
AcDbEntity
8
1
62
256
6
ByLayer
370
-1
48
1
60
0
100
AcDbSpline
70
4
71
3
72
18
73
14
40
0
40
0
40
0
40
0
40
0.211216213381139
40
0.211216213381139
40
0.385555920790874
40
0.385555920790874
40
0.56159189857518
40
0.56159189857518
40
0.714590525971062
40
0.714590525971062
40
0.917216215293837
40
0.917216215293837
40
1
40
1
40
1
40
1
41
1
10
83.1959235957477
20
8.51401418786548
30
0
41
1
10
83.1603752087588
20
8.57199804303832
30
0
41
1
10
83.1140943323016
20
8.62667619393039
30
0
41
1
10
83.012363493874
20
8.71298906742192
30
0
41
1
10
82.9586675072802
20
8.74785204358932
30
0
41
1
10
82.8416478966275
20
8.80269968466476
30
0
41
1
10
82.7764159460557
20
8.82320386534639
30
0
41
1
10
82.6548212503493
20
8.84400240552273
30
0
41
1
10
82.5969777431085
20
8.84691157230148
30
0
41
1
10
82.4691943322473
20
8.83896256944897
30
0
41
1
10
82.3991780458138
20
8.82341226740112
30
0
41
1
10
82.3097794293043
20
8.78957100927553
30
0
41
1
10
82.2845759522523
20
8.77820083026239
30
0
41
1
10
82.2604530662172
20
8.76551335792524
30
0
0
SPLINE
5
117
100
AcDbEntity
8
1
62
256
6
ByLayer
370
-1
48
1
60
0
100
AcDbSpline
70
4
71
3
72
20
73
16
40
0
40
0
40
0
40
0
40
0.0720793241817395
40
0.0720793241817395
40
0.275219622276405
40
0.275219622276405
40
0.438594429252249
40
0.438594429252249
40
0.602901953198453
40
0.602901953198453
40
0.755111302581563
40
0.755111302581563
40
0.969423102626909
40
0.969423102626909
40
1
40
1
40
1
40
1
41
1
10
81.8617726993121
20
9.16292491125526
30
0
41
1
10
81.8737152435194
20
9.18283378708111
30
0
41
1
10
81.8846433543785
20
9.20356680779855
30
0
41
1
10
81.9219044339885
20
9.28521564652081
30
0
41
1
10
81.9408124011654
20
9.35238201120532
30
0
41
1
10
81.9540571235443
20
9.4799272636599
30
0
41
1
10
81.9524613774306
20
9.54050772304859
30
0
41
1
10
81.9325969234544
20
9.66044802261513
30
0
41
1
10
81.9138799806763
20
9.72137839184279
30
0
41
1
10
81.8645507549056
20
9.82955790867462
30
0
41
1
10
81.8344339054851
20
9.87878813437487
30
0
41
1
10
81.7528135757716
20
9.98395427867681
30
0
41
1
10
81.6963131397777
20
10.0364743738998
30
0
41
1
10
81.6272042847567
20
10.0840436153911
30
0
41
1
10
81.6183822632004
20
10.0898370249664
30
0
41
1
10
81.6094711816387
20
10.0954176642124
30
0
0
SPLINE
5
118
100
AcDbEntity
8
1
62
256
6
ByLayer
370
-1
48
1
60
0
100
AcDbSpline
70
4
71
3
72
12
73
8
40
0
40
0
40
0
40
0
40
0.320848472314519
40
0.320848472314519
40
0.789252830698947
40
0.789252830698947
40
1
40
1
40
1
40
1
41
1
10
83.8851298462248
20
9.07336258063677
30
0
41
1
10
83.8531750564517
20
9.03303797379911
30
0
41
1
10
83.8261116793652
20
8.98955627071459
30
0
41
1
10
83.7740149225328
20
8.8813723905896
30
0
41
1
10
83.7545998360495
20
8.81432518937856
30
0
41
1
10
83.7421644108686
20
8.71946646679328
30
0
41
1
10
83.7404310790325
20
8.69003669863474
30
0
41
1
10
83.7407291930755
20
8.66096335127276
30
0
0
SPLINE
5
119
100
AcDbEntity
8
1
62
256
6
ByLayer
370
-1
48
1
60
0
100
AcDbSpline
70
4
71
3
72
14
73
10
40
0
40
0
40
0
40
0
40
0.279639992593294
40
0.279639992593294
40
0.566506195664963
40
0.566506195664963
40
0.82610877462519
40
0.82610877462519
40
1
40
1
40
1
40
1
41
1
10
82.9916472653345
20
11.4731924565294
30
0
41
1
10
82.9752503922922
20
11.5030695459454
30
0
41
1
10
82.9533723865104
20
11.5309015369842
30
0
41
1
10
82.9004421089801
20
11.5778389589241
30
0
41
1
10
82.8682992476039
20
11.597380178696
30
0
41
1
10
82.8021721907399
20
11.6214447130729
30
0
41
1
10
82.7676341433977
20
11.6275237944923
30
0
41
1
10
82.710409910955
20
11.6268733801991
30
0
41
1
10
82.6871126713546
20
11.6237334643993
30
0
41
1
10
82.6647144783793
20
11.6178235668719
30
0
0
SPLINE
5
11A
100
AcDbEntity
8
1
62
256
6
ByLayer
370
-1
48
1
60
0
100
AcDbSpline
70
4
71
3
72
14
73
10
40
0
40
0
40
0
40
0
40
0.280463705048956
40
0.280463705048956
40
0.565409700113561
40
0.565409700113561
40
0.823204885402384
40
0.823204885402384
40
1
40
1
40
1
40
1
41
1
10
81.7570175885767
20
10.6383617273758
30
0
41
1
10
81.7237513152417
20
10.6399590221728
30
0
41
1
10
81.6894125653411
20
10.6356486209904
30
0
41
1
10
81.6238406229566
20
10.6144323074339
30
0
41
1
10
81.5916678213314
20
10.5969348408071
30
0
41
1
10
81.5389660213316
20
10.5525433538911
30
0
41
1
10
81.5168625404056
20
10.5259841569658
30
0
41
1
10
81.4889662326523
20
10.4759378445755
30
0
41
1
10
81.4799718255858
20
10.4536987946577
30
0
41
1
10
81.4738883558879
20
10.4307894161911
30
0
0
SPLINE
5
11B
100
AcDbEntity
8
1
62
256
6
ByLayer
370
-1
48
1
60
0
100
AcDbSpline
70
4
71
3
72
18
73
14
40
0
40
0
40
0
40
0
40
0.0099183666493593
40
0.0099183666493593
40
0.232016388349447
40
0.232016388349447
40
0.453834495178298
40
0.453834495178298
40
0.687496265691292
40
0.687496265691292
40
0.942668704961884
40
0.942668704961884
40
1
40
1
40
1
40
1
41
1
10
83.5243820461524
20
8.38682149053881
30
0
41
1
10
83.5256843707346
20
8.3871651166892
30
0
41
1
10
83.5269843112024
20
8.38751738442429
30
0
41
1
10
83.5569558360774
20
8.39585384947827
30
0
41
1
10
83.5847132014919
20
8.40827038230788
30
0
41
1
10
83.6339267537079
20
8.43966496979579
30
0
41
1
10
83.6560329470053
20
8.45902004844476
30
0
41
1
10
83.6934176094067
20
8.50280726270708
30
0
41
1
10
83.7087611330355
20
8.52798590843648
30
0
41
1
10
83.7314842542943
20
8.5821625190072
30
0
41
1
10
83.7383185296325
20
8.61196532791914
30
0
41
1
10
83.7406198530673
20
8.6477679984884
30
0
41
1
10
83.74079668554
20
8.65438119954413
30
0
41
1
10
83.7407291930755
20
8.66096335127276
30
0
0
SPLINE
5
11C
100
AcDbEntity
8
1
62
256
6
ByLayer
370
-1
48
1
60
0
100
AcDbSpline
70
4
71
3
72
14
73
10
40
0
40
0
40
0
40
0
40
0.251920252373369
40
0.251920252373369
40
0.54931263711209
40
0.54931263711209
40
0.811207472908308
40
0.811207472908308
40
1
40
1
40
1
40
1
41
1
10
84.3257981617721
20
10.8242817331376
30
0
41
1
10
84.3406738384231
20
10.8511856669847
30
0
41
1
10
84.351925011917
20
10.8809965258615
30
0
41
1
10
84.3660436788977
20
10.9486181492911
30
0
41
1
10
84.3671381389802
20
10.9880799236703
30
0
41
1
10
84.3548653797894
20
11.0598839337974
30
0
41
1
10
84.3429565164849
20
11.0935918362565
30
0
41
1
10
84.3130716065685
20
11.1455009241388
30
0
41
1
10
84.2974581596724
20
11.1659009645218
30
0
41
1
10
84.2796509661899
20
11.1836514860167
30
0
0
SPLINE
5
11D
100
AcDbEntity
8
1
62
256
6
ByLayer
370
-1
48
1
60
0
100
AcDbSpline
70
4
71
3
72
12
73
8
40
0
40
0
40
0
40
0
40
0.494255811992914
40
0.494255811992914
40
0.899396605174916
40
0.899396605174916
40
1
40
1
40
1
40
1
41
1
10
84.4305289169624
20
9.34856653188729
30
0
41
1
10
84.3591186288256
20
9.34603429891138
30
0
41
1
10
84.2852919173139
20
9.33247315873285
30
0
41
1
10
84.154948086103
20
9.28625473678227
30
0
41
1
10
84.0962890875903
20
9.25682206555001
30
0
41
1
10
84.0289159784163
20
9.2105772350416
30
0
41
1
10
84.0156843088197
20
9.20083319151624
30
0
41
1
10
84.0027872336053
20
9.19064530920869
30
0
0
SPLINE
5
11E
100
AcDbEntity
8
1
62
256
6
ByLayer
370
-1
48
1
60
0
100
AcDbSpline
70
4
71
3
72
14
73
10
40
0
40
0
40
0
40
0
40
0.209133833802831
40
0.209133833802831
40
0.504795345123853
40
0.504795345123853
40
0.771841442583523
40
0.771841442583523
40
1
40
1
40
1
40
1
41
1
10
83.1959235957463
20
8.5140141878648
30
0
41
1
10
83.2083790457262
20
8.49369779466298
30
0
41
1
10
83.2238290708879
20
8.47450282373205
30
0
41
1
10
83.2671691799704
20
8.43335633310699
30
0
41
1
10
83.2984062314358
20
8.41290053712549
30
0
41
1
10
83.3640524098669
20
8.38622667169693
30
0
41
1
10
83.3988968851676
20
8.37847473429761
30
0
41
1
10
83.4639921629061
20
8.37575943835216
30
0
41
1
10
83.4950275727265
20
8.37907613670117
30
0
41
1
10
83.5243820461524
20
8.38682149053881
30
0
0
SPLINE
5
11F
100
AcDbEntity
8
1
62
256
6
ByLayer
370
-1
48
1
60
0
100
AcDbSpline
70
4
71
3
72
16
73
12
40
0
40
0
40
0
40
0
40
0.0593667379040782
40
0.0593667379040782
40
0.280166577295408
40
0.280166577295408
40
0.503565693109852
40
0.503565693109852
40
0.741145653852762
40
0.741145653852762
40
1
40
1
40
1
40
1
41
1
10
82.6647144783793
20
11.6178235668719
30
0
41
1
10
82.6569618219896
20
11.6157779819947
30
0
41
1
10
82.6492849658914
20
11.6133983842525
30
0
41
1
10
82.613833419011
20
11.6007352941635
30
0
41
1
10
82.5871989544755
20
11.5861328599954
30
0
41
1
10
82.540259740809
20
11.5501340476873
30
0
41
1
10
82.5194214144701
20
11.5282206195969
30
0
41
1
10
82.484711913294
20
11.4790098933359
30
0
41
1
10
82.4709064470945
20
11.4508620110933
30
0
41
1
10
82.451629332943
20
11.3907604693556
30
0
41
1
10
82.4467404733664
20
11.3579577469999
30
0
41
1
10
82.4468173124643
20
11.3259649079903
30
0
0
SPLINE
5
120
100
AcDbEntity
8
1
62
256
6
ByLayer
370
-1
48
1
60
0
100
AcDbSpline
70
4
71
3
72
14
73
10
40
0
40
0
40
0
40
0
40
0.248939597003347
40
0.248939597003347
40
0.537825814246277
40
0.537825814246277
40
0.798892729281599
40
0.798892729281599
40
1
40
1
40
1
40
1
41
1
10
84.4305289169624
20
9.34856653188714
30
0
41
1
10
84.4602833826742
20
9.34962163530741
30
0
41
1
10
84.4908215813177
20
9.35520565819746
30
0
41
1
10
84.5541445241673
20
9.37728029030922
30
0
41
1
10
84.5875099628513
20
9.39582292207464
30
0
41
1
10
84.6426604129874
20
9.44182092980898
30
0
41
1
10
84.6660504679087
20
9.46899668428682
30
0
41
1
10
84.697555646727
20
9.52230903429444
30
0
41
1
10
84.7082914686083
20
9.54780844994198
30
0
41
1
10
84.7152081686438
20
9.57385564121958
30
0
0
SPLINE
5
121
100
AcDbEntity
8
1
62
256
6
ByLayer
370
-1
48
1
60
0
100
AcDbSpline
70
4
71
3
72
14
73
10
40
0
40
0
40
0
40
0
40
0.257190320771864
40
0.257190320771864
40
0.546873826150092
40
0.546873826150092
40
0.808783456910097
40
0.808783456910097
40
1
40
1
40
1
40
1
41
1
10
81.861772699312
20
9.16292491125526
30
0
41
1
10
81.846776960408
20
9.13792619250879
30
0
41
1
10
81.835562937602
20
9.10976240992102
30
0
41
1
10
81.8223603801255
20
9.04679434025803
30
0
41
1
10
81.8215876430169
20
9.01056583142602
30
0
41
1
10
81.8337773391959
20
8.94294598072054
30
0
41
1
10
81.845677815171
20
8.91040632982168
30
0
41
1
10
81.8756349797041
20
8.85936714757406
30
0
41
1
10
81.8914291284693
20
8.8389526633772
30
0
41
1
10
81.9094455583419
20
8.82099357139398
30
0
0
SPLINE
5
122
100
AcDbEntity
8
1
62
256
6
ByLayer
370
-1
48
1
60
0
100
AcDbSpline
70
4
71
3
72
12
73
8
40
0
40
0
40
0
40
0
40
0.471960826498538
40
0.471960826498538
40
0.881014188385707
40
0.881014188385707
40
1
40
1
40
1
40
1
41
1
10
81.7570175885767
20
10.6383617273758
30
0
41
1
10
81.8247246599145
20
10.6351107424613
30
0
41
1
10
81.8946022225469
20
10.6421953556853
30
0
41
1
10
82.021822448557
20
10.6773046474508
30
0
41
1
10
82.0810104777457
20
10.7029921091483
30
0
41
1
10
82.151629730767
20
10.7478990632572
30
0
41
1
10
82.1672997433035
20
10.7588652152931
30
0
41
1
10
82.182509205606
20
10.7705645742353
30
0
0
SPLINE
5
123
100
AcDbEntity
8
1
62
256
6
ByLayer
370
-1
48
1
60
0
100
AcDbSpline
70
4
71
3
72
18
73
14
40
0
40
0
40
0
40
0
40
0.0459797808583505
40
0.0459797808583505
40
0.269153084691837
40
0.269153084691837
40
0.494149341624943
40
0.494149341624943
40
0.732811643193314
40
0.732811643193314
40
0.994467785755266
40
0.994467785755266
40
1
40
1
40
1
40
1
41
1
10
84.2796509661899
20
11.1836514860167
30
0
41
1
10
84.2752921688975
20
11.1879964112913
30
0
41
1
10
84.2707919338052
20
11.1921988734669
30
0
41
1
10
84.2439085559611
20
11.2157097183697
30
0
41
1
10
84.2183174100315
20
11.2317233191755
30
0
41
1
10
84.1645764310829
20
11.2546708004504
30
0
41
1
10
84.1357312968042
20
11.2618434172292
30
0
41
1
10
84.0770177132946
20
11.2673279360581
30
0
41
1
10
84.0464616220266
20
11.2651756742539
30
0
41
1
10
83.9860894055217
20
11.2515998589831
30
0
41
1
10
83.9558627208191
20
11.23916797256
30
0
41
1
10
83.9282690686429
20
11.222400817042
30
0
41
1
10
83.9276927824473
20
11.222047982908
30
0
41
1
10
83.9271177948655
20
11.2216932864685
30
0
0
LINE
5
49
100
AcDbEntity
8
80
62
256
6
ByLayer
370
-1
48
1
60
0
100
AcDbLine
10
0
20
0
30
0
11
-10
21
0
31
0
39
0
210
0
220
0
230
1
0
LINE
5
4A
100
AcDbEntity
8
81
62
256
6
ByLayer
370
-1
48
1
60
0
100
AcDbLine
10
90
20
16.9
30
0
11
100
21
16.9
31
0
39
0
210
0
220
0
230
1
0
LINE
5
4B
100
AcDbEntity
8
SK4
62
256
6
ByLayer
370
-1
48
0.05
60
0
100
AcDbLine
10
-35
20
0
30
0
11
95.251107
21
0
31
0
39
0
210
0
220
0
230
1
0
LINE
5
4D
100
AcDbEntity
8
4
62
256
6
ByLayer
370
-1
48
0.05
60
0
100
AcDbLine
10
0
20
0
30
0
11
125.251107
21
0
31
0
39
0
210
0
220
0
230
1
0
LINE
5
4F
100
AcDbEntity
8
1
62
256
6
ByLayer
370
-1
48
1
60
0
100
AcDbLine
10
19.5
20
-25
30
0
11
21.620323
21
-16.968472
31
0
39
0
210
0
220
0
230
1
0
LINE
5
50
100
AcDbEntity
8
1
62
256
6
ByLayer
370
-1
48
1
60
0
100
AcDbLine
10
21.620323
20
16.968472
30
0
11
19.5
21
25
31
0
39
0
210
0
220
0
230
1
0
LINE
5
51
100
AcDbEntity
8
1
62
256
6
ByLayer
370
-1
48
1
60
0
100
AcDbLine
10
19.5
20
25
30
0
11
0.3
21
25
31
0
39
0
210
0
220
0
230
1
0
LINE
5
52
100
AcDbEntity
8
1
62
256
6
ByLayer
370
-1
48
1
60
0
100
AcDbLine
10
0.3
20
-25
30
0
11
19.5
21
-25
31
0
39
0
210
0
220
0
230
1
0
LINE
5
53
100
AcDbEntity
8
1
62
256
6
ByLayer
370
-1
48
1
60
0
100
AcDbLine
10
0.3
20
25
30
0
11
0
21
24.7
31
0
39
0
210
0
220
0
230
1
0
LINE
5
54
100
AcDbEntity
8
1
62
256
6
ByLayer
370
-1
48
1
60
0
100
AcDbLine
10
0
20
-24.7
30
0
11
0.3
21
-25
31
0
39
0
210
0
220
0
230
1
0
LINE
5
55
100
AcDbEntity
8
1
62
256
6
ByLayer
370
-1
48
1
60
0
100
AcDbLine
10
52.734235
20
12.5
30
0
11
27.421567
21
12.5
31
0
39
0
210
0
220
0
230
1
0
LINE
5
56
100
AcDbEntity
8
1
62
256
6
ByLayer
370
-1
48
1
60
0
100
AcDbLine
10
27.421567
20
-12.5
30
0
11
50.734235
21
-12.5
31
0
39
0
210
0
220
0
230
1
0
LINE
5
57
100
AcDbEntity
8
1
62
256
6
ByLayer
370
-1
48
1
60
0
100
AcDbLine
10
73.841412
20
0.981991
30
0
11
73.878431
21
1.40512
31
0
39
0
210
0
220
0
230
1
0
LINE
5
58
100
AcDbEntity
8
1
62
256
6
ByLayer
370
-1
48
1
60
0
100
AcDbLine
10
53.093229
20
12.770522
30
0
11
52.734235
21
12.5
31
0
39
0
210
0
220
0
230
1
0
LINE
5
59
100
AcDbEntity
8
1
62
256
6
ByLayer
370
-1
48
1
60
0
100
AcDbLine
10
83.743087
20
8.72202
30
0
11
83.733543
21
8.612928
31
0
39
0
210
0
220
0
230
1
0
LINE
5
5A
100
AcDbEntity
8
1
62
256
6
ByLayer
370
-1
48
1
60
0
100
AcDbLine
10
81.936437
20
9.288191
30
0
11
81.949157
21
9.433573
31
0
39
0
210
0
220
0
230
1
0
LINE
5
5B
100
AcDbEntity
8
1
62
256
6
ByLayer
370
-1
48
1
60
0
100
AcDbLine
10
84.236697
20
10.533999
30
0
11
84.223951
21
10.388315
31
0
39
0
210
0
220
0
230
1
0
LINE
5
5C
100
AcDbEntity
8
1
62
256
6
ByLayer
370
-1
48
1
60
0
100
AcDbLine
10
86.495312
20
9.57576
30
0
11
86.503702
21
9.67166
31
0
39
0
210
0
220
0
230
1
0
LINE
5
5D
100
AcDbEntity
8
1
62
256
6
ByLayer
370
-1
48
1
60
0
100
AcDbLine
10
79.679768
20
10.268677
30
0
11
79.671378
21
10.172777
31
0
39
0
210
0
220
0
230
1
0
LINE
5
5E
100
AcDbEntity
8
1
62
256
6
ByLayer
370
-1
48
1
60
0
100
AcDbLine
10
82.430657
20
11.107148
30
0
11
82.444015
21
11.259821
31
0
39
0
210
0
220
0
230
1
0
LINE
5
5F
100
AcDbEntity
8
1
62
256
6
ByLayer
370
-1
48
1
60
0
100
AcDbLine
10
8.538675
20
-23.83913
30
0
11
8.538675
21
-7.529667
31
0
39
0
210
0
220
0
230
1
0
LINE
5
60
100
AcDbEntity
8
1
62
256
6
ByLayer
370
-1
48
1
60
0
100
AcDbLine
10
27.421567
20
12.5
30
0
11
27.421567
21
-12.5
31
0
39
0
210
0
220
0
230
1
0
LINE
5
61
100
AcDbEntity
8
1
62
256
6
ByLayer
370
-1
48
1
60
0
100
AcDbLine
10
71.717906
20
-5.983237
30
0
11
88.085159
21
-0.900166
31
0
39
0
210
0
220
0
230
1
0
LINE
5
62
100
AcDbEntity
8
1
62
256
6
ByLayer
370
-1
48
1
60
0
100
AcDbLine
10
88.527705
20
4.158158
30
0
11
88.085159
21
-0.900166
31
0
39
0
210
0
220
0
230
1
0
LINE
5
63
100
AcDbEntity
8
1
62
256
6
ByLayer
370
-1
48
1
60
0
100
AcDbLine
10
55.613998
20
11.522252
30
0
11
53.741205
21
12.828906
31
0
39
0
210
0
220
0
230
1
0
LINE
5
64
100
AcDbEntity
8
1
62
256
6
ByLayer
370
-1
48
1
60
0
100
AcDbLine
10
8.105662
20
-23.666502
30
0
11
8.105662
21
-8.055848
31
0
39
0
210
0
220
0
230
1
0
LINE
5
65
100
AcDbEntity
8
1
62
256
6
ByLayer
370
-1
48
1
60
0
100
AcDbLine
10
75.556732
20
4.622185
30
0
11
75.575637
21
4.838276
31
0
39
0
210
0
220
0
230
1
0
LINE
5
66
100
AcDbEntity
8
1
62
256
6
ByLayer
370
-1
48
1
60
0
100
AcDbLine
10
11.894338
20
-23.666502
30
0
11
11.894338
21
-8.055848
31
0
39
0
210
0
220
0
230
1
0
LINE
5
67
100
AcDbEntity
8
1
62
256
6
ByLayer
370
-1
48
1
60
0
100
AcDbLine
10
75.557708
20
4.633258
30
0
11
75.576613
21
4.849349
31
0
39
0
210
0
220
0
230
1
0
LINE
5
68
100
AcDbEntity
8
1
62
256
6
ByLayer
370
-1
48
1
60
0
100
AcDbLine
10
50.734235
20
-12.5
30
0
11
52.734235
21
-11.878873
31
0
39
0
210
0
220
0
230
1
0
LINE
5
69
100
AcDbEntity
8
1
62
256
6
ByLayer
370
-1
48
1
60
0
100
AcDbLine
10
68.462244
20
9.971948
30
0
11
60.547508
21
9.971948
31
0
39
0
210
0
220
0
230
1
0
LINE
5
6A
100
AcDbEntity
8
1
62
256
6
ByLayer
370
-1
48
1
60
0
100
AcDbLine
10
69.857117
20
8.238858
30
0
11
73.625758
21
2.40874
31
0
39
0
210
0
220
0
230
1
0
LINE
5
6B
100
AcDbEntity
8
1
62
256
6
ByLayer
370
-1
48
1
60
0
100
AcDbLine
10
8.538675
20
7.529667
30
0
11
8.538675
21
23.83913
31
0
39
0
210
0
220
0
230
1
0
LINE
5
6C
100
AcDbEntity
8
1
62
256
6
ByLayer
370
-1
48
1
60
0
100
AcDbLine
10
75.419899
20
5.029893
30
0
11
75.580358
21
4.890102
31
0
39
0
210
0
220
0
230
1
0
LINE
5
6D
100
AcDbEntity
8
1
62
256
6
ByLayer
370
-1
48
1
60
0
100
AcDbLine
10
75.561453
20
4.67401
30
0
11
75.580358
21
4.890102
31
0
39
0
210
0
220
0
230
1
0
LINE
5
6E
100
AcDbEntity
8
1
62
256
6
ByLayer
370
-1
48
1
60
0
100
AcDbLine
10
88.527705
20
4.158158
30
0
11
88.478193
21
4.153854
31
0
39
0
210
0
220
0
230
1
0
LINE
5
6F
100
AcDbEntity
8
1
62
256
6
ByLayer
370
-1
48
1
60
0
100
AcDbLine
10
8.538675
20
23.83913
30
0
11
11.461325
21
23.83913
31
0
39
0
210
0
220
0
230
1
0
LINE
5
70
100
AcDbEntity
8
1
62
256
6
ByLayer
370
-1
48
1
60
0
100
AcDbLine
10
11.461325
20
7.529667
30
0
11
8.538675
21
7.529667
31
0
39
0
210
0
220
0
230
1
0
LINE
5
71
100
AcDbEntity
8
1
62
256
6
ByLayer
370
-1
48
1
60
0
100
AcDbLine
10
21.620323
20
-16.968472
30
0
11
21.620323
21
16.968472
31
0
39
0
210
0
220
0
230
1
0
LINE
5
72
100
AcDbEntity
8
1
62
256
6
ByLayer
370
-1
48
1
60
0
100
AcDbLine
10
52.866939
20
11.843523
30
0
11
52.866939
21
-11.83766
31
0
39
0
210
0
220
0
230
1
0
LINE
5
73
100
AcDbEntity
8
1
62
256
6
ByLayer
370
-1
48
1
60
0
100
AcDbLine
10
68.937715
20
-6.846663
30
0
11
69.321198
21
-6.727567
31
0
39
0
210
0
220
0
230
1
0
LINE
5
74
100
AcDbEntity
8
1
62
256
6
ByLayer
370
-1
48
1
60
0
100
AcDbLine
10
8.105662
20
8.055848
30
0
11
8.105662
21
23.666502
31
0
39
0
210
0
220
0
230
1
0
LINE
5
75
100
AcDbEntity
8
1
62
256
6
ByLayer
370
-1
48
1
60
0
100
AcDbLine
10
11.894338
20
8.055848
30
0
11
11.894338
21
23.666502
31
0
39
0
210
0
220
0
230
1
0
LINE
5
76
100
AcDbEntity
8
1
62
256
6
ByLayer
370
-1
48
1
60
0
100
AcDbLine
10
52.734235
20
12.5
30
0
11
52.734235
21
12.494756
31
0
39
0
210
0
220
0
230
1
0
LINE
5
77
100
AcDbEntity
8
1
62
256
6
ByLayer
370
-1
48
1
60
0
100
AcDbLine
10
75.580358
20
4.890102
30
0
11
75.576613
21
4.849349
31
0
39
0
210
0
220
0
230
1
0
LINE
5
78
100
AcDbEntity
8
1
62
256
6
ByLayer
370
-1
48
1
60
0
100
AcDbLine
10
11.461325
20
7.529667
30
0
11
11.461325
21
23.83913
31
0
39
0
210
0
220
0
230
1
0
LINE
5
79
100
AcDbEntity
8
1
62
256
6
ByLayer
370
-1
48
1
60
0
100
AcDbLine
10
52.734235
20
11.897058
30
0
11
52.734235
21
-11.878873
31
0
39
0
210
0
220
0
230
1
0
LINE
5
7A
100
AcDbEntity
8
1
62
256
6
ByLayer
370
-1
48
1
60
0
100
AcDbLine
10
8.538675
20
-7.529667
30
0
11
11.461325
21
-7.529667
31
0
39
0
210
0
220
0
230
1
0
LINE
5
7B
100
AcDbEntity
8
1
62
256
6
ByLayer
370
-1
48
1
60
0
100
AcDbLine
10
0.3
20
-25
30
0
11
0.3
21
25
31
0
39
0
210
0
220
0
230
1
0
LINE
5
7C
100
AcDbEntity
8
1
62
256
6
ByLayer
370
-1
48
1
60
0
100
AcDbLine
10
73.613716
20
0.290661
30
0
11
69.321198
21
-6.727567
31
0
39
0
210
0
220
0
230
1
0
LINE
5
7D
100
AcDbEntity
8
1
62
256
6
ByLayer
370
-1
48
1
60
0
100
AcDbLine
10
88.502753
20
4.16249
30
0
11
88.527705
21
4.158158
31
0
39
0
210
0
220
0
230
1
0
LINE
5
7E
100
AcDbEntity
8
1
62
256
6
ByLayer
370
-1
48
1
60
0
100
AcDbLine
10
74.919488
20
2.729887
30
0
11
71.147234
21
8.518714
31
0
39
0
210
0
220
0
230
1
0
LINE
5
7F
100
AcDbEntity
8
1
62
256
6
ByLayer
370
-1
48
1
60
0
100
AcDbLine
10
75.561453
20
4.67401
30
0
11
75.557708
21
4.633258
31
0
39
0
210
0
220
0
230
1
0
LINE
5
80
100
AcDbEntity
8
1
62
256
6
ByLayer
370
-1
48
1
60
0
100
AcDbLine
10
11.461325
20
-23.83913
30
0
11
11.461325
21
-7.529667
31
0
39
0
210
0
220
0
230
1
0
LINE
5
81
100
AcDbEntity
8
1
62
256
6
ByLayer
370
-1
48
1
60
0
100
AcDbLine
10
68.937715
20
-6.846663
30
0
11
52.866939
21
-11.83766
31
0
39
0
210
0
220
0
230
1
0
LINE
5
82
100
AcDbEntity
8
1
62
256
6
ByLayer
370
-1
48
1
60
0
100
AcDbLine
10
71.717906
20
-5.983237
30
0
11
74.968728
21
-0.668173
31
0
39
0
210
0
220
0
230
1
0
LINE
5
83
100
AcDbEntity
8
1
62
256
6
ByLayer
370
-1
48
1
60
0
100
AcDbLine
10
75.416153
20
4.989141
30
0
11
75.419899
21
5.029893
31
0
39
0
210
0
220
0
230
1
0
LINE
5
84
100
AcDbEntity
8
1
62
256
6
ByLayer
370
-1
48
1
60
0
100
AcDbLine
10
75.416153
20
4.989141
30
0
11
75.576613
21
4.849349
31
0
39
0
210
0
220
0
230
1
0
LINE
5
85
100
AcDbEntity
8
1
62
256
6
ByLayer
370
-1
48
1
60
0
100
AcDbLine
10
19.5
20
-25
30
0
11
19.5
21
25
31
0
39
0
210
0
220
0
230
1
0
LINE
5
86
100
AcDbEntity
8
1
62
256
6
ByLayer
370
-1
48
1
60
0
100
AcDbLine
10
73.651957
20
0.727756
30
0
11
69.379468
21
-6.089024
31
0
39
0
210
0
220
0
230
1
0
LINE
5
87
100
AcDbEntity
8
1
62
256
6
ByLayer
370
-1
48
1
60
0
100
AcDbLine
10
66.418003
20
9.05351
30
0
11
68.517194
21
8.994873
31
0
39
0
210
0
220
0
230
1
0
LINE
5
88
100
AcDbEntity
8
1
62
256
6
ByLayer
370
-1
48
1
60
0
100
AcDbLine
10
71.717906
20
-5.983237
30
0
11
69.321198
21
-6.727567
31
0
39
0
210
0
220
0
230
1
0
LINE
5
89
100
AcDbEntity
8
1
62
256
6
ByLayer
370
-1
48
1
60
0
100
AcDbLine
10
0
20
-24.7
30
0
11
0
21
24.7
31
0
39
0
210
0
220
0
230
1
0
LINE
5
8A
100
AcDbEntity
8
1
62
256
6
ByLayer
370
-1
48
1
60
0
100
AcDbLine
10
11.461325
20
-23.83913
30
0
11
8.538675
21
-23.83913
31
0
39
0
210
0
220
0
230
1
0
LINE
5
8B
100
AcDbEntity
8
1
62
256
6
ByLayer
370
-1
48
1
60
0
100
AcDbLine
10
77.1455
20
14.86348
30
0
11
53.741205
21
12.828906
31
0
39
0
210
0
220
0
230
1
0
LINE
5
8C
100
AcDbEntity
8
1
62
256
6
ByLayer
370
-1
48
1
60
0
100
AcDbLine
10
73.651957
20
0.727756
30
0
11
73.613716
21
0.290661
31
0
39
0
210
0
220
0
230
1
0
LINE
5
8D
100
AcDbEntity
8
SK1
62
256
6
ByLayer
370
-1
48
1
60
0
100
AcDbLine
10
-30
20
-15.939791
30
0
11
-30
21
15.941288
31
0
39
0
210
0
220
0
230
1
0
LINE
5
8F
100
AcDbEntity
8
SK1
62
256
6
ByLayer
370
-1
48
1
60
0
100
AcDbLine
10
-0.4
20
17.32515
30
0
11
-0.4
21
5.168667
31
0
39
0
210
0
220
0
230
1
0
LINE
5
90
100
AcDbEntity
8
SK1
62
256
6
ByLayer
370
-1
48
1
60
0
100
AcDbLine
10
-0.2
20
-5.881424
30
0
11
-0.2
21
-17.833485
31
0
39
0
210
0
220
0
230
1
0
LINE
5
91
100
AcDbEntity
8
SK1
62
256
6
ByLayer
370
-1
48
1
60
0
100
AcDbLine
10
-1.307107
20
3.804744
30
0
11
-1.307107
21
-3.804747
31
0
39
0
210
0
220
0
230
1
0
LINE
5
92
100
AcDbEntity
8
SK1
62
256
6
ByLayer
370
-1
48
1
60
0
100
AcDbLine
10
-0.2
20
17.833485
30
0
11
-0.2
21
5.881425
31
0
39
0
210
0
220
0
230
1
0
LINE
5
93
100
AcDbEntity
8
1
62
256
6
ByLayer
370
-1
48
1
60
0
100
AcDbLine
10
82.182509
20
10.770565
30
0
11
82.170055
21
10.628213
31
0
39
0
210
0
220
0
230
1
0
LINE
5
94
100
AcDbEntity
8
1
62
256
6
ByLayer
370
-1
48
1
60
0
100
AcDbLine
10
82.287712
20
10.745495
30
0
11
82.300167
21
10.887847
31
0
39
0
210
0
220
0
230
1
0
LINE
5
95
100
AcDbEntity
8
1
62
256
6
ByLayer
370
-1
48
1
60
0
100
AcDbLine
10
83.738288
20
8.633057
30
0
11
83.740729
21
8.660963
31
0
39
0
210
0
220
0
230
1
0
LINE
5
96
100
AcDbEntity
8
1
62
256
6
ByLayer
370
-1
48
1
60
0
100
AcDbLine
10
84.564508
20
9.736439
30
0
11
84.5781
21
9.891789
31
0
39
0
210
0
220
0
230
1
0
LINE
5
97
100
AcDbEntity
8
1
62
256
6
ByLayer
370
-1
48
1
60
0
100
AcDbLine
10
83.913526
20
11.066343
30
0
11
83.927118
21
11.221693
31
0
39
0
210
0
220
0
230
1
0
LINE
5
98
100
AcDbEntity
8
1
62
256
6
ByLayer
370
-1
48
1
60
0
100
AcDbLine
10
82.978056
20
11.317842
30
0
11
82.991647
21
11.473192
31
0
39
0
210
0
220
0
230
1
0
LINE
5
99
100
AcDbEntity
8
1
62
256
6
ByLayer
370
-1
48
1
60
0
100
AcDbLine
10
81.743438
20
10.48315
30
0
11
81.757018
21
10.638362
31
0
39
0
210
0
220
0
230
1
0
LINE
5
9A
100
AcDbEntity
8
1
62
256
6
ByLayer
370
-1
48
1
60
0
100
AcDbLine
10
81.848181
20
9.007574
30
0
11
81.861773
21
9.162925
31
0
39
0
210
0
220
0
230
1
0
LINE
5
9B
100
AcDbEntity
8
1
62
256
6
ByLayer
370
-1
48
1
60
0
100
AcDbLine
10
77.175084
20
15.200618
30
0
11
76.194848
21
3.996469
31
0
39
0
210
0
220
0
230
1
0
LINE
5
9C
100
AcDbEntity
8
1
62
256
6
ByLayer
370
-1
48
1
60
0
100
AcDbLine
10
89.136573
20
16.896983
30
0
11
77.896641
21
15.919877
31
0
39
0
210
0
220
0
230
1
0
LINE
5
9D
100
AcDbEntity
8
1
62
256
6
ByLayer
370
-1
48
1
60
0
100
AcDbLine
10
89.016737
20
4.835171
30
0
11
89.996973
21
16.039321
31
0
39
0
210
0
220
0
230
1
0
LINE
5
9E
100
AcDbEntity
8
1
62
256
6
ByLayer
370
-1
48
1
60
0
100
AcDbLine
10
77.055249
20
3.138807
30
0
11
88.29518
21
4.115912
31
0
39
0
210
0
220
0
230
1
0
LINE
5
9F
100
AcDbEntity
8
2
62
256
6
ByLayer
370
-1
48
1
60
1
100
AcDbLine
10
90
20
0
30
0
11
90.001
21
0.001
31
0
39
0
210
0
220
0
230
1
0
MTEXT
5
124
100
AcDbEntity
8
SK6
62
256
6
ByLayer
370
-1
48
1
60
0
100
AcDbMText
10
-1.999446
20
-35.875
30
0
210
0
220
0
230
1
1
\W00.714;\fsimplex.shx,bigfont.shx;C5-SCLCR-17090-12HP 
40
3.5
41
0
44
1.084337
50
0
71
7
72
5
7
DEFAULT
0
DIMENSION
5
158
100
AcDbEntity
8
SK2
62
256
6
ByLayer
370
-3
48
1
60
0
100
AcDbDimension
2
DimnDraft3D1
10
-42.75
20
25
30
0
11
-42.75
21
-4.784211
31
0
70
32
71
5
72
1
41
1
210
0
220
0
230
1
3
Standard
100
AcDbAlignedDimension
13
-2
23
-25
33
0
14
-2
24
25
34
0
50
90
100
AcDbRotatedDimension
1001
ACAD
1000
DSTYLE
1002
{
1070
    74
1070
     0
1070
   279
1070
     0
1070
   172
1070
     1
1070
   173
1070
     1
1070
   340
1005
125
1070
    77
1070
     1
1070
    73
1070
     0
1070
   171
1070
     4
1070
   274
1070
     4
1070
   177
1070
     2
1070
   176
1070
     2
1070
   178
1070
     7
1070
    78
1070
     8
1070
    41
1041
3.175
1070
   147
1041
2.25
1070
    42
1041
2.0
1070
    44
1041
2.0
1070
   140
1041
4.5
1070
   343
1005
159
1070
   344
1005
159
1002
}
0
DIMENSION
5
16B
100
AcDbEntity
8
2
62
256
6
ByLayer
370
-3
48
1
60
0
100
AcDbDimension
2
DimnDraft3D2
10
38.05
20
12.5
30
0
11
38.05
21
0
31
0
70
32
71
5
72
1
41
1
210
0
220
0
230
1
3
Standard
100
AcDbAlignedDimension
13
22.8
23
12.5
33
0
14
0
24
0
34
0
50
90
100
AcDbRotatedDimension
1001
ACAD
1000
DSTYLE
1002
{
1070
    74
1070
     0
1070
   279
1070
     0
1070
   172
1070
     1
1070
   173
1070
     1
1070
   340
1005
125
1070
    75
1070
     1
1070
    76
1070
     1
1070
    77
1070
     1
1070
    73
1070
     0
1070
   171
1070
     4
1070
   274
1070
     4
1070
   177
1070
     2
1070
   176
1070
     2
1070
   178
1070
     7
1070
    78
1070
     8
1070
    41
1041
3.175
1070
   147
1041
2.25
1070
    42
1041
2.0
1070
    44
1041
2.0
1070
   140
1041
4.5
1070
   343
1005
159
1070
   344
1005
159
1002
}
0
DIMENSION
5
179
100
AcDbEntity
8
2
62
256
6
ByLayer
370
-3
48
1
60
0
100
AcDbDimension
2
DimnDraft3D3
10
102.25
20
0
30
0
11
102.25
21
3.849342
31
0
70
32
71
5
72
1
41
1
210
0
220
0
230
1
3
Standard
100
AcDbAlignedDimension
13
92
23
16.9
33
0
14
92
24
0
34
0
50
90
100
AcDbRotatedDimension
1001
ACAD
1000
DSTYLE
1002
{
1070
    74
1070
     0
1070
   279
1070
     0
1070
   172
1070
     1
1070
   173
1070
     1
1070
   340
1005
125
1070
    77
1070
     1
1070
    73
1070
     0
1070
   171
1070
     4
1070
   274
1070
     4
1070
   177
1070
     2
1070
   176
1070
     2
1070
   178
1070
     7
1070
    78
1070
     8
1070
    41
1041
3.175
1070
   147
1041
2.25
1070
    42
1041
2.0
1070
    44
1041
2.0
1070
   140
1041
4.5
1070
   343
1005
159
1070
   344
1005
159
1002
}
0
DIMENSION
5
187
100
AcDbEntity
8
2
62
256
6
ByLayer
370
-3
48
1
60
0
100
AcDbDimension
2
DimnDraft3D4
10
90
20
44.65
30
0
11
39.836842
21
44.65
31
0
70
32
71
5
72
1
41
1
210
0
220
0
230
1
3
Standard
100
AcDbAlignedDimension
13
0
23
27
33
0
14
90
24
18.9
34
0
50
0
100
AcDbRotatedDimension
1001
ACAD
1000
DSTYLE
1002
{
1070
   279
1070
     0
1070
   172
1070
     1
1070
   173
1070
     1
1070
   340
1005
125
1070
    77
1070
     1
1070
    73
1070
     0
1070
   171
1070
     4
1070
   274
1070
     4
1070
   177
1070
     2
1070
   176
1070
     2
1070
   178
1070
     7
1070
    78
1070
     8
1070
    41
1041
3.175
1070
   147
1041
2.25
1070
    42
1041
2.0
1070
    44
1041
2.0
1070
   140
1041
4.5
1070
   343
1005
159
1070
   344
1005
159
1002
}
0
DIMENSION
5
195
100
AcDbEntity
8
2
62
256
6
ByLayer
370
-3
48
1
60
0
100
AcDbDimension
2
DimnDraft3D5
10
90
20
29.65
30
0
11
51.236842
21
29.65
31
0
70
32
71
5
72
1
41
1
210
0
220
0
230
1
3
Standard
100
AcDbAlignedDimension
13
22.8
23
14.5
33
0
14
90
24
18.9
34
0
50
0
100
AcDbRotatedDimension
1001
ACAD
1000
DSTYLE
1002
{
1070
   279
1070
     0
1070
   172
1070
     1
1070
   173
1070
     1
1070
   340
1005
125
1070
    77
1070
     1
1070
    73
1070
     0
1070
   171
1070
     4
1070
   274
1070
     4
1070
   177
1070
     2
1070
   176
1070
     2
1070
   178
1070
     7
1070
    78
1070
     8
1070
    41
1041
3.175
1070
   147
1041
2.25
1070
    42
1041
2.0
1070
    44
1041
2.0
1070
   140
1041
4.5
1070
   343
1005
159
1070
   344
1005
159
1002
}
0
DIMENSION
5
1A3
100
AcDbEntity
8
2
62
256
6
ByLayer
370
-3
48
1
60
0
100
AcDbDimension
2
DimnDraft3D6
10
137.447848
20
0
30
0
11
114.007152
21
-37.243123
31
0
70
34
71
5
72
1
41
1
210
0
220
0
230
1
3
Standard
100
AcDb2LineAngularDimension
13
88.77982
23
2.953274
33
0
14
84.257224
24
-48.740227
34
0
15
92
25
0
35
0
16
117.184307
26
-31.280028
36
0
40
0
0
ENDSEC
0
SECTION
2
OBJECTS
0
DICTIONARY
5
1d4
330
0
100
AcDbDictionary
280
0
281
1
3
ACAD_GROUP
350
1d5
3
ACAD_MLINESTYLE
350
1d6
0
DICTIONARY
5
1d5
330
0
100
AcDbDictionary
280
0
281
1
0
DICTIONARY
5
1d6
330
0
100
AcDbDictionary
280
0
281
1
3
Standard
350
18
0
MLINESTYLE
5
18
330
1d6
100
AcDbMlineStyle
2
Standard
70
0
3

62
256
51
90
52
90
71
2
49
-0.5
62
256
6
ByLayer
49
0.5
62
256
6
ByLayer
0
RASTERVARIABLES
5
1c2
330

100
AcDbRasterVariables
90
0
70
1
71
1
72
1
0
ENDSEC
0
EOF
